0
SECTION
2
HEADER
9
$EXTMAX
10
594.0000000000
20
420.0000000000
9
$EXTMIN
10
0.0000000000
20
0.0000000000
9
$LIMMIN
10
0.0000000000
20
0.0000000000
9
$LIMMAX
10
594.0000000000
20
420.0000000000
9
$VIEWCTR
10
297.0000000000
20
210.0000000000
9
$VIEWSIZE
40
420.0000000000
9
$CLAYER
8
0
9
$LTSCALE
40
32.6700000000
9
$CELTYPE
6
BYLAYER
9
$DIMSCALE
40
1
9
$DIMASZ
40
3.5000000000
9
$DIMEXO
40
3.7125000000
9
$DIMDLI
40
22.5720000000
9
$DIMEXE
40
10.6920000000
9
$DIMCEN
40
5.3460000000
9
$DIMLFAC
40
1.0000000000
0
ENDSEC
0
SECTION
2
TABLES
0
TABLE
2
LTYPE
70
6
0
LTYPE
2
BYBLOCK
70
0
3

72
65
73
0
40
0.0
0
LTYPE
2
BYLAYER
70
0
3

72
65
73
0
40
0.0
0
LTYPE
2
CONTINUOUS
70
64
3
Solid line
72
65
73
0
40
0
0
LTYPE
2
CENTER
70
64
3
____ _ ____ _ ____ _ ____ _ ____ _ ____ _ ____
72
65
73
4
40
0.6
49
0.375
49
-0.075
49
0.075
49
-0.075
0
LTYPE
2
HIDDEN
70
64
3
- - - - - - - - - - - - - - - - - - - -
72
65
73
2
40
0.2
49
0.1
49
-0.1
0
LTYPE
2
PHANTOM
70
64
3
_____ _ _ _____ _ _ _____ _ _ _____
72
65
73
6
40
0.8
49
0.45
49
-0.05
49
0.1
49
-0.05
49
0.1
49
-0.05
0
LTYPE
2
DOT
70
64
3
. . . . . . . . . . . . . . . . . . . .
72
65
73
2
40
0.2
49
0.1
49
-0.1
0
LTYPE
2
DASHED
70
64
3
- - - - - - - - - - - - - - - - - - - -
72
65
73
2
40
0.2
49
0.1
49
-0.1
0
ENDTAB
0
TABLE
2
LAYER
70
36
0
LAYER
2
0
70
0
62
7
6
CONTINUOUS
0
LAYER
2
DEFAULT_1
70
0
62
7
6
CENTER
0
LAYER
2
DEFAULT_2
70
0
62
8
6
HIDDEN
0
LAYER
2
DEFAULT_3
70
0
62
7
6
PHANTOM
0
LAYER
2
10000_FRONT
70
0
62
7
6
CONTINUOUS
0
LAYER
2
10100_DIM_FRONT
70
0
62
7
6
CONTINUOUS
0
LAYER
2
10300_FRONT_GERMAN_ENGLISH
70
0
62
7
6
CONTINUOUS
0
LAYER
2
11000_LEFT
70
0
62
7
6
CONTINUOUS
0
LAYER
2
11100_DIM_LEFT
70
0
62
7
6
CONTINUOUS
0
LAYER
2
11300_LEFT_GERMAN_ENGLISH
70
0
62
7
6
CONTINUOUS
0
LAYER
2
12000_RIGHT
70
0
62
7
6
CONTINUOUS
0
LAYER
2
12100_DIM_RIGHT
70
0
62
7
6
CONTINUOUS
0
LAYER
2
12300_RIGHT_GERMAN_ENGLISH
70
0
62
7
6
CONTINUOUS
0
LAYER
2
13000_TOP
70
0
62
7
6
CONTINUOUS
0
LAYER
2
13100_DIM_TOP
70
0
62
7
6
CONTINUOUS
0
LAYER
2
13300_TOP_GERMAN_ENGLISH
70
0
62
7
6
CONTINUOUS
0
LAYER
2
14000_BOTTOM
70
0
62
7
6
CONTINUOUS
0
LAYER
2
14100_DIM_BOTTOM
70
0
62
7
6
CONTINUOUS
0
LAYER
2
14300_BOTTOM_GERMAN_ENGLISH
70
0
62
7
6
CONTINUOUS
0
LAYER
2
15000_BACK
70
0
62
7
6
CONTINUOUS
0
LAYER
2
15100_DIM_BACK
70
0
62
7
6
CONTINUOUS
0
LAYER
2
15300_BACK_GERMAN_ENGLISH
70
0
62
7
6
CONTINUOUS
0
LAYER
2
20000_FRONT_O
70
0
62
7
6
CONTINUOUS
0
LAYER
2
20100_DIM_FRONT_O
70
0
62
7
6
CONTINUOUS
0
LAYER
2
20300_FRONT_O_GERMAN_ENGLISH
70
0
62
7
6
CONTINUOUS
0
LAYER
2
40000_ISO
70
0
62
7
6
CONTINUOUS
0
LAYER
2
40300_ISO_GERMAN_ENGLISH
70
0
62
7
6
CONTINUOUS
0
LAYER
2
50000_WIRING
70
0
62
7
6
CONTINUOUS
0
LAYER
2
50300_WIRING_GERMAN_ENGLISH
70
0
62
7
6
CONTINUOUS
0
LAYER
2
90000_FRAME
70
0
62
7
6
CONTINUOUS
0
LAYER
2
91000_TIP
70
0
62
7
6
CONTINUOUS
0
ENDTAB
0
ENDSEC
0
SECTION
2
BLOCKS
0
BLOCK
8
11100_DIM_LEFT
62
7
6
CONTINUOUS
2
*D0
70
65
10
0.0000000000
20
0.0000000000
0
TEXT
8
11100_DIM_LEFT
62
7
6
CONTINUOUS
10
461.1504410000
20
210.5931500000
40
3.5000000000
1
58.3
72
5
11
470.9004410000
21
210.5931500000
0
LINE
8
11100_DIM_LEFT
62
7
6
CONTINUOUS
10
497.3356130000
20
228.0205160000
11
497.3356130000
21
207.7181500000
0
LINE
8
11100_DIM_LEFT
62
7
6
CONTINUOUS
10
439.0356130000
20
244.9382350000
11
439.0356130000
21
207.7181500000
0
LINE
8
11100_DIM_LEFT
62
7
6
CONTINUOUS
10
497.3356130000
20
209.7181500000
11
468.1856130000
21
209.7181500000
0
LINE
8
11100_DIM_LEFT
62
7
6
CONTINUOUS
10
439.0356130000
20
209.7181500000
11
468.1856130000
21
209.7181500000
0
SOLID
8
11100_DIM_LEFT
62
7
6
CONTINUOUS
10
493.8356130000
20
209.2181500000
11
497.3356130000
21
209.7181500000
12
493.8356130000
22
210.2181500000
13
493.8356130000
23
210.2181500000
0
SOLID
8
11100_DIM_LEFT
62
7
6
CONTINUOUS
10
442.5356130000
20
210.2181500000
11
439.0356130000
21
209.7181500000
12
442.5356130000
22
209.2181500000
13
442.5356130000
23
209.2181500000
0
ENDBLK
8
0
0
BLOCK
8
10100_DIM_FRONT
62
7
6
CONTINUOUS
2
*D1
70
65
10
0.0000000000
20
0.0000000000
0
TEXT
8
10100_DIM_FRONT
62
7
6
CONTINUOUS
10
269.3913340000
20
208.4602170000
40
3.5000000000
1
45
72
5
11
274.6413340000
21
208.4602170000
0
LINE
8
10100_DIM_FRONT
62
7
6
CONTINUOUS
10
249.8171120000
20
227.5387250000
11
249.8171120000
21
205.5852170000
0
LINE
8
10100_DIM_FRONT
62
7
6
CONTINUOUS
10
294.8171120000
20
230.0387250000
11
294.8171120000
21
205.5852170000
0
LINE
8
10100_DIM_FRONT
62
7
6
CONTINUOUS
10
249.8171120000
20
207.5852170000
11
272.3171120000
21
207.5852170000
0
LINE
8
10100_DIM_FRONT
62
7
6
CONTINUOUS
10
294.8171120000
20
207.5852170000
11
272.3171120000
21
207.5852170000
0
SOLID
8
10100_DIM_FRONT
62
7
6
CONTINUOUS
10
253.3171120000
20
208.0852170000
11
249.8171120000
21
207.5852170000
12
253.3171120000
22
207.0852170000
13
253.3171120000
23
207.0852170000
0
SOLID
8
10100_DIM_FRONT
62
7
6
CONTINUOUS
10
291.3171120000
20
207.0852170000
11
294.8171120000
21
207.5852170000
12
291.3171120000
22
208.0852170000
13
291.3171120000
23
208.0852170000
0
ENDBLK
8
0
0
BLOCK
8
10100_DIM_FRONT
62
7
6
CONTINUOUS
2
*D2
70
65
10
0.0000000000
20
0.0000000000
0
TEXT
8
10100_DIM_FRONT
62
7
6
CONTINUOUS
10
321.3419811321
20
285.8048349057
40
3.5000000000
1
130.1
50
90.0000000000
72
5
11
321.3419811321
21
297.0548349057
0
LINE
8
10100_DIM_FRONT
62
7
6
CONTINUOUS
10
294.3171120000
20
227.0010230000
11
324.2169811321
21
227.0010230000
0
LINE
8
10100_DIM_FRONT
62
7
6
CONTINUOUS
10
294.3171120000
20
357.0764260000
11
324.2169811321
21
357.0764260000
0
LINE
8
10100_DIM_FRONT
62
7
6
CONTINUOUS
10
322.2169811321
20
227.0010230000
11
322.2169811321
21
292.0387245000
0
LINE
8
10100_DIM_FRONT
62
7
6
CONTINUOUS
10
322.2169811321
20
357.0764260000
11
322.2169811321
21
292.0387245000
0
SOLID
8
10100_DIM_FRONT
62
7
6
CONTINUOUS
10
321.7169811321
20
230.5010230000
11
322.2169811321
21
227.0010230000
12
322.7169811321
22
230.5010230000
13
322.7169811321
23
230.5010230000
0
SOLID
8
10100_DIM_FRONT
62
7
6
CONTINUOUS
10
322.7169811321
20
353.5764260000
11
322.2169811321
21
357.0764260000
12
321.7169811321
22
353.5764260000
13
321.7169811321
23
353.5764260000
0
ENDBLK
8
0
0
BLOCK
8
10100_DIM_FRONT
62
7
6
CONTINUOUS
2
*D3
70
65
10
0.0000000000
20
0.0000000000
0
TEXT
8
10100_DIM_FRONT
62
7
6
CONTINUOUS
10
266.0364210000
20
195.4227920000
40
3.5000000000
1
64.2
72
5
11
276.2864210000
21
195.4227920000
0
LINE
8
10100_DIM_FRONT
62
7
6
CONTINUOUS
10
304.4171120000
20
231.7387250000
11
304.4171120000
21
192.5477920000
0
LINE
8
10100_DIM_FRONT
62
7
6
CONTINUOUS
10
240.2171120000
20
246.9542300000
11
240.2171120000
21
192.5477920000
0
LINE
8
10100_DIM_FRONT
62
7
6
CONTINUOUS
10
304.4171120000
20
194.5477920000
11
272.3171120000
21
194.5477920000
0
LINE
8
10100_DIM_FRONT
62
7
6
CONTINUOUS
10
240.2171120000
20
194.5477920000
11
272.3171120000
21
194.5477920000
0
SOLID
8
10100_DIM_FRONT
62
7
6
CONTINUOUS
10
300.9171120000
20
194.0477920000
11
304.4171120000
21
194.5477920000
12
300.9171120000
22
195.0477920000
13
300.9171120000
23
195.0477920000
0
SOLID
8
10100_DIM_FRONT
62
7
6
CONTINUOUS
10
243.7171120000
20
195.0477920000
11
240.2171120000
21
194.5477920000
12
243.7171120000
22
194.0477920000
13
243.7171120000
23
194.0477920000
0
ENDBLK
8
0
0
ENDSEC
0
SECTION
2
ENTITIES
0
DIMENSION
8
11100_DIM_LEFT
62
7
6
CONTINUOUS
2
*D0
10
439.0356130000
20
209.7181500000
11
466.0254410000
21
212.3431500000
70
128
13
497.3356130000
23
228.0205160000
14
439.0356130000
24
244.9382350000
50
180.000000
0
DIMENSION
8
10100_DIM_FRONT
62
7
6
CONTINUOUS
2
*D1
10
294.8171120000
20
207.5852170000
11
272.0163340000
21
210.2102170000
70
128
13
249.8171120000
23
227.5387250000
14
294.8171120000
24
230.0387250000
0
DIMENSION
8
10100_DIM_FRONT
62
7
6
CONTINUOUS
2
*D2
10
322.2169811321
20
357.0764260000
11
319.5919811321
21
291.4298349057
70
128
13
294.3171120000
23
227.0010230000
14
294.3171120000
24
357.0764260000
50
90.000000
0
DIMENSION
8
10100_DIM_FRONT
62
7
6
CONTINUOUS
2
*D3
10
240.2171120000
20
194.5477920000
11
271.1614210000
21
197.1727920000
70
128
13
304.4171120000
23
231.7387250000
14
240.2171120000
24
246.9542300000
50
180.000000
0
TEXT
8
90000_FRAME
62
7
6
CONTINUOUS
10
499.6600000000
20
11.9000000000
40
2.2000000000
1
Format / Size: DIN A2
72
5
11
533.2361904762
21
11.9000000000
0
TEXT
8
90000_FRAME
62
7
6
CONTINUOUS
10
542.1600000000
20
11.9000000000
40
2.2000000000
1
Massstab / Scale: 1:1
72
5
11
573.0647619048
21
11.9000000000
0
TEXT
8
90000_FRAME
62
7
6
CONTINUOUS
10
516.8750000000
20
20.2500000000
40
3.5000000000
1
6ES71444GF010AB0_001
72
5
11
569.3750000000
21
20.2500000000
0
TEXT
8
12300_RIGHT_GERMAN_ENGLISH
62
7
6
CONTINUOUS
10
65.2349740000
20
376.6837890000
40
3.5000000000
1
Rechts / Right
72
5
11
99.4849740000
21
376.6837890000
0
TEXT
8
13300_TOP_GERMAN_ENGLISH
62
7
6
CONTINUOUS
10
248.7816360000
20
170.2742350000
40
3.5000000000
1
Oben / Top
72
5
11
275.1983026667
21
170.2742350000
0
TEXT
8
11300_LEFT_GERMAN_ENGLISH
62
7
6
CONTINUOUS
10
438.6864210000
20
368.1713670000
40
3.5000000000
1
Links / Left
72
5
11
467.1864210000
21
368.1713670000
0
TEXT
8
10300_FRONT_GERMAN_ENGLISH
62
7
6
CONTINUOUS
10
248.9404270000
20
374.4102230000
40
3.5000000000
1
Vorne / Front
72
5
11
281.5237603333
21
374.4102230000
0
TEXT
8
91000_TIP
62
7
6
CONTINUOUS
10
11.2756234532
20
15.1898618139
40
3.5000000000
1
Alle Bemassungswerte sind in Millimeter (mm) angegeben.
72
5
11
145.8589567865
21
15.1898618139
0
TEXT
8
91000_TIP
62
7
6
CONTINUOUS
10
11.2756234532
20
9.9398618139
40
3.5000000000
1
All dimensions are in millimeters (mm).
72
5
11
104.4422901199
21
9.9398618139
0
LINE
8
90000_FRAME
62
7
6
CONTINUOUS
10
0.0000000000
20
420.0000000000
11
0.0000000000
21
0.0000000000
0
LINE
8
90000_FRAME
62
7
6
CONTINUOUS
10
5.0000000000
20
415.0000000000
11
5.0000000000
21
5.0000000000
0
LINE
8
12000_RIGHT
62
7
6
CONTINUOUS
10
48.9510140000
20
228.0205160000
11
48.9510140000
21
236.5387250000
0
LINE
8
12000_RIGHT
62
7
6
CONTINUOUS
10
70.9510140000
20
348.8576060000
11
70.9373720000
21
348.8095580000
0
LINE
8
12000_RIGHT
62
7
6
CONTINUOUS
10
70.4510140000
20
351.3387250000
11
71.7510140000
21
354.8387250000
0
LINE
8
12000_RIGHT
62
7
6
CONTINUOUS
10
70.9373720000
20
348.8095580000
11
70.8978630000
21
348.7646840000
0
LINE
8
12000_RIGHT
62
7
6
CONTINUOUS
10
86.6510140000
20
356.1387250000
11
86.3510140000
21
355.8387250000
0
LINE
8
12000_RIGHT
62
7
6
CONTINUOUS
10
65.1510140000
20
345.8387250000
11
65.1510140000
21
349.3337410000
0
LINE
8
12000_RIGHT
62
7
6
CONTINUOUS
10
65.1510140000
20
352.3459040000
11
65.1510140000
21
355.4387250000
0
LINE
8
12000_RIGHT
62
7
6
CONTINUOUS
10
67.3510140000
20
351.3387250000
11
67.3510140000
21
353.0387250000
0
LINE
8
12000_RIGHT
62
7
6
CONTINUOUS
10
68.9510140000
20
309.8537250000
11
68.9510140000
21
330.4237250000
0
LINE
8
12000_RIGHT
62
7
6
CONTINUOUS
10
70.5510140000
20
241.1887250000
11
70.5510140000
21
341.5887250000
0
LINE
8
12000_RIGHT
62
7
6
CONTINUOUS
10
70.9510140000
20
354.9387250000
11
70.9510140000
21
352.6848790000
0
LINE
8
12000_RIGHT
62
7
6
CONTINUOUS
10
70.9510140000
20
349.3387250000
11
70.9510140000
21
346.3387250000
0
LINE
8
12000_RIGHT
62
7
6
CONTINUOUS
10
93.7559140000
20
344.4570630000
11
93.5086320000
21
343.2741140000
0
LINE
8
12000_RIGHT
62
7
6
CONTINUOUS
10
70.8978630000
20
348.7646840000
11
70.8352410000
21
348.7250780000
0
LINE
8
12000_RIGHT
62
7
6
CONTINUOUS
10
66.3510140000
20
353.0387250000
11
64.5663350000
21
352.0083400000
0
LINE
8
12000_RIGHT
62
7
6
CONTINUOUS
10
71.9510140000
20
236.8387250000
11
71.9510140000
21
356.8711620000
0
LINE
8
12000_RIGHT
62
7
6
CONTINUOUS
10
74.4510140000
20
356.9060710000
11
74.4510140000
21
358.2387250000
0
LINE
8
12000_RIGHT
62
7
6
CONTINUOUS
10
79.6510140000
20
236.8387250000
11
79.6510140000
21
228.2387250000
0
LINE
8
12000_RIGHT
62
7
6
CONTINUOUS
10
79.8510140000
20
356.7387250000
11
79.8510140000
21
352.8387250000
0
LINE
8
12000_RIGHT
62
7
6
CONTINUOUS
10
79.8510140000
20
352.8319690000
11
79.8510140000
21
347.5387250000
0
LINE
8
12000_RIGHT
62
7
6
CONTINUOUS
10
79.8510140000
20
236.5387250000
11
79.8510140000
21
231.2454810000
0
LINE
8
12000_RIGHT
62
7
6
CONTINUOUS
10
79.8510140000
20
227.3387250000
11
79.8510140000
21
231.2346550000
0
LINE
8
12000_RIGHT
62
7
6
CONTINUOUS
10
81.9510140000
20
358.2387250000
11
81.9510140000
21
357.0107980000
0
LINE
8
12000_RIGHT
62
7
6
CONTINUOUS
10
83.6510140000
20
236.8387250000
11
83.6510140000
21
236.5387250000
0
LINE
8
12000_RIGHT
62
7
6
CONTINUOUS
10
83.9510140000
20
347.5387250000
11
83.9510140000
21
236.5387250000
0
LINE
8
12000_RIGHT
62
7
6
CONTINUOUS
10
83.9510140000
20
231.2387250000
11
83.9510140000
21
230.0387250000
0
LINE
8
12000_RIGHT
62
7
6
CONTINUOUS
10
84.7510140000
20
227.3387250000
11
84.7510140000
21
230.0387250000
0
LINE
8
12000_RIGHT
62
7
6
CONTINUOUS
10
84.7510140000
20
231.2387250000
11
84.7510140000
21
236.5387250000
0
LINE
8
12000_RIGHT
62
7
6
CONTINUOUS
10
84.7510140000
20
347.5387250000
11
84.7510140000
21
356.7387250000
0
LINE
8
12000_RIGHT
62
7
6
CONTINUOUS
10
86.6510140000
20
357.0764260000
11
86.6510140000
21
356.1387250000
0
LINE
8
12000_RIGHT
62
7
6
CONTINUOUS
10
86.6510140000
20
227.9387250000
11
86.6510140000
21
227.0010230000
0
LINE
8
12000_RIGHT
62
7
6
CONTINUOUS
10
86.9510140000
20
227.0387250000
11
86.9510140000
21
242.0501840000
0
LINE
8
12000_RIGHT
62
7
6
CONTINUOUS
10
86.9510140000
20
341.5444540000
11
86.9510140000
21
357.0387250000
0
LINE
8
12000_RIGHT
62
7
6
CONTINUOUS
10
87.4510140000
20
353.2381390000
11
87.4510140000
21
349.8393100000
0
LINE
8
12000_RIGHT
62
7
6
CONTINUOUS
10
87.4510140000
20
234.2381390000
11
87.4510140000
21
230.8393100000
0
LINE
8
12000_RIGHT
62
7
6
CONTINUOUS
10
88.4510140000
20
239.6581780000
11
88.4510140000
21
240.3608520000
0
LINE
8
12000_RIGHT
62
7
6
CONTINUOUS
10
88.4510140000
20
343.7165980000
11
88.4510140000
21
344.4192720000
0
LINE
8
12000_RIGHT
62
7
6
CONTINUOUS
10
92.2510140000
20
346.1887250000
11
92.2510140000
21
344.5887250000
0
LINE
8
12000_RIGHT
62
7
6
CONTINUOUS
10
92.2510140000
20
237.8887250000
11
92.2510140000
21
239.4887250000
0
LINE
8
12000_RIGHT
62
7
6
CONTINUOUS
10
86.9510140000
20
349.5887250000
11
87.4510140000
21
349.8387250000
0
LINE
8
12000_RIGHT
62
7
6
CONTINUOUS
10
70.8352410000
20
348.7250780000
11
70.7546000000
21
348.6930450000
0
LINE
8
91000_TIP
62
7
6
CONTINUOUS
10
422.7797810000
20
20.8043440000
11
432.7797810000
21
23.3043440000
0
LINE
8
90000_FRAME
62
7
6
CONTINUOUS
10
0.0000000000
20
0.0000000000
11
594.0000000000
21
0.0000000000
0
LINE
8
90000_FRAME
62
7
6
CONTINUOUS
10
5.0000000000
20
5.0000000000
11
589.0000000000
21
5.0000000000
0
LINE
8
12000_RIGHT
62
7
6
CONTINUOUS
10
93.6407190000
20
240.8148920000
11
93.7453060000
21
239.6194580000
0
LINE
8
12000_RIGHT
62
7
6
CONTINUOUS
10
105.4510140000
20
298.6387250000
11
105.4510140000
21
249.6387250000
0
LINE
8
12000_RIGHT
62
7
6
CONTINUOUS
10
107.2510140000
20
244.9382350000
11
107.2510140000
21
339.1392150000
0
LINE
8
12000_RIGHT
62
7
6
CONTINUOUS
10
48.9510140000
20
236.5387250000
11
49.2510140000
21
236.8387250000
0
LINE
8
90000_FRAME
62
7
6
CONTINUOUS
10
449.0000000000
20
10.0000000000
11
584.0000000000
21
10.0000000000
0
LINE
8
90000_FRAME
62
7
6
CONTINUOUS
10
499.0000000000
20
16.0000000000
11
584.0000000000
21
16.0000000000
0
LINE
8
90000_FRAME
62
7
6
CONTINUOUS
10
472.3969330000
20
16.7492120000
11
473.2525220000
21
16.7492120000
0
LINE
8
90000_FRAME
62
7
6
CONTINUOUS
10
485.5872550000
20
16.7967450000
11
484.0662090000
21
16.7967450000
0
LINE
8
90000_FRAME
62
7
6
CONTINUOUS
10
475.9618850000
20
16.7967450000
11
474.5834370000
21
16.7967450000
0
LINE
8
90000_FRAME
62
7
6
CONTINUOUS
10
463.2231240000
20
16.7967450000
11
464.6491050000
21
16.7967450000
0
LINE
8
90000_FRAME
62
7
6
CONTINUOUS
10
465.7423570000
20
16.7967450000
11
469.3073090000
21
16.7967450000
0
LINE
8
90000_FRAME
62
7
6
CONTINUOUS
10
470.1153640000
20
16.7967450000
11
471.0660180000
21
16.7967450000
0
LINE
8
90000_FRAME
62
7
6
CONTINUOUS
10
477.0551370000
20
16.7967450000
11
480.6200890000
21
16.7967450000
0
LINE
8
90000_FRAME
62
7
6
CONTINUOUS
10
481.4043780000
20
16.7967450000
11
482.3550320000
21
16.7967450000
0
LINE
8
90000_FRAME
62
7
6
CONTINUOUS
10
480.6200890000
20
17.6998660000
11
478.4335850000
21
17.6998660000
0
LINE
8
90000_FRAME
62
7
6
CONTINUOUS
10
469.3073090000
20
17.6998660000
11
467.1208050000
21
17.6998660000
0
LINE
8
91000_TIP
62
7
6
CENTER
10
421.5002710000
20
18.3043440000
11
445.1022600000
21
18.3043440000
0
LINE
8
90000_FRAME
62
7
6
CONTINUOUS
10
480.2873600000
20
18.8168840000
11
478.4335850000
21
18.8168840000
0
LINE
8
90000_FRAME
62
7
6
CONTINUOUS
10
468.9745800000
20
18.8168840000
11
467.1208050000
21
18.8168840000
0
LINE
8
90000_FRAME
62
7
6
CONTINUOUS
10
480.2873600000
20
19.6011730000
11
478.4335850000
21
19.6011730000
0
LINE
8
90000_FRAME
62
7
6
CONTINUOUS
10
468.9745800000
20
19.6011730000
11
467.1208050000
21
19.6011730000
0
LINE
8
90000_FRAME
62
7
6
CONTINUOUS
10
480.5725560000
20
20.6706590000
11
478.4335850000
21
20.6706590000
0
LINE
8
90000_FRAME
62
7
6
CONTINUOUS
10
469.2597760000
20
20.6706590000
11
467.1208050000
21
20.6706590000
0
LINE
8
90000_FRAME
62
7
6
CONTINUOUS
10
485.5872550000
20
21.5500140000
11
484.6366010000
21
21.5500140000
0
LINE
8
90000_FRAME
62
7
6
CONTINUOUS
10
482.9491910000
20
21.5500140000
11
481.4043780000
21
21.5500140000
0
LINE
8
90000_FRAME
62
7
6
CONTINUOUS
10
480.5725560000
20
21.5500140000
11
477.0551370000
21
21.5500140000
0
LINE
8
90000_FRAME
62
7
6
CONTINUOUS
10
475.9618850000
20
21.5500140000
11
474.2507080000
21
21.5500140000
0
LINE
8
90000_FRAME
62
7
6
CONTINUOUS
10
471.8265410000
20
21.5500140000
11
470.1153640000
21
21.5500140000
0
LINE
8
90000_FRAME
62
7
6
CONTINUOUS
10
469.2597760000
20
21.5500140000
11
465.7423570000
21
21.5500140000
0
LINE
8
90000_FRAME
62
7
6
CONTINUOUS
10
463.2231240000
20
21.5500140000
11
464.6491050000
21
21.5500140000
0
LINE
8
12000_RIGHT
62
7
6
CONTINUOUS
10
83.9510140000
20
237.1387250000
11
83.6510140000
21
236.8387250000
0
LINE
8
90000_FRAME
62
7
6
CONTINUOUS
10
449.0000000000
20
28.0000000000
11
584.0000000000
21
28.0000000000
0
LINE
8
12000_RIGHT
62
7
6
CONTINUOUS
10
70.9510140000
20
348.8576060000
11
70.9646560000
21
348.8095580000
0
LINE
8
91000_TIP
62
7
6
CONTINUOUS
10
422.7797810000
20
15.8043440000
11
432.7797810000
21
13.3043440000
0
LINE
8
10000_FRONT
62
7
6
CONTINUOUS
10
254.4671120000
20
352.6269500000
11
257.2788870000
21
355.4387250000
0
LINE
8
10000_FRONT
62
7
6
CONTINUOUS
10
255.0671120000
20
352.3784220000
11
257.5274150000
21
354.8387250000
0
LINE
8
10000_FRONT
62
7
6
CONTINUOUS
10
261.0068090000
20
346.4387250000
11
263.4671120000
21
348.8990280000
0
LINE
8
10000_FRONT
62
7
6
CONTINUOUS
10
249.8171120000
20
347.0387250000
11
250.3171120000
21
347.3387250000
0
LINE
8
12000_RIGHT
62
7
6
CONTINUOUS
10
93.8902450000
20
238.4887250000
11
92.5510140000
21
237.7155200000
0
LINE
8
12000_RIGHT
62
7
6
CONTINUOUS
10
86.6510140000
20
227.9387250000
11
86.3510140000
21
228.2387250000
0
LINE
8
10000_FRONT
62
7
6
CONTINUOUS
10
261.2553370000
20
345.8387250000
11
264.0671120000
21
348.6505000000
0
LINE
8
10000_FRONT
62
7
6
CONTINUOUS
10
292.3671120000
20
354.5387250000
11
293.8671120000
21
356.0387250000
0
LINE
8
12000_RIGHT
62
7
6
CONTINUOUS
10
86.9710140000
20
230.5987250000
11
87.4510140000
21
230.8387250000
0
LINE
8
12000_RIGHT
62
7
6
CONTINUOUS
10
84.4510140000
20
236.0387250000
11
84.7510140000
21
236.1637250000
0
LINE
8
10000_FRONT
62
7
6
CONTINUOUS
10
240.2171120000
20
303.1387250000
11
242.2171120000
21
303.9387250000
0
LINE
8
13000_TOP
62
7
6
CONTINUOUS
10
294.3171120000
20
97.0505570000
11
272.6171120000
21
97.0505570000
0
LINE
8
13000_TOP
62
7
6
CONTINUOUS
10
262.1171120000
20
97.0505570000
11
254.3558360000
21
97.0505570000
0
LINE
8
13000_TOP
62
7
6
CONTINUOUS
10
253.1111520000
20
100.2505570000
11
254.0111520000
21
100.2505570000
0
LINE
8
13000_TOP
62
7
6
CONTINUOUS
10
254.0516470000
20
97.3505270000
11
254.3558360000
21
97.0505570000
0
LINE
8
13000_TOP
62
7
6
CONTINUOUS
10
252.8069640000
20
100.5505270000
11
253.1111520000
21
100.2505570000
0
LINE
8
10000_FRONT
62
7
6
CONTINUOUS
10
269.2052000000
20
338.9154380000
11
268.9695150000
21
338.5904150000
0
LINE
8
10000_FRONT
62
7
6
CONTINUOUS
10
269.5290240000
20
336.5620110000
11
269.7647090000
21
336.8870350000
0
LINE
8
10000_FRONT
62
7
6
CONTINUOUS
10
266.0671120000
20
299.0187250000
11
266.3671120000
21
299.3187250000
0
LINE
8
13000_TOP
62
7
6
CONTINUOUS
10
265.9421120000
20
111.9505570000
11
270.7921120000
21
111.9505570000
0
LINE
8
13000_TOP
62
7
6
CONTINUOUS
10
254.4671120000
20
113.2505570000
11
264.0671120000
21
113.2505570000
0
LINE
8
13000_TOP
62
7
6
CONTINUOUS
10
265.9421120000
20
115.4505570000
11
267.4421120000
21
115.4505570000
0
LINE
8
13000_TOP
62
7
6
CONTINUOUS
10
269.2921120000
20
115.4505570000
11
270.7921120000
21
115.4505570000
0
LINE
8
13000_TOP
62
7
6
CONTINUOUS
10
270.7921120000
20
117.0505570000
11
272.3171120000
21
117.0505570000
0
LINE
8
13000_TOP
62
7
6
CONTINUOUS
10
267.4421120000
20
118.5505570000
11
269.2921120000
21
118.5505570000
0
LINE
8
13000_TOP
62
7
6
CONTINUOUS
10
290.8171120000
20
118.6505570000
11
270.7921120000
21
118.6505570000
0
LINE
8
13000_TOP
62
7
6
CONTINUOUS
10
254.4671120000
20
118.6505570000
11
253.9171120000
21
118.6505570000
0
LINE
8
13000_TOP
62
7
6
CONTINUOUS
10
264.0671120000
20
118.6505570000
11
265.9421120000
21
118.6505570000
0
LINE
8
13000_TOP
62
7
6
CONTINUOUS
10
263.5671120000
20
119.0505570000
11
254.9671120000
21
119.0505570000
0
LINE
8
13000_TOP
62
7
6
CONTINUOUS
10
249.9171120000
20
120.0505570000
11
294.8171120000
21
120.0505570000
0
LINE
8
13000_TOP
62
7
6
CONTINUOUS
10
265.8671120000
20
121.5505570000
11
270.7171120000
21
121.5505570000
0
LINE
8
13000_TOP
62
7
6
CONTINUOUS
10
270.4171120000
20
122.5505570000
11
266.1671120000
21
122.5505570000
0
LINE
8
13000_TOP
62
7
6
CONTINUOUS
10
252.7271550000
20
127.7505570000
11
259.5171120000
21
127.7505570000
0
LINE
8
13000_TOP
62
7
6
CONTINUOUS
10
249.8171120000
20
127.9505570000
11
256.5171120000
21
127.9505570000
0
LINE
8
13000_TOP
62
7
6
CONTINUOUS
10
294.8171120000
20
127.9505570000
11
304.4170640000
21
127.9505570000
0
LINE
8
13000_TOP
62
7
6
CONTINUOUS
10
257.4859940000
20
119.0505570000
11
257.4379450000
21
119.0641980000
0
LINE
8
13000_TOP
62
7
6
CONTINUOUS
10
261.0482300000
20
119.0505570000
11
261.0962780000
21
119.0369150000
0
LINE
8
13000_TOP
62
7
6
CONTINUOUS
10
242.2171120000
20
136.7814820000
11
240.2171120000
21
137.5815730000
0
LINE
8
13000_TOP
62
7
6
CONTINUOUS
10
241.5324510000
20
139.0423400000
11
242.2171120000
21
138.7204620000
0
LINE
8
13000_TOP
62
7
6
CONTINUOUS
10
240.8656200000
20
139.3611320000
11
241.5324510000
21
139.0423400000
0
LINE
8
13000_TOP
62
7
6
CONTINUOUS
10
240.2171120000
20
139.6771590000
11
240.8656200000
21
139.3611320000
0
LINE
8
13000_TOP
62
7
6
CONTINUOUS
10
247.8171120000
20
133.5505570000
11
248.3171120000
21
133.2505570000
0
LINE
8
13000_TOP
62
7
6
CONTINUOUS
10
257.4379450000
20
119.0641980000
11
257.3930710000
21
119.1037070000
0
LINE
8
13000_TOP
62
7
6
CONTINUOUS
10
261.0962780000
20
119.0369150000
11
261.1411520000
21
118.9974060000
0
LINE
8
13000_TOP
62
7
6
CONTINUOUS
10
252.8346740000
20
120.0505570000
11
252.5304860000
21
120.3505270000
0
LINE
8
13000_TOP
62
7
6
CONTINUOUS
10
272.6171120000
20
97.0505570000
11
272.3171120000
21
97.3505570000
0
LINE
8
13000_TOP
62
7
6
CONTINUOUS
10
257.3930710000
20
119.1037070000
11
257.3534650000
21
119.1663290000
0
LINE
8
10000_FRONT
62
7
6
CONTINUOUS
10
268.4307280000
20
337.6572090000
11
268.2670920000
21
337.2905880000
0
LINE
8
10000_FRONT
62
7
6
CONTINUOUS
10
270.3034950000
20
337.8202410000
11
270.4671320000
21
338.1868620000
0
LINE
8
11000_LEFT
62
7
6
CONTINUOUS
10
475.4513860000
20
352.5523720000
11
475.5320270000
21
352.5844040000
0
LINE
8
11000_LEFT
62
7
6
CONTINUOUS
10
475.2198410000
20
348.7250780000
11
475.1392000000
21
348.6930450000
0
LINE
8
13000_TOP
62
7
6
CONTINUOUS
10
261.0482300000
20
119.0505570000
11
261.0962780000
21
119.0641980000
0
LINE
8
13000_TOP
62
7
6
CONTINUOUS
10
257.4859940000
20
119.0505570000
11
257.4379450000
21
119.0369150000
0
LINE
8
13000_TOP
62
7
6
CONTINUOUS
10
270.3924790000
20
130.0300040000
11
266.1504940000
21
130.0300040000
0
LINE
8
13000_TOP
62
7
6
CONTINUOUS
10
270.7171120000
20
130.5505570000
11
265.8671120000
21
130.5505570000
0
LINE
8
13000_TOP
62
7
6
CONTINUOUS
10
281.8495490000
20
132.0505570000
11
256.5171120000
21
132.0505570000
0
LINE
8
13000_TOP
62
7
6
CONTINUOUS
10
294.8171120000
20
132.8505570000
11
303.9171120000
21
132.8505570000
0
LINE
8
13000_TOP
62
7
6
CONTINUOUS
10
249.8171120000
20
133.2505570000
11
248.3174370000
21
133.2505570000
0
LINE
8
13000_TOP
62
7
6
CONTINUOUS
10
256.5171120000
20
133.2505570000
11
259.5171120000
21
133.2505570000
0
LINE
8
13000_TOP
62
7
6
CONTINUOUS
10
247.8173970000
20
135.0505570000
11
294.9171120000
21
135.0505570000
0
LINE
8
13000_TOP
62
7
6
CONTINUOUS
10
298.9171120000
20
136.5505570000
11
288.8171120000
21
136.5505570000
0
LINE
8
13000_TOP
62
7
6
CONTINUOUS
10
243.0171120000
20
136.7505570000
11
249.8171120000
21
136.7505570000
0
LINE
8
13000_TOP
62
7
6
CONTINUOUS
10
242.2171120000
20
136.7814820000
11
243.0171120000
21
136.7814820000
0
LINE
8
13000_TOP
62
7
6
CONTINUOUS
10
242.2171120000
20
138.7204620000
11
243.0171120000
21
138.7204620000
0
LINE
8
13000_TOP
62
7
6
CONTINUOUS
10
288.8171120000
20
140.3505570000
11
294.9171120000
21
140.3505570000
0
LINE
8
13000_TOP
62
7
6
CONTINUOUS
10
294.9171120000
20
141.8554570000
11
298.9171120000
21
141.8554570000
0
LINE
8
13000_TOP
62
7
6
CONTINUOUS
10
249.8171120000
20
154.5937690000
11
250.1460580000
21
154.5218360000
0
LINE
8
13000_TOP
62
7
6
CONTINUOUS
10
250.1460580000
20
154.5218360000
11
250.4793390000
21
154.4434300000
0
LINE
8
13000_TOP
62
7
6
CONTINUOUS
10
250.4793390000
20
154.4434300000
11
250.8171120000
21
154.3584510000
0
LINE
8
12000_RIGHT
62
7
6
CONTINUOUS
10
86.9510140000
20
234.4887250000
11
87.4510140000
21
234.2387250000
0
LINE
8
13000_TOP
62
7
6
CONTINUOUS
10
303.9171120000
20
132.8505570000
11
304.4172140000
21
132.5504950000
0
LINE
8
12000_RIGHT
62
7
6
CONTINUOUS
10
70.9646560000
20
348.8095580000
11
71.0041650000
21
348.7646840000
0
LINE
8
13000_TOP
62
7
6
CONTINUOUS
10
261.1411520000
20
118.9974060000
11
261.1807590000
21
118.9347840000
0
LINE
8
13000_TOP
62
7
6
CONTINUOUS
10
257.3534650000
20
119.1663290000
11
257.3214330000
21
119.2469710000
0
LINE
8
13000_TOP
62
7
6
CONTINUOUS
10
261.1807590000
20
118.9347840000
11
261.2127910000
21
118.8541430000
0
LINE
8
13000_TOP
62
7
6
CONTINUOUS
10
257.3214330000
20
119.2469710000
11
257.2979160000
21
119.3412010000
0
LINE
8
13000_TOP
62
7
6
CONTINUOUS
10
257.2836590000
20
119.4438350000
11
257.2788870000
21
119.5505570000
0
LINE
8
13000_TOP
62
7
6
CONTINUOUS
10
261.2505640000
20
118.6572780000
11
261.2553370000
21
118.5505570000
0
LINE
8
13000_TOP
62
7
6
CONTINUOUS
10
252.5304860000
20
120.3505270000
11
252.4243620000
21
127.9505570000
0
LINE
8
13000_TOP
62
7
6
CONTINUOUS
10
252.5346740000
20
120.0505570000
11
252.8069640000
21
100.5505270000
0
LINE
8
13000_TOP
62
7
6
CONTINUOUS
10
254.0516470000
20
97.3505570000
11
254.0111520000
21
100.2505570000
0
LINE
8
10000_FRONT
62
7
6
CONTINUOUS
10
240.2171120000
20
303.1387250000
11
240.2171120000
21
300.6387250000
0
LINE
8
10000_FRONT
62
7
6
CONTINUOUS
10
240.2171120000
20
246.9387250000
11
240.2171120000
21
245.1387250000
0
LINE
8
13000_TOP
62
7
6
CONTINUOUS
10
240.2171120000
20
137.5815730000
11
240.2171120000
21
152.5505570000
0
LINE
8
10000_FRONT
62
7
6
CONTINUOUS
10
240.2171120000
20
246.9542300000
11
240.2171120000
21
300.6186240000
0
LINE
8
10000_FRONT
62
7
6
CONTINUOUS
10
242.2171120000
20
303.9387250000
11
242.2171120000
21
300.6387250000
0
LINE
8
10000_FRONT
62
7
6
CONTINUOUS
10
242.2171120000
20
270.0387250000
11
242.2171120000
21
244.3387250000
0
LINE
8
13000_TOP
62
7
6
CONTINUOUS
10
242.2171120000
20
153.3505570000
11
242.2171120000
21
138.7204620000
0
LINE
8
10000_FRONT
62
7
6
CONTINUOUS
10
243.0171120000
20
300.6387250000
11
243.0171120000
21
270.0387250000
0
LINE
8
13000_TOP
62
7
6
CONTINUOUS
10
243.0171120000
20
138.7204620000
11
243.0171120000
21
136.7505610000
0
LINE
8
13000_TOP
62
7
6
CONTINUOUS
10
247.8171120000
20
135.0505570000
11
247.8171120000
21
133.5505570000
0
LINE
8
13000_TOP
62
7
6
CONTINUOUS
10
249.8171120000
20
127.9505570000
11
249.8171120000
21
155.3505570000
0
LINE
8
10000_FRONT
62
7
6
CONTINUOUS
10
249.8171120000
20
227.5387250000
11
249.8171120000
21
229.1623360000
0
LINE
8
10000_FRONT
62
7
6
CONTINUOUS
10
249.8171120000
20
235.9151130000
11
249.8171120000
21
348.1623360000
0
LINE
8
10000_FRONT
62
7
6
CONTINUOUS
10
249.8171120000
20
354.9151130000
11
249.8171120000
21
356.5387250000
0
LINE
8
13000_TOP
62
7
6
CONTINUOUS
10
249.9171120000
20
120.0505570000
11
249.9171120000
21
127.9505570000
0
LINE
8
13000_TOP
62
7
6
CONTINUOUS
10
250.8171120000
20
135.0505570000
11
250.8171120000
21
154.3584510000
0
LINE
8
10000_FRONT
62
7
6
CONTINUOUS
10
250.8671120000
20
344.5387250000
11
250.8671120000
21
238.2387250000
0
LINE
8
10000_FRONT
62
7
6
CONTINUOUS
10
252.3671120000
20
343.0387250000
11
252.3671120000
21
239.7387250000
0
LINE
8
10000_FRONT
62
7
6
CONTINUOUS
10
252.4313440000
20
357.0387250000
11
252.4313440000
21
353.7529570000
0
LINE
8
10000_FRONT
62
7
6
CONTINUOUS
10
252.4313440000
20
349.3244930000
11
252.4313440000
21
347.3387250000
0
LINE
8
10000_FRONT
62
7
6
CONTINUOUS
10
252.4313440000
20
227.1029570000
11
252.4313440000
21
230.3244930000
0
LINE
8
10000_FRONT
62
7
6
CONTINUOUS
10
252.4313440000
20
234.7529570000
11
252.4313440000
21
236.8387250000
0
LINE
8
10000_FRONT
62
7
6
CONTINUOUS
10
252.8346740000
20
357.0387250000
11
252.8346740000
21
354.1562870000
0
LINE
8
10000_FRONT
62
7
6
CONTINUOUS
10
252.8346740000
20
348.9211620000
11
252.8346740000
21
346.6211620000
0
LINE
8
10000_FRONT
62
7
6
CONTINUOUS
10
253.1111520000
20
236.8387250000
11
253.1111520000
21
235.4327650000
0
LINE
8
10000_FRONT
62
7
6
CONTINUOUS
10
253.1111520000
20
229.6446840000
11
253.1111520000
21
227.4827650000
0
LINE
8
10000_FRONT
62
7
6
CONTINUOUS
10
253.2171120000
20
341.7387250000
11
253.2171120000
21
241.0387250000
0
LINE
8
10000_FRONT
62
7
6
CONTINUOUS
10
253.6171120000
20
341.5887250000
11
253.6171120000
21
339.5387250000
0
LINE
8
10000_FRONT
62
7
6
CONTINUOUS
10
253.6171120000
20
335.5387250000
11
253.6171120000
21
326.5387250000
0
LINE
8
10000_FRONT
62
7
6
CONTINUOUS
10
253.6171120000
20
322.5387250000
11
253.6171120000
21
313.5387250000
0
LINE
8
10000_FRONT
62
7
6
CONTINUOUS
10
253.6171120000
20
309.5387250000
11
253.6171120000
21
300.5387250000
0
LINE
8
10000_FRONT
62
7
6
CONTINUOUS
10
253.6171120000
20
296.5387250000
11
253.6171120000
21
287.5387250000
0
LINE
8
10000_FRONT
62
7
6
CONTINUOUS
10
253.6171120000
20
283.5387250000
11
253.6171120000
21
274.5387250000
0
LINE
8
10000_FRONT
62
7
6
CONTINUOUS
10
253.6171120000
20
270.5387250000
11
253.6171120000
21
261.5387250000
0
LINE
8
10000_FRONT
62
7
6
CONTINUOUS
10
253.6171120000
20
257.5387250000
11
253.6171120000
21
250.3887250000
0
LINE
8
13000_TOP
62
7
6
CONTINUOUS
10
253.6171120000
20
118.9505570000
11
253.6171120000
21
120.0505570000
0
LINE
8
10000_FRONT
62
7
6
CONTINUOUS
10
253.6271550000
20
353.7487680000
11
253.6271550000
21
349.3286810000
0
LINE
8
10000_FRONT
62
7
6
CONTINUOUS
10
253.6271550000
20
230.3286810000
11
253.6271550000
21
234.7487680000
0
LINE
8
10000_FRONT
62
7
6
CONTINUOUS
10
253.6671120000
20
241.0387250000
11
253.6671120000
21
250.3887250000
0
LINE
8
10000_FRONT
62
7
6
CONTINUOUS
10
253.6671120000
20
257.5387250000
11
253.6671120000
21
261.5387250000
0
LINE
8
10000_FRONT
62
7
6
CONTINUOUS
10
253.6671120000
20
270.5387250000
11
253.6671120000
21
274.5387250000
0
LINE
8
10000_FRONT
62
7
6
CONTINUOUS
10
253.6671120000
20
283.5387250000
11
253.6671120000
21
287.5387250000
0
LINE
8
10000_FRONT
62
7
6
CONTINUOUS
10
253.6671120000
20
296.5387250000
11
253.6671120000
21
300.5387250000
0
LINE
8
10000_FRONT
62
7
6
CONTINUOUS
10
253.6671120000
20
309.5387250000
11
253.6671120000
21
313.5387250000
0
LINE
8
10000_FRONT
62
7
6
CONTINUOUS
10
253.6671120000
20
322.5387250000
11
253.6671120000
21
326.5387250000
0
LINE
8
10000_FRONT
62
7
6
CONTINUOUS
10
253.6671120000
20
335.5387250000
11
253.6671120000
21
339.5387250000
0
LINE
8
13000_TOP
62
7
6
CONTINUOUS
10
254.0171120000
20
135.0505570000
11
254.0171120000
21
154.3584510000
0
LINE
8
10000_FRONT
62
7
6
CONTINUOUS
10
254.0346740000
20
348.9211620000
11
254.0346740000
21
354.1562870000
0
LINE
8
10000_FRONT
62
7
6
CONTINUOUS
10
254.0516470000
20
236.8387250000
11
254.0516470000
21
227.5622710000
0
LINE
8
13000_TOP
62
7
6
CONTINUOUS
10
254.4671120000
20
113.2505570000
11
254.4671120000
21
118.5505570000
0
LINE
8
13000_TOP
62
7
6
CONTINUOUS
10
254.4671120000
20
119.5505570000
11
254.4671120000
21
120.0505570000
0
LINE
8
10000_FRONT
62
7
6
CONTINUOUS
10
254.4671120000
20
348.6505000000
11
254.4671120000
21
352.6269500000
0
LINE
8
10000_FRONT
62
7
6
CONTINUOUS
10
255.0671120000
20
348.8990280000
11
255.0671120000
21
352.3784220000
0
LINE
8
10000_FRONT
62
7
6
CONTINUOUS
10
255.7171120000
20
250.1387210000
11
255.7171120000
21
241.8387280000
0
LINE
8
13000_TOP
62
7
6
CONTINUOUS
10
256.5171120000
20
127.9505570000
11
256.5171120000
21
133.2505570000
0
LINE
8
13000_TOP
62
7
6
CONTINUOUS
10
257.2788870000
20
118.5505570000
11
257.2788870000
21
113.2505570000
0
LINE
8
13000_TOP
62
7
6
CONTINUOUS
10
257.2788870000
20
119.5505570000
11
257.2788870000
21
120.0505570000
0
LINE
8
10000_FRONT
62
7
6
CONTINUOUS
10
254.0503350000
20
227.5318910000
11
254.0516470000
21
227.5622710000
0
LINE
8
10000_FRONT
62
7
6
CONTINUOUS
10
254.0489520000
20
227.5205640000
11
254.0503350000
21
227.5318910000
0
LINE
8
10000_FRONT
62
7
6
CONTINUOUS
10
252.3671120000
20
239.7387250000
11
250.8671120000
21
238.2387250000
0
LINE
8
10000_FRONT
62
7
6
CONTINUOUS
10
252.8069640000
20
227.4785770000
11
252.4313440000
21
227.1029570000
0
LINE
8
10000_FRONT
62
7
6
CONTINUOUS
10
254.0489520000
20
227.5205640000
11
254.0111520000
21
227.4827650000
0
LINE
8
11000_LEFT
62
7
6
CONTINUOUS
10
452.3963830000
20
345.5887250000
11
453.7356130000
21
346.3619300000
0
LINE
8
11000_LEFT
62
7
6
CONTINUOUS
10
459.3356130000
20
353.4887250000
11
458.8356130000
21
353.2387250000
0
LINE
8
10000_FRONT
62
7
6
CONTINUOUS
10
240.2273240000
20
246.9434900000
11
240.2171120000
21
246.9387250000
0
LINE
8
13000_TOP
62
7
6
CONTINUOUS
10
249.8171120000
20
153.3505570000
11
242.2171120000
21
153.3505570000
0
LINE
8
13000_TOP
62
7
6
CONTINUOUS
10
250.8171120000
20
154.3584510000
11
254.0171120000
21
154.3584510000
0
LINE
8
13000_TOP
62
7
6
CONTINUOUS
10
249.8171120000
20
155.3505570000
11
294.9171120000
21
155.3505570000
0
LINE
8
13000_TOP
62
7
6
CONTINUOUS
10
261.2127910000
20
118.8541430000
11
261.2363080000
21
118.7599130000
0
LINE
8
13000_TOP
62
7
6
CONTINUOUS
10
257.2979160000
20
119.3412010000
11
257.2836590000
21
119.4438350000
0
LINE
8
13000_TOP
62
7
6
CONTINUOUS
10
261.2363080000
20
118.7599130000
11
261.2505640000
21
118.6572780000
0
LINE
8
13000_TOP
62
7
6
CONTINUOUS
10
259.5171120000
20
127.7505570000
11
259.5171120000
21
133.2505570000
0
LINE
8
10000_FRONT
62
7
6
CONTINUOUS
10
260.1171120000
20
250.1387210000
11
260.1171120000
21
241.8387280000
0
LINE
8
10000_FRONT
62
7
6
CONTINUOUS
10
260.6171120000
20
250.1387210000
11
260.6171120000
21
241.8387280000
0
LINE
8
13000_TOP
62
7
6
CONTINUOUS
10
261.2553370000
20
118.5505570000
11
261.2553370000
21
113.2505570000
0
LINE
8
13000_TOP
62
7
6
CONTINUOUS
10
261.2553370000
20
119.5505570000
11
261.2553370000
21
120.0505570000
0
LINE
8
10000_FRONT
62
7
6
CONTINUOUS
10
261.6671120000
20
341.8887250000
11
261.6671120000
21
332.3887250000
0
LINE
8
13000_TOP
62
7
6
CONTINUOUS
10
262.4171120000
20
113.2505570000
11
262.4171120000
21
97.3505570000
0
LINE
8
10000_FRONT
62
7
6
CONTINUOUS
10
262.4171120000
20
227.2062870000
11
262.4171120000
21
236.8387250000
0
LINE
8
10000_FRONT
62
7
6
CONTINUOUS
10
262.5846740000
20
227.0387250000
11
262.5846740000
21
232.2387250000
0
LINE
8
10000_FRONT
62
7
6
CONTINUOUS
10
263.4671120000
20
348.8990280000
11
263.4671120000
21
352.3784220000
0
LINE
8
13000_TOP
62
7
6
CONTINUOUS
10
264.0671120000
20
113.2505570000
11
264.0671120000
21
118.5505570000
0
LINE
8
13000_TOP
62
7
6
CONTINUOUS
10
264.0671120000
20
119.5505570000
11
264.0671120000
21
120.0505570000
0
LINE
8
10000_FRONT
62
7
6
CONTINUOUS
10
264.0671120000
20
348.6505000000
11
264.0671120000
21
352.6269500000
0
LINE
8
10000_FRONT
62
7
6
CONTINUOUS
10
265.0171120000
20
250.1387210000
11
265.0171120000
21
241.8387280000
0
LINE
8
10000_FRONT
62
7
6
CONTINUOUS
10
265.0671120000
20
332.3887250000
11
265.0671120000
21
341.8887250000
0
LINE
8
10000_FRONT
62
7
6
CONTINUOUS
10
265.3671120000
20
355.8387250000
11
265.3671120000
21
345.5387250000
0
LINE
8
13000_TOP
62
7
6
CONTINUOUS
10
265.3671120000
20
130.0505570000
11
265.3671120000
21
122.0505570000
0
LINE
8
10000_FRONT
62
7
6
CONTINUOUS
10
265.8671120000
20
358.2387250000
11
265.8671120000
21
356.8921080000
0
LINE
8
13000_TOP
62
7
6
CONTINUOUS
10
265.8671120000
20
122.8505570000
11
265.8671120000
21
129.7505570000
0
LINE
8
10000_FRONT
62
7
6
CONTINUOUS
10
265.9421120000
20
353.0387250000
11
265.9421120000
21
345.5387250000
0
LINE
8
13000_TOP
62
7
6
CONTINUOUS
10
265.9421120000
20
120.0505570000
11
265.9421120000
21
111.9508220000
0
LINE
8
10000_FRONT
62
7
6
CONTINUOUS
10
266.0671120000
20
240.8887250000
11
266.0671120000
21
250.3887250000
0
LINE
8
10000_FRONT
62
7
6
CONTINUOUS
10
266.3671120000
20
299.3187250000
11
266.3671120000
21
330.7987250000
0
LINE
8
13000_TOP
62
7
6
CONTINUOUS
10
267.4421120000
20
115.4505570000
11
267.4421120000
21
112.0687320000
0
LINE
8
13000_TOP
62
7
6
CONTINUOUS
10
267.4421120000
20
118.5505570000
11
267.4421120000
21
120.0505570000
0
LINE
8
10000_FRONT
62
7
6
CONTINUOUS
10
267.4421120000
20
351.3387250000
11
267.4421120000
21
355.8387250000
0
LINE
8
13000_TOP
62
7
6
CONTINUOUS
10
269.2921120000
20
115.4505570000
11
269.2921120000
21
111.9505570000
0
LINE
8
13000_TOP
62
7
6
CONTINUOUS
10
269.2921120000
20
118.5505570000
11
269.2921120000
21
120.0505570000
0
LINE
8
10000_FRONT
62
7
6
CONTINUOUS
10
269.2921120000
20
351.3387250000
11
269.2921120000
21
355.8387250000
0
LINE
8
10000_FRONT
62
7
6
CONTINUOUS
10
270.7171120000
20
358.2387250000
11
270.7171120000
21
356.8921080000
0
LINE
8
13000_TOP
62
7
6
CONTINUOUS
10
270.7171120000
20
129.7505570000
11
270.7171120000
21
122.8505570000
0
LINE
8
10000_FRONT
62
7
6
CONTINUOUS
10
270.7921120000
20
353.0387250000
11
270.7921120000
21
345.5387250000
0
LINE
8
13000_TOP
62
7
6
CONTINUOUS
10
270.7921120000
20
120.0505570000
11
270.7921120000
21
111.9508220000
0
LINE
8
13000_TOP
62
7
6
CONTINUOUS
10
271.2171120000
20
122.0505570000
11
271.2171120000
21
130.0505570000
0
LINE
8
10000_FRONT
62
7
6
CONTINUOUS
10
271.2171120000
20
345.5387250000
11
271.2171120000
21
355.8387250000
0
LINE
8
10000_FRONT
62
7
6
CONTINUOUS
10
272.1495490000
20
227.0010230000
11
272.1495490000
21
232.2387250000
0
LINE
8
13000_TOP
62
7
6
CONTINUOUS
10
272.3171120000
20
118.6505570000
11
272.3171120000
21
97.3505570000
0
LINE
8
10000_FRONT
62
7
6
CONTINUOUS
10
272.3171120000
20
227.2062870000
11
272.3171120000
21
236.8387250000
0
LINE
8
13000_TOP
62
7
6
CONTINUOUS
10
272.8671120000
20
135.0505570000
11
272.8671120000
21
132.0505570000
0
LINE
8
10000_FRONT
62
7
6
CONTINUOUS
10
272.8846740000
20
357.0387250000
11
272.8846740000
21
351.5387250000
0
LINE
8
10000_FRONT
62
7
6
CONTINUOUS
10
274.2213490000
20
232.9769380000
11
274.2213490000
21
233.1628940000
0
LINE
8
10000_FRONT
62
7
6
CONTINUOUS
10
274.3171120000
20
341.8887250000
11
274.3171120000
21
332.3887250000
0
LINE
8
10000_FRONT
62
7
6
CONTINUOUS
10
274.6508480000
20
229.2874530000
11
274.6508480000
21
230.7739030000
0
LINE
8
10000_FRONT
62
7
6
CONTINUOUS
10
274.7171120000
20
332.9387280000
11
274.7171120000
21
341.2387210000
0
LINE
8
10000_FRONT
62
7
6
CONTINUOUS
10
274.8404040000
20
230.9874530000
11
274.8404040000
21
229.2874530000
0
LINE
8
10000_FRONT
62
7
6
CONTINUOUS
10
274.9879690000
20
232.4874530000
11
274.9879690000
21
232.9769380000
0
LINE
8
10000_FRONT
62
7
6
CONTINUOUS
10
274.9879690000
20
233.1389000000
11
274.9879690000
21
233.9691040000
0
LINE
8
10000_FRONT
62
7
6
CONTINUOUS
10
275.1751250000
20
234.1874530000
11
275.1751250000
21
233.1389000000
0
LINE
8
10000_FRONT
62
7
6
CONTINUOUS
10
275.1751250000
20
232.9769380000
11
275.1751250000
21
232.4874530000
0
LINE
8
10000_FRONT
62
7
6
CONTINUOUS
10
275.4378630000
20
233.1389000000
11
275.4378630000
21
232.9769380000
0
LINE
8
10000_FRONT
62
7
6
CONTINUOUS
10
275.4606580000
20
229.7769380000
11
275.4606580000
21
229.9628940000
0
LINE
8
10000_FRONT
62
7
6
CONTINUOUS
10
276.2272770000
20
229.2874530000
11
276.2272770000
21
229.7769380000
0
LINE
8
10000_FRONT
62
7
6
CONTINUOUS
10
276.2272770000
20
229.9389000000
11
276.2272770000
21
230.7691040000
0
LINE
8
10000_FRONT
62
7
6
CONTINUOUS
10
276.4144330000
20
230.9874530000
11
276.4144330000
21
229.9389000000
0
LINE
8
10000_FRONT
62
7
6
CONTINUOUS
10
276.4144330000
20
229.7769380000
11
276.4144330000
21
229.2874530000
0
LINE
8
10000_FRONT
62
7
6
CONTINUOUS
10
276.6771720000
20
229.9389000000
11
276.6771720000
21
229.7769380000
0
LINE
8
10000_FRONT
62
7
6
CONTINUOUS
10
276.8763250000
20
229.7769380000
11
276.8763250000
21
229.9628940000
0
LINE
8
10000_FRONT
62
7
6
CONTINUOUS
10
277.6429440000
20
229.2874530000
11
277.6429440000
21
229.7769380000
0
LINE
8
10000_FRONT
62
7
6
CONTINUOUS
10
277.6429440000
20
229.9389000000
11
277.6429440000
21
230.7691040000
0
LINE
8
10000_FRONT
62
7
6
CONTINUOUS
10
277.8301000000
20
230.9874530000
11
277.8301000000
21
229.9389000000
0
LINE
8
10000_FRONT
62
7
6
CONTINUOUS
10
277.8301000000
20
229.7769380000
11
277.8301000000
21
229.2874530000
0
LINE
8
10000_FRONT
62
7
6
CONTINUOUS
10
277.9188790000
20
232.4874530000
11
277.9188790000
21
234.1874530000
0
LINE
8
10000_FRONT
62
7
6
CONTINUOUS
10
278.0928390000
20
229.9389000000
11
278.0928390000
21
229.7769380000
0
LINE
8
10000_FRONT
62
7
6
CONTINUOUS
10
278.1156330000
20
234.1874530000
11
278.1156330000
21
232.4874530000
0
LINE
8
10000_FRONT
62
7
6
CONTINUOUS
10
278.1671120000
20
330.7987250000
11
278.1671120000
21
299.3187250000
0
LINE
8
10000_FRONT
62
7
6
CONTINUOUS
10
278.3063880000
20
229.8993090000
11
278.3063880000
21
230.0492740000
0
LINE
8
10000_FRONT
62
7
6
CONTINUOUS
10
278.8738550000
20
230.0492740000
11
278.8738550000
21
229.8993090000
0
LINE
8
13000_TOP
62
7
6
CONTINUOUS
10
272.7171120000
20
120.0505570000
11
272.8846740000
21
132.0505570000
0
LINE
8
13000_TOP
62
7
6
CONTINUOUS
10
257.2836590000
20
118.6572780000
11
257.2788870000
21
118.5505570000
0
LINE
8
13000_TOP
62
7
6
CONTINUOUS
10
261.2505640000
20
119.4438350000
11
261.2553370000
21
119.5505570000
0
LINE
8
10000_FRONT
62
7
6
CONTINUOUS
10
280.5272500000
20
230.2462370000
11
280.5244390000
21
230.2135820000
0
LINE
8
10000_FRONT
62
7
6
CONTINUOUS
10
276.9284970000
20
234.0138320000
11
276.9291120000
21
234.0194920000
0
LINE
8
10000_FRONT
62
7
6
CONTINUOUS
10
280.7349020000
20
230.2284650000
11
280.7379110000
21
230.2560150000
0
LINE
8
10000_FRONT
62
7
6
CONTINUOUS
10
280.5309630000
20
230.2787910000
11
280.5272500000
21
230.2462370000
0
LINE
8
10000_FRONT
62
7
6
CONTINUOUS
10
276.9277580000
20
234.0083420000
11
276.9284970000
21
234.0138320000
0
LINE
8
10000_FRONT
62
7
6
CONTINUOUS
10
280.7379110000
20
230.2560150000
11
280.7416730000
21
230.2834700000
0
LINE
8
13000_TOP
62
7
6
CONTINUOUS
10
257.2979160000
20
118.7599130000
11
257.2836590000
21
118.6572780000
0
LINE
8
13000_TOP
62
7
6
CONTINUOUS
10
261.2363080000
20
119.3412010000
11
261.2505640000
21
119.4438350000
0
LINE
8
10000_FRONT
62
7
6
CONTINUOUS
10
280.5356120000
20
230.3112180000
11
280.5309630000
21
230.2787910000
0
LINE
8
10000_FRONT
62
7
6
CONTINUOUS
10
276.9269010000
20
234.0030110000
11
276.9277580000
21
234.0083420000
0
LINE
8
10000_FRONT
62
7
6
CONTINUOUS
10
280.7416730000
20
230.2834700000
11
280.7462140000
21
230.3108120000
0
LINE
8
10000_FRONT
62
7
6
CONTINUOUS
10
280.5412330000
20
230.3434950000
11
280.5356120000
21
230.3112180000
0
LINE
8
10000_FRONT
62
7
6
CONTINUOUS
10
276.9259350000
20
233.9978300000
11
276.9269010000
21
234.0030110000
0
LINE
8
10000_FRONT
62
7
6
CONTINUOUS
10
280.7462140000
20
230.3108120000
11
280.7511070000
21
230.3358680000
0
LINE
8
10000_FRONT
62
7
6
CONTINUOUS
10
280.5478610000
20
230.3755970000
11
280.5412330000
21
230.3434950000
0
LINE
8
10000_FRONT
62
7
6
CONTINUOUS
10
276.9248670000
20
233.9927880000
11
276.9259350000
21
233.9978300000
0
LINE
8
10000_FRONT
62
7
6
CONTINUOUS
10
280.7511070000
20
230.3358680000
11
280.7566940000
21
230.3607870000
0
LINE
8
10000_FRONT
62
7
6
CONTINUOUS
10
276.9237040000
20
233.9878750000
11
276.9248670000
21
233.9927880000
0
LINE
8
10000_FRONT
62
7
6
CONTINUOUS
10
280.5547530000
20
230.4044670000
11
280.5478610000
21
230.3755970000
0
LINE
8
10000_FRONT
62
7
6
CONTINUOUS
10
280.7566940000
20
230.3607870000
11
280.7629860000
21
230.3855420000
0
LINE
8
10000_FRONT
62
7
6
CONTINUOUS
10
283.4686400000
20
230.5786160000
11
283.4602360000
21
230.5458230000
0
LINE
8
10000_FRONT
62
7
6
CONTINUOUS
10
276.9224530000
20
233.9830810000
11
276.9237040000
21
233.9878750000
0
LINE
8
10000_FRONT
62
7
6
CONTINUOUS
10
283.6575750000
20
230.5313230000
11
283.6631690000
21
230.5524180000
0
LINE
8
10000_FRONT
62
7
6
CONTINUOUS
10
280.5625140000
20
230.4331310000
11
280.5547530000
21
230.4044670000
0
LINE
8
10000_FRONT
62
7
6
CONTINUOUS
10
276.9211220000
20
233.9783960000
11
276.9224530000
21
233.9830810000
0
LINE
8
10000_FRONT
62
7
6
CONTINUOUS
10
280.7629860000
20
230.3855420000
11
280.7699930000
21
230.4101050000
0
LINE
8
10000_FRONT
62
7
6
CONTINUOUS
10
283.4753630000
20
230.6020910000
11
283.4686400000
21
230.5786160000
0
LINE
8
10000_FRONT
62
7
6
CONTINUOUS
10
283.6631690000
20
230.5524180000
11
283.6693880000
21
230.5733440000
0
LINE
8
10000_FRONT
62
7
6
CONTINUOUS
10
276.8658320000
20
233.8181810000
11
276.8770430000
21
233.8555400000
0
LINE
8
10000_FRONT
62
7
6
CONTINUOUS
10
280.5711610000
20
230.4615440000
11
280.5625140000
21
230.4331310000
0
LINE
8
10000_FRONT
62
7
6
CONTINUOUS
10
276.8629950000
20
233.8088750000
11
276.8658320000
21
233.8181810000
0
LINE
8
10000_FRONT
62
7
6
CONTINUOUS
10
276.8770430000
20
233.8555400000
11
276.8798780000
21
233.8648170000
0
LINE
8
10000_FRONT
62
7
6
CONTINUOUS
10
276.9197190000
20
233.9738080000
11
276.9211220000
21
233.9783960000
0
LINE
8
10000_FRONT
62
7
6
CONTINUOUS
10
276.8798780000
20
233.8648170000
11
276.8827520000
21
233.8740290000
0
LINE
8
10000_FRONT
62
7
6
CONTINUOUS
10
284.3444930000
20
229.7136060000
11
284.3380240000
21
229.6929070000
0
LINE
8
10000_FRONT
62
7
6
CONTINUOUS
10
276.8576310000
20
233.7917400000
11
276.8629950000
21
233.8088750000
0
LINE
8
10000_FRONT
62
7
6
CONTINUOUS
10
283.4826880000
20
230.6253880000
11
283.4753630000
21
230.6020910000
0
LINE
8
10000_FRONT
62
7
6
CONTINUOUS
10
280.7699930000
20
230.4101050000
11
280.7777250000
21
230.4344490000
0
LINE
8
10000_FRONT
62
7
6
CONTINUOUS
10
276.8827520000
20
233.8740290000
11
276.8856800000
21
233.8831580000
0
LINE
8
10000_FRONT
62
7
6
CONTINUOUS
10
276.8521460000
20
233.7747500000
11
276.8576310000
21
233.7917400000
0
LINE
8
10000_FRONT
62
7
6
CONTINUOUS
10
276.9182500000
20
233.9693090000
11
276.9197190000
21
233.9738080000
0
LINE
8
10000_FRONT
62
7
6
CONTINUOUS
10
276.8465580000
20
233.7578710000
11
276.8521460000
21
233.7747500000
0
LINE
8
10000_FRONT
62
7
6
CONTINUOUS
10
276.8856800000
20
233.8831580000
11
276.8886730000
21
233.8921830000
0
LINE
8
10000_FRONT
62
7
6
CONTINUOUS
10
283.6693880000
20
230.5733440000
11
283.6762840000
21
230.5940760000
0
LINE
8
10000_FRONT
62
7
6
CONTINUOUS
10
280.5807090000
20
230.4896640000
11
280.5711610000
21
230.4615440000
0
LINE
8
10000_FRONT
62
7
6
CONTINUOUS
10
276.8351450000
20
233.7243060000
11
276.8465580000
21
233.7578710000
0
LINE
8
10000_FRONT
62
7
6
CONTINUOUS
10
284.5182270000
20
229.6268870000
11
284.5262000000
21
229.6500860000
0
LINE
8
10000_FRONT
62
7
6
CONTINUOUS
10
276.8886730000
20
233.8921830000
11
276.8917470000
21
233.9010870000
0
LINE
8
10000_FRONT
62
7
6
CONTINUOUS
10
276.9167220000
20
233.9648870000
11
276.9182500000
21
233.9693090000
0
LINE
8
10000_FRONT
62
7
6
CONTINUOUS
10
283.4906620000
20
230.6484720000
11
283.4826880000
21
230.6253880000
0
LINE
8
10000_FRONT
62
7
6
CONTINUOUS
10
276.8351450000
20
233.7243060000
11
276.6687740000
21
233.2444750000
0
LINE
8
10000_FRONT
62
7
6
CONTINUOUS
10
284.3380240000
20
229.6929070000
11
284.3308670000
21
229.6724180000
0
LINE
8
10000_FRONT
62
7
6
CONTINUOUS
10
276.6099870000
20
233.0825130000
11
276.4012370000
21
232.4874530000
0
LINE
8
10000_FRONT
62
7
6
CONTINUOUS
10
280.7777250000
20
230.4344490000
11
280.7861910000
21
230.4585470000
0
LINE
8
10000_FRONT
62
7
6
CONTINUOUS
10
276.2020830000
20
232.4874530000
11
276.8067410000
21
234.1874530000
0
LINE
8
10000_FRONT
62
7
6
CONTINUOUS
10
276.8917470000
20
233.9010870000
11
276.8949130000
21
233.9098490000
0
LINE
8
10000_FRONT
62
7
6
CONTINUOUS
10
281.8239610000
20
230.8914750000
11
281.7663740000
21
230.7343120000
0
LINE
8
10000_FRONT
62
7
6
CONTINUOUS
10
276.9142220000
20
233.9580720000
11
276.9167220000
21
233.9648870000
0
LINE
8
10000_FRONT
62
7
6
CONTINUOUS
10
283.6762840000
20
230.5940760000
11
283.6839110000
21
230.6145920000
0
LINE
8
10000_FRONT
62
7
6
CONTINUOUS
10
280.5911750000
20
230.5174470000
11
280.5807090000
21
230.4896640000
0
LINE
8
10000_FRONT
62
7
6
CONTINUOUS
10
284.5095610000
20
229.6039410000
11
284.5182270000
21
229.6268870000
0
LINE
8
10000_FRONT
62
7
6
CONTINUOUS
10
283.4993300000
20
230.6713030000
11
283.4906620000
21
230.6484720000
0
LINE
8
10000_FRONT
62
7
6
CONTINUOUS
10
276.8949130000
20
233.9098490000
11
276.8981860000
21
233.9184490000
0
LINE
8
10000_FRONT
62
7
6
CONTINUOUS
10
280.7861910000
20
230.4585470000
11
280.7954030000
21
230.4823720000
0
LINE
8
10000_FRONT
62
7
6
CONTINUOUS
10
276.9116260000
20
233.9513830000
11
276.9142220000
21
233.9580720000
0
LINE
8
10000_FRONT
62
7
6
CONTINUOUS
10
284.3308670000
20
229.6724180000
11
284.3229730000
21
229.6521670000
0
LINE
8
10000_FRONT
62
7
6
CONTINUOUS
10
276.8981860000
20
233.9184490000
11
276.9008400000
21
233.9251010000
0
LINE
8
10000_FRONT
62
7
6
CONTINUOUS
10
276.9089600000
20
233.9447810000
11
276.9116260000
21
233.9513830000
0
LINE
8
10000_FRONT
62
7
6
CONTINUOUS
10
276.9008400000
20
233.9251010000
11
276.9089600000
21
233.9447810000
0
LINE
8
10000_FRONT
62
7
6
CONTINUOUS
10
283.6839110000
20
230.6145920000
11
283.6923210000
21
230.6348690000
0
LINE
8
10000_FRONT
62
7
6
CONTINUOUS
10
284.5001550000
20
229.5812840000
11
284.5095610000
21
229.6039410000
0
LINE
8
10000_FRONT
62
7
6
CONTINUOUS
10
280.6025750000
20
230.5448500000
11
280.5911750000
21
230.5174470000
0
LINE
8
10000_FRONT
62
7
6
CONTINUOUS
10
283.5087380000
20
230.6938450000
11
283.4993300000
21
230.6713030000
0
LINE
8
10000_FRONT
62
7
6
CONTINUOUS
10
280.7954030000
20
230.4823720000
11
280.8049320000
21
230.5049040000
0
LINE
8
10000_FRONT
62
7
6
CONTINUOUS
10
284.3229730000
20
229.6521670000
11
284.3164610000
21
229.6369890000
0
LINE
8
10000_FRONT
62
7
6
CONTINUOUS
10
276.4307280000
20
244.9572090000
11
276.2670920000
21
244.5905880000
0
LINE
8
10000_FRONT
62
7
6
CONTINUOUS
10
278.3034950000
20
245.1202410000
11
278.4671320000
21
245.4868620000
0
LINE
8
10000_FRONT
62
7
6
CONTINUOUS
10
283.6923210000
20
230.6348690000
11
283.6985040000
21
230.6484840000
0
LINE
8
10000_FRONT
62
7
6
CONTINUOUS
10
284.4899620000
20
229.5589560000
11
284.5001550000
21
229.5812840000
0
LINE
8
10000_FRONT
62
7
6
CONTINUOUS
10
280.6149250000
20
230.5718300000
11
280.6025750000
21
230.5448500000
0
LINE
8
10000_FRONT
62
7
6
CONTINUOUS
10
283.5189320000
20
230.7160600000
11
283.5087380000
21
230.6938450000
0
LINE
8
10000_FRONT
62
7
6
CONTINUOUS
10
280.8049320000
20
230.5049040000
11
280.8151670000
21
230.5271260000
0
LINE
8
10000_FRONT
62
7
6
CONTINUOUS
10
284.3164610000
20
229.6369890000
11
284.3094750000
21
229.6220080000
0
LINE
8
10000_FRONT
62
7
6
CONTINUOUS
10
283.6985040000
20
230.6484840000
11
283.7050860000
21
230.6619370000
0
LINE
8
10000_FRONT
62
7
6
CONTINUOUS
10
280.8151670000
20
230.5271260000
11
280.8261200000
21
230.5490020000
0
LINE
8
10000_FRONT
62
7
6
CONTINUOUS
10
284.4789360000
20
229.5369940000
11
284.4899620000
21
229.5589560000
0
LINE
8
10000_FRONT
62
7
6
CONTINUOUS
10
280.6282420000
20
230.5983440000
11
280.6149250000
21
230.5718300000
0
LINE
8
10000_FRONT
62
7
6
CONTINUOUS
10
283.5299590000
20
230.7379120000
11
283.5189320000
21
230.7160600000
0
LINE
8
10000_FRONT
62
7
6
CONTINUOUS
10
287.1255130000
20
230.7379120000
11
287.1144860000
21
230.7160600000
0
LINE
8
10000_FRONT
62
7
6
CONTINUOUS
10
284.3094750000
20
229.6220080000
11
284.3019930000
21
229.6072650000
0
LINE
8
10000_FRONT
62
7
6
CONTINUOUS
10
283.7050860000
20
230.6619370000
11
283.7120770000
21
230.6751890000
0
LINE
8
10000_FRONT
62
7
6
CONTINUOUS
10
287.3006400000
20
230.6619370000
11
287.3076310000
21
230.6751890000
0
LINE
8
10000_FRONT
62
7
6
CONTINUOUS
10
284.4766790000
20
229.5327460000
11
284.4789360000
21
229.5369940000
0
LINE
8
10000_FRONT
62
7
6
CONTINUOUS
10
280.8261200000
20
230.5490020000
11
280.8378050000
21
230.5704960000
0
LINE
8
10000_FRONT
62
7
6
CONTINUOUS
10
280.6420200000
20
230.6234520000
11
280.6282420000
21
230.5983440000
0
LINE
8
10000_FRONT
62
7
6
CONTINUOUS
10
283.5392810000
20
230.7548810000
11
283.5299590000
21
230.7379120000
0
LINE
8
10000_FRONT
62
7
6
CONTINUOUS
10
287.1348350000
20
230.7548810000
11
287.1255130000
21
230.7379120000
0
LINE
8
10000_FRONT
62
7
6
CONTINUOUS
10
284.3019930000
20
229.6072650000
11
284.2939940000
21
229.5928030000
0
LINE
8
10000_FRONT
62
7
6
CONTINUOUS
10
284.4664880000
20
229.5144970000
11
284.4766790000
21
229.5327460000
0
LINE
8
10000_FRONT
62
7
6
CONTINUOUS
10
283.7120770000
20
230.6751890000
11
283.7194920000
21
230.6881980000
0
LINE
8
10000_FRONT
62
7
6
CONTINUOUS
10
287.3076310000
20
230.6751890000
11
287.3150460000
21
230.6881980000
0
LINE
8
10000_FRONT
62
7
6
CONTINUOUS
10
280.8378050000
20
230.5704960000
11
280.8502350000
21
230.5915740000
0
LINE
8
10000_FRONT
62
7
6
CONTINUOUS
10
283.5491530000
20
230.7715600000
11
283.5392810000
21
230.7548810000
0
LINE
8
10000_FRONT
62
7
6
CONTINUOUS
10
287.1447070000
20
230.7715600000
11
287.1348350000
21
230.7548810000
0
LINE
8
10000_FRONT
62
7
6
CONTINUOUS
10
280.6566900000
20
230.6480560000
11
280.6420200000
21
230.6234520000
0
LINE
8
10000_FRONT
62
7
6
CONTINUOUS
10
284.2939940000
20
229.5928030000
11
284.2854580000
21
229.5786650000
0
LINE
8
10000_FRONT
62
7
6
CONTINUOUS
10
284.4556590000
20
229.4965970000
11
284.4664880000
21
229.5144970000
0
LINE
8
10000_FRONT
62
7
6
CONTINUOUS
10
283.7194920000
20
230.6881980000
11
283.7273430000
21
230.7009250000
0
LINE
8
10000_FRONT
62
7
6
CONTINUOUS
10
287.3150460000
20
230.6881980000
11
287.3228970000
21
230.7009250000
0
LINE
8
10000_FRONT
62
7
6
CONTINUOUS
10
283.5595770000
20
230.7879110000
11
283.5491530000
21
230.7715600000
0
LINE
8
10000_FRONT
62
7
6
CONTINUOUS
10
287.1551310000
20
230.7879110000
11
287.1447070000
21
230.7715600000
0
LINE
8
10000_FRONT
62
7
6
CONTINUOUS
10
280.8502350000
20
230.5915740000
11
280.8634240000
21
230.6121990000
0
LINE
8
10000_FRONT
62
7
6
CONTINUOUS
10
280.6722320000
20
230.6721290000
11
280.6566900000
21
230.6480560000
0
LINE
8
10000_FRONT
62
7
6
CONTINUOUS
10
284.4441900000
20
229.4790930000
11
284.4556590000
21
229.4965970000
0
LINE
8
10000_FRONT
62
7
6
CONTINUOUS
10
288.0397440000
20
229.4790930000
11
288.0512130000
21
229.4965970000
0
LINE
8
10000_FRONT
62
7
6
CONTINUOUS
10
284.2854580000
20
229.5786650000
11
284.2763640000
21
229.5648930000
0
LINE
8
10000_FRONT
62
7
6
CONTINUOUS
10
287.8810120000
20
229.5786650000
11
287.8719180000
21
229.5648930000
0
LINE
8
10000_FRONT
62
7
6
CONTINUOUS
10
283.7273430000
20
230.7009250000
11
283.7356420000
21
230.7133300000
0
LINE
8
10000_FRONT
62
7
6
CONTINUOUS
10
287.3228970000
20
230.7009250000
11
287.3311960000
21
230.7133300000
0
LINE
8
10000_FRONT
62
7
6
CONTINUOUS
10
283.5705550000
20
230.8038940000
11
283.5595770000
21
230.7879110000
0
LINE
8
10000_FRONT
62
7
6
CONTINUOUS
10
287.1661090000
20
230.8038940000
11
287.1551310000
21
230.7879110000
0
LINE
8
10000_FRONT
62
7
6
CONTINUOUS
10
280.8634240000
20
230.6121990000
11
280.8773830000
21
230.6323360000
0
LINE
8
10000_FRONT
62
7
6
CONTINUOUS
10
280.6886210000
20
230.6956400000
11
280.6722320000
21
230.6721290000
0
LINE
8
10000_FRONT
62
7
6
CONTINUOUS
10
274.9879690000
20
233.9691040000
11
274.4013070000
21
233.1389000000
0
LINE
8
10000_FRONT
62
7
6
CONTINUOUS
10
276.2272770000
20
230.7691040000
11
275.6406160000
21
229.9389000000
0
LINE
8
10000_FRONT
62
7
6
CONTINUOUS
10
277.6429440000
20
230.7691040000
11
277.0562820000
21
229.9389000000
0
LINE
8
10000_FRONT
62
7
6
CONTINUOUS
10
279.8228310000
20
230.7691040000
11
279.2361700000
21
229.9389000000
0
LINE
8
10000_FRONT
62
7
6
CONTINUOUS
10
284.4320770000
20
229.4620320000
11
284.4441900000
21
229.4790930000
0
LINE
8
10000_FRONT
62
7
6
CONTINUOUS
10
288.0276310000
20
229.4620320000
11
288.0397440000
21
229.4790930000
0
LINE
8
10000_FRONT
62
7
6
CONTINUOUS
10
274.2213490000
20
233.1628940000
11
274.9531770000
21
234.1874530000
0
LINE
8
10000_FRONT
62
7
6
CONTINUOUS
10
275.4606580000
20
229.9628940000
11
276.1924860000
21
230.9874530000
0
LINE
8
10000_FRONT
62
7
6
CONTINUOUS
10
276.8763250000
20
229.9628940000
11
277.6081530000
21
230.9874530000
0
LINE
8
10000_FRONT
62
7
6
CONTINUOUS
10
279.0562120000
20
229.9628940000
11
279.7880400000
21
230.9874530000
0
LINE
8
10000_FRONT
62
7
6
CONTINUOUS
10
284.2763640000
20
229.5648930000
11
284.2666910000
21
229.5515290000
0
LINE
8
10000_FRONT
62
7
6
CONTINUOUS
10
287.8719180000
20
229.5648930000
11
287.8622450000
21
229.5515290000
0
LINE
8
10000_FRONT
62
7
6
CONTINUOUS
10
277.2052000000
20
246.2154380000
11
276.9695150000
21
245.8904150000
0
LINE
8
10000_FRONT
62
7
6
CONTINUOUS
10
277.5290240000
20
243.8620110000
11
277.7647090000
21
244.1870350000
0
LINE
8
10000_FRONT
62
7
6
CONTINUOUS
10
283.7356420000
20
230.7133300000
11
283.7444010000
21
230.7253720000
0
LINE
8
10000_FRONT
62
7
6
CONTINUOUS
10
287.3311960000
20
230.7133300000
11
287.3399550000
21
230.7253720000
0
LINE
8
10000_FRONT
62
7
6
CONTINUOUS
10
283.5820910000
20
230.8194710000
11
283.5705550000
21
230.8038940000
0
LINE
8
10000_FRONT
62
7
6
CONTINUOUS
10
287.1776450000
20
230.8194710000
11
287.1661090000
21
230.8038940000
0
LINE
8
10000_FRONT
62
7
6
CONTINUOUS
10
280.8773830000
20
230.6323360000
11
280.8886330000
21
230.6474430000
0
LINE
8
10000_FRONT
62
7
6
CONTINUOUS
10
280.7058360000
20
230.7185620000
11
280.6886210000
21
230.6956400000
0
LINE
8
10000_FRONT
62
7
6
CONTINUOUS
10
284.4193180000
20
229.4454620000
11
284.4320770000
21
229.4620320000
0
LINE
8
10000_FRONT
62
7
6
CONTINUOUS
10
288.0148720000
20
229.4454620000
11
288.0276310000
21
229.4620320000
0
LINE
8
10000_FRONT
62
7
6
CONTINUOUS
10
280.8886330000
20
230.6474430000
11
280.9003470000
21
230.6622060000
0
LINE
8
10000_FRONT
62
7
6
CONTINUOUS
10
283.7444010000
20
230.7253720000
11
283.7536340000
21
230.7370100000
0
LINE
8
10000_FRONT
62
7
6
CONTINUOUS
10
287.3399550000
20
230.7253720000
11
287.3491880000
21
230.7370100000
0
LINE
8
10000_FRONT
62
7
6
CONTINUOUS
10
284.2666910000
20
229.5515290000
11
284.2564180000
21
229.5386160000
0
LINE
8
10000_FRONT
62
7
6
CONTINUOUS
10
287.8622450000
20
229.5515290000
11
287.8519720000
21
229.5386160000
0
LINE
8
10000_FRONT
62
7
6
CONTINUOUS
10
283.5941850000
20
230.8346010000
11
283.5820910000
21
230.8194710000
0
LINE
8
10000_FRONT
62
7
6
CONTINUOUS
10
287.1897390000
20
230.8346010000
11
287.1776450000
21
230.8194710000
0
LINE
8
10000_FRONT
62
7
6
CONTINUOUS
10
280.7238540000
20
230.7408650000
11
280.7058360000
21
230.7185620000
0
LINE
8
10000_FRONT
62
7
6
CONTINUOUS
10
284.4059100000
20
229.4294290000
11
284.4193180000
21
229.4454620000
0
LINE
8
10000_FRONT
62
7
6
CONTINUOUS
10
288.0014640000
20
229.4294290000
11
288.0148720000
21
229.4454620000
0
LINE
8
10000_FRONT
62
7
6
CONTINUOUS
10
280.9003470000
20
230.6622060000
11
280.9125240000
21
230.6765900000
0
LINE
8
10000_FRONT
62
7
6
CONTINUOUS
10
283.6068410000
20
230.8492450000
11
283.5941850000
21
230.8346010000
0
LINE
8
10000_FRONT
62
7
6
CONTINUOUS
10
287.2023950000
20
230.8492450000
11
287.1897390000
21
230.8346010000
0
LINE
8
10000_FRONT
62
7
6
CONTINUOUS
10
280.7426530000
20
230.7625210000
11
280.7238540000
21
230.7408650000
0
LINE
8
10000_FRONT
62
7
6
CONTINUOUS
10
283.7536340000
20
230.7370100000
11
283.7633530000
21
230.7482050000
0
LINE
8
10000_FRONT
62
7
6
CONTINUOUS
10
287.3491880000
20
230.7370100000
11
287.3589070000
21
230.7482050000
0
LINE
8
10000_FRONT
62
7
6
CONTINUOUS
10
290.7413630000
20
230.3290670000
11
290.7358220000
21
230.3227260000
0
LINE
8
10000_FRONT
62
7
6
CONTINUOUS
10
284.2564180000
20
229.5386160000
11
284.2455240000
21
229.5261970000
0
LINE
8
10000_FRONT
62
7
6
CONTINUOUS
10
287.8519720000
20
229.5386160000
11
287.8410780000
21
229.5261970000
0
LINE
8
10000_FRONT
62
7
6
CONTINUOUS
10
280.9125240000
20
230.6765900000
11
280.9251650000
21
230.6905610000
0
LINE
8
10000_FRONT
62
7
6
CONTINUOUS
10
284.3918500000
20
229.4139820000
11
284.4059100000
21
229.4294290000
0
LINE
8
10000_FRONT
62
7
6
CONTINUOUS
10
287.9874040000
20
229.4139820000
11
288.0014640000
21
229.4294290000
0
LINE
8
10000_FRONT
62
7
6
CONTINUOUS
10
290.9156300000
20
230.2671310000
11
290.9234680000
21
230.2756280000
0
LINE
8
10000_FRONT
62
7
6
CONTINUOUS
10
280.7622100000
20
230.7835010000
11
280.7426530000
21
230.7625210000
0
LINE
8
10000_FRONT
62
7
6
CONTINUOUS
10
283.6200600000
20
230.8633660000
11
283.6068410000
21
230.8492450000
0
LINE
8
10000_FRONT
62
7
6
CONTINUOUS
10
287.2156140000
20
230.8633660000
11
287.2023950000
21
230.8492450000
0
LINE
8
10000_FRONT
62
7
6
CONTINUOUS
10
291.5130030000
20
230.8633660000
11
291.4997830000
21
230.8492450000
0
LINE
8
10000_FRONT
62
7
6
CONTINUOUS
10
290.7358220000
20
230.3227260000
11
290.7300480000
21
230.3165920000
0
LINE
8
10000_FRONT
62
7
6
CONTINUOUS
10
290.7776530000
20
229.5403190000
11
290.7712710000
21
229.5336180000
0
LINE
8
10000_FRONT
62
7
6
CONTINUOUS
10
283.7633530000
20
230.7482050000
11
283.7735710000
21
230.7589170000
0
LINE
8
10000_FRONT
62
7
6
CONTINUOUS
10
287.3589070000
20
230.7482050000
11
287.3691250000
21
230.7589170000
0
LINE
8
10000_FRONT
62
7
6
CONTINUOUS
10
291.6562960000
20
230.7482050000
11
291.6665140000
21
230.7589170000
0
LINE
8
10000_FRONT
62
7
6
CONTINUOUS
10
284.2455240000
20
229.5261970000
11
284.2364450000
21
229.5167360000
0
LINE
8
10000_FRONT
62
7
6
CONTINUOUS
10
287.8410780000
20
229.5261970000
11
287.8319990000
21
229.5167360000
0
LINE
8
10000_FRONT
62
7
6
CONTINUOUS
10
280.9251650000
20
230.6905610000
11
280.9382710000
21
230.7040820000
0
LINE
8
10000_FRONT
62
7
6
CONTINUOUS
10
284.3771360000
20
229.3991660000
11
284.3918500000
21
229.4139820000
0
LINE
8
10000_FRONT
62
7
6
CONTINUOUS
10
287.9726900000
20
229.3991660000
11
287.9874040000
21
229.4139820000
0
LINE
8
10000_FRONT
62
7
6
CONTINUOUS
10
280.7803110000
20
230.8016510000
11
280.7622100000
21
230.7835010000
0
LINE
8
10000_FRONT
62
7
6
CONTINUOUS
10
290.9074710000
20
230.2589530000
11
290.9156300000
21
230.2671310000
0
LINE
8
10000_FRONT
62
7
6
CONTINUOUS
10
272.3171120000
20
227.2062870000
11
272.1495490000
21
227.0387250000
0
LINE
8
10000_FRONT
62
7
6
CONTINUOUS
10
290.7300480000
20
230.3165920000
11
290.7240510000
21
230.3106740000
0
LINE
8
10000_FRONT
62
7
6
CONTINUOUS
10
283.6338450000
20
230.8769220000
11
283.6200600000
21
230.8633660000
0
LINE
8
10000_FRONT
62
7
6
CONTINUOUS
10
287.2293990000
20
230.8769220000
11
287.2156140000
21
230.8633660000
0
LINE
8
10000_FRONT
62
7
6
CONTINUOUS
10
291.5267880000
20
230.8769220000
11
291.5130030000
21
230.8633660000
0
LINE
8
10000_FRONT
62
7
6
CONTINUOUS
10
290.7712710000
20
229.5336180000
11
290.7646410000
21
229.5271860000
0
LINE
8
10000_FRONT
62
7
6
CONTINUOUS
10
284.2364450000
20
229.5167360000
11
284.2269800000
21
229.5076360000
0
LINE
8
10000_FRONT
62
7
6
CONTINUOUS
10
287.8319990000
20
229.5167360000
11
287.8225340000
21
229.5076360000
0
LINE
8
10000_FRONT
62
7
6
CONTINUOUS
10
280.9382710000
20
230.7040820000
11
280.9518420000
21
230.7171200000
0
LINE
8
10000_FRONT
62
7
6
CONTINUOUS
10
283.7735710000
20
230.7589170000
11
283.7842990000
21
230.7691040000
0
LINE
8
10000_FRONT
62
7
6
CONTINUOUS
10
287.3691250000
20
230.7589170000
11
287.3798530000
21
230.7691040000
0
LINE
8
10000_FRONT
62
7
6
CONTINUOUS
10
291.6665140000
20
230.7589170000
11
291.6772420000
21
230.7691040000
0
LINE
8
10000_FRONT
62
7
6
CONTINUOUS
10
290.9326330000
20
229.4119510000
11
290.9427080000
21
229.4214790000
0
LINE
8
10000_FRONT
62
7
6
CONTINUOUS
10
280.7989880000
20
230.8192050000
11
280.7803110000
21
230.8016510000
0
LINE
8
10000_FRONT
62
7
6
CONTINUOUS
10
290.8990010000
20
230.2511130000
11
290.9074710000
21
230.2589530000
0
LINE
8
10000_FRONT
62
7
6
CONTINUOUS
10
284.3617630000
20
229.3850300000
11
284.3771360000
21
229.3991660000
0
LINE
8
10000_FRONT
62
7
6
CONTINUOUS
10
287.9573170000
20
229.3850300000
11
287.9726900000
21
229.3991660000
0
LINE
8
10000_FRONT
62
7
6
CONTINUOUS
10
290.7240510000
20
230.3106740000
11
290.7178400000
21
230.3049800000
0
LINE
8
10000_FRONT
62
7
6
CONTINUOUS
10
283.6481980000
20
230.8898760000
11
283.6338450000
21
230.8769220000
0
LINE
8
10000_FRONT
62
7
6
CONTINUOUS
10
287.2437520000
20
230.8898760000
11
287.2293990000
21
230.8769220000
0
LINE
8
10000_FRONT
62
7
6
CONTINUOUS
10
291.5411410000
20
230.8898760000
11
291.5267880000
21
230.8769220000
0
LINE
8
10000_FRONT
62
7
6
CONTINUOUS
10
290.7646410000
20
229.5271860000
11
290.7577690000
21
229.5210390000
0
LINE
8
10000_FRONT
62
7
6
CONTINUOUS
10
280.9518420000
20
230.7171200000
11
280.9658800000
21
230.7296370000
0
LINE
8
10000_FRONT
62
7
6
CONTINUOUS
10
284.2269800000
20
229.5076360000
11
284.2171490000
21
229.4989190000
0
LINE
8
10000_FRONT
62
7
6
CONTINUOUS
10
287.8225340000
20
229.5076360000
11
287.8127030000
21
229.4989190000
0
LINE
8
10000_FRONT
62
7
6
CONTINUOUS
10
280.8182270000
20
230.8361300000
11
280.7989880000
21
230.8192050000
0
LINE
8
10000_FRONT
62
7
6
CONTINUOUS
10
290.9221970000
20
229.4028090000
11
290.9326330000
21
229.4119510000
0
LINE
8
10000_FRONT
62
7
6
CONTINUOUS
10
283.7842990000
20
230.7691040000
11
283.7942560000
21
230.7776800000
0
LINE
8
10000_FRONT
62
7
6
CONTINUOUS
10
287.3798530000
20
230.7691040000
11
287.3898100000
21
230.7776800000
0
LINE
8
10000_FRONT
62
7
6
CONTINUOUS
10
291.6772420000
20
230.7691040000
11
291.6871980000
21
230.7776800000
0
LINE
8
10000_FRONT
62
7
6
CONTINUOUS
10
290.8902270000
20
230.2436280000
11
290.8990010000
21
230.2511130000
0
LINE
8
10000_FRONT
62
7
6
CONTINUOUS
10
290.7178400000
20
230.3049800000
11
290.7114280000
21
230.2995200000
0
LINE
8
10000_FRONT
62
7
6
CONTINUOUS
10
284.3461510000
20
229.3719440000
11
284.3617630000
21
229.3850300000
0
LINE
8
10000_FRONT
62
7
6
CONTINUOUS
10
287.9417050000
20
229.3719440000
11
287.9573170000
21
229.3850300000
0
LINE
8
10000_FRONT
62
7
6
CONTINUOUS
10
280.9658800000
20
230.7296370000
11
280.9803840000
21
230.7416010000
0
LINE
8
10000_FRONT
62
7
6
CONTINUOUS
10
283.6641570000
20
230.9030140000
11
283.6481980000
21
230.8898760000
0
LINE
8
10000_FRONT
62
7
6
CONTINUOUS
10
287.2597110000
20
230.9030140000
11
287.2437520000
21
230.8898760000
0
LINE
8
10000_FRONT
62
7
6
CONTINUOUS
10
291.5571000000
20
230.9030140000
11
291.5411410000
21
230.8898760000
0
LINE
8
10000_FRONT
62
7
6
CONTINUOUS
10
290.7577690000
20
229.5210390000
11
290.7506630000
21
229.5151940000
0
LINE
8
10000_FRONT
62
7
6
CONTINUOUS
10
280.8380170000
20
230.8523910000
11
280.8182270000
21
230.8361300000
0
LINE
8
10000_FRONT
62
7
6
CONTINUOUS
10
284.2171490000
20
229.4989190000
11
284.2069690000
21
229.4906090000
0
LINE
8
10000_FRONT
62
7
6
CONTINUOUS
10
287.8127030000
20
229.4989190000
11
287.8025230000
21
229.4906090000
0
LINE
8
10000_FRONT
62
7
6
CONTINUOUS
10
292.1100920000
20
229.4989190000
11
292.0999110000
21
229.4906090000
0
LINE
8
10000_FRONT
62
7
6
CONTINUOUS
10
290.9114240000
20
229.3940560000
11
290.9221970000
21
229.4028090000
0
LINE
8
10000_FRONT
62
7
6
CONTINUOUS
10
290.7114280000
20
230.2995200000
11
290.7048220000
21
230.2943020000
0
LINE
8
10000_FRONT
62
7
6
CONTINUOUS
10
283.7942560000
20
230.7776800000
11
283.8045960000
21
230.7858080000
0
LINE
8
10000_FRONT
62
7
6
CONTINUOUS
10
287.3898100000
20
230.7776800000
11
287.4001500000
21
230.7858080000
0
LINE
8
10000_FRONT
62
7
6
CONTINUOUS
10
291.6871980000
20
230.7776800000
11
291.6975390000
21
230.7858080000
0
LINE
8
10000_FRONT
62
7
6
CONTINUOUS
10
290.8792360000
20
230.2350730000
11
290.8902270000
21
230.2436280000
0
LINE
8
10000_FRONT
62
7
6
CONTINUOUS
10
280.8583460000
20
230.8679560000
11
280.8380170000
21
230.8523910000
0
LINE
8
10000_FRONT
62
7
6
CONTINUOUS
10
284.3299540000
20
229.3595620000
11
284.3461510000
21
229.3719440000
0
LINE
8
10000_FRONT
62
7
6
CONTINUOUS
10
287.9255080000
20
229.3595620000
11
287.9417050000
21
229.3719440000
0
LINE
8
10000_FRONT
62
7
6
CONTINUOUS
10
292.2228960000
20
229.3595620000
11
292.2390940000
21
229.3719440000
0
LINE
8
10000_FRONT
62
7
6
CONTINUOUS
10
280.9803840000
20
230.7416010000
11
280.9953560000
21
230.7529750000
0
LINE
8
10000_FRONT
62
7
6
CONTINUOUS
10
290.9003370000
20
229.3856940000
11
290.9114240000
21
229.3940560000
0
LINE
8
10000_FRONT
62
7
6
CONTINUOUS
10
290.7506630000
20
229.5151940000
11
290.7433290000
21
229.5096670000
0
LINE
8
10000_FRONT
62
7
6
CONTINUOUS
10
292.0999110000
20
229.4906090000
11
292.0894000000
21
229.4827290000
0
LINE
8
10000_FRONT
62
7
6
CONTINUOUS
10
284.2069690000
20
229.4906090000
11
284.1964570000
21
229.4827290000
0
LINE
8
10000_FRONT
62
7
6
CONTINUOUS
10
287.8025230000
20
229.4906090000
11
287.7920110000
21
229.4827290000
0
LINE
8
10000_FRONT
62
7
6
CONTINUOUS
10
283.6807180000
20
230.9154130000
11
283.6641570000
21
230.9030140000
0
LINE
8
10000_FRONT
62
7
6
CONTINUOUS
10
287.2762720000
20
230.9154130000
11
287.2597110000
21
230.9030140000
0
LINE
8
10000_FRONT
62
7
6
CONTINUOUS
10
291.5736600000
20
230.9154130000
11
291.5571000000
21
230.9030140000
0
LINE
8
10000_FRONT
62
7
6
CONTINUOUS
10
290.7048220000
20
230.2943020000
11
290.6980340000
21
230.2893340000
0
LINE
8
10000_FRONT
62
7
6
CONTINUOUS
10
283.8045960000
20
230.7858080000
11
283.8152910000
21
230.7934840000
0
LINE
8
10000_FRONT
62
7
6
CONTINUOUS
10
287.4001500000
20
230.7858080000
11
287.4108450000
21
230.7934840000
0
LINE
8
10000_FRONT
62
7
6
CONTINUOUS
10
291.6975390000
20
230.7858080000
11
291.7082340000
21
230.7934840000
0
LINE
8
10000_FRONT
62
7
6
CONTINUOUS
10
280.8792010000
20
230.8827910000
11
280.8583460000
21
230.8679560000
0
LINE
8
10000_FRONT
62
7
6
CONTINUOUS
10
290.8678570000
20
230.2270430000
11
290.8792360000
21
230.2350730000
0
LINE
8
10000_FRONT
62
7
6
CONTINUOUS
10
290.8889610000
20
229.3777260000
11
290.9003370000
21
229.3856940000
0
LINE
8
10000_FRONT
62
7
6
CONTINUOUS
10
280.9953560000
20
230.7529750000
11
281.0108190000
21
230.7637490000
0
LINE
8
10000_FRONT
62
7
6
CONTINUOUS
10
284.3132140000
20
229.3479000000
11
284.3299540000
21
229.3595620000
0
LINE
8
10000_FRONT
62
7
6
CONTINUOUS
10
287.9087680000
20
229.3479000000
11
287.9255080000
21
229.3595620000
0
LINE
8
10000_FRONT
62
7
6
CONTINUOUS
10
292.2061570000
20
229.3479000000
11
292.2228960000
21
229.3595620000
0
LINE
8
10000_FRONT
62
7
6
CONTINUOUS
10
284.1964570000
20
229.4827290000
11
284.1856310000
21
229.4753040000
0
LINE
8
10000_FRONT
62
7
6
CONTINUOUS
10
287.7920110000
20
229.4827290000
11
287.7811850000
21
229.4753040000
0
LINE
8
10000_FRONT
62
7
6
CONTINUOUS
10
292.0894000000
20
229.4827290000
11
292.0785740000
21
229.4753040000
0
LINE
8
10000_FRONT
62
7
6
CONTINUOUS
10
290.7433290000
20
229.5096670000
11
290.7349670000
21
229.5039430000
0
LINE
8
10000_FRONT
62
7
6
CONTINUOUS
10
283.6978310000
20
230.9270680000
11
283.6807180000
21
230.9154130000
0
LINE
8
10000_FRONT
62
7
6
CONTINUOUS
10
287.2933850000
20
230.9270680000
11
287.2762720000
21
230.9154130000
0
LINE
8
10000_FRONT
62
7
6
CONTINUOUS
10
291.5907740000
20
230.9270680000
11
291.5736600000
21
230.9154130000
0
LINE
8
10000_FRONT
62
7
6
CONTINUOUS
10
290.6980340000
20
230.2893340000
11
290.6910740000
21
230.2846250000
0
LINE
8
10000_FRONT
62
7
6
CONTINUOUS
10
280.9005690000
20
230.8968630000
11
280.8792010000
21
230.8827910000
0
LINE
8
10000_FRONT
62
7
6
CONTINUOUS
10
283.8152910000
20
230.7934840000
11
283.8263120000
21
230.8007030000
0
LINE
8
10000_FRONT
62
7
6
CONTINUOUS
10
287.4108450000
20
230.7934840000
11
287.4218660000
21
230.8007030000
0
LINE
8
10000_FRONT
62
7
6
CONTINUOUS
10
291.7082340000
20
230.7934840000
11
291.7192550000
21
230.8007030000
0
LINE
8
10000_FRONT
62
7
6
CONTINUOUS
10
290.8773190000
20
229.3701540000
11
290.8889610000
21
229.3777260000
0
LINE
8
10000_FRONT
62
7
6
CONTINUOUS
10
290.8561360000
20
230.2195180000
11
290.8678570000
21
230.2270430000
0
LINE
8
10000_FRONT
62
7
6
CONTINUOUS
10
281.0108190000
20
230.7637490000
11
281.0267190000
21
230.7738900000
0
LINE
8
10000_FRONT
62
7
6
CONTINUOUS
10
274.6508480000
20
230.7739030000
11
274.3041300000
21
230.5531550000
0
LINE
8
10000_FRONT
62
7
6
CONTINUOUS
10
285.3808816378
20
230.7746372848
11
285.0341636378
21
230.5538892848
0
LINE
8
10000_FRONT
62
7
6
CONTINUOUS
10
284.2959760000
20
229.3369720000
11
284.3132140000
21
229.3479000000
0
LINE
8
10000_FRONT
62
7
6
CONTINUOUS
10
287.8915300000
20
229.3369720000
11
287.9087680000
21
229.3479000000
0
LINE
8
10000_FRONT
62
7
6
CONTINUOUS
10
292.1889190000
20
229.3369720000
11
292.2061570000
21
229.3479000000
0
LINE
8
10000_FRONT
62
7
6
CONTINUOUS
10
274.2213490000
20
230.7031200000
11
274.6700440000
21
230.9874530000
0
LINE
8
10000_FRONT
62
7
6
CONTINUOUS
10
284.9513826378
20
230.7038542848
11
285.4000776378
21
230.9881872848
0
LINE
8
11000_LEFT
62
7
6
CONTINUOUS
10
475.3887640000
20
352.5127650000
11
475.4513860000
21
352.5523720000
0
LINE
8
11000_LEFT
62
7
6
CONTINUOUS
10
475.2824630000
20
348.7646840000
11
475.2198410000
21
348.7250780000
0
LINE
8
10000_FRONT
62
7
6
CONTINUOUS
10
284.1856310000
20
229.4753040000
11
284.1745100000
21
229.4683560000
0
LINE
8
10000_FRONT
62
7
6
CONTINUOUS
10
287.7811850000
20
229.4753040000
11
287.7700640000
21
229.4683560000
0
LINE
8
10000_FRONT
62
7
6
CONTINUOUS
10
292.0785740000
20
229.4753040000
11
292.0674530000
21
229.4683560000
0
LINE
8
10000_FRONT
62
7
6
CONTINUOUS
10
290.6910740000
20
230.2846250000
11
290.6839520000
21
230.2801840000
0
LINE
8
10000_FRONT
62
7
6
CONTINUOUS
10
283.7154480000
20
230.9379730000
11
283.6978310000
21
230.9270680000
0
LINE
8
10000_FRONT
62
7
6
CONTINUOUS
10
287.3110020000
20
230.9379730000
11
287.2933850000
21
230.9270680000
0
LINE
8
10000_FRONT
62
7
6
CONTINUOUS
10
291.6083910000
20
230.9379730000
11
291.5907740000
21
230.9270680000
0
LINE
8
10000_FRONT
62
7
6
CONTINUOUS
10
290.7349670000
20
229.5039430000
11
290.7263540000
21
229.4986140000
0
LINE
8
10000_FRONT
62
7
6
CONTINUOUS
10
280.9224390000
20
230.9101380000
11
280.9005690000
21
230.8968630000
0
LINE
8
10000_FRONT
62
7
6
CONTINUOUS
10
290.8654350000
20
229.3629800000
11
290.8773190000
21
229.3701540000
0
LINE
8
10000_FRONT
62
7
6
CONTINUOUS
10
283.8263120000
20
230.8007030000
11
283.8376300000
21
230.8074640000
0
LINE
8
10000_FRONT
62
7
6
CONTINUOUS
10
287.4218660000
20
230.8007030000
11
287.4331840000
21
230.8074640000
0
LINE
8
10000_FRONT
62
7
6
CONTINUOUS
10
291.7192550000
20
230.8007030000
11
291.7305730000
21
230.8074640000
0
LINE
8
10000_FRONT
62
7
6
CONTINUOUS
10
290.8441160000
20
230.2124790000
11
290.8561360000
21
230.2195180000
0
LINE
8
10000_FRONT
62
7
6
CONTINUOUS
10
281.0267190000
20
230.7738900000
11
281.0430220000
21
230.7833920000
0
LINE
8
11000_LEFT
62
7
6
CONTINUOUS
10
471.0356130000
20
351.2137250000
11
471.7717350000
21
351.6387250000
0
LINE
8
10000_FRONT
62
7
6
CONTINUOUS
10
284.2782820000
20
229.3267920000
11
284.2959760000
21
229.3369720000
0
LINE
8
10000_FRONT
62
7
6
CONTINUOUS
10
287.8738360000
20
229.3267920000
11
287.8915300000
21
229.3369720000
0
LINE
8
10000_FRONT
62
7
6
CONTINUOUS
10
292.1712250000
20
229.3267920000
11
292.1889190000
21
229.3369720000
0
LINE
8
10000_FRONT
62
7
6
CONTINUOUS
10
290.6839520000
20
230.2801840000
11
290.6766780000
21
230.2760200000
0
LINE
8
10000_FRONT
62
7
6
CONTINUOUS
10
284.1745100000
20
229.4683560000
11
284.1631110000
21
229.4619090000
0
LINE
8
10000_FRONT
62
7
6
CONTINUOUS
10
287.7700640000
20
229.4683560000
11
287.7586650000
21
229.4619090000
0
LINE
8
10000_FRONT
62
7
6
CONTINUOUS
10
292.0674530000
20
229.4683560000
11
292.0560540000
21
229.4619090000
0
LINE
8
10000_FRONT
62
7
6
CONTINUOUS
10
283.7335190000
20
230.9481230000
11
283.7154480000
21
230.9379730000
0
LINE
8
10000_FRONT
62
7
6
CONTINUOUS
10
287.3290730000
20
230.9481230000
11
287.3110020000
21
230.9379730000
0
LINE
8
10000_FRONT
62
7
6
CONTINUOUS
10
291.6264620000
20
230.9481230000
11
291.6083910000
21
230.9379730000
0
LINE
8
10000_FRONT
62
7
6
CONTINUOUS
10
290.7263540000
20
229.4986140000
11
290.7175100000
21
229.4936640000
0
LINE
8
10000_FRONT
62
7
6
CONTINUOUS
10
290.8533340000
20
229.3562070000
11
290.8654350000
21
229.3629800000
0
LINE
8
10000_FRONT
62
7
6
CONTINUOUS
10
280.9446290000
20
230.9225000000
11
280.9224390000
21
230.9101380000
0
LINE
8
10000_FRONT
62
7
6
CONTINUOUS
10
283.8376300000
20
230.8074640000
11
283.8492170000
21
230.8137600000
0
LINE
8
10000_FRONT
62
7
6
CONTINUOUS
10
287.4331840000
20
230.8074640000
11
287.4447710000
21
230.8137600000
0
LINE
8
10000_FRONT
62
7
6
CONTINUOUS
10
291.7305730000
20
230.8074640000
11
291.7421600000
21
230.8137600000
0
LINE
8
10000_FRONT
62
7
6
CONTINUOUS
10
290.8318410000
20
230.2059030000
11
290.8441160000
21
230.2124790000
0
LINE
8
10000_FRONT
62
7
6
CONTINUOUS
10
281.0430220000
20
230.7833920000
11
281.0596950000
21
230.7922510000
0
LINE
8
10000_FRONT
62
7
6
CONTINUOUS
10
284.2601750000
20
229.3173760000
11
284.2782820000
21
229.3267920000
0
LINE
8
10000_FRONT
62
7
6
CONTINUOUS
10
287.8557290000
20
229.3173760000
11
287.8738360000
21
229.3267920000
0
LINE
8
10000_FRONT
62
7
6
CONTINUOUS
10
292.1531180000
20
229.3173760000
11
292.1712250000
21
229.3267920000
0
LINE
8
10000_FRONT
62
7
6
CONTINUOUS
10
290.6766780000
20
230.2760200000
11
290.6676500000
21
230.2713380000
0
LINE
8
10000_FRONT
62
7
6
CONTINUOUS
10
290.8410390000
20
229.3498380000
11
290.8533340000
21
229.3562070000
0
LINE
8
10000_FRONT
62
7
6
CONTINUOUS
10
280.9672640000
20
230.9340450000
11
280.9446290000
21
230.9225000000
0
LINE
8
10000_FRONT
62
7
6
CONTINUOUS
10
283.7519950000
20
230.9575110000
11
283.7335190000
21
230.9481230000
0
LINE
8
10000_FRONT
62
7
6
CONTINUOUS
10
287.3475490000
20
230.9575110000
11
287.3290730000
21
230.9481230000
0
LINE
8
10000_FRONT
62
7
6
CONTINUOUS
10
291.6449380000
20
230.9575110000
11
291.6264620000
21
230.9481230000
0
LINE
8
10000_FRONT
62
7
6
CONTINUOUS
10
284.1631110000
20
229.4619090000
11
284.1514510000
21
229.4559880000
0
LINE
8
10000_FRONT
62
7
6
CONTINUOUS
10
287.7586650000
20
229.4619090000
11
287.7470050000
21
229.4559880000
0
LINE
8
10000_FRONT
62
7
6
CONTINUOUS
10
292.0560540000
20
229.4619090000
11
292.0443940000
21
229.4559880000
0
LINE
8
10000_FRONT
62
7
6
CONTINUOUS
10
290.7175100000
20
229.4936640000
11
290.7084540000
21
229.4890800000
0
LINE
8
10000_FRONT
62
7
6
CONTINUOUS
10
283.8492170000
20
230.8137600000
11
283.8630070000
21
230.8204980000
0
LINE
8
10000_FRONT
62
7
6
CONTINUOUS
10
287.4447710000
20
230.8137600000
11
287.4585610000
21
230.8204980000
0
LINE
8
10000_FRONT
62
7
6
CONTINUOUS
10
291.7421600000
20
230.8137600000
11
291.7559500000
21
230.8204980000
0
LINE
8
10000_FRONT
62
7
6
CONTINUOUS
10
290.8174120000
20
230.1988670000
11
290.8318410000
21
230.2059030000
0
LINE
8
10000_FRONT
62
7
6
CONTINUOUS
10
281.0596950000
20
230.7922510000
11
281.0767050000
21
230.8004600000
0
LINE
8
10000_FRONT
62
7
6
CONTINUOUS
10
290.8250300000
20
229.3422620000
11
290.8410390000
21
229.3498380000
0
LINE
8
10000_FRONT
62
7
6
CONTINUOUS
10
284.2416970000
20
229.3087370000
11
284.2601750000
21
229.3173760000
0
LINE
8
10000_FRONT
62
7
6
CONTINUOUS
10
287.8372510000
20
229.3087370000
11
287.8557290000
21
229.3173760000
0
LINE
8
10000_FRONT
62
7
6
CONTINUOUS
10
292.1346400000
20
229.3087370000
11
292.1531180000
21
229.3173760000
0
LINE
8
10000_FRONT
62
7
6
CONTINUOUS
10
280.9903080000
20
230.9447710000
11
280.9672640000
21
230.9340450000
0
LINE
8
10000_FRONT
62
7
6
CONTINUOUS
10
290.6676500000
20
230.2713380000
11
290.6584340000
21
230.2670490000
0
LINE
8
10000_FRONT
62
7
6
CONTINUOUS
10
283.7708270000
20
230.9661330000
11
283.7519950000
21
230.9575110000
0
LINE
8
10000_FRONT
62
7
6
CONTINUOUS
10
287.3663810000
20
230.9661330000
11
287.3475490000
21
230.9575110000
0
LINE
8
10000_FRONT
62
7
6
CONTINUOUS
10
291.6637700000
20
230.9661330000
11
291.6449380000
21
230.9575110000
0
LINE
8
10000_FRONT
62
7
6
CONTINUOUS
10
290.7084540000
20
229.4890800000
11
290.6992070000
21
229.4848480000
0
LINE
8
10000_FRONT
62
7
6
CONTINUOUS
10
284.1514510000
20
229.4559880000
11
284.1395490000
21
229.4506140000
0
LINE
8
10000_FRONT
62
7
6
CONTINUOUS
10
287.7470050000
20
229.4559880000
11
287.7351030000
21
229.4506140000
0
LINE
8
10000_FRONT
62
7
6
CONTINUOUS
10
292.0443940000
20
229.4559880000
11
292.0324920000
21
229.4506140000
0
LINE
8
10000_FRONT
62
7
6
CONTINUOUS
10
290.8027300000
20
230.1923860000
11
290.8174120000
21
230.1988670000
0
LINE
8
10000_FRONT
62
7
6
CONTINUOUS
10
281.0767050000
20
230.8004600000
11
281.0940170000
21
230.8080130000
0
LINE
8
10000_FRONT
62
7
6
CONTINUOUS
10
283.8630070000
20
230.8204980000
11
283.8770910000
21
230.8265740000
0
LINE
8
10000_FRONT
62
7
6
CONTINUOUS
10
287.4585610000
20
230.8204980000
11
287.4726450000
21
230.8265740000
0
LINE
8
10000_FRONT
62
7
6
CONTINUOUS
10
291.7559500000
20
230.8204980000
11
291.7700340000
21
230.8265740000
0
LINE
8
10000_FRONT
62
7
6
CONTINUOUS
10
290.8087670000
20
229.3353160000
11
290.8250300000
21
229.3422620000
0
LINE
8
10000_FRONT
62
7
6
CONTINUOUS
10
281.0137260000
20
230.9546780000
11
280.9903080000
21
230.9447710000
0
LINE
8
10000_FRONT
62
7
6
CONTINUOUS
10
290.6584340000
20
230.2670490000
11
290.6490530000
21
230.2631250000
0
LINE
8
10000_FRONT
62
7
6
CONTINUOUS
10
284.2228910000
20
229.3008910000
11
284.2416970000
21
229.3087370000
0
LINE
8
10000_FRONT
62
7
6
CONTINUOUS
10
287.8184450000
20
229.3008910000
11
287.8372510000
21
229.3087370000
0
LINE
8
10000_FRONT
62
7
6
CONTINUOUS
10
292.1158340000
20
229.3008910000
11
292.1346400000
21
229.3087370000
0
LINE
8
10000_FRONT
62
7
6
CONTINUOUS
10
290.6992070000
20
229.4848480000
11
290.6897900000
21
229.4809520000
0
LINE
8
10000_FRONT
62
7
6
CONTINUOUS
10
283.7899650000
20
230.9739830000
11
283.7708270000
21
230.9661330000
0
LINE
8
10000_FRONT
62
7
6
CONTINUOUS
10
287.3855190000
20
230.9739830000
11
287.3663810000
21
230.9661330000
0
LINE
8
10000_FRONT
62
7
6
CONTINUOUS
10
291.6829080000
20
230.9739830000
11
291.6637700000
21
230.9661330000
0
LINE
8
10000_FRONT
62
7
6
CONTINUOUS
10
290.7878250000
20
230.1864240000
11
290.8027300000
21
230.1923860000
0
LINE
8
10000_FRONT
62
7
6
CONTINUOUS
10
281.0940170000
20
230.8080130000
11
281.1116000000
21
230.8149050000
0
LINE
8
10000_FRONT
62
7
6
CONTINUOUS
10
284.1395490000
20
229.4506140000
11
284.1253640000
21
229.4450530000
0
LINE
8
10000_FRONT
62
7
6
CONTINUOUS
10
287.7351030000
20
229.4506140000
11
287.7209180000
21
229.4450530000
0
LINE
8
10000_FRONT
62
7
6
CONTINUOUS
10
292.0324920000
20
229.4506140000
11
292.0183070000
21
229.4450530000
0
LINE
8
10000_FRONT
62
7
6
CONTINUOUS
10
290.7922780000
20
229.3289670000
11
290.8087670000
21
229.3353160000
0
LINE
8
10000_FRONT
62
7
6
CONTINUOUS
10
281.0374790000
20
230.9637670000
11
281.0137260000
21
230.9546780000
0
LINE
8
10000_FRONT
62
7
6
CONTINUOUS
10
290.6490530000
20
230.2631250000
11
290.6395280000
21
230.2595400000
0
LINE
8
10000_FRONT
62
7
6
CONTINUOUS
10
283.8770910000
20
230.8265740000
11
283.8914390000
21
230.8319610000
0
LINE
8
10000_FRONT
62
7
6
CONTINUOUS
10
287.4726450000
20
230.8265740000
11
287.4869930000
21
230.8319610000
0
LINE
8
10000_FRONT
62
7
6
CONTINUOUS
10
291.7700340000
20
230.8265740000
11
291.7843810000
21
230.8319610000
0
LINE
8
10000_FRONT
62
7
6
CONTINUOUS
10
290.6897900000
20
229.4809520000
11
290.6802210000
21
229.4773800000
0
LINE
8
10000_FRONT
62
7
6
CONTINUOUS
10
281.8100270000
20
229.3510580000
11
281.8359580000
21
229.3606360000
0
LINE
8
10000_FRONT
62
7
6
CONTINUOUS
10
284.2038010000
20
229.2938510000
11
284.2228910000
21
229.3008910000
0
LINE
8
10000_FRONT
62
7
6
CONTINUOUS
10
287.7993550000
20
229.2938510000
11
287.8184450000
21
229.3008910000
0
LINE
8
10000_FRONT
62
7
6
CONTINUOUS
10
292.0967440000
20
229.2938510000
11
292.1158340000
21
229.3008910000
0
LINE
8
10000_FRONT
62
7
6
CONTINUOUS
10
283.8093600000
20
230.9810540000
11
283.7899650000
21
230.9739830000
0
LINE
8
10000_FRONT
62
7
6
CONTINUOUS
10
287.4049140000
20
230.9810540000
11
287.3855190000
21
230.9739830000
0
LINE
8
10000_FRONT
62
7
6
CONTINUOUS
10
291.7023030000
20
230.9810540000
11
291.6829080000
21
230.9739830000
0
LINE
8
10000_FRONT
62
7
6
CONTINUOUS
10
290.7727250000
20
230.1809440000
11
290.7878250000
21
230.1864240000
0
LINE
8
10000_FRONT
62
7
6
CONTINUOUS
10
281.1116000000
20
230.8149050000
11
281.1271810000
21
230.8203880000
0
LINE
8
10000_FRONT
62
7
6
CONTINUOUS
10
290.7755880000
20
229.3231780000
11
290.7922780000
21
229.3289670000
0
LINE
8
10000_FRONT
62
7
6
CONTINUOUS
10
281.7838940000
20
229.3420690000
11
281.8100270000
21
229.3510580000
0
LINE
8
10000_FRONT
62
7
6
CONTINUOUS
10
281.0615330000
20
230.9720370000
11
281.0374790000
21
230.9637670000
0
LINE
8
10000_FRONT
62
7
6
CONTINUOUS
10
290.6395280000
20
230.2595400000
11
290.6298810000
21
230.2562650000
0
LINE
8
10000_FRONT
62
7
6
CONTINUOUS
10
281.6392040000
20
229.4794080000
11
281.6140960000
21
229.4709210000
0
LINE
8
10000_FRONT
62
7
6
CONTINUOUS
10
290.6802210000
20
229.4773800000
11
290.6705210000
21
229.4741160000
0
LINE
8
10000_FRONT
62
7
6
CONTINUOUS
10
284.1253640000
20
229.4450530000
11
284.1109080000
21
229.4402450000
0
LINE
8
10000_FRONT
62
7
6
CONTINUOUS
10
287.7209180000
20
229.4450530000
11
287.7064620000
21
229.4402450000
0
LINE
8
10000_FRONT
62
7
6
CONTINUOUS
10
292.0183070000
20
229.4450530000
11
292.0038510000
21
229.4402450000
0
LINE
8
10000_FRONT
62
7
6
CONTINUOUS
10
290.7574590000
20
230.1759100000
11
290.7727250000
21
230.1809440000
0
LINE
8
10000_FRONT
62
7
6
CONTINUOUS
10
283.8914390000
20
230.8319610000
11
283.9060190000
21
230.8366310000
0
LINE
8
10000_FRONT
62
7
6
CONTINUOUS
10
287.4869930000
20
230.8319610000
11
287.5015730000
21
230.8366310000
0
LINE
8
10000_FRONT
62
7
6
CONTINUOUS
10
291.7843810000
20
230.8319610000
11
291.7989610000
21
230.8366310000
0
LINE
8
10000_FRONT
62
7
6
CONTINUOUS
10
281.7575760000
20
229.3336420000
11
281.7838940000
21
229.3420690000
0
LINE
8
10000_FRONT
62
7
6
CONTINUOUS
10
284.1824720000
20
229.2870340000
11
284.2038010000
21
229.2938510000
0
LINE
8
10000_FRONT
62
7
6
CONTINUOUS
10
287.7780260000
20
229.2870340000
11
287.7993550000
21
229.2938510000
0
LINE
8
10000_FRONT
62
7
6
CONTINUOUS
10
292.0754150000
20
229.2870340000
11
292.0967440000
21
229.2938510000
0
LINE
8
10000_FRONT
62
7
6
CONTINUOUS
10
283.8312240000
20
230.9880160000
11
283.8093600000
21
230.9810540000
0
LINE
8
10000_FRONT
62
7
6
CONTINUOUS
10
287.4267780000
20
230.9880160000
11
287.4049140000
21
230.9810540000
0
LINE
8
10000_FRONT
62
7
6
CONTINUOUS
10
291.7241660000
20
230.9880160000
11
291.7023030000
21
230.9810540000
0
LINE
8
10000_FRONT
62
7
6
CONTINUOUS
10
281.1271810000
20
230.8203880000
11
281.1429210000
21
230.8253580000
0
LINE
8
10000_FRONT
62
7
6
CONTINUOUS
10
290.7575260000
20
229.3175620000
11
290.7755880000
21
229.3231780000
0
LINE
8
10000_FRONT
62
7
6
CONTINUOUS
10
281.6140960000
20
229.4709210000
11
281.5887620000
21
229.4630760000
0
LINE
8
10000_FRONT
62
7
6
CONTINUOUS
10
290.6298810000
20
230.2562650000
11
290.6201340000
21
230.2532730000
0
LINE
8
10000_FRONT
62
7
6
CONTINUOUS
10
281.0858510000
20
230.9794880000
11
281.0615330000
21
230.9720370000
0
LINE
8
10000_FRONT
62
7
6
CONTINUOUS
10
290.6705210000
20
229.4741160000
11
290.6607100000
21
229.4711460000
0
LINE
8
10000_FRONT
62
7
6
CONTINUOUS
10
281.7294740000
20
229.3252850000
11
281.7575760000
21
229.3336420000
0
LINE
8
10000_FRONT
62
7
6
CONTINUOUS
10
290.7350760000
20
230.1693280000
11
290.7574590000
21
230.1759100000
0
LINE
8
12000_RIGHT
62
7
6
CONTINUOUS
10
89.9510140000
20
239.2875010000
11
88.4510140000
21
239.6581780000
0
LINE
8
10000_FRONT
62
7
6
CONTINUOUS
10
283.4293160000
20
229.9209040000
11
283.4332990000
21
229.8836710000
0
LINE
8
10000_FRONT
62
7
6
CONTINUOUS
10
287.0248700000
20
229.9209040000
11
287.0288530000
21
229.8836710000
0
LINE
8
10000_FRONT
62
7
6
CONTINUOUS
10
291.3222590000
20
229.9209040000
11
291.3262420000
21
229.8836710000
0
LINE
8
10000_FRONT
62
7
6
CONTINUOUS
10
291.0556610000
20
229.7980440000
11
291.0541760000
21
229.8125500000
0
LINE
8
10000_FRONT
62
7
6
CONTINUOUS
10
283.6309050000
20
229.8911360000
11
283.6279360000
21
229.9202370000
0
LINE
8
10000_FRONT
62
7
6
CONTINUOUS
10
287.2264590000
20
229.8911360000
11
287.2234900000
21
229.9202370000
0
LINE
8
10000_FRONT
62
7
6
CONTINUOUS
10
291.5238480000
20
229.8911360000
11
291.5208790000
21
229.9202370000
0
LINE
8
10000_FRONT
62
7
6
CONTINUOUS
10
284.3780020000
20
230.3847740000
11
284.3809590000
21
230.3557350000
0
LINE
8
10000_FRONT
62
7
6
CONTINUOUS
10
287.9735560000
20
230.3847740000
11
287.9765130000
21
230.3557350000
0
LINE
8
10000_FRONT
62
7
6
CONTINUOUS
10
292.2709440000
20
230.3847740000
11
292.2739020000
21
230.3557350000
0
LINE
8
10000_FRONT
62
7
6
CONTINUOUS
10
291.0090520000
20
230.6068790000
11
291.0076080000
21
230.6214620000
0
LINE
8
10000_FRONT
62
7
6
CONTINUOUS
10
290.7998770000
20
230.5804400000
11
290.8009680000
21
230.5692750000
0
LINE
8
10000_FRONT
62
7
6
CONTINUOUS
10
284.5827410000
20
230.3339440000
11
284.5797190000
21
230.3664650000
0
LINE
8
10000_FRONT
62
7
6
CONTINUOUS
10
288.1782950000
20
230.3339440000
11
288.1752730000
21
230.3664650000
0
LINE
8
10000_FRONT
62
7
6
CONTINUOUS
10
292.4756840000
20
230.3339440000
11
292.4726620000
21
230.3664650000
0
LINE
8
10000_FRONT
62
7
6
CONTINUOUS
10
280.5246110000
20
230.0211670000
11
280.5273950000
21
229.9899220000
0
LINE
8
10000_FRONT
62
7
6
CONTINUOUS
10
280.7350330000
20
230.0092700000
11
280.7327100000
21
230.0362970000
0
LINE
8
10000_FRONT
62
7
6
CONTINUOUS
10
290.8472030000
20
229.8054320000
11
290.8481410000
21
229.7944610000
0
LINE
8
10000_FRONT
62
7
6
CONTINUOUS
10
283.4256140000
20
229.9644830000
11
283.4293160000
21
229.9209040000
0
LINE
8
10000_FRONT
62
7
6
CONTINUOUS
10
287.0211680000
20
229.9644830000
11
287.0248700000
21
229.9209040000
0
LINE
8
10000_FRONT
62
7
6
CONTINUOUS
10
291.3185570000
20
229.9644830000
11
291.3222590000
21
229.9209040000
0
LINE
8
10000_FRONT
62
7
6
CONTINUOUS
10
283.6279360000
20
229.9202370000
11
283.6249100000
21
229.9562660000
0
LINE
8
10000_FRONT
62
7
6
CONTINUOUS
10
287.2234900000
20
229.9202370000
11
287.2204640000
21
229.9562660000
0
LINE
8
10000_FRONT
62
7
6
CONTINUOUS
10
291.5208790000
20
229.9202370000
11
291.5178520000
21
229.9562660000
0
LINE
8
10000_FRONT
62
7
6
CONTINUOUS
10
284.3809590000
20
230.3557350000
11
284.3844930000
21
230.3125160000
0
LINE
8
10000_FRONT
62
7
6
CONTINUOUS
10
287.9765130000
20
230.3557350000
11
287.9800470000
21
230.3125160000
0
LINE
8
10000_FRONT
62
7
6
CONTINUOUS
10
292.2739020000
20
230.3557350000
11
292.2774360000
21
230.3125160000
0
LINE
8
10000_FRONT
62
7
6
CONTINUOUS
10
291.0567840000
20
229.7834890000
11
291.0556610000
21
229.7980440000
0
LINE
8
10000_FRONT
62
7
6
CONTINUOUS
10
291.0101340000
20
230.5922570000
11
291.0090520000
21
230.6068790000
0
LINE
8
10000_FRONT
62
7
6
CONTINUOUS
10
284.5851160000
20
230.3013670000
11
284.5827410000
21
230.3339440000
0
LINE
8
10000_FRONT
62
7
6
CONTINUOUS
10
288.1806700000
20
230.3013670000
11
288.1782950000
21
230.3339440000
0
LINE
8
10000_FRONT
62
7
6
CONTINUOUS
10
292.4780590000
20
230.3013670000
11
292.4756840000
21
230.3339440000
0
LINE
8
10000_FRONT
62
7
6
CONTINUOUS
10
290.8009680000
20
230.5692750000
11
290.8017750000
21
230.5580780000
0
LINE
8
10000_FRONT
62
7
6
CONTINUOUS
10
283.6249100000
20
229.9562660000
11
283.6225410000
21
229.9923330000
0
LINE
8
10000_FRONT
62
7
6
CONTINUOUS
10
287.2204640000
20
229.9562660000
11
287.2180950000
21
229.9923330000
0
LINE
8
10000_FRONT
62
7
6
CONTINUOUS
10
291.5178520000
20
229.9562660000
11
291.5154830000
21
229.9923330000
0
LINE
8
10000_FRONT
62
7
6
CONTINUOUS
10
283.4228610000
20
230.0081220000
11
283.4256140000
21
229.9644830000
0
LINE
8
10000_FRONT
62
7
6
CONTINUOUS
10
287.0184150000
20
230.0081220000
11
287.0211680000
21
229.9644830000
0
LINE
8
10000_FRONT
62
7
6
CONTINUOUS
10
291.3158040000
20
230.0081220000
11
291.3185570000
21
229.9644830000
0
LINE
8
10000_FRONT
62
7
6
CONTINUOUS
10
280.5226580000
20
230.0524880000
11
280.5246110000
21
230.0211670000
0
LINE
8
10000_FRONT
62
7
6
CONTINUOUS
10
290.8481410000
20
229.7944610000
11
290.8488110000
21
229.7834490000
0
LINE
8
10000_FRONT
62
7
6
CONTINUOUS
10
284.3844930000
20
230.3125160000
11
284.3870920000
21
230.2692440000
0
LINE
8
10000_FRONT
62
7
6
CONTINUOUS
10
287.9800470000
20
230.3125160000
11
287.9826460000
21
230.2692440000
0
LINE
8
10000_FRONT
62
7
6
CONTINUOUS
10
292.2774360000
20
230.3125160000
11
292.2800350000
21
230.2692440000
0
LINE
8
10000_FRONT
62
7
6
CONTINUOUS
10
280.7327100000
20
230.0362970000
11
280.7310940000
21
230.0633870000
0
LINE
8
10000_FRONT
62
7
6
CONTINUOUS
10
284.5869020000
20
230.2687470000
11
284.5851160000
21
230.3013670000
0
LINE
8
10000_FRONT
62
7
6
CONTINUOUS
10
288.1824560000
20
230.2687470000
11
288.1806700000
21
230.3013670000
0
LINE
8
10000_FRONT
62
7
6
CONTINUOUS
10
292.4798440000
20
230.2687470000
11
292.4780590000
21
230.3013670000
0
LINE
8
10000_FRONT
62
7
6
CONTINUOUS
10
291.0575660000
20
229.7689060000
11
291.0567840000
21
229.7834890000
0
LINE
8
10000_FRONT
62
7
6
CONTINUOUS
10
291.0108720000
20
230.5776160000
11
291.0101340000
21
230.5922570000
0
LINE
8
10000_FRONT
62
7
6
CONTINUOUS
10
283.6225410000
20
229.9923330000
11
283.6207840000
21
230.0284320000
0
LINE
8
10000_FRONT
62
7
6
CONTINUOUS
10
287.2180950000
20
229.9923330000
11
287.2163380000
21
230.0284320000
0
LINE
8
10000_FRONT
62
7
6
CONTINUOUS
10
291.5154830000
20
229.9923330000
11
291.5137270000
21
230.0284320000
0
LINE
8
10000_FRONT
62
7
6
CONTINUOUS
10
290.8017750000
20
230.5580780000
11
290.8023130000
21
230.5468560000
0
LINE
8
10000_FRONT
62
7
6
CONTINUOUS
10
283.4209860000
20
230.0518050000
11
283.4228610000
21
230.0081220000
0
LINE
8
10000_FRONT
62
7
6
CONTINUOUS
10
287.0165400000
20
230.0518050000
11
287.0184150000
21
230.0081220000
0
LINE
8
10000_FRONT
62
7
6
CONTINUOUS
10
291.3139290000
20
230.0518050000
11
291.3158040000
21
230.0081220000
0
LINE
8
10000_FRONT
62
7
6
CONTINUOUS
10
284.3870920000
20
230.2692440000
11
284.3888440000
21
230.2259340000
0
LINE
8
10000_FRONT
62
7
6
CONTINUOUS
10
287.9826460000
20
230.2692440000
11
287.9843980000
21
230.2259340000
0
LINE
8
10000_FRONT
62
7
6
CONTINUOUS
10
292.2800350000
20
230.2692440000
11
292.2817870000
21
230.2259340000
0
LINE
8
10000_FRONT
62
7
6
CONTINUOUS
10
284.5881560000
20
230.2360940000
11
284.5869020000
21
230.2687470000
0
LINE
8
10000_FRONT
62
7
6
CONTINUOUS
10
288.1837100000
20
230.2360940000
11
288.1824560000
21
230.2687470000
0
LINE
8
10000_FRONT
62
7
6
CONTINUOUS
10
290.8488110000
20
229.7834490000
11
290.8492360000
21
229.7724060000
0
LINE
8
10000_FRONT
62
7
6
CONTINUOUS
10
292.4810990000
20
230.2360940000
11
292.4798440000
21
230.2687470000
0
LINE
8
10000_FRONT
62
7
6
CONTINUOUS
10
280.5214920000
20
230.0838610000
11
280.5226580000
21
230.0524880000
0
LINE
8
10000_FRONT
62
7
6
CONTINUOUS
10
280.7310940000
20
230.0633870000
11
280.7301430000
21
230.0905140000
0
LINE
8
10000_FRONT
62
7
6
CONTINUOUS
10
283.6207840000
20
230.0284320000
11
283.6195950000
21
230.0645570000
0
LINE
8
10000_FRONT
62
7
6
CONTINUOUS
10
287.2163380000
20
230.0284320000
11
287.2151490000
21
230.0645570000
0
LINE
8
10000_FRONT
62
7
6
CONTINUOUS
10
291.5137270000
20
230.0284320000
11
291.5125370000
21
230.0645570000
0
LINE
8
10000_FRONT
62
7
6
CONTINUOUS
10
291.0580260000
20
229.7543180000
11
291.0575660000
21
229.7689060000
0
LINE
8
10000_FRONT
62
7
6
CONTINUOUS
10
291.0112870000
20
230.5629760000
11
291.0108720000
21
230.5776160000
0
LINE
8
10000_FRONT
62
7
6
CONTINUOUS
10
290.8023130000
20
230.5468560000
11
290.8025990000
21
230.5356150000
0
LINE
8
10000_FRONT
62
7
6
CONTINUOUS
10
283.4199180000
20
230.0955200000
11
283.4209860000
21
230.0518050000
0
LINE
8
10000_FRONT
62
7
6
CONTINUOUS
10
287.0154720000
20
230.0955200000
11
287.0165400000
21
230.0518050000
0
LINE
8
10000_FRONT
62
7
6
CONTINUOUS
10
291.3128600000
20
230.0955200000
11
291.3139290000
21
230.0518050000
0
LINE
8
10000_FRONT
62
7
6
CONTINUOUS
10
284.5889370000
20
230.2034190000
11
284.5881560000
21
230.2360940000
0
LINE
8
10000_FRONT
62
7
6
CONTINUOUS
10
288.1844910000
20
230.2034190000
11
288.1837100000
21
230.2360940000
0
LINE
8
10000_FRONT
62
7
6
CONTINUOUS
10
292.4818800000
20
230.2034190000
11
292.4810990000
21
230.2360940000
0
LINE
8
10000_FRONT
62
7
6
CONTINUOUS
10
284.3888440000
20
230.2259340000
11
284.3898370000
21
230.1825990000
0
LINE
8
10000_FRONT
62
7
6
CONTINUOUS
10
287.9843980000
20
230.2259340000
11
287.9853910000
21
230.1825990000
0
LINE
8
10000_FRONT
62
7
6
CONTINUOUS
10
292.2817870000
20
230.2259340000
11
292.2827800000
21
230.1825990000
0
LINE
8
10000_FRONT
62
7
6
CONTINUOUS
10
283.6195950000
20
230.0645570000
11
283.6189280000
21
230.1006990000
0
LINE
8
10000_FRONT
62
7
6
CONTINUOUS
10
287.2151490000
20
230.0645570000
11
287.2144820000
21
230.1006990000
0
LINE
8
10000_FRONT
62
7
6
CONTINUOUS
10
291.5125370000
20
230.0645570000
11
291.5118710000
21
230.1006990000
0
LINE
8
10000_FRONT
62
7
6
CONTINUOUS
10
290.8492360000
20
229.7724060000
11
290.8494370000
21
229.7613410000
0
LINE
8
13000_TOP
62
7
6
CONTINUOUS
10
281.8495490000
20
132.0505570000
11
282.0171120000
21
120.0505570000
0
LINE
8
10000_FRONT
62
7
6
CONTINUOUS
10
280.5210670000
20
230.1152580000
11
280.5214920000
21
230.0838610000
0
LINE
8
10000_FRONT
62
7
6
CONTINUOUS
10
280.7301430000
20
230.0905140000
11
280.7298180000
21
230.1176570000
0
LINE
8
10000_FRONT
62
7
6
CONTINUOUS
10
284.5893020000
20
230.1707350000
11
284.5889370000
21
230.2034190000
0
LINE
8
10000_FRONT
62
7
6
CONTINUOUS
10
288.1848560000
20
230.1707350000
11
288.1844910000
21
230.2034190000
0
LINE
8
10000_FRONT
62
7
6
CONTINUOUS
10
292.4822450000
20
230.1707350000
11
292.4818800000
21
230.2034190000
0
LINE
8
10000_FRONT
62
7
6
CONTINUOUS
10
291.0581880000
20
229.7397460000
11
291.0580260000
21
229.7543180000
0
LINE
8
10000_FRONT
62
7
6
CONTINUOUS
10
291.0113990000
20
230.5483560000
11
291.0112870000
21
230.5629760000
0
LINE
8
10000_FRONT
62
7
6
CONTINUOUS
10
283.4195850000
20
230.1392520000
11
283.4199180000
21
230.0955200000
0
LINE
8
10000_FRONT
62
7
6
CONTINUOUS
10
287.0151390000
20
230.1392520000
11
287.0154720000
21
230.0955200000
0
LINE
8
10000_FRONT
62
7
6
CONTINUOUS
10
291.3125280000
20
230.1392520000
11
291.3128600000
21
230.0955200000
0
LINE
8
10000_FRONT
62
7
6
CONTINUOUS
10
284.3898370000
20
230.1825990000
11
284.3901570000
21
230.1392520000
0
LINE
8
10000_FRONT
62
7
6
CONTINUOUS
10
287.9853910000
20
230.1825990000
11
287.9857110000
21
230.1392520000
0
LINE
8
10000_FRONT
62
7
6
CONTINUOUS
10
292.2827800000
20
230.1825990000
11
292.2831000000
21
230.1392520000
0
LINE
8
10000_FRONT
62
7
6
CONTINUOUS
10
283.6189280000
20
230.1006990000
11
283.6187380000
21
230.1368530000
0
LINE
8
10000_FRONT
62
7
6
CONTINUOUS
10
287.2144820000
20
230.1006990000
11
287.2142920000
21
230.1368530000
0
LINE
8
10000_FRONT
62
7
6
CONTINUOUS
10
291.5118710000
20
230.1006990000
11
291.5116810000
21
230.1368530000
0
LINE
8
10000_FRONT
62
7
6
CONTINUOUS
10
290.8025990000
20
230.5356150000
11
290.8026480000
21
230.5243620000
0
LINE
8
10000_FRONT
62
7
6
CONTINUOUS
10
284.5893100000
20
230.1380530000
11
284.5893020000
21
230.1707350000
0
LINE
8
10000_FRONT
62
7
6
CONTINUOUS
10
288.1848640000
20
230.1380530000
11
288.1848560000
21
230.1707350000
0
LINE
8
10000_FRONT
62
7
6
CONTINUOUS
10
292.4822530000
20
230.1380530000
11
292.4822450000
21
230.1707350000
0
LINE
8
10000_FRONT
62
7
6
CONTINUOUS
10
279.0562120000
20
229.7769380000
11
279.0562120000
21
229.9628940000
0
LINE
8
10000_FRONT
62
7
6
CONTINUOUS
10
279.1171120000
20
332.9387280000
11
279.1171120000
21
341.2387210000
0
LINE
8
10000_FRONT
62
7
6
CONTINUOUS
10
279.1713850000
20
232.4874530000
11
279.1713850000
21
234.1874530000
0
LINE
8
10000_FRONT
62
7
6
CONTINUOUS
10
279.3681380000
20
234.1874530000
11
279.3681380000
21
232.4874530000
0
LINE
8
10000_FRONT
62
7
6
CONTINUOUS
10
279.6171120000
20
332.9387280000
11
279.6171120000
21
341.2387210000
0
LINE
8
10000_FRONT
62
7
6
CONTINUOUS
10
279.8228310000
20
229.2874530000
11
279.8228310000
21
229.7769380000
0
LINE
8
10000_FRONT
62
7
6
CONTINUOUS
10
279.8228310000
20
229.9389000000
11
279.8228310000
21
230.7691040000
0
LINE
8
10000_FRONT
62
7
6
CONTINUOUS
10
280.0099870000
20
230.9874530000
11
280.0099870000
21
229.9389000000
0
LINE
8
10000_FRONT
62
7
6
CONTINUOUS
10
280.0099870000
20
229.7769380000
11
280.0099870000
21
229.2874530000
0
LINE
8
10000_FRONT
62
7
6
CONTINUOUS
10
280.2727260000
20
229.9389000000
11
280.2727260000
21
229.7769380000
0
LINE
8
10000_FRONT
62
7
6
CONTINUOUS
10
280.4238900000
20
232.4874530000
11
280.4238900000
21
234.1874530000
0
LINE
8
10000_FRONT
62
7
6
CONTINUOUS
10
280.6206440000
20
234.1874530000
11
280.6206440000
21
233.4388290000
0
LINE
8
10000_FRONT
62
7
6
CONTINUOUS
10
280.6206440000
20
233.2768670000
11
280.6206440000
21
232.4874530000
0
LINE
8
10000_FRONT
62
7
6
CONTINUOUS
10
281.3044830000
20
230.0024850000
11
281.3044830000
21
230.1644460000
0
LINE
8
10000_FRONT
62
7
6
CONTINUOUS
10
281.4388510000
20
232.4874530000
11
281.4388510000
21
233.2768670000
0
LINE
8
10000_FRONT
62
7
6
CONTINUOUS
10
281.4388510000
20
233.4388290000
11
281.4388510000
21
234.1874530000
0
LINE
8
10000_FRONT
62
7
6
CONTINUOUS
10
281.6356050000
20
234.1874530000
11
281.6356050000
21
232.4874530000
0
LINE
8
10000_FRONT
62
7
6
CONTINUOUS
10
281.6392040000
20
229.4794080000
11
281.6392040000
21
230.0024850000
0
LINE
8
10000_FRONT
62
7
6
CONTINUOUS
10
281.6671120000
20
240.8887250000
11
281.6671120000
21
250.3887250000
0
LINE
8
10000_FRONT
62
7
6
CONTINUOUS
10
281.8359580000
20
230.1644460000
11
281.8359580000
21
229.3606360000
0
LINE
8
13000_TOP
62
7
6
CONTINUOUS
10
281.8495490000
20
132.0505570000
11
281.8495490000
21
135.0505570000
0
LINE
8
10000_FRONT
62
7
6
CONTINUOUS
10
281.8495490000
20
351.5387250000
11
281.8495490000
21
357.0764260000
0
LINE
8
10000_FRONT
62
7
6
CONTINUOUS
10
282.0771010000
20
232.4874530000
11
282.0771010000
21
234.1874530000
0
LINE
8
10000_FRONT
62
7
6
CONTINUOUS
10
282.2618580000
20
229.2874530000
11
282.2618580000
21
230.9874530000
0
LINE
8
10000_FRONT
62
7
6
CONTINUOUS
10
282.2738550000
20
234.0254910000
11
282.2738550000
21
233.4304310000
0
LINE
8
10000_FRONT
62
7
6
CONTINUOUS
10
282.2738550000
20
233.2684690000
11
282.2738550000
21
232.4874530000
0
LINE
8
10000_FRONT
62
7
6
CONTINUOUS
10
282.4586110000
20
230.8254910000
11
282.4586110000
21
230.2304310000
0
LINE
8
10000_FRONT
62
7
6
CONTINUOUS
10
282.4586110000
20
230.0684690000
11
282.4586110000
21
229.2874530000
0
LINE
8
10000_FRONT
62
7
6
CONTINUOUS
10
282.9444970000
20
233.4304310000
11
282.9444970000
21
233.2684690000
0
LINE
8
10000_FRONT
62
7
6
CONTINUOUS
10
282.9792890000
20
234.1874530000
11
282.9792890000
21
234.0254910000
0
LINE
8
10000_FRONT
62
7
6
CONTINUOUS
10
283.0671120000
20
356.0387250000
11
283.0671120000
21
344.5387250000
0
LINE
8
10000_FRONT
62
7
6
CONTINUOUS
10
283.1292540000
20
230.2304310000
11
283.1292540000
21
230.0684690000
0
LINE
8
10000_FRONT
62
7
6
CONTINUOUS
10
283.1640450000
20
230.9874530000
11
283.1640450000
21
230.8254910000
0
LINE
8
10000_FRONT
62
7
6
CONTINUOUS
10
284.0171120000
20
332.9387280000
11
284.0171120000
21
341.2387210000
0
LINE
8
10000_FRONT
62
7
6
CONTINUOUS
10
284.5671120000
20
354.5387250000
11
284.5671120000
21
343.0387250000
0
LINE
8
10000_FRONT
62
7
6
CONTINUOUS
10
284.6171120000
20
332.3887250000
11
284.6171120000
21
341.8887250000
0
LINE
8
10000_FRONT
62
7
6
CONTINUOUS
10
285.0671120000
20
240.8887250000
11
285.0671120000
21
250.3887250000
0
LINE
8
10000_FRONT
62
7
6
CONTINUOUS
10
285.3671120000
20
353.2387250000
11
285.3671120000
21
342.7387250000
0
LINE
8
10000_FRONT
62
7
6
CONTINUOUS
10
285.3808816378
20
229.2881872848
11
285.3808816378
21
230.7746372848
0
LINE
8
10000_FRONT
62
7
6
CONTINUOUS
10
285.5704376378
20
230.9881872848
11
285.5704376378
21
229.2881872848
0
LINE
8
10000_FRONT
62
7
6
CONTINUOUS
10
285.8671120000
20
352.2387250000
11
285.8671120000
21
342.7387250000
0
LINE
8
10000_FRONT
62
7
6
CONTINUOUS
10
286.2269250000
20
229.8993090000
11
286.2269250000
21
230.0492740000
0
LINE
8
10000_FRONT
62
7
6
CONTINUOUS
10
286.7943910000
20
230.0492740000
11
286.7943910000
21
229.8993090000
0
LINE
8
10000_FRONT
62
7
6
CONTINUOUS
10
287.8171120000
20
258.7887250000
11
287.8171120000
21
260.2887250000
0
LINE
8
10000_FRONT
62
7
6
CONTINUOUS
10
287.8171120000
20
284.7887250000
11
287.8171120000
21
286.2887250000
0
LINE
8
10000_FRONT
62
7
6
CONTINUOUS
10
287.8171120000
20
310.7887250000
11
287.8171120000
21
312.2887250000
0
LINE
8
10000_FRONT
62
7
6
CONTINUOUS
10
287.8171120000
20
336.7887250000
11
287.8171120000
21
338.2887250000
0
LINE
8
10000_FRONT
62
7
6
CONTINUOUS
10
287.8171120000
20
349.2887250000
11
287.8171120000
21
350.7887250000
0
LINE
8
13000_TOP
62
7
6
CONTINUOUS
10
287.8671120000
20
155.3505570000
11
287.8671120000
21
135.0505570000
0
LINE
8
13000_TOP
62
7
6
CONTINUOUS
10
288.8171120000
20
155.3505570000
11
288.8171120000
21
136.5505570000
0
LINE
8
10000_FRONT
62
7
6
CONTINUOUS
10
289.9171120000
20
258.7887250000
11
289.9171120000
21
260.2887250000
0
LINE
8
10000_FRONT
62
7
6
CONTINUOUS
10
289.9171120000
20
284.7887250000
11
289.9171120000
21
286.2887250000
0
LINE
8
10000_FRONT
62
7
6
CONTINUOUS
10
289.9171120000
20
310.7887250000
11
289.9171120000
21
312.2887250000
0
LINE
8
10000_FRONT
62
7
6
CONTINUOUS
10
289.9171120000
20
336.7887250000
11
289.9171120000
21
338.2887250000
0
LINE
8
10000_FRONT
62
7
6
CONTINUOUS
10
289.9171120000
20
349.2887250000
11
289.9171120000
21
350.7887250000
0
LINE
8
10000_FRONT
62
7
6
CONTINUOUS
10
290.0600230000
20
229.2874530000
11
290.0600230000
21
230.9874530000
0
LINE
8
10000_FRONT
62
7
6
CONTINUOUS
10
290.2567760000
20
230.8278900000
11
290.2567760000
21
230.2256320000
0
LINE
8
10000_FRONT
62
7
6
CONTINUOUS
10
290.2567760000
20
230.0732680000
11
290.2567760000
21
229.4470150000
0
LINE
8
10000_FRONT
62
7
6
CONTINUOUS
10
291.0671120000
20
352.2387250000
11
291.0671120000
21
341.7485320000
0
LINE
8
10000_FRONT
62
7
6
CONTINUOUS
10
291.0671120000
20
339.5387250000
11
291.0671120000
21
335.5387250000
0
LINE
8
10000_FRONT
62
7
6
CONTINUOUS
10
291.0671120000
20
326.5387250000
11
291.0671120000
21
322.5387250000
0
LINE
8
10000_FRONT
62
7
6
CONTINUOUS
10
291.0671120000
20
313.5387250000
11
291.0671120000
21
309.5387250000
0
LINE
8
10000_FRONT
62
7
6
CONTINUOUS
10
291.0671120000
20
300.5387250000
11
291.0671120000
21
296.5387250000
0
LINE
8
10000_FRONT
62
7
6
CONTINUOUS
10
291.0671120000
20
287.5387250000
11
291.0671120000
21
283.5387250000
0
LINE
8
10000_FRONT
62
7
6
CONTINUOUS
10
291.0671120000
20
274.5387250000
11
291.0671120000
21
257.5387250000
0
LINE
8
10000_FRONT
62
7
6
CONTINUOUS
10
291.0671120000
20
248.5387250000
11
291.0671120000
21
244.5387250000
0
LINE
8
13000_TOP
62
7
6
CONTINUOUS
10
291.1171120000
20
118.9505570000
11
291.1171120000
21
120.0505570000
0
LINE
8
10000_FRONT
62
7
6
CONTINUOUS
10
291.1171120000
20
241.1887250000
11
291.1171120000
21
244.5387250000
0
LINE
8
10000_FRONT
62
7
6
CONTINUOUS
10
291.1171120000
20
248.5387250000
11
291.1171120000
21
257.5387250000
0
LINE
8
10000_FRONT
62
7
6
CONTINUOUS
10
291.1171120000
20
274.5387250000
11
291.1171120000
21
283.5387250000
0
LINE
8
10000_FRONT
62
7
6
CONTINUOUS
10
291.1171120000
20
287.5387250000
11
291.1171120000
21
296.5387250000
0
LINE
8
10000_FRONT
62
7
6
CONTINUOUS
10
291.1171120000
20
300.5387250000
11
291.1171120000
21
309.5387250000
0
LINE
8
10000_FRONT
62
7
6
CONTINUOUS
10
291.1171120000
20
313.5387250000
11
291.1171120000
21
322.5387250000
0
LINE
8
10000_FRONT
62
7
6
CONTINUOUS
10
291.1171120000
20
326.5387250000
11
291.1171120000
21
335.5387250000
0
LINE
8
10000_FRONT
62
7
6
CONTINUOUS
10
291.1171120000
20
339.5387250000
11
291.1171120000
21
341.5887250000
0
LINE
8
10000_FRONT
62
7
6
CONTINUOUS
10
291.5171120000
20
241.0387250000
11
291.5171120000
21
353.2387250000
0
LINE
8
10000_FRONT
62
7
6
CONTINUOUS
10
292.3671120000
20
239.7387250000
11
292.3671120000
21
354.5387250000
0
LINE
8
10000_FRONT
62
7
6
CONTINUOUS
10
293.8671120000
20
238.2387250000
11
293.8671120000
21
356.0387250000
0
LINE
8
13000_TOP
62
7
6
CONTINUOUS
10
294.8171120000
20
97.5505570000
11
294.8171120000
21
132.8505570000
0
LINE
8
10000_FRONT
62
7
6
CONTINUOUS
10
294.8171120000
20
227.5010720000
11
294.8171120000
21
356.5763780000
0
LINE
8
10000_FRONT
62
7
6
CONTINUOUS
10
294.9171120000
20
347.5387250000
11
294.9171120000
21
236.5387250000
0
LINE
8
13000_TOP
62
7
6
CONTINUOUS
10
294.9171120000
20
155.3505570000
11
294.9171120000
21
140.3505570000
0
LINE
8
13000_TOP
62
7
6
CONTINUOUS
10
294.9171120000
20
132.8505570000
11
294.9171120000
21
136.5505570000
0
LINE
8
13000_TOP
62
7
6
CONTINUOUS
10
298.9171120000
20
136.5505570000
11
298.9171120000
21
141.8554570000
0
LINE
8
10000_FRONT
62
7
6
CONTINUOUS
10
298.9171120000
20
239.2875010000
11
298.9171120000
21
240.8148920000
0
LINE
8
10000_FRONT
62
7
6
CONTINUOUS
10
298.9171120000
20
343.2741140000
11
298.9171120000
21
344.7899490000
0
LINE
8
10000_FRONT
62
7
6
CONTINUOUS
10
290.8494370000
20
229.7613410000
11
290.8494290000
21
229.7502280000
0
LINE
8
10000_FRONT
62
7
6
CONTINUOUS
10
284.3901570000
20
230.1392520000
11
284.3899090000
21
230.0991720000
0
LINE
8
10000_FRONT
62
7
6
CONTINUOUS
10
287.9857110000
20
230.1392520000
11
287.9854630000
21
230.0991720000
0
LINE
8
10000_FRONT
62
7
6
CONTINUOUS
10
292.2831000000
20
230.1392520000
11
292.2828520000
21
230.0991720000
0
LINE
8
10000_FRONT
62
7
6
CONTINUOUS
10
283.6187380000
20
230.1368530000
11
283.6189950000
21
230.1728580000
0
LINE
8
10000_FRONT
62
7
6
CONTINUOUS
10
287.2142920000
20
230.1368530000
11
287.2145490000
21
230.1728580000
0
LINE
8
10000_FRONT
62
7
6
CONTINUOUS
10
291.5116810000
20
230.1368530000
11
291.5119380000
21
230.1728580000
0
LINE
8
10000_FRONT
62
7
6
CONTINUOUS
10
283.4198850000
20
230.1792940000
11
283.4195850000
21
230.1392520000
0
LINE
8
10000_FRONT
62
7
6
CONTINUOUS
10
287.0154390000
20
230.1792940000
11
287.0151390000
21
230.1392520000
0
LINE
8
10000_FRONT
62
7
6
CONTINUOUS
10
291.3128280000
20
230.1792940000
11
291.3125280000
21
230.1392520000
0
LINE
8
10000_FRONT
62
7
6
CONTINUOUS
10
291.0580430000
20
229.7240690000
11
291.0581880000
21
229.7397460000
0
LINE
8
10000_FRONT
62
7
6
CONTINUOUS
10
280.5213830000
20
230.1480680000
11
280.5210670000
21
230.1152580000
0
LINE
8
10000_FRONT
62
7
6
CONTINUOUS
10
280.7298180000
20
230.1176570000
11
280.7301020000
21
230.1454150000
0
LINE
8
10000_FRONT
62
7
6
CONTINUOUS
10
284.5887340000
20
230.0898110000
11
284.5893100000
21
230.1380530000
0
LINE
8
10000_FRONT
62
7
6
CONTINUOUS
10
288.1842880000
20
230.0898110000
11
288.1848640000
21
230.1380530000
0
LINE
8
10000_FRONT
62
7
6
CONTINUOUS
10
292.4816770000
20
230.0898110000
11
292.4822530000
21
230.1380530000
0
LINE
8
10000_FRONT
62
7
6
CONTINUOUS
10
291.0111920000
20
230.5325590000
11
291.0113990000
21
230.5483560000
0
LINE
8
10000_FRONT
62
7
6
CONTINUOUS
10
290.8026480000
20
230.5243620000
11
290.8024830000
21
230.5136120000
0
LINE
8
10000_FRONT
62
7
6
CONTINUOUS
10
284.3899090000
20
230.0991720000
11
284.3891000000
21
230.0591030000
0
LINE
8
10000_FRONT
62
7
6
CONTINUOUS
10
287.9854630000
20
230.0991720000
11
287.9846540000
21
230.0591030000
0
LINE
8
10000_FRONT
62
7
6
CONTINUOUS
10
292.2828520000
20
230.0991720000
11
292.2820430000
21
230.0591030000
0
LINE
8
10000_FRONT
62
7
6
CONTINUOUS
10
283.6189950000
20
230.1728580000
11
283.6197330000
21
230.2088570000
0
LINE
8
10000_FRONT
62
7
6
CONTINUOUS
10
287.2145490000
20
230.1728580000
11
287.2152870000
21
230.2088570000
0
LINE
8
10000_FRONT
62
7
6
CONTINUOUS
10
290.8494290000
20
229.7502280000
11
290.8492010000
21
229.7391160000
0
LINE
8
10000_FRONT
62
7
6
CONTINUOUS
10
291.5119380000
20
230.1728580000
11
291.5126760000
21
230.2088570000
0
LINE
8
10000_FRONT
62
7
6
CONTINUOUS
10
283.4208020000
20
230.2193250000
11
283.4198850000
21
230.1792940000
0
LINE
8
10000_FRONT
62
7
6
CONTINUOUS
10
287.0163560000
20
230.2193250000
11
287.0154390000
21
230.1792940000
0
LINE
8
10000_FRONT
62
7
6
CONTINUOUS
10
291.3137450000
20
230.2193250000
11
291.3128280000
21
230.1792940000
0
LINE
8
10000_FRONT
62
7
6
CONTINUOUS
10
284.5873620000
20
230.0416140000
11
284.5887340000
21
230.0898110000
0
LINE
8
10000_FRONT
62
7
6
CONTINUOUS
10
288.1829160000
20
230.0416140000
11
288.1842880000
21
230.0898110000
0
LINE
8
10000_FRONT
62
7
6
CONTINUOUS
10
292.4803050000
20
230.0416140000
11
292.4816770000
21
230.0898110000
0
LINE
8
10000_FRONT
62
7
6
CONTINUOUS
10
291.0575520000
20
229.7084460000
11
291.0580430000
21
229.7240690000
0
LINE
8
10000_FRONT
62
7
6
CONTINUOUS
10
280.7301020000
20
230.1454150000
11
280.7310250000
21
230.1731470000
0
LINE
8
10000_FRONT
62
7
6
CONTINUOUS
10
280.5224950000
20
230.1808510000
11
280.5213830000
21
230.1480680000
0
LINE
8
10000_FRONT
62
7
6
CONTINUOUS
10
283.6197330000
20
230.2088570000
11
283.6210020000
21
230.2448390000
0
LINE
8
10000_FRONT
62
7
6
CONTINUOUS
10
287.2152870000
20
230.2088570000
11
287.2165560000
21
230.2448390000
0
LINE
8
10000_FRONT
62
7
6
CONTINUOUS
10
291.5126760000
20
230.2088570000
11
291.5139450000
21
230.2448390000
0
LINE
8
10000_FRONT
62
7
6
CONTINUOUS
10
284.3891000000
20
230.0591030000
11
284.3876680000
21
230.0190510000
0
LINE
8
10000_FRONT
62
7
6
CONTINUOUS
10
287.9846540000
20
230.0591030000
11
287.9832220000
21
230.0190510000
0
LINE
8
10000_FRONT
62
7
6
CONTINUOUS
10
290.8024830000
20
230.5136120000
11
290.8020980000
21
230.5028680000
0
LINE
8
10000_FRONT
62
7
6
CONTINUOUS
10
292.2820430000
20
230.0591030000
11
292.2806110000
21
230.0190510000
0
LINE
8
10000_FRONT
62
7
6
CONTINUOUS
10
291.0106240000
20
230.5168160000
11
291.0111920000
21
230.5325590000
0
LINE
8
10000_FRONT
62
7
6
CONTINUOUS
10
283.4223970000
20
230.2593310000
11
283.4208020000
21
230.2193250000
0
LINE
8
10000_FRONT
62
7
6
CONTINUOUS
10
287.0179510000
20
230.2593310000
11
287.0163560000
21
230.2193250000
0
LINE
8
10000_FRONT
62
7
6
CONTINUOUS
10
291.3153400000
20
230.2593310000
11
291.3137450000
21
230.2193250000
0
LINE
8
10000_FRONT
62
7
6
CONTINUOUS
10
290.8492010000
20
229.7391160000
11
290.8487340000
21
229.7280160000
0
LINE
8
10000_FRONT
62
7
6
CONTINUOUS
10
284.5850520000
20
229.9934760000
11
284.5873620000
21
230.0416140000
0
LINE
8
10000_FRONT
62
7
6
CONTINUOUS
10
288.1806060000
20
229.9934760000
11
288.1829160000
21
230.0416140000
0
LINE
8
10000_FRONT
62
7
6
CONTINUOUS
10
292.4779940000
20
229.9934760000
11
292.4803050000
21
230.0416140000
0
LINE
8
10000_FRONT
62
7
6
CONTINUOUS
10
283.6210020000
20
230.2448390000
11
283.6228550000
21
230.2807930000
0
LINE
8
10000_FRONT
62
7
6
CONTINUOUS
10
287.2165560000
20
230.2448390000
11
287.2184090000
21
230.2807930000
0
LINE
8
10000_FRONT
62
7
6
CONTINUOUS
10
291.5139450000
20
230.2448390000
11
291.5157980000
21
230.2807930000
0
LINE
8
10000_FRONT
62
7
6
CONTINUOUS
10
284.3876680000
20
230.0190510000
11
284.3855530000
21
229.9790250000
0
LINE
8
10000_FRONT
62
7
6
CONTINUOUS
10
287.9832220000
20
230.0190510000
11
287.9811070000
21
229.9790250000
0
LINE
8
10000_FRONT
62
7
6
CONTINUOUS
10
292.2806110000
20
230.0190510000
11
292.2784960000
21
229.9790250000
0
LINE
8
10000_FRONT
62
7
6
CONTINUOUS
10
291.0566950000
20
229.6928850000
11
291.0575520000
21
229.7084460000
0
LINE
8
10000_FRONT
62
7
6
CONTINUOUS
10
280.7310250000
20
230.1731470000
11
280.7326150000
21
230.2008360000
0
LINE
8
10000_FRONT
62
7
6
CONTINUOUS
10
283.4247300000
20
230.2992980000
11
283.4223970000
21
230.2593310000
0
LINE
8
10000_FRONT
62
7
6
CONTINUOUS
10
287.0202840000
20
230.2992980000
11
287.0179510000
21
230.2593310000
0
LINE
8
10000_FRONT
62
7
6
CONTINUOUS
10
291.3176720000
20
230.2992980000
11
291.3153400000
21
230.2593310000
0
LINE
8
10000_FRONT
62
7
6
CONTINUOUS
10
290.8020980000
20
230.5028680000
11
290.8014710000
21
230.4921410000
0
LINE
8
10000_FRONT
62
7
6
CONTINUOUS
10
280.5244390000
20
230.2135820000
11
280.5224950000
21
230.1808510000
0
LINE
8
10000_FRONT
62
7
6
CONTINUOUS
10
291.0096640000
20
230.5011330000
11
291.0106240000
21
230.5168160000
0
LINE
8
10000_FRONT
62
7
6
CONTINUOUS
10
290.8487340000
20
229.7280160000
11
290.8480120000
21
229.7169390000
0
LINE
8
10000_FRONT
62
7
6
CONTINUOUS
10
283.6228550000
20
230.2807930000
11
283.6253430000
21
230.3167100000
0
LINE
8
10000_FRONT
62
7
6
CONTINUOUS
10
287.2184090000
20
230.2807930000
11
287.2208970000
21
230.3167100000
0
LINE
8
10000_FRONT
62
7
6
CONTINUOUS
10
291.5157980000
20
230.2807930000
11
291.5182860000
21
230.3167100000
0
LINE
8
10000_FRONT
62
7
6
CONTINUOUS
10
284.5816600000
20
229.9454140000
11
284.5850520000
21
229.9934760000
0
LINE
8
10000_FRONT
62
7
6
CONTINUOUS
10
288.1772140000
20
229.9454140000
11
288.1806060000
21
229.9934760000
0
LINE
8
10000_FRONT
62
7
6
CONTINUOUS
10
292.4746030000
20
229.9454140000
11
292.4779940000
21
229.9934760000
0
LINE
8
10000_FRONT
62
7
6
CONTINUOUS
10
284.3855530000
20
229.9790250000
11
284.3826920000
21
229.9390330000
0
LINE
8
10000_FRONT
62
7
6
CONTINUOUS
10
287.9811070000
20
229.9790250000
11
287.9782460000
21
229.9390330000
0
LINE
8
10000_FRONT
62
7
6
CONTINUOUS
10
292.2784960000
20
229.9790250000
11
292.2756350000
21
229.9390330000
0
LINE
8
10000_FRONT
62
7
6
CONTINUOUS
10
283.4278600000
20
230.3392140000
11
283.4247300000
21
230.2992980000
0
LINE
8
10000_FRONT
62
7
6
CONTINUOUS
10
287.0234140000
20
230.3392140000
11
287.0202840000
21
230.2992980000
0
LINE
8
10000_FRONT
62
7
6
CONTINUOUS
10
291.3208030000
20
230.3392140000
11
291.3176720000
21
230.2992980000
0
LINE
8
10000_FRONT
62
7
6
CONTINUOUS
10
291.0554500000
20
229.6773960000
11
291.0566950000
21
229.6928850000
0
LINE
8
10000_FRONT
62
7
6
CONTINUOUS
10
280.7326150000
20
230.2008360000
11
280.7349020000
21
230.2284650000
0
LINE
8
10000_FRONT
62
7
6
CONTINUOUS
10
290.8014710000
20
230.4921410000
11
290.8005840000
21
230.4814410000
0
LINE
8
10000_FRONT
62
7
6
CONTINUOUS
10
283.6253430000
20
230.3167100000
11
283.6285180000
21
230.3525760000
0
LINE
8
10000_FRONT
62
7
6
CONTINUOUS
10
287.2208970000
20
230.3167100000
11
287.2240720000
21
230.3525760000
0
LINE
8
10000_FRONT
62
7
6
CONTINUOUS
10
291.0082820000
20
230.4855170000
11
291.0096640000
21
230.5011330000
0
LINE
8
10000_FRONT
62
7
6
CONTINUOUS
10
291.5182860000
20
230.3167100000
11
291.5214610000
21
230.3525760000
0
LINE
8
10000_FRONT
62
7
6
CONTINUOUS
10
284.3826920000
20
229.9390330000
11
284.3802750000
21
229.9117970000
0
LINE
8
10000_FRONT
62
7
6
CONTINUOUS
10
287.9782460000
20
229.9390330000
11
287.9758290000
21
229.9117970000
0
LINE
8
10000_FRONT
62
7
6
CONTINUOUS
10
292.2756350000
20
229.9390330000
11
292.2732180000
21
229.9117970000
0
LINE
8
10000_FRONT
62
7
6
CONTINUOUS
10
290.8480120000
20
229.7169390000
11
290.8470170000
21
229.7058980000
0
LINE
8
10000_FRONT
62
7
6
CONTINUOUS
10
284.5770460000
20
229.8974430000
11
284.5816600000
21
229.9454140000
0
LINE
8
10000_FRONT
62
7
6
CONTINUOUS
10
288.1726000000
20
229.8974430000
11
288.1772140000
21
229.9454140000
0
LINE
8
10000_FRONT
62
7
6
CONTINUOUS
10
292.4699890000
20
229.8974430000
11
292.4746030000
21
229.9454140000
0
LINE
8
10000_FRONT
62
7
6
CONTINUOUS
10
283.4318490000
20
230.3790630000
11
283.4278600000
21
230.3392140000
0
LINE
8
10000_FRONT
62
7
6
CONTINUOUS
10
287.0274030000
20
230.3790630000
11
287.0234140000
21
230.3392140000
0
LINE
8
10000_FRONT
62
7
6
CONTINUOUS
10
291.3247920000
20
230.3790630000
11
291.3208030000
21
230.3392140000
0
LINE
8
10000_FRONT
62
7
6
CONTINUOUS
10
284.3802750000
20
229.9117970000
11
284.3774190000
21
229.8846030000
0
LINE
8
10000_FRONT
62
7
6
CONTINUOUS
10
287.9758290000
20
229.9117970000
11
287.9729730000
21
229.8846030000
0
LINE
8
10000_FRONT
62
7
6
CONTINUOUS
10
292.2732180000
20
229.9117970000
11
292.2703620000
21
229.8846030000
0
LINE
8
10000_FRONT
62
7
6
CONTINUOUS
10
291.0537950000
20
229.6619850000
11
291.0554500000
21
229.6773960000
0
LINE
8
10000_FRONT
62
7
6
CONTINUOUS
10
289.0696400000
20
230.8138320000
11
289.0702560000
21
230.8194920000
0
LINE
8
10000_FRONT
62
7
6
CONTINUOUS
10
283.6285180000
20
230.3525760000
11
283.6324310000
21
230.3883830000
0
LINE
8
10000_FRONT
62
7
6
CONTINUOUS
10
287.2240720000
20
230.3525760000
11
287.2279850000
21
230.3883830000
0
LINE
8
10000_FRONT
62
7
6
CONTINUOUS
10
291.5214610000
20
230.3525760000
11
291.5253740000
21
230.3883830000
0
LINE
8
10000_FRONT
62
7
6
CONTINUOUS
10
290.8005840000
20
230.4814410000
11
290.7994150000
21
230.4707780000
0
LINE
8
10000_FRONT
62
7
6
CONTINUOUS
10
290.8470170000
20
229.7058980000
11
290.8457320000
21
229.6949040000
0
LINE
8
10000_FRONT
62
7
6
CONTINUOUS
10
291.0064480000
20
230.4699740000
11
291.0082820000
21
230.4855170000
0
LINE
8
10000_FRONT
62
7
6
CONTINUOUS
10
284.5729820000
20
229.8637110000
11
284.5770460000
21
229.8974430000
0
LINE
8
10000_FRONT
62
7
6
CONTINUOUS
10
288.1685360000
20
229.8637110000
11
288.1726000000
21
229.8974430000
0
LINE
8
10000_FRONT
62
7
6
CONTINUOUS
10
292.4659240000
20
229.8637110000
11
292.4699890000
21
229.8974430000
0
LINE
8
10000_FRONT
62
7
6
CONTINUOUS
10
283.4359390000
20
230.4126700000
11
283.4318490000
21
230.3790630000
0
LINE
8
10000_FRONT
62
7
6
CONTINUOUS
10
287.0314930000
20
230.4126700000
11
287.0274030000
21
230.3790630000
0
LINE
8
10000_FRONT
62
7
6
CONTINUOUS
10
291.3288810000
20
230.4126700000
11
291.3247920000
21
230.3790630000
0
LINE
8
10000_FRONT
62
7
6
CONTINUOUS
10
284.3774190000
20
229.8846030000
11
284.3740580000
21
229.8574710000
0
LINE
8
10000_FRONT
62
7
6
CONTINUOUS
10
287.9729730000
20
229.8846030000
11
287.9696120000
21
229.8574710000
0
LINE
8
10000_FRONT
62
7
6
CONTINUOUS
10
292.2703620000
20
229.8846030000
11
292.2670010000
21
229.8574710000
0
LINE
8
10000_FRONT
62
7
6
CONTINUOUS
10
283.6324310000
20
230.3883830000
11
283.6371340000
21
230.4241190000
0
LINE
8
10000_FRONT
62
7
6
CONTINUOUS
10
287.2279850000
20
230.3883830000
11
287.2326880000
21
230.4241190000
0
LINE
8
10000_FRONT
62
7
6
CONTINUOUS
10
291.5253740000
20
230.3883830000
11
291.5300770000
21
230.4241190000
0
LINE
8
10000_FRONT
62
7
6
CONTINUOUS
10
289.0689010000
20
230.8083420000
11
289.0696400000
21
230.8138320000
0
LINE
8
10000_FRONT
62
7
6
CONTINUOUS
10
291.0517090000
20
229.6466620000
11
291.0537950000
21
229.6619850000
0
LINE
8
10000_FRONT
62
7
6
CONTINUOUS
10
290.7994150000
20
230.4707780000
11
290.7979450000
21
230.4601620000
0
LINE
8
10000_FRONT
62
7
6
CONTINUOUS
10
284.5681750000
20
229.8300670000
11
284.5729820000
21
229.8637110000
0
LINE
8
10000_FRONT
62
7
6
CONTINUOUS
10
288.1637290000
20
229.8300670000
11
288.1685360000
21
229.8637110000
0
LINE
8
10000_FRONT
62
7
6
CONTINUOUS
10
292.4611180000
20
229.8300670000
11
292.4659240000
21
229.8637110000
0
LINE
8
10000_FRONT
62
7
6
CONTINUOUS
10
283.4407530000
20
230.4461860000
11
283.4359390000
21
230.4126700000
0
LINE
8
10000_FRONT
62
7
6
CONTINUOUS
10
287.0363070000
20
230.4461860000
11
287.0314930000
21
230.4126700000
0
LINE
8
10000_FRONT
62
7
6
CONTINUOUS
10
291.3336960000
20
230.4461860000
11
291.3288810000
21
230.4126700000
0
LINE
8
10000_FRONT
62
7
6
CONTINUOUS
10
284.3740580000
20
229.8574710000
11
284.3701270000
21
229.8304240000
0
LINE
8
10000_FRONT
62
7
6
CONTINUOUS
10
287.9696120000
20
229.8574710000
11
287.9656810000
21
229.8304240000
0
LINE
8
10000_FRONT
62
7
6
CONTINUOUS
10
292.2670010000
20
229.8574710000
11
292.2630700000
21
229.8304240000
0
LINE
8
10000_FRONT
62
7
6
CONTINUOUS
10
290.8457320000
20
229.6949040000
11
290.8441390000
21
229.6839690000
0
LINE
8
10000_FRONT
62
7
6
CONTINUOUS
10
291.0041320000
20
230.4545110000
11
291.0064480000
21
230.4699740000
0
LINE
8
10000_FRONT
62
7
6
CONTINUOUS
10
283.6371340000
20
230.4241190000
11
283.6403940000
21
230.4457130000
0
LINE
8
10000_FRONT
62
7
6
CONTINUOUS
10
287.2326880000
20
230.4241190000
11
287.2359480000
21
230.4457130000
0
LINE
8
10000_FRONT
62
7
6
CONTINUOUS
10
291.5300770000
20
230.4241190000
11
291.5333370000
21
230.4457130000
0
LINE
8
10000_FRONT
62
7
6
CONTINUOUS
10
289.0680450000
20
230.8030110000
11
289.0689010000
21
230.8083420000
0
LINE
8
10000_FRONT
62
7
6
CONTINUOUS
10
291.0491700000
20
229.6314350000
11
291.0517090000
21
229.6466620000
0
LINE
8
10000_FRONT
62
7
6
CONTINUOUS
10
284.5625640000
20
229.7965480000
11
284.5681750000
21
229.8300670000
0
LINE
8
10000_FRONT
62
7
6
CONTINUOUS
10
288.1581180000
20
229.7965480000
11
288.1637290000
21
229.8300670000
0
LINE
8
10000_FRONT
62
7
6
CONTINUOUS
10
292.4555060000
20
229.7965480000
11
292.4611180000
21
229.8300670000
0
LINE
8
10000_FRONT
62
7
6
CONTINUOUS
10
283.4463610000
20
230.4795730000
11
283.4407530000
21
230.4461860000
0
LINE
8
10000_FRONT
62
7
6
CONTINUOUS
10
287.0419150000
20
230.4795730000
11
287.0363070000
21
230.4461860000
0
LINE
8
10000_FRONT
62
7
6
CONTINUOUS
10
291.3393040000
20
230.4795730000
11
291.3336960000
21
230.4461860000
0
LINE
8
10000_FRONT
62
7
6
CONTINUOUS
10
283.6403940000
20
230.4457130000
11
283.6440160000
21
230.4672540000
0
LINE
8
10000_FRONT
62
7
6
CONTINUOUS
10
287.2359480000
20
230.4457130000
11
287.2395700000
21
230.4672540000
0
LINE
8
10000_FRONT
62
7
6
CONTINUOUS
10
291.5333370000
20
230.4457130000
11
291.5369590000
21
230.4672540000
0
LINE
8
10000_FRONT
62
7
6
CONTINUOUS
10
284.3701270000
20
229.8304240000
11
284.3655620000
21
229.8034830000
0
LINE
8
10000_FRONT
62
7
6
CONTINUOUS
10
287.9656810000
20
229.8304240000
11
287.9611160000
21
229.8034830000
0
LINE
8
10000_FRONT
62
7
6
CONTINUOUS
10
292.2630700000
20
229.8304240000
11
292.2585050000
21
229.8034830000
0
LINE
8
10000_FRONT
62
7
6
CONTINUOUS
10
290.7979450000
20
230.4601620000
11
290.7961540000
21
230.4496050000
0
LINE
8
10000_FRONT
62
7
6
CONTINUOUS
10
290.8441390000
20
229.6839690000
11
290.8422210000
21
229.6731040000
0
LINE
8
10000_FRONT
62
7
6
CONTINUOUS
10
291.0013050000
20
230.4391350000
11
291.0041320000
21
230.4545110000
0
LINE
8
10000_FRONT
62
7
6
CONTINUOUS
10
289.0670790000
20
230.7978300000
11
289.0680450000
21
230.8030110000
0
LINE
8
10000_FRONT
62
7
6
CONTINUOUS
10
283.6440160000
20
230.4672540000
11
283.6480510000
21
230.4887180000
0
LINE
8
10000_FRONT
62
7
6
CONTINUOUS
10
287.2395700000
20
230.4672540000
11
287.2436050000
21
230.4887180000
0
LINE
8
10000_FRONT
62
7
6
CONTINUOUS
10
291.5369590000
20
230.4672540000
11
291.5409940000
21
230.4887180000
0
LINE
8
10000_FRONT
62
7
6
CONTINUOUS
10
284.5560820000
20
229.7631880000
11
284.5625640000
21
229.7965480000
0
LINE
8
10000_FRONT
62
7
6
CONTINUOUS
10
288.1516360000
20
229.7631880000
11
288.1581180000
21
229.7965480000
0
LINE
8
10000_FRONT
62
7
6
CONTINUOUS
10
292.4490250000
20
229.7631880000
11
292.4555060000
21
229.7965480000
0
LINE
8
10000_FRONT
62
7
6
CONTINUOUS
10
283.4528330000
20
230.5127970000
11
283.4463610000
21
230.4795730000
0
LINE
8
10000_FRONT
62
7
6
CONTINUOUS
10
287.0483870000
20
230.5127970000
11
287.0419150000
21
230.4795730000
0
LINE
8
10000_FRONT
62
7
6
CONTINUOUS
10
291.3457760000
20
230.5127970000
11
291.3393040000
21
230.4795730000
0
LINE
8
10000_FRONT
62
7
6
CONTINUOUS
10
284.3655620000
20
229.8034830000
11
284.3602970000
21
229.7766710000
0
LINE
8
10000_FRONT
62
7
6
CONTINUOUS
10
287.9611160000
20
229.8034830000
11
287.9558510000
21
229.7766710000
0
LINE
8
10000_FRONT
62
7
6
CONTINUOUS
10
292.2585050000
20
229.8034830000
11
292.2532400000
21
229.7766710000
0
LINE
8
10000_FRONT
62
7
6
CONTINUOUS
10
294.8171120000
20
227.5010720000
11
294.7790140000
21
227.3096200000
0
LINE
8
10000_FRONT
62
7
6
CONTINUOUS
10
291.0461580000
20
229.6163120000
11
291.0491700000
21
229.6314350000
0
LINE
8
10000_FRONT
62
7
6
CONTINUOUS
10
290.7961540000
20
230.4496050000
11
290.7940210000
21
230.4391160000
0
LINE
8
10000_FRONT
62
7
6
CONTINUOUS
10
290.8422210000
20
229.6731040000
11
290.8399600000
21
229.6623210000
0
LINE
8
10000_FRONT
62
7
6
CONTINUOUS
10
283.6480510000
20
230.4887180000
11
283.6525530000
21
230.5100820000
0
LINE
8
10000_FRONT
62
7
6
CONTINUOUS
10
287.2436050000
20
230.4887180000
11
287.2481070000
21
230.5100820000
0
LINE
8
10000_FRONT
62
7
6
CONTINUOUS
10
291.5409940000
20
230.4887180000
11
291.5454960000
21
230.5100820000
0
LINE
8
10000_FRONT
62
7
6
CONTINUOUS
10
289.0660100000
20
230.7927880000
11
289.0670790000
21
230.7978300000
0
LINE
8
10000_FRONT
62
7
6
CONTINUOUS
10
290.9979350000
20
230.4238520000
11
291.0013050000
21
230.4391350000
0
LINE
8
10000_FRONT
62
7
6
CONTINUOUS
10
284.3602970000
20
229.7766710000
11
284.3555790000
21
229.7555160000
0
LINE
8
10000_FRONT
62
7
6
CONTINUOUS
10
287.9558510000
20
229.7766710000
11
287.9511330000
21
229.7555160000
0
LINE
8
10000_FRONT
62
7
6
CONTINUOUS
10
292.2532400000
20
229.7766710000
11
292.2485210000
21
229.7555160000
0
LINE
8
10000_FRONT
62
7
6
CONTINUOUS
10
284.5486670000
20
229.7300230000
11
284.5560820000
21
229.7631880000
0
LINE
8
10000_FRONT
62
7
6
CONTINUOUS
10
288.1442210000
20
229.7300230000
11
288.1516360000
21
229.7631880000
0
LINE
8
10000_FRONT
62
7
6
CONTINUOUS
10
292.4416100000
20
229.7300230000
11
292.4490250000
21
229.7631880000
0
LINE
8
10000_FRONT
62
7
6
CONTINUOUS
10
283.4602360000
20
230.5458230000
11
283.4528330000
21
230.5127970000
0
LINE
8
10000_FRONT
62
7
6
CONTINUOUS
10
287.0557900000
20
230.5458230000
11
287.0483870000
21
230.5127970000
0
LINE
8
10000_FRONT
62
7
6
CONTINUOUS
10
291.3531790000
20
230.5458230000
11
291.3457760000
21
230.5127970000
0
LINE
8
10000_FRONT
62
7
6
CONTINUOUS
10
291.0426490000
20
229.6013020000
11
291.0461580000
21
229.6163120000
0
LINE
8
10000_FRONT
62
7
6
CONTINUOUS
10
283.6525530000
20
230.5100820000
11
283.6575750000
21
230.5313230000
0
LINE
8
10000_FRONT
62
7
6
CONTINUOUS
10
287.2481070000
20
230.5100820000
11
287.2531290000
21
230.5313230000
0
LINE
8
10000_FRONT
62
7
6
CONTINUOUS
10
291.5454960000
20
230.5100820000
11
291.5505180000
21
230.5313230000
0
LINE
8
10000_FRONT
62
7
6
CONTINUOUS
10
289.0648470000
20
230.7878750000
11
289.0660100000
21
230.7927880000
0
LINE
8
10000_FRONT
62
7
6
CONTINUOUS
10
290.7940210000
20
230.4391160000
11
290.7915270000
21
230.4287070000
0
LINE
8
10000_FRONT
62
7
6
CONTINUOUS
10
290.8399600000
20
229.6623210000
11
290.8373400000
21
229.6516320000
0
LINE
8
10000_FRONT
62
7
6
CONTINUOUS
10
284.3555790000
20
229.7555160000
11
284.3503280000
21
229.7344850000
0
LINE
8
13000_TOP
62
7
6
CONTINUOUS
10
257.3214330000
20
118.8541430000
11
257.2979160000
21
118.7599130000
0
LINE
8
10000_FRONT
62
7
6
CONTINUOUS
10
287.9511330000
20
229.7555160000
11
287.9458820000
21
229.7344850000
0
LINE
8
13000_TOP
62
7
6
CONTINUOUS
10
261.2127910000
20
119.2469710000
11
261.2363080000
21
119.3412010000
0
LINE
8
10000_FRONT
62
7
6
CONTINUOUS
10
292.2485210000
20
229.7555160000
11
292.2432710000
21
229.7344850000
0
LINE
8
10000_FRONT
62
7
6
CONTINUOUS
10
284.5402550000
20
229.6970900000
11
284.5486670000
21
229.7300230000
0
LINE
8
10000_FRONT
62
7
6
CONTINUOUS
10
288.1358090000
20
229.6970900000
11
288.1442210000
21
229.7300230000
0
LINE
8
10000_FRONT
62
7
6
CONTINUOUS
10
292.4331980000
20
229.6970900000
11
292.4416100000
21
229.7300230000
0
LINE
8
10000_FRONT
62
7
6
CONTINUOUS
10
287.0641940000
20
230.5786160000
11
287.0557900000
21
230.5458230000
0
LINE
8
10000_FRONT
62
7
6
CONTINUOUS
10
291.3615830000
20
230.5786160000
11
291.3531790000
21
230.5458230000
0
LINE
8
10000_FRONT
62
7
6
CONTINUOUS
10
290.9945300000
20
230.4105970000
11
290.9979350000
21
230.4238520000
0
LINE
8
10000_FRONT
62
7
6
CONTINUOUS
10
289.0635970000
20
230.7830810000
11
289.0648470000
21
230.7878750000
0
LINE
8
10000_FRONT
62
7
6
CONTINUOUS
10
287.2531290000
20
230.5313230000
11
287.2587230000
21
230.5524180000
0
LINE
8
10000_FRONT
62
7
6
CONTINUOUS
10
291.5505180000
20
230.5313230000
11
291.5561120000
21
230.5524180000
0
LINE
8
10000_FRONT
62
7
6
CONTINUOUS
10
291.0386240000
20
229.5864130000
11
291.0426490000
21
229.6013020000
0
LINE
8
10000_FRONT
62
7
6
CONTINUOUS
10
290.7915270000
20
230.4287070000
11
290.7886510000
21
230.4183870000
0
LINE
8
10000_FRONT
62
7
6
CONTINUOUS
10
284.3503280000
20
229.7344850000
11
284.3444930000
21
229.7136060000
0
LINE
8
10000_FRONT
62
7
6
CONTINUOUS
10
287.9458820000
20
229.7344850000
11
287.9400470000
21
229.7136060000
0
LINE
8
10000_FRONT
62
7
6
CONTINUOUS
10
292.2432710000
20
229.7344850000
11
292.2374360000
21
229.7136060000
0
LINE
8
10000_FRONT
62
7
6
CONTINUOUS
10
290.8373400000
20
229.6516320000
11
290.8343420000
21
229.6410480000
0
LINE
8
10000_FRONT
62
7
6
CONTINUOUS
10
289.0622660000
20
230.7783960000
11
289.0635970000
21
230.7830810000
0
LINE
8
10000_FRONT
62
7
6
CONTINUOUS
10
284.5335270000
20
229.6735000000
11
284.5402550000
21
229.6970900000
0
LINE
8
10000_FRONT
62
7
6
CONTINUOUS
10
288.1290810000
20
229.6735000000
11
288.1358090000
21
229.6970900000
0
LINE
8
10000_FRONT
62
7
6
CONTINUOUS
10
292.4264700000
20
229.6735000000
11
292.4331980000
21
229.6970900000
0
LINE
8
10000_FRONT
62
7
6
CONTINUOUS
10
287.0709170000
20
230.6020910000
11
287.0641940000
21
230.5786160000
0
LINE
8
10000_FRONT
62
7
6
CONTINUOUS
10
291.3683060000
20
230.6020910000
11
291.3615830000
21
230.5786160000
0
LINE
8
10000_FRONT
62
7
6
CONTINUOUS
10
290.9906770000
20
230.3974460000
11
290.9945300000
21
230.4105970000
0
LINE
8
10000_FRONT
62
7
6
CONTINUOUS
10
287.2587230000
20
230.5524180000
11
287.2649420000
21
230.5733440000
0
LINE
8
10000_FRONT
62
7
6
CONTINUOUS
10
291.5561120000
20
230.5524180000
11
291.5623300000
21
230.5733440000
0
LINE
8
10000_FRONT
62
7
6
CONTINUOUS
10
289.0069750000
20
230.6181810000
11
289.0181860000
21
230.6555400000
0
LINE
8
10000_FRONT
62
7
6
CONTINUOUS
10
289.0041380000
20
230.6088750000
11
289.0069750000
21
230.6181810000
0
LINE
8
10000_FRONT
62
7
6
CONTINUOUS
10
289.0181860000
20
230.6555400000
11
289.0210210000
21
230.6648170000
0
LINE
8
10000_FRONT
62
7
6
CONTINUOUS
10
289.0608620000
20
230.7738080000
11
289.0622660000
21
230.7783960000
0
LINE
8
10000_FRONT
62
7
6
CONTINUOUS
10
291.0340600000
20
229.5716530000
11
291.0386240000
21
229.5864130000
0
LINE
8
10000_FRONT
62
7
6
CONTINUOUS
10
289.0210210000
20
230.6648170000
11
289.0238960000
21
230.6740290000
0
LINE
8
10000_FRONT
62
7
6
CONTINUOUS
10
287.9400470000
20
229.7136060000
11
287.9335780000
21
229.6929070000
0
LINE
8
10000_FRONT
62
7
6
CONTINUOUS
10
292.2374360000
20
229.7136060000
11
292.2309660000
21
229.6929070000
0
LINE
8
10000_FRONT
62
7
6
CONTINUOUS
10
284.5262000000
20
229.6500860000
11
284.5335270000
21
229.6735000000
0
LINE
8
10000_FRONT
62
7
6
CONTINUOUS
10
288.1217540000
20
229.6500860000
11
288.1290810000
21
229.6735000000
0
LINE
8
10000_FRONT
62
7
6
CONTINUOUS
10
288.9987750000
20
230.5917400000
11
289.0041380000
21
230.6088750000
0
LINE
8
10000_FRONT
62
7
6
CONTINUOUS
10
292.4191430000
20
229.6500860000
11
292.4264700000
21
229.6735000000
0
LINE
8
10000_FRONT
62
7
6
CONTINUOUS
10
287.0782420000
20
230.6253880000
11
287.0709170000
21
230.6020910000
0
LINE
8
10000_FRONT
62
7
6
CONTINUOUS
10
291.3756310000
20
230.6253880000
11
291.3683060000
21
230.6020910000
0
LINE
8
10000_FRONT
62
7
6
CONTINUOUS
10
290.7886510000
20
230.4183870000
11
290.7858310000
21
230.4095070000
0
LINE
8
10000_FRONT
62
7
6
CONTINUOUS
10
289.0238960000
20
230.6740290000
11
289.0268230000
21
230.6831580000
0
LINE
8
10000_FRONT
62
7
6
CONTINUOUS
10
288.9932900000
20
230.5747500000
11
288.9987750000
21
230.5917400000
0
LINE
8
10000_FRONT
62
7
6
CONTINUOUS
10
290.8343420000
20
229.6410480000
11
290.8309490000
21
229.6305810000
0
LINE
8
10000_FRONT
62
7
6
CONTINUOUS
10
289.0593930000
20
230.7693090000
11
289.0608620000
21
230.7738080000
0
LINE
8
10000_FRONT
62
7
6
CONTINUOUS
10
288.9877020000
20
230.5578710000
11
288.9932900000
21
230.5747500000
0
LINE
8
10000_FRONT
62
7
6
CONTINUOUS
10
290.9863660000
20
230.3844260000
11
290.9906770000
21
230.3974460000
0
LINE
8
10000_FRONT
62
7
6
CONTINUOUS
10
289.0268230000
20
230.6831580000
11
289.0298170000
21
230.6921830000
0
LINE
8
10000_FRONT
62
7
6
CONTINUOUS
10
287.2649420000
20
230.5733440000
11
287.2718380000
21
230.5940760000
0
LINE
8
10000_FRONT
62
7
6
CONTINUOUS
10
291.5623300000
20
230.5733440000
11
291.5692270000
21
230.5940760000
0
LINE
8
10000_FRONT
62
7
6
CONTINUOUS
10
288.9762880000
20
230.5243060000
11
288.9877020000
21
230.5578710000
0
LINE
8
10000_FRONT
62
7
6
CONTINUOUS
10
288.1137810000
20
229.6268870000
11
288.1217540000
21
229.6500860000
0
LINE
8
10000_FRONT
62
7
6
CONTINUOUS
10
292.4111700000
20
229.6268870000
11
292.4191430000
21
229.6500860000
0
LINE
8
10000_FRONT
62
7
6
CONTINUOUS
10
289.0298170000
20
230.6921830000
11
289.0328900000
21
230.7010870000
0
LINE
8
10000_FRONT
62
7
6
CONTINUOUS
10
289.0578660000
20
230.7648870000
11
289.0593930000
21
230.7693090000
0
LINE
8
10000_FRONT
62
7
6
CONTINUOUS
10
287.0862160000
20
230.6484720000
11
287.0782420000
21
230.6253880000
0
LINE
8
10000_FRONT
62
7
6
CONTINUOUS
10
291.3836050000
20
230.6484720000
11
291.3756310000
21
230.6253880000
0
LINE
8
10000_FRONT
62
7
6
CONTINUOUS
10
288.9762880000
20
230.5243060000
11
288.8099170000
21
230.0444750000
0
LINE
8
10000_FRONT
62
7
6
CONTINUOUS
10
291.0296050000
20
229.5588380000
11
291.0340600000
21
229.5716530000
0
LINE
8
10000_FRONT
62
7
6
CONTINUOUS
10
292.2309660000
20
229.6929070000
11
292.2238100000
21
229.6724180000
0
LINE
8
10000_FRONT
62
7
6
CONTINUOUS
10
287.9335780000
20
229.6929070000
11
287.9264210000
21
229.6724180000
0
LINE
8
10000_FRONT
62
7
6
CONTINUOUS
10
288.7511310000
20
229.8825130000
11
288.5423800000
21
229.2874530000
0
LINE
8
10000_FRONT
62
7
6
CONTINUOUS
10
290.7858310000
20
230.4095070000
11
290.7827080000
21
230.4007190000
0
LINE
8
10000_FRONT
62
7
6
CONTINUOUS
10
288.3432270000
20
229.2874530000
11
288.9478840000
21
230.9874530000
0
LINE
8
10000_FRONT
62
7
6
CONTINUOUS
10
289.0328900000
20
230.7010870000
11
289.0360570000
21
230.7098490000
0
LINE
8
10000_FRONT
62
7
6
CONTINUOUS
10
289.0553660000
20
230.7580720000
11
289.0578660000
21
230.7648870000
0
LINE
8
10000_FRONT
62
7
6
CONTINUOUS
10
290.8309490000
20
229.6305810000
11
290.8271440000
21
229.6202420000
0
LINE
8
10000_FRONT
62
7
6
CONTINUOUS
10
290.9815860000
20
230.3715660000
11
290.9863660000
21
230.3844260000
0
LINE
8
10000_FRONT
62
7
6
CONTINUOUS
10
287.2718380000
20
230.5940760000
11
287.2794650000
21
230.6145920000
0
LINE
8
10000_FRONT
62
7
6
CONTINUOUS
10
291.5692270000
20
230.5940760000
11
291.5768540000
21
230.6145920000
0
LINE
8
10000_FRONT
62
7
6
CONTINUOUS
10
288.1051150000
20
229.6039410000
11
288.1137810000
21
229.6268870000
0
LINE
8
10000_FRONT
62
7
6
CONTINUOUS
10
292.4025040000
20
229.6039410000
11
292.4111700000
21
229.6268870000
0
LINE
8
10000_FRONT
62
7
6
CONTINUOUS
10
287.0948840000
20
230.6713030000
11
287.0862160000
21
230.6484720000
0
LINE
8
10000_FRONT
62
7
6
CONTINUOUS
10
291.3922730000
20
230.6713030000
11
291.3836050000
21
230.6484720000
0
LINE
8
10000_FRONT
62
7
6
CONTINUOUS
10
289.0360570000
20
230.7098490000
11
289.0393300000
21
230.7184490000
0
LINE
8
10000_FRONT
62
7
6
CONTINUOUS
10
291.0247220000
20
229.5461530000
11
291.0296050000
21
229.5588380000
0
LINE
8
10000_FRONT
62
7
6
CONTINUOUS
10
289.0527690000
20
230.7513830000
11
289.0553660000
21
230.7580720000
0
LINE
8
10000_FRONT
62
7
6
CONTINUOUS
10
287.9264210000
20
229.6724180000
11
287.9185270000
21
229.6521670000
0
LINE
8
10000_FRONT
62
7
6
CONTINUOUS
10
292.2238100000
20
229.6724180000
11
292.2159150000
21
229.6521670000
0
LINE
8
10000_FRONT
62
7
6
CONTINUOUS
10
290.7827080000
20
230.4007190000
11
290.7792790000
21
230.3920390000
0
LINE
8
13000_TOP
62
7
6
CONTINUOUS
10
257.3534650000
20
118.9347840000
11
257.3214330000
21
118.8541430000
0
LINE
8
13000_TOP
62
7
6
CONTINUOUS
10
261.1807590000
20
119.1663290000
11
261.2127910000
21
119.2469710000
0
LINE
8
10000_FRONT
62
7
6
CONTINUOUS
10
289.0393300000
20
230.7184490000
11
289.0419830000
21
230.7251010000
0
LINE
8
10000_FRONT
62
7
6
CONTINUOUS
10
289.0501040000
20
230.7447810000
11
289.0527690000
21
230.7513830000
0
LINE
8
10000_FRONT
62
7
6
CONTINUOUS
10
289.0419830000
20
230.7251010000
11
289.0501040000
21
230.7447810000
0
LINE
8
10000_FRONT
62
7
6
CONTINUOUS
10
287.2794650000
20
230.6145920000
11
287.2878750000
21
230.6348690000
0
LINE
8
10000_FRONT
62
7
6
CONTINUOUS
10
291.5768540000
20
230.6145920000
11
291.5852640000
21
230.6348690000
0
LINE
8
10000_FRONT
62
7
6
CONTINUOUS
10
288.0957090000
20
229.5812840000
11
288.1051150000
21
229.6039410000
0
LINE
8
10000_FRONT
62
7
6
CONTINUOUS
10
290.9763250000
20
230.3588930000
11
290.9815860000
21
230.3715660000
0
LINE
8
10000_FRONT
62
7
6
CONTINUOUS
10
290.8271440000
20
229.6202420000
11
290.8229100000
21
229.6100440000
0
LINE
8
10000_FRONT
62
7
6
CONTINUOUS
10
292.3930980000
20
229.5812840000
11
292.4025040000
21
229.6039410000
0
LINE
8
10000_FRONT
62
7
6
CONTINUOUS
10
287.1042920000
20
230.6938450000
11
287.0948840000
21
230.6713030000
0
LINE
8
10000_FRONT
62
7
6
CONTINUOUS
10
291.4016810000
20
230.6938450000
11
291.3922730000
21
230.6713030000
0
LINE
8
10000_FRONT
62
7
6
CONTINUOUS
10
291.0194110000
20
229.5336210000
11
291.0247220000
21
229.5461530000
0
LINE
8
10000_FRONT
62
7
6
CONTINUOUS
10
287.9185270000
20
229.6521670000
11
287.9120150000
21
229.6369890000
0
LINE
8
10000_FRONT
62
7
6
CONTINUOUS
10
292.2159150000
20
229.6521670000
11
292.2094040000
21
229.6369890000
0
LINE
8
10000_FRONT
62
7
6
CONTINUOUS
10
290.7792790000
20
230.3920390000
11
290.7755450000
21
230.3834810000
0
LINE
8
10000_FRONT
62
7
6
CONTINUOUS
10
287.2878750000
20
230.6348690000
11
287.2940580000
21
230.6484840000
0
LINE
8
10000_FRONT
62
7
6
CONTINUOUS
10
291.5852640000
20
230.6348690000
11
291.5914470000
21
230.6484840000
0
LINE
8
10000_FRONT
62
7
6
CONTINUOUS
10
288.0855160000
20
229.5589560000
11
288.0957090000
21
229.5812840000
0
LINE
8
10000_FRONT
62
7
6
CONTINUOUS
10
292.3829050000
20
229.5589560000
11
292.3930980000
21
229.5812840000
0
LINE
8
10000_FRONT
62
7
6
CONTINUOUS
10
287.1144860000
20
230.7160600000
11
287.1042920000
21
230.6938450000
0
LINE
8
10000_FRONT
62
7
6
CONTINUOUS
10
291.4118750000
20
230.7160600000
11
291.4016810000
21
230.6938450000
0
LINE
8
10000_FRONT
62
7
6
CONTINUOUS
10
290.8229100000
20
229.6100440000
11
290.8190400000
21
229.6016560000
0
LINE
8
10000_FRONT
62
7
6
CONTINUOUS
10
290.9705720000
20
230.3464350000
11
290.9763250000
21
230.3588930000
0
LINE
8
10000_FRONT
62
7
6
CONTINUOUS
10
291.0136740000
20
229.5212640000
11
291.0194110000
21
229.5336210000
0
LINE
8
10000_FRONT
62
7
6
CONTINUOUS
10
287.9120150000
20
229.6369890000
11
287.9050290000
21
229.6220080000
0
LINE
8
10000_FRONT
62
7
6
CONTINUOUS
10
292.2094040000
20
229.6369890000
11
292.2024180000
21
229.6220080000
0
LINE
8
10000_FRONT
62
7
6
CONTINUOUS
10
290.7755450000
20
230.3834810000
11
290.7715030000
21
230.3750620000
0
LINE
8
10000_FRONT
62
7
6
CONTINUOUS
10
287.2940580000
20
230.6484840000
11
287.3006400000
21
230.6619370000
0
LINE
8
10000_FRONT
62
7
6
CONTINUOUS
10
291.5914470000
20
230.6484840000
11
291.5980280000
21
230.6619370000
0
LINE
8
10000_FRONT
62
7
6
CONTINUOUS
10
288.0744900000
20
229.5369940000
11
288.0855160000
21
229.5589560000
0
LINE
8
10000_FRONT
62
7
6
CONTINUOUS
10
292.3718790000
20
229.5369940000
11
292.3829050000
21
229.5589560000
0
LINE
8
10000_FRONT
62
7
6
CONTINUOUS
10
291.4229020000
20
230.7379120000
11
291.4118750000
21
230.7160600000
0
LINE
8
10000_FRONT
62
7
6
CONTINUOUS
10
290.8190400000
20
229.6016560000
11
290.8148660000
21
229.5933900000
0
LINE
8
10000_FRONT
62
7
6
CONTINUOUS
10
291.0075120000
20
229.5091080000
11
291.0136740000
21
229.5212640000
0
LINE
8
10000_FRONT
62
7
6
CONTINUOUS
10
287.9050290000
20
229.6220080000
11
287.8975470000
21
229.6072650000
0
LINE
8
10000_FRONT
62
7
6
CONTINUOUS
10
292.2024180000
20
229.6220080000
11
292.1949360000
21
229.6072650000
0
LINE
8
10000_FRONT
62
7
6
CONTINUOUS
10
290.9643160000
20
230.3342200000
11
290.9705720000
21
230.3464350000
0
LINE
8
10000_FRONT
62
7
6
CONTINUOUS
10
290.7715030000
20
230.3750620000
11
290.7671550000
21
230.3667970000
0
LINE
8
10000_FRONT
62
7
6
CONTINUOUS
10
291.5980280000
20
230.6619370000
11
291.6050200000
21
230.6751890000
0
LINE
8
10000_FRONT
62
7
6
CONTINUOUS
10
288.0722330000
20
229.5327460000
11
288.0744900000
21
229.5369940000
0
LINE
8
10000_FRONT
62
7
6
CONTINUOUS
10
292.3696220000
20
229.5327460000
11
292.3718790000
21
229.5369940000
0
LINE
8
10000_FRONT
62
7
6
CONTINUOUS
10
291.4322240000
20
230.7548810000
11
291.4229020000
21
230.7379120000
0
LINE
8
10000_FRONT
62
7
6
CONTINUOUS
10
290.8148660000
20
229.5933900000
11
290.8103940000
21
229.5852630000
0
LINE
8
10000_FRONT
62
7
6
CONTINUOUS
10
291.0009260000
20
229.4971750000
11
291.0075120000
21
229.5091080000
0
LINE
8
10000_FRONT
62
7
6
CONTINUOUS
10
287.8975470000
20
229.6072650000
11
287.8895480000
21
229.5928030000
0
LINE
8
10000_FRONT
62
7
6
CONTINUOUS
10
292.1949360000
20
229.6072650000
11
292.1869370000
21
229.5928030000
0
LINE
8
10000_FRONT
62
7
6
CONTINUOUS
10
288.0620420000
20
229.5144970000
11
288.0722330000
21
229.5327460000
0
LINE
8
10000_FRONT
62
7
6
CONTINUOUS
10
292.3594310000
20
229.5144970000
11
292.3696220000
21
229.5327460000
0
LINE
8
10000_FRONT
62
7
6
CONTINUOUS
10
290.9575450000
20
230.3222760000
11
290.9643160000
21
230.3342200000
0
LINE
8
10000_FRONT
62
7
6
CONTINUOUS
10
291.6050200000
20
230.6751890000
11
291.6124350000
21
230.6881980000
0
LINE
8
10000_FRONT
62
7
6
CONTINUOUS
10
290.7671550000
20
230.3667970000
11
290.7624970000
21
230.3587040000
0
LINE
8
10000_FRONT
62
7
6
CONTINUOUS
10
291.4420960000
20
230.7715600000
11
291.4322240000
21
230.7548810000
0
LINE
8
10000_FRONT
62
7
6
CONTINUOUS
10
290.8103940000
20
229.5852630000
11
290.8056300000
21
229.5772910000
0
LINE
8
10000_FRONT
62
7
6
CONTINUOUS
10
290.9939170000
20
229.4854890000
11
291.0009260000
21
229.4971750000
0
LINE
8
10000_FRONT
62
7
6
CONTINUOUS
10
287.8895480000
20
229.5928030000
11
287.8810120000
21
229.5786650000
0
LINE
8
10000_FRONT
62
7
6
CONTINUOUS
10
292.1869370000
20
229.5928030000
11
292.1784010000
21
229.5786650000
0
LINE
8
10000_FRONT
62
7
6
CONTINUOUS
10
288.0512130000
20
229.4965970000
11
288.0620420000
21
229.5144970000
0
LINE
8
10000_FRONT
62
7
6
CONTINUOUS
10
292.3486020000
20
229.4965970000
11
292.3594310000
21
229.5144970000
0
LINE
8
10000_FRONT
62
7
6
CONTINUOUS
10
291.6124350000
20
230.6881980000
11
291.6202860000
21
230.7009250000
0
LINE
8
10000_FRONT
62
7
6
CONTINUOUS
10
290.9514400000
20
230.3124510000
11
290.9575450000
21
230.3222760000
0
LINE
8
10000_FRONT
62
7
6
CONTINUOUS
10
290.7624970000
20
230.3587040000
11
290.7575290000
21
230.3507970000
0
LINE
8
10000_FRONT
62
7
6
CONTINUOUS
10
291.4525200000
20
230.7879110000
11
291.4420960000
21
230.7715600000
0
LINE
8
10000_FRONT
62
7
6
CONTINUOUS
10
290.8056300000
20
229.5772910000
11
290.8005800000
21
229.5694890000
0
LINE
8
10000_FRONT
62
7
6
CONTINUOUS
10
290.9864860000
20
229.4740730000
11
290.9939170000
21
229.4854890000
0
LINE
8
10000_FRONT
62
7
6
CONTINUOUS
10
292.3371330000
20
229.4790930000
11
292.3486020000
21
229.4965970000
0
LINE
8
10000_FRONT
62
7
6
CONTINUOUS
10
292.1784010000
20
229.5786650000
11
292.1693070000
21
229.5648930000
0
LINE
8
10000_FRONT
62
7
6
CONTINUOUS
10
291.6202860000
20
230.7009250000
11
291.6285840000
21
230.7133300000
0
LINE
8
10000_FRONT
62
7
6
CONTINUOUS
10
294.7790140000
20
227.3096200000
11
294.6701290000
21
227.1469490000
0
LINE
8
10000_FRONT
62
7
6
CONTINUOUS
10
290.9449710000
20
230.3028560000
11
290.9514400000
21
230.3124510000
0
LINE
8
10000_FRONT
62
7
6
CONTINUOUS
10
290.7575290000
20
230.3507970000
11
290.7522510000
21
230.3430920000
0
LINE
8
10000_FRONT
62
7
6
CONTINUOUS
10
291.4634980000
20
230.8038940000
11
291.4525200000
21
230.7879110000
0
LINE
8
10000_FRONT
62
7
6
CONTINUOUS
10
290.8005800000
20
229.5694890000
11
290.7952510000
21
229.5618750000
0
LINE
8
10000_FRONT
62
7
6
CONTINUOUS
10
290.9786360000
20
229.4629510000
11
290.9864860000
21
229.4740730000
0
LINE
8
10000_FRONT
62
7
6
CONTINUOUS
10
292.3250200000
20
229.4620320000
11
292.3371330000
21
229.4790930000
0
LINE
8
10000_FRONT
62
7
6
CONTINUOUS
10
292.1693070000
20
229.5648930000
11
292.1596330000
21
229.5515290000
0
LINE
8
10000_FRONT
62
7
6
CONTINUOUS
10
291.6285840000
20
230.7133300000
11
291.6373440000
21
230.7253720000
0
LINE
8
10000_FRONT
62
7
6
CONTINUOUS
10
290.9381470000
20
230.2935090000
11
290.9449710000
21
230.3028560000
0
LINE
8
10000_FRONT
62
7
6
CONTINUOUS
10
291.4750330000
20
230.8194710000
11
291.4634980000
21
230.8038940000
0
LINE
8
10000_FRONT
62
7
6
CONTINUOUS
10
290.7522510000
20
230.3430920000
11
290.7466610000
21
230.3356060000
0
LINE
8
10000_FRONT
62
7
6
CONTINUOUS
10
290.7952510000
20
229.5618750000
11
290.7896500000
21
229.5544640000
0
LINE
8
10000_FRONT
62
7
6
CONTINUOUS
10
290.9703650000
20
229.4521470000
11
290.9786360000
21
229.4629510000
0
LINE
8
10000_FRONT
62
7
6
CONTINUOUS
10
292.3122610000
20
229.4454620000
11
292.3250200000
21
229.4620320000
0
LINE
8
10000_FRONT
62
7
6
CONTINUOUS
10
290.9309770000
20
230.2844270000
11
290.9381470000
21
230.2935090000
0
LINE
8
10000_FRONT
62
7
6
CONTINUOUS
10
291.6373440000
20
230.7253720000
11
291.6465770000
21
230.7370100000
0
LINE
8
10000_FRONT
62
7
6
CONTINUOUS
10
292.1596330000
20
229.5515290000
11
292.1493600000
21
229.5386160000
0
LINE
8
10000_FRONT
62
7
6
CONTINUOUS
10
291.4871280000
20
230.8346010000
11
291.4750330000
21
230.8194710000
0
LINE
8
10000_FRONT
62
7
6
CONTINUOUS
10
290.7466610000
20
230.3356060000
11
290.7413630000
21
230.3290670000
0
LINE
8
10000_FRONT
62
7
6
CONTINUOUS
10
290.7896500000
20
229.5544640000
11
290.7837810000
21
229.5472730000
0
LINE
8
10000_FRONT
62
7
6
CONTINUOUS
10
290.9616770000
20
229.4416830000
11
290.9703650000
21
229.4521470000
0
LINE
8
10000_FRONT
62
7
6
CONTINUOUS
10
292.2988530000
20
229.4294290000
11
292.3122610000
21
229.4454620000
0
LINE
8
10000_FRONT
62
7
6
CONTINUOUS
10
290.9234680000
20
230.2756280000
11
290.9309770000
21
230.2844270000
0
LINE
8
10000_FRONT
62
7
6
CONTINUOUS
10
291.4997830000
20
230.8492450000
11
291.4871280000
21
230.8346010000
0
LINE
8
10000_FRONT
62
7
6
CONTINUOUS
10
291.6465770000
20
230.7370100000
11
291.6562960000
21
230.7482050000
0
LINE
8
10000_FRONT
62
7
6
CONTINUOUS
10
292.1493600000
20
229.5386160000
11
292.1384670000
21
229.5261970000
0
LINE
8
10000_FRONT
62
7
6
CONTINUOUS
10
290.7837810000
20
229.5472730000
11
290.7776530000
21
229.5403190000
0
LINE
8
10000_FRONT
62
7
6
CONTINUOUS
10
290.9523970000
20
229.4313910000
11
290.9616770000
21
229.4416830000
0
LINE
8
10000_FRONT
62
7
6
CONTINUOUS
10
292.2847930000
20
229.4139820000
11
292.2988530000
21
229.4294290000
0
LINE
8
10000_FRONT
62
7
6
CONTINUOUS
10
292.1384670000
20
229.5261970000
11
292.1293870000
21
229.5167360000
0
LINE
8
10000_FRONT
62
7
6
CONTINUOUS
10
290.9427080000
20
229.4214790000
11
290.9523970000
21
229.4313910000
0
LINE
8
10000_FRONT
62
7
6
CONTINUOUS
10
292.2700780000
20
229.3991660000
11
292.2847930000
21
229.4139820000
0
LINE
8
10000_FRONT
62
7
6
CONTINUOUS
10
292.1293870000
20
229.5167360000
11
292.1199230000
21
229.5076360000
0
LINE
8
10000_FRONT
62
7
6
CONTINUOUS
10
292.2547060000
20
229.3850300000
11
292.2700780000
21
229.3991660000
0
LINE
8
10000_FRONT
62
7
6
CONTINUOUS
10
304.1524160000
20
228.6442090000
11
302.7025290000
21
227.3387250000
0
LINE
8
10000_FRONT
62
7
6
CONTINUOUS
10
292.1199230000
20
229.5076360000
11
292.1100920000
21
229.4989190000
0
LINE
8
10000_FRONT
62
7
6
CONTINUOUS
10
292.2390940000
20
229.3719440000
11
292.2547060000
21
229.3850300000
0
LINE
8
10000_FRONT
62
7
6
CONTINUOUS
10
294.6701290000
20
227.1469490000
11
294.5075720000
21
227.0387230000
0
LINE
8
12000_RIGHT
62
7
6
CONTINUOUS
10
84.4510140000
20
231.7387250000
11
84.7510140000
21
231.6971530000
0
LINE
8
10000_FRONT
62
7
6
CONTINUOUS
10
249.8171120000
20
237.0387250000
11
250.3171120000
21
236.7387250000
0
LINE
8
12000_RIGHT
62
7
6
CONTINUOUS
10
71.0041650000
20
348.7646840000
11
71.0667870000
21
348.7250780000
0
LINE
8
12000_RIGHT
62
7
6
CONTINUOUS
10
70.8891360000
20
352.5182850000
11
70.8352410000
21
352.5523720000
0
LINE
8
10000_FRONT
62
7
6
CONTINUOUS
10
280.9313710000
20
229.5753850000
11
280.9167270000
21
229.5897740000
0
LINE
8
10000_FRONT
62
7
6
CONTINUOUS
10
252.4313440000
20
230.3244930000
11
253.1111520000
21
229.6446840000
0
LINE
8
10000_FRONT
62
7
6
CONTINUOUS
10
262.5846740000
20
227.0387250000
11
262.4171120000
21
227.2062870000
0
LINE
8
10000_FRONT
62
7
6
CONTINUOUS
10
280.7416240000
20
229.4968740000
11
280.7610110000
21
229.4770080000
0
LINE
8
10000_FRONT
62
7
6
CONTINUOUS
10
240.2171120000
20
246.9542300000
11
240.2273240000
21
246.9434900000
0
LINE
8
10000_FRONT
62
7
6
CONTINUOUS
10
280.9167270000
20
229.5897740000
11
280.9026110000
21
229.6046820000
0
LINE
8
10000_FRONT
62
7
6
CONTINUOUS
10
280.7229670000
20
229.5174220000
11
280.7416240000
21
229.4968740000
0
LINE
8
10000_FRONT
62
7
6
CONTINUOUS
10
280.9026110000
20
229.6046820000
11
280.8890320000
21
229.6200840000
0
LINE
8
10000_FRONT
62
7
6
CONTINUOUS
10
283.5958680000
20
229.4380630000
11
283.6100080000
21
229.4218870000
0
LINE
8
10000_FRONT
62
7
6
CONTINUOUS
10
280.7050630000
20
229.5386250000
11
280.7229670000
21
229.5174220000
0
LINE
8
10000_FRONT
62
7
6
CONTINUOUS
10
283.7581900000
20
229.5317810000
11
283.7487840000
21
229.5429480000
0
LINE
8
10000_FRONT
62
7
6
CONTINUOUS
10
280.8890320000
20
229.6200840000
11
280.8760010000
21
229.6359570000
0
LINE
8
10000_FRONT
62
7
6
CONTINUOUS
10
283.5824370000
20
229.4548390000
11
283.5958680000
21
229.4380630000
0
LINE
8
10000_FRONT
62
7
6
CONTINUOUS
10
280.6879380000
20
229.5604560000
11
280.7050630000
21
229.5386250000
0
LINE
8
10000_FRONT
62
7
6
CONTINUOUS
10
284.2599130000
20
230.7318690000
11
284.2689520000
21
230.7202610000
0
LINE
8
10000_FRONT
62
7
6
CONTINUOUS
10
283.7487840000
20
229.5429480000
11
283.7398430000
21
229.5544980000
0
LINE
8
10000_FRONT
62
7
6
CONTINUOUS
10
280.8760010000
20
229.6359570000
11
280.8635270000
21
229.6522730000
0
LINE
8
10000_FRONT
62
7
6
CONTINUOUS
10
284.4321450000
20
230.8111270000
11
284.4198510000
21
230.8278080000
0
LINE
8
10000_FRONT
62
7
6
CONTINUOUS
10
283.5697020000
20
229.4721650000
11
283.5824370000
21
229.4548390000
0
LINE
8
10000_FRONT
62
7
6
CONTINUOUS
10
280.6716160000
20
229.5828860000
11
280.6879380000
21
229.5604560000
0
LINE
8
10000_FRONT
62
7
6
CONTINUOUS
10
284.2689520000
20
230.7202610000
11
284.2775280000
21
230.7082920000
0
LINE
8
10000_FRONT
62
7
6
CONTINUOUS
10
283.7398430000
20
229.5544980000
11
283.7313580000
21
229.5663980000
0
LINE
8
10000_FRONT
62
7
6
CONTINUOUS
10
280.8635270000
20
229.6522730000
11
280.8516200000
21
229.6690090000
0
LINE
8
10000_FRONT
62
7
6
CONTINUOUS
10
284.4438630000
20
230.7939270000
11
284.4321450000
21
230.8111270000
0
LINE
8
10000_FRONT
62
7
6
CONTINUOUS
10
283.5576490000
20
229.4899950000
11
283.5697020000
21
229.4721650000
0
LINE
8
10000_FRONT
62
7
6
CONTINUOUS
10
287.1532030000
20
229.4899950000
11
287.1652560000
21
229.4721650000
0
LINE
8
10000_FRONT
62
7
6
CONTINUOUS
10
280.6561200000
20
229.6058890000
11
280.6716160000
21
229.5828860000
0
LINE
8
10000_FRONT
62
7
6
CONTINUOUS
10
280.8516200000
20
229.6690090000
11
280.8402890000
21
229.6861400000
0
LINE
8
10000_FRONT
62
7
6
CONTINUOUS
10
284.2775280000
20
230.7082920000
11
284.2856490000
21
230.6959990000
0
LINE
8
10000_FRONT
62
7
6
CONTINUOUS
10
283.7313580000
20
229.5663980000
11
283.7233210000
21
229.5786140000
0
LINE
8
10000_FRONT
62
7
6
CONTINUOUS
10
287.3269120000
20
229.5663980000
11
287.3188750000
21
229.5786140000
0
LINE
8
10000_FRONT
62
7
6
CONTINUOUS
10
284.4550180000
20
230.7762530000
11
284.4438630000
21
230.7939270000
0
LINE
8
10000_FRONT
62
7
6
CONTINUOUS
10
283.5462660000
20
229.5082780000
11
283.5576490000
21
229.4899950000
0
LINE
8
10000_FRONT
62
7
6
CONTINUOUS
10
287.1418200000
20
229.5082780000
11
287.1532030000
21
229.4899950000
0
LINE
8
10000_FRONT
62
7
6
CONTINUOUS
10
280.6414770000
20
229.6294360000
11
280.6561200000
21
229.6058890000
0
LINE
8
10000_FRONT
62
7
6
CONTINUOUS
10
280.8402890000
20
229.6861400000
11
280.8295450000
21
229.7036400000
0
LINE
8
10000_FRONT
62
7
6
CONTINUOUS
10
284.2856490000
20
230.6959990000
11
284.2933250000
21
230.6834170000
0
LINE
8
10000_FRONT
62
7
6
CONTINUOUS
10
283.7233210000
20
229.5786140000
11
283.7157210000
21
229.5911110000
0
LINE
8
10000_FRONT
62
7
6
CONTINUOUS
10
287.3188750000
20
229.5786140000
11
287.3112750000
21
229.5911110000
0
LINE
8
10000_FRONT
62
7
6
CONTINUOUS
10
284.4656200000
20
230.7581490000
11
284.4550180000
21
230.7762530000
0
LINE
8
10000_FRONT
62
7
6
CONTINUOUS
10
288.0611740000
20
230.7581490000
11
288.0505720000
21
230.7762530000
0
LINE
8
10000_FRONT
62
7
6
CONTINUOUS
10
283.5355390000
20
229.5269670000
11
283.5462660000
21
229.5082780000
0
LINE
8
10000_FRONT
62
7
6
CONTINUOUS
10
287.1310930000
20
229.5269670000
11
287.1418200000
21
229.5082780000
0
LINE
8
10000_FRONT
62
7
6
CONTINUOUS
10
280.6277090000
20
229.6535000000
11
280.6414770000
21
229.6294360000
0
LINE
8
10000_FRONT
62
7
6
CONTINUOUS
10
280.8295450000
20
229.7036400000
11
280.8193970000
21
229.7214840000
0
LINE
8
10000_FRONT
62
7
6
CONTINUOUS
10
284.2933250000
20
230.6834170000
11
284.3005650000
21
230.6705820000
0
LINE
8
10000_FRONT
62
7
6
CONTINUOUS
10
287.8888790000
20
230.6834170000
11
287.8961190000
21
230.6705820000
0
LINE
8
10000_FRONT
62
7
6
CONTINUOUS
10
283.7157210000
20
229.5911110000
11
283.7085500000
21
229.6038560000
0
LINE
8
10000_FRONT
62
7
6
CONTINUOUS
10
287.3112750000
20
229.5911110000
11
287.3041040000
21
229.6038560000
0
LINE
8
10000_FRONT
62
7
6
CONTINUOUS
10
274.3041300000
20
230.5531550000
11
274.2213490000
21
230.7031200000
0
LINE
8
10000_FRONT
62
7
6
CONTINUOUS
10
285.0341636378
20
230.5538892848
11
284.9513826378
21
230.7038542848
0
LINE
8
10000_FRONT
62
7
6
CONTINUOUS
10
284.4756820000
20
230.7396640000
11
284.4656200000
21
230.7581490000
0
LINE
8
10000_FRONT
62
7
6
CONTINUOUS
10
288.0712360000
20
230.7396640000
11
288.0611740000
21
230.7581490000
0
LINE
8
10000_FRONT
62
7
6
CONTINUOUS
10
283.5254550000
20
229.5460130000
11
283.5355390000
21
229.5269670000
0
LINE
8
10000_FRONT
62
7
6
CONTINUOUS
10
287.1210090000
20
229.5460130000
11
287.1310930000
21
229.5269670000
0
LINE
8
10000_FRONT
62
7
6
CONTINUOUS
10
280.8193970000
20
229.7214840000
11
280.8094120000
21
229.7405200000
0
LINE
8
10000_FRONT
62
7
6
CONTINUOUS
10
280.6144930000
20
229.6787360000
11
280.6277090000
21
229.6535000000
0
LINE
8
10000_FRONT
62
7
6
CONTINUOUS
10
284.3005650000
20
230.6705820000
11
284.3073760000
21
230.6575300000
0
LINE
8
10000_FRONT
62
7
6
CONTINUOUS
10
287.8961190000
20
230.6705820000
11
287.9029300000
21
230.6575300000
0
LINE
8
10000_FRONT
62
7
6
CONTINUOUS
10
283.7085500000
20
229.6038560000
11
283.7017990000
21
229.6168150000
0
LINE
8
10000_FRONT
62
7
6
CONTINUOUS
10
287.3041040000
20
229.6038560000
11
287.2973530000
21
229.6168150000
0
LINE
8
10000_FRONT
62
7
6
CONTINUOUS
10
276.9291120000
20
234.0194920000
11
276.9315460000
21
234.0147610000
0
LINE
8
10000_FRONT
62
7
6
CONTINUOUS
10
289.0702560000
20
230.8194920000
11
289.0726890000
21
230.8147610000
0
LINE
8
10000_FRONT
62
7
6
CONTINUOUS
10
284.4852130000
20
230.7208410000
11
284.4756820000
21
230.7396640000
0
LINE
8
10000_FRONT
62
7
6
CONTINUOUS
10
288.0807670000
20
230.7208410000
11
288.0712360000
21
230.7396640000
0
LINE
8
10000_FRONT
62
7
6
CONTINUOUS
10
276.9315460000
20
234.0147610000
11
276.9338150000
21
234.0101490000
0
LINE
8
10000_FRONT
62
7
6
CONTINUOUS
10
289.0726890000
20
230.8147610000
11
289.0749580000
21
230.8101490000
0
LINE
8
10000_FRONT
62
7
6
CONTINUOUS
10
283.5160020000
20
229.5653680000
11
283.5254550000
21
229.5460130000
0
LINE
8
10000_FRONT
62
7
6
CONTINUOUS
10
287.1115560000
20
229.5653680000
11
287.1210090000
21
229.5460130000
0
LINE
8
10000_FRONT
62
7
6
CONTINUOUS
10
280.8094120000
20
229.7405200000
11
280.8000810000
21
229.7598810000
0
LINE
8
10000_FRONT
62
7
6
CONTINUOUS
10
280.6022170000
20
229.7044470000
11
280.6144930000
21
229.6787360000
0
LINE
8
10000_FRONT
62
7
6
CONTINUOUS
10
284.3073760000
20
230.6575300000
11
284.3158300000
21
230.6398040000
0
LINE
8
10000_FRONT
62
7
6
CONTINUOUS
10
287.9029300000
20
230.6575300000
11
287.9113840000
21
230.6398040000
0
LINE
8
10000_FRONT
62
7
6
CONTINUOUS
10
283.7017990000
20
229.6168150000
11
283.6932830000
21
229.6347050000
0
LINE
8
10000_FRONT
62
7
6
CONTINUOUS
10
287.2973530000
20
229.6168150000
11
287.2888370000
21
229.6347050000
0
LINE
8
10000_FRONT
62
7
6
CONTINUOUS
10
284.4942260000
20
230.7017260000
11
284.4852130000
21
230.7208410000
0
LINE
8
10000_FRONT
62
7
6
CONTINUOUS
10
288.0897800000
20
230.7017260000
11
288.0807670000
21
230.7208410000
0
LINE
8
10000_FRONT
62
7
6
CONTINUOUS
10
276.9338150000
20
234.0101490000
11
276.9359280000
21
234.0056510000
0
LINE
8
10000_FRONT
62
7
6
CONTINUOUS
10
289.0749580000
20
230.8101490000
11
289.0770710000
21
230.8056510000
0
LINE
8
10000_FRONT
62
7
6
CONTINUOUS
10
290.8202950000
20
229.9067960000
11
290.8242960000
21
229.8980690000
0
LINE
8
10000_FRONT
62
7
6
CONTINUOUS
10
283.5071650000
20
229.5849830000
11
283.5160020000
21
229.5653680000
0
LINE
8
10000_FRONT
62
7
6
CONTINUOUS
10
287.1027190000
20
229.5849830000
11
287.1115560000
21
229.5653680000
0
LINE
8
10000_FRONT
62
7
6
CONTINUOUS
10
276.9359280000
20
234.0056510000
11
276.9378930000
21
234.0012620000
0
LINE
8
10000_FRONT
62
7
6
CONTINUOUS
10
289.0770710000
20
230.8056510000
11
289.0790360000
21
230.8012620000
0
LINE
8
10000_FRONT
62
7
6
CONTINUOUS
10
276.2670920000
20
245.4868620000
11
276.4307280000
21
245.1202410000
0
LINE
8
10000_FRONT
62
7
6
CONTINUOUS
10
278.4671320000
20
244.5905880000
11
278.3034950000
21
244.9572090000
0
LINE
8
10000_FRONT
62
7
6
CONTINUOUS
10
280.8000810000
20
229.7598810000
11
280.7913950000
21
229.7795380000
0
LINE
8
10000_FRONT
62
7
6
CONTINUOUS
10
284.5027330000
20
230.6823670000
11
284.4942260000
21
230.7017260000
0
LINE
8
10000_FRONT
62
7
6
CONTINUOUS
10
288.0982870000
20
230.6823670000
11
288.0897800000
21
230.7017260000
0
LINE
8
10000_FRONT
62
7
6
CONTINUOUS
10
291.0267040000
20
229.9241280000
11
291.0210040000
21
229.9371820000
0
LINE
8
10000_FRONT
62
7
6
CONTINUOUS
10
290.7739080000
20
230.6794440000
11
290.7776290000
21
230.6708870000
0
LINE
8
10000_FRONT
62
7
6
CONTINUOUS
10
280.5908720000
20
229.7305880000
11
280.6022170000
21
229.7044470000
0
LINE
8
10000_FRONT
62
7
6
CONTINUOUS
10
284.3158300000
20
230.6398040000
11
284.3235810000
21
230.6217860000
0
LINE
8
10000_FRONT
62
7
6
CONTINUOUS
10
287.9113840000
20
230.6398040000
11
287.9191350000
21
230.6217860000
0
LINE
8
10000_FRONT
62
7
6
CONTINUOUS
10
283.6932830000
20
229.6347050000
11
283.6854780000
21
229.6528920000
0
LINE
8
10000_FRONT
62
7
6
CONTINUOUS
10
287.2888370000
20
229.6347050000
11
287.2810320000
21
229.6528920000
0
LINE
8
10000_FRONT
62
7
6
CONTINUOUS
10
291.5862250000
20
229.6347050000
11
291.5784210000
21
229.6528920000
0
LINE
8
10000_FRONT
62
7
6
CONTINUOUS
10
276.9378930000
20
234.0012620000
11
276.9397170000
21
233.9969750000
0
LINE
8
10000_FRONT
62
7
6
CONTINUOUS
10
289.0790360000
20
230.8012620000
11
289.0808600000
21
230.7969750000
0
LINE
8
10000_FRONT
62
7
6
CONTINUOUS
10
290.9805500000
20
230.7343750000
11
290.9749290000
21
230.7477250000
0
LINE
8
10000_FRONT
62
7
6
CONTINUOUS
10
290.8242960000
20
229.8980690000
11
290.8279680000
21
229.8892130000
0
LINE
8
10000_FRONT
62
7
6
CONTINUOUS
10
283.4970600000
20
229.6095490000
11
283.5071650000
21
229.5849830000
0
LINE
8
10000_FRONT
62
7
6
CONTINUOUS
10
287.0926140000
20
229.6095490000
11
287.1027190000
21
229.5849830000
0
LINE
8
10000_FRONT
62
7
6
CONTINUOUS
10
291.3900030000
20
229.6095490000
11
291.4001070000
21
229.5849830000
0
LINE
8
10000_FRONT
62
7
6
CONTINUOUS
10
284.5107440000
20
230.6628070000
11
284.5027330000
21
230.6823670000
0
LINE
8
10000_FRONT
62
7
6
CONTINUOUS
10
288.1062980000
20
230.6628070000
11
288.0982870000
21
230.6823670000
0
LINE
8
10000_FRONT
62
7
6
CONTINUOUS
10
280.7913950000
20
229.7795380000
11
280.7833420000
21
229.7994670000
0
LINE
8
10000_FRONT
62
7
6
CONTINUOUS
10
276.9397170000
20
233.9969750000
11
276.9414090000
21
233.9927850000
0
LINE
8
10000_FRONT
62
7
6
CONTINUOUS
10
289.0808600000
20
230.7969750000
11
289.0825520000
21
230.7927850000
0
LINE
8
10000_FRONT
62
7
6
CONTINUOUS
10
280.5804450000
20
229.7571160000
11
280.5908720000
21
229.7305880000
0
LINE
8
10000_FRONT
62
7
6
CONTINUOUS
10
290.7776290000
20
230.6708870000
11
290.7810460000
21
230.6621970000
0
LINE
8
10000_FRONT
62
7
6
CONTINUOUS
10
284.3235810000
20
230.6217860000
11
284.3306740000
21
230.6035110000
0
LINE
8
10000_FRONT
62
7
6
CONTINUOUS
10
287.9191350000
20
230.6217860000
11
287.9262280000
21
230.6035110000
0
LINE
8
10000_FRONT
62
7
6
CONTINUOUS
10
283.6854780000
20
229.6528920000
11
283.6783400000
21
229.6713400000
0
LINE
8
10000_FRONT
62
7
6
CONTINUOUS
10
287.2810320000
20
229.6528920000
11
287.2738940000
21
229.6713400000
0
LINE
8
10000_FRONT
62
7
6
CONTINUOUS
10
291.5784210000
20
229.6528920000
11
291.5712830000
21
229.6713400000
0
LINE
8
10000_FRONT
62
7
6
CONTINUOUS
10
291.0318500000
20
229.9108230000
11
291.0267040000
21
229.9241280000
0
LINE
8
10000_FRONT
62
7
6
CONTINUOUS
10
276.9414090000
20
233.9927850000
11
276.9429760000
21
233.9886870000
0
LINE
8
10000_FRONT
62
7
6
CONTINUOUS
10
289.0825520000
20
230.7927850000
11
289.0841190000
21
230.7886870000
0
LINE
8
10000_FRONT
62
7
6
CONTINUOUS
10
284.5182710000
20
230.6430940000
11
284.5107440000
21
230.6628070000
0
LINE
8
10000_FRONT
62
7
6
CONTINUOUS
10
288.1138250000
20
230.6430940000
11
288.1062980000
21
230.6628070000
0
LINE
8
10000_FRONT
62
7
6
CONTINUOUS
10
290.9856270000
20
230.7208100000
11
290.9805500000
21
230.7343750000
0
LINE
8
10000_FRONT
62
7
6
CONTINUOUS
10
290.8279680000
20
229.8892130000
11
290.8313080000
21
229.8802470000
0
LINE
8
10000_FRONT
62
7
6
CONTINUOUS
10
283.4878260000
20
229.6344080000
11
283.4970600000
21
229.6095490000
0
LINE
8
10000_FRONT
62
7
6
CONTINUOUS
10
287.0833800000
20
229.6344080000
11
287.0926140000
21
229.6095490000
0
LINE
8
10000_FRONT
62
7
6
CONTINUOUS
10
291.3807690000
20
229.6344080000
11
291.3900030000
21
229.6095490000
0
LINE
8
10000_FRONT
62
7
6
CONTINUOUS
10
280.7833420000
20
229.7994670000
11
280.7759120000
21
229.8196390000
0
LINE
8
10000_FRONT
62
7
6
CONTINUOUS
10
276.9429760000
20
233.9886870000
11
276.9444260000
21
233.9846750000
0
LINE
8
10000_FRONT
62
7
6
CONTINUOUS
10
289.0841190000
20
230.7886870000
11
289.0855690000
21
230.7846750000
0
LINE
8
10000_FRONT
62
7
6
CONTINUOUS
10
277.0550830000
20
234.1874530000
11
277.6645390000
21
232.4874530000
0
LINE
8
10000_FRONT
62
7
6
CONTINUOUS
10
289.1962260000
20
230.9874530000
11
289.8056830000
21
229.2874530000
0
LINE
8
10000_FRONT
62
7
6
CONTINUOUS
10
284.5253250000
20
230.6232720000
11
284.5182710000
21
230.6430940000
0
LINE
8
10000_FRONT
62
7
6
CONTINUOUS
10
288.1208790000
20
230.6232720000
11
288.1138250000
21
230.6430940000
0
LINE
8
10000_FRONT
62
7
6
CONTINUOUS
10
292.4182680000
20
230.6232720000
11
292.4112140000
21
230.6430940000
0
LINE
8
10000_FRONT
62
7
6
CONTINUOUS
10
290.7810460000
20
230.6621970000
11
290.7841710000
21
230.6533950000
0
LINE
8
10000_FRONT
62
7
6
CONTINUOUS
10
280.5709290000
20
229.7839900000
11
280.5804450000
21
229.7571160000
0
LINE
8
10000_FRONT
62
7
6
CONTINUOUS
10
277.4521890000
20
232.4874530000
11
277.2434380000
21
233.0825130000
0
LINE
8
10000_FRONT
62
7
6
CONTINUOUS
10
289.5933330000
20
229.2874530000
11
289.3845820000
21
229.8825130000
0
LINE
8
10000_FRONT
62
7
6
CONTINUOUS
10
276.9817950000
20
233.8444840000
11
276.9957630000
21
233.8046100000
0
LINE
8
10000_FRONT
62
7
6
CONTINUOUS
10
284.3306740000
20
230.6035110000
11
284.3371540000
21
230.5850120000
0
LINE
8
10000_FRONT
62
7
6
CONTINUOUS
10
287.9262280000
20
230.6035110000
11
287.9327080000
21
230.5850120000
0
LINE
8
10000_FRONT
62
7
6
CONTINUOUS
10
289.1229390000
20
230.6444840000
11
289.1369070000
21
230.6046100000
0
LINE
8
10000_FRONT
62
7
6
CONTINUOUS
10
292.2236170000
20
230.6035110000
11
292.2300970000
21
230.5850120000
0
LINE
8
10000_FRONT
62
7
6
CONTINUOUS
10
283.6783400000
20
229.6713400000
11
283.6718230000
21
229.6900180000
0
LINE
8
10000_FRONT
62
7
6
CONTINUOUS
10
287.2738940000
20
229.6713400000
11
287.2673770000
21
229.6900180000
0
LINE
8
10000_FRONT
62
7
6
CONTINUOUS
10
291.5712830000
20
229.6713400000
11
291.5647650000
21
229.6900180000
0
LINE
8
10000_FRONT
62
7
6
CONTINUOUS
10
276.9957630000
20
233.8046100000
11
277.0006910000
21
233.7903060000
0
LINE
8
10000_FRONT
62
7
6
CONTINUOUS
10
289.1369070000
20
230.6046100000
11
289.1418340000
21
230.5903060000
0
LINE
8
10000_FRONT
62
7
6
CONTINUOUS
10
276.9790630000
20
233.8524460000
11
276.9817950000
21
233.8444840000
0
LINE
8
10000_FRONT
62
7
6
CONTINUOUS
10
289.1202070000
20
230.6524460000
11
289.1229390000
21
230.6444840000
0
LINE
8
10000_FRONT
62
7
6
CONTINUOUS
10
276.9444260000
20
233.9846750000
11
276.9457670000
21
233.9807420000
0
LINE
8
10000_FRONT
62
7
6
CONTINUOUS
10
289.0855690000
20
230.7846750000
11
289.0869100000
21
230.7807420000
0
LINE
8
10000_FRONT
62
7
6
CONTINUOUS
10
291.0364650000
20
229.8972900000
11
291.0318500000
21
229.9108230000
0
LINE
8
10000_FRONT
62
7
6
CONTINUOUS
10
277.0287750000
20
233.7060080000
11
277.1846520000
21
233.2444750000
0
LINE
8
10000_FRONT
62
7
6
CONTINUOUS
10
289.1699180000
20
230.5060080000
11
289.3257950000
21
230.0444750000
0
LINE
8
10000_FRONT
62
7
6
CONTINUOUS
10
277.0006910000
20
233.7903060000
11
277.0102150000
21
233.7620200000
0
LINE
8
10000_FRONT
62
7
6
CONTINUOUS
10
276.9763940000
20
233.8603720000
11
276.9790630000
21
233.8524460000
0
LINE
8
10000_FRONT
62
7
6
CONTINUOUS
10
289.1418340000
20
230.5903060000
11
289.1513580000
21
230.5620200000
0
LINE
8
10000_FRONT
62
7
6
CONTINUOUS
10
289.1175370000
20
230.6603720000
11
289.1202070000
21
230.6524460000
0
LINE
8
10000_FRONT
62
7
6
CONTINUOUS
10
291.3723500000
20
229.6595290000
11
291.3807690000
21
229.6344080000
0
LINE
8
10000_FRONT
62
7
6
CONTINUOUS
10
283.4794080000
20
229.6595290000
11
283.4878260000
21
229.6344080000
0
LINE
8
10000_FRONT
62
7
6
CONTINUOUS
10
287.0749620000
20
229.6595290000
11
287.0833800000
21
229.6344080000
0
LINE
8
10000_FRONT
62
7
6
CONTINUOUS
10
280.7759120000
20
229.8196390000
11
280.7690940000
21
229.8400300000
0
LINE
8
10000_FRONT
62
7
6
CONTINUOUS
10
277.0102150000
20
233.7620200000
11
277.0287750000
21
233.7060080000
0
LINE
8
10000_FRONT
62
7
6
CONTINUOUS
10
289.1513580000
20
230.5620200000
11
289.1699180000
21
230.5060080000
0
LINE
8
10000_FRONT
62
7
6
CONTINUOUS
10
290.9901800000
20
230.7070480000
11
290.9856270000
21
230.7208100000
0
LINE
8
10000_FRONT
62
7
6
CONTINUOUS
10
290.8313080000
20
229.8802470000
11
290.8347310000
21
229.8698410000
0
LINE
8
10000_FRONT
62
7
6
CONTINUOUS
10
276.9738050000
20
233.8682500000
11
276.9763940000
21
233.8603720000
0
LINE
8
10000_FRONT
62
7
6
CONTINUOUS
10
289.1149480000
20
230.6682500000
11
289.1175370000
21
230.6603720000
0
LINE
8
10000_FRONT
62
7
6
CONTINUOUS
10
284.5356020000
20
230.5916040000
11
284.5253250000
21
230.6232720000
0
LINE
8
10000_FRONT
62
7
6
CONTINUOUS
10
288.1311560000
20
230.5916040000
11
288.1208790000
21
230.6232720000
0
LINE
8
10000_FRONT
62
7
6
CONTINUOUS
10
292.4285450000
20
230.5916040000
11
292.4182680000
21
230.6232720000
0
LINE
8
10000_FRONT
62
7
6
CONTINUOUS
10
276.9457670000
20
233.9807420000
11
276.9470070000
21
233.9768850000
0
LINE
8
10000_FRONT
62
7
6
CONTINUOUS
10
289.0869100000
20
230.7807420000
11
289.0881500000
21
230.7768850000
0
LINE
8
10000_FRONT
62
7
6
CONTINUOUS
10
290.7841710000
20
230.6533950000
11
290.7870140000
21
230.6445010000
0
LINE
8
10000_FRONT
62
7
6
CONTINUOUS
10
276.9713140000
20
233.8760680000
11
276.9738050000
21
233.8682500000
0
LINE
8
10000_FRONT
62
7
6
CONTINUOUS
10
289.1124570000
20
230.6760680000
11
289.1149480000
21
230.6682500000
0
LINE
8
10000_FRONT
62
7
6
CONTINUOUS
10
280.5623100000
20
229.8111650000
11
280.5709290000
21
229.7839900000
0
LINE
8
10000_FRONT
62
7
6
CONTINUOUS
10
284.3371540000
20
230.5850120000
11
284.3430660000
21
230.5663200000
0
LINE
8
10000_FRONT
62
7
6
CONTINUOUS
10
287.9327080000
20
230.5850120000
11
287.9386200000
21
230.5663200000
0
LINE
8
10000_FRONT
62
7
6
CONTINUOUS
10
292.2300970000
20
230.5850120000
11
292.2360080000
21
230.5663200000
0
LINE
8
10000_FRONT
62
7
6
CONTINUOUS
10
283.6718230000
20
229.6900180000
11
283.6658790000
21
229.7088890000
0
LINE
8
10000_FRONT
62
7
6
CONTINUOUS
10
287.2673770000
20
229.6900180000
11
287.2614330000
21
229.7088890000
0
LINE
8
10000_FRONT
62
7
6
CONTINUOUS
10
291.5647650000
20
229.6900180000
11
291.5588220000
21
229.7088890000
0
LINE
8
10000_FRONT
62
7
6
CONTINUOUS
10
276.9689400000
20
233.8838110000
11
276.9713140000
21
233.8760680000
0
LINE
8
10000_FRONT
62
7
6
CONTINUOUS
10
289.1100840000
20
230.6838110000
11
289.1124570000
21
230.6760680000
0
LINE
8
10000_FRONT
62
7
6
CONTINUOUS
10
276.9470070000
20
233.9768850000
11
276.9481530000
21
233.9730960000
0
LINE
8
10000_FRONT
62
7
6
CONTINUOUS
10
289.0881500000
20
230.7768850000
11
289.0892960000
21
230.7730960000
0
LINE
8
10000_FRONT
62
7
6
CONTINUOUS
10
280.7690940000
20
229.8400300000
11
280.7628790000
21
229.8606110000
0
LINE
8
10000_FRONT
62
7
6
CONTINUOUS
10
283.4717510000
20
229.6848800000
11
283.4794080000
21
229.6595290000
0
LINE
8
10000_FRONT
62
7
6
CONTINUOUS
10
287.0673050000
20
229.6848800000
11
287.0749620000
21
229.6595290000
0
LINE
8
10000_FRONT
62
7
6
CONTINUOUS
10
291.3646940000
20
229.6848800000
11
291.3723500000
21
229.6595290000
0
LINE
8
10000_FRONT
62
7
6
CONTINUOUS
10
291.0405700000
20
229.8835510000
11
291.0364650000
21
229.8972900000
0
LINE
8
10000_FRONT
62
7
6
CONTINUOUS
10
276.9667010000
20
233.8914680000
11
276.9689400000
21
233.8838110000
0
LINE
8
10000_FRONT
62
7
6
CONTINUOUS
10
289.1078440000
20
230.6914680000
11
289.1100840000
21
230.6838110000
0
LINE
8
10000_FRONT
62
7
6
CONTINUOUS
10
290.9942280000
20
230.6931100000
11
290.9901800000
21
230.7070480000
0
LINE
8
10000_FRONT
62
7
6
CONTINUOUS
10
284.5447700000
20
230.5597900000
11
284.5356020000
21
230.5916040000
0
LINE
8
10000_FRONT
62
7
6
CONTINUOUS
10
288.1403240000
20
230.5597900000
11
288.1311560000
21
230.5916040000
0
LINE
8
10000_FRONT
62
7
6
CONTINUOUS
10
292.4377130000
20
230.5597900000
11
292.4285450000
21
230.5916040000
0
LINE
8
10000_FRONT
62
7
6
CONTINUOUS
10
290.7870140000
20
230.6445010000
11
290.7895840000
21
230.6355360000
0
LINE
8
10000_FRONT
62
7
6
CONTINUOUS
10
284.3430660000
20
230.5663200000
11
284.3484540000
21
230.5474700000
0
LINE
8
10000_FRONT
62
7
6
CONTINUOUS
10
287.9386200000
20
230.5663200000
11
287.9440080000
21
230.5474700000
0
LINE
8
10000_FRONT
62
7
6
CONTINUOUS
10
292.2360080000
20
230.5663200000
11
292.2413970000
21
230.5474700000
0
LINE
8
10000_FRONT
62
7
6
CONTINUOUS
10
290.8347310000
20
229.8698410000
11
290.8377340000
21
229.8593250000
0
LINE
8
10000_FRONT
62
7
6
CONTINUOUS
10
276.9481530000
20
233.9730960000
11
276.9492140000
21
233.9693700000
0
LINE
8
10000_FRONT
62
7
6
CONTINUOUS
10
289.0892960000
20
230.7730960000
11
289.0903570000
21
230.7693700000
0
LINE
8
10000_FRONT
62
7
6
CONTINUOUS
10
283.6658790000
20
229.7088890000
11
283.6604630000
21
229.7279200000
0
LINE
8
10000_FRONT
62
7
6
CONTINUOUS
10
287.2614330000
20
229.7088890000
11
287.2560170000
21
229.7279200000
0
LINE
8
10000_FRONT
62
7
6
CONTINUOUS
10
291.5588220000
20
229.7088890000
11
291.5534060000
21
229.7279200000
0
LINE
8
10000_FRONT
62
7
6
CONTINUOUS
10
280.5545800000
20
229.8386000000
11
280.5623100000
21
229.8111650000
0
LINE
8
10000_FRONT
62
7
6
CONTINUOUS
10
276.9646150000
20
233.8990240000
11
276.9667010000
21
233.8914680000
0
LINE
8
10000_FRONT
62
7
6
CONTINUOUS
10
289.1057580000
20
230.6990240000
11
289.1078440000
21
230.6914680000
0
LINE
8
10000_FRONT
62
7
6
CONTINUOUS
10
283.4648030000
20
229.7104300000
11
283.4717510000
21
229.6848800000
0
LINE
8
10000_FRONT
62
7
6
CONTINUOUS
10
287.0603570000
20
229.7104300000
11
287.0673050000
21
229.6848800000
0
LINE
8
10000_FRONT
62
7
6
CONTINUOUS
10
291.3577460000
20
229.7104300000
11
291.3646940000
21
229.6848800000
0
LINE
8
10000_FRONT
62
7
6
CONTINUOUS
10
280.7628790000
20
229.8606110000
11
280.7572550000
21
229.8813570000
0
LINE
8
10000_FRONT
62
7
6
CONTINUOUS
10
276.9492140000
20
233.9693700000
11
276.9501980000
21
233.9657030000
0
LINE
8
10000_FRONT
62
7
6
CONTINUOUS
10
289.0903570000
20
230.7693700000
11
289.0913410000
21
230.7657030000
0
LINE
8
10000_FRONT
62
7
6
CONTINUOUS
10
291.0441850000
20
229.8696290000
11
291.0405700000
21
229.8835510000
0
LINE
8
10000_FRONT
62
7
6
CONTINUOUS
10
284.3484540000
20
230.5474700000
11
284.3533650000
21
230.5284940000
0
LINE
8
10000_FRONT
62
7
6
CONTINUOUS
10
287.9440080000
20
230.5474700000
11
287.9489190000
21
230.5284940000
0
LINE
8
10000_FRONT
62
7
6
CONTINUOUS
10
292.2413970000
20
230.5474700000
11
292.2463080000
21
230.5284940000
0
LINE
8
10000_FRONT
62
7
6
CONTINUOUS
10
283.6604630000
20
229.7279200000
11
283.6555300000
21
229.7470780000
0
LINE
8
10000_FRONT
62
7
6
CONTINUOUS
10
287.2560170000
20
229.7279200000
11
287.2510840000
21
229.7470780000
0
LINE
8
10000_FRONT
62
7
6
CONTINUOUS
10
291.5534060000
20
229.7279200000
11
291.5484730000
21
229.7470780000
0
LINE
8
10000_FRONT
62
7
6
CONTINUOUS
10
276.9626990000
20
233.9064670000
11
276.9646150000
21
233.8990240000
0
LINE
8
10000_FRONT
62
7
6
CONTINUOUS
10
289.1038420000
20
230.7064670000
11
289.1057580000
21
230.6990240000
0
LINE
8
10000_FRONT
62
7
6
CONTINUOUS
10
284.5528860000
20
230.5278410000
11
284.5447700000
21
230.5597900000
0
LINE
8
10000_FRONT
62
7
6
CONTINUOUS
10
288.1484400000
20
230.5278410000
11
288.1403240000
21
230.5597900000
0
LINE
8
10000_FRONT
62
7
6
CONTINUOUS
10
292.4458290000
20
230.5278410000
11
292.4377130000
21
230.5597900000
0
LINE
8
10000_FRONT
62
7
6
CONTINUOUS
10
290.7895840000
20
230.6355360000
11
290.7923410000
21
230.6246360000
0
LINE
8
10000_FRONT
62
7
6
CONTINUOUS
10
290.9977920000
20
230.6790150000
11
290.9942280000
21
230.6931100000
0
LINE
8
10000_FRONT
62
7
6
CONTINUOUS
10
289.0913410000
20
230.7657030000
11
289.0922550000
21
230.7620870000
0
LINE
8
10000_FRONT
62
7
6
CONTINUOUS
10
276.9501980000
20
233.9657030000
11
276.9511110000
21
233.9620870000
0
LINE
8
10000_FRONT
62
7
6
CONTINUOUS
10
280.5477280000
20
229.8662500000
11
280.5545800000
21
229.8386000000
0
LINE
8
10000_FRONT
62
7
6
CONTINUOUS
10
290.8377340000
20
229.8593250000
11
290.8403380000
21
229.8487090000
0
LINE
8
10000_FRONT
62
7
6
CONTINUOUS
10
283.4585090000
20
229.7361470000
11
283.4648030000
21
229.7104300000
0
LINE
8
10000_FRONT
62
7
6
CONTINUOUS
10
287.0540630000
20
229.7361470000
11
287.0603570000
21
229.7104300000
0
LINE
8
10000_FRONT
62
7
6
CONTINUOUS
10
291.3514520000
20
229.7361470000
11
291.3577460000
21
229.7104300000
0
LINE
8
10000_FRONT
62
7
6
CONTINUOUS
10
280.7572550000
20
229.8813570000
11
280.7522130000
21
229.9022420000
0
LINE
8
10000_FRONT
62
7
6
CONTINUOUS
10
276.9609720000
20
233.9137840000
11
276.9626990000
21
233.9064670000
0
LINE
8
10000_FRONT
62
7
6
CONTINUOUS
10
289.1021150000
20
230.7137840000
11
289.1038420000
21
230.7064670000
0
LINE
8
10000_FRONT
62
7
6
CONTINUOUS
10
276.9511110000
20
233.9620870000
11
276.9524120000
21
233.9565530000
0
LINE
8
10000_FRONT
62
7
6
CONTINUOUS
10
289.0922550000
20
230.7620870000
11
289.0935560000
21
230.7565530000
0
LINE
8
10000_FRONT
62
7
6
CONTINUOUS
10
284.3533650000
20
230.5284940000
11
284.3598830000
21
230.5000450000
0
LINE
8
10000_FRONT
62
7
6
CONTINUOUS
10
287.9489190000
20
230.5284940000
11
287.9554360000
21
230.5000450000
0
LINE
8
10000_FRONT
62
7
6
CONTINUOUS
10
292.2463080000
20
230.5284940000
11
292.2528250000
21
230.5000450000
0
LINE
8
10000_FRONT
62
7
6
CONTINUOUS
10
283.6555300000
20
229.7470780000
11
283.6490260000
21
229.7756010000
0
LINE
8
10000_FRONT
62
7
6
CONTINUOUS
10
287.2510840000
20
229.7470780000
11
287.2445800000
21
229.7756010000
0
LINE
8
10000_FRONT
62
7
6
CONTINUOUS
10
291.5484730000
20
229.7470780000
11
291.5419690000
21
229.7756010000
0
LINE
8
10000_FRONT
62
7
6
CONTINUOUS
10
291.0473330000
20
229.8555460000
11
291.0441850000
21
229.8696290000
0
LINE
8
10000_FRONT
62
7
6
CONTINUOUS
10
284.5600090000
20
230.4957680000
11
284.5528860000
21
230.5278410000
0
LINE
8
10000_FRONT
62
7
6
CONTINUOUS
10
288.1555630000
20
230.4957680000
11
288.1484400000
21
230.5278410000
0
LINE
8
10000_FRONT
62
7
6
CONTINUOUS
10
292.4529520000
20
230.4957680000
11
292.4458290000
21
230.5278410000
0
LINE
8
10000_FRONT
62
7
6
CONTINUOUS
10
290.7923410000
20
230.6246360000
11
290.7947330000
21
230.6136700000
0
LINE
8
10000_FRONT
62
7
6
CONTINUOUS
10
291.0008920000
20
230.6647830000
11
290.9977920000
21
230.6790150000
0
LINE
8
10000_FRONT
62
7
6
CONTINUOUS
10
276.9524120000
20
233.9565530000
11
276.9535930000
21
233.9511100000
0
LINE
8
10000_FRONT
62
7
6
CONTINUOUS
10
289.0935560000
20
230.7565530000
11
289.0947360000
21
230.7511100000
0
LINE
8
10000_FRONT
62
7
6
CONTINUOUS
10
276.9598060000
20
233.9191810000
11
276.9609720000
21
233.9137840000
0
LINE
8
10000_FRONT
62
7
6
CONTINUOUS
10
289.1009490000
20
230.7191810000
11
289.1021150000
21
230.7137840000
0
LINE
8
10000_FRONT
62
7
6
CONTINUOUS
10
283.4506340000
20
229.7727300000
11
283.4585090000
21
229.7361470000
0
LINE
8
10000_FRONT
62
7
6
CONTINUOUS
10
287.0461880000
20
229.7727300000
11
287.0540630000
21
229.7361470000
0
LINE
8
10000_FRONT
62
7
6
CONTINUOUS
10
291.3435770000
20
229.7727300000
11
291.3514520000
21
229.7361470000
0
LINE
8
10000_FRONT
62
7
6
CONTINUOUS
10
280.5411760000
20
229.8969190000
11
280.5477280000
21
229.8662500000
0
LINE
8
10000_FRONT
62
7
6
CONTINUOUS
10
280.7522130000
20
229.9022420000
11
280.7466530000
21
229.9287900000
0
LINE
8
10000_FRONT
62
7
6
CONTINUOUS
10
290.8403380000
20
229.8487090000
11
290.8425650000
21
229.8380010000
0
LINE
8
10000_FRONT
62
7
6
CONTINUOUS
10
276.9535930000
20
233.9511100000
11
276.9546830000
21
233.9457370000
0
LINE
8
10000_FRONT
62
7
6
CONTINUOUS
10
289.0947360000
20
230.7511100000
11
289.0958260000
21
230.7457370000
0
LINE
8
10000_FRONT
62
7
6
CONTINUOUS
10
276.9587260000
20
233.9245220000
11
276.9598060000
21
233.9191810000
0
LINE
8
10000_FRONT
62
7
6
CONTINUOUS
10
289.0998690000
20
230.7245220000
11
289.1009490000
21
230.7191810000
0
LINE
8
10000_FRONT
62
7
6
CONTINUOUS
10
284.3598830000
20
230.5000450000
11
284.3655220000
21
230.4714190000
0
LINE
8
10000_FRONT
62
7
6
CONTINUOUS
10
287.9554360000
20
230.5000450000
11
287.9610760000
21
230.4714190000
0
LINE
8
10000_FRONT
62
7
6
CONTINUOUS
10
292.2528250000
20
230.5000450000
11
292.2584640000
21
230.4714190000
0
LINE
8
10000_FRONT
62
7
6
CONTINUOUS
10
283.6490260000
20
229.7756010000
11
283.6433940000
21
229.8042970000
0
LINE
8
10000_FRONT
62
7
6
CONTINUOUS
10
287.2445800000
20
229.7756010000
11
287.2389480000
21
229.8042970000
0
LINE
8
10000_FRONT
62
7
6
CONTINUOUS
10
291.5419690000
20
229.7756010000
11
291.5363370000
21
229.8042970000
0
LINE
8
10000_FRONT
62
7
6
CONTINUOUS
10
276.9546830000
20
233.9457370000
11
276.9557120000
21
233.9404120000
0
LINE
8
10000_FRONT
62
7
6
CONTINUOUS
10
289.0958260000
20
230.7457370000
11
289.0968550000
21
230.7404120000
0
LINE
8
10000_FRONT
62
7
6
CONTINUOUS
10
284.5661960000
20
230.4635820000
11
284.5600090000
21
230.4957680000
0
LINE
8
10000_FRONT
62
7
6
CONTINUOUS
10
288.1617500000
20
230.4635820000
11
288.1555630000
21
230.4957680000
0
LINE
8
10000_FRONT
62
7
6
CONTINUOUS
10
292.4591380000
20
230.4635820000
11
292.4529520000
21
230.4957680000
0
LINE
8
10000_FRONT
62
7
6
CONTINUOUS
10
291.0500330000
20
229.8413230000
11
291.0473330000
21
229.8555460000
0
LINE
8
10000_FRONT
62
7
6
CONTINUOUS
10
276.9557120000
20
233.9404120000
11
276.9587260000
21
233.9245220000
0
LINE
8
10000_FRONT
62
7
6
CONTINUOUS
10
289.0968550000
20
230.7404120000
11
289.0998690000
21
230.7245220000
0
LINE
8
10000_FRONT
62
7
6
CONTINUOUS
10
290.7947330000
20
230.6136700000
11
290.7967750000
21
230.6026440000
0
LINE
8
10000_FRONT
62
7
6
CONTINUOUS
10
291.0035470000
20
230.6504340000
11
291.0008920000
21
230.6647830000
0
LINE
8
10000_FRONT
62
7
6
CONTINUOUS
10
283.4438680000
20
229.8095400000
11
283.4506340000
21
229.7727300000
0
LINE
8
10000_FRONT
62
7
6
CONTINUOUS
10
287.0394220000
20
229.8095400000
11
287.0461880000
21
229.7727300000
0
LINE
8
10000_FRONT
62
7
6
CONTINUOUS
10
291.3368110000
20
229.8095400000
11
291.3435770000
21
229.7727300000
0
LINE
8
10000_FRONT
62
7
6
CONTINUOUS
10
280.5356330000
20
229.9277720000
11
280.5411760000
21
229.8969190000
0
LINE
8
10000_FRONT
62
7
6
CONTINUOUS
10
280.7466530000
20
229.9287900000
11
280.7419640000
21
229.9554920000
0
LINE
8
10000_FRONT
62
7
6
CONTINUOUS
10
290.8425650000
20
229.8380010000
11
290.8444370000
21
229.8272120000
0
LINE
8
10000_FRONT
62
7
6
CONTINUOUS
10
292.2584640000
20
230.4714190000
11
292.2633090000
21
230.4426460000
0
LINE
8
10000_FRONT
62
7
6
CONTINUOUS
10
284.3655220000
20
230.4714190000
11
284.3703660000
21
230.4426460000
0
LINE
8
10000_FRONT
62
7
6
CONTINUOUS
10
287.9610760000
20
230.4714190000
11
287.9659200000
21
230.4426460000
0
LINE
8
10000_FRONT
62
7
6
CONTINUOUS
10
283.6433940000
20
229.8042970000
11
283.6385520000
21
229.8331370000
0
LINE
8
10000_FRONT
62
7
6
CONTINUOUS
10
287.2389480000
20
229.8042970000
11
287.2341060000
21
229.8331370000
0
LINE
8
10000_FRONT
62
7
6
CONTINUOUS
10
291.5363370000
20
229.8042970000
11
291.5314950000
21
229.8331370000
0
LINE
8
10000_FRONT
62
7
6
CONTINUOUS
10
284.5715050000
20
230.4312950000
11
284.5661960000
21
230.4635820000
0
LINE
8
10000_FRONT
62
7
6
CONTINUOUS
10
288.1670590000
20
230.4312950000
11
288.1617500000
21
230.4635820000
0
LINE
8
10000_FRONT
62
7
6
CONTINUOUS
10
292.4644470000
20
230.4312950000
11
292.4591380000
21
230.4635820000
0
LINE
8
10000_FRONT
62
7
6
CONTINUOUS
10
291.0523070000
20
229.8269840000
11
291.0500330000
21
229.8413230000
0
LINE
8
10000_FRONT
62
7
6
CONTINUOUS
10
283.4381200000
20
229.8465350000
11
283.4438680000
21
229.8095400000
0
LINE
8
10000_FRONT
62
7
6
CONTINUOUS
10
287.0336740000
20
229.8465350000
11
287.0394220000
21
229.8095400000
0
LINE
8
10000_FRONT
62
7
6
CONTINUOUS
10
291.3310630000
20
229.8465350000
11
291.3368110000
21
229.8095400000
0
LINE
8
10000_FRONT
62
7
6
CONTINUOUS
10
291.0057790000
20
230.6359870000
11
291.0035470000
21
230.6504340000
0
LINE
8
10000_FRONT
62
7
6
CONTINUOUS
10
290.7967750000
20
230.6026440000
11
290.7984850000
21
230.5915650000
0
LINE
8
10000_FRONT
62
7
6
CONTINUOUS
10
280.5310540000
20
229.9587820000
11
280.5356330000
21
229.9277720000
0
LINE
8
10000_FRONT
62
7
6
CONTINUOUS
10
280.7419640000
20
229.9554920000
11
280.7381050000
21
229.9823270000
0
LINE
8
10000_FRONT
62
7
6
CONTINUOUS
10
284.3703660000
20
230.4426460000
11
284.3744980000
21
230.4137540000
0
LINE
8
10000_FRONT
62
7
6
CONTINUOUS
10
287.9659200000
20
230.4426460000
11
287.9700520000
21
230.4137540000
0
LINE
8
10000_FRONT
62
7
6
CONTINUOUS
10
292.2633090000
20
230.4426460000
11
292.2674410000
21
230.4137540000
0
LINE
8
10000_FRONT
62
7
6
CONTINUOUS
10
283.6385520000
20
229.8331370000
11
283.6344160000
21
229.8620930000
0
LINE
8
10000_FRONT
62
7
6
CONTINUOUS
10
287.2341060000
20
229.8331370000
11
287.2299700000
21
229.8620930000
0
LINE
8
10000_FRONT
62
7
6
CONTINUOUS
10
291.5314950000
20
229.8331370000
11
291.5273590000
21
229.8620930000
0
LINE
8
10000_FRONT
62
7
6
CONTINUOUS
10
290.8444370000
20
229.8272120000
11
290.8459760000
21
229.8163530000
0
LINE
8
10000_FRONT
62
7
6
CONTINUOUS
10
284.5759930000
20
230.3989190000
11
284.5715050000
21
230.4312950000
0
LINE
8
10000_FRONT
62
7
6
CONTINUOUS
10
288.1715470000
20
230.3989190000
11
288.1670590000
21
230.4312950000
0
LINE
8
10000_FRONT
62
7
6
CONTINUOUS
10
292.4689360000
20
230.3989190000
11
292.4644470000
21
230.4312950000
0
LINE
8
10000_FRONT
62
7
6
CONTINUOUS
10
283.4332990000
20
229.8836710000
11
283.4381200000
21
229.8465350000
0
LINE
8
10000_FRONT
62
7
6
CONTINUOUS
10
287.0288530000
20
229.8836710000
11
287.0336740000
21
229.8465350000
0
LINE
8
10000_FRONT
62
7
6
CONTINUOUS
10
291.3262420000
20
229.8836710000
11
291.3310630000
21
229.8465350000
0
LINE
8
10000_FRONT
62
7
6
CONTINUOUS
10
291.0541760000
20
229.8125500000
11
291.0523070000
21
229.8269840000
0
LINE
8
10000_FRONT
62
7
6
CONTINUOUS
10
291.0076080000
20
230.6214620000
11
291.0057790000
21
230.6359870000
0
LINE
8
10000_FRONT
62
7
6
CONTINUOUS
10
290.7984850000
20
230.5915650000
11
290.7998770000
21
230.5804400000
0
LINE
8
10000_FRONT
62
7
6
CONTINUOUS
10
283.6344160000
20
229.8620930000
11
283.6309050000
21
229.8911360000
0
LINE
8
10000_FRONT
62
7
6
CONTINUOUS
10
284.3744980000
20
230.4137540000
11
284.3780020000
21
230.3847740000
0
LINE
8
10000_FRONT
62
7
6
CONTINUOUS
10
287.2299700000
20
229.8620930000
11
287.2264590000
21
229.8911360000
0
LINE
8
10000_FRONT
62
7
6
CONTINUOUS
10
287.9700520000
20
230.4137540000
11
287.9735560000
21
230.3847740000
0
LINE
8
10000_FRONT
62
7
6
CONTINUOUS
10
291.5273590000
20
229.8620930000
11
291.5238480000
21
229.8911360000
0
LINE
8
10000_FRONT
62
7
6
CONTINUOUS
10
292.2674410000
20
230.4137540000
11
292.2709440000
21
230.3847740000
0
LINE
8
10000_FRONT
62
7
6
CONTINUOUS
10
280.5273950000
20
229.9899220000
11
280.5310540000
21
229.9587820000
0
LINE
8
10000_FRONT
62
7
6
CONTINUOUS
10
284.5797190000
20
230.3664650000
11
284.5759930000
21
230.3989190000
0
LINE
8
10000_FRONT
62
7
6
CONTINUOUS
10
288.1752730000
20
230.3664650000
11
288.1715470000
21
230.3989190000
0
LINE
8
10000_FRONT
62
7
6
CONTINUOUS
10
292.4726620000
20
230.3664650000
11
292.4689360000
21
230.3989190000
0
LINE
8
10000_FRONT
62
7
6
CONTINUOUS
10
280.7381050000
20
229.9823270000
11
280.7350330000
21
230.0092700000
0
LINE
8
10000_FRONT
62
7
6
CONTINUOUS
10
290.8459760000
20
229.8163530000
11
290.8472030000
21
229.8054320000
0
LINE
8
10000_FRONT
62
7
6
CONTINUOUS
10
301.9171120000
20
227.5387250000
11
301.9171120000
21
228.5387250000
0
LINE
8
10000_FRONT
62
7
6
CONTINUOUS
10
301.9171120000
20
355.5387250000
11
301.9171120000
21
356.5387250000
0
LINE
8
10000_FRONT
62
7
6
CONTINUOUS
10
302.9171120000
20
231.6140090000
11
302.9171120000
21
233.5387250000
0
LINE
8
10000_FRONT
62
7
6
CONTINUOUS
10
302.9171120000
20
350.5387250000
11
302.9171120000
21
352.4634400000
0
LINE
8
10000_FRONT
62
7
6
CONTINUOUS
10
304.4171120000
20
352.3387250000
11
304.4171120000
21
348.0387250000
0
LINE
8
10000_FRONT
62
7
6
CONTINUOUS
10
304.4171120000
20
236.0387250000
11
304.4171120000
21
231.7387250000
0
LINE
8
13000_TOP
62
7
6
CONTINUOUS
10
304.4171120000
20
127.9505570000
11
304.4171120000
21
132.5566760000
0
LINE
8
13000_TOP
62
7
6
CONTINUOUS
10
257.3930710000
20
118.9974060000
11
257.3534650000
21
118.9347840000
0
LINE
8
13000_TOP
62
7
6
CONTINUOUS
10
261.1411520000
20
119.1037070000
11
261.1807590000
21
119.1663290000
0
LINE
8
10000_FRONT
62
7
6
CONTINUOUS
10
281.5887620000
20
229.4630760000
11
281.5632220000
21
229.4558990000
0
LINE
8
10000_FRONT
62
7
6
CONTINUOUS
10
290.6201340000
20
230.2532730000
11
290.6103100000
21
230.2505360000
0
LINE
8
10000_FRONT
62
7
6
CONTINUOUS
10
292.0038510000
20
229.4402450000
11
291.9891570000
21
229.4361640000
0
LINE
8
10000_FRONT
62
7
6
CONTINUOUS
10
287.7064620000
20
229.4402450000
11
287.6917680000
21
229.4361640000
0
LINE
8
10000_FRONT
62
7
6
CONTINUOUS
10
284.1109080000
20
229.4402450000
11
284.0962150000
21
229.4361640000
0
LINE
8
10000_FRONT
62
7
6
CONTINUOUS
10
290.7392900000
20
229.3125130000
11
290.7575260000
21
229.3175620000
0
LINE
8
10000_FRONT
62
7
6
CONTINUOUS
10
281.7012070000
20
229.3174980000
11
281.7294740000
21
229.3252850000
0
LINE
8
10000_FRONT
62
7
6
CONTINUOUS
10
291.7462720000
20
230.9940280000
11
291.7241660000
21
230.9880160000
0
LINE
8
10000_FRONT
62
7
6
CONTINUOUS
10
287.4488830000
20
230.9940280000
11
287.4267780000
21
230.9880160000
0
LINE
8
10000_FRONT
62
7
6
CONTINUOUS
10
290.6607100000
20
229.4711460000
11
290.6508080000
21
229.4684560000
0
LINE
8
10000_FRONT
62
7
6
CONTINUOUS
10
287.7564360000
20
229.2811730000
11
287.7780260000
21
229.2870340000
0
LINE
8
10000_FRONT
62
7
6
CONTINUOUS
10
284.1608820000
20
229.2811730000
11
284.1824720000
21
229.2870340000
0
LINE
8
10000_FRONT
62
7
6
CONTINUOUS
10
292.0538240000
20
229.2811730000
11
292.0754150000
21
229.2870340000
0
LINE
8
10000_FRONT
62
7
6
CONTINUOUS
10
291.7989610000
20
230.8366310000
11
291.8137430000
21
230.8405540000
0
LINE
8
10000_FRONT
62
7
6
CONTINUOUS
10
287.5015730000
20
230.8366310000
11
287.5163550000
21
230.8405540000
0
LINE
8
10000_FRONT
62
7
6
CONTINUOUS
10
283.9060190000
20
230.8366310000
11
283.9208010000
21
230.8405540000
0
LINE
8
10000_FRONT
62
7
6
CONTINUOUS
10
290.7124930000
20
230.1634970000
11
290.7350760000
21
230.1693280000
0
LINE
8
10000_FRONT
62
7
6
CONTINUOUS
10
281.6727960000
20
229.3102470000
11
281.7012070000
21
229.3174980000
0
LINE
8
10000_FRONT
62
7
6
CONTINUOUS
10
290.6103100000
20
230.2505360000
11
290.6004290000
21
230.2480270000
0
LINE
8
10000_FRONT
62
7
6
CONTINUOUS
10
281.5632220000
20
229.4558990000
11
281.5374950000
21
229.4494150000
0
LINE
8
10000_FRONT
62
7
6
CONTINUOUS
10
290.7209080000
20
229.3079980000
11
290.7392900000
21
229.3125130000
0
LINE
8
10000_FRONT
62
7
6
CONTINUOUS
10
290.6508080000
20
229.4684560000
11
290.6408360000
21
229.4660330000
0
LINE
8
10000_FRONT
62
7
6
CONTINUOUS
10
281.6425220000
20
229.3031100000
11
281.6727960000
21
229.3102470000
0
LINE
8
10000_FRONT
62
7
6
CONTINUOUS
10
290.6897980000
20
230.1583080000
11
290.7124930000
21
230.1634970000
0
LINE
8
10000_FRONT
62
7
6
CONTINUOUS
10
291.7686020000
20
230.9991140000
11
291.7462720000
21
230.9940280000
0
LINE
8
10000_FRONT
62
7
6
CONTINUOUS
10
287.4712130000
20
230.9991140000
11
287.4488830000
21
230.9940280000
0
LINE
8
10000_FRONT
62
7
6
CONTINUOUS
10
283.8756590000
20
230.9991140000
11
283.8533290000
21
230.9940280000
0
LINE
8
10000_FRONT
62
7
6
CONTINUOUS
10
291.9891570000
20
229.4361640000
11
291.9742630000
21
229.4327820000
0
LINE
8
10000_FRONT
62
7
6
CONTINUOUS
10
287.6917680000
20
229.4361640000
11
287.6768740000
21
229.4327820000
0
LINE
8
10000_FRONT
62
7
6
CONTINUOUS
10
284.0962150000
20
229.4361640000
11
284.0813200000
21
229.4327820000
0
LINE
8
10000_FRONT
62
7
6
CONTINUOUS
10
290.6004290000
20
230.2480270000
11
290.5848340000
21
230.2444890000
0
LINE
8
10000_FRONT
62
7
6
CONTINUOUS
10
292.0320030000
20
229.2762280000
11
292.0538240000
21
229.2811730000
0
LINE
8
10000_FRONT
62
7
6
CONTINUOUS
10
287.7346140000
20
229.2762280000
11
287.7564360000
21
229.2811730000
0
LINE
8
10000_FRONT
62
7
6
CONTINUOUS
10
284.1390600000
20
229.2762280000
11
284.1608820000
21
229.2811730000
0
LINE
8
10000_FRONT
62
7
6
CONTINUOUS
10
281.5374950000
20
229.4494150000
11
281.5125930000
21
229.4438580000
0
LINE
8
10000_FRONT
62
7
6
CONTINUOUS
10
290.7024050000
20
229.3039820000
11
290.7209080000
21
229.3079980000
0
LINE
8
10000_FRONT
62
7
6
CONTINUOUS
10
290.6408360000
20
229.4660330000
11
290.6308120000
21
229.4638600000
0
LINE
8
10000_FRONT
62
7
6
CONTINUOUS
10
281.6121240000
20
229.2965190000
11
281.6425220000
21
229.3031100000
0
LINE
8
10000_FRONT
62
7
6
CONTINUOUS
10
291.8137430000
20
230.8405540000
11
291.8291540000
21
230.8437990000
0
LINE
8
10000_FRONT
62
7
6
CONTINUOUS
10
287.5163550000
20
230.8405540000
11
287.5317650000
21
230.8437990000
0
LINE
8
10000_FRONT
62
7
6
CONTINUOUS
10
283.9208010000
20
230.8405540000
11
283.9362110000
21
230.8437990000
0
LINE
8
10000_FRONT
62
7
6
CONTINUOUS
10
290.6670800000
20
230.1536490000
11
290.6897980000
21
230.1583080000
0
LINE
8
10000_FRONT
62
7
6
CONTINUOUS
10
281.5816180000
20
229.2904520000
11
281.6121240000
21
229.2965190000
0
LINE
8
10000_FRONT
62
7
6
CONTINUOUS
10
294.5075720000
20
227.0387230000
11
294.3171120000
21
227.0010230000
0
LINE
8
10000_FRONT
62
7
6
CONTINUOUS
10
290.5848340000
20
230.2444890000
11
290.5691650000
21
230.2414010000
0
LINE
8
10000_FRONT
62
7
6
CONTINUOUS
10
281.5125930000
20
229.4438580000
11
281.4875520000
21
229.4389910000
0
LINE
8
10000_FRONT
62
7
6
CONTINUOUS
10
290.6308120000
20
229.4638600000
11
290.6207580000
21
229.4619250000
0
LINE
8
10000_FRONT
62
7
6
CONTINUOUS
10
290.6823030000
20
229.3001770000
11
290.7024050000
21
229.3039820000
0
LINE
8
10000_FRONT
62
7
6
CONTINUOUS
10
291.7911400000
20
231.0032950000
11
291.7686020000
21
230.9991140000
0
LINE
8
10000_FRONT
62
7
6
CONTINUOUS
10
287.4937520000
20
231.0032950000
11
287.4712130000
21
230.9991140000
0
LINE
8
10000_FRONT
62
7
6
CONTINUOUS
10
283.8981980000
20
231.0032950000
11
283.8756590000
21
230.9991140000
0
LINE
8
10000_FRONT
62
7
6
CONTINUOUS
10
292.0099820000
20
229.2721560000
11
292.0320030000
21
229.2762280000
0
LINE
8
10000_FRONT
62
7
6
CONTINUOUS
10
287.7125930000
20
229.2721560000
11
287.7346140000
21
229.2762280000
0
LINE
8
10000_FRONT
62
7
6
CONTINUOUS
10
284.1170390000
20
229.2721560000
11
284.1390600000
21
229.2762280000
0
LINE
8
10000_FRONT
62
7
6
CONTINUOUS
10
281.5510060000
20
229.2848960000
11
281.5816180000
21
229.2904520000
0
LINE
8
10000_FRONT
62
7
6
CONTINUOUS
10
291.9742630000
20
229.4327820000
11
291.9592010000
21
229.4300720000
0
LINE
8
10000_FRONT
62
7
6
CONTINUOUS
10
287.6768740000
20
229.4327820000
11
287.6618120000
21
229.4300720000
0
LINE
8
10000_FRONT
62
7
6
CONTINUOUS
10
284.0813200000
20
229.4327820000
11
284.0662580000
21
229.4300720000
0
LINE
8
10000_FRONT
62
7
6
CONTINUOUS
10
281.1965260000
20
230.8383260000
11
281.2101060000
21
230.8407340000
0
LINE
8
10000_FRONT
62
7
6
CONTINUOUS
10
290.6207580000
20
229.4619250000
11
290.6106930000
21
229.4602120000
0
LINE
8
10000_FRONT
62
7
6
CONTINUOUS
10
290.5691650000
20
230.2414010000
11
290.5534320000
21
230.2387210000
0
LINE
8
10000_FRONT
62
7
6
CONTINUOUS
10
281.4875520000
20
229.4389910000
11
281.4623880000
21
229.4348370000
0
LINE
8
10000_FRONT
62
7
6
CONTINUOUS
10
281.1904490000
20
231.0019930000
11
281.1635950000
21
230.9976010000
0
LINE
8
10000_FRONT
62
7
6
CONTINUOUS
10
281.5203010000
20
229.2798840000
11
281.5510060000
21
229.2848960000
0
LINE
8
10000_FRONT
62
7
6
CONTINUOUS
10
290.6621070000
20
229.2969380000
11
290.6823030000
21
229.3001770000
0
LINE
8
10000_FRONT
62
7
6
CONTINUOUS
10
291.8291540000
20
230.8437990000
11
291.8447150000
21
230.8462680000
0
LINE
8
10000_FRONT
62
7
6
CONTINUOUS
10
287.5317650000
20
230.8437990000
11
287.5473260000
21
230.8462680000
0
LINE
8
10000_FRONT
62
7
6
CONTINUOUS
10
283.9362110000
20
230.8437990000
11
283.9517720000
21
230.8462680000
0
LINE
8
10000_FRONT
62
7
6
CONTINUOUS
10
281.2101060000
20
230.8407340000
11
281.2237430000
21
230.8428270000
0
LINE
8
10000_FRONT
62
7
6
CONTINUOUS
10
290.5534320000
20
230.2387210000
11
290.5376440000
21
230.2364070000
0
LINE
8
10000_FRONT
62
7
6
CONTINUOUS
10
291.9877930000
20
229.2689170000
11
292.0099820000
21
229.2721560000
0
LINE
8
10000_FRONT
62
7
6
CONTINUOUS
10
287.6904040000
20
229.2689170000
11
287.7125930000
21
229.2721560000
0
LINE
8
10000_FRONT
62
7
6
CONTINUOUS
10
284.0948500000
20
229.2689170000
11
284.1170390000
21
229.2721560000
0
LINE
8
10000_FRONT
62
7
6
CONTINUOUS
10
291.8138710000
20
231.0065950000
11
291.7911400000
21
231.0032950000
0
LINE
8
10000_FRONT
62
7
6
CONTINUOUS
10
287.5164820000
20
231.0065950000
11
287.4937520000
21
231.0032950000
0
LINE
8
10000_FRONT
62
7
6
CONTINUOUS
10
283.9209280000
20
231.0065950000
11
283.8981980000
21
231.0032950000
0
LINE
8
10000_FRONT
62
7
6
CONTINUOUS
10
281.4895060000
20
229.2754560000
11
281.5203010000
21
229.2798840000
0
LINE
8
10000_FRONT
62
7
6
CONTINUOUS
10
290.6106930000
20
229.4602120000
11
290.5934600000
21
229.4577480000
0
LINE
8
10000_FRONT
62
7
6
CONTINUOUS
10
291.9592010000
20
229.4300720000
11
291.9440080000
21
229.4280080000
0
LINE
8
10000_FRONT
62
7
6
CONTINUOUS
10
287.6618120000
20
229.4300720000
11
287.6466190000
21
229.4280080000
0
LINE
8
10000_FRONT
62
7
6
CONTINUOUS
10
284.0662580000
20
229.4300720000
11
284.0510650000
21
229.4280080000
0
LINE
8
10000_FRONT
62
7
6
CONTINUOUS
10
281.4623880000
20
229.4348370000
11
281.4371180000
21
229.4314190000
0
LINE
8
10000_FRONT
62
7
6
CONTINUOUS
10
290.6418310000
20
229.2942890000
11
290.6621070000
21
229.2969380000
0
LINE
8
10000_FRONT
62
7
6
CONTINUOUS
10
281.2237430000
20
230.8428270000
11
281.2374260000
21
230.8446150000
0
LINE
8
10000_FRONT
62
7
6
CONTINUOUS
10
281.2174330000
20
231.0055180000
11
281.1904490000
21
231.0019930000
0
LINE
8
10000_FRONT
62
7
6
CONTINUOUS
10
290.5376440000
20
230.2364070000
11
290.5218120000
21
230.2344150000
0
LINE
8
10000_FRONT
62
7
6
CONTINUOUS
10
281.4603750000
20
229.2718520000
11
281.4895060000
21
229.2754560000
0
LINE
8
10000_FRONT
62
7
6
CONTINUOUS
10
290.5934600000
20
229.4577480000
11
290.5762390000
21
229.4557810000
0
LINE
8
10000_FRONT
62
7
6
CONTINUOUS
10
291.8447150000
20
230.8462680000
11
291.8603960000
21
230.8480080000
0
LINE
8
10000_FRONT
62
7
6
CONTINUOUS
10
287.5473260000
20
230.8462680000
11
287.5630070000
21
230.8480080000
0
LINE
8
10000_FRONT
62
7
6
CONTINUOUS
10
283.9517720000
20
230.8462680000
11
283.9674530000
21
230.8480080000
0
LINE
8
10000_FRONT
62
7
6
CONTINUOUS
10
291.9654670000
20
229.2664700000
11
291.9877930000
21
229.2689170000
0
LINE
8
10000_FRONT
62
7
6
CONTINUOUS
10
287.6680790000
20
229.2664700000
11
287.6904040000
21
229.2689170000
0
LINE
8
10000_FRONT
62
7
6
CONTINUOUS
10
284.0725250000
20
229.2664700000
11
284.0948500000
21
229.2689170000
0
LINE
8
10000_FRONT
62
7
6
CONTINUOUS
10
281.2374260000
20
230.8446150000
11
281.2511500000
21
230.8461080000
0
LINE
8
10000_FRONT
62
7
6
CONTINUOUS
10
290.5218120000
20
230.2344150000
11
290.5059450000
21
230.2327040000
0
LINE
8
10000_FRONT
62
7
6
CONTINUOUS
10
291.8367780000
20
231.0090380000
11
291.8138710000
21
231.0065950000
0
LINE
8
10000_FRONT
62
7
6
CONTINUOUS
10
287.5393890000
20
231.0090380000
11
287.5164820000
21
231.0065950000
0
LINE
8
10000_FRONT
62
7
6
CONTINUOUS
10
283.9438350000
20
231.0090380000
11
283.9209280000
21
231.0065950000
0
LINE
8
10000_FRONT
62
7
6
CONTINUOUS
10
281.4371180000
20
229.4314190000
11
281.4124440000
21
229.4288200000
0
LINE
8
10000_FRONT
62
7
6
CONTINUOUS
10
281.4311780000
20
229.2688400000
11
281.4603750000
21
229.2718520000
0
LINE
8
10000_FRONT
62
7
6
CONTINUOUS
10
290.6214910000
20
229.2922520000
11
290.6418310000
21
229.2942890000
0
LINE
8
10000_FRONT
62
7
6
CONTINUOUS
10
281.2445180000
20
231.0082020000
11
281.2174330000
21
231.0055180000
0
LINE
8
10000_FRONT
62
7
6
CONTINUOUS
10
291.9440080000
20
229.4280080000
11
291.9287190000
21
229.4265630000
0
LINE
8
10000_FRONT
62
7
6
CONTINUOUS
10
287.6466190000
20
229.4280080000
11
287.6313300000
21
229.4265630000
0
LINE
8
10000_FRONT
62
7
6
CONTINUOUS
10
284.0510650000
20
229.4280080000
11
284.0357760000
21
229.4265630000
0
LINE
8
10000_FRONT
62
7
6
CONTINUOUS
10
290.5059450000
20
230.2327040000
11
290.4900550000
21
230.2312310000
0
LINE
8
10000_FRONT
62
7
6
CONTINUOUS
10
290.5762390000
20
229.4557810000
11
290.5590160000
21
229.4541970000
0
LINE
8
10000_FRONT
62
7
6
CONTINUOUS
10
281.2511500000
20
230.8461080000
11
281.2649050000
21
230.8473160000
0
LINE
8
10000_FRONT
62
7
6
CONTINUOUS
10
304.4171120000
20
231.7387250000
11
298.4034190000
21
231.2387250000
0
LINE
8
10000_FRONT
62
7
6
CONTINUOUS
10
281.4019270000
20
229.2664580000
11
281.4311780000
21
229.2688400000
0
LINE
8
10000_FRONT
62
7
6
CONTINUOUS
10
290.4900550000
20
230.2312310000
11
290.4660140000
21
230.2293800000
0
LINE
8
10000_FRONT
62
7
6
CONTINUOUS
10
290.5590160000
20
229.4541970000
11
290.5417760000
21
229.4528810000
0
LINE
8
10000_FRONT
62
7
6
CONTINUOUS
10
291.9430380000
20
229.2647720000
11
291.9654670000
21
229.2664700000
0
LINE
8
10000_FRONT
62
7
6
CONTINUOUS
10
287.6456490000
20
229.2647720000
11
287.6680790000
21
229.2664700000
0
LINE
8
10000_FRONT
62
7
6
CONTINUOUS
10
284.0500950000
20
229.2647720000
11
284.0725250000
21
229.2664700000
0
LINE
8
10000_FRONT
62
7
6
CONTINUOUS
10
281.4124440000
20
229.4288200000
11
281.3877010000
21
229.4269490000
0
LINE
8
10000_FRONT
62
7
6
CONTINUOUS
10
291.8598440000
20
231.0106450000
11
291.8367780000
21
231.0090380000
0
LINE
8
10000_FRONT
62
7
6
CONTINUOUS
10
287.5624550000
20
231.0106450000
11
287.5393890000
21
231.0090380000
0
LINE
8
10000_FRONT
62
7
6
CONTINUOUS
10
283.9669010000
20
231.0106450000
11
283.9438350000
21
231.0090380000
0
LINE
8
10000_FRONT
62
7
6
CONTINUOUS
10
281.2716730000
20
231.0100680000
11
281.2445180000
21
231.0082020000
0
LINE
8
10000_FRONT
62
7
6
CONTINUOUS
10
290.5978480000
20
229.2906330000
11
290.6214910000
21
229.2922520000
0
LINE
8
10000_FRONT
62
7
6
CONTINUOUS
10
281.2649050000
20
230.8473160000
11
281.2786830000
21
230.8482480000
0
LINE
8
10000_FRONT
62
7
6
CONTINUOUS
10
291.8603960000
20
230.8480080000
11
291.8761650000
21
230.8490650000
0
LINE
8
10000_FRONT
62
7
6
CONTINUOUS
10
287.5630070000
20
230.8480080000
11
287.5787760000
21
230.8490650000
0
LINE
8
10000_FRONT
62
7
6
CONTINUOUS
10
283.9674530000
20
230.8480080000
11
283.9832230000
21
230.8490650000
0
LINE
8
10000_FRONT
62
7
6
CONTINUOUS
10
290.5417760000
20
229.4528810000
11
290.5123640000
21
229.4510190000
0
LINE
8
10000_FRONT
62
7
6
CONTINUOUS
10
281.3811930000
20
229.2651710000
11
281.4019270000
21
229.2664580000
0
LINE
8
10000_FRONT
62
7
6
CONTINUOUS
10
290.4660140000
20
230.2293800000
11
290.4419480000
21
230.2279410000
0
LINE
8
10000_FRONT
62
7
6
CONTINUOUS
10
291.9287190000
20
229.4265630000
11
291.9133680000
21
229.4257090000
0
LINE
8
10000_FRONT
62
7
6
CONTINUOUS
10
287.6313300000
20
229.4265630000
11
287.6159790000
21
229.4257090000
0
LINE
8
10000_FRONT
62
7
6
CONTINUOUS
10
284.0357760000
20
229.4265630000
11
284.0204250000
21
229.4257090000
0
LINE
8
10000_FRONT
62
7
6
CONTINUOUS
10
290.5123640000
20
229.4510190000
11
290.4828930000
21
229.4495640000
0
LINE
8
10000_FRONT
62
7
6
CONTINUOUS
10
281.2786830000
20
230.8482480000
11
281.2924770000
21
230.8489140000
0
LINE
8
10000_FRONT
62
7
6
CONTINUOUS
10
281.3877010000
20
229.4269490000
11
281.3629060000
21
229.4258130000
0
LINE
8
10000_FRONT
62
7
6
CONTINUOUS
10
281.3604390000
20
229.2642320000
11
281.3811930000
21
229.2651710000
0
LINE
8
10000_FRONT
62
7
6
CONTINUOUS
10
290.5741680000
20
229.2895860000
11
290.5978480000
21
229.2906330000
0
LINE
8
10000_FRONT
62
7
6
CONTINUOUS
10
291.9205350000
20
229.2637820000
11
291.9430380000
21
229.2647720000
0
LINE
8
10000_FRONT
62
7
6
CONTINUOUS
10
287.6231460000
20
229.2637820000
11
287.6456490000
21
229.2647720000
0
LINE
8
10000_FRONT
62
7
6
CONTINUOUS
10
284.0275920000
20
229.2637820000
11
284.0500950000
21
229.2647720000
0
LINE
8
10000_FRONT
62
7
6
CONTINUOUS
10
290.4419480000
20
230.2279410000
11
290.4178620000
21
230.2268800000
0
LINE
8
10000_FRONT
62
7
6
CONTINUOUS
10
281.2988700000
20
231.0111420000
11
281.2716730000
21
231.0100680000
0
LINE
8
10000_FRONT
62
7
6
CONTINUOUS
10
290.4828930000
20
229.4495640000
11
290.4533970000
21
229.4484820000
0
LINE
8
10000_FRONT
62
7
6
CONTINUOUS
10
291.8830530000
20
231.0114410000
11
291.8598440000
21
231.0106450000
0
LINE
8
10000_FRONT
62
7
6
CONTINUOUS
10
287.5856640000
20
231.0114410000
11
287.5624550000
21
231.0106450000
0
LINE
8
10000_FRONT
62
7
6
CONTINUOUS
10
283.9901100000
20
231.0114410000
11
283.9669010000
21
231.0106450000
0
LINE
8
10000_FRONT
62
7
6
CONTINUOUS
10
290.4178620000
20
230.2268800000
11
290.3937640000
21
230.2261640000
0
LINE
8
10000_FRONT
62
7
6
CONTINUOUS
10
281.2924770000
20
230.8489140000
11
281.3062780000
21
230.8493230000
0
LINE
8
10000_FRONT
62
7
6
CONTINUOUS
10
281.3396680000
20
229.2636560000
11
281.3604390000
21
229.2642320000
0
LINE
8
10000_FRONT
62
7
6
CONTINUOUS
10
290.5367810000
20
229.2885550000
11
290.5741680000
21
229.2895860000
0
LINE
8
10000_FRONT
62
7
6
CONTINUOUS
10
291.8761650000
20
230.8490650000
11
291.8919920000
21
230.8494850000
0
LINE
8
10000_FRONT
62
7
6
CONTINUOUS
10
287.5787760000
20
230.8490650000
11
287.5946030000
21
230.8494850000
0
LINE
8
10000_FRONT
62
7
6
CONTINUOUS
10
283.9832230000
20
230.8490650000
11
283.9990490000
21
230.8494850000
0
LINE
8
10000_FRONT
62
7
6
CONTINUOUS
10
290.4533970000
20
229.4484820000
11
290.4174480000
21
229.4476090000
0
LINE
8
10000_FRONT
62
7
6
CONTINUOUS
10
291.9133680000
20
229.4257090000
11
291.8979900000
21
229.4254200000
0
LINE
8
10000_FRONT
62
7
6
CONTINUOUS
10
287.6159790000
20
229.4257090000
11
287.6006010000
21
229.4254200000
0
LINE
8
10000_FRONT
62
7
6
CONTINUOUS
10
284.0204250000
20
229.4257090000
11
284.0050470000
21
229.4254200000
0
LINE
8
10000_FRONT
62
7
6
CONTINUOUS
10
290.3937640000
20
230.2261640000
11
290.3696590000
21
230.2257600000
0
LINE
8
10000_FRONT
62
7
6
CONTINUOUS
10
281.3629060000
20
229.4258130000
11
281.3380750000
21
229.4254200000
0
LINE
8
10000_FRONT
62
7
6
CONTINUOUS
10
290.4993860000
20
229.2879860000
11
290.5367810000
21
229.2885550000
0
LINE
8
10000_FRONT
62
7
6
CONTINUOUS
10
291.8979900000
20
229.2634580000
11
291.9205350000
21
229.2637820000
0
LINE
8
10000_FRONT
62
7
6
CONTINUOUS
10
287.6006010000
20
229.2634580000
11
287.6231460000
21
229.2637820000
0
LINE
8
10000_FRONT
62
7
6
CONTINUOUS
10
284.0050470000
20
229.2634580000
11
284.0275920000
21
229.2637820000
0
LINE
8
10000_FRONT
62
7
6
CONTINUOUS
10
252.4313440000
20
230.3244930000
11
252.7271550000
21
230.3286810000
0
LINE
8
11000_LEFT
62
7
6
CONTINUOUS
10
466.4348140000
20
227.0959640000
11
496.8425950000
21
227.5205640000
0
LINE
8
11000_LEFT
62
7
6
CONTINUOUS
10
493.8356430000
20
235.1285770000
11
466.6356130000
21
234.7487680000
0
LINE
8
10000_FRONT
62
7
6
CONTINUOUS
10
252.8069640000
20
227.4785770000
11
253.1111520000
21
227.4827650000
0
LINE
8
10000_FRONT
62
7
6
CONTINUOUS
10
290.4174480000
20
229.4476090000
11
290.3815030000
21
229.4471490000
0
LINE
8
10000_FRONT
62
7
6
CONTINUOUS
10
281.3062780000
20
230.8493230000
11
281.3200790000
21
230.8494850000
0
LINE
8
10000_FRONT
62
7
6
CONTINUOUS
10
281.3260780000
20
231.0114470000
11
281.2988700000
21
231.0111420000
0
LINE
8
10000_FRONT
62
7
6
CONTINUOUS
10
281.3188790000
20
229.2634580000
11
281.3396680000
21
229.2636560000
0
LINE
8
10000_FRONT
62
7
6
CONTINUOUS
10
290.3971430000
20
229.2874530000
11
290.4993860000
21
229.2879860000
0
LINE
8
10000_FRONT
62
7
6
CONTINUOUS
10
290.3696590000
20
230.2257600000
11
290.3455560000
21
230.2256320000
0
LINE
8
10000_FRONT
62
7
6
CONTINUOUS
10
290.3815030000
20
229.4471490000
11
290.3455560000
21
229.4470150000
0
LINE
8
10000_FRONT
62
7
6
CONTINUOUS
10
291.9063880000
20
231.0114470000
11
291.8830530000
21
231.0114410000
0
LINE
8
10000_FRONT
62
7
6
CONTINUOUS
10
287.6089990000
20
231.0114470000
11
287.5856640000
21
231.0114410000
0
LINE
8
10000_FRONT
62
7
6
CONTINUOUS
10
284.0134450000
20
231.0114470000
11
283.9901100000
21
231.0114410000
0
LINE
8
10000_FRONT
62
7
6
CONTINUOUS
10
294.3171120000
20
227.0010230000
11
272.1495490000
21
227.0010230000
0
LINE
8
12000_RIGHT
62
7
6
CONTINUOUS
10
86.6510140000
20
227.0387250000
11
86.9510140000
21
227.0387250000
0
LINE
8
10000_FRONT
62
7
6
CONTINUOUS
10
250.3171120000
20
227.0387250000
11
262.5846740000
21
227.0387250000
0
LINE
8
11000_LEFT
62
7
6
CONTINUOUS
10
459.3356130000
20
227.0387250000
11
466.4356130000
21
227.0387250000
0
LINE
8
10000_FRONT
62
7
6
CONTINUOUS
10
302.7025290000
20
227.3387250000
11
302.1171120000
21
227.3387250000
0
LINE
8
12000_RIGHT
62
7
6
CONTINUOUS
10
79.8510140000
20
227.3387250000
11
84.7510140000
21
227.3387250000
0
LINE
8
10000_FRONT
62
7
6
CONTINUOUS
10
253.1111520000
20
227.4827650000
11
254.0111520000
21
227.4827650000
0
LINE
8
12000_RIGHT
62
7
6
CONTINUOUS
10
79.6510140000
20
228.2387250000
11
79.8510140000
21
228.2387250000
0
LINE
8
12000_RIGHT
62
7
6
CONTINUOUS
10
84.7510140000
20
228.2387250000
11
86.3510140000
21
228.2387250000
0
LINE
8
11000_LEFT
62
7
6
CONTINUOUS
10
466.4356130000
20
228.3887250000
11
461.1356130000
21
228.3887250000
0
LINE
8
10000_FRONT
62
7
6
CONTINUOUS
10
249.8171120000
20
228.3887250000
11
252.4313440000
21
228.3887250000
0
LINE
8
10000_FRONT
62
7
6
CONTINUOUS
10
301.9171120000
20
228.5387250000
11
294.8171120000
21
228.5387250000
0
LINE
8
12000_RIGHT
62
7
6
CONTINUOUS
10
86.9510140000
20
228.5387250000
11
84.7510140000
21
228.5387250000
0
LINE
8
11000_LEFT
62
7
6
CONTINUOUS
10
459.3356130000
20
229.1623360000
11
460.8356130000
21
229.1623360000
0
LINE
8
10000_FRONT
62
7
6
CONTINUOUS
10
290.3971430000
20
229.2874530000
11
290.0600230000
21
229.2874530000
0
LINE
8
10000_FRONT
62
7
6
CONTINUOUS
10
289.8056830000
20
229.2874530000
11
289.5933330000
21
229.2874530000
0
LINE
8
10000_FRONT
62
7
6
CONTINUOUS
10
288.5423800000
20
229.2874530000
11
288.3432270000
21
229.2874530000
0
LINE
8
10000_FRONT
62
7
6
CONTINUOUS
10
282.4586110000
20
229.2874530000
11
282.2618580000
21
229.2874530000
0
LINE
8
10000_FRONT
62
7
6
CONTINUOUS
10
280.0099870000
20
229.2874530000
11
279.8228310000
21
229.2874530000
0
LINE
8
10000_FRONT
62
7
6
CONTINUOUS
10
277.8301000000
20
229.2874530000
11
277.6429440000
21
229.2874530000
0
LINE
8
10000_FRONT
62
7
6
CONTINUOUS
10
276.4144330000
20
229.2874530000
11
276.2272770000
21
229.2874530000
0
LINE
8
10000_FRONT
62
7
6
CONTINUOUS
10
274.8404040000
20
229.2874530000
11
274.6508480000
21
229.2874530000
0
LINE
8
10000_FRONT
62
7
6
CONTINUOUS
10
285.5704376378
20
229.2881872848
11
285.3808816378
21
229.2881872848
0
LINE
8
10000_FRONT
62
7
6
CONTINUOUS
10
290.2567760000
20
229.4470150000
11
290.3455560000
21
229.4470150000
0
LINE
8
10000_FRONT
62
7
6
CONTINUOUS
10
253.1111520000
20
229.6446840000
11
254.0516470000
21
229.6446840000
0
LINE
8
10000_FRONT
62
7
6
CONTINUOUS
10
280.2727260000
20
229.7769380000
11
280.0099870000
21
229.7769380000
0
LINE
8
10000_FRONT
62
7
6
CONTINUOUS
10
279.8228310000
20
229.7769380000
11
279.0562120000
21
229.7769380000
0
LINE
8
10000_FRONT
62
7
6
CONTINUOUS
10
278.0928390000
20
229.7769380000
11
277.8301000000
21
229.7769380000
0
LINE
8
10000_FRONT
62
7
6
CONTINUOUS
10
277.6429440000
20
229.7769380000
11
276.8763250000
21
229.7769380000
0
LINE
8
10000_FRONT
62
7
6
CONTINUOUS
10
276.6771720000
20
229.7769380000
11
276.4144330000
21
229.7769380000
0
LINE
8
10000_FRONT
62
7
6
CONTINUOUS
10
276.2272770000
20
229.7769380000
11
275.4606580000
21
229.7769380000
0
LINE
8
10000_FRONT
62
7
6
CONTINUOUS
10
289.3845820000
20
229.8825130000
11
288.7511310000
21
229.8825130000
0
LINE
8
10000_FRONT
62
7
6
CONTINUOUS
10
286.7943910000
20
229.8993090000
11
286.2269250000
21
229.8993090000
0
LINE
8
10000_FRONT
62
7
6
CONTINUOUS
10
278.8738550000
20
229.8993090000
11
278.3063880000
21
229.8993090000
0
LINE
8
10000_FRONT
62
7
6
CONTINUOUS
10
275.6406160000
20
229.9389000000
11
276.2272770000
21
229.9389000000
0
LINE
8
10000_FRONT
62
7
6
CONTINUOUS
10
276.4144330000
20
229.9389000000
11
276.6771720000
21
229.9389000000
0
LINE
8
10000_FRONT
62
7
6
CONTINUOUS
10
277.0562820000
20
229.9389000000
11
277.6429440000
21
229.9389000000
0
LINE
8
10000_FRONT
62
7
6
CONTINUOUS
10
277.8301000000
20
229.9389000000
11
278.0928390000
21
229.9389000000
0
LINE
8
10000_FRONT
62
7
6
CONTINUOUS
10
279.2361700000
20
229.9389000000
11
279.8228310000
21
229.9389000000
0
LINE
8
10000_FRONT
62
7
6
CONTINUOUS
10
280.0099870000
20
229.9389000000
11
280.2727260000
21
229.9389000000
0
LINE
8
10000_FRONT
62
7
6
CONTINUOUS
10
281.6392040000
20
230.0024850000
11
281.3044830000
21
230.0024850000
0
LINE
8
12000_RIGHT
62
7
6
CONTINUOUS
10
79.8510140000
20
230.0387250000
11
84.7510140000
21
230.0387250000
0
LINE
8
10000_FRONT
62
7
6
CONTINUOUS
10
294.8171120000
20
230.0387250000
11
303.6171120000
21
230.0387250000
0
LINE
8
10000_FRONT
62
7
6
CONTINUOUS
10
288.8099170000
20
230.0444750000
11
289.3257950000
21
230.0444750000
0
LINE
8
10000_FRONT
62
7
6
CONTINUOUS
10
278.3063880000
20
230.0492740000
11
278.8738550000
21
230.0492740000
0
LINE
8
10000_FRONT
62
7
6
CONTINUOUS
10
286.2269250000
20
230.0492740000
11
286.7943910000
21
230.0492740000
0
LINE
8
10000_FRONT
62
7
6
CONTINUOUS
10
283.1292540000
20
230.0684690000
11
282.4586110000
21
230.0684690000
0
LINE
8
10000_FRONT
62
7
6
CONTINUOUS
10
290.3455560000
20
230.0732680000
11
290.2567760000
21
230.0732680000
0
LINE
8
10000_FRONT
62
7
6
CONTINUOUS
10
281.3044830000
20
230.1644460000
11
281.8359580000
21
230.1644460000
0
LINE
8
10000_FRONT
62
7
6
CONTINUOUS
10
290.2567760000
20
230.2256320000
11
290.3455560000
21
230.2256320000
0
LINE
8
10000_FRONT
62
7
6
CONTINUOUS
10
282.4586110000
20
230.2304310000
11
283.1292540000
21
230.2304310000
0
LINE
8
10000_FRONT
62
7
6
CONTINUOUS
10
252.7271550000
20
230.3286810000
11
253.6271550000
21
230.3286810000
0
LINE
8
10000_FRONT
62
7
6
CONTINUOUS
10
283.1640450000
20
230.8254910000
11
282.4586110000
21
230.8254910000
0
LINE
8
10000_FRONT
62
7
6
CONTINUOUS
10
290.3455560000
20
230.8278900000
11
290.2567760000
21
230.8278900000
0
LINE
8
10000_FRONT
62
7
6
CONTINUOUS
10
274.6700440000
20
230.9874530000
11
274.8404040000
21
230.9874530000
0
LINE
8
10000_FRONT
62
7
6
CONTINUOUS
10
276.1924860000
20
230.9874530000
11
276.4144330000
21
230.9874530000
0
LINE
8
10000_FRONT
62
7
6
CONTINUOUS
10
277.6081530000
20
230.9874530000
11
277.8301000000
21
230.9874530000
0
LINE
8
10000_FRONT
62
7
6
CONTINUOUS
10
279.7880400000
20
230.9874530000
11
280.0099870000
21
230.9874530000
0
LINE
8
10000_FRONT
62
7
6
CONTINUOUS
10
282.2618580000
20
230.9874530000
11
283.1640450000
21
230.9874530000
0
LINE
8
10000_FRONT
62
7
6
CONTINUOUS
10
288.9478840000
20
230.9874530000
11
289.1962260000
21
230.9874530000
0
LINE
8
10000_FRONT
62
7
6
CONTINUOUS
10
290.0600230000
20
230.9874530000
11
290.3251600000
21
230.9874530000
0
LINE
8
10000_FRONT
62
7
6
CONTINUOUS
10
285.4000776378
20
230.9881872848
11
285.5704376378
21
230.9881872848
0
LINE
8
12000_RIGHT
62
7
6
CONTINUOUS
10
79.9111580000
20
231.2387250000
11
86.9510140000
21
231.2387250000
0
LINE
8
10000_FRONT
62
7
6
CONTINUOUS
10
294.8171120000
20
231.2387250000
11
295.1308050000
21
231.2387250000
0
LINE
8
12000_RIGHT
62
7
6
CONTINUOUS
10
79.8510140000
20
231.7387250000
11
84.4510140000
21
231.7387250000
0
LINE
8
10000_FRONT
62
7
6
CONTINUOUS
10
282.2738550000
20
232.4874530000
11
282.0771010000
21
232.4874530000
0
LINE
8
10000_FRONT
62
7
6
CONTINUOUS
10
281.6356050000
20
232.4874530000
11
281.4388510000
21
232.4874530000
0
LINE
8
10000_FRONT
62
7
6
CONTINUOUS
10
280.6206440000
20
232.4874530000
11
280.4238900000
21
232.4874530000
0
LINE
8
10000_FRONT
62
7
6
CONTINUOUS
10
279.3681380000
20
232.4874530000
11
279.1713850000
21
232.4874530000
0
LINE
8
10000_FRONT
62
7
6
CONTINUOUS
10
278.1156330000
20
232.4874530000
11
277.9188790000
21
232.4874530000
0
LINE
8
10000_FRONT
62
7
6
CONTINUOUS
10
277.6645390000
20
232.4874530000
11
277.4521890000
21
232.4874530000
0
LINE
8
10000_FRONT
62
7
6
CONTINUOUS
10
276.4012370000
20
232.4874530000
11
276.2020830000
21
232.4874530000
0
LINE
8
10000_FRONT
62
7
6
CONTINUOUS
10
275.1751250000
20
232.4874530000
11
274.9879690000
21
232.4874530000
0
LINE
8
10000_FRONT
62
7
6
CONTINUOUS
10
275.4378630000
20
232.9769380000
11
275.1751250000
21
232.9769380000
0
LINE
8
10000_FRONT
62
7
6
CONTINUOUS
10
274.9879690000
20
232.9769380000
11
274.2213490000
21
232.9769380000
0
LINE
8
10000_FRONT
62
7
6
CONTINUOUS
10
277.2434380000
20
233.0825130000
11
276.6099870000
21
233.0825130000
0
LINE
8
10000_FRONT
62
7
6
CONTINUOUS
10
274.4013070000
20
233.1389000000
11
274.9879690000
21
233.1389000000
0
LINE
8
10000_FRONT
62
7
6
CONTINUOUS
10
275.1751250000
20
233.1389000000
11
275.4378630000
21
233.1389000000
0
LINE
8
10000_FRONT
62
7
6
CONTINUOUS
10
276.6687740000
20
233.2444750000
11
277.1846520000
21
233.2444750000
0
LINE
8
10000_FRONT
62
7
6
CONTINUOUS
10
282.9444970000
20
233.2684690000
11
282.2738550000
21
233.2684690000
0
LINE
8
10000_FRONT
62
7
6
CONTINUOUS
10
281.4388510000
20
233.2768670000
11
280.6206440000
21
233.2768670000
0
LINE
8
10000_FRONT
62
7
6
CONTINUOUS
10
282.2738550000
20
233.4304310000
11
282.9444970000
21
233.4304310000
0
LINE
8
10000_FRONT
62
7
6
CONTINUOUS
10
280.6206440000
20
233.4388290000
11
281.4388510000
21
233.4388290000
0
LINE
8
10000_FRONT
62
7
6
CONTINUOUS
10
290.3455560000
20
230.8278900000
11
290.3701720000
21
230.8277630000
0
LINE
8
10000_FRONT
62
7
6
CONTINUOUS
10
290.3455560000
20
230.0732680000
11
290.3744720000
21
230.0731070000
0
LINE
8
10000_FRONT
62
7
6
CONTINUOUS
10
290.3856790000
20
230.9870900000
11
290.3251600000
21
230.9874530000
0
LINE
8
10000_FRONT
62
7
6
CONTINUOUS
10
281.3200790000
20
230.8494850000
11
281.3366570000
21
230.8493660000
0
LINE
8
10000_FRONT
62
7
6
CONTINUOUS
10
281.2992370000
20
229.2636330000
11
281.3188790000
21
229.2634580000
0
LINE
8
10000_FRONT
62
7
6
CONTINUOUS
10
283.9990490000
20
230.8494850000
11
284.0135700000
21
230.8493420000
0
LINE
8
10000_FRONT
62
7
6
CONTINUOUS
10
287.5946030000
20
230.8494850000
11
287.6091240000
21
230.8493420000
0
LINE
8
10000_FRONT
62
7
6
CONTINUOUS
10
291.8919920000
20
230.8494850000
11
291.9065130000
21
230.8493420000
0
LINE
8
10000_FRONT
62
7
6
CONTINUOUS
10
281.3380750000
20
229.4254200000
11
281.3156110000
21
229.4257160000
0
LINE
8
10000_FRONT
62
7
6
CONTINUOUS
10
283.9831230000
20
229.2637560000
11
284.0050470000
21
229.2634580000
0
LINE
8
10000_FRONT
62
7
6
CONTINUOUS
10
287.5786770000
20
229.2637560000
11
287.6006010000
21
229.2634580000
0
LINE
8
10000_FRONT
62
7
6
CONTINUOUS
10
291.8760650000
20
229.2637560000
11
291.8979900000
21
229.2634580000
0
LINE
8
12000_RIGHT
62
7
6
CONTINUOUS
10
86.6510140000
20
227.0010230000
11
49.4440330000
21
227.5205640000
0
LINE
8
11000_LEFT
62
7
6
CONTINUOUS
10
493.8356430000
20
229.9488730000
11
466.6356130000
21
230.3286810000
0
LINE
8
10000_FRONT
62
7
6
CONTINUOUS
10
284.0050470000
20
229.4254200000
11
283.9907550000
21
229.4256420000
0
LINE
8
10000_FRONT
62
7
6
CONTINUOUS
10
287.6006010000
20
229.4254200000
11
287.5863090000
21
229.4256420000
0
LINE
8
10000_FRONT
62
7
6
CONTINUOUS
10
291.8979900000
20
229.4254200000
11
291.8836980000
21
229.4256420000
0
LINE
8
10000_FRONT
62
7
6
CONTINUOUS
10
290.3701720000
20
230.8277630000
11
290.3947910000
21
230.8273560000
0
LINE
8
10000_FRONT
62
7
6
CONTINUOUS
10
290.3744720000
20
230.0731070000
11
290.4033860000
21
230.0725950000
0
LINE
8
10000_FRONT
62
7
6
CONTINUOUS
10
281.3585250000
20
231.0108370000
11
281.3260780000
21
231.0114470000
0
LINE
8
10000_FRONT
62
7
6
CONTINUOUS
10
290.6801870000
20
230.1534010000
11
290.6670800000
21
230.1536490000
0
LINE
8
10000_FRONT
62
7
6
CONTINUOUS
10
290.4461990000
20
230.9858530000
11
290.3856790000
21
230.9870900000
0
LINE
8
10000_FRONT
62
7
6
CONTINUOUS
10
281.2795910000
20
229.2641690000
11
281.2992370000
21
229.2636330000
0
LINE
8
10000_FRONT
62
7
6
CONTINUOUS
10
281.3366570000
20
230.8493660000
11
281.3532180000
21
230.8489080000
0
LINE
8
10000_FRONT
62
7
6
CONTINUOUS
10
290.3947910000
20
230.8273560000
11
290.4194040000
21
230.8266300000
0
LINE
8
10000_FRONT
62
7
6
CONTINUOUS
10
284.0335460000
20
231.0108370000
11
284.0134450000
21
231.0114470000
0
LINE
8
10000_FRONT
62
7
6
CONTINUOUS
10
287.6291000000
20
231.0108370000
11
287.6089990000
21
231.0114470000
0
LINE
8
10000_FRONT
62
7
6
CONTINUOUS
10
291.9264880000
20
231.0108370000
11
291.9063880000
21
231.0114470000
0
LINE
8
10000_FRONT
62
7
6
CONTINUOUS
10
290.4033860000
20
230.0725950000
11
290.4322920000
21
230.0716820000
0
LINE
8
10000_FRONT
62
7
6
CONTINUOUS
10
290.4798270000
20
230.9846990000
11
290.4461990000
21
230.9858530000
0
LINE
8
10000_FRONT
62
7
6
CONTINUOUS
10
281.3156110000
20
229.4257160000
11
281.2931570000
21
229.4266570000
0
LINE
8
10000_FRONT
62
7
6
CONTINUOUS
10
283.9612210000
20
229.2646830000
11
283.9831230000
21
229.2637560000
0
LINE
8
10000_FRONT
62
7
6
CONTINUOUS
10
287.5567750000
20
229.2646830000
11
287.5786770000
21
229.2637560000
0
LINE
8
10000_FRONT
62
7
6
CONTINUOUS
10
291.8541640000
20
229.2646830000
11
291.8760650000
21
229.2637560000
0
LINE
8
10000_FRONT
62
7
6
CONTINUOUS
10
290.4194040000
20
230.8266300000
11
290.4440020000
21
230.8255470000
0
LINE
8
10000_FRONT
62
7
6
CONTINUOUS
10
284.0135700000
20
230.8493420000
11
284.0280850000
21
230.8486850000
0
LINE
8
10000_FRONT
62
7
6
CONTINUOUS
10
287.6091240000
20
230.8493420000
11
287.6236390000
21
230.8486850000
0
LINE
8
10000_FRONT
62
7
6
CONTINUOUS
10
291.9065130000
20
230.8493420000
11
291.9210280000
21
230.8486850000
0
LINE
8
10000_FRONT
62
7
6
CONTINUOUS
10
281.2599530000
20
229.2650790000
11
281.2795910000
21
229.2641690000
0
LINE
8
10000_FRONT
62
7
6
CONTINUOUS
10
290.5134300000
20
230.9831260000
11
290.4798270000
21
230.9846990000
0
LINE
8
10000_FRONT
62
7
6
CONTINUOUS
10
290.4322920000
20
230.0716820000
11
290.4611840000
21
230.0703230000
0
LINE
8
10000_FRONT
62
7
6
CONTINUOUS
10
281.3532180000
20
230.8489080000
11
281.3697580000
21
230.8481190000
0
LINE
8
10000_FRONT
62
7
6
CONTINUOUS
10
283.9907550000
20
229.4256420000
11
283.9764950000
21
229.4263500000
0
LINE
8
10000_FRONT
62
7
6
CONTINUOUS
10
287.5863090000
20
229.4256420000
11
287.5720490000
21
229.4263500000
0
LINE
8
10000_FRONT
62
7
6
CONTINUOUS
10
291.8836980000
20
229.4256420000
11
291.8694380000
21
229.4263500000
0
LINE
8
10000_FRONT
62
7
6
CONTINUOUS
10
281.3909190000
20
231.0091830000
11
281.3585250000
21
231.0108370000
0
LINE
8
10000_FRONT
62
7
6
CONTINUOUS
10
290.6933480000
20
230.1526620000
11
290.6801870000
21
230.1534010000
0
LINE
8
10000_FRONT
62
7
6
CONTINUOUS
10
284.0536860000
20
231.0096510000
11
284.0335460000
21
231.0108370000
0
LINE
8
10000_FRONT
62
7
6
CONTINUOUS
10
287.6492400000
20
231.0096510000
11
287.6291000000
21
231.0108370000
0
LINE
8
10000_FRONT
62
7
6
CONTINUOUS
10
291.9466290000
20
231.0096510000
11
291.9264880000
21
231.0108370000
0
LINE
8
10000_FRONT
62
7
6
CONTINUOUS
10
290.4440020000
20
230.8255470000
11
290.4685770000
21
230.8240700000
0
LINE
8
10000_FRONT
62
7
6
CONTINUOUS
10
290.5469750000
20
230.9810540000
11
290.5134300000
21
230.9831260000
0
LINE
8
10000_FRONT
62
7
6
CONTINUOUS
10
290.4611840000
20
230.0703230000
11
290.4900550000
21
230.0684690000
0
LINE
8
10000_FRONT
62
7
6
CONTINUOUS
10
281.2403330000
20
229.2663740000
11
281.2599530000
21
229.2650790000
0
LINE
8
10000_FRONT
62
7
6
CONTINUOUS
10
281.3697580000
20
230.8481190000
11
281.3862720000
21
230.8470020000
0
LINE
8
10000_FRONT
62
7
6
CONTINUOUS
10
281.2931570000
20
229.4266570000
11
281.2707410000
21
229.4282720000
0
LINE
8
10000_FRONT
62
7
6
CONTINUOUS
10
283.9393770000
20
229.2662740000
11
283.9612210000
21
229.2646830000
0
LINE
8
10000_FRONT
62
7
6
CONTINUOUS
10
287.5349310000
20
229.2662740000
11
287.5567750000
21
229.2646830000
0
LINE
8
10000_FRONT
62
7
6
CONTINUOUS
10
291.8323200000
20
229.2662740000
11
291.8541640000
21
229.2646830000
0
LINE
8
10000_FRONT
62
7
6
CONTINUOUS
10
290.4685770000
20
230.8240700000
11
290.4931210000
21
230.8221580000
0
LINE
8
10000_FRONT
62
7
6
CONTINUOUS
10
290.5738220000
20
230.9789600000
11
290.5469750000
21
230.9810540000
0
LINE
8
10000_FRONT
62
7
6
CONTINUOUS
10
290.4900550000
20
230.0684690000
11
290.5090900000
21
230.0669460000
0
LINE
8
10000_FRONT
62
7
6
CONTINUOUS
10
284.0280850000
20
230.8486850000
11
284.0425650000
21
230.8474950000
0
LINE
8
10000_FRONT
62
7
6
CONTINUOUS
10
287.6236390000
20
230.8486850000
11
287.6381190000
21
230.8474950000
0
LINE
8
10000_FRONT
62
7
6
CONTINUOUS
10
291.9210280000
20
230.8486850000
11
291.9355080000
21
230.8474950000
0
LINE
8
10000_FRONT
62
7
6
CONTINUOUS
10
281.4232330000
20
231.0065020000
11
281.3909190000
21
231.0091830000
0
LINE
8
10000_FRONT
62
7
6
CONTINUOUS
10
283.9764950000
20
229.4263500000
11
283.9622910000
21
229.4275660000
0
LINE
8
10000_FRONT
62
7
6
CONTINUOUS
10
287.5720490000
20
229.4263500000
11
287.5578450000
21
229.4275660000
0
LINE
8
10000_FRONT
62
7
6
CONTINUOUS
10
291.8694380000
20
229.4263500000
11
291.8552340000
21
229.4275660000
0
LINE
8
10000_FRONT
62
7
6
CONTINUOUS
10
281.2207420000
20
229.2680650000
11
281.2403330000
21
229.2663740000
0
LINE
8
10000_FRONT
62
7
6
CONTINUOUS
10
281.3862720000
20
230.8470020000
11
281.4027570000
21
230.8455630000
0
LINE
8
10000_FRONT
62
7
6
CONTINUOUS
10
284.0738280000
20
231.0078770000
11
284.0536860000
21
231.0096510000
0
LINE
8
10000_FRONT
62
7
6
CONTINUOUS
10
287.6693820000
20
231.0078770000
11
287.6492400000
21
231.0096510000
0
LINE
8
10000_FRONT
62
7
6
CONTINUOUS
10
291.9667710000
20
231.0078770000
11
291.9466290000
21
231.0096510000
0
LINE
8
10000_FRONT
62
7
6
CONTINUOUS
10
290.7065440000
20
230.1514390000
11
290.6933480000
21
230.1526620000
0
LINE
8
10000_FRONT
62
7
6
CONTINUOUS
10
290.4931210000
20
230.8221580000
11
290.5094050000
21
230.8206260000
0
LINE
8
10000_FRONT
62
7
6
CONTINUOUS
10
290.5090900000
20
230.0669460000
11
290.5281000000
21
230.0651390000
0
LINE
8
10000_FRONT
62
7
6
CONTINUOUS
10
290.6006480000
20
230.9763440000
11
290.5738220000
21
230.9789600000
0
LINE
8
10000_FRONT
62
7
6
CONTINUOUS
10
281.2707410000
20
229.4282720000
11
281.2483880000
21
229.4305920000
0
LINE
8
10000_FRONT
62
7
6
CONTINUOUS
10
283.9176220000
20
229.2685690000
11
283.9393770000
21
229.2662740000
0
LINE
8
10000_FRONT
62
7
6
CONTINUOUS
10
287.5131760000
20
229.2685690000
11
287.5349310000
21
229.2662740000
0
LINE
8
10000_FRONT
62
7
6
CONTINUOUS
10
291.8105650000
20
229.2685690000
11
291.8323200000
21
229.2662740000
0
LINE
8
10000_FRONT
62
7
6
CONTINUOUS
10
281.4027570000
20
230.8455630000
11
281.4192080000
21
230.8438070000
0
LINE
8
10000_FRONT
62
7
6
CONTINUOUS
10
281.2011900000
20
229.2701650000
11
281.2207420000
21
229.2680650000
0
LINE
8
10000_FRONT
62
7
6
CONTINUOUS
10
290.5094050000
20
230.8206260000
11
290.5256640000
21
230.8188470000
0
LINE
8
10000_FRONT
62
7
6
CONTINUOUS
10
290.5281000000
20
230.0651390000
11
290.5470720000
21
230.0629960000
0
LINE
8
10000_FRONT
62
7
6
CONTINUOUS
10
281.4554370000
20
231.0028080000
11
281.4232330000
21
231.0065020000
0
LINE
8
10000_FRONT
62
7
6
CONTINUOUS
10
284.0939300000
20
231.0055030000
11
284.0738280000
21
231.0078770000
0
LINE
8
10000_FRONT
62
7
6
CONTINUOUS
10
287.6894840000
20
231.0055030000
11
287.6693820000
21
231.0078770000
0
LINE
8
10000_FRONT
62
7
6
CONTINUOUS
10
291.9868720000
20
231.0055030000
11
291.9667710000
21
231.0078770000
0
LINE
8
10000_FRONT
62
7
6
CONTINUOUS
10
284.0425650000
20
230.8474950000
11
284.0569830000
21
230.8457560000
0
LINE
8
10000_FRONT
62
7
6
CONTINUOUS
10
287.6381190000
20
230.8474950000
11
287.6525370000
21
230.8457560000
0
LINE
8
10000_FRONT
62
7
6
CONTINUOUS
10
291.9355080000
20
230.8474950000
11
291.9499260000
21
230.8457560000
0
LINE
8
10000_FRONT
62
7
6
CONTINUOUS
10
290.6274890000
20
230.9730560000
11
290.6006480000
21
230.9763440000
0
LINE
8
10000_FRONT
62
7
6
CONTINUOUS
10
283.9622910000
20
229.4275660000
11
283.9481670000
21
229.4293120000
0
LINE
8
10000_FRONT
62
7
6
CONTINUOUS
10
287.5578450000
20
229.4275660000
11
287.5437210000
21
229.4293120000
0
LINE
8
10000_FRONT
62
7
6
CONTINUOUS
10
291.8552340000
20
229.4275660000
11
291.8411100000
21
229.4293120000
0
LINE
8
10000_FRONT
62
7
6
CONTINUOUS
10
281.4192080000
20
230.8438070000
11
281.4356200000
21
230.8417390000
0
LINE
8
10000_FRONT
62
7
6
CONTINUOUS
10
290.5256640000
20
230.8188470000
11
290.5418890000
21
230.8167860000
0
LINE
8
10000_FRONT
62
7
6
CONTINUOUS
10
290.7197560000
20
230.1497410000
11
290.7065440000
21
230.1514390000
0
LINE
8
10000_FRONT
62
7
6
CONTINUOUS
10
281.1816890000
20
229.2726840000
11
281.2011900000
21
229.2701650000
0
LINE
8
10000_FRONT
62
7
6
CONTINUOUS
10
290.5470720000
20
230.0629960000
11
290.5659930000
21
230.0604710000
0
LINE
8
10000_FRONT
62
7
6
CONTINUOUS
10
281.2483880000
20
229.4305920000
11
281.2261250000
21
229.4336470000
0
LINE
8
10000_FRONT
62
7
6
CONTINUOUS
10
283.8959910000
20
229.2716030000
11
283.9176220000
21
229.2685690000
0
LINE
8
10000_FRONT
62
7
6
CONTINUOUS
10
287.4915450000
20
229.2716030000
11
287.5131760000
21
229.2685690000
0
LINE
8
10000_FRONT
62
7
6
CONTINUOUS
10
291.7889330000
20
229.2716030000
11
291.8105650000
21
229.2685690000
0
LINE
8
10000_FRONT
62
7
6
CONTINUOUS
10
281.4356200000
20
230.8417390000
11
281.4519890000
21
230.8393640000
0
LINE
8
10000_FRONT
62
7
6
CONTINUOUS
10
290.6424110000
20
230.9708860000
11
290.6274890000
21
230.9730560000
0
LINE
8
10000_FRONT
62
7
6
CONTINUOUS
10
281.4875060000
20
230.9981170000
11
281.4554370000
21
231.0028080000
0
LINE
8
10000_FRONT
62
7
6
CONTINUOUS
10
290.5418890000
20
230.8167860000
11
290.5580730000
21
230.8144040000
0
LINE
8
10000_FRONT
62
7
6
CONTINUOUS
10
284.1139520000
20
231.0025160000
11
284.0939300000
21
231.0055030000
0
LINE
8
10000_FRONT
62
7
6
CONTINUOUS
10
287.7095060000
20
231.0025160000
11
287.6894840000
21
231.0055030000
0
LINE
8
10000_FRONT
62
7
6
CONTINUOUS
10
292.0068940000
20
231.0025160000
11
291.9868720000
21
231.0055030000
0
LINE
8
10000_FRONT
62
7
6
CONTINUOUS
10
281.1622480000
20
229.2756350000
11
281.1816890000
21
229.2726840000
0
LINE
8
10000_FRONT
62
7
6
CONTINUOUS
10
290.5659930000
20
230.0604710000
11
290.5848500000
21
230.0575130000
0
LINE
8
10000_FRONT
62
7
6
CONTINUOUS
10
284.0569830000
20
230.8457560000
11
284.0713110000
21
230.8434470000
0
LINE
8
10000_FRONT
62
7
6
CONTINUOUS
10
287.6525370000
20
230.8457560000
11
287.6668650000
21
230.8434470000
0
LINE
8
10000_FRONT
62
7
6
CONTINUOUS
10
291.9499260000
20
230.8457560000
11
291.9642540000
21
230.8434470000
0
LINE
8
10000_FRONT
62
7
6
CONTINUOUS
10
283.9481670000
20
229.4293120000
11
283.9341480000
21
229.4316100000
0
LINE
8
10000_FRONT
62
7
6
CONTINUOUS
10
287.5437210000
20
229.4293120000
11
287.5297020000
21
229.4316100000
0
LINE
8
10000_FRONT
62
7
6
CONTINUOUS
10
281.4519890000
20
230.8393640000
11
281.4683110000
21
230.8366880000
0
LINE
8
10000_FRONT
62
7
6
CONTINUOUS
10
291.8411100000
20
229.4293120000
11
291.8270910000
21
229.4316100000
0
LINE
8
10000_FRONT
62
7
6
CONTINUOUS
10
290.7329650000
20
230.1475760000
11
290.7197560000
21
230.1497410000
0
LINE
8
10000_FRONT
62
7
6
CONTINUOUS
10
290.6573280000
20
230.9684410000
11
290.6424110000
21
230.9708860000
0
LINE
8
10000_FRONT
62
7
6
CONTINUOUS
10
290.5580730000
20
230.8144040000
11
290.5742070000
21
230.8116640000
0
LINE
8
10000_FRONT
62
7
6
CONTINUOUS
10
281.2261250000
20
229.4336470000
11
281.2039800000
21
229.4374680000
0
LINE
8
10000_FRONT
62
7
6
CONTINUOUS
10
281.1428780000
20
229.2790270000
11
281.1622480000
21
229.2756350000
0
LINE
8
10000_FRONT
62
7
6
CONTINUOUS
10
283.8745150000
20
229.2754150000
11
283.8959910000
21
229.2716030000
0
LINE
8
10000_FRONT
62
7
6
CONTINUOUS
10
287.4700690000
20
229.2754150000
11
287.4915450000
21
229.2716030000
0
LINE
8
10000_FRONT
62
7
6
CONTINUOUS
10
291.7674580000
20
229.2754150000
11
291.7889330000
21
229.2716030000
0
LINE
8
10000_FRONT
62
7
6
CONTINUOUS
10
281.5211300000
20
230.9921160000
11
281.4875060000
21
230.9981170000
0
LINE
8
10000_FRONT
62
7
6
CONTINUOUS
10
284.1338540000
20
230.9989040000
11
284.1139520000
21
231.0025160000
0
LINE
8
10000_FRONT
62
7
6
CONTINUOUS
10
287.7294080000
20
230.9989040000
11
287.7095060000
21
231.0025160000
0
LINE
8
10000_FRONT
62
7
6
CONTINUOUS
10
292.0267970000
20
230.9989040000
11
292.0068940000
21
231.0025160000
0
LINE
8
10000_FRONT
62
7
6
CONTINUOUS
10
281.4683110000
20
230.8366880000
11
281.4851120000
21
230.8336140000
0
LINE
8
10000_FRONT
62
7
6
CONTINUOUS
10
290.5848500000
20
230.0575130000
11
290.6036280000
21
230.0540720000
0
LINE
8
10000_FRONT
62
7
6
CONTINUOUS
10
290.6722160000
20
230.9657020000
11
290.6573280000
21
230.9684410000
0
LINE
8
10000_FRONT
62
7
6
CONTINUOUS
10
290.5742070000
20
230.8116640000
11
290.5902830000
21
230.8085300000
0
LINE
8
10000_FRONT
62
7
6
CONTINUOUS
10
290.7461520000
20
230.1449500000
11
290.7329650000
21
230.1475760000
0
LINE
8
10000_FRONT
62
7
6
CONTINUOUS
10
281.1235910000
20
229.2828740000
11
281.1428780000
21
229.2790270000
0
LINE
8
10000_FRONT
62
7
6
CONTINUOUS
10
281.4851120000
20
230.8336140000
11
281.5018540000
21
230.8302290000
0
LINE
8
10000_FRONT
62
7
6
CONTINUOUS
10
284.0713110000
20
230.8434470000
11
284.0855190000
21
230.8405510000
0
LINE
8
10000_FRONT
62
7
6
CONTINUOUS
10
287.6668650000
20
230.8434470000
11
287.6810730000
21
230.8405510000
0
LINE
8
10000_FRONT
62
7
6
CONTINUOUS
10
291.9642540000
20
230.8434470000
11
291.9784620000
21
230.8405510000
0
LINE
8
10000_FRONT
62
7
6
CONTINUOUS
10
290.6870550000
20
230.9626480000
11
290.6722160000
21
230.9657020000
0
LINE
8
10000_FRONT
62
7
6
CONTINUOUS
10
283.9341480000
20
229.4316100000
11
283.9202590000
21
229.4344810000
0
LINE
8
10000_FRONT
62
7
6
CONTINUOUS
10
287.5297020000
20
229.4316100000
11
287.5158130000
21
229.4344810000
0
LINE
8
10000_FRONT
62
7
6
CONTINUOUS
10
291.8270910000
20
229.4316100000
11
291.8132020000
21
229.4344810000
0
LINE
8
10000_FRONT
62
7
6
CONTINUOUS
10
290.6036280000
20
230.0540720000
11
290.6156780000
21
230.0515740000
0
LINE
8
10000_FRONT
62
7
6
CONTINUOUS
10
281.2039800000
20
229.4374680000
11
281.1819780000
21
229.4420830000
0
LINE
8
10000_FRONT
62
7
6
CONTINUOUS
10
281.5545550000
20
230.9850710000
11
281.5211300000
21
230.9921160000
0
LINE
8
10000_FRONT
62
7
6
CONTINUOUS
10
284.1535960000
20
230.9946540000
11
284.1338540000
21
230.9989040000
0
LINE
8
10000_FRONT
62
7
6
CONTINUOUS
10
287.7491500000
20
230.9946540000
11
287.7294080000
21
230.9989040000
0
LINE
8
10000_FRONT
62
7
6
CONTINUOUS
10
292.0465390000
20
230.9946540000
11
292.0267970000
21
230.9989040000
0
LINE
8
10000_FRONT
62
7
6
CONTINUOUS
10
283.8532280000
20
229.2800420000
11
283.8745150000
21
229.2754150000
0
LINE
8
10000_FRONT
62
7
6
CONTINUOUS
10
287.4487820000
20
229.2800420000
11
287.4700690000
21
229.2754150000
0
LINE
8
10000_FRONT
62
7
6
CONTINUOUS
10
291.7461710000
20
229.2800420000
11
291.7674580000
21
229.2754150000
0
LINE
8
10000_FRONT
62
7
6
CONTINUOUS
10
281.5018540000
20
230.8302290000
11
281.5185330000
21
230.8265380000
0
LINE
8
10000_FRONT
62
7
6
CONTINUOUS
10
290.5902830000
20
230.8085300000
11
290.6062940000
21
230.8049620000
0
LINE
8
10000_FRONT
62
7
6
CONTINUOUS
10
281.1043970000
20
229.2871860000
11
281.1235910000
21
229.2828740000
0
LINE
8
10000_FRONT
62
7
6
CONTINUOUS
10
290.6156780000
20
230.0515740000
11
290.6276740000
21
230.0488220000
0
LINE
8
10000_FRONT
62
7
6
CONTINUOUS
10
290.7018230000
20
230.9592580000
11
290.6870550000
21
230.9626480000
0
LINE
8
10000_FRONT
62
7
6
CONTINUOUS
10
290.7592990000
20
230.1418730000
11
290.7461520000
21
230.1449500000
0
LINE
8
10000_FRONT
62
7
6
CONTINUOUS
10
281.5185330000
20
230.8265380000
11
281.5351460000
21
230.8225480000
0
LINE
8
10000_FRONT
62
7
6
CONTINUOUS
10
281.5877640000
20
230.9770270000
11
281.5545550000
21
230.9850710000
0
LINE
8
10000_FRONT
62
7
6
CONTINUOUS
10
281.1819780000
20
229.4420830000
11
281.1618800000
21
229.4470580000
0
LINE
8
10000_FRONT
62
7
6
CONTINUOUS
10
290.6062940000
20
230.8049620000
11
290.6165120000
21
230.8024280000
0
LINE
8
10000_FRONT
62
7
6
CONTINUOUS
10
284.0855190000
20
230.8405510000
11
284.0995810000
21
230.8370500000
0
LINE
8
10000_FRONT
62
7
6
CONTINUOUS
10
287.6810730000
20
230.8405510000
11
287.6951350000
21
230.8370500000
0
LINE
8
10000_FRONT
62
7
6
CONTINUOUS
10
291.9784620000
20
230.8405510000
11
291.9925240000
21
230.8370500000
0
LINE
8
10000_FRONT
62
7
6
CONTINUOUS
10
281.0871680000
20
229.2914840000
11
281.1043970000
21
229.2871860000
0
LINE
8
10000_FRONT
62
7
6
CONTINUOUS
10
284.1731370000
20
230.9897550000
11
284.1535960000
21
230.9946540000
0
LINE
8
10000_FRONT
62
7
6
CONTINUOUS
10
287.7686910000
20
230.9897550000
11
287.7491500000
21
230.9946540000
0
LINE
8
10000_FRONT
62
7
6
CONTINUOUS
10
292.0660800000
20
230.9897550000
11
292.0465390000
21
230.9946540000
0
LINE
8
10000_FRONT
62
7
6
CONTINUOUS
10
283.9202590000
20
229.4344810000
11
283.9065230000
21
229.4379460000
0
LINE
8
10000_FRONT
62
7
6
CONTINUOUS
10
287.5158130000
20
229.4344810000
11
287.5020770000
21
229.4379460000
0
LINE
8
10000_FRONT
62
7
6
CONTINUOUS
10
291.8132020000
20
229.4344810000
11
291.7994660000
21
229.4379460000
0
LINE
8
10000_FRONT
62
7
6
CONTINUOUS
10
290.6276740000
20
230.0488220000
11
290.6396000000
21
230.0457820000
0
LINE
8
10000_FRONT
62
7
6
CONTINUOUS
10
290.7164970000
20
230.9555130000
11
290.7018230000
21
230.9592580000
0
LINE
8
10000_FRONT
62
7
6
CONTINUOUS
10
281.5351460000
20
230.8225480000
11
281.5516890000
21
230.8182640000
0
LINE
8
10000_FRONT
62
7
6
CONTINUOUS
10
283.8321630000
20
229.2855210000
11
283.8532280000
21
229.2800420000
0
LINE
8
10000_FRONT
62
7
6
CONTINUOUS
10
287.4277170000
20
229.2855210000
11
287.4487820000
21
229.2800420000
0
LINE
8
10000_FRONT
62
7
6
CONTINUOUS
10
291.7251060000
20
229.2855210000
11
291.7461710000
21
229.2800420000
0
LINE
8
10000_FRONT
62
7
6
CONTINUOUS
10
290.7723860000
20
230.1383510000
11
290.7592990000
21
230.1418730000
0
LINE
8
10000_FRONT
62
7
6
CONTINUOUS
10
290.6165120000
20
230.8024280000
11
290.6266740000
21
230.7996650000
0
LINE
8
10000_FRONT
62
7
6
CONTINUOUS
10
281.6207410000
20
230.9680300000
11
281.5877640000
21
230.9770270000
0
LINE
8
10000_FRONT
62
7
6
CONTINUOUS
10
281.0700370000
20
229.2961730000
11
281.0871680000
21
229.2914840000
0
LINE
8
10000_FRONT
62
7
6
CONTINUOUS
10
281.5516890000
20
230.8182640000
11
281.5681570000
21
230.8136920000
0
LINE
8
10000_FRONT
62
7
6
CONTINUOUS
10
290.7310560000
20
230.9513910000
11
290.7164970000
21
230.9555130000
0
LINE
8
10000_FRONT
62
7
6
CONTINUOUS
10
290.6396000000
20
230.0457820000
11
290.6514390000
21
230.0424210000
0
LINE
8
10000_FRONT
62
7
6
CONTINUOUS
10
281.1618800000
20
229.4470580000
11
281.1419640000
21
229.4527400000
0
LINE
8
10000_FRONT
62
7
6
CONTINUOUS
10
284.1924390000
20
230.9841940000
11
284.1731370000
21
230.9897550000
0
LINE
8
10000_FRONT
62
7
6
CONTINUOUS
10
287.7879930000
20
230.9841940000
11
287.7686910000
21
230.9897550000
0
LINE
8
10000_FRONT
62
7
6
CONTINUOUS
10
292.0853810000
20
230.9841940000
11
292.0660800000
21
230.9897550000
0
LINE
8
10000_FRONT
62
7
6
CONTINUOUS
10
281.5681570000
20
230.8136920000
11
281.5845470000
21
230.8088360000
0
LINE
8
10000_FRONT
62
7
6
CONTINUOUS
10
284.0995810000
20
230.8370500000
11
284.1134680000
21
230.8329240000
0
LINE
8
10000_FRONT
62
7
6
CONTINUOUS
10
287.6951350000
20
230.8370500000
11
287.7090220000
21
230.8329240000
0
LINE
8
10000_FRONT
62
7
6
CONTINUOUS
10
291.9925240000
20
230.8370500000
11
292.0064110000
21
230.8329240000
0
LINE
8
10000_FRONT
62
7
6
CONTINUOUS
10
281.0530160000
20
229.3012530000
11
281.0700370000
21
229.2961730000
0
LINE
8
10000_FRONT
62
7
6
CONTINUOUS
10
290.6266740000
20
230.7996650000
11
290.6367560000
21
230.7966380000
0
LINE
8
10000_FRONT
62
7
6
CONTINUOUS
10
283.9065230000
20
229.4379460000
11
283.8929660000
21
229.4420280000
0
LINE
8
10000_FRONT
62
7
6
CONTINUOUS
10
287.5020770000
20
229.4379460000
11
287.4885190000
21
229.4420280000
0
LINE
8
10000_FRONT
62
7
6
CONTINUOUS
10
291.7994660000
20
229.4379460000
11
291.7859080000
21
229.4420280000
0
LINE
8
10000_FRONT
62
7
6
CONTINUOUS
10
281.6534670000
20
230.9581260000
11
281.6207410000
21
230.9680300000
0
LINE
8
10000_FRONT
62
7
6
CONTINUOUS
10
290.7853940000
20
230.1343920000
11
290.7723860000
21
230.1383510000
0
LINE
8
10000_FRONT
62
7
6
CONTINUOUS
10
283.8113530000
20
229.2918890000
11
283.8321630000
21
229.2855210000
0
LINE
8
10000_FRONT
62
7
6
CONTINUOUS
10
287.4069070000
20
229.2918890000
11
287.4277170000
21
229.2855210000
0
LINE
8
10000_FRONT
62
7
6
CONTINUOUS
10
291.7042960000
20
229.2918890000
11
291.7251060000
21
229.2855210000
0
LINE
8
10000_FRONT
62
7
6
CONTINUOUS
10
290.7454790000
20
230.9468720000
11
290.7310560000
21
230.9513910000
0
LINE
8
10000_FRONT
62
7
6
CONTINUOUS
10
281.5845470000
20
230.8088360000
11
281.6008540000
21
230.8037030000
0
LINE
8
10000_FRONT
62
7
6
CONTINUOUS
10
290.6514390000
20
230.0424210000
11
290.6631760000
21
230.0387060000
0
LINE
8
10000_FRONT
62
7
6
CONTINUOUS
10
281.0361170000
20
229.3067270000
11
281.0530160000
21
229.3012530000
0
LINE
8
10000_FRONT
62
7
6
CONTINUOUS
10
281.1419640000
20
229.4527400000
11
281.1222660000
21
229.4591390000
0
LINE
8
10000_FRONT
62
7
6
CONTINUOUS
10
284.2114590000
20
230.9779590000
11
284.1924390000
21
230.9841940000
0
LINE
8
10000_FRONT
62
7
6
CONTINUOUS
10
287.8070130000
20
230.9779590000
11
287.7879930000
21
230.9841940000
0
LINE
8
10000_FRONT
62
7
6
CONTINUOUS
10
292.1044020000
20
230.9779590000
11
292.0853810000
21
230.9841940000
0
LINE
8
10000_FRONT
62
7
6
CONTINUOUS
10
281.6882640000
20
230.9465510000
11
281.6534670000
21
230.9581260000
0
LINE
8
10000_FRONT
62
7
6
CONTINUOUS
10
281.6008540000
20
230.8037030000
11
281.6170760000
21
230.7982970000
0
LINE
8
10000_FRONT
62
7
6
CONTINUOUS
10
290.6367560000
20
230.7966380000
11
290.6467320000
21
230.7933110000
0
LINE
8
10000_FRONT
62
7
6
CONTINUOUS
10
290.7983050000
20
230.1300040000
11
290.7853940000
21
230.1343920000
0
LINE
8
10000_FRONT
62
7
6
CONTINUOUS
10
290.7597430000
20
230.9419360000
11
290.7454790000
21
230.9468720000
0
LINE
8
10000_FRONT
62
7
6
CONTINUOUS
10
284.1134680000
20
230.8329240000
11
284.1271520000
21
230.8281570000
0
LINE
8
10000_FRONT
62
7
6
CONTINUOUS
10
287.7090220000
20
230.8329240000
11
287.7227060000
21
230.8281570000
0
LINE
8
10000_FRONT
62
7
6
CONTINUOUS
10
292.0064110000
20
230.8329240000
11
292.0200950000
21
230.8281570000
0
LINE
8
10000_FRONT
62
7
6
CONTINUOUS
10
281.0193530000
20
229.3125970000
11
281.0361170000
21
229.3067270000
0
LINE
8
10000_FRONT
62
7
6
CONTINUOUS
10
281.6170760000
20
230.7982970000
11
281.6341280000
21
230.7922930000
0
LINE
8
10000_FRONT
62
7
6
CONTINUOUS
10
290.6631760000
20
230.0387060000
11
290.6747930000
21
230.0346030000
0
LINE
8
10000_FRONT
62
7
6
CONTINUOUS
10
283.8929660000
20
229.4420280000
11
283.8796100000
21
229.4467490000
0
LINE
8
10000_FRONT
62
7
6
CONTINUOUS
10
287.4885190000
20
229.4420280000
11
287.4751640000
21
229.4467490000
0
LINE
8
10000_FRONT
62
7
6
CONTINUOUS
10
291.7859080000
20
229.4420280000
11
291.7725530000
21
229.4467490000
0
LINE
8
10000_FRONT
62
7
6
CONTINUOUS
10
283.7908310000
20
229.2991830000
11
283.8113530000
21
229.2918890000
0
LINE
8
10000_FRONT
62
7
6
CONTINUOUS
10
287.3863850000
20
229.2991830000
11
287.4069070000
21
229.2918890000
0
LINE
8
10000_FRONT
62
7
6
CONTINUOUS
10
291.6837740000
20
229.2991830000
11
291.7042960000
21
229.2918890000
0
LINE
8
10000_FRONT
62
7
6
CONTINUOUS
10
281.7227330000
20
230.9340410000
11
281.6882640000
21
230.9465510000
0
LINE
8
10000_FRONT
62
7
6
CONTINUOUS
10
281.1222660000
20
229.4591390000
11
281.1028250000
21
229.4662630000
0
LINE
8
10000_FRONT
62
7
6
CONTINUOUS
10
284.2301590000
20
230.9710370000
11
284.2114590000
21
230.9779590000
0
LINE
8
10000_FRONT
62
7
6
CONTINUOUS
10
287.8257130000
20
230.9710370000
11
287.8070130000
21
230.9779590000
0
LINE
8
10000_FRONT
62
7
6
CONTINUOUS
10
292.1231020000
20
230.9710370000
11
292.1044020000
21
230.9779590000
0
LINE
8
10000_FRONT
62
7
6
CONTINUOUS
10
281.6341280000
20
230.7922930000
11
281.6510750000
21
230.7859970000
0
LINE
8
10000_FRONT
62
7
6
CONTINUOUS
10
290.6467320000
20
230.7933110000
11
290.6565780000
21
230.7896500000
0
LINE
8
10000_FRONT
62
7
6
CONTINUOUS
10
290.8111000000
20
230.1251960000
11
290.7983050000
21
230.1300040000
0
LINE
8
10000_FRONT
62
7
6
CONTINUOUS
10
281.0027370000
20
229.3188650000
11
281.0193530000
21
229.3125970000
0
LINE
8
10000_FRONT
62
7
6
CONTINUOUS
10
290.7738260000
20
230.9365620000
11
290.7597430000
21
230.9419360000
0
LINE
8
10000_FRONT
62
7
6
CONTINUOUS
10
281.6510750000
20
230.7859970000
11
281.6679120000
21
230.7794160000
0
LINE
8
10000_FRONT
62
7
6
CONTINUOUS
10
281.7568530000
20
230.9206550000
11
281.7227330000
21
230.9340410000
0
LINE
8
10000_FRONT
62
7
6
CONTINUOUS
10
290.6747930000
20
230.0346030000
11
290.6862750000
21
230.0300780000
0
LINE
8
10000_FRONT
62
7
6
CONTINUOUS
10
240.2171120000
20
245.1387250000
11
242.2171120000
21
244.3387250000
0
LINE
8
10000_FRONT
62
7
6
CONTINUOUS
10
284.1271520000
20
230.8281570000
11
284.1397010000
21
230.8231230000
0
LINE
8
10000_FRONT
62
7
6
CONTINUOUS
10
287.7227060000
20
230.8281570000
11
287.7352550000
21
230.8231230000
0
LINE
8
10000_FRONT
62
7
6
CONTINUOUS
10
292.0200950000
20
230.8281570000
11
292.0326440000
21
230.8231230000
0
LINE
8
10000_FRONT
62
7
6
CONTINUOUS
10
280.9862820000
20
229.3255320000
11
281.0027370000
21
229.3188650000
0
LINE
8
10000_FRONT
62
7
6
CONTINUOUS
10
283.7724430000
20
229.3066470000
11
283.7908310000
21
229.2991830000
0
LINE
8
10000_FRONT
62
7
6
CONTINUOUS
10
287.3679970000
20
229.3066470000
11
287.3863850000
21
229.2991830000
0
LINE
8
10000_FRONT
62
7
6
CONTINUOUS
10
291.6653860000
20
229.3066470000
11
291.6837740000
21
229.2991830000
0
LINE
8
10000_FRONT
62
7
6
CONTINUOUS
10
283.8796100000
20
229.4467490000
11
283.8672520000
21
229.4517860000
0
LINE
8
10000_FRONT
62
7
6
CONTINUOUS
10
287.4751640000
20
229.4467490000
11
287.4628060000
21
229.4517860000
0
LINE
8
10000_FRONT
62
7
6
CONTINUOUS
10
291.7725530000
20
229.4467490000
11
291.7601950000
21
229.4517860000
0
LINE
8
10000_FRONT
62
7
6
CONTINUOUS
10
281.6679120000
20
230.7794160000
11
281.6846350000
21
230.7725570000
0
LINE
8
10000_FRONT
62
7
6
CONTINUOUS
10
281.1028250000
20
229.4662630000
11
281.0836770000
21
229.4741210000
0
LINE
8
10000_FRONT
62
7
6
CONTINUOUS
10
290.8237590000
20
230.1199730000
11
290.8111000000
21
230.1251960000
0
LINE
8
10000_FRONT
62
7
6
CONTINUOUS
10
284.2484980000
20
230.9634170000
11
284.2301590000
21
230.9710370000
0
LINE
8
10000_FRONT
62
7
6
CONTINUOUS
10
287.8440520000
20
230.9634170000
11
287.8257130000
21
230.9710370000
0
LINE
8
10000_FRONT
62
7
6
CONTINUOUS
10
292.1414410000
20
230.9634170000
11
292.1231020000
21
230.9710370000
0
LINE
8
10000_FRONT
62
7
6
CONTINUOUS
10
290.6565780000
20
230.7896500000
11
290.6662670000
21
230.7856190000
0
LINE
8
10000_FRONT
62
7
6
CONTINUOUS
10
290.7877070000
20
230.9307290000
11
290.7738260000
21
230.9365620000
0
LINE
8
10000_FRONT
62
7
6
CONTINUOUS
10
281.7906020000
20
230.9064470000
11
281.7568530000
21
230.9206550000
0
LINE
8
10000_FRONT
62
7
6
CONTINUOUS
10
281.6846350000
20
230.7725570000
11
281.7012390000
21
230.7654260000
0
LINE
8
10000_FRONT
62
7
6
CONTINUOUS
10
280.9700010000
20
229.3326010000
11
280.9862820000
21
229.3255320000
0
LINE
8
10000_FRONT
62
7
6
CONTINUOUS
10
290.6862750000
20
230.0300780000
11
290.6954050000
21
230.0261100000
0
LINE
8
10000_FRONT
62
7
6
CONTINUOUS
10
281.7012390000
20
230.7654260000
11
281.7177200000
21
230.7580290000
0
LINE
8
10000_FRONT
62
7
6
CONTINUOUS
10
281.8239610000
20
230.8914750000
11
281.7906020000
21
230.9064470000
0
LINE
8
10000_FRONT
62
7
6
CONTINUOUS
10
290.8362640000
20
230.1143450000
11
290.8237590000
21
230.1199730000
0
LINE
8
10000_FRONT
62
7
6
CONTINUOUS
10
284.1397010000
20
230.8231230000
11
284.1520240000
21
230.8175320000
0
LINE
8
10000_FRONT
62
7
6
CONTINUOUS
10
287.7352550000
20
230.8231230000
11
287.7475780000
21
230.8175320000
0
LINE
8
10000_FRONT
62
7
6
CONTINUOUS
10
292.0326440000
20
230.8231230000
11
292.0449670000
21
230.8175320000
0
LINE
8
10000_FRONT
62
7
6
CONTINUOUS
10
283.7543570000
20
229.3148890000
11
283.7724430000
21
229.3066470000
0
LINE
8
10000_FRONT
62
7
6
CONTINUOUS
10
287.3499110000
20
229.3148890000
11
287.3679970000
21
229.3066470000
0
LINE
8
10000_FRONT
62
7
6
CONTINUOUS
10
291.6472990000
20
229.3148890000
11
291.6653860000
21
229.3066470000
0
LINE
8
10000_FRONT
62
7
6
CONTINUOUS
10
281.0836770000
20
229.4741210000
11
281.0648590000
21
229.4827210000
0
LINE
8
10000_FRONT
62
7
6
CONTINUOUS
10
283.8672520000
20
229.4517860000
11
283.8551190000
21
229.4573870000
0
LINE
8
10000_FRONT
62
7
6
CONTINUOUS
10
287.4628060000
20
229.4517860000
11
287.4506730000
21
229.4573870000
0
LINE
8
10000_FRONT
62
7
6
CONTINUOUS
10
291.7601950000
20
229.4517860000
11
291.7480610000
21
229.4573870000
0
LINE
8
10000_FRONT
62
7
6
CONTINUOUS
10
290.8013640000
20
230.9244180000
11
290.7877070000
21
230.9307290000
0
LINE
8
10000_FRONT
62
7
6
CONTINUOUS
10
280.9539060000
20
229.3400730000
11
280.9700010000
21
229.3326010000
0
LINE
8
10000_FRONT
62
7
6
CONTINUOUS
10
284.2664350000
20
230.9550850000
11
284.2484980000
21
230.9634170000
0
LINE
8
10000_FRONT
62
7
6
CONTINUOUS
10
287.8619890000
20
230.9550850000
11
287.8440520000
21
230.9634170000
0
LINE
8
10000_FRONT
62
7
6
CONTINUOUS
10
292.1593780000
20
230.9550850000
11
292.1414410000
21
230.9634170000
0
LINE
8
10000_FRONT
62
7
6
CONTINUOUS
10
290.6662670000
20
230.7856190000
11
290.6757740000
21
230.7811810000
0
LINE
8
10000_FRONT
62
7
6
CONTINUOUS
10
281.7177200000
20
230.7580290000
11
281.7340720000
21
230.7503740000
0
LINE
8
10000_FRONT
62
7
6
CONTINUOUS
10
290.6954050000
20
230.0261100000
11
290.7044180000
21
230.0218460000
0
LINE
8
10000_FRONT
62
7
6
CONTINUOUS
10
281.7340720000
20
230.7503740000
11
281.7502920000
21
230.7424660000
0
LINE
8
10000_FRONT
62
7
6
CONTINUOUS
10
290.8485950000
20
230.1083190000
11
290.8362640000
21
230.1143450000
0
LINE
8
10000_FRONT
62
7
6
CONTINUOUS
10
281.0648590000
20
229.4827210000
11
281.0464100000
21
229.4920710000
0
LINE
8
10000_FRONT
62
7
6
CONTINUOUS
10
283.7366080000
20
229.3238870000
11
283.7543570000
21
229.3148890000
0
LINE
8
10000_FRONT
62
7
6
CONTINUOUS
10
281.7502920000
20
230.7424660000
11
281.7663740000
21
230.7343120000
0
LINE
8
10000_FRONT
62
7
6
CONTINUOUS
10
287.3321620000
20
229.3238870000
11
287.3499110000
21
229.3148890000
0
LINE
8
10000_FRONT
62
7
6
CONTINUOUS
10
291.6295510000
20
229.3238870000
11
291.6472990000
21
229.3148890000
0
LINE
8
10000_FRONT
62
7
6
CONTINUOUS
10
284.1520240000
20
230.8175320000
11
284.1640980000
21
230.8114000000
0
LINE
8
10000_FRONT
62
7
6
CONTINUOUS
10
287.7475780000
20
230.8175320000
11
287.7596520000
21
230.8114000000
0
LINE
8
10000_FRONT
62
7
6
CONTINUOUS
10
290.8147750000
20
230.9176070000
11
290.8013640000
21
230.9244180000
0
LINE
8
10000_FRONT
62
7
6
CONTINUOUS
10
292.0449670000
20
230.8175320000
11
292.0570410000
21
230.8114000000
0
LINE
8
10000_FRONT
62
7
6
CONTINUOUS
10
290.7044180000
20
230.0218460000
11
290.7132920000
21
230.0172840000
0
LINE
8
10000_FRONT
62
7
6
CONTINUOUS
10
280.9184400000
20
229.3583690000
11
280.9539060000
21
229.3400730000
0
LINE
8
10000_FRONT
62
7
6
CONTINUOUS
10
283.8551190000
20
229.4573870000
11
283.8432330000
21
229.4635320000
0
LINE
8
10000_FRONT
62
7
6
CONTINUOUS
10
287.4506730000
20
229.4573870000
11
287.4387870000
21
229.4635320000
0
LINE
8
10000_FRONT
62
7
6
CONTINUOUS
10
291.7480610000
20
229.4573870000
11
291.7361750000
21
229.4635320000
0
LINE
8
10000_FRONT
62
7
6
CONTINUOUS
10
284.2839310000
20
230.9460310000
11
284.2664350000
21
230.9550850000
0
LINE
8
10000_FRONT
62
7
6
CONTINUOUS
10
287.8794850000
20
230.9460310000
11
287.8619890000
21
230.9550850000
0
LINE
8
10000_FRONT
62
7
6
CONTINUOUS
10
292.1768740000
20
230.9460310000
11
292.1593780000
21
230.9550850000
0
LINE
8
10000_FRONT
62
7
6
CONTINUOUS
10
290.6757740000
20
230.7811810000
11
290.6850760000
21
230.7763030000
0
LINE
8
10000_FRONT
62
7
6
CONTINUOUS
10
290.8607350000
20
230.1019030000
11
290.8485950000
21
230.1083190000
0
LINE
8
10000_FRONT
62
7
6
CONTINUOUS
10
290.8279190000
20
230.9102770000
11
290.8147750000
21
230.9176070000
0
LINE
8
10000_FRONT
62
7
6
CONTINUOUS
10
290.7132920000
20
230.0172840000
11
290.7220080000
21
230.0124210000
0
LINE
8
10000_FRONT
62
7
6
CONTINUOUS
10
281.0464100000
20
229.4920710000
11
281.0286660000
21
229.5019980000
0
LINE
8
10000_FRONT
62
7
6
CONTINUOUS
10
283.7192340000
20
229.3336220000
11
283.7366080000
21
229.3238870000
0
LINE
8
10000_FRONT
62
7
6
CONTINUOUS
10
287.3147880000
20
229.3336220000
11
287.3321620000
21
229.3238870000
0
LINE
8
10000_FRONT
62
7
6
CONTINUOUS
10
291.6121770000
20
229.3336220000
11
291.6295510000
21
229.3238870000
0
LINE
8
10000_FRONT
62
7
6
CONTINUOUS
10
284.1640980000
20
230.8114000000
11
284.1758970000
21
230.8047430000
0
LINE
8
10000_FRONT
62
7
6
CONTINUOUS
10
287.7596520000
20
230.8114000000
11
287.7714510000
21
230.8047430000
0
LINE
8
10000_FRONT
62
7
6
CONTINUOUS
10
292.0570410000
20
230.8114000000
11
292.0688400000
21
230.8047430000
0
LINE
8
10000_FRONT
62
7
6
CONTINUOUS
10
290.8726630000
20
230.0951050000
11
290.8607350000
21
230.1019030000
0
LINE
8
10000_FRONT
62
7
6
CONTINUOUS
10
283.8432330000
20
229.4635320000
11
283.8316180000
21
229.4702030000
0
LINE
8
10000_FRONT
62
7
6
CONTINUOUS
10
287.4387870000
20
229.4635320000
11
287.4271720000
21
229.4702030000
0
LINE
8
10000_FRONT
62
7
6
CONTINUOUS
10
291.7361750000
20
229.4635320000
11
291.7245610000
21
229.4702030000
0
LINE
8
10000_FRONT
62
7
6
CONTINUOUS
10
284.3009460000
20
230.9362400000
11
284.2839310000
21
230.9460310000
0
LINE
8
10000_FRONT
62
7
6
CONTINUOUS
10
287.8965000000
20
230.9362400000
11
287.8794850000
21
230.9460310000
0
LINE
8
10000_FRONT
62
7
6
CONTINUOUS
10
292.1938890000
20
230.9362400000
11
292.1768740000
21
230.9460310000
0
LINE
8
12000_RIGHT
62
7
6
CONTINUOUS
10
93.8902450000
20
345.5887250000
11
92.5510140000
21
346.3619300000
0
LINE
8
10000_FRONT
62
7
6
CONTINUOUS
10
280.8970610000
20
229.3707220000
11
280.9184400000
21
229.3583690000
0
LINE
8
10000_FRONT
62
7
6
CONTINUOUS
10
290.6850760000
20
230.7763030000
11
290.6919080000
21
230.7723320000
0
LINE
8
10000_FRONT
62
7
6
CONTINUOUS
10
290.7220080000
20
230.0124210000
11
290.7305460000
21
230.0072570000
0
LINE
8
10000_FRONT
62
7
6
CONTINUOUS
10
290.8407720000
20
230.9024060000
11
290.8279190000
21
230.9102770000
0
LINE
8
10000_FRONT
62
7
6
CONTINUOUS
10
281.0286660000
20
229.5019980000
11
281.0113300000
21
229.5126300000
0
LINE
8
10000_FRONT
62
7
6
CONTINUOUS
10
290.8843620000
20
230.0879310000
11
290.8726630000
21
230.0951050000
0
LINE
8
10000_FRONT
62
7
6
CONTINUOUS
10
283.7022700000
20
229.3440730000
11
283.7192340000
21
229.3336220000
0
LINE
8
10000_FRONT
62
7
6
CONTINUOUS
10
287.2978240000
20
229.3440730000
11
287.3147880000
21
229.3336220000
0
LINE
8
10000_FRONT
62
7
6
CONTINUOUS
10
291.5952130000
20
229.3440730000
11
291.6121770000
21
229.3336220000
0
LINE
8
10000_FRONT
62
7
6
CONTINUOUS
10
284.1758970000
20
230.8047430000
11
284.1873980000
21
230.7975780000
0
LINE
8
10000_FRONT
62
7
6
CONTINUOUS
10
287.7714510000
20
230.8047430000
11
287.7829520000
21
230.7975780000
0
LINE
8
10000_FRONT
62
7
6
CONTINUOUS
10
292.0688400000
20
230.8047430000
11
292.0803410000
21
230.7975780000
0
LINE
8
10000_FRONT
62
7
6
CONTINUOUS
10
280.8761370000
20
229.3838400000
11
280.8970610000
21
229.3707220000
0
LINE
8
10000_FRONT
62
7
6
CONTINUOUS
10
290.6919080000
20
230.7723320000
11
290.6985990000
21
230.7680990000
0
LINE
8
10000_FRONT
62
7
6
CONTINUOUS
10
283.8316180000
20
229.4702030000
11
283.8202980000
21
229.4773780000
0
LINE
8
10000_FRONT
62
7
6
CONTINUOUS
10
287.4271720000
20
229.4702030000
11
287.4158520000
21
229.4773780000
0
LINE
8
10000_FRONT
62
7
6
CONTINUOUS
10
291.7245610000
20
229.4702030000
11
291.7132410000
21
229.4773780000
0
LINE
8
10000_FRONT
62
7
6
CONTINUOUS
10
284.3174390000
20
230.9257020000
11
284.3009460000
21
230.9362400000
0
LINE
8
10000_FRONT
62
7
6
CONTINUOUS
10
287.9129930000
20
230.9257020000
11
287.8965000000
21
230.9362400000
0
LINE
8
10000_FRONT
62
7
6
CONTINUOUS
10
292.2103820000
20
230.9257020000
11
292.1938890000
21
230.9362400000
0
LINE
8
10000_FRONT
62
7
6
CONTINUOUS
10
290.7305460000
20
230.0072570000
11
290.7388860000
21
230.0017890000
0
LINE
8
10000_FRONT
62
7
6
CONTINUOUS
10
290.8952190000
20
230.0807940000
11
290.8843620000
21
230.0879310000
0
LINE
8
10000_FRONT
62
7
6
CONTINUOUS
10
290.8514460000
20
230.8952860000
11
290.8407720000
21
230.9024060000
0
LINE
8
10000_FRONT
62
7
6
CONTINUOUS
10
281.0113300000
20
229.5126300000
11
280.9944190000
21
229.5239390000
0
LINE
8
10000_FRONT
62
7
6
CONTINUOUS
10
283.6857530000
20
229.3552200000
11
283.7022700000
21
229.3440730000
0
LINE
8
10000_FRONT
62
7
6
CONTINUOUS
10
287.2813070000
20
229.3552200000
11
287.2978240000
21
229.3440730000
0
LINE
8
10000_FRONT
62
7
6
CONTINUOUS
10
291.5786960000
20
229.3552200000
11
291.5952130000
21
229.3440730000
0
LINE
8
10000_FRONT
62
7
6
CONTINUOUS
10
280.8556850000
20
229.3976940000
11
280.8761370000
21
229.3838400000
0
LINE
8
10000_FRONT
62
7
6
CONTINUOUS
10
284.1873980000
20
230.7975780000
11
284.1985760000
21
230.7899220000
0
LINE
8
10000_FRONT
62
7
6
CONTINUOUS
10
287.7829520000
20
230.7975780000
11
287.7941300000
21
230.7899220000
0
LINE
8
10000_FRONT
62
7
6
CONTINUOUS
10
292.0803410000
20
230.7975780000
11
292.0915190000
21
230.7899220000
0
LINE
8
10000_FRONT
62
7
6
CONTINUOUS
10
290.6985990000
20
230.7680990000
11
290.7051340000
21
230.7636140000
0
LINE
8
10000_FRONT
62
7
6
CONTINUOUS
10
283.8202980000
20
229.4773780000
11
283.8092960000
21
229.4850390000
0
LINE
8
10000_FRONT
62
7
6
CONTINUOUS
10
287.4158520000
20
229.4773780000
11
287.4048500000
21
229.4850390000
0
LINE
8
10000_FRONT
62
7
6
CONTINUOUS
10
291.7132410000
20
229.4773780000
11
291.7022390000
21
229.4850390000
0
LINE
8
10000_FRONT
62
7
6
CONTINUOUS
10
290.9058370000
20
230.0733340000
11
290.8952190000
21
230.0807940000
0
LINE
8
10000_FRONT
62
7
6
CONTINUOUS
10
284.3333700000
20
230.9144030000
11
284.3174390000
21
230.9257020000
0
LINE
8
10000_FRONT
62
7
6
CONTINUOUS
10
287.9289240000
20
230.9144030000
11
287.9129930000
21
230.9257020000
0
LINE
8
10000_FRONT
62
7
6
CONTINUOUS
10
292.2263130000
20
230.9144030000
11
292.2103820000
21
230.9257020000
0
LINE
8
10000_FRONT
62
7
6
CONTINUOUS
10
290.7388860000
20
230.0017890000
11
290.7470080000
21
229.9960150000
0
LINE
8
10000_FRONT
62
7
6
CONTINUOUS
10
290.8618790000
20
230.8877750000
11
290.8514460000
21
230.8952860000
0
LINE
8
10000_FRONT
62
7
6
CONTINUOUS
10
280.9944190000
20
229.5239390000
11
280.9779510000
21
229.5358970000
0
LINE
8
10000_FRONT
62
7
6
CONTINUOUS
10
280.8357190000
20
229.4122560000
11
280.8556850000
21
229.3976940000
0
LINE
8
10000_FRONT
62
7
6
CONTINUOUS
10
283.6697180000
20
229.3670420000
11
283.6857530000
21
229.3552200000
0
LINE
8
10000_FRONT
62
7
6
CONTINUOUS
10
287.2652720000
20
229.3670420000
11
287.2813070000
21
229.3552200000
0
LINE
8
10000_FRONT
62
7
6
CONTINUOUS
10
291.5626610000
20
229.3670420000
11
291.5786960000
21
229.3552200000
0
LINE
8
10000_FRONT
62
7
6
CONTINUOUS
10
290.7051340000
20
230.7636140000
11
290.7115020000
21
230.7588820000
0
LINE
8
10000_FRONT
62
7
6
CONTINUOUS
10
290.9161990000
20
230.0655580000
11
290.9058370000
21
230.0733340000
0
LINE
8
10000_FRONT
62
7
6
CONTINUOUS
10
284.1985760000
20
230.7899220000
11
284.2094070000
21
230.7817920000
0
LINE
8
10000_FRONT
62
7
6
CONTINUOUS
10
287.7941300000
20
230.7899220000
11
287.8049610000
21
230.7817920000
0
LINE
8
10000_FRONT
62
7
6
CONTINUOUS
10
292.0915190000
20
230.7899220000
11
292.1023500000
21
230.7817920000
0
LINE
8
10000_FRONT
62
7
6
CONTINUOUS
10
283.8092960000
20
229.4850390000
11
283.7986360000
21
229.4931650000
0
LINE
8
10000_FRONT
62
7
6
CONTINUOUS
10
287.4048500000
20
229.4850390000
11
287.3941900000
21
229.4931650000
0
LINE
8
10000_FRONT
62
7
6
CONTINUOUS
10
291.7022390000
20
229.4850390000
11
291.6915790000
21
229.4931650000
0
LINE
8
10000_FRONT
62
7
6
CONTINUOUS
10
290.7470080000
20
229.9960150000
11
290.7548930000
21
229.9899330000
0
LINE
8
10000_FRONT
62
7
6
CONTINUOUS
10
290.8720580000
20
230.8798860000
11
290.8618790000
21
230.8877750000
0
LINE
8
10000_FRONT
62
7
6
CONTINUOUS
10
280.8162540000
20
229.4274980000
11
280.8357190000
21
229.4122560000
0
LINE
8
10000_FRONT
62
7
6
CONTINUOUS
10
280.9779510000
20
229.5358970000
11
280.9619430000
21
229.5484770000
0
LINE
8
10000_FRONT
62
7
6
CONTINUOUS
10
284.3493550000
20
230.9018050000
11
284.3333700000
21
230.9144030000
0
LINE
8
10000_FRONT
62
7
6
CONTINUOUS
10
287.9449090000
20
230.9018050000
11
287.9289240000
21
230.9144030000
0
LINE
8
10000_FRONT
62
7
6
CONTINUOUS
10
292.2422980000
20
230.9018050000
11
292.2263130000
21
230.9144030000
0
LINE
8
10000_FRONT
62
7
6
CONTINUOUS
10
290.9262890000
20
230.0574720000
11
290.9161990000
21
230.0655580000
0
LINE
8
10000_FRONT
62
7
6
CONTINUOUS
10
290.7115020000
20
230.7588820000
11
290.7176920000
21
230.7539120000
0
LINE
8
10000_FRONT
62
7
6
CONTINUOUS
10
283.6542020000
20
229.3795200000
11
283.6697180000
21
229.3670420000
0
LINE
8
10000_FRONT
62
7
6
CONTINUOUS
10
287.2497560000
20
229.3795200000
11
287.2652720000
21
229.3670420000
0
LINE
8
10000_FRONT
62
7
6
CONTINUOUS
10
291.5471450000
20
229.3795200000
11
291.5626610000
21
229.3670420000
0
LINE
8
10000_FRONT
62
7
6
CONTINUOUS
10
284.2094070000
20
230.7817920000
11
284.2198660000
21
230.7732030000
0
LINE
8
10000_FRONT
62
7
6
CONTINUOUS
10
287.8049610000
20
230.7817920000
11
287.8154200000
21
230.7732030000
0
LINE
8
10000_FRONT
62
7
6
CONTINUOUS
10
292.1023500000
20
230.7817920000
11
292.1128080000
21
230.7732030000
0
LINE
8
10000_FRONT
62
7
6
CONTINUOUS
10
283.7986360000
20
229.4931650000
11
283.7883410000
21
229.5017360000
0
LINE
8
10000_FRONT
62
7
6
CONTINUOUS
10
287.3941900000
20
229.4931650000
11
287.3838950000
21
229.5017360000
0
LINE
8
10000_FRONT
62
7
6
CONTINUOUS
10
291.6915790000
20
229.4931650000
11
291.6812830000
21
229.5017360000
0
LINE
8
10000_FRONT
62
7
6
CONTINUOUS
10
290.8819660000
20
230.8716350000
11
290.8720580000
21
230.8798860000
0
LINE
8
10000_FRONT
62
7
6
CONTINUOUS
10
290.7548930000
20
229.9899330000
11
290.7625200000
21
229.9835420000
0
LINE
8
10000_FRONT
62
7
6
CONTINUOUS
10
280.7973040000
20
229.4433890000
11
280.8162540000
21
229.4274980000
0
LINE
8
10000_FRONT
62
7
6
CONTINUOUS
10
280.9619430000
20
229.5484770000
11
280.9464100000
21
229.5616490000
0
LINE
8
10000_FRONT
62
7
6
CONTINUOUS
10
290.9360910000
20
230.0490830000
11
290.9262890000
21
230.0574720000
0
LINE
8
10000_FRONT
62
7
6
CONTINUOUS
10
290.7176920000
20
230.7539120000
11
290.7236900000
21
230.7487110000
0
LINE
8
10000_FRONT
62
7
6
CONTINUOUS
10
284.3646960000
20
230.8884120000
11
284.3493550000
21
230.9018050000
0
LINE
8
10000_FRONT
62
7
6
CONTINUOUS
10
287.9602500000
20
230.8884120000
11
287.9449090000
21
230.9018050000
0
LINE
8
10000_FRONT
62
7
6
CONTINUOUS
10
292.2576390000
20
230.8884120000
11
292.2422980000
21
230.9018050000
0
LINE
8
10000_FRONT
62
7
6
CONTINUOUS
10
283.6392410000
20
229.3926320000
11
283.6542020000
21
229.3795200000
0
LINE
8
10000_FRONT
62
7
6
CONTINUOUS
10
287.2347950000
20
229.3926320000
11
287.2497560000
21
229.3795200000
0
LINE
8
10000_FRONT
62
7
6
CONTINUOUS
10
291.5321830000
20
229.3926320000
11
291.5471450000
21
229.3795200000
0
LINE
8
10000_FRONT
62
7
6
CONTINUOUS
10
290.8915880000
20
230.8630340000
11
290.8819660000
21
230.8716350000
0
LINE
8
10000_FRONT
62
7
6
CONTINUOUS
10
280.7788850000
20
229.4599020000
11
280.7973040000
21
229.4433890000
0
LINE
8
10000_FRONT
62
7
6
CONTINUOUS
10
284.2198660000
20
230.7732030000
11
284.2299280000
21
230.7641720000
0
LINE
8
10000_FRONT
62
7
6
CONTINUOUS
10
287.8154200000
20
230.7732030000
11
287.8254820000
21
230.7641720000
0
LINE
8
10000_FRONT
62
7
6
CONTINUOUS
10
292.1128080000
20
230.7732030000
11
292.1228710000
21
230.7641720000
0
LINE
8
10000_FRONT
62
7
6
CONTINUOUS
10
283.7883410000
20
229.5017360000
11
283.7784340000
21
229.5107340000
0
LINE
8
10000_FRONT
62
7
6
CONTINUOUS
10
287.3838950000
20
229.5017360000
11
287.3739880000
21
229.5107340000
0
LINE
8
10000_FRONT
62
7
6
CONTINUOUS
10
291.6812830000
20
229.5017360000
11
291.6713770000
21
229.5107340000
0
LINE
8
10000_FRONT
62
7
6
CONTINUOUS
10
290.7625200000
20
229.9835420000
11
290.7698690000
21
229.9768410000
0
LINE
8
10000_FRONT
62
7
6
CONTINUOUS
10
280.9464100000
20
229.5616490000
11
280.9313710000
21
229.5753850000
0
LINE
8
10000_FRONT
62
7
6
CONTINUOUS
10
290.9455890000
20
230.0403970000
11
290.9360910000
21
230.0490830000
0
LINE
8
10000_FRONT
62
7
6
CONTINUOUS
10
290.7236900000
20
230.7487110000
11
290.7294860000
21
230.7432880000
0
LINE
8
10000_FRONT
62
7
6
CONTINUOUS
10
283.6248700000
20
229.4063580000
11
283.6392410000
21
229.3926320000
0
LINE
8
10000_FRONT
62
7
6
CONTINUOUS
10
287.2204240000
20
229.4063580000
11
287.2347950000
21
229.3926320000
0
LINE
8
10000_FRONT
62
7
6
CONTINUOUS
10
291.5178130000
20
229.4063580000
11
291.5321830000
21
229.3926320000
0
LINE
8
10000_FRONT
62
7
6
CONTINUOUS
10
280.7610110000
20
229.4770080000
11
280.7788850000
21
229.4599020000
0
LINE
8
10000_FRONT
62
7
6
CONTINUOUS
10
290.9009100000
20
230.8540980000
11
290.8915880000
21
230.8630340000
0
LINE
8
10000_FRONT
62
7
6
CONTINUOUS
10
284.3794040000
20
230.8742700000
11
284.3646960000
21
230.8884120000
0
LINE
8
10000_FRONT
62
7
6
CONTINUOUS
10
287.9749580000
20
230.8742700000
11
287.9602500000
21
230.8884120000
0
LINE
8
10000_FRONT
62
7
6
CONTINUOUS
10
292.2723470000
20
230.8742700000
11
292.2576390000
21
230.8884120000
0
LINE
8
10000_FRONT
62
7
6
CONTINUOUS
10
290.9547670000
20
230.0314210000
11
290.9455890000
21
230.0403970000
0
LINE
8
10000_FRONT
62
7
6
CONTINUOUS
10
284.2299280000
20
230.7641720000
11
284.2404100000
21
230.7538600000
0
LINE
8
10000_FRONT
62
7
6
CONTINUOUS
10
287.8254820000
20
230.7641720000
11
287.8359640000
21
230.7538600000
0
LINE
8
10000_FRONT
62
7
6
CONTINUOUS
10
292.1228710000
20
230.7641720000
11
292.1333530000
21
230.7538600000
0
LINE
8
10000_FRONT
62
7
6
CONTINUOUS
10
283.7784340000
20
229.5107340000
11
283.7680700000
21
229.5210320000
0
LINE
8
10000_FRONT
62
7
6
CONTINUOUS
10
287.3739880000
20
229.5107340000
11
287.3636240000
21
229.5210320000
0
LINE
8
10000_FRONT
62
7
6
CONTINUOUS
10
291.6713770000
20
229.5107340000
11
291.6610130000
21
229.5210320000
0
LINE
8
10000_FRONT
62
7
6
CONTINUOUS
10
290.7698690000
20
229.9768410000
11
290.7769210000
21
229.9698260000
0
LINE
8
10000_FRONT
62
7
6
CONTINUOUS
10
292.3671120000
20
239.7387250000
11
293.8671120000
21
238.2387250000
0
LINE
8
10000_FRONT
62
7
6
CONTINUOUS
10
290.7294860000
20
230.7432880000
11
290.7350660000
21
230.7376490000
0
LINE
8
10000_FRONT
62
7
6
CONTINUOUS
10
290.9099150000
20
230.8448390000
11
290.9009100000
21
230.8540980000
0
LINE
8
10000_FRONT
62
7
6
CONTINUOUS
10
283.6100080000
20
229.4218870000
11
283.6248700000
21
229.4063580000
0
LINE
8
10000_FRONT
62
7
6
CONTINUOUS
10
287.2055620000
20
229.4218870000
11
287.2204240000
21
229.4063580000
0
LINE
8
10000_FRONT
62
7
6
CONTINUOUS
10
291.5029510000
20
229.4218870000
11
291.5178130000
21
229.4063580000
0
LINE
8
10000_FRONT
62
7
6
CONTINUOUS
10
290.9636090000
20
230.0221610000
11
290.9547670000
21
230.0314210000
0
LINE
8
10000_FRONT
62
7
6
CONTINUOUS
10
284.3934920000
20
230.8594240000
11
284.3794040000
21
230.8742700000
0
LINE
8
10000_FRONT
62
7
6
CONTINUOUS
10
287.9890460000
20
230.8594240000
11
287.9749580000
21
230.8742700000
0
LINE
8
10000_FRONT
62
7
6
CONTINUOUS
10
292.2864350000
20
230.8594240000
11
292.2723470000
21
230.8742700000
0
LINE
8
10000_FRONT
62
7
6
CONTINUOUS
10
284.2404100000
20
230.7538600000
11
284.2504020000
21
230.7430810000
0
LINE
8
10000_FRONT
62
7
6
CONTINUOUS
10
287.8359640000
20
230.7538600000
11
287.8459560000
21
230.7430810000
0
LINE
8
10000_FRONT
62
7
6
CONTINUOUS
10
292.1333530000
20
230.7538600000
11
292.1433450000
21
230.7430810000
0
LINE
8
10000_FRONT
62
7
6
CONTINUOUS
10
290.7769210000
20
229.9698260000
11
290.7834130000
21
229.9627770000
0
LINE
8
10000_FRONT
62
7
6
CONTINUOUS
10
283.7680700000
20
229.5210320000
11
283.7581900000
21
229.5317810000
0
LINE
8
10000_FRONT
62
7
6
CONTINUOUS
10
287.3636240000
20
229.5210320000
11
287.3537440000
21
229.5317810000
0
LINE
8
10000_FRONT
62
7
6
CONTINUOUS
10
291.6610130000
20
229.5210320000
11
291.6511330000
21
229.5317810000
0
LINE
8
10000_FRONT
62
7
6
CONTINUOUS
10
290.7350660000
20
230.7376490000
11
290.7404180000
21
230.7318020000
0
LINE
8
10000_FRONT
62
7
6
CONTINUOUS
10
290.9185890000
20
230.8352730000
11
290.9099150000
21
230.8448390000
0
LINE
8
10000_FRONT
62
7
6
CONTINUOUS
10
290.9720980000
20
230.0126250000
11
290.9636090000
21
230.0221610000
0
LINE
8
10000_FRONT
62
7
6
CONTINUOUS
10
287.1914220000
20
229.4380630000
11
287.2055620000
21
229.4218870000
0
LINE
8
10000_FRONT
62
7
6
CONTINUOUS
10
291.4888110000
20
229.4380630000
11
291.5029510000
21
229.4218870000
0
LINE
8
10000_FRONT
62
7
6
CONTINUOUS
10
284.4069710000
20
230.8439220000
11
284.3934920000
21
230.8594240000
0
LINE
8
10000_FRONT
62
7
6
CONTINUOUS
10
288.0025250000
20
230.8439220000
11
287.9890460000
21
230.8594240000
0
LINE
8
10000_FRONT
62
7
6
CONTINUOUS
10
292.2999140000
20
230.8439220000
11
292.2864350000
21
230.8594240000
0
LINE
8
10000_FRONT
62
7
6
CONTINUOUS
10
284.2504020000
20
230.7430810000
11
284.2599130000
21
230.7318690000
0
LINE
8
10000_FRONT
62
7
6
CONTINUOUS
10
287.8459560000
20
230.7430810000
11
287.8554670000
21
230.7318690000
0
LINE
8
10000_FRONT
62
7
6
CONTINUOUS
10
292.1433450000
20
230.7430810000
11
292.1528560000
21
230.7318690000
0
LINE
8
10000_FRONT
62
7
6
CONTINUOUS
10
290.7834130000
20
229.9627770000
11
290.7896060000
21
229.9554550000
0
LINE
8
10000_FRONT
62
7
6
CONTINUOUS
10
290.7404180000
20
230.7318020000
11
290.7455320000
21
230.7257550000
0
LINE
8
10000_FRONT
62
7
6
CONTINUOUS
10
290.9269160000
20
230.8254120000
11
290.9185890000
21
230.8352730000
0
LINE
8
10000_FRONT
62
7
6
CONTINUOUS
10
287.3537440000
20
229.5317810000
11
287.3443380000
21
229.5429480000
0
LINE
8
10000_FRONT
62
7
6
CONTINUOUS
10
291.6511330000
20
229.5317810000
11
291.6417270000
21
229.5429480000
0
LINE
8
10000_FRONT
62
7
6
CONTINUOUS
10
290.9802190000
20
230.0028190000
11
290.9720980000
21
230.0126250000
0
LINE
8
10000_FRONT
62
7
6
CONTINUOUS
10
287.1779910000
20
229.4548390000
11
287.1914220000
21
229.4380630000
0
LINE
8
10000_FRONT
62
7
6
CONTINUOUS
10
291.4753800000
20
229.4548390000
11
291.4888110000
21
229.4380630000
0
LINE
8
10000_FRONT
62
7
6
CONTINUOUS
10
284.4198510000
20
230.8278080000
11
284.4069710000
21
230.8439220000
0
LINE
8
10000_FRONT
62
7
6
CONTINUOUS
10
288.0154050000
20
230.8278080000
11
288.0025250000
21
230.8439220000
0
LINE
8
10000_FRONT
62
7
6
CONTINUOUS
10
292.3127940000
20
230.8278080000
11
292.2999140000
21
230.8439220000
0
LINE
8
10000_FRONT
62
7
6
CONTINUOUS
10
290.9348810000
20
230.8152710000
11
290.9269160000
21
230.8254120000
0
LINE
8
10000_FRONT
62
7
6
CONTINUOUS
10
290.7455320000
20
230.7257550000
11
290.7503940000
21
230.7195160000
0
LINE
8
10000_FRONT
62
7
6
CONTINUOUS
10
287.8554670000
20
230.7318690000
11
287.8645060000
21
230.7202610000
0
LINE
8
10000_FRONT
62
7
6
CONTINUOUS
10
292.1528560000
20
230.7318690000
11
292.1618950000
21
230.7202610000
0
LINE
8
10000_FRONT
62
7
6
CONTINUOUS
10
290.7896060000
20
229.9554550000
11
290.7954980000
21
229.9478780000
0
LINE
8
10000_FRONT
62
7
6
CONTINUOUS
10
287.3443380000
20
229.5429480000
11
287.3353970000
21
229.5544980000
0
LINE
8
10000_FRONT
62
7
6
CONTINUOUS
10
291.6417270000
20
229.5429480000
11
291.6327860000
21
229.5544980000
0
LINE
8
10000_FRONT
62
7
6
CONTINUOUS
10
290.9879550000
20
229.9927490000
11
290.9802190000
21
230.0028190000
0
LINE
8
10000_FRONT
62
7
6
CONTINUOUS
10
288.0276990000
20
230.8111270000
11
288.0154050000
21
230.8278080000
0
LINE
8
10000_FRONT
62
7
6
CONTINUOUS
10
292.3250880000
20
230.8111270000
11
292.3127940000
21
230.8278080000
0
LINE
8
10000_FRONT
62
7
6
CONTINUOUS
10
287.1652560000
20
229.4721650000
11
287.1779910000
21
229.4548390000
0
LINE
8
10000_FRONT
62
7
6
CONTINUOUS
10
291.4626450000
20
229.4721650000
11
291.4753800000
21
229.4548390000
0
LINE
8
10000_FRONT
62
7
6
CONTINUOUS
10
290.9424690000
20
230.8048630000
11
290.9348810000
21
230.8152710000
0
LINE
8
10000_FRONT
62
7
6
CONTINUOUS
10
276.9695150000
20
244.1870350000
11
277.2052000000
21
243.8620110000
0
LINE
8
10000_FRONT
62
7
6
CONTINUOUS
10
277.7647090000
20
245.8904150000
11
277.5290240000
21
246.2154380000
0
LINE
8
10000_FRONT
62
7
6
CONTINUOUS
10
287.8645060000
20
230.7202610000
11
287.8730820000
21
230.7082920000
0
LINE
8
10000_FRONT
62
7
6
CONTINUOUS
10
292.1618950000
20
230.7202610000
11
292.1704710000
21
230.7082920000
0
LINE
8
10000_FRONT
62
7
6
CONTINUOUS
10
290.7954980000
20
229.9478780000
11
290.8010840000
21
229.9400630000
0
LINE
8
10000_FRONT
62
7
6
CONTINUOUS
10
287.3353970000
20
229.5544980000
11
287.3269120000
21
229.5663980000
0
LINE
8
10000_FRONT
62
7
6
CONTINUOUS
10
291.6327860000
20
229.5544980000
11
291.6243010000
21
229.5663980000
0
LINE
8
10000_FRONT
62
7
6
CONTINUOUS
10
290.7503940000
20
230.7195160000
11
290.7557860000
21
230.7119320000
0
LINE
8
10000_FRONT
62
7
6
CONTINUOUS
10
290.9952900000
20
229.9824210000
11
290.9879550000
21
229.9927490000
0
LINE
8
10000_FRONT
62
7
6
CONTINUOUS
10
288.0394170000
20
230.7939270000
11
288.0276990000
21
230.8111270000
0
LINE
8
10000_FRONT
62
7
6
CONTINUOUS
10
292.3368060000
20
230.7939270000
11
292.3250880000
21
230.8111270000
0
LINE
8
10000_FRONT
62
7
6
CONTINUOUS
10
291.4505920000
20
229.4899950000
11
291.4626450000
21
229.4721650000
0
LINE
8
10000_FRONT
62
7
6
CONTINUOUS
10
290.9496640000
20
230.7942020000
11
290.9424690000
21
230.8048630000
0
LINE
8
10000_FRONT
62
7
6
CONTINUOUS
10
287.8730820000
20
230.7082920000
11
287.8812030000
21
230.6959990000
0
LINE
8
10000_FRONT
62
7
6
CONTINUOUS
10
292.1704710000
20
230.7082920000
11
292.1785920000
21
230.6959990000
0
LINE
8
10000_FRONT
62
7
6
CONTINUOUS
10
291.6243010000
20
229.5663980000
11
291.6162640000
21
229.5786140000
0
LINE
8
10000_FRONT
62
7
6
CONTINUOUS
10
290.8010840000
20
229.9400630000
11
290.8063610000
21
229.9320300000
0
LINE
8
10000_FRONT
62
7
6
CONTINUOUS
10
291.0022090000
20
229.9718440000
11
290.9952900000
21
229.9824210000
0
LINE
8
10000_FRONT
62
7
6
CONTINUOUS
10
290.7557860000
20
230.7119320000
11
290.7608230000
21
230.7041120000
0
LINE
8
10000_FRONT
62
7
6
CONTINUOUS
10
288.0505720000
20
230.7762530000
11
288.0394170000
21
230.7939270000
0
LINE
8
10000_FRONT
62
7
6
CONTINUOUS
10
292.3479610000
20
230.7762530000
11
292.3368060000
21
230.7939270000
0
LINE
8
10000_FRONT
62
7
6
CONTINUOUS
10
290.9564510000
20
230.7833020000
11
290.9496640000
21
230.7942020000
0
LINE
8
10000_FRONT
62
7
6
CONTINUOUS
10
291.4392090000
20
229.5082780000
11
291.4505920000
21
229.4899950000
0
LINE
8
10000_FRONT
62
7
6
CONTINUOUS
10
287.8812030000
20
230.6959990000
11
287.8888790000
21
230.6834170000
0
LINE
8
10000_FRONT
62
7
6
CONTINUOUS
10
292.1785920000
20
230.6959990000
11
292.1862680000
21
230.6834170000
0
LINE
8
10000_FRONT
62
7
6
CONTINUOUS
10
291.6162640000
20
229.5786140000
11
291.6086640000
21
229.5911110000
0
LINE
8
10000_FRONT
62
7
6
CONTINUOUS
10
290.8063610000
20
229.9320300000
11
290.8113240000
21
229.9237950000
0
LINE
8
10000_FRONT
62
7
6
CONTINUOUS
10
291.0086950000
20
229.9610220000
11
291.0022090000
21
229.9718440000
0
LINE
8
10000_FRONT
62
7
6
CONTINUOUS
10
292.3585630000
20
230.7581490000
11
292.3479610000
21
230.7762530000
0
LINE
8
10000_FRONT
62
7
6
CONTINUOUS
10
290.7608230000
20
230.7041120000
11
290.7655160000
21
230.6960770000
0
LINE
8
10000_FRONT
62
7
6
CONTINUOUS
10
291.4284820000
20
229.5269670000
11
291.4392090000
21
229.5082780000
0
LINE
8
10000_FRONT
62
7
6
CONTINUOUS
10
290.9628160000
20
230.7721770000
11
290.9564510000
21
230.7833020000
0
LINE
8
10000_FRONT
62
7
6
CONTINUOUS
10
292.1862680000
20
230.6834170000
11
292.1935080000
21
230.6705820000
0
LINE
8
10000_FRONT
62
7
6
CONTINUOUS
10
291.6086640000
20
229.5911110000
11
291.6014930000
21
229.6038560000
0
LINE
8
10000_FRONT
62
7
6
CONTINUOUS
10
290.8113240000
20
229.9237950000
11
290.8159700000
21
229.9153780000
0
LINE
8
10000_FRONT
62
7
6
CONTINUOUS
10
291.0147310000
20
229.9499640000
11
291.0086950000
21
229.9610220000
0
LINE
8
10000_FRONT
62
7
6
CONTINUOUS
10
292.3686240000
20
230.7396640000
11
292.3585630000
21
230.7581490000
0
LINE
8
10000_FRONT
62
7
6
CONTINUOUS
10
290.7655160000
20
230.6960770000
11
290.7698740000
21
230.6878480000
0
LINE
8
10000_FRONT
62
7
6
CONTINUOUS
10
291.4183980000
20
229.5460130000
11
291.4284820000
21
229.5269670000
0
LINE
8
10000_FRONT
62
7
6
CONTINUOUS
10
290.9687420000
20
230.7608390000
11
290.9628160000
21
230.7721770000
0
LINE
8
10000_FRONT
62
7
6
CONTINUOUS
10
292.1935080000
20
230.6705820000
11
292.2003190000
21
230.6575300000
0
LINE
8
10000_FRONT
62
7
6
CONTINUOUS
10
291.6014930000
20
229.6038560000
11
291.5947420000
21
229.6168150000
0
LINE
8
10000_FRONT
62
7
6
CONTINUOUS
10
292.3781560000
20
230.7208410000
11
292.3686240000
21
230.7396640000
0
LINE
8
10000_FRONT
62
7
6
CONTINUOUS
10
290.8159700000
20
229.9153780000
11
290.8202950000
21
229.9067960000
0
LINE
8
10000_FRONT
62
7
6
CONTINUOUS
10
291.0210040000
20
229.9371820000
11
291.0147310000
21
229.9499640000
0
LINE
8
10000_FRONT
62
7
6
CONTINUOUS
10
291.4089440000
20
229.5653680000
11
291.4183980000
21
229.5460130000
0
LINE
8
10000_FRONT
62
7
6
CONTINUOUS
10
290.7698740000
20
230.6878480000
11
290.7739080000
21
230.6794440000
0
LINE
8
10000_FRONT
62
7
6
CONTINUOUS
10
292.2003190000
20
230.6575300000
11
292.2087730000
21
230.6398040000
0
LINE
8
10000_FRONT
62
7
6
CONTINUOUS
10
291.5947420000
20
229.6168150000
11
291.5862250000
21
229.6347050000
0
LINE
8
10000_FRONT
62
7
6
CONTINUOUS
10
290.9749290000
20
230.7477250000
11
290.9687420000
21
230.7608390000
0
LINE
8
10000_FRONT
62
7
6
CONTINUOUS
10
292.3871690000
20
230.7017260000
11
292.3781560000
21
230.7208410000
0
LINE
8
10000_FRONT
62
7
6
CONTINUOUS
10
291.4001070000
20
229.5849830000
11
291.4089440000
21
229.5653680000
0
LINE
8
10000_FRONT
62
7
6
CONTINUOUS
10
292.3956760000
20
230.6823670000
11
292.3871690000
21
230.7017260000
0
LINE
8
10000_FRONT
62
7
6
CONTINUOUS
10
292.2087730000
20
230.6398040000
11
292.2165240000
21
230.6217860000
0
LINE
8
10000_FRONT
62
7
6
CONTINUOUS
10
292.4036870000
20
230.6628070000
11
292.3956760000
21
230.6823670000
0
LINE
8
10000_FRONT
62
7
6
CONTINUOUS
10
292.2165240000
20
230.6217860000
11
292.2236170000
21
230.6035110000
0
LINE
8
10000_FRONT
62
7
6
CONTINUOUS
10
292.4112140000
20
230.6430940000
11
292.4036870000
21
230.6628070000
0
LINE
8
11000_LEFT
62
7
6
CONTINUOUS
10
475.3492550000
20
352.4678910000
11
475.3887640000
21
352.5127650000
0
LINE
8
11000_LEFT
62
7
6
CONTINUOUS
10
475.3219720000
20
348.8095580000
11
475.2824630000
21
348.7646840000
0
LINE
8
11000_LEFT
62
7
6
CONTINUOUS
10
474.3356130000
20
354.1562870000
11
474.0356430000
21
353.8520990000
0
LINE
8
13000_TOP
62
7
6
CONTINUOUS
10
252.4313440000
20
127.4505860000
11
252.7271550000
21
127.7505570000
0
LINE
8
13000_TOP
62
7
6
CONTINUOUS
10
257.4379450000
20
119.0369150000
11
257.3930710000
21
118.9974060000
0
LINE
8
13000_TOP
62
7
6
CONTINUOUS
10
240.2171120000
20
152.5505570000
11
242.2171120000
21
153.3505570000
0
LINE
8
10000_FRONT
62
7
6
CONTINUOUS
10
281.1429210000
20
230.8253580000
11
281.1561980000
21
230.8291200000
0
LINE
8
10000_FRONT
62
7
6
CONTINUOUS
10
283.8533290000
20
230.9940280000
11
283.8312240000
21
230.9880160000
0
LINE
8
10000_FRONT
62
7
6
CONTINUOUS
10
281.1103950000
20
230.9861200000
11
281.0858510000
21
230.9794880000
0
LINE
8
10000_FRONT
62
7
6
CONTINUOUS
10
281.1561980000
20
230.8291200000
11
281.1695640000
21
230.8325290000
0
LINE
8
10000_FRONT
62
7
6
CONTINUOUS
10
281.1369000000
20
230.9923180000
11
281.1103950000
21
230.9861200000
0
LINE
8
10000_FRONT
62
7
6
CONTINUOUS
10
281.1695640000
20
230.8325290000
11
281.1830090000
21
230.8355940000
0
LINE
8
10000_FRONT
62
7
6
CONTINUOUS
10
281.1830090000
20
230.8355940000
11
281.1965260000
21
230.8383260000
0
LINE
8
10000_FRONT
62
7
6
CONTINUOUS
10
281.1635950000
20
230.9976010000
11
281.1369000000
21
230.9923180000
0
LINE
8
10000_FRONT
62
7
6
CONTINUOUS
10
277.9058990000
20
244.2685510000
11
278.3052200000
21
244.3101480000
0
LINE
8
10000_FRONT
62
7
6
CONTINUOUS
10
276.8283250000
20
245.8088990000
11
276.4290040000
21
245.7673010000
0
LINE
8
11000_LEFT
62
7
6
CONTINUOUS
10
474.3356130000
20
237.4563160000
11
462.3356130000
21
237.2887540000
0
LINE
8
10000_FRONT
62
7
6
CONTINUOUS
10
282.9792890000
20
234.0254910000
11
282.2738550000
21
234.0254910000
0
LINE
8
10000_FRONT
62
7
6
CONTINUOUS
10
302.4171120000
20
234.0387250000
11
300.4779070000
21
234.0387250000
0
LINE
8
10000_FRONT
62
7
6
CONTINUOUS
10
274.9531770000
20
234.1874530000
11
275.1751250000
21
234.1874530000
0
LINE
8
10000_FRONT
62
7
6
CONTINUOUS
10
276.8067410000
20
234.1874530000
11
277.0550830000
21
234.1874530000
0
LINE
8
10000_FRONT
62
7
6
CONTINUOUS
10
277.9188790000
20
234.1874530000
11
278.1156330000
21
234.1874530000
0
LINE
8
10000_FRONT
62
7
6
CONTINUOUS
10
279.1713850000
20
234.1874530000
11
279.3681380000
21
234.1874530000
0
LINE
8
10000_FRONT
62
7
6
CONTINUOUS
10
280.4238900000
20
234.1874530000
11
280.6206440000
21
234.1874530000
0
LINE
8
10000_FRONT
62
7
6
CONTINUOUS
10
281.4388510000
20
234.1874530000
11
281.6356050000
21
234.1874530000
0
LINE
8
10000_FRONT
62
7
6
CONTINUOUS
10
282.0771010000
20
234.1874530000
11
282.9792890000
21
234.1874530000
0
LINE
8
10000_FRONT
62
7
6
CONTINUOUS
10
253.6271550000
20
234.7487680000
11
252.7271550000
21
234.7487680000
0
LINE
8
10000_FRONT
62
7
6
CONTINUOUS
10
254.0516470000
20
235.4327650000
11
253.1111520000
21
235.4327650000
0
LINE
8
11000_LEFT
62
7
6
CONTINUOUS
10
459.3356130000
20
235.9151130000
11
460.8356130000
21
235.9151130000
0
LINE
8
12000_RIGHT
62
7
6
CONTINUOUS
10
79.8510140000
20
236.0387250000
11
84.4510140000
21
236.0387250000
0
LINE
8
12000_RIGHT
62
7
6
CONTINUOUS
10
86.9510140000
20
236.1415010000
11
84.7510140000
21
236.1415010000
0
LINE
8
12000_RIGHT
62
7
6
CONTINUOUS
10
79.8510140000
20
236.5387250000
11
84.7510140000
21
236.5387250000
0
LINE
8
10000_FRONT
62
7
6
CONTINUOUS
10
294.8171120000
20
236.5387250000
11
302.4171120000
21
236.5387250000
0
LINE
8
10000_FRONT
62
7
6
CONTINUOUS
10
250.3171120000
20
236.7387250000
11
252.4313440000
21
236.7387250000
0
LINE
8
12000_RIGHT
62
7
6
CONTINUOUS
10
83.6510140000
20
236.8387250000
11
79.6510140000
21
236.8387250000
0
LINE
8
12000_RIGHT
62
7
6
CONTINUOUS
10
49.2510140000
20
236.8387250000
11
71.9510140000
21
236.8387250000
0
LINE
8
10000_FRONT
62
7
6
CONTINUOUS
10
252.4313440000
20
236.8387250000
11
262.4171120000
21
236.8387250000
0
LINE
8
10000_FRONT
62
7
6
CONTINUOUS
10
272.3171120000
20
236.8387250000
11
294.8171120000
21
236.8387250000
0
LINE
8
11000_LEFT
62
7
6
CONTINUOUS
10
462.3356130000
20
236.8387250000
11
466.9355840000
21
236.8387250000
0
LINE
8
11000_LEFT
62
7
6
CONTINUOUS
10
474.3356130000
20
236.8387250000
11
497.0356130000
21
236.8387250000
0
LINE
8
11000_LEFT
62
7
6
CONTINUOUS
10
462.3356130000
20
237.0387250000
11
461.1356130000
21
237.0387250000
0
LINE
8
10000_FRONT
62
7
6
CONTINUOUS
10
250.8671120000
20
238.2387250000
11
293.8671120000
21
238.2387250000
0
LINE
8
10000_FRONT
62
7
6
CONTINUOUS
10
298.9171120000
20
239.2875010000
11
294.9171120000
21
239.2875010000
0
LINE
8
10000_FRONT
62
7
6
CONTINUOUS
10
252.3671120000
20
239.7387250000
11
292.3671120000
21
239.7387250000
0
LINE
8
10000_FRONT
62
7
6
CONTINUOUS
10
253.7171120000
20
240.5387250000
11
291.0171120000
21
240.5387250000
0
LINE
8
10000_FRONT
62
7
6
CONTINUOUS
10
298.9171120000
20
240.8148920000
11
294.9171120000
21
240.8148920000
0
LINE
8
12000_RIGHT
62
7
6
CONTINUOUS
10
70.8510140000
20
240.8887250000
11
71.9510140000
21
240.8887250000
0
LINE
8
10000_FRONT
62
7
6
CONTINUOUS
10
266.0671120000
20
240.8887250000
11
281.6671120000
21
240.8887250000
0
LINE
8
10000_FRONT
62
7
6
CONTINUOUS
10
285.0671120000
20
240.8887250000
11
290.8171120000
21
240.8887250000
0
LINE
8
11000_LEFT
62
7
6
CONTINUOUS
10
474.3356130000
20
240.8887250000
11
475.4356130000
21
240.8887250000
0
LINE
8
10000_FRONT
62
7
6
CONTINUOUS
10
285.0671120000
20
241.0387250000
11
281.6671120000
21
241.0387250000
0
LINE
8
10000_FRONT
62
7
6
CONTINUOUS
10
266.0671120000
20
241.0387250000
11
253.6671120000
21
241.0387250000
0
LINE
8
10000_FRONT
62
7
6
CONTINUOUS
10
255.7171120000
20
241.8387250000
11
260.1171120000
21
241.8387250000
0
LINE
8
10000_FRONT
62
7
6
CONTINUOUS
10
260.6171120000
20
241.8387250000
11
265.0171120000
21
241.8387250000
0
LINE
8
12000_RIGHT
62
7
6
CONTINUOUS
10
99.9510140000
20
242.6387250000
11
93.6780630000
21
242.6387250000
0
LINE
8
12000_RIGHT
62
7
6
CONTINUOUS
10
99.9510140000
20
244.1387250000
11
96.4510140000
21
244.1387250000
0
LINE
8
11000_LEFT
62
7
6
CONTINUOUS
10
449.8356130000
20
244.3387250000
11
446.3356130000
21
244.3387250000
0
LINE
8
10000_FRONT
62
7
6
CONTINUOUS
10
249.8171120000
20
244.3387250000
11
242.2171120000
21
244.3387250000
0
LINE
8
10000_FRONT
62
7
6
CONTINUOUS
10
291.1171120000
20
244.5387250000
11
288.1171120000
21
244.5387250000
0
LINE
8
10000_FRONT
62
7
6
CONTINUOUS
10
288.1171120000
20
248.5387250000
11
291.1171120000
21
248.5387250000
0
LINE
8
10000_FRONT
62
7
6
CONTINUOUS
10
255.7171120000
20
250.1387250000
11
260.1171120000
21
250.1387250000
0
LINE
8
10000_FRONT
62
7
6
CONTINUOUS
10
260.6171120000
20
250.1387250000
11
265.0171120000
21
250.1387250000
0
LINE
8
10000_FRONT
62
7
6
CONTINUOUS
10
285.0671120000
20
250.3887250000
11
281.6671120000
21
250.3887250000
0
LINE
8
10000_FRONT
62
7
6
CONTINUOUS
10
266.0671120000
20
250.3887250000
11
253.6171120000
21
250.3887250000
0
LINE
8
10000_FRONT
62
7
6
CONTINUOUS
10
252.4313440000
20
234.7529570000
11
252.7271550000
21
234.7487680000
0
LINE
8
11000_LEFT
62
7
6
CONTINUOUS
10
443.1434130000
20
240.4553590000
11
459.3356130000
21
239.0387250000
0
LINE
8
10000_FRONT
62
7
6
CONTINUOUS
10
276.4290040000
20
244.3101480000
11
276.8283250000
21
244.2685510000
0
LINE
8
10000_FRONT
62
7
6
CONTINUOUS
10
278.3052200000
20
245.7673010000
11
277.9058990000
21
245.8088990000
0
LINE
8
10000_FRONT
62
7
6
CONTINUOUS
10
302.4171120000
20
236.5387250000
11
304.4171120000
21
236.0387250000
0
LINE
8
12000_RIGHT
62
7
6
CONTINUOUS
10
86.9510140000
20
353.4887250000
11
87.4510140000
21
353.2387250000
0
LINE
8
10000_FRONT
62
7
6
CONTINUOUS
10
268.2670920000
20
338.1868620000
11
268.4307280000
21
337.8202410000
0
LINE
8
10000_FRONT
62
7
6
CONTINUOUS
10
270.4671320000
20
337.2905880000
11
270.3034950000
21
337.6572090000
0
LINE
8
10000_FRONT
62
7
6
CONTINUOUS
10
294.7790140000
20
356.7678300000
11
294.8171120000
21
356.5763780000
0
LINE
8
13000_TOP
62
7
6
CONTINUOUS
10
262.1171120000
20
97.0505570000
11
262.4171120000
21
97.3505570000
0
LINE
8
13000_TOP
62
7
6
CONTINUOUS
10
261.0962780000
20
119.0641980000
11
261.1411520000
21
119.1037070000
0
LINE
8
11000_LEFT
62
7
6
CONTINUOUS
10
459.3356130000
20
234.4887250000
11
458.8356130000
21
234.2387250000
0
LINE
8
12000_RIGHT
62
7
6
CONTINUOUS
10
93.7453060000
20
239.6194580000
11
89.9510140000
21
239.2875010000
0
LINE
8
12000_RIGHT
62
7
6
CONTINUOUS
10
86.9510140000
20
239.0387250000
11
89.9101010000
21
239.2976110000
0
LINE
8
12000_RIGHT
62
7
6
CONTINUOUS
10
88.4510140000
20
240.3608520000
11
93.6407190000
21
240.8148920000
0
LINE
8
12000_RIGHT
62
7
6
CONTINUOUS
10
93.6780630000
20
242.6387250000
11
86.9510140000
21
242.0501840000
0
LINE
8
10000_FRONT
62
7
6
CONTINUOUS
10
291.1171120000
20
257.5387250000
11
288.1171120000
21
257.5387250000
0
LINE
8
10000_FRONT
62
7
6
CONTINUOUS
10
256.6171120000
20
257.5387250000
11
253.6171120000
21
257.5387250000
0
LINE
8
10000_FRONT
62
7
6
CONTINUOUS
10
289.9171120000
20
258.7887250000
11
287.8171120000
21
258.7887250000
0
LINE
8
10000_FRONT
62
7
6
CONTINUOUS
10
289.9171120000
20
260.2887250000
11
287.8171120000
21
260.2887250000
0
LINE
8
10000_FRONT
62
7
6
CONTINUOUS
10
253.6171120000
20
261.5387250000
11
256.6171120000
21
261.5387250000
0
LINE
8
10000_FRONT
62
7
6
CONTINUOUS
10
288.1171120000
20
261.5387250000
11
291.1171120000
21
261.5387250000
0
LINE
8
10000_FRONT
62
7
6
CONTINUOUS
10
240.2171120000
20
270.0387250000
11
243.0171120000
21
270.0387250000
0
LINE
8
10000_FRONT
62
7
6
CONTINUOUS
10
291.1171120000
20
270.5387250000
11
288.1171120000
21
270.5387250000
0
LINE
8
10000_FRONT
62
7
6
CONTINUOUS
10
256.6171120000
20
270.5387250000
11
253.6171120000
21
270.5387250000
0
LINE
8
10000_FRONT
62
7
6
CONTINUOUS
10
253.6171120000
20
274.5387250000
11
256.6171120000
21
274.5387250000
0
LINE
8
10000_FRONT
62
7
6
CONTINUOUS
10
288.1171120000
20
274.5387250000
11
291.1171120000
21
274.5387250000
0
LINE
8
11000_LEFT
62
7
6
CONTINUOUS
10
459.3356130000
20
240.7315290000
11
439.7924010000
21
242.4413380000
0
LINE
8
11000_LEFT
62
7
6
CONTINUOUS
10
443.1369220000
20
240.4243090000
11
452.3963830000
21
238.4887250000
0
LINE
8
12000_RIGHT
62
7
6
CONTINUOUS
10
71.0667870000
20
348.7250780000
11
71.1474280000
21
348.6930450000
0
LINE
8
12000_RIGHT
62
7
6
CONTINUOUS
10
70.8352410000
20
352.5523720000
11
70.7546000000
21
352.5844040000
0
LINE
8
10000_FRONT
62
7
6
CONTINUOUS
10
278.4671120000
20
299.0187250000
11
278.1671120000
21
299.3187250000
0
LINE
8
10000_FRONT
62
7
6
CONTINUOUS
10
252.3671120000
20
343.0387250000
11
250.8671120000
21
344.5387250000
0
LINE
8
10000_FRONT
62
7
6
CONTINUOUS
10
268.9695150000
20
336.8870350000
11
269.2052000000
21
336.5620110000
0
LINE
8
10000_FRONT
62
7
6
CONTINUOUS
10
269.7647090000
20
338.5904150000
11
269.5290240000
21
338.9154380000
0
LINE
8
11000_LEFT
62
7
6
CONTINUOUS
10
461.0397120000
20
348.5560330000
11
461.1356130000
21
348.7458770000
0
LINE
8
11000_LEFT
62
7
6
CONTINUOUS
10
460.9396800000
20
348.3615310000
11
461.0397120000
21
348.5560330000
0
LINE
8
11000_LEFT
62
7
6
CONTINUOUS
10
460.8356130000
20
348.1623360000
11
460.9396800000
21
348.3615310000
0
LINE
8
12000_RIGHT
62
7
6
CONTINUOUS
10
103.6717850000
20
240.5334440000
11
93.8902450000
21
238.4887250000
0
LINE
8
12000_RIGHT
62
7
6
CONTINUOUS
10
93.7133970000
20
239.9841790000
11
103.3648620000
21
242.0017080000
0
LINE
8
10000_FRONT
62
7
6
CONTINUOUS
10
291.1171120000
20
283.5387250000
11
288.1171120000
21
283.5387250000
0
LINE
8
10000_FRONT
62
7
6
CONTINUOUS
10
256.6171120000
20
283.5387250000
11
253.6171120000
21
283.5387250000
0
LINE
8
10000_FRONT
62
7
6
CONTINUOUS
10
289.9171120000
20
284.7887250000
11
287.8171120000
21
284.7887250000
0
LINE
8
10000_FRONT
62
7
6
CONTINUOUS
10
289.9171120000
20
286.2887250000
11
287.8171120000
21
286.2887250000
0
LINE
8
10000_FRONT
62
7
6
CONTINUOUS
10
253.6171120000
20
287.5387250000
11
256.6171120000
21
287.5387250000
0
LINE
8
10000_FRONT
62
7
6
CONTINUOUS
10
288.1171120000
20
287.5387250000
11
291.1171120000
21
287.5387250000
0
LINE
8
12000_RIGHT
62
7
6
CONTINUOUS
10
71.1474280000
20
348.6930450000
11
71.2416580000
21
348.6695290000
0
LINE
8
12000_RIGHT
62
7
6
CONTINUOUS
10
70.7546000000
20
352.5844040000
11
70.6603700000
21
352.6079210000
0
LINE
8
10000_FRONT
62
7
6
CONTINUOUS
10
257.2788870000
20
345.8387250000
11
254.4671120000
21
348.6505000000
0
LINE
8
10000_FRONT
62
7
6
CONTINUOUS
10
257.5274150000
20
346.4387250000
11
255.0671120000
21
348.8990280000
0
LINE
8
10000_FRONT
62
7
6
CONTINUOUS
10
263.4671120000
20
352.3784220000
11
261.0068090000
21
354.8387250000
0
LINE
8
10000_FRONT
62
7
6
CONTINUOUS
10
264.0671120000
20
352.6269500000
11
261.2553370000
21
355.4387250000
0
LINE
8
10000_FRONT
62
7
6
CONTINUOUS
10
284.5671120000
20
343.0387250000
11
283.0671120000
21
344.5387250000
0
LINE
8
10000_FRONT
62
7
6
CONTINUOUS
10
294.6701290000
20
356.9305010000
11
294.7790140000
21
356.7678300000
0
LINE
8
90000_FRAME
62
7
6
CONTINUOUS
10
482.9491910000
20
21.5500140000
11
484.6366010000
21
18.6029870000
0
LINE
8
90000_FRAME
62
7
6
CONTINUOUS
10
484.0662090000
20
16.7967450000
11
482.3550320000
21
19.8388370000
0
LINE
8
90000_FRAME
62
7
6
CONTINUOUS
10
472.3969330000
20
16.7492120000
11
471.0660180000
21
19.8388370000
0
LINE
8
11000_LEFT
62
7
6
CONTINUOUS
10
460.9384870000
20
229.2654730000
11
461.0384960000
21
229.3689540000
0
LINE
8
11000_LEFT
62
7
6
CONTINUOUS
10
460.8356130000
20
229.1623360000
11
460.9384870000
21
229.2654730000
0
LINE
8
11000_LEFT
62
7
6
CONTINUOUS
10
475.1392000000
20
348.6930450000
11
475.0449690000
21
348.6695290000
0
LINE
8
11000_LEFT
62
7
6
CONTINUOUS
10
475.5320270000
20
352.5844040000
11
475.6262570000
21
352.6079210000
0
LINE
8
11000_LEFT
62
7
6
CONTINUOUS
10
443.1369220000
20
343.6531400000
11
452.3963830000
21
345.5887250000
0
LINE
8
10000_FRONT
62
7
6
CONTINUOUS
10
291.1171120000
20
296.5387250000
11
288.1171120000
21
296.5387250000
0
LINE
8
10000_FRONT
62
7
6
CONTINUOUS
10
256.6171120000
20
296.5387250000
11
253.6171120000
21
296.5387250000
0
LINE
8
10000_FRONT
62
7
6
CONTINUOUS
10
278.1671120000
20
299.3187250000
11
266.3671120000
21
299.3187250000
0
LINE
8
10000_FRONT
62
7
6
CONTINUOUS
10
253.6171120000
20
300.5387250000
11
256.6171120000
21
300.5387250000
0
LINE
8
10000_FRONT
62
7
6
CONTINUOUS
10
288.1171120000
20
300.5387250000
11
291.1171120000
21
300.5387250000
0
LINE
8
10000_FRONT
62
7
6
CONTINUOUS
10
240.2171120000
20
300.6387250000
11
243.0171120000
21
300.6387250000
0
LINE
8
10000_FRONT
62
7
6
CONTINUOUS
10
249.8171120000
20
303.9387250000
11
242.2171120000
21
303.9387250000
0
LINE
8
11000_LEFT
62
7
6
CONTINUOUS
10
446.3356130000
20
303.9387250000
11
449.8356130000
21
303.9387250000
0
LINE
8
12000_RIGHT
62
7
6
CONTINUOUS
10
96.4510140000
20
304.1387250000
11
99.9510140000
21
304.1387250000
0
LINE
8
10000_FRONT
62
7
6
CONTINUOUS
10
291.1171120000
20
309.5387250000
11
288.1171120000
21
309.5387250000
0
LINE
8
10000_FRONT
62
7
6
CONTINUOUS
10
256.6171120000
20
309.5387250000
11
253.6171120000
21
309.5387250000
0
LINE
8
12000_RIGHT
62
7
6
CONTINUOUS
10
68.9510140000
20
309.8537250000
11
70.5510140000
21
309.8537250000
0
LINE
8
11000_LEFT
62
7
6
CONTINUOUS
10
475.7356130000
20
309.8537250000
11
477.3356130000
21
309.8537250000
0
LINE
8
10000_FRONT
62
7
6
CONTINUOUS
10
289.9171120000
20
310.7887250000
11
287.8171120000
21
310.7887250000
0
LINE
8
10000_FRONT
62
7
6
CONTINUOUS
10
289.9171120000
20
312.2887250000
11
287.8171120000
21
312.2887250000
0
LINE
8
10000_FRONT
62
7
6
CONTINUOUS
10
253.6171120000
20
313.5387250000
11
256.6171120000
21
313.5387250000
0
LINE
8
10000_FRONT
62
7
6
CONTINUOUS
10
288.1171120000
20
313.5387250000
11
291.1171120000
21
313.5387250000
0
LINE
8
12000_RIGHT
62
7
6
CONTINUOUS
10
71.2416580000
20
348.6695290000
11
71.3442920000
21
348.6552720000
0
LINE
8
12000_RIGHT
62
7
6
CONTINUOUS
10
93.6812710000
20
344.0999860000
11
103.3648620000
21
342.0757420000
0
LINE
8
12000_RIGHT
62
7
6
CONTINUOUS
10
103.6717850000
20
343.5440050000
11
93.8902450000
21
345.5887250000
0
LINE
8
11000_LEFT
62
7
6
CONTINUOUS
10
459.3356130000
20
230.5887250000
11
458.8356130000
21
230.8387250000
0
LINE
8
11000_LEFT
62
7
6
CONTINUOUS
10
452.3963830000
20
238.4887250000
11
453.7356130000
21
237.7155200000
0
LINE
8
10000_FRONT
62
7
6
CONTINUOUS
10
249.8171120000
20
355.9887250000
11
250.3171120000
21
355.6887250000
0
LINE
8
10000_FRONT
62
7
6
CONTINUOUS
10
284.5671120000
20
354.5387250000
11
283.0671120000
21
356.0387250000
0
LINE
8
90000_FRAME
62
7
6
CONTINUOUS
10
471.8265410000
20
21.5500140000
11
473.0623910000
21
18.6505200000
0
LINE
8
91000_TIP
62
7
6
CONTINUOUS
10
422.7797810000
20
20.8043440000
11
422.7797810000
21
15.8043440000
0
LINE
8
11000_LEFT
62
7
6
CONTINUOUS
10
461.0384960000
20
229.3689540000
11
461.1356130000
21
229.4727830000
0
LINE
8
11000_LEFT
62
7
6
CONTINUOUS
10
493.8356430000
20
235.1285770000
11
494.1356130000
21
235.4327650000
0
LINE
8
11000_LEFT
62
7
6
CONTINUOUS
10
475.0449690000
20
348.6695290000
11
474.9423350000
21
348.6552720000
0
LINE
8
11000_LEFT
62
7
6
CONTINUOUS
10
475.6262570000
20
352.6079210000
11
475.7288920000
21
352.6221770000
0
LINE
8
11000_LEFT
62
7
6
CONTINUOUS
10
459.3356130000
20
343.3459210000
11
439.7924010000
21
341.6361110000
0
LINE
8
11000_LEFT
62
7
6
CONTINUOUS
10
459.3356130000
20
345.0387250000
11
443.1434130000
21
343.6220910000
0
LINE
8
10000_FRONT
62
7
6
CONTINUOUS
10
291.1171120000
20
322.5387250000
11
288.1171120000
21
322.5387250000
0
LINE
8
10000_FRONT
62
7
6
CONTINUOUS
10
256.6171120000
20
322.5387250000
11
253.6171120000
21
322.5387250000
0
LINE
8
10000_FRONT
62
7
6
CONTINUOUS
10
253.6171120000
20
326.5387250000
11
256.6171120000
21
326.5387250000
0
LINE
8
10000_FRONT
62
7
6
CONTINUOUS
10
288.1171120000
20
326.5387250000
11
291.1171120000
21
326.5387250000
0
LINE
8
12000_RIGHT
62
7
6
CONTINUOUS
10
68.9510140000
20
330.4237250000
11
70.5510140000
21
330.4237250000
0
LINE
8
11000_LEFT
62
7
6
CONTINUOUS
10
475.7356130000
20
330.4237250000
11
477.3356130000
21
330.4237250000
0
LINE
8
10000_FRONT
62
7
6
CONTINUOUS
10
266.3671120000
20
330.7987250000
11
278.1671120000
21
330.7987250000
0
LINE
8
10000_FRONT
62
7
6
CONTINUOUS
10
284.6171120000
20
332.3887250000
11
274.3171120000
21
332.3887250000
0
LINE
8
10000_FRONT
62
7
6
CONTINUOUS
10
261.6671120000
20
332.3887250000
11
265.0671120000
21
332.3887250000
0
LINE
8
10000_FRONT
62
7
6
CONTINUOUS
10
284.0171120000
20
332.9387250000
11
279.6171120000
21
332.9387250000
0
LINE
8
10000_FRONT
62
7
6
CONTINUOUS
10
279.1171120000
20
332.9387250000
11
274.7171120000
21
332.9387250000
0
LINE
8
10000_FRONT
62
7
6
CONTINUOUS
10
291.1171120000
20
335.5387250000
11
288.1171120000
21
335.5387250000
0
LINE
8
10000_FRONT
62
7
6
CONTINUOUS
10
256.6171120000
20
335.5387250000
11
253.6171120000
21
335.5387250000
0
LINE
8
10000_FRONT
62
7
6
CONTINUOUS
10
289.9171120000
20
336.7887250000
11
287.8171120000
21
336.7887250000
0
LINE
8
12000_RIGHT
62
7
6
CONTINUOUS
10
86.9510140000
20
341.5444540000
11
102.2421890000
21
340.2066500000
0
LINE
8
12000_RIGHT
62
7
6
CONTINUOUS
10
93.5086320000
20
343.2741140000
11
88.4510140000
21
343.7165980000
0
LINE
8
12000_RIGHT
62
7
6
CONTINUOUS
10
89.9101010000
20
344.7798380000
11
86.9510140000
21
345.0387250000
0
LINE
8
12000_RIGHT
62
7
6
CONTINUOUS
10
89.9510140000
20
344.7899490000
11
93.7559140000
21
344.4570630000
0
LINE
8
10000_FRONT
62
7
6
CONTINUOUS
10
268.4290040000
20
337.0101480000
11
268.8283250000
21
336.9685510000
0
LINE
8
10000_FRONT
62
7
6
CONTINUOUS
10
270.3052200000
20
338.4673010000
11
269.9058990000
21
338.5088990000
0
LINE
8
12000_RIGHT
62
7
6
CONTINUOUS
10
70.6603700000
20
352.6079210000
11
70.5577360000
21
352.6221770000
0
LINE
8
10000_FRONT
62
7
6
CONTINUOUS
10
294.5075720000
20
357.0387270000
11
294.6701290000
21
356.9305010000
0
LINE
8
10000_FRONT
62
7
6
CONTINUOUS
10
302.7025290000
20
356.7387250000
11
304.1524160000
21
355.4332410000
0
LINE
8
91000_TIP
62
7
6
CONTINUOUS
10
432.7797810000
20
23.3043440000
11
432.7797810000
21
13.3043440000
0
LINE
8
11000_LEFT
62
7
6
CONTINUOUS
10
439.0356130000
20
244.9382350000
11
439.0356130000
21
339.1392150000
0
LINE
8
91000_TIP
62
7
6
CENTER
10
439.2797810000
20
12.5828630000
11
439.2797810000
21
23.8662490000
0
LINE
8
11000_LEFT
62
7
6
CONTINUOUS
10
441.0356130000
20
249.6387250000
11
441.0356130000
21
298.6387250000
0
LINE
8
11000_LEFT
62
7
6
CONTINUOUS
10
475.3356130000
20
352.4198430000
11
475.3492550000
21
352.4678910000
0
LINE
8
11000_LEFT
62
7
6
CONTINUOUS
10
475.3356130000
20
348.8576060000
11
475.3219720000
21
348.8095580000
0
LINE
8
10000_FRONT
62
7
6
CONTINUOUS
10
304.4171120000
20
348.0387250000
11
302.4171120000
21
347.5387250000
0
LINE
8
10000_FRONT
62
7
6
CONTINUOUS
10
269.9058990000
20
336.9685510000
11
270.3052200000
21
337.0101480000
0
LINE
8
10000_FRONT
62
7
6
CONTINUOUS
10
268.8283250000
20
338.5088990000
11
268.4290040000
21
338.4673010000
0
LINE
8
11000_LEFT
62
7
6
CONTINUOUS
10
474.9423350000
20
348.6552720000
11
474.8356130000
21
348.6505000000
0
LINE
8
11000_LEFT
62
7
6
CONTINUOUS
10
475.7288920000
20
352.6221770000
11
475.8356130000
21
352.6269500000
0
LINE
8
10000_FRONT
62
7
6
CONTINUOUS
10
252.4313440000
20
349.3244930000
11
252.7271550000
21
349.3286810000
0
LINE
8
11000_LEFT
62
7
6
CONTINUOUS
10
474.0356430000
20
353.8520990000
11
466.6356130000
21
353.7487680000
0
LINE
8
10000_FRONT
62
7
6
CONTINUOUS
10
289.9171120000
20
338.2887250000
11
287.8171120000
21
338.2887250000
0
LINE
8
10000_FRONT
62
7
6
CONTINUOUS
10
253.6171120000
20
339.5387250000
11
256.6171120000
21
339.5387250000
0
LINE
8
10000_FRONT
62
7
6
CONTINUOUS
10
288.1171120000
20
339.5387250000
11
291.1171120000
21
339.5387250000
0
LINE
8
10000_FRONT
62
7
6
CONTINUOUS
10
263.6171120000
20
341.1642280000
11
264.1171120000
21
341.1642280000
0
LINE
8
10000_FRONT
62
7
6
CONTINUOUS
10
264.8616400000
20
341.1642280000
11
265.0671120000
21
341.1642280000
0
LINE
8
10000_FRONT
62
7
6
CONTINUOUS
10
284.0171120000
20
341.2387250000
11
279.6171120000
21
341.2387250000
0
LINE
8
10000_FRONT
62
7
6
CONTINUOUS
10
279.1171120000
20
341.2387250000
11
274.7171120000
21
341.2387250000
0
LINE
8
10000_FRONT
62
7
6
CONTINUOUS
10
263.0671120000
20
341.7387250000
11
264.6671120000
21
341.7387250000
0
LINE
8
11000_LEFT
62
7
6
CONTINUOUS
10
475.4356130000
20
341.8887250000
11
474.3356130000
21
341.8887250000
0
LINE
8
10000_FRONT
62
7
6
CONTINUOUS
10
290.8171120000
20
341.8887250000
11
284.6171120000
21
341.8887250000
0
LINE
8
10000_FRONT
62
7
6
CONTINUOUS
10
274.3171120000
20
341.8887250000
11
265.0671120000
21
341.8887250000
0
LINE
8
10000_FRONT
62
7
6
CONTINUOUS
10
261.6671120000
20
341.8887250000
11
253.9171120000
21
341.8887250000
0
LINE
8
12000_RIGHT
62
7
6
CONTINUOUS
10
70.8510140000
20
341.8887250000
11
71.9510140000
21
341.8887250000
0
LINE
8
10000_FRONT
62
7
6
CONTINUOUS
10
285.7207090000
20
342.2387250000
11
253.7171120000
21
342.2387250000
0
LINE
8
10000_FRONT
62
7
6
CONTINUOUS
10
284.5671120000
20
343.0387250000
11
252.3671120000
21
343.0387250000
0
LINE
8
10000_FRONT
62
7
6
CONTINUOUS
10
294.9171120000
20
343.2741140000
11
298.9171120000
21
343.2741140000
0
LINE
8
10000_FRONT
62
7
6
CONTINUOUS
10
283.0671120000
20
344.5387250000
11
250.8671120000
21
344.5387250000
0
LINE
8
10000_FRONT
62
7
6
CONTINUOUS
10
294.9171120000
20
344.7899490000
11
298.9171120000
21
344.7899490000
0
LINE
8
10000_FRONT
62
7
6
CONTINUOUS
10
265.3671120000
20
345.5387250000
11
271.2171120000
21
345.5387250000
0
LINE
8
11000_LEFT
62
7
6
CONTINUOUS
10
474.8356130000
20
345.8387250000
11
474.3356130000
21
345.8387250000
0
LINE
8
12000_RIGHT
62
7
6
CONTINUOUS
10
65.1510140000
20
345.8387250000
11
70.4510140000
21
345.8387250000
0
LINE
8
12000_RIGHT
62
7
6
CONTINUOUS
10
71.4510140000
20
345.8387250000
11
71.9510140000
21
345.8387250000
0
LINE
8
10000_FRONT
62
7
6
CONTINUOUS
10
257.2788870000
20
345.8387250000
11
261.2553370000
21
345.8387250000
0
LINE
8
11000_LEFT
62
7
6
CONTINUOUS
10
475.8356130000
20
345.8387250000
11
481.1356130000
21
345.8387250000
0
LINE
8
10000_FRONT
62
7
6
CONTINUOUS
10
257.5274150000
20
346.4387250000
11
261.0068090000
21
346.4387250000
0
LINE
8
10000_FRONT
62
7
6
CONTINUOUS
10
249.8171120000
20
346.6211620000
11
252.8346740000
21
346.6211620000
0
LINE
8
11000_LEFT
62
7
6
CONTINUOUS
10
461.1356130000
20
347.0387250000
11
462.3356130000
21
347.0387250000
0
LINE
8
10000_FRONT
62
7
6
CONTINUOUS
10
252.4313440000
20
347.3387250000
11
250.3171120000
21
347.3387250000
0
LINE
8
10000_FRONT
62
7
6
CONTINUOUS
10
302.4171120000
20
347.5387250000
11
294.8171120000
21
347.5387250000
0
LINE
8
12000_RIGHT
62
7
6
CONTINUOUS
10
79.8510140000
20
347.5387250000
11
84.7510140000
21
347.5387250000
0
LINE
8
12000_RIGHT
62
7
6
CONTINUOUS
10
86.9510140000
20
347.9359480000
11
84.7510140000
21
347.9359480000
0
LINE
8
12000_RIGHT
62
7
6
CONTINUOUS
10
79.8510140000
20
348.0387250000
11
84.7510140000
21
348.0387250000
0
LINE
8
11000_LEFT
62
7
6
CONTINUOUS
10
459.3356130000
20
348.1623360000
11
460.8356130000
21
348.1623360000
0
LINE
8
11000_LEFT
62
7
6
CONTINUOUS
10
474.8356130000
20
348.6505000000
11
474.3356130000
21
348.6505000000
0
LINE
8
12000_RIGHT
62
7
6
CONTINUOUS
10
70.4510140000
20
348.6505000000
11
65.1510140000
21
348.6505000000
0
LINE
8
12000_RIGHT
62
7
6
CONTINUOUS
10
71.4510140000
20
348.6505000000
11
71.9510140000
21
348.6505000000
0
LINE
8
11000_LEFT
62
7
6
CONTINUOUS
10
475.8356130000
20
348.6505000000
11
481.1356130000
21
348.6505000000
0
LINE
8
10000_FRONT
62
7
6
CONTINUOUS
10
252.8346740000
20
348.9211620000
11
254.0346740000
21
348.9211620000
0
LINE
8
10000_FRONT
62
7
6
CONTINUOUS
10
289.9171120000
20
349.2887250000
11
287.8171120000
21
349.2887250000
0
LINE
8
10000_FRONT
62
7
6
CONTINUOUS
10
253.6271550000
20
349.3286810000
11
252.7271550000
21
349.3286810000
0
LINE
8
12000_RIGHT
62
7
6
CONTINUOUS
10
65.2816570000
20
349.3387250000
11
71.9510140000
21
349.3387250000
0
LINE
8
10000_FRONT
62
7
6
CONTINUOUS
10
265.9421120000
20
349.3387250000
11
270.7921120000
21
349.3387250000
0
LINE
8
11000_LEFT
62
7
6
CONTINUOUS
10
474.3356130000
20
349.6387250000
11
471.7717350000
21
349.6387250000
0
LINE
8
10000_FRONT
62
7
6
CONTINUOUS
10
300.4779070000
20
350.0387250000
11
302.4171120000
21
350.0387250000
0
LINE
8
11000_LEFT
62
7
6
CONTINUOUS
10
471.0356130000
20
350.0637250000
11
469.5356130000
21
350.0637250000
0
LINE
8
11000_LEFT
62
7
6
CONTINUOUS
10
469.5356130000
20
350.1387250000
11
470.5356130000
21
350.1387250000
0
LINE
8
10000_FRONT
62
7
6
CONTINUOUS
10
289.9171120000
20
350.7887250000
11
287.8171120000
21
350.7887250000
0
LINE
8
11000_LEFT
62
7
6
CONTINUOUS
10
469.5356130000
20
351.1387250000
11
470.5356130000
21
351.1387250000
0
LINE
8
11000_LEFT
62
7
6
CONTINUOUS
10
469.5356130000
20
351.2137250000
11
471.0356130000
21
351.2137250000
0
LINE
8
12000_RIGHT
62
7
6
CONTINUOUS
10
71.9510140000
20
351.3387250000
11
67.3510140000
21
351.3387250000
0
LINE
8
10000_FRONT
62
7
6
CONTINUOUS
10
267.4421120000
20
351.3387250000
11
269.2921120000
21
351.3387250000
0
LINE
8
11000_LEFT
62
7
6
CONTINUOUS
10
471.7717350000
20
351.6387250000
11
474.3356130000
21
351.6387250000
0
LINE
8
10000_FRONT
62
7
6
CONTINUOUS
10
291.0671120000
20
352.2387250000
11
285.8671120000
21
352.2387250000
0
LINE
8
12000_RIGHT
62
7
6
CONTINUOUS
10
79.8510140000
20
352.3387250000
11
84.7510140000
21
352.3387250000
0
LINE
8
11000_LEFT
62
7
6
CONTINUOUS
10
474.8356130000
20
352.6269500000
11
474.3356130000
21
352.6269500000
0
LINE
8
12000_RIGHT
62
7
6
CONTINUOUS
10
70.4510140000
20
352.6269500000
11
67.3510140000
21
352.6269500000
0
LINE
8
11000_LEFT
62
7
6
CONTINUOUS
10
475.8356130000
20
352.6269500000
11
481.1356130000
21
352.6269500000
0
LINE
8
12000_RIGHT
62
7
6
CONTINUOUS
10
79.9111580000
20
352.8387250000
11
86.9510140000
21
352.8387250000
0
LINE
8
10000_FRONT
62
7
6
CONTINUOUS
10
294.8171120000
20
352.8387250000
11
295.1308050000
21
352.8387250000
0
LINE
8
12000_RIGHT
62
7
6
CONTINUOUS
10
67.3510140000
20
353.0387250000
11
66.3510140000
21
353.0387250000
0
LINE
8
10000_FRONT
62
7
6
CONTINUOUS
10
265.9421120000
20
353.0387250000
11
267.4421120000
21
353.0387250000
0
LINE
8
10000_FRONT
62
7
6
CONTINUOUS
10
269.2921120000
20
353.0387250000
11
270.7921120000
21
353.0387250000
0
LINE
8
10000_FRONT
62
7
6
CONTINUOUS
10
291.0171120000
20
353.7387250000
11
285.8671120000
21
353.7387250000
0
LINE
8
10000_FRONT
62
7
6
CONTINUOUS
10
252.7271550000
20
353.7487680000
11
253.6271550000
21
353.7487680000
0
LINE
8
10000_FRONT
62
7
6
CONTINUOUS
10
303.6171120000
20
354.0387250000
11
294.8171120000
21
354.0387250000
0
LINE
8
12000_RIGHT
62
7
6
CONTINUOUS
10
79.8510140000
20
354.0387250000
11
84.7510140000
21
354.0387250000
0
LINE
8
10000_FRONT
62
7
6
CONTINUOUS
10
252.8346740000
20
354.1562870000
11
254.0346740000
21
354.1562870000
0
LINE
8
10000_FRONT
62
7
6
CONTINUOUS
10
292.3671120000
20
354.5387250000
11
284.5671120000
21
354.5387250000
0
LINE
8
10000_FRONT
62
7
6
CONTINUOUS
10
269.2921120000
20
354.8387250000
11
267.4421120000
21
354.8387250000
0
LINE
8
12000_RIGHT
62
7
6
CONTINUOUS
10
71.7510140000
20
354.8387250000
11
71.9510140000
21
354.8387250000
0
LINE
8
10000_FRONT
62
7
6
CONTINUOUS
10
257.5274150000
20
354.8387250000
11
261.0068090000
21
354.8387250000
0
LINE
8
11000_LEFT
62
7
6
CONTINUOUS
10
459.3356130000
20
354.9151130000
11
460.8356130000
21
354.9151130000
0
LINE
8
11000_LEFT
62
7
6
CONTINUOUS
10
474.8356130000
20
355.4387250000
11
474.3356130000
21
355.4387250000
0
LINE
8
12000_RIGHT
62
7
6
CONTINUOUS
10
65.1510140000
20
355.4387250000
11
70.4510140000
21
355.4387250000
0
LINE
8
12000_RIGHT
62
7
6
CONTINUOUS
10
71.4510140000
20
355.4387250000
11
71.9510140000
21
355.4387250000
0
LINE
8
10000_FRONT
62
7
6
CONTINUOUS
10
257.2788870000
20
355.4387250000
11
261.2553370000
21
355.4387250000
0
LINE
8
11000_LEFT
62
7
6
CONTINUOUS
10
475.8356130000
20
355.4387250000
11
481.1356130000
21
355.4387250000
0
LINE
8
12000_RIGHT
62
7
6
CONTINUOUS
10
86.9510140000
20
355.5387250000
11
84.7510140000
21
355.5387250000
0
LINE
8
10000_FRONT
62
7
6
CONTINUOUS
10
294.8171120000
20
355.5387250000
11
301.9171120000
21
355.5387250000
0
LINE
8
11000_LEFT
62
7
6
CONTINUOUS
10
466.4356130000
20
355.6887250000
11
461.1356130000
21
355.6887250000
0
LINE
8
10000_FRONT
62
7
6
CONTINUOUS
10
252.4313440000
20
355.6887250000
11
250.3171120000
21
355.6887250000
0
LINE
8
10000_FRONT
62
7
6
CONTINUOUS
10
271.2171120000
20
355.8387250000
11
265.3671120000
21
355.8387250000
0
LINE
8
12000_RIGHT
62
7
6
CONTINUOUS
10
84.7510140000
20
355.8387250000
11
86.3510140000
21
355.8387250000
0
LINE
8
10000_FRONT
62
7
6
CONTINUOUS
10
293.8671120000
20
356.0387250000
11
283.0671120000
21
356.0387250000
0
LINE
8
12000_RIGHT
62
7
6
CONTINUOUS
10
79.8510140000
20
356.7387250000
11
84.7510140000
21
356.7387250000
0
LINE
8
10000_FRONT
62
7
6
CONTINUOUS
10
302.1171120000
20
356.7387250000
11
302.7025290000
21
356.7387250000
0
LINE
8
10000_FRONT
62
7
6
CONTINUOUS
10
265.8671120000
20
356.8921080000
11
270.7171120000
21
356.8921080000
0
LINE
8
10000_FRONT
62
7
6
CONTINUOUS
10
272.8846740000
20
357.0387250000
11
270.7171120000
21
357.0387250000
0
LINE
8
12000_RIGHT
62
7
6
CONTINUOUS
10
86.9510140000
20
357.0387250000
11
86.6510140000
21
357.0387250000
0
LINE
8
10000_FRONT
62
7
6
CONTINUOUS
10
250.3171120000
20
357.0387250000
11
265.8671120000
21
357.0387250000
0
LINE
8
11000_LEFT
62
7
6
CONTINUOUS
10
459.3356130000
20
357.0387250000
11
466.4356130000
21
357.0387250000
0
LINE
8
10000_FRONT
62
7
6
CONTINUOUS
10
281.8495490000
20
357.0764260000
11
294.3171120000
21
357.0764260000
0
LINE
8
11000_LEFT
62
7
6
CONTINUOUS
10
474.3356430000
20
346.6211330000
11
462.3356130000
21
346.7886950000
0
LINE
8
11000_LEFT
62
7
6
CONTINUOUS
10
474.0356430000
20
349.2253510000
11
466.6356130000
21
349.3286810000
0
LINE
8
10000_FRONT
62
7
6
CONTINUOUS
10
252.4313440000
20
353.7529570000
11
252.7271550000
21
353.7487680000
0
LINE
8
12000_RIGHT
62
7
6
CONTINUOUS
10
71.3442920000
20
348.6552720000
11
71.4510140000
21
348.6505000000
0
LINE
8
12000_RIGHT
62
7
6
CONTINUOUS
10
70.5577360000
20
352.6221770000
11
70.4510140000
21
352.6269500000
0
LINE
8
11000_LEFT
62
7
6
CONTINUOUS
10
475.7288920000
20
348.6552720000
11
475.8356130000
21
348.6505000000
0
LINE
8
10000_FRONT
62
7
6
CONTINUOUS
10
298.4034190000
20
352.8387250000
11
304.4171120000
21
352.3387250000
0
LINE
8
10000_FRONT
62
7
6
CONTINUOUS
10
294.3171120000
20
357.0764260000
11
294.5075720000
21
357.0387270000
0
LINE
8
90000_FRAME
62
7
6
CONTINUOUS
10
449.0000000000
20
10.0000000000
11
449.0000000000
21
28.0000000000
0
LINE
8
11000_LEFT
62
7
6
CONTINUOUS
10
454.0356130000
20
346.1887250000
11
454.0356130000
21
344.5887250000
0
LINE
8
11000_LEFT
62
7
6
CONTINUOUS
10
454.0356130000
20
237.8887250000
11
454.0356130000
21
239.4887250000
0
LINE
8
90000_FRAME
62
7
6
CONTINUOUS
10
458.8025840000
20
16.8918100000
11
458.8025840000
21
17.8424640000
0
LINE
8
11000_LEFT
62
7
6
CONTINUOUS
10
458.8356130000
20
230.8393100000
11
458.8356130000
21
234.2381390000
0
LINE
8
11000_LEFT
62
7
6
CONTINUOUS
10
458.8356130000
20
349.8393100000
11
458.8356130000
21
353.2381390000
0
LINE
8
11000_LEFT
62
7
6
CONTINUOUS
10
459.3356130000
20
227.0387250000
11
459.3356130000
21
240.7315290000
0
LINE
8
11000_LEFT
62
7
6
CONTINUOUS
10
459.3356130000
20
343.3459210000
11
459.3356130000
21
357.0387250000
0
LINE
8
11000_LEFT
62
7
6
CONTINUOUS
10
461.1356130000
20
228.3887250000
11
461.1356130000
21
237.0387250000
0
LINE
8
11000_LEFT
62
7
6
CONTINUOUS
10
461.1356130000
20
347.0387250000
11
461.1356130000
21
355.6887250000
0
LINE
8
90000_FRAME
62
7
6
CONTINUOUS
10
462.1298720000
20
20.5518270000
11
462.1298720000
21
21.5024810000
0
LINE
8
11000_LEFT
62
7
6
CONTINUOUS
10
462.3356130000
20
228.3887250000
11
462.3356130000
21
355.6887250000
0
LINE
8
90000_FRAME
62
7
6
CONTINUOUS
10
463.2231240000
20
21.5500140000
11
463.2231240000
21
16.7967450000
0
LINE
8
11000_LEFT
62
7
6
CONTINUOUS
10
464.3356130000
20
358.2387250000
11
464.3356130000
21
357.0387250000
0
LINE
8
90000_FRAME
62
7
6
CONTINUOUS
10
464.6491050000
20
21.5500140000
11
464.6491050000
21
16.7967450000
0
LINE
8
12000_RIGHT
62
7
6
CONTINUOUS
10
70.6603700000
20
348.6695290000
11
70.5577360000
21
348.6552720000
0
LINE
8
12000_RIGHT
62
7
6
CONTINUOUS
10
70.5577360000
20
348.6552720000
11
70.4510140000
21
348.6505000000
0
LINE
8
12000_RIGHT
62
7
6
CONTINUOUS
10
71.9510140000
20
356.8711620000
11
86.6510140000
21
357.0764260000
0
LINE
8
11000_LEFT
62
7
6
CONTINUOUS
10
471.8356130000
20
358.2387250000
11
464.3356130000
21
358.2387250000
0
LINE
8
10000_FRONT
62
7
6
CONTINUOUS
10
270.7171120000
20
358.2387250000
11
265.8671120000
21
358.2387250000
0
LINE
8
12000_RIGHT
62
7
6
CONTINUOUS
10
81.9510140000
20
358.2387250000
11
74.4510140000
21
358.2387250000
0
LINE
8
11000_LEFT
62
7
6
CONTINUOUS
10
474.3356130000
20
356.8711620000
11
466.4348140000
21
356.9814850000
0
LINE
8
11000_LEFT
62
7
6
CONTINUOUS
10
474.9423350000
20
352.6221770000
11
474.8356130000
21
352.6269500000
0
LINE
8
11000_LEFT
62
7
6
CONTINUOUS
10
475.6262570000
20
348.6695290000
11
475.7288920000
21
348.6552720000
0
LINE
8
11000_LEFT
62
7
6
CONTINUOUS
10
475.0449690000
20
352.6079210000
11
474.9423350000
21
352.6221770000
0
LINE
8
11000_LEFT
62
7
6
CONTINUOUS
10
497.0356430000
20
236.8387250000
11
497.3356130000
21
236.5387250000
0
LINE
8
11000_LEFT
62
7
6
CONTINUOUS
10
493.8356430000
20
229.9488730000
11
494.1356130000
21
229.6446840000
0
LINE
8
11000_LEFT
62
7
6
CONTINUOUS
10
460.8356130000
20
235.9151130000
11
460.9396800000
21
235.7159190000
0
LINE
8
11000_LEFT
62
7
6
CONTINUOUS
10
460.9396800000
20
235.7159190000
11
461.0397120000
21
235.5214160000
0
LINE
8
11000_LEFT
62
7
6
CONTINUOUS
10
461.0397120000
20
235.5214160000
11
461.1356130000
21
235.3315730000
0
LINE
8
90000_FRAME
62
7
6
CONTINUOUS
10
465.7423570000
20
21.5500140000
11
465.7423570000
21
16.7967450000
0
LINE
8
11000_LEFT
62
7
6
CONTINUOUS
10
466.4356130000
20
227.0387250000
11
466.4356130000
21
228.3887250000
0
LINE
8
11000_LEFT
62
7
6
CONTINUOUS
10
466.4356130000
20
355.6887250000
11
466.4356130000
21
357.0387250000
0
LINE
8
11000_LEFT
62
7
6
CONTINUOUS
10
466.6356130000
20
356.9786810000
11
466.6356130000
21
346.7286520000
0
LINE
8
11000_LEFT
62
7
6
CONTINUOUS
10
466.6356130000
20
227.0987680000
11
466.6356130000
21
236.8387250000
0
LINE
8
11000_LEFT
62
7
6
CONTINUOUS
10
466.9355840000
20
234.7529570000
11
466.9355840000
21
236.8387250000
0
LINE
8
90000_FRAME
62
7
6
CONTINUOUS
10
467.1208050000
20
20.6706590000
11
467.1208050000
21
19.6011730000
0
LINE
8
90000_FRAME
62
7
6
CONTINUOUS
10
467.1208050000
20
18.8168840000
11
467.1208050000
21
17.6998660000
0
LINE
8
90000_FRAME
62
7
6
CONTINUOUS
10
468.9745800000
20
19.6011730000
11
468.9745800000
21
18.8168840000
0
LINE
8
90000_FRAME
62
7
6
CONTINUOUS
10
469.2597760000
20
21.5500140000
11
469.2597760000
21
20.6706590000
0
LINE
8
90000_FRAME
62
7
6
CONTINUOUS
10
469.3073090000
20
17.6998660000
11
469.3073090000
21
16.7967450000
0
LINE
8
11000_LEFT
62
7
6
CONTINUOUS
10
469.5356130000
20
350.0637250000
11
469.5356130000
21
351.2137250000
0
LINE
8
90000_FRAME
62
7
6
CONTINUOUS
10
470.1153640000
20
16.7967450000
11
470.1153640000
21
21.5500140000
0
LINE
8
11000_LEFT
62
7
6
CONTINUOUS
10
470.5356130000
20
350.1387250000
11
470.5356130000
21
351.1387250000
0
LINE
8
90000_FRAME
62
7
6
CONTINUOUS
10
471.0660180000
20
16.7967450000
11
471.0660180000
21
19.8388370000
0
LINE
8
11000_LEFT
62
7
6
CONTINUOUS
10
471.8356130000
20
358.2387250000
11
471.8356130000
21
356.9060710000
0
LINE
8
11000_LEFT
62
7
6
CONTINUOUS
10
474.3356130000
20
236.8387250000
11
474.3356130000
21
349.6387250000
0
LINE
8
11000_LEFT
62
7
6
CONTINUOUS
10
474.3356130000
20
351.6387250000
11
474.3356130000
21
356.8711620000
0
LINE
8
90000_FRAME
62
7
6
CONTINUOUS
10
474.5834370000
20
19.8863700000
11
474.5834370000
21
16.7967450000
0
LINE
8
11000_LEFT
62
7
6
CONTINUOUS
10
475.3356130000
20
354.9387250000
11
475.3356130000
21
346.3387250000
0
LINE
8
11000_LEFT
62
7
6
CONTINUOUS
10
475.7356130000
20
241.1887250000
11
475.7356130000
21
341.5887250000
0
LINE
8
90000_FRAME
62
7
6
CONTINUOUS
10
475.9618850000
20
21.5500140000
11
475.9618850000
21
16.7967450000
0
LINE
8
90000_FRAME
62
7
6
CONTINUOUS
10
477.0551370000
20
21.5500140000
11
477.0551370000
21
16.7967450000
0
LINE
8
11000_LEFT
62
7
6
CONTINUOUS
10
477.3356130000
20
309.8537250000
11
477.3356130000
21
330.4237250000
0
LINE
8
90000_FRAME
62
7
6
CONTINUOUS
10
478.4335850000
20
20.6706590000
11
478.4335850000
21
19.6011730000
0
LINE
8
90000_FRAME
62
7
6
CONTINUOUS
10
478.4335850000
20
18.8168840000
11
478.4335850000
21
17.6998660000
0
LINE
8
90000_FRAME
62
7
6
CONTINUOUS
10
480.2873600000
20
19.6011730000
11
480.2873600000
21
18.8168840000
0
LINE
8
90000_FRAME
62
7
6
CONTINUOUS
10
480.5725560000
20
21.5500140000
11
480.5725560000
21
20.6706590000
0
LINE
8
90000_FRAME
62
7
6
CONTINUOUS
10
480.6200890000
20
17.6998660000
11
480.6200890000
21
16.7967450000
0
LINE
8
11000_LEFT
62
7
6
CONTINUOUS
10
481.1356130000
20
345.8387250000
11
481.1356130000
21
355.4387250000
0
LINE
8
90000_FRAME
62
7
6
CONTINUOUS
10
481.4043780000
20
16.7967450000
11
481.4043780000
21
21.5500140000
0
LINE
8
90000_FRAME
62
7
6
CONTINUOUS
10
482.3550320000
20
16.7967450000
11
482.3550320000
21
19.8388370000
0
LINE
8
90000_FRAME
62
7
6
CONTINUOUS
10
484.6366010000
20
21.5500140000
11
484.6366010000
21
18.6029870000
0
LINE
8
90000_FRAME
62
7
6
CONTINUOUS
10
485.5872550000
20
21.5500140000
11
485.5872550000
21
16.7967450000
0
LINE
8
12000_RIGHT
62
7
6
CONTINUOUS
10
88.4510140000
20
344.4192720000
11
89.9510140000
21
344.7899490000
0
LINE
8
11000_LEFT
62
7
6
CONTINUOUS
10
475.5320270000
20
348.6930450000
11
475.6262570000
21
348.6695290000
0
LINE
8
11000_LEFT
62
7
6
CONTINUOUS
10
475.1392000000
20
352.5844040000
11
475.0449690000
21
352.6079210000
0
LINE
8
90000_FRAME
62
7
6
CONTINUOUS
10
486.3953110000
20
16.8918100000
11
486.3953110000
21
17.8424640000
0
LINE
8
90000_FRAME
62
7
6
CONTINUOUS
10
489.7225990000
20
20.5518270000
11
489.7225990000
21
21.5024810000
0
LINE
8
11000_LEFT
62
7
6
CONTINUOUS
10
494.1356130000
20
236.8387250000
11
494.1356130000
21
235.4327650000
0
LINE
8
11000_LEFT
62
7
6
CONTINUOUS
10
494.1356130000
20
229.6446840000
11
494.1356130000
21
227.4827650000
0
LINE
8
11000_LEFT
62
7
6
CONTINUOUS
10
497.3356130000
20
236.5387250000
11
497.3356130000
21
228.0205160000
0
LINE
8
90000_FRAME
62
7
6
CONTINUOUS
10
499.0000000000
20
10.0000000000
11
499.0000000000
21
28.0000000000
0
LINE
8
12000_RIGHT
62
7
6
CONTINUOUS
10
70.7546000000
20
348.6930450000
11
70.6603700000
21
348.6695290000
0
LINE
8
90000_FRAME
62
7
6
CONTINUOUS
10
589.0000000000
20
415.0000000000
11
5.0000000000
21
415.0000000000
0
LINE
8
90000_FRAME
62
7
6
CONTINUOUS
10
594.0000000000
20
420.0000000000
11
0.0000000000
21
420.0000000000
0
LINE
8
11000_LEFT
62
7
6
CONTINUOUS
10
475.4513860000
20
348.7250780000
11
475.5320270000
21
348.6930450000
0
LINE
8
11000_LEFT
62
7
6
CONTINUOUS
10
475.2198410000
20
352.5523720000
11
475.1392000000
21
352.5844040000
0
LINE
8
11000_LEFT
62
7
6
CONTINUOUS
10
459.3356130000
20
349.5887250000
11
458.8356130000
21
349.8387250000
0
LINE
8
11000_LEFT
62
7
6
CONTINUOUS
10
471.7717350000
20
349.6387250000
11
471.0356130000
21
350.0637250000
0
LINE
8
11000_LEFT
62
7
6
CONTINUOUS
10
475.3356130000
20
348.8576060000
11
475.3492550000
21
348.8095580000
0
LINE
8
11000_LEFT
62
7
6
CONTINUOUS
10
481.1356130000
20
352.3459040000
11
481.7202920000
21
352.0083400000
0
LINE
8
11000_LEFT
62
7
6
CONTINUOUS
10
475.3887640000
20
348.7646840000
11
475.4513860000
21
348.7250780000
0
LINE
8
11000_LEFT
62
7
6
CONTINUOUS
10
475.2824630000
20
352.5127650000
11
475.2198410000
21
352.5523720000
0
LINE
8
11000_LEFT
62
7
6
CONTINUOUS
10
460.8356130000
20
354.9151130000
11
460.9384870000
21
354.8119760000
0
LINE
8
11000_LEFT
62
7
6
CONTINUOUS
10
474.3356130000
20
348.9211620000
11
474.0356430000
21
349.2253510000
0
LINE
8
11000_LEFT
62
7
6
CONTINUOUS
10
460.9384870000
20
354.8119760000
11
461.0384960000
21
354.7084960000
0
LINE
8
11000_LEFT
62
7
6
CONTINUOUS
10
461.0384960000
20
354.7084960000
11
461.1356130000
21
354.6046670000
0
LINE
8
11000_LEFT
62
7
6
CONTINUOUS
10
475.3492550000
20
348.8095580000
11
475.3887640000
21
348.7646840000
0
LINE
8
11000_LEFT
62
7
6
CONTINUOUS
10
475.3219720000
20
352.4678910000
11
475.2824630000
21
352.5127650000
0
LINE
8
11000_LEFT
62
7
6
CONTINUOUS
10
475.3356130000
20
352.4198430000
11
475.3219720000
21
352.4678910000
0
LINE
8
90000_FRAME
62
7
6
CONTINUOUS
10
541.5000000000
20
10.0000000000
11
541.5000000000
21
16.0000000000
0
LINE
8
90000_FRAME
62
7
6
CONTINUOUS
10
474.2507080000
20
21.5500140000
11
473.0623910000
21
18.6505200000
0
LINE
8
90000_FRAME
62
7
6
CONTINUOUS
10
474.5834370000
20
19.8863700000
11
473.2525220000
21
16.7492120000
0
LINE
8
90000_FRAME
62
7
6
CONTINUOUS
10
458.9944120000
20
20.9692080000
11
459.2684780000
21
21.2432810000
0
LINE
8
90000_FRAME
62
7
6
CONTINUOUS
10
584.0000000000
20
10.0000000000
11
584.0000000000
21
28.0000000000
0
LINE
8
90000_FRAME
62
7
6
CONTINUOUS
10
589.0000000000
20
5.0000000000
11
589.0000000000
21
415.0000000000
0
LINE
8
90000_FRAME
62
7
6
CONTINUOUS
10
594.0000000000
20
0.0000000000
11
594.0000000000
21
420.0000000000
0
ARC
8
90000_FRAME
62
7
6
CONTINUOUS
10
488.0999520000
20
18.7539030000
40
1.1116190000
50
277.7099960000
51
295.6884930000
0
ARC
8
90000_FRAME
62
7
6
CONTINUOUS
10
488.3842620000
20
18.0290770000
40
0.3401690000
50
305.5032210000
51
72.4652900000
0
ARC
8
90000_FRAME
62
7
6
CONTINUOUS
10
487.8182680000
20
21.4307840000
40
4.7567950000
50
252.5939200000
51
280.9816600000
0
ARC
8
90000_FRAME
62
7
6
CONTINUOUS
10
488.2731040000
20
18.8127710000
40
2.1007270000
50
282.4058360000
51
311.8644430000
0
ARC
8
90000_FRAME
62
7
6
CONTINUOUS
10
487.9995390000
20
20.4211120000
40
0.3029630000
50
154.4400350000
51
221.8201700000
0
ARC
8
90000_FRAME
62
7
6
CONTINUOUS
10
488.0787600000
20
20.3418910000
40
0.4103090000
50
102.8287830000
51
149.2259640000
0
ARC
8
90000_FRAME
62
7
6
CONTINUOUS
10
488.4957870000
20
18.5995560000
40
2.2018370000
50
84.0400060000
51
103.3427660000
0
ARC
8
90000_FRAME
62
7
6
CONTINUOUS
10
488.1548230000
20
16.1821920000
40
4.6423740000
50
70.2625860000
51
82.9524190000
0
ARC
8
90000_FRAME
62
7
6
CONTINUOUS
10
487.6408050000
20
20.8538150000
40
3.2587560000
50
247.5300210000
51
280.7579520000
0
ARC
8
90000_FRAME
62
7
6
CONTINUOUS
10
481.2558390000
20
2.6022950000
40
17.3316080000
50
65.3414670000
51
67.3997770000
0
ARC
8
90000_FRAME
62
7
6
CONTINUOUS
10
492.0517010000
20
28.3947210000
40
10.6291640000
50
242.8620100000
51
247.1042030000
0
ARC
8
90000_FRAME
62
7
6
CONTINUOUS
10
488.1968000000
20
20.8607900000
40
2.1662920000
50
227.3119280000
51
242.7040320000
0
ARC
8
90000_FRAME
62
7
6
CONTINUOUS
10
487.5927690000
20
20.1551120000
40
1.2385220000
50
194.7952190000
51
225.7176550000
0
ARC
8
90000_FRAME
62
7
6
CONTINUOUS
10
487.6549270000
20
20.1953320000
40
1.3090920000
50
164.1974860000
51
195.8025140000
0
ARC
8
90000_FRAME
62
7
6
CONTINUOUS
10
488.2119510000
20
19.3070650000
40
2.3669250000
50
86.2218020000
51
120.4272600000
0
ARC
8
90000_FRAME
62
7
6
CONTINUOUS
10
487.9430940000
20
12.6108970000
40
9.0679050000
50
78.6827050000
51
87.3147600000
0
ARC
8
90000_FRAME
62
7
6
CONTINUOUS
10
487.4870250000
20
20.3028400000
40
1.1197470000
50
142.8139180000
51
167.1522950000
0
ARC
8
90000_FRAME
62
7
6
CONTINUOUS
10
487.8323340000
20
19.9962580000
40
1.5805470000
50
121.2140950000
51
141.5254770000
0
ARC
8
90000_FRAME
62
7
6
CONTINUOUS
10
488.4095090000
20
20.8073150000
40
0.8661280000
50
222.7760390000
51
239.0362430000
0
ARC
8
90000_FRAME
62
7
6
CONTINUOUS
10
485.9027990000
20
13.4770430000
40
6.8587740000
50
59.9020270000
51
68.2036480000
0
ARC
8
90000_FRAME
62
7
6
CONTINUOUS
10
489.3112940000
20
22.4029300000
40
2.6987410000
50
240.0482000000
51
251.3779670000
0
ARC
8
90000_FRAME
62
7
6
CONTINUOUS
10
488.6458360000
20
18.2460310000
40
1.4334470000
50
315.8904550000
51
333.5229260000
0
ARC
8
90000_FRAME
62
7
6
CONTINUOUS
10
488.6504750000
20
18.1926240000
40
1.4062290000
50
335.3867970000
51
24.3915120000
0
ARC
8
90000_FRAME
62
7
6
CONTINUOUS
10
488.5782700000
20
18.1147670000
40
1.5047030000
50
25.9562920000
51
59.4834830000
0
ARC
8
90000_FRAME
62
7
6
CONTINUOUS
10
460.5072250000
20
18.7539030000
40
1.1116190000
50
277.7099960000
51
295.6884930000
0
ARC
8
90000_FRAME
62
7
6
CONTINUOUS
10
460.7915350000
20
18.0290770000
40
0.3401690000
50
305.5032210000
51
72.4652900000
0
ARC
8
90000_FRAME
62
7
6
CONTINUOUS
10
460.2255410000
20
21.4307840000
40
4.7567950000
50
252.5939200000
51
280.9816600000
0
ARC
8
90000_FRAME
62
7
6
CONTINUOUS
10
460.6803770000
20
18.8127710000
40
2.1007270000
50
282.4058360000
51
311.8644430000
0
ARC
8
90000_FRAME
62
7
6
CONTINUOUS
10
460.4068120000
20
20.4211120000
40
0.3029630000
50
154.4400350000
51
221.8201700000
0
ARC
8
90000_FRAME
62
7
6
CONTINUOUS
10
460.4860330000
20
20.3418910000
40
0.4103090000
50
102.8287830000
51
149.2259640000
0
ARC
8
90000_FRAME
62
7
6
CONTINUOUS
10
460.9030600000
20
18.5995560000
40
2.2018370000
50
84.0400060000
51
103.3427660000
0
ARC
8
90000_FRAME
62
7
6
CONTINUOUS
10
460.5620960000
20
16.1821920000
40
4.6423740000
50
70.2625860000
51
82.9524190000
0
ARC
8
90000_FRAME
62
7
6
CONTINUOUS
10
460.0480780000
20
20.8538150000
40
3.2587560000
50
247.5300210000
51
280.7579520000
0
ARC
8
90000_FRAME
62
7
6
CONTINUOUS
10
453.6631120000
20
2.6022950000
40
17.3316080000
50
65.3414670000
51
67.3997770000
0
ARC
8
90000_FRAME
62
7
6
CONTINUOUS
10
464.4589740000
20
28.3947210000
40
10.6291640000
50
242.8620100000
51
247.1042030000
0
ARC
8
90000_FRAME
62
7
6
CONTINUOUS
10
460.6040730000
20
20.8607900000
40
2.1662920000
50
227.3119280000
51
242.7040320000
0
ARC
8
90000_FRAME
62
7
6
CONTINUOUS
10
460.0000420000
20
20.1551120000
40
1.2385220000
50
194.7952190000
51
225.7176550000
0
ARC
8
90000_FRAME
62
7
6
CONTINUOUS
10
460.6192240000
20
19.3070650000
40
2.3669250000
50
86.2218020000
51
120.4272600000
0
ARC
8
90000_FRAME
62
7
6
CONTINUOUS
10
460.3503670000
20
12.6108970000
40
9.0679050000
50
78.6827050000
51
87.3147600000
0
ARC
8
90000_FRAME
62
7
6
CONTINUOUS
10
460.2396070000
20
19.9962580000
40
1.5805470000
50
121.2140950000
51
141.5254770000
0
ARC
8
90000_FRAME
62
7
6
CONTINUOUS
10
460.8167820000
20
20.8073150000
40
0.8661280000
50
222.7760390000
51
239.0362430000
0
ARC
8
90000_FRAME
62
7
6
CONTINUOUS
10
458.3100720000
20
13.4770430000
40
6.8587740000
50
59.9020270000
51
68.2036480000
0
ARC
8
90000_FRAME
62
7
6
CONTINUOUS
10
461.7185670000
20
22.4029300000
40
2.6987410000
50
240.0482000000
51
251.3779670000
0
ARC
8
90000_FRAME
62
7
6
CONTINUOUS
10
461.0531090000
20
18.2460310000
40
1.4334470000
50
315.8904550000
51
333.5229260000
0
ARC
8
90000_FRAME
62
7
6
CONTINUOUS
10
461.0577480000
20
18.1926240000
40
1.4062290000
50
335.3867970000
51
24.3915120000
0
ARC
8
90000_FRAME
62
7
6
CONTINUOUS
10
460.9855430000
20
18.1147670000
40
1.5047030000
50
25.9562920000
51
59.4834830000
0
ARC
8
90000_FRAME
62
7
6
CONTINUOUS
10
460.0622000000
20
20.1953320000
40
1.3090920000
50
164.1974860000
51
195.8025140000
0
ARC
8
90000_FRAME
62
7
6
CONTINUOUS
10
459.8942980000
20
20.3028400000
40
1.1197470000
50
142.8139180000
51
167.1522950000
0
CIRCLE
8
91000_TIP
62
7
6
CONTINUOUS
10
439.2797810000
20
18.3043440000
40
5.0000000000
0
CIRCLE
8
91000_TIP
62
7
6
CONTINUOUS
10
439.2797810000
20
18.3043440000
40
2.5000000000
0
ARC
8
10000_FRONT
62
7
6
CONTINUOUS
10
278.2844980000
20
245.5683780000
40
0.2000000000
50
335.9470480000
51
84.0529520000
0
ARC
8
10000_FRONT
62
7
6
CONTINUOUS
10
277.3671120000
20
246.0980310000
40
0.2000000000
50
35.9470480000
51
144.0529520000
0
ARC
8
10000_FRONT
62
7
6
CONTINUOUS
10
276.4497260000
20
245.5683780000
40
0.2000000000
50
95.9470480000
51
204.0529520000
0
ARC
8
10000_FRONT
62
7
6
CONTINUOUS
10
276.4497260000
20
244.5090720000
40
0.2000000000
50
155.9470480000
51
264.0529520000
0
ARC
8
10000_FRONT
62
7
6
CONTINUOUS
10
277.3671120000
20
243.9794190000
40
0.2000000000
50
215.9470480000
51
324.0529520000
0
ARC
8
10000_FRONT
62
7
6
CONTINUOUS
10
278.2844980000
20
244.5090720000
40
0.2000000000
50
275.9470480000
51
24.0529520000
0
ARC
8
10000_FRONT
62
7
6
CONTINUOUS
10
277.9266210000
20
246.0078220000
40
0.2000000000
50
215.9470480000
51
264.0529520000
0
ARC
8
10000_FRONT
62
7
6
CONTINUOUS
10
278.4861290000
20
245.0387250000
40
0.2000000000
50
155.9470480000
51
204.0529520000
0
ARC
8
10000_FRONT
62
7
6
CONTINUOUS
10
276.8076030000
20
246.0078220000
40
0.2000000000
50
275.9470480000
51
324.0529520000
0
ARC
8
10000_FRONT
62
7
6
CONTINUOUS
10
276.2480940000
20
245.0387250000
40
0.2000000000
50
335.9470480000
51
24.0529520000
0
ARC
8
10000_FRONT
62
7
6
CONTINUOUS
10
276.8076030000
20
244.0696270000
40
0.2000000000
50
35.9470480000
51
84.0529520000
0
ARC
8
10000_FRONT
62
7
6
CONTINUOUS
10
277.9266210000
20
244.0696270000
40
0.2000000000
50
95.9470480000
51
144.0529520000
0
CIRCLE
8
10000_FRONT
62
7
6
CONTINUOUS
10
277.3671120000
20
245.0387250000
40
1.4567420000
0
ARC
8
10000_FRONT
62
7
6
CONTINUOUS
10
270.2844980000
20
338.2683780000
40
0.2000000000
50
335.9470480000
51
84.0529520000
0
ARC
8
10000_FRONT
62
7
6
CONTINUOUS
10
269.3671120000
20
338.7980310000
40
0.2000000000
50
35.9470480000
51
144.0529520000
0
ARC
8
10000_FRONT
62
7
6
CONTINUOUS
10
268.4497260000
20
338.2683780000
40
0.2000000000
50
95.9470480000
51
204.0529520000
0
ARC
8
10000_FRONT
62
7
6
CONTINUOUS
10
268.4497260000
20
337.2090720000
40
0.2000000000
50
155.9470480000
51
264.0529520000
0
ARC
8
10000_FRONT
62
7
6
CONTINUOUS
10
269.3671120000
20
336.6794190000
40
0.2000000000
50
215.9470480000
51
324.0529520000
0
ARC
8
10000_FRONT
62
7
6
CONTINUOUS
10
270.2844980000
20
337.2090720000
40
0.2000000000
50
275.9470480000
51
24.0529520000
0
ARC
8
10000_FRONT
62
7
6
CONTINUOUS
10
269.9266210000
20
338.7078220000
40
0.2000000000
50
215.9470480000
51
264.0529520000
0
ARC
8
10000_FRONT
62
7
6
CONTINUOUS
10
270.4861290000
20
337.7387250000
40
0.2000000000
50
155.9470480000
51
204.0529520000
0
ARC
8
10000_FRONT
62
7
6
CONTINUOUS
10
268.8076030000
20
338.7078220000
40
0.2000000000
50
275.9470480000
51
324.0529520000
0
ARC
8
10000_FRONT
62
7
6
CONTINUOUS
10
268.2480940000
20
337.7387250000
40
0.2000000000
50
335.9470480000
51
24.0529520000
0
ARC
8
10000_FRONT
62
7
6
CONTINUOUS
10
268.8076030000
20
336.7696270000
40
0.2000000000
50
35.9470480000
51
84.0529520000
0
ARC
8
10000_FRONT
62
7
6
CONTINUOUS
10
269.9266210000
20
336.7696270000
40
0.2000000000
50
95.9470480000
51
144.0529520000
0
CIRCLE
8
10000_FRONT
62
7
6
CONTINUOUS
10
269.3671120000
20
337.7387250000
40
1.4567420000
0
CIRCLE
8
10000_FRONT
62
7
6
CONTINUOUS
10
269.3671120000
20
337.7387250000
40
3.0000000000
0
CIRCLE
8
10000_FRONT
62
7
6
CONTINUOUS
10
277.3671120000
20
245.0387250000
40
3.0000000000
0
ARC
8
10000_FRONT
62
7
6
CONTINUOUS
10
253.9171120000
20
341.5887250000
40
0.3000000000
50
90.0000000000
51
180.0000000000
0
ARC
8
10000_FRONT
62
7
6
CONTINUOUS
10
290.8171120000
20
341.5887250000
40
0.3000000000
50
0.0000000000
51
90.0000000000
0
ARC
8
10000_FRONT
62
7
6
CONTINUOUS
10
290.8171120000
20
241.1887250000
40
0.3000000000
50
270.0000000000
51
360.0000000000
0
ARC
8
10000_FRONT
62
7
6
CONTINUOUS
10
288.1171120000
20
246.5387250000
40
2.0000000000
50
90.0000000000
51
270.0000000000
0
ARC
8
10000_FRONT
62
7
6
CONTINUOUS
10
288.1171120000
20
259.5387250000
40
2.0000000000
50
90.0000000000
51
270.0000000000
0
ARC
8
10000_FRONT
62
7
6
CONTINUOUS
10
288.1171120000
20
272.5387250000
40
2.0000000000
50
90.0000000000
51
270.0000000000
0
ARC
8
10000_FRONT
62
7
6
CONTINUOUS
10
288.1171120000
20
285.5387250000
40
2.0000000000
50
90.0000000000
51
270.0000000000
0
ARC
8
10000_FRONT
62
7
6
CONTINUOUS
10
288.1171120000
20
298.5387250000
40
2.0000000000
50
90.0000000000
51
270.0000000000
0
ARC
8
10000_FRONT
62
7
6
CONTINUOUS
10
288.1171120000
20
311.5387250000
40
2.0000000000
50
90.0000000000
51
270.0000000000
0
ARC
8
10000_FRONT
62
7
6
CONTINUOUS
10
288.1171120000
20
324.5387250000
40
2.0000000000
50
90.0000000000
51
270.0000000000
0
ARC
8
10000_FRONT
62
7
6
CONTINUOUS
10
288.1171120000
20
337.5387250000
40
2.0000000000
50
90.0000000000
51
270.0000000000
0
ARC
8
10000_FRONT
62
7
6
CONTINUOUS
10
256.6171120000
20
259.5387250000
40
2.0000000000
50
270.0000000000
51
90.0000000000
0
ARC
8
10000_FRONT
62
7
6
CONTINUOUS
10
256.6171120000
20
272.5387250000
40
2.0000000000
50
270.0000000000
51
90.0000000000
0
ARC
8
10000_FRONT
62
7
6
CONTINUOUS
10
256.6171120000
20
285.5387250000
40
2.0000000000
50
270.0000000000
51
90.0000000000
0
ARC
8
10000_FRONT
62
7
6
CONTINUOUS
10
256.6171120000
20
298.5387250000
40
2.0000000000
50
270.0000000000
51
90.0000000000
0
ARC
8
10000_FRONT
62
7
6
CONTINUOUS
10
256.6171120000
20
311.5387250000
40
2.0000000000
50
270.0000000000
51
90.0000000000
0
ARC
8
10000_FRONT
62
7
6
CONTINUOUS
10
256.6171120000
20
324.5387250000
40
2.0000000000
50
270.0000000000
51
90.0000000000
0
ARC
8
10000_FRONT
62
7
6
CONTINUOUS
10
256.6171120000
20
337.5387250000
40
2.0000000000
50
270.0000000000
51
90.0000000000
0
CIRCLE
8
10000_FRONT
62
7
6
CONTINUOUS
10
263.8671120000
20
341.2387250000
40
0.2500000000
0
ARC
8
10000_FRONT
62
7
6
CONTINUOUS
10
265.6671120000
20
341.7387250000
40
1.0000000000
50
180.0000000000
51
232.5063770000
0
ARC
8
10000_FRONT
62
7
6
CONTINUOUS
10
262.0671120000
20
341.7387250000
40
1.0000000000
50
246.0946180000
51
360.0000000000
0
ARC
8
10000_FRONT
62
7
6
CONTINUOUS
10
284.8671120000
20
342.7387250000
40
1.0000000000
50
300.8293260000
51
360.0000000000
0
ARC
8
10000_FRONT
62
7
6
CONTINUOUS
10
295.1308050000
20
231.3887250000
40
0.1500000000
50
270.0000000000
51
35.0996320000
0
ARC
8
10000_FRONT
62
7
6
CONTINUOUS
10
298.4034190000
20
231.3887250000
40
0.1500000000
50
144.9003680000
51
270.0000000000
0
ARC
8
10000_FRONT
62
7
6
CONTINUOUS
10
298.4034190000
20
352.6887250000
40
0.1500000000
50
90.0000000000
51
215.0996320000
0
ARC
8
10000_FRONT
62
7
6
CONTINUOUS
10
295.1308050000
20
352.6887250000
40
0.1500000000
50
324.9003680000
51
90.0000000000
0
CIRCLE
8
10000_FRONT
62
7
6
CONTINUOUS
10
251.6671120000
20
232.5387250000
40
1.8500000000
0
ARC
8
10000_FRONT
62
7
6
CONTINUOUS
10
251.6671120000
20
232.5387250000
40
3.8500000000
50
118.7193360000
51
241.2806640000
0
ARC
8
10000_FRONT
62
7
6
CONTINUOUS
10
251.6671120000
20
351.5387250000
40
3.8500000000
50
118.7193360000
51
241.2806640000
0
ARC
8
10000_FRONT
62
7
6
CONTINUOUS
10
250.3171120000
20
227.5387250000
40
0.5000000000
50
180.0000000000
51
270.0000000000
0
ARC
8
10000_FRONT
62
7
6
CONTINUOUS
10
250.3171120000
20
356.5387250000
40
0.5000000000
50
90.0000000000
51
180.0000000000
0
ARC
8
10000_FRONT
62
7
6
CONTINUOUS
10
302.1171120000
20
227.5387250000
40
0.2000000000
50
180.0000000000
51
270.0000000000
0
ARC
8
10000_FRONT
62
7
6
CONTINUOUS
10
303.6171120000
20
229.2387250000
40
0.8000000000
50
312.0000000000
51
90.0000000000
0
ARC
8
10000_FRONT
62
7
6
CONTINUOUS
10
296.7671120000
20
232.5387250000
40
3.6000000000
50
341.3289460000
51
17.9202130000
0
ARC
8
10000_FRONT
62
7
6
CONTINUOUS
10
300.4779070000
20
233.7387250000
40
0.3000000000
50
90.0000000000
51
197.9202130000
0
ARC
8
10000_FRONT
62
7
6
CONTINUOUS
10
302.4171120000
20
233.5387250000
40
0.5000000000
50
0.0000000000
51
90.0000000000
0
ARC
8
10000_FRONT
62
7
6
CONTINUOUS
10
303.6171120000
20
354.8387250000
40
0.8000000000
50
270.0000000000
51
48.0000000000
0
ARC
8
10000_FRONT
62
7
6
CONTINUOUS
10
302.1171120000
20
356.5387250000
40
0.2000000000
50
90.0000000000
51
180.0000000000
0
ARC
8
10000_FRONT
62
7
6
CONTINUOUS
10
302.4171120000
20
350.5387250000
40
0.5000000000
50
270.0000000000
51
360.0000000000
0
ARC
8
10000_FRONT
62
7
6
CONTINUOUS
10
300.4779070000
20
350.3387250000
40
0.3000000000
50
162.0797870000
51
270.0000000000
0
ARC
8
10000_FRONT
62
7
6
CONTINUOUS
10
296.7671120000
20
351.5387250000
40
3.6000000000
50
342.0797870000
51
18.6710540000
0
ARC
8
10000_FRONT
62
7
6
CONTINUOUS
10
296.7671120000
20
232.5387250000
40
1.8500000000
50
324.9003680000
51
215.0996320000
0
ARC
8
10000_FRONT
62
7
6
CONTINUOUS
10
296.7671120000
20
351.5387250000
40
1.8500000000
50
144.9003680000
51
35.0996320000
0
ARC
8
10000_FRONT
62
7
6
CONTINUOUS
10
251.6671120000
20
351.5387250000
40
2.1500000000
50
23.1926720000
51
336.8073280000
0
ARC
8
10000_FRONT
62
7
6
CONTINUOUS
10
277.3671120000
20
351.5387250000
40
4.4824380000
50
180.0000000000
51
360.0000000000
0
ARC
8
10000_FRONT
62
7
6
CONTINUOUS
10
267.3671120000
20
232.2387250000
40
4.7824380000
50
0.0000000000
51
180.0000000000
0
ARC
8
10000_FRONT
62
7
6
CONTINUOUS
10
291.0171120000
20
241.0387250000
40
0.5000000000
50
270.0000000000
51
360.0000000000
0
ARC
8
10000_FRONT
62
7
6
CONTINUOUS
10
291.0171120000
20
353.2387250000
40
0.5000000000
50
0.0000000000
51
90.0000000000
0
ARC
8
10000_FRONT
62
7
6
CONTINUOUS
10
285.8671120000
20
353.2387250000
40
0.5000000000
50
90.0000000000
51
180.0000000000
0
ARC
8
10000_FRONT
62
7
6
CONTINUOUS
10
284.8671120000
20
342.7387250000
40
0.5000000000
50
270.0000000000
51
360.0000000000
0
ARC
8
10000_FRONT
62
7
6
CONTINUOUS
10
253.7171120000
20
341.7387250000
40
0.5000000000
50
90.0000000000
51
180.0000000000
0
ARC
8
10000_FRONT
62
7
6
CONTINUOUS
10
253.7171120000
20
241.0387250000
40
0.5000000000
50
180.0000000000
51
270.0000000000
0
ARC
8
11000_LEFT
62
7
6
CONTINUOUS
10
475.8356130000
20
354.9387250000
40
0.5000000000
50
90.0000000000
51
180.0000000000
0
ARC
8
11000_LEFT
62
7
6
CONTINUOUS
10
475.8356130000
20
346.3387250000
40
0.5000000000
50
180.0000000000
51
270.0000000000
0
ARC
8
11000_LEFT
62
7
6
CONTINUOUS
10
474.8356130000
20
346.3387250000
40
0.5000000000
50
270.0000000000
51
360.0000000000
0
ARC
8
11000_LEFT
62
7
6
CONTINUOUS
10
474.8356130000
20
354.9387250000
40
0.5000000000
50
0.0000000000
51
90.0000000000
0
ARC
8
11000_LEFT
62
7
6
CONTINUOUS
10
475.4356130000
20
341.5887250000
40
0.3000000000
50
0.0000000000
51
90.0000000000
0
ARC
8
11000_LEFT
62
7
6
CONTINUOUS
10
475.4356130000
20
241.1887250000
40
0.3000000000
50
270.0000000000
51
360.0000000000
0
ARC
8
11000_LEFT
62
7
6
CONTINUOUS
10
443.5356130000
20
244.9382350000
40
4.5000000000
50
180.0000000000
51
213.7051320000
0
ARC
8
11000_LEFT
62
7
6
CONTINUOUS
10
443.5356130000
20
339.1392150000
40
4.5000000000
50
146.2948680000
51
180.0000000000
0
ARC
8
11000_LEFT
62
7
6
CONTINUOUS
10
443.5356130000
20
339.1392150000
40
4.5000000000
50
95.0000000000
51
146.2535870000
0
ARC
8
11000_LEFT
62
7
6
CONTINUOUS
10
443.5356130000
20
244.9382350000
40
4.5000000000
50
213.7464130000
51
265.0000000000
0
ARC
8
11000_LEFT
62
7
6
CONTINUOUS
10
453.8356130000
20
237.8887250000
40
0.2000000000
50
240.0000000000
51
360.0000000000
0
ARC
8
11000_LEFT
62
7
6
CONTINUOUS
10
453.8356130000
20
346.1887250000
40
0.2000000000
50
0.0000000000
51
120.0000000000
0
ARC
8
11000_LEFT
62
7
6
CONTINUOUS
10
449.8356130000
20
251.1387250000
40
6.8000000000
50
270.0000000000
51
355.0208940000
0
ARC
8
11000_LEFT
62
7
6
CONTINUOUS
10
446.3356130000
20
249.6387250000
40
5.3000000000
50
180.0000000000
51
270.0000000000
0
ARC
8
11000_LEFT
62
7
6
CONTINUOUS
10
446.3356130000
20
298.6387250000
40
5.3000000000
50
90.0000000000
51
180.0000000000
0
ARC
8
11000_LEFT
62
7
6
CONTINUOUS
10
449.8356130000
20
297.1387250000
40
6.8000000000
50
4.9791060000
51
90.0000000000
0
ARC
8
11000_LEFT
62
7
6
CONTINUOUS
10
185.8356130000
20
274.1387250000
40
271.8000000000
50
355.0208940000
51
4.9791060000
0
ARC
8
11000_LEFT
62
7
6
CONTINUOUS
10
481.0049710000
20
350.7693670000
40
1.4306420000
50
275.2889970000
51
60.0000000000
0
ARC
8
11000_LEFT
62
7
6
CONTINUOUS
10
496.8356130000
20
228.0205160000
40
0.5000000000
50
270.8000000000
51
360.0000000000
0
ARC
8
12000_RIGHT
62
7
6
CONTINUOUS
10
71.4510140000
20
346.3387250000
40
0.5000000000
50
180.0000000000
51
270.0000000000
0
ARC
8
12000_RIGHT
62
7
6
CONTINUOUS
10
71.4510140000
20
354.9387250000
40
0.5000000000
50
90.0000000000
51
180.0000000000
0
ARC
8
12000_RIGHT
62
7
6
CONTINUOUS
10
70.4510140000
20
346.3387250000
40
0.5000000000
50
270.0000000000
51
360.0000000000
0
ARC
8
12000_RIGHT
62
7
6
CONTINUOUS
10
70.4510140000
20
354.9387250000
40
0.5000000000
50
0.0000000000
51
90.0000000000
0
ARC
8
12000_RIGHT
62
7
6
CONTINUOUS
10
70.8510140000
20
241.1887250000
40
0.3000000000
50
180.0000000000
51
270.0000000000
0
ARC
8
12000_RIGHT
62
7
6
CONTINUOUS
10
70.8510140000
20
341.5887250000
40
0.3000000000
50
90.0000000000
51
180.0000000000
0
ARC
8
12000_RIGHT
62
7
6
CONTINUOUS
10
102.7510140000
20
339.1392150000
40
3.0000000000
50
347.6949590000
51
78.1929890000
0
ARC
8
12000_RIGHT
62
7
6
CONTINUOUS
10
105.1935810000
20
338.6064240000
40
0.5000000000
50
203.3703970000
51
347.6949590000
0
ARC
8
12000_RIGHT
62
7
6
CONTINUOUS
10
101.9807220000
20
337.2180660000
40
3.0000000000
50
23.3703970000
51
85.0000000000
0
ARC
8
12000_RIGHT
62
7
6
CONTINUOUS
10
96.4510140000
20
251.1387250000
40
7.0000000000
50
184.9791060000
51
270.0000000000
0
ARC
8
12000_RIGHT
62
7
6
CONTINUOUS
10
360.4510140000
20
274.1387250000
40
272.0000000000
50
175.0208940000
51
184.9791060000
0
ARC
8
12000_RIGHT
62
7
6
CONTINUOUS
10
96.4510140000
20
297.1387250000
40
7.0000000000
50
90.0000000000
51
175.0208940000
0
ARC
8
12000_RIGHT
62
7
6
CONTINUOUS
10
99.9510140000
20
249.6387250000
40
7.0000000000
50
270.0000000000
51
313.8766630000
0
ARC
8
12000_RIGHT
62
7
6
CONTINUOUS
10
105.1493260000
20
244.2324740000
40
0.5000000000
50
343.6022070000
51
133.8766630000
0
ARC
8
12000_RIGHT
62
7
6
CONTINUOUS
10
102.7510140000
20
244.9382350000
40
3.0000000000
50
281.8070110000
51
343.6022070000
0
ARC
8
12000_RIGHT
62
7
6
CONTINUOUS
10
99.9510140000
20
298.6387250000
40
5.5000000000
50
0.0000000000
51
90.0000000000
0
ARC
8
12000_RIGHT
62
7
6
CONTINUOUS
10
92.4510140000
20
237.8887250000
40
0.2000000000
50
180.0000000000
51
300.0000000000
0
ARC
8
12000_RIGHT
62
7
6
CONTINUOUS
10
99.9510140000
20
249.6387250000
40
5.5000000000
50
270.0000000000
51
360.0000000000
0
ARC
8
12000_RIGHT
62
7
6
CONTINUOUS
10
102.7510140000
20
244.9382350000
40
4.5000000000
50
281.8070110000
51
360.0000000000
0
ARC
8
12000_RIGHT
62
7
6
CONTINUOUS
10
102.7510140000
20
339.1392150000
40
4.5000000000
50
0.0000000000
51
78.1929890000
0
ARC
8
12000_RIGHT
62
7
6
CONTINUOUS
10
92.4510140000
20
346.1887250000
40
0.2000000000
50
60.0000000000
51
180.0000000000
0
ARC
8
12000_RIGHT
62
7
6
CONTINUOUS
10
49.4510140000
20
228.0205160000
40
0.5000000000
50
180.0000000000
51
269.2000000000
0
ARC
8
12000_RIGHT
62
7
6
CONTINUOUS
10
65.2816570000
20
350.7693670000
40
1.4306420000
50
120.0000000000
51
270.0000000000
0
ARC
8
13000_TOP
62
7
6
CONTINUOUS
10
263.5671120000
20
119.5505570000
40
0.5000000000
50
270.0000000000
51
360.0000000000
0
ARC
8
13000_TOP
62
7
6
CONTINUOUS
10
254.9671120000
20
119.5505570000
40
0.5000000000
50
180.0000000000
51
270.0000000000
0
ARC
8
13000_TOP
62
7
6
CONTINUOUS
10
254.9671120000
20
118.5505570000
40
0.5000000000
50
90.0000000000
51
180.0000000000
0
ARC
8
13000_TOP
62
7
6
CONTINUOUS
10
263.5671120000
20
118.5505570000
40
0.5000000000
50
0.0000000000
51
90.0000000000
0
ARC
8
13000_TOP
62
7
6
CONTINUOUS
10
253.9171120000
20
118.9505570000
40
0.3000000000
50
180.0000000000
51
270.0000000000
0
ARC
8
13000_TOP
62
7
6
CONTINUOUS
10
290.8171120000
20
118.9505570000
40
0.3000000000
50
270.0000000000
51
360.0000000000
0
ARC
8
13000_TOP
62
7
6
CONTINUOUS
10
266.1671120000
20
122.8505570000
40
0.3000000000
50
180.0000000000
51
270.0000000000
0
ARC
8
13000_TOP
62
7
6
CONTINUOUS
10
270.4171120000
20
129.7505570000
40
0.3000000000
50
0.0000000000
51
90.0000000000
0
ARC
8
13000_TOP
62
7
6
CONTINUOUS
10
270.4171120000
20
122.8505570000
40
0.3000000000
50
270.0000000000
51
360.0000000000
0
ARC
8
13000_TOP
62
7
6
CONTINUOUS
10
270.7171120000
20
130.0505570000
40
0.5000000000
50
0.0000000000
51
90.0000000000
0
ARC
8
13000_TOP
62
7
6
CONTINUOUS
10
265.8671120000
20
122.0505570000
40
0.5000000000
50
180.0000000000
51
270.0000000000
0
ARC
8
13000_TOP
62
7
6
CONTINUOUS
10
270.7171120000
20
122.0505570000
40
0.5000000000
50
270.0000000000
51
360.0000000000
0
ARC
8
13000_TOP
62
7
6
CONTINUOUS
10
294.3171120000
20
97.5505570000
40
0.5000000000
50
270.0000000000
51
360.0000000000
0
ARC
8
13000_TOP
62
7
6
CONTINUOUS
10
265.8768430000
20
130.0434620000
40
0.5033950000
50
90.5717670000
51
179.2226440000
0
ARC
8
13000_TOP
62
7
6
CONTINUOUS
10
266.1648480000
20
129.7301570000
40
0.2994580000
50
90.8944510000
51
176.7431710000
0
ENDSEC
0
EOF
