0
SECTION
2
HEADER
9
$EXTMAX
10
594.0000000000
20
420.0000000000
9
$EXTMIN
10
0.0000000000
20
0.0000000000
9
$LIMMIN
10
0.0000000000
20
0.0000000000
9
$LIMMAX
10
594.0000000000
20
420.0000000000
9
$VIEWCTR
10
297.0000000000
20
210.0000000000
9
$VIEWSIZE
40
420.0000000000
9
$CLAYER
8
0
9
$LTSCALE
40
32.6700000000
9
$CELTYPE
6
BYLAYER
9
$DIMSCALE
40
1
9
$DIMASZ
40
3.5000000000
9
$DIMEXO
40
3.7125000000
9
$DIMDLI
40
22.5720000000
9
$DIMEXE
40
10.6920000000
9
$DIMCEN
40
5.3460000000
9
$DIMLFAC
40
1.0000000000
0
ENDSEC
0
SECTION
2
TABLES
0
TABLE
2
LTYPE
70
6
0
LTYPE
2
BYBLOCK
70
0
3

72
65
73
0
40
0.0
0
LTYPE
2
BYLAYER
70
0
3

72
65
73
0
40
0.0
0
LTYPE
2
CONTINUOUS
70
64
3
Solid line
72
65
73
0
40
0
0
LTYPE
2
CENTER
70
64
3
____ _ ____ _ ____ _ ____ _ ____ _ ____ _ ____
72
65
73
4
40
0.6
49
0.375
49
-0.075
49
0.075
49
-0.075
0
LTYPE
2
HIDDEN
70
64
3
- - - - - - - - - - - - - - - - - - - -
72
65
73
2
40
0.2
49
0.1
49
-0.1
0
LTYPE
2
PHANTOM
70
64
3
_____ _ _ _____ _ _ _____ _ _ _____
72
65
73
6
40
0.8
49
0.45
49
-0.05
49
0.1
49
-0.05
49
0.1
49
-0.05
0
LTYPE
2
DOT
70
64
3
. . . . . . . . . . . . . . . . . . . .
72
65
73
2
40
0.2
49
0.1
49
-0.1
0
LTYPE
2
DASHED
70
64
3
- - - - - - - - - - - - - - - - - - - -
72
65
73
2
40
0.2
49
0.1
49
-0.1
0
ENDTAB
0
TABLE
2
LAYER
70
36
0
LAYER
2
0
70
0
62
7
6
CONTINUOUS
0
LAYER
2
DEFAULT_1
70
0
62
7
6
CENTER
0
LAYER
2
DEFAULT_2
70
0
62
8
6
HIDDEN
0
LAYER
2
DEFAULT_3
70
0
62
7
6
PHANTOM
0
LAYER
2
10000_FRONT
70
0
62
7
6
CONTINUOUS
0
LAYER
2
10100_DIM_FRONT
70
0
62
7
6
CONTINUOUS
0
LAYER
2
10300_FRONT_GERMAN_ENGLISH
70
0
62
7
6
CONTINUOUS
0
LAYER
2
10500_FRONT_LABELING
70
0
62
7
6
CONTINUOUS
0
LAYER
2
11000_LEFT
70
0
62
7
6
CONTINUOUS
0
LAYER
2
11100_DIM_LEFT
70
0
62
7
6
CONTINUOUS
0
LAYER
2
11300_LEFT_GERMAN_ENGLISH
70
0
62
7
6
CONTINUOUS
0
LAYER
2
11500_LEFT_LABELING
70
0
62
7
6
CONTINUOUS
0
LAYER
2
12000_RIGHT
70
0
62
7
6
CONTINUOUS
0
LAYER
2
12100_DIM_RIGHT
70
0
62
7
6
CONTINUOUS
0
LAYER
2
12300_RIGHT_GERMAN_ENGLISH
70
0
62
7
6
CONTINUOUS
0
LAYER
2
12500_RIGHT_LABELING
70
0
62
7
6
CONTINUOUS
0
LAYER
2
13000_TOP
70
0
62
7
6
CONTINUOUS
0
LAYER
2
13100_DIM_TOP
70
0
62
7
6
CONTINUOUS
0
LAYER
2
13300_TOP_GERMAN_ENGLISH
70
0
62
7
6
CONTINUOUS
0
LAYER
2
13500_TOP_LABELING
70
0
62
7
6
CONTINUOUS
0
LAYER
2
14000_BOTTOM
70
0
62
7
6
CONTINUOUS
0
LAYER
2
14100_DIM_BOTTOM
70
0
62
7
6
CONTINUOUS
0
LAYER
2
14300_BOTTOM_GERMAN_ENGLISH
70
0
62
7
6
CONTINUOUS
0
LAYER
2
14500_BOTTOM_LABELING
70
0
62
7
6
CONTINUOUS
0
LAYER
2
15000_BACK
70
0
62
7
6
CONTINUOUS
0
LAYER
2
15100_DIM_BACK
70
0
62
7
6
CONTINUOUS
0
LAYER
2
15300_BACK_GERMAN_ENGLISH
70
0
62
7
6
CONTINUOUS
0
LAYER
2
15500_BACK_LABELING
70
0
62
7
6
CONTINUOUS
0
LAYER
2
20000_FRONT_O
70
0
62
7
6
CONTINUOUS
0
LAYER
2
20100_DIM_FRONT_O
70
0
62
7
6
CONTINUOUS
0
LAYER
2
20300_FRONT_O_GERMAN_ENGLISH
70
0
62
7
6
CONTINUOUS
0
LAYER
2
20500_FRONT_O_LABELING
70
0
62
7
6
CONTINUOUS
0
LAYER
2
40000_ISO
70
0
62
7
6
CONTINUOUS
0
LAYER
2
40300_ISO_GERMAN_ENGLISH
70
0
62
7
6
CONTINUOUS
0
LAYER
2
50000_WIRING
70
0
62
7
6
CONTINUOUS
0
LAYER
2
50300_WIRING_GERMAN_ENGLISH
70
0
62
7
6
CONTINUOUS
0
LAYER
2
90000_FRAME
70
0
62
7
6
CONTINUOUS
0
LAYER
2
91000_TIP
70
0
62
7
6
CONTINUOUS
0
ENDTAB
0
ENDSEC
0
SECTION
2
BLOCKS
0
BLOCK
8
11100_DIM_LEFT
62
7
6
CONTINUOUS
2
*D0
70
65
10
0.0000000000
20
0.0000000000
0
TEXT
8
11100_DIM_LEFT
62
7
6
CONTINUOUS
10
277.8924227931
20
340.4422104341
40
3.5000000000
1
30.9
72
5
11
287.8924227931
21
340.4422104341
0
LINE
8
11100_DIM_LEFT
62
7
6
CONTINUOUS
10
267.5073726654
20
326.2200140292
11
267.5073726654
21
341.5672104341
0
LINE
8
11100_DIM_LEFT
62
7
6
CONTINUOUS
10
298.3573546654
20
326.5875310292
11
298.3573546654
21
341.5672104341
0
LINE
8
11100_DIM_LEFT
62
7
6
CONTINUOUS
10
267.5073726654
20
339.5672104341
11
282.9323636654
21
339.5672104341
0
LINE
8
11100_DIM_LEFT
62
7
6
CONTINUOUS
10
298.3573546654
20
339.5672104341
11
282.9323636654
21
339.5672104341
0
SOLID
8
11100_DIM_LEFT
62
7
6
CONTINUOUS
10
271.0073726654
20
340.0672104341
11
267.5073726654
21
339.5672104341
12
271.0073726654
22
339.0672104341
13
271.0073726654
23
339.0672104341
0
SOLID
8
11100_DIM_LEFT
62
7
6
CONTINUOUS
10
294.8573546654
20
339.0672104341
11
298.3573546654
21
339.5672104341
12
294.8573546654
22
340.0672104341
13
294.8573546654
23
340.0672104341
0
ENDBLK
8
0
0
BLOCK
8
10100_DIM_FRONT
62
7
6
CONTINUOUS
2
*D1
70
65
10
0.0000000000
20
0.0000000000
0
TEXT
8
10100_DIM_FRONT
62
7
6
CONTINUOUS
10
166.3258345869
20
339.0144844424
40
3.5000000000
1
25.4
72
5
11
176.3258345869
21
339.0144844424
0
LINE
8
10100_DIM_FRONT
62
7
6
CONTINUOUS
10
157.8913546654
20
326.6337463555
11
157.8913546654
21
340.1394844424
0
LINE
8
10100_DIM_FRONT
62
7
6
CONTINUOUS
10
183.2913536654
20
326.6337463555
11
183.2913536654
21
340.1394844424
0
LINE
8
10100_DIM_FRONT
62
7
6
CONTINUOUS
10
157.8913546654
20
338.1394844424
11
170.5913541654
21
338.1394844424
0
LINE
8
10100_DIM_FRONT
62
7
6
CONTINUOUS
10
183.2913536654
20
338.1394844424
11
170.5913541654
21
338.1394844424
0
SOLID
8
10100_DIM_FRONT
62
7
6
CONTINUOUS
10
161.3913546654
20
338.6394844424
11
157.8913546654
21
338.1394844424
12
161.3913546654
22
337.6394844424
13
161.3913546654
23
337.6394844424
0
SOLID
8
10100_DIM_FRONT
62
7
6
CONTINUOUS
10
179.7913536654
20
337.6394844424
11
183.2913536654
21
338.1394844424
12
179.7913536654
22
338.6394844424
13
179.7913536654
23
338.6394844424
0
ENDBLK
8
0
0
BLOCK
8
10100_DIM_FRONT
62
7
6
CONTINUOUS
2
*D2
70
65
10
0.0000000000
20
0.0000000000
0
TEXT
8
10100_DIM_FRONT
62
7
6
CONTINUOUS
10
194.9749110669
20
260.0758795172
40
3.5000000000
1
130.4
50
90.0000000000
72
5
11
194.9749110669
21
272.0758795172
0
LINE
8
10100_DIM_FRONT
62
7
6
CONTINUOUS
10
174.8800456654
20
330.6340343555
11
197.8499110669
21
330.6340343555
0
LINE
8
10100_DIM_FRONT
62
7
6
CONTINUOUS
10
185.4913646654
20
200.2087613555
11
197.8499110669
21
200.2087613555
0
LINE
8
10100_DIM_FRONT
62
7
6
CONTINUOUS
10
195.8499110669
20
330.6340343555
11
195.8499110669
21
265.4213978555
0
LINE
8
10100_DIM_FRONT
62
7
6
CONTINUOUS
10
195.8499110669
20
200.2087613555
11
195.8499110669
21
265.4213978555
0
SOLID
8
10100_DIM_FRONT
62
7
6
CONTINUOUS
10
196.3499110669
20
327.1340343555
11
195.8499110669
21
330.6340343555
12
195.3499110669
22
327.1340343555
13
195.3499110669
23
327.1340343555
0
SOLID
8
10100_DIM_FRONT
62
7
6
CONTINUOUS
10
195.3499110669
20
203.7087613555
11
195.8499110669
21
200.2087613555
12
196.3499110669
22
203.7087613555
13
196.3499110669
23
203.7087613555
0
ENDBLK
8
0
0
BLOCK
8
10100_DIM_FRONT
62
7
6
CONTINUOUS
2
*D3
70
65
10
0.0000000000
20
0.0000000000
0
TEXT
8
10100_DIM_FRONT
62
7
6
CONTINUOUS
10
166.3500436907
20
192.9662765753
40
3.5000000000
1
29.8
72
5
11
176.6000436907
21
192.9662765753
0
LINE
8
10100_DIM_FRONT
62
7
6
CONTINUOUS
10
155.6913556654
20
200.4949870292
11
155.6913556654
21
190.0912765753
0
LINE
8
10100_DIM_FRONT
62
7
6
CONTINUOUS
10
185.4913646654
20
200.2087613555
11
185.4913646654
21
190.0912765753
0
LINE
8
10100_DIM_FRONT
62
7
6
CONTINUOUS
10
155.6913556654
20
192.0912765753
11
170.5913601654
21
192.0912765753
0
LINE
8
10100_DIM_FRONT
62
7
6
CONTINUOUS
10
185.4913646654
20
192.0912765753
11
170.5913601654
21
192.0912765753
0
SOLID
8
10100_DIM_FRONT
62
7
6
CONTINUOUS
10
159.1913556654
20
192.5912765753
11
155.6913556654
21
192.0912765753
12
159.1913556654
22
191.5912765753
13
159.1913556654
23
191.5912765753
0
SOLID
8
10100_DIM_FRONT
62
7
6
CONTINUOUS
10
181.9913646654
20
191.5912765753
11
185.4913646654
21
192.0912765753
12
181.9913646654
22
192.5912765753
13
181.9913646654
23
192.5912765753
0
ENDBLK
8
0
0
BLOCK
8
11100_DIM_LEFT
62
7
6
CONTINUOUS
2
*D4
70
65
10
0.0000000000
20
0.0000000000
0
TEXT
8
11100_DIM_LEFT
62
7
6
CONTINUOUS
10
313.2234337539
20
260.3123414351
40
3.5000000000
1
118.3
50
90.0000000000
72
5
11
313.2234337539
21
271.5623414351
0
LINE
8
11100_DIM_LEFT
62
7
6
CONTINUOUS
10
307.4073586654
20
330.9452590292
11
316.0984337539
21
330.9452590292
0
LINE
8
11100_DIM_LEFT
62
7
6
CONTINUOUS
10
298.3573546654
20
212.6200220292
11
316.0984337539
21
212.6200220292
0
LINE
8
11100_DIM_LEFT
62
7
6
CONTINUOUS
10
314.0984337539
20
330.9452590292
11
314.0984337539
21
271.7826405292
0
LINE
8
11100_DIM_LEFT
62
7
6
CONTINUOUS
10
314.0984337539
20
212.6200220292
11
314.0984337539
21
271.7826405292
0
SOLID
8
11100_DIM_LEFT
62
7
6
CONTINUOUS
10
314.5984337539
20
327.4452590292
11
314.0984337539
21
330.9452590292
12
313.5984337539
22
327.4452590292
13
313.5984337539
23
327.4452590292
0
SOLID
8
11100_DIM_LEFT
62
7
6
CONTINUOUS
10
313.5984337539
20
216.1200220292
11
314.0984337539
21
212.6200220292
12
314.5984337539
22
216.1200220292
13
314.5984337539
23
216.1200220292
0
ENDBLK
8
0
0
BLOCK
8
11100_DIM_LEFT
62
7
6
CONTINUOUS
2
*D5
70
65
10
0.0000000000
20
0.0000000000
0
TEXT
8
11100_DIM_LEFT
62
7
6
CONTINUOUS
10
280.0570313526
20
347.5808403924
40
3.5000000000
1
45.5
72
5
11
289.8070313526
21
347.5808403924
0
LINE
8
11100_DIM_LEFT
62
7
6
CONTINUOUS
10
307.4073586654
20
329.8199880292
11
307.4073586654
21
348.7058403924
0
LINE
8
11100_DIM_LEFT
62
7
6
CONTINUOUS
10
261.9073616195
20
207.6954190292
11
261.9073616195
21
348.7058403924
0
LINE
8
11100_DIM_LEFT
62
7
6
CONTINUOUS
10
307.4073586654
20
346.7058403924
11
284.6573601424
21
346.7058403924
0
LINE
8
11100_DIM_LEFT
62
7
6
CONTINUOUS
10
261.9073616195
20
346.7058403924
11
284.6573601424
21
346.7058403924
0
SOLID
8
11100_DIM_LEFT
62
7
6
CONTINUOUS
10
303.9073586654
20
346.2058403924
11
307.4073586654
21
346.7058403924
12
303.9073586654
22
347.2058403924
13
303.9073586654
23
347.2058403924
0
SOLID
8
11100_DIM_LEFT
62
7
6
CONTINUOUS
10
265.4073616195
20
347.2058403924
11
261.9073616195
21
346.7058403924
12
265.4073616195
22
346.2058403924
13
265.4073616195
23
346.2058403924
0
ENDBLK
8
0
0
ENDSEC
0
SECTION
2
ENTITIES
0
DIMENSION
8
11100_DIM_LEFT
62
7
6
CONTINUOUS
2
*D0
10
298.3573546654
20
339.5672104341
11
282.8924227931
21
342.1922104341
70
128
13
267.5073726654
23
326.2200140292
14
298.3573546654
24
326.5875310292
0
DIMENSION
8
10100_DIM_FRONT
62
7
6
CONTINUOUS
2
*D1
10
183.2913536654
20
338.1394844424
11
171.3258345869
21
340.7644844424
70
128
13
157.8913546654
23
326.6337463555
14
183.2913536654
24
326.6337463555
0
DIMENSION
8
10100_DIM_FRONT
62
7
6
CONTINUOUS
2
*D2
10
195.8499110669
20
200.2087613555
11
193.2249110669
21
266.0758795172
70
128
13
174.8800456654
23
330.6340343555
14
185.4913646654
24
200.2087613555
50
270.000000
0
DIMENSION
8
10100_DIM_FRONT
62
7
6
CONTINUOUS
2
*D3
10
185.4913646654
20
192.0912765753
11
171.4750436907
21
194.7162765753
70
128
13
155.6913556654
23
200.4949870292
14
185.4913646654
24
200.2087613555
0
DIMENSION
8
11100_DIM_LEFT
62
7
6
CONTINUOUS
2
*D4
10
314.0984337539
20
212.6200220292
11
311.4734337539
21
265.9373414351
70
128
13
307.4073586654
23
330.9452590292
14
298.3573546654
24
212.6200220292
50
270.000000
0
DIMENSION
8
11100_DIM_LEFT
62
7
6
CONTINUOUS
2
*D5
10
261.9073616195
20
346.7058403924
11
284.9320313526
21
349.3308403924
70
128
13
307.4073586654
23
329.8199880292
14
261.9073616195
24
207.6954190292
50
180.000000
0
TEXT
8
90000_FRAME
62
7
6
CONTINUOUS
10
499.6600000000
20
11.9000000000
40
2.2000000000
1
Format / Size: DIN A2
72
5
11
533.2361904762
21
11.9000000000
0
TEXT
8
90000_FRAME
62
7
6
CONTINUOUS
10
542.1600000000
20
11.9000000000
40
2.2000000000
1
Massstab / Scale: 1:1
72
5
11
573.0647619048
21
11.9000000000
0
TEXT
8
90000_FRAME
62
7
6
CONTINUOUS
10
516.5027930000
20
19.8924840000
40
3.5000000000
1
6ES7592-1AM00-0XB0
72
5
11
565.0027930000
21
19.8924840000
0
TEXT
8
10300_FRONT_GERMAN_ENGLISH
62
7
6
CONTINUOUS
10
157.8644180940
20
355.9697266139
40
3.5000000000
1
Vorne / Front
72
5
11
190.4477514273
21
355.9697266139
0
TEXT
8
13300_TOP_GERMAN_ENGLISH
62
7
6
CONTINUOUS
10
156.0410156250
20
149.7096567623
40
3.5000000000
1
Oben / Top
72
5
11
182.4576822917
21
149.7096567623
0
TEXT
8
91000_TIP
62
7
6
CONTINUOUS
10
11.2756234532
20
15.1898618139
40
3.5000000000
1
Alle Bemassungswerte sind in Millimeter (mm) angegeben.
72
5
11
145.8589567865
21
15.1898618139
0
TEXT
8
91000_TIP
62
7
6
CONTINUOUS
10
11.2756234532
20
9.9398618139
40
3.5000000000
1
All dimensions are in millimeters (mm).
72
5
11
104.4422901199
21
9.9398618139
0
TEXT
8
11300_LEFT_GERMAN_ENGLISH
62
7
6
CONTINUOUS
10
260.0488069264
20
356.3776483258
40
3.5000000000
1
Links / Left
72
5
11
288.5488069264
21
356.3776483258
0
TEXT
8
15300_BACK_GERMAN_ENGLISH
62
7
6
CONTINUOUS
10
375.4906513957
20
356.3776483258
40
3.5000000000
1
Hinten / Back
72
5
11
407.7406513957
21
356.3776483258
0
LINE
8
90000_FRAME
62
7
6
CONTINUOUS
10
0.0000000000
20
420.0000000000
11
0.0000000000
21
0.0000000000
0
LINE
8
90000_FRAME
62
7
6
CONTINUOUS
10
5.0000000000
20
415.0000000000
11
5.0000000000
21
5.0000000000
0
LINE
8
91000_TIP
62
7
6
CONTINUOUS
10
422.7797810000
20
20.8043440000
11
432.7797810000
21
23.3043440000
0
LINE
8
90000_FRAME
62
7
6
CONTINUOUS
10
0.0000000000
20
0.0000000000
11
594.0000000000
21
0.0000000000
0
LINE
8
90000_FRAME
62
7
6
CONTINUOUS
10
5.0000000000
20
5.0000000000
11
589.0000000000
21
5.0000000000
0
LINE
8
90000_FRAME
62
7
6
CONTINUOUS
10
449.0000000000
20
10.0000000000
11
584.0000000000
21
10.0000000000
0
LINE
8
90000_FRAME
62
7
6
CONTINUOUS
10
499.0000000000
20
16.0000000000
11
584.0000000000
21
16.0000000000
0
LINE
8
90000_FRAME
62
7
6
CONTINUOUS
10
472.3969330000
20
16.7492120000
11
473.2525220000
21
16.7492120000
0
LINE
8
90000_FRAME
62
7
6
CONTINUOUS
10
485.5872550000
20
16.7967450000
11
484.0662090000
21
16.7967450000
0
LINE
8
90000_FRAME
62
7
6
CONTINUOUS
10
475.9618850000
20
16.7967450000
11
474.5834370000
21
16.7967450000
0
LINE
8
90000_FRAME
62
7
6
CONTINUOUS
10
463.2231240000
20
16.7967450000
11
464.6491050000
21
16.7967450000
0
LINE
8
90000_FRAME
62
7
6
CONTINUOUS
10
465.7423570000
20
16.7967450000
11
469.3073090000
21
16.7967450000
0
LINE
8
90000_FRAME
62
7
6
CONTINUOUS
10
470.1153640000
20
16.7967450000
11
471.0660180000
21
16.7967450000
0
LINE
8
90000_FRAME
62
7
6
CONTINUOUS
10
477.0551370000
20
16.7967450000
11
480.6200890000
21
16.7967450000
0
LINE
8
90000_FRAME
62
7
6
CONTINUOUS
10
481.4043780000
20
16.7967450000
11
482.3550320000
21
16.7967450000
0
LINE
8
90000_FRAME
62
7
6
CONTINUOUS
10
480.6200890000
20
17.6998660000
11
478.4335850000
21
17.6998660000
0
LINE
8
90000_FRAME
62
7
6
CONTINUOUS
10
469.3073090000
20
17.6998660000
11
467.1208050000
21
17.6998660000
0
LINE
8
91000_TIP
62
7
6
CENTER
10
421.5002710000
20
18.3043440000
11
445.1022600000
21
18.3043440000
0
LINE
8
90000_FRAME
62
7
6
CONTINUOUS
10
480.2873600000
20
18.8168840000
11
478.4335850000
21
18.8168840000
0
LINE
8
90000_FRAME
62
7
6
CONTINUOUS
10
468.9745800000
20
18.8168840000
11
467.1208050000
21
18.8168840000
0
LINE
8
90000_FRAME
62
7
6
CONTINUOUS
10
480.2873600000
20
19.6011730000
11
478.4335850000
21
19.6011730000
0
LINE
8
90000_FRAME
62
7
6
CONTINUOUS
10
468.9745800000
20
19.6011730000
11
467.1208050000
21
19.6011730000
0
LINE
8
90000_FRAME
62
7
6
CONTINUOUS
10
480.5725560000
20
20.6706590000
11
478.4335850000
21
20.6706590000
0
LINE
8
90000_FRAME
62
7
6
CONTINUOUS
10
469.2597760000
20
20.6706590000
11
467.1208050000
21
20.6706590000
0
LINE
8
90000_FRAME
62
7
6
CONTINUOUS
10
485.5872550000
20
21.5500140000
11
484.6366010000
21
21.5500140000
0
LINE
8
90000_FRAME
62
7
6
CONTINUOUS
10
482.9491910000
20
21.5500140000
11
481.4043780000
21
21.5500140000
0
LINE
8
90000_FRAME
62
7
6
CONTINUOUS
10
480.5725560000
20
21.5500140000
11
477.0551370000
21
21.5500140000
0
LINE
8
90000_FRAME
62
7
6
CONTINUOUS
10
475.9618850000
20
21.5500140000
11
474.2507080000
21
21.5500140000
0
LINE
8
90000_FRAME
62
7
6
CONTINUOUS
10
471.8265410000
20
21.5500140000
11
470.1153640000
21
21.5500140000
0
LINE
8
90000_FRAME
62
7
6
CONTINUOUS
10
469.2597760000
20
21.5500140000
11
465.7423570000
21
21.5500140000
0
LINE
8
90000_FRAME
62
7
6
CONTINUOUS
10
463.2231240000
20
21.5500140000
11
464.6491050000
21
21.5500140000
0
LINE
8
10500_FRONT_LABELING
62
7
6
CONTINUOUS
10
158.3358156654
20
316.0901553555
11
158.4639936654
21
316.4869813555
0
LINE
8
10500_FRONT_LABELING
62
7
6
CONTINUOUS
10
159.1977426654
20
310.7649953555
11
159.1233526654
21
310.6033773555
0
LINE
8
10500_FRONT_LABELING
62
7
6
CONTINUOUS
10
159.1488236654
20
315.9344473555
11
159.1976456654
21
316.0349263555
0
LINE
8
10500_FRONT_LABELING
62
7
6
CONTINUOUS
10
158.6837476654
20
316.2252243555
11
158.6175336654
21
316.0901553555
0
LINE
8
10500_FRONT_LABELING
62
7
6
CONTINUOUS
10
159.3422586654
20
310.3699133555
11
159.4750636654
21
310.6311863555
0
LINE
8
10500_FRONT_LABELING
62
7
6
CONTINUOUS
10
158.6025386654
20
310.7800143555
11
158.6838566654
21
310.9387743555
0
LINE
8
10500_FRONT_LABELING
62
7
6
CONTINUOUS
10
166.6203396654
20
312.8910242263
11
166.5975446654
21
312.8506192263
0
LINE
8
10500_FRONT_LABELING
62
7
6
CONTINUOUS
10
159.5009096654
20
315.8723393555
11
159.3849646654
21
315.6686213555
0
LINE
8
10500_FRONT_LABELING
62
7
6
CONTINUOUS
10
158.8951326654
20
322.1190023555
11
158.5013576654
21
321.4673463555
0
LINE
8
10500_FRONT_LABELING
62
7
6
CONTINUOUS
10
158.5950416654
20
320.9935863555
11
158.8613526654
21
321.4342573555
0
LINE
8
10500_FRONT_LABELING
62
7
6
CONTINUOUS
10
159.0285056654
20
305.8987233555
11
158.2854676654
21
304.7130393555
0
LINE
8
10500_FRONT_LABELING
62
7
6
CONTINUOUS
10
158.6364026654
20
304.7498103555
11
159.0054696654
21
305.3349013555
0
LINE
8
10000_FRONT
62
7
6
CONTINUOUS
10
173.9521706654
20
322.9848893555
11
173.6270216654
21
322.4995993555
0
LINE
8
10500_FRONT_LABELING
62
7
6
CONTINUOUS
10
159.2554666654
20
298.4628403555
11
159.4968276654
21
298.7950383555
0
LINE
8
10500_FRONT_LABELING
62
7
6
CONTINUOUS
10
158.5672576654
20
311.3025113555
11
158.3887436654
21
311.0672063555
0
LINE
8
10500_FRONT_LABELING
62
7
6
CONTINUOUS
10
158.5987236654
20
315.2317293555
11
158.8725926654
21
315.5837423555
0
LINE
8
10500_FRONT_LABELING
62
7
6
CONTINUOUS
10
158.8725926654
20
315.5837423555
11
159.1488236654
21
315.9344473555
0
LINE
8
10500_FRONT_LABELING
62
7
6
CONTINUOUS
10
158.3213546654
20
314.8816533555
11
158.5987236654
21
315.2317293555
0
LINE
8
10500_FRONT_LABELING
62
7
6
CONTINUOUS
10
159.3849646654
20
315.6686213555
11
158.7949566654
21
314.9317953555
0
LINE
8
10500_FRONT_LABELING
62
7
6
CONTINUOUS
10
159.3163636654
20
309.3890143555
11
159.4644776654
21
309.5709793555
0
LINE
8
10500_FRONT_LABELING
62
7
6
CONTINUOUS
10
166.1291626654
20
313.9108742263
11
165.9486986654
21
313.6985332263
0
LINE
8
10000_FRONT
62
7
6
CONTINUOUS
10
162.5794886654
20
325.2575703555
11
160.0975416654
21
322.7756483555
0
LINE
8
10000_FRONT
62
7
6
CONTINUOUS
10
160.6632296654
20
322.2099363555
11
163.1451756654
21
324.6919073555
0
LINE
8
10000_FRONT
62
7
6
CONTINUOUS
10
162.5794886654
20
319.8575613555
11
160.0975416654
21
317.3756383555
0
LINE
8
10000_FRONT
62
7
6
CONTINUOUS
10
160.6632296654
20
316.8099273555
11
163.1451756654
21
319.2918973555
0
LINE
8
10000_FRONT
62
7
6
CONTINUOUS
10
162.5794886654
20
314.4575513555
11
160.0975416654
21
311.9756293555
0
LINE
8
10000_FRONT
62
7
6
CONTINUOUS
10
160.6632296654
20
311.4099663555
11
163.1451756654
21
313.8918883555
0
LINE
8
10000_FRONT
62
7
6
CONTINUOUS
10
162.5794886654
20
309.0575903555
11
160.0975416654
21
306.5756193555
0
LINE
8
10000_FRONT
62
7
6
CONTINUOUS
10
160.6632296654
20
306.0099563555
11
163.1451756654
21
308.4918783555
0
LINE
8
10000_FRONT
62
7
6
CONTINUOUS
10
180.5194786654
20
325.2575703555
11
178.0375316654
21
322.7756483555
0
LINE
8
10000_FRONT
62
7
6
CONTINUOUS
10
178.6032196654
20
322.2099363555
11
181.0851656654
21
324.6919073555
0
LINE
8
10500_FRONT_LABELING
62
7
6
CONTINUOUS
10
158.4639936654
20
316.4869813555
11
158.6136696654
21
316.6330003555
0
LINE
8
10500_FRONT_LABELING
62
7
6
CONTINUOUS
10
166.3725826654
20
313.6383132263
11
166.4080216654
21
313.6698522263
0
LINE
8
10500_FRONT_LABELING
62
7
6
CONTINUOUS
10
158.7936126654
20
316.3193083555
11
158.6837476654
21
316.2252243555
0
LINE
8
10000_FRONT
62
7
6
CONTINUOUS
10
165.3796086654
20
330.3407383555
11
165.0913506654
21
330.1686073555
0
LINE
8
10000_FRONT
62
7
6
CONTINUOUS
10
165.5888976654
20
330.4338533555
11
165.3796086654
21
330.3407383555
0
LINE
8
90000_FRAME
62
7
6
CONTINUOUS
10
449.0000000000
20
28.0000000000
11
584.0000000000
21
28.0000000000
0
LINE
8
13000_TOP
62
7
6
CONTINUOUS
10
165.8804376654
20
107.6979390292
11
165.6395976654
21
107.9216170292
0
LINE
8
13000_TOP
62
7
6
CONTINUOUS
10
168.9413576654
20
104.4326350292
11
168.5913546654
21
104.7826620292
0
LINE
8
13000_TOP
62
7
6
CONTINUOUS
10
166.1583276654
20
105.4687630292
11
166.0913626654
21
105.5847450292
0
LINE
8
13000_TOP
62
7
6
CONTINUOUS
10
166.1583276654
20
105.4687630292
11
167.3413586654
21
103.4197120292
0
LINE
8
13000_TOP
62
7
6
CONTINUOUS
10
166.0355276654
20
107.4097780292
11
165.8804376654
21
107.6979390292
0
LINE
8
10500_FRONT_LABELING
62
7
6
CONTINUOUS
10
159.4750636654
20
310.6311863555
11
159.4923346654
21
310.9254513555
0
LINE
8
10500_FRONT_LABELING
62
7
6
CONTINUOUS
10
158.3455776654
20
294.0122393555
11
158.3716056654
21
294.4297043555
0
LINE
8
10500_FRONT_LABELING
62
7
6
CONTINUOUS
10
159.5110106654
20
277.3888843555
11
159.5460496654
21
277.8156513555
0
LINE
8
10500_FRONT_LABELING
62
7
6
CONTINUOUS
10
159.5300256654
20
283.0392663555
11
159.4976146654
21
282.6724283555
0
LINE
8
10500_FRONT_LABELING
62
7
6
CONTINUOUS
10
159.4968276654
20
298.7950383555
11
159.5385406654
21
299.2050423555
0
LINE
8
10500_FRONT_LABELING
62
7
6
CONTINUOUS
10
158.6237826654
20
294.4356633555
11
158.5964706654
21
294.2227403555
0
LINE
8
10500_FRONT_LABELING
62
7
6
CONTINUOUS
10
158.3608986654
20
283.6764363555
11
158.4058936654
21
284.0208923555
0
LINE
8
10500_FRONT_LABELING
62
7
6
CONTINUOUS
10
166.3649166654
20
313.5919012263
11
166.3725826654
21
313.6383132263
0
LINE
8
10500_FRONT_LABELING
62
7
6
CONTINUOUS
10
159.2329996654
20
309.9237193555
11
159.2013276654
21
309.7327433555
0
LINE
8
10500_FRONT_LABELING
62
7
6
CONTINUOUS
10
159.8480056654
20
255.8339023555
11
159.8163336654
21
255.6428763555
0
LINE
8
10500_FRONT_LABELING
62
7
6
CONTINUOUS
10
159.2385826654
20
277.5862073555
11
159.1924616654
21
277.3343333555
0
LINE
8
10500_FRONT_LABELING
62
7
6
CONTINUOUS
10
159.5452986654
20
316.1041563555
11
159.5009096654
21
315.8723393555
0
LINE
8
10500_FRONT_LABELING
62
7
6
CONTINUOUS
10
160.1452986654
20
262.1041583555
11
160.1009096654
21
261.8723413555
0
LINE
8
10000_FRONT
62
7
6
CONTINUOUS
10
174.0663596654
20
323.5572863555
11
173.9521706654
21
322.9848893555
0
LINE
8
10500_FRONT_LABELING
62
7
6
CONTINUOUS
10
159.1976456654
20
316.0349263555
11
159.2193136654
21
316.1431563555
0
LINE
8
10500_FRONT_LABELING
62
7
6
CONTINUOUS
10
159.7976456654
20
262.0349283555
11
159.8193246654
21
262.1431583555
0
LINE
8
10500_FRONT_LABELING
62
7
6
CONTINUOUS
10
159.7861146654
20
271.9814143555
11
159.8486836654
21
272.2873063555
0
LINE
8
10500_FRONT_LABELING
62
7
6
CONTINUOUS
10
167.0114486654
20
312.7376902263
11
167.0694276654
21
313.0162102263
0
LINE
8
10500_FRONT_LABELING
62
7
6
CONTINUOUS
10
159.2854796654
20
272.8912423555
11
159.2163096654
21
272.5925203555
0
LINE
8
10500_FRONT_LABELING
62
7
6
CONTINUOUS
10
158.3887436654
20
311.0672063555
11
158.3208096654
21
310.7800143555
0
LINE
8
10500_FRONT_LABELING
62
7
6
CONTINUOUS
10
159.0037376654
20
256.9773403555
11
158.9358156654
21
256.6901483555
0
LINE
8
10500_FRONT_LABELING
62
7
6
CONTINUOUS
10
160.0153286654
20
271.7089013555
11
160.1378376654
21
272.2031543555
0
LINE
8
10500_FRONT_LABELING
62
7
6
CONTINUOUS
10
159.0519906654
20
273.1682113555
11
158.9292996654
21
272.6740073555
0
LINE
8
10500_FRONT_LABELING
62
7
6
CONTINUOUS
10
160.0794836654
20
255.4811133555
11
160.1420036654
21
255.7080863555
0
LINE
8
10500_FRONT_LABELING
62
7
6
CONTINUOUS
10
159.4644776654
20
309.5709793555
11
159.5270096654
21
309.7979033555
0
LINE
8
10500_FRONT_LABELING
62
7
6
CONTINUOUS
10
159.5129606654
20
293.5824213555
11
159.4347916654
21
293.3148503555
0
LINE
8
10500_FRONT_LABELING
62
7
6
CONTINUOUS
10
158.7030896654
20
293.9399083555
11
158.6224146654
21
293.6797983555
0
LINE
8
10500_FRONT_LABELING
62
7
6
CONTINUOUS
10
158.3716056654
20
294.4297043555
11
158.4966346654
21
294.8271123555
0
LINE
8
10500_FRONT_LABELING
62
7
6
CONTINUOUS
10
159.1431306654
20
277.9571633555
11
159.2213476654
21
278.2002203555
0
LINE
8
10500_FRONT_LABELING
62
7
6
CONTINUOUS
10
159.1903426654
20
293.4170243555
11
159.2750146654
21
293.6797983555
0
LINE
8
10500_FRONT_LABELING
62
7
6
CONTINUOUS
10
158.9358156654
20
262.0901573555
11
159.0640056654
21
262.4869843555
0
LINE
8
10500_FRONT_LABELING
62
7
6
CONTINUOUS
10
181.0259886654
20
321.5901583555
11
181.1541776654
21
321.9869853555
0
LINE
8
10500_FRONT_LABELING
62
7
6
CONTINUOUS
10
180.5111216654
20
316.1901493555
11
180.6393116654
21
316.5869753555
0
LINE
8
10500_FRONT_LABELING
62
7
6
CONTINUOUS
10
158.6953506654
20
278.4427443555
11
158.6160436654
21
278.2002203555
0
LINE
8
10500_FRONT_LABELING
62
7
6
CONTINUOUS
10
159.1894946654
20
289.3454703555
11
158.5894946654
21
287.5582243555
0
LINE
8
10500_FRONT_LABELING
62
7
6
CONTINUOUS
10
158.9239336654
20
287.5582243555
11
159.5460496654
21
289.4113573555
0
LINE
8
10500_FRONT_LABELING
62
7
6
CONTINUOUS
10
158.6923586654
20
294.6380733555
11
158.6237826654
21
294.4356633555
0
LINE
8
10500_FRONT_LABELING
62
7
6
CONTINUOUS
10
158.4332416654
20
278.6226753555
11
158.3380326654
21
278.3531183555
0
LINE
8
10000_FRONT
62
7
6
CONTINUOUS
10
168.3679436654
20
307.8490403555
11
168.5758036654
21
308.4185793555
0
LINE
8
10000_FRONT
62
7
6
CONTINUOUS
10
172.8147646654
20
307.2429723555
11
172.6069046654
21
306.6734333555
0
LINE
8
10500_FRONT_LABELING
62
7
6
CONTINUOUS
10
159.1897246654
20
283.6989153555
11
159.2213476654
21
283.7854413555
0
LINE
8
10500_FRONT_LABELING
62
7
6
CONTINUOUS
10
158.6776796654
20
283.8719673555
11
158.6460436654
21
283.7854413555
0
LINE
8
10500_FRONT_LABELING
62
7
6
CONTINUOUS
10
159.3602086654
20
276.9892963555
11
159.5110106654
21
277.3888843555
0
LINE
8
10500_FRONT_LABELING
62
7
6
CONTINUOUS
10
170.4771776654
20
313.9802982263
11
170.1402916654
21
313.1480822263
0
LINE
8
10500_FRONT_LABELING
62
7
6
CONTINUOUS
10
170.2249036654
20
312.4847502263
11
170.5765046654
21
313.3433702263
0
LINE
8
10500_FRONT_LABELING
62
7
6
CONTINUOUS
10
159.2993836654
20
299.0174083555
11
159.2003586654
21
298.7906303555
0
LINE
8
10500_FRONT_LABELING
62
7
6
CONTINUOUS
10
159.3499856654
20
273.0384713555
11
159.2854796654
21
272.8912423555
0
LINE
8
10500_FRONT_LABELING
62
7
6
CONTINUOUS
10
159.7223346654
20
271.8379633555
11
159.7861146654
21
271.9814143555
0
LINE
8
10500_FRONT_LABELING
62
7
6
CONTINUOUS
10
159.8127366654
20
256.6751293555
11
159.7383586654
21
256.5135113555
0
LINE
8
10500_FRONT_LABELING
62
7
6
CONTINUOUS
10
182.7080556654
20
310.7751213555
11
182.6336666654
21
310.6135033555
0
LINE
8
10500_FRONT_LABELING
62
7
6
CONTINUOUS
10
159.5059596654
20
283.6762913555
11
159.3567566654
21
283.3615813555
0
LINE
8
10500_FRONT_LABELING
62
7
6
CONTINUOUS
10
181.3241286654
20
310.6344323555
11
181.3729386654
21
310.7349593555
0
LINE
8
10500_FRONT_LABELING
62
7
6
CONTINUOUS
10
181.3241286654
20
316.0344413555
11
181.3729386654
21
316.1349203555
0
LINE
8
10500_FRONT_LABELING
62
7
6
CONTINUOUS
10
182.6441306654
20
316.0344413555
11
182.6929406654
21
316.1349203555
0
LINE
8
10500_FRONT_LABELING
62
7
6
CONTINUOUS
10
159.7488356654
20
261.9344503555
11
159.7976456654
21
262.0349283555
0
LINE
8
10500_FRONT_LABELING
62
7
6
CONTINUOUS
10
181.8389956654
20
321.4344513555
11
181.8878296654
21
321.5349293555
0
LINE
8
10500_FRONT_LABELING
62
7
6
CONTINUOUS
10
180.8590406654
20
316.3252183555
11
180.7928386654
21
316.1901493555
0
LINE
8
10500_FRONT_LABELING
62
7
6
CONTINUOUS
10
182.1790426654
20
316.3252183555
11
182.1128406654
21
316.1901493555
0
LINE
8
10500_FRONT_LABELING
62
7
6
CONTINUOUS
10
180.8590406654
20
310.9252093555
11
180.7928386654
21
310.7901393555
0
LINE
8
10500_FRONT_LABELING
62
7
6
CONTINUOUS
10
159.2837476654
20
262.2252263555
11
159.2175446654
21
262.0901573555
0
LINE
8
10500_FRONT_LABELING
62
7
6
CONTINUOUS
10
181.3739316654
20
321.7252273555
11
181.3077056654
21
321.5901583555
0
LINE
8
10500_FRONT_LABELING
62
7
6
CONTINUOUS
10
182.8525726654
20
310.3800873555
11
182.9853646654
21
310.6413113555
0
LINE
8
10500_FRONT_LABELING
62
7
6
CONTINUOUS
10
159.9572526654
20
256.2800473555
11
160.0900566654
21
256.5413203555
0
LINE
8
10500_FRONT_LABELING
62
7
6
CONTINUOUS
10
182.1128406654
20
310.7901393555
11
182.1941586654
21
310.9489473555
0
LINE
8
10500_FRONT_LABELING
62
7
6
CONTINUOUS
10
159.2175326654
20
256.6901483555
11
159.2988506654
21
256.8489073555
0
LINE
8
10500_FRONT_LABELING
62
7
6
CONTINUOUS
10
159.1456136654
20
282.7120573555
11
159.2513486654
21
282.9125293555
0
LINE
8
10500_FRONT_LABELING
62
7
6
CONTINUOUS
10
158.7224566654
20
283.1132443555
11
158.6160436654
21
282.9132563555
0
LINE
8
10500_FRONT_LABELING
62
7
6
CONTINUOUS
10
159.1924616654
20
277.3343333555
11
159.1324246654
21
277.2215983555
0
LINE
8
10500_FRONT_LABELING
62
7
6
CONTINUOUS
10
158.3353436654
20
283.0371343555
11
158.5106356654
21
283.3615813555
0
LINE
8
10500_FRONT_LABELING
62
7
6
CONTINUOUS
10
174.7368736654
20
312.8910242263
11
174.7140796654
21
312.8506192263
0
LINE
8
10500_FRONT_LABELING
62
7
6
CONTINUOUS
10
182.1910816654
20
321.3723423555
11
182.0751486654
21
321.1686243555
0
LINE
8
10500_FRONT_LABELING
62
7
6
CONTINUOUS
10
181.6762146654
20
315.9723333555
11
181.5602816654
21
315.7686143555
0
LINE
8
10500_FRONT_LABELING
62
7
6
CONTINUOUS
10
182.9962166654
20
315.9723333555
11
182.8802836654
21
315.7686143555
0
LINE
8
10500_FRONT_LABELING
62
7
6
CONTINUOUS
10
181.6762146654
20
310.5723233555
11
181.5602816654
21
310.3686053555
0
LINE
8
10500_FRONT_LABELING
62
7
6
CONTINUOUS
10
160.1009096654
20
261.8723413555
11
159.9849766654
21
261.6686233555
0
LINE
8
10500_FRONT_LABELING
62
7
6
CONTINUOUS
10
182.7504466654
20
322.2189963555
11
182.3566726654
21
321.5673883555
0
LINE
8
10500_FRONT_LABELING
62
7
6
CONTINUOUS
10
182.4503436654
20
321.0935803555
11
182.7166556654
21
321.5342993555
0
LINE
8
10500_FRONT_LABELING
62
7
6
CONTINUOUS
10
158.5351376654
20
273.5190143555
11
158.1413506654
21
272.8673583555
0
LINE
8
10500_FRONT_LABELING
62
7
6
CONTINUOUS
10
158.2350466654
20
272.3935983555
11
158.5013576654
21
272.8342693555
0
LINE
8
10500_FRONT_LABELING
62
7
6
CONTINUOUS
10
158.5351376654
20
268.1190043555
11
158.1413506654
21
267.4673483555
0
LINE
8
10500_FRONT_LABELING
62
7
6
CONTINUOUS
10
158.2350466654
20
266.9935883555
11
158.5013576654
21
267.4342593555
0
LINE
8
10500_FRONT_LABELING
62
7
6
CONTINUOUS
10
159.4086426654
20
268.1190043555
11
159.0148566654
21
267.4673483555
0
LINE
8
10500_FRONT_LABELING
62
7
6
CONTINUOUS
10
159.1085516654
20
266.9935883555
11
159.3748636654
21
267.4342593555
0
LINE
8
10500_FRONT_LABELING
62
7
6
CONTINUOUS
10
158.5351376654
20
262.7189953555
11
158.1413506654
21
262.0673873555
0
LINE
8
10500_FRONT_LABELING
62
7
6
CONTINUOUS
10
158.2350466654
20
261.5935793555
11
158.5013576654
21
262.0342983555
0
LINE
8
10500_FRONT_LABELING
62
7
6
CONTINUOUS
10
158.5351376654
20
257.3190343555
11
158.1413506654
21
256.6673783555
0
LINE
8
10500_FRONT_LABELING
62
7
6
CONTINUOUS
10
158.2350466654
20
256.1935703555
11
158.5013576654
21
256.6342893555
0
LINE
8
10500_FRONT_LABELING
62
7
6
CONTINUOUS
10
181.8407636654
20
304.8064933555
11
182.5838146654
21
305.9922253555
0
LINE
8
10500_FRONT_LABELING
62
7
6
CONTINUOUS
10
182.1917116654
20
304.8432643555
11
182.5607786654
21
305.4283543555
0
LINE
8
10500_FRONT_LABELING
62
7
6
CONTINUOUS
10
181.6264356654
20
305.1156313555
11
181.4949036654
21
304.9253813555
0
LINE
8
10500_FRONT_LABELING
62
7
6
CONTINUOUS
10
181.6264356654
20
299.7156223555
11
181.4949036654
21
299.5253723555
0
LINE
8
10500_FRONT_LABELING
62
7
6
CONTINUOUS
10
181.6264356654
20
294.3156123555
11
181.4949036654
21
294.1253623555
0
LINE
8
10500_FRONT_LABELING
62
7
6
CONTINUOUS
10
159.4976146654
20
282.6724283555
11
159.2828636654
21
282.3733183555
0
LINE
8
10500_FRONT_LABELING
62
7
6
CONTINUOUS
10
182.7207736654
20
298.5628823555
11
182.9621346654
21
298.8950323555
0
LINE
8
10500_FRONT_LABELING
62
7
6
CONTINUOUS
10
158.4058936654
20
284.0208923555
11
158.6101446654
21
284.3004783555
0
LINE
8
10500_FRONT_LABELING
62
7
6
CONTINUOUS
10
158.7469096654
20
283.9647423555
11
158.6776796654
21
283.8719673555
0
LINE
8
10500_FRONT_LABELING
62
7
6
CONTINUOUS
10
159.1204946654
20
283.6061403555
11
159.1897246654
21
283.6989153555
0
LINE
8
10500_FRONT_LABELING
62
7
6
CONTINUOUS
10
181.0870066654
20
304.8903063555
11
181.3617966654
21
305.2549643555
0
LINE
8
10500_FRONT_LABELING
62
7
6
CONTINUOUS
10
159.2053126654
20
273.3716873555
11
159.0519906654
21
273.1682113555
0
LINE
8
10500_FRONT_LABELING
62
7
6
CONTINUOUS
10
181.0870066654
20
299.4902963555
11
181.3617966654
21
299.8549543555
0
LINE
8
10500_FRONT_LABELING
62
7
6
CONTINUOUS
10
181.0870066654
20
294.0902873555
11
181.3617966654
21
294.4549453555
0
LINE
8
10500_FRONT_LABELING
62
7
6
CONTINUOUS
10
159.8619456654
20
271.5054253555
11
160.0153286654
21
271.7089013555
0
LINE
8
10500_FRONT_LABELING
62
7
6
CONTINUOUS
10
159.4347916654
20
293.3148503555
11
159.2668396654
21
293.0929163555
0
LINE
8
10500_FRONT_LABELING
62
7
6
CONTINUOUS
10
182.0775716654
20
311.3126853555
11
181.8990456654
21
311.0773313555
0
LINE
8
10500_FRONT_LABELING
62
7
6
CONTINUOUS
10
182.0940426654
20
315.3317223555
11
182.3678876654
21
315.6837363555
0
LINE
8
10500_FRONT_LABELING
62
7
6
CONTINUOUS
10
180.7740416654
20
309.9317133555
11
181.0479106654
21
310.2837753555
0
LINE
8
10500_FRONT_LABELING
62
7
6
CONTINUOUS
10
181.2889086654
20
320.7317323555
11
181.5627766654
21
321.0837453555
0
LINE
8
10500_FRONT_LABELING
62
7
6
CONTINUOUS
10
180.7740416654
20
315.3317223555
11
181.0479106654
21
315.6837363555
0
LINE
8
10500_FRONT_LABELING
62
7
6
CONTINUOUS
10
180.8044656654
20
304.5305893555
11
181.0870066654
21
304.8903063555
0
LINE
8
10500_FRONT_LABELING
62
7
6
CONTINUOUS
10
180.8044656654
20
299.1306283555
11
181.0870066654
21
299.4902963555
0
LINE
8
10500_FRONT_LABELING
62
7
6
CONTINUOUS
10
180.8044656654
20
293.7306193555
11
181.0870066654
21
294.0902873555
0
LINE
8
10500_FRONT_LABELING
62
7
6
CONTINUOUS
10
181.5627766654
20
321.0837453555
11
181.8389956654
21
321.4344513555
0
LINE
8
10500_FRONT_LABELING
62
7
6
CONTINUOUS
10
181.0479106654
20
315.6837363555
11
181.3241286654
21
316.0344413555
0
LINE
8
10500_FRONT_LABELING
62
7
6
CONTINUOUS
10
182.3678876654
20
315.6837363555
11
182.6441306654
21
316.0344413555
0
LINE
8
10500_FRONT_LABELING
62
7
6
CONTINUOUS
10
181.0479106654
20
310.2837753555
11
181.3241286654
21
310.6344323555
0
LINE
8
10500_FRONT_LABELING
62
7
6
CONTINUOUS
10
180.5207866654
20
304.1715513555
11
180.8044656654
21
304.5305893555
0
LINE
8
10500_FRONT_LABELING
62
7
6
CONTINUOUS
10
180.5207866654
20
298.7715903555
11
180.8044656654
21
299.1306283555
0
LINE
8
10500_FRONT_LABELING
62
7
6
CONTINUOUS
10
180.5207866654
20
293.3715813555
11
180.8044656654
21
293.7306193555
0
LINE
8
10500_FRONT_LABELING
62
7
6
CONTINUOUS
10
181.0115266654
20
320.3816563555
11
181.2889086654
21
320.7317323555
0
LINE
8
10500_FRONT_LABELING
62
7
6
CONTINUOUS
10
180.4966596654
20
314.9816473555
11
180.7740416654
21
315.3317223555
0
LINE
8
10500_FRONT_LABELING
62
7
6
CONTINUOUS
10
181.8166616654
20
314.9816473555
11
182.0940426654
21
315.3317223555
0
LINE
8
10500_FRONT_LABELING
62
7
6
CONTINUOUS
10
180.4966596654
20
309.5816863555
11
180.7740416654
21
309.9317133555
0
LINE
8
10500_FRONT_LABELING
62
7
6
CONTINUOUS
10
182.0751486654
20
321.1686243555
11
181.4851416654
21
320.4317993555
0
LINE
8
10500_FRONT_LABELING
62
7
6
CONTINUOUS
10
181.5602816654
20
315.7686143555
11
180.9702746654
21
315.0317893555
0
LINE
8
10500_FRONT_LABELING
62
7
6
CONTINUOUS
10
182.8802836654
20
315.7686143555
11
182.2902516654
21
315.0317893555
0
LINE
8
10500_FRONT_LABELING
62
7
6
CONTINUOUS
10
181.5602816654
20
310.3686053555
11
180.9702746654
21
309.6317803555
0
LINE
8
10500_FRONT_LABELING
62
7
6
CONTINUOUS
10
181.4949036654
20
304.9253813555
11
180.9164986654
21
304.2049793555
0
LINE
8
10500_FRONT_LABELING
62
7
6
CONTINUOUS
10
181.4949036654
20
299.5253723555
11
180.9164986654
21
298.8049703555
0
LINE
8
10500_FRONT_LABELING
62
7
6
CONTINUOUS
10
181.4949036654
20
294.1253623555
11
180.9164986654
21
293.4050093555
0
LINE
8
10500_FRONT_LABELING
62
7
6
CONTINUOUS
10
182.8266776654
20
309.3991393555
11
182.9747786654
21
309.5811053555
0
LINE
8
10500_FRONT_LABELING
62
7
6
CONTINUOUS
10
180.9655026654
20
305.6456863555
11
180.7782316654
21
305.4169693555
0
LINE
8
10500_FRONT_LABELING
62
7
6
CONTINUOUS
10
180.9655026654
20
300.2457253555
11
180.7782316654
21
300.0169603555
0
LINE
8
10500_FRONT_LABELING
62
7
6
CONTINUOUS
10
180.9655026654
20
294.8457153555
11
180.7782316654
21
294.6169503555
0
LINE
8
10000_FRONT
62
7
6
CONTINUOUS
10
168.5758036654
20
308.4185793555
11
168.9664776654
21
308.8828433555
0
LINE
8
10000_FRONT
62
7
6
CONTINUOUS
10
172.6069046654
20
306.6734333555
11
172.2162306654
21
306.2091693555
0
LINE
8
10500_FRONT_LABELING
62
7
6
CONTINUOUS
10
174.2456976654
20
313.9108742263
11
174.0652336654
21
313.6985332263
0
LINE
8
10500_FRONT_LABELING
62
7
6
CONTINUOUS
10
158.6335206654
20
278.8323523555
11
158.4332416654
21
278.6226753555
0
LINE
8
10000_FRONT
62
7
6
CONTINUOUS
10
162.5794886654
20
303.6575813555
11
160.0975416654
21
301.1756103555
0
LINE
8
10000_FRONT
62
7
6
CONTINUOUS
10
160.6632296654
20
300.6099473555
11
163.1451756654
21
303.0918693555
0
LINE
8
10000_FRONT
62
7
6
CONTINUOUS
10
180.5194786654
20
319.8575613555
11
178.0375316654
21
317.3756383555
0
LINE
8
10000_FRONT
62
7
6
CONTINUOUS
10
178.6032196654
20
316.8099273555
11
181.0851656654
21
319.2918973555
0
LINE
8
10000_FRONT
62
7
6
CONTINUOUS
10
162.5794886654
20
298.2575713555
11
160.0975416654
21
295.7756493555
0
LINE
8
10000_FRONT
62
7
6
CONTINUOUS
10
160.6632296654
20
295.2099373555
11
163.1451756654
21
297.6918603555
0
LINE
8
10000_FRONT
62
7
6
CONTINUOUS
10
180.5194786654
20
314.4575513555
11
178.0375316654
21
311.9756293555
0
LINE
8
10000_FRONT
62
7
6
CONTINUOUS
10
178.6032196654
20
311.4099663555
11
181.0851656654
21
313.8918883555
0
LINE
8
10000_FRONT
62
7
6
CONTINUOUS
10
162.5794886654
20
292.8575623555
11
160.0975416654
21
290.3756403555
0
LINE
8
10000_FRONT
62
7
6
CONTINUOUS
10
160.6632296654
20
289.8099283555
11
163.1451756654
21
292.2918993555
0
LINE
8
10000_FRONT
62
7
6
CONTINUOUS
10
180.5194786654
20
309.0575903555
11
178.0375316654
21
306.5756193555
0
LINE
8
10000_FRONT
62
7
6
CONTINUOUS
10
178.6032196654
20
306.0099563555
11
181.0851656654
21
308.4918783555
0
LINE
8
10000_FRONT
62
7
6
CONTINUOUS
10
162.5794886654
20
287.4575523555
11
160.0975416654
21
284.9756303555
0
LINE
8
10000_FRONT
62
7
6
CONTINUOUS
10
160.6632296654
20
284.4099673555
11
163.1451756654
21
286.8918893555
0
LINE
8
10000_FRONT
62
7
6
CONTINUOUS
10
180.5194786654
20
303.6575813555
11
178.0375316654
21
301.1756103555
0
LINE
8
10000_FRONT
62
7
6
CONTINUOUS
10
178.6032196654
20
300.6099473555
11
181.0851656654
21
303.0918693555
0
LINE
8
10000_FRONT
62
7
6
CONTINUOUS
10
162.5794886654
20
282.0575913555
11
160.0975416654
21
279.5756213555
0
LINE
8
10000_FRONT
62
7
6
CONTINUOUS
10
160.6632296654
20
279.0099583555
11
163.1451756654
21
281.4918803555
0
LINE
8
10000_FRONT
62
7
6
CONTINUOUS
10
180.5194786654
20
298.2575713555
11
178.0375316654
21
295.7756493555
0
LINE
8
10000_FRONT
62
7
6
CONTINUOUS
10
178.6032196654
20
295.2099373555
11
181.0851656654
21
297.6918603555
0
LINE
8
10500_FRONT_LABELING
62
7
6
CONTINUOUS
10
180.6393116654
20
316.5869753555
11
180.7889626654
21
316.7330423555
0
LINE
8
10500_FRONT_LABELING
62
7
6
CONTINUOUS
10
181.9593126654
20
316.5869753555
11
182.1089646654
21
316.7330423555
0
LINE
8
10500_FRONT_LABELING
62
7
6
CONTINUOUS
10
180.6393116654
20
311.1869663555
11
180.7889626654
21
311.3330333555
0
LINE
8
10500_FRONT_LABELING
62
7
6
CONTINUOUS
10
181.1541776654
20
321.9869853555
11
181.3038536654
21
322.1330033555
0
LINE
8
10500_FRONT_LABELING
62
7
6
CONTINUOUS
10
174.4891176654
20
313.6383132263
11
174.5245566654
21
313.6698522263
0
LINE
8
10500_FRONT_LABELING
62
7
6
CONTINUOUS
10
158.7912506654
20
278.5280593555
11
158.6953506654
21
278.4427443555
0
LINE
8
10500_FRONT_LABELING
62
7
6
CONTINUOUS
10
159.0863516654
20
293.3248783555
11
159.1903426654
21
293.4170243555
0
LINE
8
10500_FRONT_LABELING
62
7
6
CONTINUOUS
10
181.4837846654
20
321.8193113555
11
181.3739316654
21
321.7252273555
0
LINE
8
10500_FRONT_LABELING
62
7
6
CONTINUOUS
10
180.9689176654
20
316.4193013555
11
180.8590406654
21
316.3252183555
0
LINE
8
10500_FRONT_LABELING
62
7
6
CONTINUOUS
10
182.2889196654
20
316.4193013555
11
182.1790426654
21
316.3252183555
0
LINE
8
10500_FRONT_LABELING
62
7
6
CONTINUOUS
10
180.9689176654
20
311.0192923555
11
180.8590406654
21
310.9252093555
0
LINE
8
10500_FRONT_LABELING
62
7
6
CONTINUOUS
10
174.9125896654
20
312.5557732263
11
175.1279836654
21
312.7376902263
0
LINE
8
10500_FRONT_LABELING
62
7
6
CONTINUOUS
10
166.7960426654
20
312.5558212263
11
167.0114486654
21
312.7376902263
0
LINE
8
10500_FRONT_LABELING
62
7
6
CONTINUOUS
10
158.6530686654
20
299.2786813555
11
158.8436576654
21
299.4357453555
0
LINE
8
10500_FRONT_LABELING
62
7
6
CONTINUOUS
10
158.8110286654
20
294.0288563555
11
158.7030896654
21
293.9399083555
0
LINE
8
10500_FRONT_LABELING
62
7
6
CONTINUOUS
10
180.6795216654
20
305.8001343555
11
180.8376516654
21
305.9286633555
0
LINE
8
10500_FRONT_LABELING
62
7
6
CONTINUOUS
10
180.6795216654
20
300.4001243555
11
180.8376516654
21
300.5286533555
0
LINE
8
10500_FRONT_LABELING
62
7
6
CONTINUOUS
10
158.8570536654
20
294.7666513555
11
158.6923586654
21
294.6380733555
0
LINE
8
10500_FRONT_LABELING
62
7
6
CONTINUOUS
10
158.4966346654
20
294.8271123555
11
158.8198346654
21
295.0786953555
0
LINE
8
10000_FRONT
62
7
6
CONTINUOUS
10
173.6270216654
20
322.4995993555
11
173.1403746654
21
322.1753453555
0
LINE
8
10500_FRONT_LABELING
62
7
6
CONTINUOUS
10
159.2013276654
20
309.7327433555
11
159.0373476654
21
309.6343473555
0
LINE
8
10500_FRONT_LABELING
62
7
6
CONTINUOUS
10
182.7116406654
20
309.7428683555
11
182.5476496654
21
309.6444733555
0
LINE
8
10500_FRONT_LABELING
62
7
6
CONTINUOUS
10
159.1124036654
20
309.2704653555
11
159.3163636654
21
309.3890143555
0
LINE
8
10500_FRONT_LABELING
62
7
6
CONTINUOUS
10
182.6227176654
20
309.2806383555
11
182.8266776654
21
309.3991393555
0
LINE
8
10000_FRONT
62
7
6
CONTINUOUS
10
168.9664776654
20
308.8828433555
11
169.4928256654
21
309.1858773555
0
LINE
8
10000_FRONT
62
7
6
CONTINUOUS
10
172.2162306654
20
306.2091693555
11
171.6898816654
21
305.9061353555
0
LINE
8
10500_FRONT_LABELING
62
7
6
CONTINUOUS
10
158.6838566654
20
310.9387743555
11
158.8352036654
21
311.0254933555
0
LINE
8
10500_FRONT_LABELING
62
7
6
CONTINUOUS
10
182.1941586654
20
310.9489473555
11
182.3455056654
21
311.0356673555
0
LINE
8
10500_FRONT_LABELING
62
7
6
CONTINUOUS
10
158.8041256654
20
299.7505033555
11
158.6219296654
21
299.6535613555
0
LINE
8
10500_FRONT_LABELING
62
7
6
CONTINUOUS
10
159.1233526654
20
310.6033773555
11
158.9420046654
21
310.5216963555
0
LINE
8
10500_FRONT_LABELING
62
7
6
CONTINUOUS
10
166.5975446654
20
312.8506192263
11
166.5099166654
21
312.8162222263
0
LINE
8
10500_FRONT_LABELING
62
7
6
CONTINUOUS
10
158.6136696654
20
316.6330003555
11
158.8119976654
21
316.7023753555
0
LINE
8
10500_FRONT_LABELING
62
7
6
CONTINUOUS
10
181.3038536654
20
322.1330033555
11
181.5021706654
21
322.2023793555
0
LINE
8
10000_FRONT
62
7
6
CONTINUOUS
10
165.8829446654
20
330.5375773555
11
165.6434006654
21
330.4581253555
0
LINE
8
91000_TIP
62
7
6
CONTINUOUS
10
422.7797810000
20
15.8043440000
11
432.7797810000
21
13.3043440000
0
LINE
8
13000_TOP
62
7
6
CONTINUOUS
10
165.6395976654
20
107.9216170292
11
165.3767136654
21
108.0422500292
0
LINE
8
13000_TOP
62
7
6
CONTINUOUS
10
171.9378196654
20
110.8728420292
11
172.2413626654
21
110.6947040292
0
LINE
8
13000_TOP
62
7
6
CONTINUOUS
10
172.3388126654
20
110.5990700292
11
172.2413626654
21
110.6947040292
0
LINE
8
13000_TOP
62
7
6
CONTINUOUS
10
172.4768976654
20
110.3992280292
11
172.3388126654
21
110.5990700292
0
LINE
8
13000_TOP
62
7
6
CONTINUOUS
10
160.8526806654
20
139.6347490292
11
161.1413616654
21
139.1347790292
0
LINE
8
13000_TOP
62
7
6
CONTINUOUS
10
172.5596686654
20
110.1840280292
11
172.4768976654
21
110.3992280292
0
LINE
8
13000_TOP
62
7
6
CONTINUOUS
10
161.1413616654
20
139.1347790292
11
161.4913526654
21
138.0347500292
0
LINE
8
13000_TOP
62
7
6
CONTINUOUS
10
166.0913626654
20
107.0847500292
11
166.0355276654
21
107.4097780292
0
LINE
8
10500_FRONT_LABELING
62
7
6
CONTINUOUS
10
158.9705156654
20
228.3200293555
11
158.9353436654
21
228.6871093555
0
LINE
8
10500_FRONT_LABELING
62
7
6
CONTINUOUS
10
158.3705156654
20
282.6700543555
11
158.3353436654
21
283.0371343555
0
LINE
8
10500_FRONT_LABELING
62
7
6
CONTINUOUS
10
159.4824876654
20
293.9509543555
11
159.5129606654
21
293.5824213555
0
LINE
8
10500_FRONT_LABELING
62
7
6
CONTINUOUS
10
158.3799506654
20
293.5954533555
11
158.3455776654
21
294.0122393555
0
LINE
8
10500_FRONT_LABELING
62
7
6
CONTINUOUS
10
160.1420036654
20
255.7080863555
11
160.1207116654
21
256.0213423555
0
LINE
8
10500_FRONT_LABELING
62
7
6
CONTINUOUS
10
159.5270096654
20
309.7979033555
11
159.5057176654
21
310.1112083555
0
LINE
8
10500_FRONT_LABELING
62
7
6
CONTINUOUS
10
158.9214266654
20
240.0530823555
11
158.9501916654
21
239.6234573555
0
LINE
8
10500_FRONT_LABELING
62
7
6
CONTINUOUS
10
160.1460496654
20
223.0656503555
11
160.1183256654
21
223.4924653555
0
LINE
8
10500_FRONT_LABELING
62
7
6
CONTINUOUS
10
159.5460496654
20
277.8156513555
11
159.5183256654
21
278.2424663555
0
LINE
8
10500_FRONT_LABELING
62
7
6
CONTINUOUS
10
158.9380316654
20
223.6031173555
11
158.9580526654
21
223.2219883555
0
LINE
8
10500_FRONT_LABELING
62
7
6
CONTINUOUS
10
158.3380326654
20
278.3531183555
11
158.3580526654
21
277.9719883555
0
LINE
8
10500_FRONT_LABELING
62
7
6
CONTINUOUS
10
160.1282936654
20
239.5285993555
11
160.1196946654
21
239.9090023555
0
LINE
8
10500_FRONT_LABELING
62
7
6
CONTINUOUS
10
159.2163096654
20
272.5925203555
11
159.2196886654
21
272.2754373555
0
LINE
8
10500_FRONT_LABELING
62
7
6
CONTINUOUS
10
158.9292996654
20
272.6740073555
11
158.9333686654
21
272.1631373555
0
LINE
8
10500_FRONT_LABELING
62
7
6
CONTINUOUS
10
160.1378376654
20
272.2031543555
11
160.1341796654
21
272.7143633555
0
LINE
8
10500_FRONT_LABELING
62
7
6
CONTINUOUS
10
159.8486836654
20
272.2873063555
11
159.8473396654
21
272.6019673555
0
LINE
8
13000_TOP
62
7
6
CONTINUOUS
10
155.6913556654
20
130.2847870292
11
155.6913556654
21
133.5347820292
0
LINE
8
10000_FRONT
62
7
6
CONTINUOUS
10
155.6913556654
20
200.2087613555
11
155.6913556654
21
203.8950210292
0
LINE
8
13000_TOP
62
7
6
CONTINUOUS
10
157.8913546654
20
105.8847750292
11
157.8913546654
21
142.3347780292
0
LINE
8
10000_FRONT
62
7
6
CONTINUOUS
10
157.8913546654
20
201.9087543555
11
157.8913546654
21
326.6337463555
0
LINE
8
10500_FRONT_LABELING
62
7
6
CONTINUOUS
10
158.0963316654
20
216.7886113555
11
158.0963316654
21
217.0943583555
0
LINE
8
10500_FRONT_LABELING
62
7
6
CONTINUOUS
10
158.1413506654
20
272.8673583555
11
158.1413506654
21
272.3935983555
0
LINE
8
10500_FRONT_LABELING
62
7
6
CONTINUOUS
10
158.1413506654
20
267.4673483555
11
158.1413506654
21
266.9935883555
0
LINE
8
10500_FRONT_LABELING
62
7
6
CONTINUOUS
10
158.1413506654
20
262.0673873555
11
158.1413506654
21
261.5935793555
0
LINE
8
10500_FRONT_LABELING
62
7
6
CONTINUOUS
10
158.1413506654
20
256.6673783555
11
158.1413506654
21
256.1935703555
0
LINE
8
10500_FRONT_LABELING
62
7
6
CONTINUOUS
10
158.1413506654
20
251.2673683555
11
158.1413506654
21
250.7935603555
0
LINE
8
10500_FRONT_LABELING
62
7
6
CONTINUOUS
10
158.1413506654
20
245.8673593555
11
158.1413506654
21
245.3935993555
0
LINE
8
10500_FRONT_LABELING
62
7
6
CONTINUOUS
10
158.1413506654
20
240.4673493555
11
158.1413506654
21
239.9935903555
0
LINE
8
10500_FRONT_LABELING
62
7
6
CONTINUOUS
10
158.1413506654
20
235.0673883555
11
158.1413506654
21
234.5935803555
0
LINE
8
10500_FRONT_LABELING
62
7
6
CONTINUOUS
10
158.1413506654
20
229.4173943555
11
158.1413506654
21
228.9435863555
0
LINE
8
10500_FRONT_LABELING
62
7
6
CONTINUOUS
10
158.1413506654
20
223.5173673555
11
158.1413506654
21
223.0435593555
0
LINE
8
10500_FRONT_LABELING
62
7
6
CONTINUOUS
10
158.2854676654
20
304.7130393555
11
158.2854676654
21
304.3872843555
0
LINE
8
10500_FRONT_LABELING
62
7
6
CONTINUOUS
10
158.3213546654
20
289.7189943555
11
158.3213546654
21
289.3454703555
0
LINE
8
10500_FRONT_LABELING
62
7
6
CONTINUOUS
10
158.3213546654
20
314.5582233555
11
158.3213546654
21
314.8816533555
0
LINE
8
10500_FRONT_LABELING
62
7
6
CONTINUOUS
10
158.3754696654
20
300.4922223555
11
158.3754696654
21
299.2786813555
0
LINE
8
10500_FRONT_LABELING
62
7
6
CONTINUOUS
10
158.5013576654
20
321.4673463555
11
158.5013576654
21
320.9935863555
0
LINE
8
10500_FRONT_LABELING
62
7
6
CONTINUOUS
10
158.5013576654
20
272.8342693555
11
158.5013576654
21
271.3582443555
0
LINE
8
10500_FRONT_LABELING
62
7
6
CONTINUOUS
10
158.5013576654
20
267.4342593555
11
158.5013576654
21
265.9582353555
0
LINE
8
10500_FRONT_LABELING
62
7
6
CONTINUOUS
10
158.5013576654
20
262.0342983555
11
158.5013576654
21
260.5582263555
0
LINE
8
10500_FRONT_LABELING
62
7
6
CONTINUOUS
10
158.5013576654
20
256.6342893555
11
158.5013576654
21
255.1582653555
0
LINE
8
10500_FRONT_LABELING
62
7
6
CONTINUOUS
10
158.5013576654
20
251.2342793555
11
158.5013576654
21
249.7582553555
0
LINE
8
10500_FRONT_LABELING
62
7
6
CONTINUOUS
10
158.5013576654
20
245.8342703555
11
158.5013576654
21
244.3582463555
0
LINE
8
10500_FRONT_LABELING
62
7
6
CONTINUOUS
10
158.5013576654
20
240.4342603555
11
158.5013576654
21
238.9582363555
0
LINE
8
10500_FRONT_LABELING
62
7
6
CONTINUOUS
10
158.5013576654
20
235.0342993555
11
158.5013576654
21
233.5582273555
0
LINE
8
10500_FRONT_LABELING
62
7
6
CONTINUOUS
10
158.5013576654
20
229.3842573555
11
158.5013576654
21
227.9082333555
0
LINE
8
10500_FRONT_LABELING
62
7
6
CONTINUOUS
10
158.5013576654
20
223.4842783555
11
158.5013576654
21
222.0082543555
0
LINE
8
10500_FRONT_LABELING
62
7
6
CONTINUOUS
10
158.6219296654
20
299.6535613555
11
158.6219296654
21
300.1722803555
0
LINE
8
10000_FRONT
62
7
6
CONTINUOUS
10
158.7413506654
20
326.6337463555
11
158.7413506654
21
328.8337573555
0
LINE
8
10500_FRONT_LABELING
62
7
6
CONTINUOUS
10
158.7863576654
20
310.5152533555
11
158.7863576654
21
310.1842653555
0
LINE
8
10500_FRONT_LABELING
62
7
6
CONTINUOUS
10
158.8260476654
20
222.0082543555
11
158.8260476654
21
224.1690233555
0
LINE
8
10500_FRONT_LABELING
62
7
6
CONTINUOUS
10
158.8260476654
20
227.9082333555
11
158.8260476654
21
230.0690023555
0
LINE
8
10500_FRONT_LABELING
62
7
6
CONTINUOUS
10
158.8260476654
20
233.5582273555
11
158.8260476654
21
235.7189963555
0
LINE
8
10500_FRONT_LABELING
62
7
6
CONTINUOUS
10
158.8260476654
20
238.9582363555
11
158.8260476654
21
241.1190053555
0
LINE
8
10500_FRONT_LABELING
62
7
6
CONTINUOUS
10
158.8260476654
20
244.3582463555
11
158.8260476654
21
246.5190153555
0
LINE
8
10500_FRONT_LABELING
62
7
6
CONTINUOUS
10
158.8260476654
20
249.7582553555
11
158.8260476654
21
251.9190243555
0
LINE
8
10500_FRONT_LABELING
62
7
6
CONTINUOUS
10
158.8260476654
20
255.1582653555
11
158.8260476654
21
257.3190343555
0
LINE
8
10500_FRONT_LABELING
62
7
6
CONTINUOUS
10
158.8260476654
20
260.5582263555
11
158.8260476654
21
262.7189953555
0
LINE
8
10500_FRONT_LABELING
62
7
6
CONTINUOUS
10
158.8260476654
20
265.9582353555
11
158.8260476654
21
268.1190043555
0
LINE
8
10500_FRONT_LABELING
62
7
6
CONTINUOUS
10
158.8260476654
20
271.3582443555
11
158.8260476654
21
273.5190143555
0
LINE
8
10500_FRONT_LABELING
62
7
6
CONTINUOUS
10
158.8613526654
20
321.4342573555
11
158.8613526654
21
319.9582333555
0
LINE
8
10000_FRONT
62
7
6
CONTINUOUS
10
158.8913536654
20
216.0337643555
11
158.8913536654
21
213.3337833555
0
LINE
8
10500_FRONT_LABELING
62
7
6
CONTINUOUS
10
158.9213546654
20
250.7149313555
11
158.9213546654
21
250.3540043555
0
LINE
8
10500_FRONT_LABELING
62
7
6
CONTINUOUS
10
158.9213546654
20
235.7189963555
11
158.9213546654
21
235.3454723555
0
LINE
8
10500_FRONT_LABELING
62
7
6
CONTINUOUS
10
158.9213546654
20
245.2518443555
11
158.9213546654
21
246.5190153555
0
LINE
8
10500_FRONT_LABELING
62
7
6
CONTINUOUS
10
158.9213546654
20
260.5582263555
11
158.9213546654
21
260.8816553555
0
LINE
8
10500_FRONT_LABELING
62
7
6
CONTINUOUS
10
159.0054696654
20
305.3349013555
11
159.0054696654
21
304.7498103555
0
LINE
8
10500_FRONT_LABELING
62
7
6
CONTINUOUS
10
159.0054696654
20
304.3872843555
11
159.0054696654
21
303.7915843555
0
LINE
8
10500_FRONT_LABELING
62
7
6
CONTINUOUS
10
159.0148566654
20
267.4673483555
11
159.0148566654
21
266.9935883555
0
LINE
8
10500_FRONT_LABELING
62
7
6
CONTINUOUS
10
159.1860426654
20
319.9582333555
11
159.1860426654
21
322.1190023555
0
LINE
8
10500_FRONT_LABELING
62
7
6
CONTINUOUS
10
159.2160426654
20
246.1454913555
11
159.2160426654
21
245.7078243555
0
LINE
8
10500_FRONT_LABELING
62
7
6
CONTINUOUS
10
159.2819306654
20
303.7915843555
11
159.2819306654
21
304.3872843555
0
LINE
8
10500_FRONT_LABELING
62
7
6
CONTINUOUS
10
159.2819306654
20
304.7498103555
11
159.2819306654
21
305.8987233555
0
LINE
8
10500_FRONT_LABELING
62
7
6
CONTINUOUS
10
159.3210516654
20
217.1434833555
11
159.3210516654
21
216.7886113555
0
LINE
8
10500_FRONT_LABELING
62
7
6
CONTINUOUS
10
159.3748636654
20
267.4342593555
11
159.3748636654
21
265.9582353555
0
LINE
8
10500_FRONT_LABELING
62
7
6
CONTINUOUS
10
159.4013516654
20
256.4253873555
11
159.4013516654
21
256.0943993555
0
LINE
8
10500_FRONT_LABELING
62
7
6
CONTINUOUS
10
159.4919346654
20
300.1722803555
11
159.4919346654
21
300.4922223555
0
LINE
8
10500_FRONT_LABELING
62
7
6
CONTINUOUS
10
159.5460496654
20
314.9317953555
11
159.5460496654
21
314.5582233555
0
LINE
8
10500_FRONT_LABELING
62
7
6
CONTINUOUS
10
159.5460496654
20
289.4113573555
11
159.5460496654
21
289.7189943555
0
LINE
8
10500_FRONT_LABELING
62
7
6
CONTINUOUS
10
159.5819246654
20
304.3872843555
11
159.5819246654
21
304.7498103555
0
LINE
8
10500_FRONT_LABELING
62
7
6
CONTINUOUS
10
159.6413566654
20
250.3540043555
11
159.6413566654
21
249.7582553555
0
LINE
8
10500_FRONT_LABELING
62
7
6
CONTINUOUS
10
159.6413566654
20
250.7700633555
11
159.6413566654
21
251.2434363555
0
LINE
8
10500_FRONT_LABELING
62
7
6
CONTINUOUS
10
159.6995526654
20
265.9582353555
11
159.6995526654
21
268.1190043555
0
LINE
8
10500_FRONT_LABELING
62
7
6
CONTINUOUS
10
159.9660456654
20
249.7582553555
11
159.9660456654
21
250.3540043555
0
LINE
8
10500_FRONT_LABELING
62
7
6
CONTINUOUS
10
159.9660456654
20
250.7700633555
11
159.9660456654
21
251.9190243555
0
LINE
8
10500_FRONT_LABELING
62
7
6
CONTINUOUS
10
160.0860486654
20
246.5190153555
11
160.0860486654
21
246.1454913555
0
LINE
8
10500_FRONT_LABELING
62
7
6
CONTINUOUS
10
160.1460496654
20
260.9317983555
11
160.1460496654
21
260.5582263555
0
LINE
8
10500_FRONT_LABELING
62
7
6
CONTINUOUS
10
160.1460496654
20
235.4113603555
11
160.1460496654
21
235.7189963555
0
LINE
8
10500_FRONT_LABELING
62
7
6
CONTINUOUS
10
160.2660516654
20
250.3540043555
11
160.2660516654
21
250.7700633555
0
LINE
8
10000_FRONT
62
7
6
CONTINUOUS
10
160.5913586654
20
212.3337473555
11
160.5913586654
21
200.2087613555
0
LINE
8
13000_TOP
62
7
6
CONTINUOUS
10
160.5913586654
20
142.3347780292
11
160.5913586654
21
139.6347970292
0
LINE
8
13000_TOP
62
7
6
CONTINUOUS
10
161.4913526654
20
138.0347500292
11
161.4913526654
21
136.7347810292
0
LINE
8
13000_TOP
62
7
6
CONTINUOUS
10
161.8613516654
20
118.2347470292
11
161.8613516654
21
135.9347810292
0
LINE
8
10000_FRONT
62
7
6
CONTINUOUS
10
161.8663536654
20
328.8337573555
11
161.8663536654
21
329.2087823555
0
LINE
8
10000_FRONT
62
7
6
CONTINUOUS
10
161.8913526654
20
213.3337833555
11
161.8913526654
21
216.0337643555
0
LINE
8
10000_FRONT
62
7
6
CONTINUOUS
10
162.8913636654
20
216.9337573555
11
162.8913636654
21
212.3337473555
0
LINE
8
10000_FRONT
62
7
6
CONTINUOUS
10
162.9913576654
20
329.2087823555
11
162.9913576654
21
326.6587443555
0
LINE
8
13000_TOP
62
7
6
CONTINUOUS
10
162.9913576654
20
108.0847860292
11
162.9913576654
21
123.7347510292
0
LINE
8
10000_FRONT
62
7
6
CONTINUOUS
10
164.0913636654
20
217.6261083555
11
164.0913636654
21
326.6337463555
0
LINE
8
10000_FRONT
62
7
6
CONTINUOUS
10
164.1413606654
20
211.1337723555
11
164.1413606654
21
212.3337473555
0
LINE
8
13000_TOP
62
7
6
CONTINUOUS
10
164.2413536654
20
120.4847550292
11
164.2413536654
21
108.0847860292
0
LINE
8
13000_TOP
62
7
6
CONTINUOUS
10
164.4663526654
20
136.7347810292
11
164.4663526654
21
140.1347670292
0
LINE
8
13000_TOP
62
7
6
CONTINUOUS
10
164.8913626654
20
96.6327720292
11
164.8913626654
21
97.4568010292
0
LINE
8
13000_TOP
62
7
6
CONTINUOUS
10
164.8913626654
20
97.4619850292
11
164.8913626654
21
99.8449300292
0
LINE
8
13000_TOP
62
7
6
CONTINUOUS
10
164.8913626654
20
99.8501140292
11
164.8913626654
21
100.5620380292
0
LINE
8
10000_FRONT
62
7
6
CONTINUOUS
10
164.8913626654
20
301.9216893555
11
164.8913626654
21
303.6370883555
0
LINE
8
13000_TOP
62
7
6
CONTINUOUS
10
165.5413596654
20
101.9184470292
11
165.5413596654
21
99.0510830292
0
LINE
8
10000_FRONT
62
7
6
CONTINUOUS
10
165.5913446654
20
330.4587543555
11
165.5913446654
21
303.6361673555
0
LINE
8
13000_TOP
62
7
6
CONTINUOUS
10
165.5913566654
20
102.9847580292
11
165.5913566654
21
97.9847720292
0
LINE
8
10000_FRONT
62
7
6
CONTINUOUS
10
165.8413536654
20
210.3337733555
11
165.8413536654
21
209.3337373555
0
LINE
8
13000_TOP
62
7
6
CONTINUOUS
10
165.8413536654
20
136.7347810292
11
165.8413536654
21
135.9347810292
0
LINE
8
10500_FRONT_LABELING
62
7
6
CONTINUOUS
10
165.9529376654
20
312.8958682263
11
165.9529376654
21
312.5289822263
0
LINE
8
13000_TOP
62
7
6
CONTINUOUS
10
165.9913566654
20
135.9347810292
11
165.9913566654
21
140.1347670292
0
LINE
8
13000_TOP
62
7
6
CONTINUOUS
10
166.0913626654
20
105.5847450292
11
166.0913626654
21
107.0847500292
0
LINE
8
10000_FRONT
62
7
6
CONTINUOUS
10
166.3026626654
20
330.6340343555
11
166.3026626654
21
330.6182413555
0
LINE
8
10500_FRONT_LABELING
62
7
6
CONTINUOUS
10
166.9615486654
20
313.5854102263
11
166.9615486654
21
313.9474032263
0
LINE
8
10000_FRONT
62
7
6
CONTINUOUS
10
167.1163476654
20
323.5572863555
11
167.1163476654
21
330.4587543555
0
LINE
8
13000_TOP
62
7
6
CONTINUOUS
10
167.1163606654
20
97.9847720292
11
167.1163606654
21
102.9847580292
0
LINE
8
10500_FRONT_LABELING
62
7
6
CONTINUOUS
10
167.2212836654
20
313.9802982263
11
167.2212836654
21
312.4989452263
0
LINE
8
13000_TOP
62
7
6
CONTINUOUS
10
167.3413586654
20
103.4197120292
11
167.3413586654
21
96.8347460292
0
LINE
8
10000_FRONT
62
7
6
CONTINUOUS
10
167.4305976654
20
325.4554753555
11
167.4305976654
21
322.6412083555
0
LINE
8
10000_FRONT
62
7
6
CONTINUOUS
10
167.4305976654
20
301.9217373555
11
167.4305976654
21
300.4120423555
0
LINE
8
10000_FRONT
62
7
6
CONTINUOUS
10
167.4305976654
20
298.4554763555
11
167.4305976654
21
295.0120333555
0
LINE
8
10000_FRONT
62
7
6
CONTINUOUS
10
167.4305976654
20
293.0554663555
11
167.4305976654
21
289.6120723555
0
LINE
8
10000_FRONT
62
7
6
CONTINUOUS
10
167.4305976654
20
287.6554573555
11
167.4305976654
21
284.2120623555
0
LINE
8
10000_FRONT
62
7
6
CONTINUOUS
10
167.4305976654
20
282.2554473555
11
167.4305976654
21
278.8120533555
0
LINE
8
10000_FRONT
62
7
6
CONTINUOUS
10
167.4305976654
20
276.8554383555
11
167.4305976654
21
273.4120433555
0
LINE
8
10000_FRONT
62
7
6
CONTINUOUS
10
167.4305976654
20
271.4554773555
11
167.4305976654
21
268.0120343555
0
LINE
8
10000_FRONT
62
7
6
CONTINUOUS
10
167.4305976654
20
266.0554673555
11
167.4305976654
21
262.6120733555
0
LINE
8
10000_FRONT
62
7
6
CONTINUOUS
10
167.4305976654
20
260.6554583555
11
167.4305976654
21
257.2120643555
0
LINE
8
10000_FRONT
62
7
6
CONTINUOUS
10
167.4305976654
20
255.2554493555
11
167.4305976654
21
251.8120543555
0
LINE
8
10000_FRONT
62
7
6
CONTINUOUS
10
167.4305976654
20
249.8554393555
11
167.4305976654
21
246.4120453555
0
LINE
8
10000_FRONT
62
7
6
CONTINUOUS
10
167.4305976654
20
244.4554783555
11
167.4305976654
21
241.0120353555
0
LINE
8
10000_FRONT
62
7
6
CONTINUOUS
10
167.4305976654
20
239.0554693555
11
167.4305976654
21
235.6120743555
0
LINE
8
10000_FRONT
62
7
6
CONTINUOUS
10
167.4305976654
20
233.6554593555
11
167.4305976654
21
230.2120653555
0
LINE
8
10000_FRONT
62
7
6
CONTINUOUS
10
167.4305976654
20
227.7554803555
11
167.4305976654
21
224.3120373555
0
LINE
8
10000_FRONT
62
7
6
CONTINUOUS
10
167.4305976654
20
221.8554533555
11
167.4305976654
21
218.4120583555
0
LINE
8
10500_FRONT_LABELING
62
7
6
CONTINUOUS
10
167.6828466654
20
312.4989452263
11
167.6828466654
21
313.9802982263
0
LINE
8
10500_FRONT_LABELING
62
7
6
CONTINUOUS
10
167.9709466654
20
313.9802982263
11
167.9709466654
21
312.4989452263
0
LINE
8
10000_FRONT
62
7
6
CONTINUOUS
10
168.3679436654
20
307.2429723555
11
168.3679436654
21
307.8490403555
0
LINE
8
10500_FRONT_LABELING
62
7
6
CONTINUOUS
10
168.4183276654
20
312.8508612263
11
168.4183276654
21
313.1118922263
0
LINE
8
10500_FRONT_LABELING
62
7
6
CONTINUOUS
10
168.4183276654
20
313.4125042263
11
168.4183276654
21
313.6574012263
0
LINE
8
10000_FRONT
62
7
6
CONTINUOUS
10
168.5913546654
20
284.4724153555
11
168.5913546654
21
282.2837403555
0
LINE
8
10000_FRONT
62
7
6
CONTINUOUS
10
168.5913546654
20
273.3837513555
11
168.5913546654
21
271.1837403555
0
LINE
8
10000_FRONT
62
7
6
CONTINUOUS
10
168.5913546654
20
229.9724483555
11
168.5913546654
21
227.7837733555
0
LINE
8
10000_FRONT
62
7
6
CONTINUOUS
10
168.5913546654
20
224.2837453555
11
168.5913546654
21
221.8837463555
0
LINE
8
10000_FRONT
62
7
6
CONTINUOUS
10
168.5913546654
20
218.3837663555
11
168.5913546654
21
216.9337573555
0
LINE
8
13000_TOP
62
7
6
CONTINUOUS
10
168.5913546654
20
104.7826620292
11
168.5913546654
21
109.9347700292
0
LINE
8
10000_FRONT
62
7
6
CONTINUOUS
10
168.5913546654
20
276.8837793555
11
168.5913546654
21
278.7837603555
0
LINE
8
10000_FRONT
62
7
6
CONTINUOUS
10
168.8913606654
20
282.2837403555
11
168.8913606654
21
278.7837603555
0
LINE
8
10000_FRONT
62
7
6
CONTINUOUS
10
168.8913606654
20
276.8837793555
11
168.8913606654
21
273.3837513555
0
LINE
8
10000_FRONT
62
7
6
CONTINUOUS
10
168.8913606654
20
227.7837733555
11
168.8913606654
21
224.2837453555
0
LINE
8
10000_FRONT
62
7
6
CONTINUOUS
10
168.8913606654
20
221.8837463555
11
168.8913606654
21
218.3837663555
0
LINE
8
13000_TOP
62
7
6
CONTINUOUS
10
168.9413576654
20
140.1347670292
11
168.9413576654
21
127.4348640292
0
LINE
8
13000_TOP
62
7
6
CONTINUOUS
10
168.9413576654
20
96.8347460292
11
168.9413576654
21
104.4326350292
0
LINE
8
13000_TOP
62
7
6
CONTINUOUS
10
168.9413576654
20
110.6947040292
11
168.9413576654
21
122.0847550292
0
LINE
8
10000_FRONT
62
7
6
CONTINUOUS
10
168.9413576654
20
326.4911193555
11
168.9413576654
21
330.6340343555
0
LINE
8
10500_FRONT_LABELING
62
7
6
CONTINUOUS
10
168.9633166654
20
313.0969222263
11
168.9633166654
21
313.4125042263
0
LINE
8
10500_FRONT_LABELING
62
7
6
CONTINUOUS
10
169.0444036654
20
313.6424802263
11
169.0444036654
21
313.9802982263
0
LINE
8
10500_FRONT_LABELING
62
7
6
CONTINUOUS
10
169.0605606654
20
312.4989452263
11
169.0605606654
21
312.8508612263
0
LINE
8
10500_FRONT_LABELING
62
7
6
CONTINUOUS
10
169.2453726654
20
313.9802982263
11
169.2453726654
21
312.4989452263
0
LINE
8
10500_FRONT_LABELING
62
7
6
CONTINUOUS
10
169.5914026654
20
312.4989452263
11
169.5914026654
21
313.3550462263
0
LINE
8
10000_FRONT
62
7
6
CONTINUOUS
10
170.1913546654
20
229.9724483555
11
170.1913546654
21
227.7837733555
0
LINE
8
10000_FRONT
62
7
6
CONTINUOUS
10
170.1913546654
20
224.2837453555
11
170.1913546654
21
221.8837463555
0
LINE
8
10000_FRONT
62
7
6
CONTINUOUS
10
170.1913546654
20
276.8837793555
11
170.1913546654
21
278.7837603555
0
LINE
8
10000_FRONT
62
7
6
CONTINUOUS
10
170.1913546654
20
282.2837403555
11
170.1913546654
21
284.4724153555
0
LINE
8
10500_FRONT_LABELING
62
7
6
CONTINUOUS
10
170.5765046654
20
313.3582922263
11
170.5765046654
21
312.4989452263
0
LINE
8
10000_FRONT
62
7
6
CONTINUOUS
10
170.9913536654
20
284.4724153555
11
170.9913536654
21
282.2837403555
0
LINE
8
10000_FRONT
62
7
6
CONTINUOUS
10
170.9913536654
20
221.8837463555
11
170.9913536654
21
224.2837453555
0
LINE
8
10000_FRONT
62
7
6
CONTINUOUS
10
170.9913536654
20
227.7837733555
11
170.9913536654
21
229.9724483555
0
LINE
8
10000_FRONT
62
7
6
CONTINUOUS
10
170.9913536654
20
276.8837793555
11
170.9913536654
21
278.7837603555
0
LINE
8
10500_FRONT_LABELING
62
7
6
CONTINUOUS
10
171.0178056654
20
312.4989452263
11
171.0178056654
21
313.9802982263
0
LINE
8
10500_FRONT_LABELING
62
7
6
CONTINUOUS
10
171.3059056654
20
313.9802982263
11
171.3059056654
21
312.4989452263
0
LINE
8
10500_FRONT_LABELING
62
7
6
CONTINUOUS
10
171.7532866654
20
312.8508612263
11
171.7532866654
21
313.1118922263
0
LINE
8
10500_FRONT_LABELING
62
7
6
CONTINUOUS
10
171.7532866654
20
313.4125042263
11
171.7532866654
21
313.6574012263
0
LINE
8
10000_FRONT
62
7
6
CONTINUOUS
10
172.2413496654
20
330.6340343555
11
172.2413496654
21
326.4911193555
0
LINE
8
13000_TOP
62
7
6
CONTINUOUS
10
172.2413626654
20
96.8347460292
11
172.2413626654
21
104.4326350292
0
LINE
8
13000_TOP
62
7
6
CONTINUOUS
10
172.2413626654
20
110.6947040292
11
172.2413626654
21
122.0847550292
0
LINE
8
13000_TOP
62
7
6
CONTINUOUS
10
172.2413626654
20
127.4348640292
11
172.2413626654
21
140.1347670292
0
LINE
8
10000_FRONT
62
7
6
CONTINUOUS
10
172.2913466654
20
282.2837403555
11
172.2913466654
21
278.7837603555
0
LINE
8
10000_FRONT
62
7
6
CONTINUOUS
10
172.2913466654
20
276.8837793555
11
172.2913466654
21
273.3837513555
0
LINE
8
10000_FRONT
62
7
6
CONTINUOUS
10
172.2913466654
20
227.7837733555
11
172.2913466654
21
224.2837453555
0
LINE
8
10000_FRONT
62
7
6
CONTINUOUS
10
172.2913466654
20
221.8837463555
11
172.2913466654
21
218.3837663555
0
LINE
8
10500_FRONT_LABELING
62
7
6
CONTINUOUS
10
172.2982746654
20
313.0969222263
11
172.2982746654
21
313.4125042263
0
LINE
8
10500_FRONT_LABELING
62
7
6
CONTINUOUS
10
172.3793626654
20
313.6424802263
11
172.3793626654
21
313.9802982263
0
LINE
8
10500_FRONT_LABELING
62
7
6
CONTINUOUS
10
172.3955196654
20
312.4989452263
11
172.3955196654
21
312.8508612263
0
LINE
8
10500_FRONT_LABELING
62
7
6
CONTINUOUS
10
172.5823906654
20
313.9802982263
11
172.5823906654
21
312.4989452263
0
LINE
8
10000_FRONT
62
7
6
CONTINUOUS
10
172.5913526654
20
284.4724153555
11
172.5913526654
21
282.2837403555
0
LINE
8
10000_FRONT
62
7
6
CONTINUOUS
10
172.5913526654
20
273.3837513555
11
172.5913526654
21
271.1837403555
0
LINE
8
10000_FRONT
62
7
6
CONTINUOUS
10
172.5913526654
20
229.9724483555
11
172.5913526654
21
227.7837733555
0
LINE
8
10000_FRONT
62
7
6
CONTINUOUS
10
172.5913526654
20
224.2837453555
11
172.5913526654
21
221.8837463555
0
LINE
8
10000_FRONT
62
7
6
CONTINUOUS
10
172.5913526654
20
218.3837663555
11
172.5913526654
21
216.9337573555
0
LINE
8
13000_TOP
62
7
6
CONTINUOUS
10
172.5913526654
20
104.7826620292
11
172.5913526654
21
109.9347700292
0
LINE
8
10000_FRONT
62
7
6
CONTINUOUS
10
172.5913526654
20
276.8837793555
11
172.5913526654
21
278.7837603555
0
LINE
8
10000_FRONT
62
7
6
CONTINUOUS
10
172.8147646654
20
307.8490403555
11
172.8147646654
21
307.2429723555
0
LINE
8
10500_FRONT_LABELING
62
7
6
CONTINUOUS
10
172.9284566654
20
312.4989452263
11
172.9284566654
21
313.3522362263
0
LINE
8
10500_FRONT_LABELING
62
7
6
CONTINUOUS
10
173.5163816654
20
313.9802982263
11
173.5163816654
21
313.1561242263
0
LINE
8
10000_FRONT
62
7
6
CONTINUOUS
10
173.7520866654
20
325.4554753555
11
173.7520866654
21
322.6412083555
0
LINE
8
10000_FRONT
62
7
6
CONTINUOUS
10
173.7520866654
20
301.9217373555
11
173.7520866654
21
300.4120423555
0
LINE
8
10000_FRONT
62
7
6
CONTINUOUS
10
173.7520866654
20
298.4554763555
11
173.7520866654
21
295.0120333555
0
LINE
8
10000_FRONT
62
7
6
CONTINUOUS
10
173.7520866654
20
293.0554663555
11
173.7520866654
21
289.6120723555
0
LINE
8
10000_FRONT
62
7
6
CONTINUOUS
10
173.7520866654
20
287.6554573555
11
173.7520866654
21
284.2120623555
0
LINE
8
10000_FRONT
62
7
6
CONTINUOUS
10
173.7520866654
20
282.2554473555
11
173.7520866654
21
278.8120533555
0
LINE
8
10000_FRONT
62
7
6
CONTINUOUS
10
173.7520866654
20
276.8554383555
11
173.7520866654
21
273.4120433555
0
LINE
8
10000_FRONT
62
7
6
CONTINUOUS
10
173.7520866654
20
271.4554773555
11
173.7520866654
21
268.0120343555
0
LINE
8
10000_FRONT
62
7
6
CONTINUOUS
10
173.7520866654
20
266.0554673555
11
173.7520866654
21
262.6120733555
0
LINE
8
10000_FRONT
62
7
6
CONTINUOUS
10
173.7520866654
20
260.6554583555
11
173.7520866654
21
257.2120643555
0
LINE
8
10000_FRONT
62
7
6
CONTINUOUS
10
173.7520866654
20
255.2554493555
11
173.7520866654
21
251.8120543555
0
LINE
8
10000_FRONT
62
7
6
CONTINUOUS
10
173.7520866654
20
249.8554393555
11
173.7520866654
21
246.4120453555
0
LINE
8
10000_FRONT
62
7
6
CONTINUOUS
10
173.7520866654
20
244.4554783555
11
173.7520866654
21
241.0120353555
0
LINE
8
10000_FRONT
62
7
6
CONTINUOUS
10
173.7520866654
20
239.0554693555
11
173.7520866654
21
235.6120743555
0
LINE
8
10000_FRONT
62
7
6
CONTINUOUS
10
173.7520866654
20
233.6554593555
11
173.7520866654
21
230.2120653555
0
LINE
8
10000_FRONT
62
7
6
CONTINUOUS
10
173.7520866654
20
227.7554803555
11
173.7520866654
21
224.3120373555
0
LINE
8
10000_FRONT
62
7
6
CONTINUOUS
10
173.7520866654
20
221.8554533555
11
173.7520866654
21
218.4120583555
0
LINE
8
13000_TOP
62
7
6
CONTINUOUS
10
173.8413616654
20
103.4197120292
11
173.8413616654
21
96.8347460292
0
LINE
8
10500_FRONT_LABELING
62
7
6
CONTINUOUS
10
173.8623876654
20
312.4989452263
11
173.8623876654
21
313.9802982263
0
LINE
8
13000_TOP
62
7
6
CONTINUOUS
10
174.0663476654
20
102.9847580292
11
174.0663476654
21
97.9847720292
0
LINE
8
10000_FRONT
62
7
6
CONTINUOUS
10
174.0663596654
20
330.4587543555
11
174.0663596654
21
323.5572863555
0
LINE
8
10500_FRONT_LABELING
62
7
6
CONTINUOUS
10
174.0694726654
20
312.8958682263
11
174.0694726654
21
312.5289822263
0
LINE
8
10000_FRONT
62
7
6
CONTINUOUS
10
174.8800456654
20
330.6182413555
11
174.8800456654
21
330.6340343555
0
LINE
8
10500_FRONT_LABELING
62
7
6
CONTINUOUS
10
175.0780836654
20
313.5854102263
11
175.0780836654
21
313.9474032263
0
LINE
8
13000_TOP
62
7
6
CONTINUOUS
10
175.0913576654
20
107.0847500292
11
175.0913576654
21
105.5847450292
0
LINE
8
13000_TOP
62
7
6
CONTINUOUS
10
175.1913516654
20
135.9347810292
11
175.1913516654
21
140.1347670292
0
LINE
8
10000_FRONT
62
7
6
CONTINUOUS
10
175.3413546654
20
209.3337853555
11
175.3413546654
21
210.3337733555
0
LINE
8
13000_TOP
62
7
6
CONTINUOUS
10
175.3413666654
20
135.9347810292
11
175.3413666654
21
136.7347810292
0
LINE
8
10500_FRONT_LABELING
62
7
6
CONTINUOUS
10
159.6375896654
20
217.9740043555
11
159.6356036654
21
217.6716003555
0
LINE
8
10500_FRONT_LABELING
62
7
6
CONTINUOUS
10
160.2637746654
20
217.6557093555
11
160.2665366654
21
217.9593243555
0
LINE
8
10500_FRONT_LABELING
62
7
6
CONTINUOUS
10
160.5501546654
20
217.5451063555
11
160.5546606654
21
218.0387293555
0
LINE
8
10500_FRONT_LABELING
62
7
6
CONTINUOUS
10
159.3511126654
20
218.0848983555
11
159.3464006654
21
217.5912753555
0
LINE
8
10500_FRONT_LABELING
62
7
6
CONTINUOUS
10
165.9486986654
20
313.6985332263
11
165.9429096654
21
313.4184622263
0
LINE
8
10500_FRONT_LABELING
62
7
6
CONTINUOUS
10
174.0652336654
20
313.6985332263
11
174.0594436654
21
313.4184622263
0
LINE
8
10500_FRONT_LABELING
62
7
6
CONTINUOUS
10
160.0900566654
20
256.5413203555
11
160.1073286654
21
256.8355853555
0
LINE
8
13000_TOP
62
7
6
CONTINUOUS
10
168.5986586654
20
110.0553530292
11
168.5913546654
21
109.9347700292
0
LINE
8
10500_FRONT_LABELING
62
7
6
CONTINUOUS
10
158.9554486654
20
240.4822713555
11
158.9214266654
21
240.0530823555
0
LINE
8
10500_FRONT_LABELING
62
7
6
CONTINUOUS
10
160.1110106654
20
222.6388843555
11
160.1460496654
21
223.0656503555
0
LINE
8
10500_FRONT_LABELING
62
7
6
CONTINUOUS
10
160.1300256654
20
228.6892413555
11
160.0976146654
21
228.3224033555
0
LINE
8
10500_FRONT_LABELING
62
7
6
CONTINUOUS
10
182.9621346654
20
298.8950323555
11
183.0038466654
21
299.3050363555
0
LINE
8
10500_FRONT_LABELING
62
7
6
CONTINUOUS
10
182.1190896654
20
294.5356573555
11
182.0917906654
21
294.3227343555
0
LINE
8
10500_FRONT_LABELING
62
7
6
CONTINUOUS
10
158.9608986654
20
229.3264113555
11
159.0058936654
21
229.6709163555
0
LINE
8
10500_FRONT_LABELING
62
7
6
CONTINUOUS
10
181.8561946654
20
283.6764363555
11
181.9012016654
21
284.0208923555
0
LINE
8
10500_FRONT_LABELING
62
7
6
CONTINUOUS
10
160.1393996654
20
245.1673533555
11
160.0743486654
21
244.7454803555
0
LINE
8
10500_FRONT_LABELING
62
7
6
CONTINUOUS
10
174.4814626654
20
313.5919012263
11
174.4891176654
21
313.6383132263
0
LINE
8
10500_FRONT_LABELING
62
7
6
CONTINUOUS
10
182.7433006654
20
309.9338933555
11
182.7116406654
21
309.7428683555
0
LINE
8
10500_FRONT_LABELING
62
7
6
CONTINUOUS
10
181.4233236654
20
272.0338823555
11
181.3916396654
21
271.8428563555
0
LINE
8
10500_FRONT_LABELING
62
7
6
CONTINUOUS
10
181.9381906654
20
266.6338723555
11
181.9065056654
21
266.4428473555
0
LINE
8
10500_FRONT_LABELING
62
7
6
CONTINUOUS
10
181.4233236654
20
261.2338633555
11
181.3916396654
21
261.0428863555
0
LINE
8
10500_FRONT_LABELING
62
7
6
CONTINUOUS
10
158.9753846654
20
218.1948243555
11
158.9928376654
21
218.2998563555
0
LINE
8
10500_FRONT_LABELING
62
7
6
CONTINUOUS
10
159.2312066654
20
240.2907613555
11
159.2751356654
21
240.5427813555
0
LINE
8
10500_FRONT_LABELING
62
7
6
CONTINUOUS
10
159.8385826654
20
222.8362073555
11
159.7924616654
21
222.5843333555
0
LINE
8
10500_FRONT_LABELING
62
7
6
CONTINUOUS
10
182.6877566654
20
277.4343273555
11
182.7338776654
21
277.6862013555
0
LINE
8
10500_FRONT_LABELING
62
7
6
CONTINUOUS
10
183.0405936654
20
316.2041503555
11
182.9962166654
21
315.9723333555
0
LINE
8
10500_FRONT_LABELING
62
7
6
CONTINUOUS
10
183.0405936654
20
262.1041583555
11
182.9962166654
21
261.8723413555
0
LINE
8
10500_FRONT_LABELING
62
7
6
CONTINUOUS
10
182.2354836654
20
321.6041593555
11
182.1910816654
21
321.3723423555
0
LINE
8
10500_FRONT_LABELING
62
7
6
CONTINUOUS
10
181.7206166654
20
316.2041503555
11
181.6762146654
21
315.9723333555
0
LINE
8
10500_FRONT_LABELING
62
7
6
CONTINUOUS
10
181.7206166654
20
310.8041403555
11
181.6762146654
21
310.5723233555
0
LINE
8
10500_FRONT_LABELING
62
7
6
CONTINUOUS
10
181.7206166654
20
289.2041513555
11
181.6762146654
21
288.9723343555
0
LINE
8
10500_FRONT_LABELING
62
7
6
CONTINUOUS
10
181.7206166654
20
283.8041423555
11
181.6762146654
21
283.5723243555
0
LINE
8
10500_FRONT_LABELING
62
7
6
CONTINUOUS
10
181.7206166654
20
278.4041323555
11
181.6762146654
21
278.1723633555
0
LINE
8
10500_FRONT_LABELING
62
7
6
CONTINUOUS
10
159.3206636654
20
218.2650233555
11
159.2769886654
21
218.0400853555
0
LINE
8
10500_FRONT_LABELING
62
7
6
CONTINUOUS
10
181.3729386654
20
316.1349203555
11
181.3946186654
21
316.2431983555
0
LINE
8
10500_FRONT_LABELING
62
7
6
CONTINUOUS
10
182.6929406654
20
316.1349203555
11
182.7146206654
21
316.2431983555
0
LINE
8
10500_FRONT_LABELING
62
7
6
CONTINUOUS
10
181.3729386654
20
289.1349213555
11
181.3946186654
21
289.2431993555
0
LINE
8
10500_FRONT_LABELING
62
7
6
CONTINUOUS
10
181.8878296654
20
321.5349293555
11
181.9095096654
21
321.6431593555
0
LINE
8
10500_FRONT_LABELING
62
7
6
CONTINUOUS
10
181.3729386654
20
310.7349593555
11
181.3946186654
21
310.8431883555
0
LINE
8
10500_FRONT_LABELING
62
7
6
CONTINUOUS
10
181.3729386654
20
283.7349603555
11
181.3946186654
21
283.8431903555
0
LINE
8
10500_FRONT_LABELING
62
7
6
CONTINUOUS
10
181.3729386654
20
278.3349503555
11
181.3946186654
21
278.4431803555
0
LINE
8
10500_FRONT_LABELING
62
7
6
CONTINUOUS
10
182.6929406654
20
262.0349283555
11
182.7146206654
21
262.1431583555
0
LINE
8
10500_FRONT_LABELING
62
7
6
CONTINUOUS
10
182.6814106654
20
271.9814143555
11
182.7440036654
21
272.2873063555
0
LINE
8
10500_FRONT_LABELING
62
7
6
CONTINUOUS
10
175.1279836654
20
312.7376902263
11
175.1859496654
21
313.0162102263
0
LINE
8
10500_FRONT_LABELING
62
7
6
CONTINUOUS
10
181.3617966654
20
299.8549543555
11
181.4116236654
21
300.0723343555
0
LINE
8
10500_FRONT_LABELING
62
7
6
CONTINUOUS
10
181.3617966654
20
294.4549453555
11
181.4116236654
21
294.6723253555
0
LINE
8
10500_FRONT_LABELING
62
7
6
CONTINUOUS
10
181.3617966654
20
305.2549643555
11
181.4116236654
21
305.4722953555
0
LINE
8
10500_FRONT_LABELING
62
7
6
CONTINUOUS
10
182.1807866654
20
272.8912423555
11
182.1116296654
21
272.5925203555
0
LINE
8
10500_FRONT_LABELING
62
7
6
CONTINUOUS
10
181.8990456654
20
311.0773313555
11
181.8311236654
21
310.7901393555
0
LINE
8
10500_FRONT_LABELING
62
7
6
CONTINUOUS
10
180.5790436654
20
273.1773193555
11
180.5111216654
21
272.8901763555
0
LINE
8
10500_FRONT_LABELING
62
7
6
CONTINUOUS
10
181.0939106654
20
267.7773583555
11
181.0259886654
21
267.4901673555
0
LINE
8
10500_FRONT_LABELING
62
7
6
CONTINUOUS
10
180.5790436654
20
262.3773493555
11
180.5111216654
21
262.0901573555
0
LINE
8
10500_FRONT_LABELING
62
7
6
CONTINUOUS
10
180.5790436654
20
256.9773403555
11
180.5111216654
21
256.6901483555
0
LINE
8
10500_FRONT_LABELING
62
7
6
CONTINUOUS
10
180.5790436654
20
251.5773303555
11
180.5111216654
21
251.2901873555
0
LINE
8
10500_FRONT_LABELING
62
7
6
CONTINUOUS
10
181.8990456654
20
256.9773403555
11
181.8311236654
21
256.6901483555
0
LINE
8
10500_FRONT_LABELING
62
7
6
CONTINUOUS
10
180.5790436654
20
246.1773213555
11
180.5111216654
21
245.8901773555
0
LINE
8
10500_FRONT_LABELING
62
7
6
CONTINUOUS
10
159.7070986654
20
218.2648773555
11
159.6375896654
21
217.9740043555
0
LINE
8
10500_FRONT_LABELING
62
7
6
CONTINUOUS
10
160.1942896654
20
217.3654173555
11
160.2637746654
21
217.6557093555
0
LINE
8
10500_FRONT_LABELING
62
7
6
CONTINUOUS
10
182.9106356654
20
271.7089013555
11
183.0331576654
21
272.2031543555
0
LINE
8
10500_FRONT_LABELING
62
7
6
CONTINUOUS
10
181.9472986654
20
273.1682113555
11
181.8246066654
21
272.6740073555
0
LINE
8
10000_FRONT
62
7
6
CONTINUOUS
10
166.8261286654
20
209.3337373555
11
167.3084386654
21
211.1337723555
0
LINE
8
10500_FRONT_LABELING
62
7
6
CONTINUOUS
10
182.9747786654
20
309.5811053555
11
183.0373236654
21
309.8080773555
0
LINE
8
10500_FRONT_LABELING
62
7
6
CONTINUOUS
10
181.6547776654
20
271.6811413555
11
181.7173216654
21
271.9080663555
0
LINE
8
10500_FRONT_LABELING
62
7
6
CONTINUOUS
10
182.1696686654
20
266.2811323555
11
182.2321886654
21
266.5080563555
0
LINE
8
10500_FRONT_LABELING
62
7
6
CONTINUOUS
10
181.6547776654
20
260.8811223555
11
181.7173216654
21
261.1080953555
0
LINE
8
10500_FRONT_LABELING
62
7
6
CONTINUOUS
10
181.6547776654
20
255.4811133555
11
181.7173216654
21
255.7080863555
0
LINE
8
10500_FRONT_LABELING
62
7
6
CONTINUOUS
10
182.9747786654
20
255.4811133555
11
183.0373236654
21
255.7080863555
0
LINE
8
10500_FRONT_LABELING
62
7
6
CONTINUOUS
10
181.6547776654
20
250.0811043555
11
181.7173216654
21
250.3080763555
0
LINE
8
10500_FRONT_LABELING
62
7
6
CONTINUOUS
10
181.6895616654
20
305.3375173555
11
181.6264356654
21
305.1156313555
0
LINE
8
10500_FRONT_LABELING
62
7
6
CONTINUOUS
10
181.6895616654
20
299.9375073555
11
181.6264356654
21
299.7156223555
0
LINE
8
10500_FRONT_LABELING
62
7
6
CONTINUOUS
10
181.6895616654
20
294.5374983555
11
181.6264356654
21
294.3156123555
0
LINE
8
10500_FRONT_LABELING
62
7
6
CONTINUOUS
10
183.0082796654
20
293.6824143555
11
182.9300866654
21
293.4148443555
0
LINE
8
10500_FRONT_LABELING
62
7
6
CONTINUOUS
10
159.4951196654
20
218.5541523555
11
159.3511126654
21
218.0848983555
0
LINE
8
10500_FRONT_LABELING
62
7
6
CONTINUOUS
10
160.4061226654
20
217.0758513555
11
160.5501546654
21
217.5451063555
0
LINE
8
10500_FRONT_LABELING
62
7
6
CONTINUOUS
10
159.3208206654
20
239.9213563555
11
159.2464316654
21
239.6798013555
0
LINE
8
10500_FRONT_LABELING
62
7
6
CONTINUOUS
10
182.1983976654
20
294.0399513555
11
182.1177096654
21
293.7797923555
0
LINE
8
10500_FRONT_LABELING
62
7
6
CONTINUOUS
10
181.8669256654
20
294.5296983555
11
181.9919416654
21
294.9271063555
0
LINE
8
10500_FRONT_LABELING
62
7
6
CONTINUOUS
10
159.7727676654
20
239.4355333555
11
159.8508276654
21
239.6798493555
0
LINE
8
10500_FRONT_LABELING
62
7
6
CONTINUOUS
10
159.7431306654
20
223.2071633555
11
159.8213476654
21
223.4502203555
0
LINE
8
10500_FRONT_LABELING
62
7
6
CONTINUOUS
10
182.6384386654
20
278.0571573555
11
182.7166556654
21
278.3002143555
0
LINE
8
10500_FRONT_LABELING
62
7
6
CONTINUOUS
10
182.6856496654
20
293.5170183555
11
182.7703346654
21
293.7797923555
0
LINE
8
10500_FRONT_LABELING
62
7
6
CONTINUOUS
10
181.8311236654
20
316.1901493555
11
181.9593126654
21
316.5869753555
0
LINE
8
10500_FRONT_LABELING
62
7
6
CONTINUOUS
10
180.5111216654
20
310.7901393555
11
180.6393116654
21
311.1869663555
0
LINE
8
10500_FRONT_LABELING
62
7
6
CONTINUOUS
10
180.5111216654
20
289.1901503555
11
180.6393116654
21
289.5869763555
0
LINE
8
10500_FRONT_LABELING
62
7
6
CONTINUOUS
10
180.5111216654
20
283.7901403555
11
180.6393116654
21
284.1869673555
0
LINE
8
10500_FRONT_LABELING
62
7
6
CONTINUOUS
10
180.5111216654
20
278.3901793555
11
180.6393116654
21
278.7870063555
0
LINE
8
10500_FRONT_LABELING
62
7
6
CONTINUOUS
10
181.8311236654
20
262.0901573555
11
181.9593126654
21
262.4869843555
0
LINE
8
10500_FRONT_LABELING
62
7
6
CONTINUOUS
10
159.2953626654
20
223.6927443555
11
159.2160426654
21
223.4502203555
0
LINE
8
10500_FRONT_LABELING
62
7
6
CONTINUOUS
10
182.1906696654
20
278.5427863555
11
182.1113626654
21
278.3002143555
0
LINE
8
10500_FRONT_LABELING
62
7
6
CONTINUOUS
10
159.7894936654
20
235.3454723555
11
159.1894946654
21
233.5582273555
0
LINE
8
10500_FRONT_LABELING
62
7
6
CONTINUOUS
10
159.5239336654
20
233.5582273555
11
160.1460496654
21
235.4113603555
0
LINE
8
10500_FRONT_LABELING
62
7
6
CONTINUOUS
10
182.0848136654
20
287.6582673555
11
182.6848016654
21
289.4454643555
0
LINE
8
10500_FRONT_LABELING
62
7
6
CONTINUOUS
10
183.0413446654
20
289.5113513555
11
182.4192416654
21
287.6582673555
0
LINE
8
10500_FRONT_LABELING
62
7
6
CONTINUOUS
10
182.1876666654
20
294.7380673555
11
182.1190896654
21
294.5356573555
0
LINE
8
10500_FRONT_LABELING
62
7
6
CONTINUOUS
10
158.1108056654
20
218.2439493555
11
158.2422776654
21
218.6251273555
0
LINE
8
10500_FRONT_LABELING
62
7
6
CONTINUOUS
10
160.0336286654
20
239.2576853555
11
160.1282936654
21
239.5285993555
0
LINE
8
10500_FRONT_LABELING
62
7
6
CONTINUOUS
10
181.8333516654
20
278.4531123555
11
181.9285496654
21
278.7226693555
0
LINE
8
10500_FRONT_LABELING
62
7
6
CONTINUOUS
10
159.0332416654
20
223.8726753555
11
158.9380316654
21
223.6031173555
0
LINE
8
10500_FRONT_LABELING
62
7
6
CONTINUOUS
10
180.5404076654
20
305.4169693555
11
180.6795216654
21
305.8001343555
0
LINE
8
10500_FRONT_LABELING
62
7
6
CONTINUOUS
10
180.5404076654
20
300.0169603555
11
180.6795216654
21
300.4001243555
0
LINE
8
10500_FRONT_LABELING
62
7
6
CONTINUOUS
10
180.5404076654
20
294.6169503555
11
180.6795216654
21
295.0001153555
0
LINE
8
10500_FRONT_LABELING
62
7
6
CONTINUOUS
10
159.7897246654
20
229.3489393555
11
159.8213476654
21
229.4354653555
0
LINE
8
10500_FRONT_LABELING
62
7
6
CONTINUOUS
10
182.1729866654
20
283.8719673555
11
182.1413516654
21
283.7854413555
0
LINE
8
10500_FRONT_LABELING
62
7
6
CONTINUOUS
10
182.6850196654
20
283.6989153555
11
182.7166556654
21
283.7854413555
0
LINE
8
10500_FRONT_LABELING
62
7
6
CONTINUOUS
10
159.2776796654
20
229.5219423555
11
159.2460436654
21
229.4354653555
0
LINE
8
10500_FRONT_LABELING
62
7
6
CONTINUOUS
10
159.1037796654
20
240.8841363555
11
158.9554486654
21
240.4822713555
0
LINE
8
10500_FRONT_LABELING
62
7
6
CONTINUOUS
10
159.9602076654
20
222.2392963555
11
160.1110106654
21
222.6388843555
0
LINE
8
10500_FRONT_LABELING
62
7
6
CONTINUOUS
10
183.0063176654
20
277.4888783555
11
182.8555036654
21
277.0892903555
0
LINE
8
10500_FRONT_LABELING
62
7
6
CONTINUOUS
10
182.7646906654
20
299.1174023555
11
182.6656656654
21
298.8906243555
0
LINE
8
10500_FRONT_LABELING
62
7
6
CONTINUOUS
10
182.2452936654
20
273.0384713555
11
182.1807866654
21
272.8912423555
0
LINE
8
10500_FRONT_LABELING
62
7
6
CONTINUOUS
10
182.6176306654
20
271.8379633555
11
182.6814106654
21
271.9814143555
0
LINE
8
10500_FRONT_LABELING
62
7
6
CONTINUOUS
10
159.7487986654
20
244.8046823555
11
159.8450386654
21
245.0188163555
0
LINE
8
10500_FRONT_LABELING
62
7
6
CONTINUOUS
10
181.3880546654
20
272.8751093555
11
181.3136646654
21
272.7134913555
0
LINE
8
10500_FRONT_LABELING
62
7
6
CONTINUOUS
10
181.9029206654
20
267.4751483555
11
181.8285316654
21
267.3135303555
0
LINE
8
10500_FRONT_LABELING
62
7
6
CONTINUOUS
10
181.3880546654
20
262.0751393555
11
181.3136646654
21
261.9135213555
0
LINE
8
10500_FRONT_LABELING
62
7
6
CONTINUOUS
10
181.3880546654
20
256.6751293555
11
181.3136646654
21
256.5135113555
0
LINE
8
10500_FRONT_LABELING
62
7
6
CONTINUOUS
10
182.7080556654
20
256.6751293555
11
182.6336666654
21
256.5135113555
0
LINE
8
10500_FRONT_LABELING
62
7
6
CONTINUOUS
10
181.3880546654
20
251.2751203555
11
181.3136646654
21
251.1135023555
0
LINE
8
10500_FRONT_LABELING
62
7
6
CONTINUOUS
10
183.0012796654
20
283.6762913555
11
182.8520636654
21
283.3615333555
0
LINE
8
10500_FRONT_LABELING
62
7
6
CONTINUOUS
10
160.1059596654
20
229.3262663555
11
159.9567566654
21
229.0115573555
0
LINE
8
10500_FRONT_LABELING
62
7
6
CONTINUOUS
10
181.3241286654
20
283.6344333555
11
181.3729386654
21
283.7349603555
0
LINE
8
10500_FRONT_LABELING
62
7
6
CONTINUOUS
10
181.3241286654
20
289.0344423555
11
181.3729386654
21
289.1349213555
0
LINE
8
10500_FRONT_LABELING
62
7
6
CONTINUOUS
10
181.3241286654
20
278.2344723555
11
181.3729386654
21
278.3349503555
0
LINE
8
10500_FRONT_LABELING
62
7
6
CONTINUOUS
10
182.6441306654
20
261.9344503555
11
182.6929406654
21
262.0349283555
0
LINE
8
10500_FRONT_LABELING
62
7
6
CONTINUOUS
10
180.8590406654
20
289.3252193555
11
180.7928386654
21
289.1901503555
0
LINE
8
10500_FRONT_LABELING
62
7
6
CONTINUOUS
10
180.8590406654
20
283.9252103555
11
180.7928386654
21
283.7901403555
0
LINE
8
10500_FRONT_LABELING
62
7
6
CONTINUOUS
10
180.8590406654
20
278.5252493555
11
180.7928386654
21
278.3901793555
0
LINE
8
10500_FRONT_LABELING
62
7
6
CONTINUOUS
10
182.1790426654
20
262.2252263555
11
182.1128406654
21
262.0901573555
0
LINE
8
10500_FRONT_LABELING
62
7
6
CONTINUOUS
10
181.5325706654
20
272.4800753555
11
181.6653626654
21
272.7413483555
0
LINE
8
10500_FRONT_LABELING
62
7
6
CONTINUOUS
10
182.0474376654
20
267.0800663555
11
182.1802296654
21
267.3413393555
0
LINE
8
10500_FRONT_LABELING
62
7
6
CONTINUOUS
10
181.5325706654
20
261.6800563555
11
181.6653626654
21
261.9413293555
0
LINE
8
10500_FRONT_LABELING
62
7
6
CONTINUOUS
10
181.5325706654
20
256.2800473555
11
181.6653626654
21
256.5413203555
0
LINE
8
10500_FRONT_LABELING
62
7
6
CONTINUOUS
10
182.8525726654
20
256.2800473555
11
182.9853646654
21
256.5413203555
0
LINE
8
10500_FRONT_LABELING
62
7
6
CONTINUOUS
10
180.7928386654
20
272.8901763555
11
180.8741566654
21
273.0489363555
0
LINE
8
10500_FRONT_LABELING
62
7
6
CONTINUOUS
10
181.3077056654
20
267.4901673555
11
181.3890236654
21
267.6489263555
0
LINE
8
10500_FRONT_LABELING
62
7
6
CONTINUOUS
10
180.7928386654
20
262.0901573555
11
180.8741566654
21
262.2489173555
0
LINE
8
10500_FRONT_LABELING
62
7
6
CONTINUOUS
10
180.7928386654
20
256.6901483555
11
180.8741566654
21
256.8489073555
0
LINE
8
10500_FRONT_LABELING
62
7
6
CONTINUOUS
10
182.1128406654
20
256.6901483555
11
182.1941586654
21
256.8489073555
0
LINE
8
10500_FRONT_LABELING
62
7
6
CONTINUOUS
10
180.7928386654
20
251.2901873555
11
180.8741566654
21
251.4489463555
0
LINE
8
10500_FRONT_LABELING
62
7
6
CONTINUOUS
10
158.4594276654
20
218.3734953555
11
158.3925346654
21
218.2439493555
0
LINE
8
10500_FRONT_LABELING
62
7
6
CONTINUOUS
10
182.6409336654
20
282.7120573555
11
182.7466676654
21
282.9125293555
0
LINE
8
10500_FRONT_LABELING
62
7
6
CONTINUOUS
10
159.7456136654
20
228.3620323555
11
159.8513486654
21
228.5625053555
0
LINE
8
10500_FRONT_LABELING
62
7
6
CONTINUOUS
10
159.2751356654
20
240.5427813555
11
159.3349316654
21
240.6556623555
0
LINE
8
10500_FRONT_LABELING
62
7
6
CONTINUOUS
10
182.2177756654
20
283.1132443555
11
182.1113626654
21
282.9132563555
0
LINE
8
10500_FRONT_LABELING
62
7
6
CONTINUOUS
10
159.3224566654
20
228.7632193555
11
159.2160426654
21
228.5632313555
0
LINE
8
10500_FRONT_LABELING
62
7
6
CONTINUOUS
10
182.6277316654
20
277.3215923555
11
182.6877566654
21
277.4343273555
0
LINE
8
10500_FRONT_LABELING
62
7
6
CONTINUOUS
10
159.7924616654
20
222.5843333555
11
159.7324236654
21
222.4715973555
0
LINE
8
10500_FRONT_LABELING
62
7
6
CONTINUOUS
10
158.9353436654
20
228.6871093555
11
159.1106356654
21
229.0115573555
0
LINE
8
10500_FRONT_LABELING
62
7
6
CONTINUOUS
10
181.8306386654
20
283.0371343555
11
182.0059426654
21
283.3615813555
0
LINE
8
10500_FRONT_LABELING
62
7
6
CONTINUOUS
10
181.6762146654
20
288.9723343555
11
181.5602816654
21
288.7686163555
0
LINE
8
10500_FRONT_LABELING
62
7
6
CONTINUOUS
10
181.6762146654
20
283.5723243555
11
181.5602816654
21
283.3686063555
0
LINE
8
10500_FRONT_LABELING
62
7
6
CONTINUOUS
10
181.6762146654
20
278.1723633555
11
181.5602816654
21
277.9686453555
0
LINE
8
10500_FRONT_LABELING
62
7
6
CONTINUOUS
10
182.9962166654
20
261.8723413555
11
182.8802836654
21
261.6686233555
0
LINE
8
10500_FRONT_LABELING
62
7
6
CONTINUOUS
10
158.9209056654
20
218.0991413555
11
158.9753846654
21
218.1948243555
0
LINE
8
10500_FRONT_LABELING
62
7
6
CONTINUOUS
10
159.2769886654
20
218.0400853555
11
159.1604386654
21
217.8444573555
0
LINE
8
10500_FRONT_LABELING
62
7
6
CONTINUOUS
10
158.5351376654
20
251.9190243555
11
158.1413506654
21
251.2673683555
0
LINE
8
10500_FRONT_LABELING
62
7
6
CONTINUOUS
10
158.2350466654
20
250.7935603555
11
158.5013576654
21
251.2342793555
0
LINE
8
10500_FRONT_LABELING
62
7
6
CONTINUOUS
10
158.5351376654
20
246.5190153555
11
158.1413506654
21
245.8673593555
0
LINE
8
10500_FRONT_LABELING
62
7
6
CONTINUOUS
10
158.2350466654
20
245.3935993555
11
158.5013576654
21
245.8342703555
0
LINE
8
10500_FRONT_LABELING
62
7
6
CONTINUOUS
10
158.5351376654
20
241.1190053555
11
158.1413506654
21
240.4673493555
0
LINE
8
10500_FRONT_LABELING
62
7
6
CONTINUOUS
10
158.2350466654
20
239.9935903555
11
158.5013576654
21
240.4342603555
0
LINE
8
10500_FRONT_LABELING
62
7
6
CONTINUOUS
10
158.5351376654
20
235.7189963555
11
158.1413506654
21
235.0673883555
0
LINE
8
10500_FRONT_LABELING
62
7
6
CONTINUOUS
10
158.2350466654
20
234.5935803555
11
158.5013576654
21
235.0342993555
0
LINE
8
10500_FRONT_LABELING
62
7
6
CONTINUOUS
10
158.5351376654
20
230.0690023555
11
158.1413506654
21
229.4173943555
0
LINE
8
10500_FRONT_LABELING
62
7
6
CONTINUOUS
10
158.2350466654
20
228.9435863555
11
158.5013576654
21
229.3842573555
0
LINE
8
10500_FRONT_LABELING
62
7
6
CONTINUOUS
10
182.7504466654
20
268.1190043555
11
182.3566726654
21
267.4673483555
0
LINE
8
10500_FRONT_LABELING
62
7
6
CONTINUOUS
10
182.4503436654
20
266.9935883555
11
182.7166556654
21
267.4342593555
0
LINE
8
10500_FRONT_LABELING
62
7
6
CONTINUOUS
10
158.5351376654
20
224.1690233555
11
158.1413506654
21
223.5173673555
0
LINE
8
10500_FRONT_LABELING
62
7
6
CONTINUOUS
10
158.2350466654
20
223.0435593555
11
158.5013576654
21
223.4842783555
0
LINE
8
10500_FRONT_LABELING
62
7
6
CONTINUOUS
10
159.6759226654
20
251.9190243555
11
158.9213546654
21
250.7149313555
0
LINE
8
10500_FRONT_LABELING
62
7
6
CONTINUOUS
10
159.6413566654
20
251.2434363555
11
159.3427556654
21
250.7700633555
0
LINE
8
10500_FRONT_LABELING
62
7
6
CONTINUOUS
10
182.9929226654
20
282.6724283555
11
182.7781586654
21
282.3733183555
0
LINE
8
10500_FRONT_LABELING
62
7
6
CONTINUOUS
10
160.0976146654
20
228.3224033555
11
159.8828626654
21
228.0233423555
0
LINE
8
10500_FRONT_LABELING
62
7
6
CONTINUOUS
10
181.9012016654
20
284.0208923555
11
182.1054526654
21
284.3004783555
0
LINE
8
10500_FRONT_LABELING
62
7
6
CONTINUOUS
10
159.0058936654
20
229.6709163555
11
159.2101446654
21
229.9504533555
0
LINE
8
10500_FRONT_LABELING
62
7
6
CONTINUOUS
10
159.3469096654
20
229.6147663555
11
159.2776796654
21
229.5219423555
0
LINE
8
10500_FRONT_LABELING
62
7
6
CONTINUOUS
10
182.2422176654
20
283.9647423555
11
182.1729866654
21
283.8719673555
0
LINE
8
10500_FRONT_LABELING
62
7
6
CONTINUOUS
10
182.6157896654
20
283.6061403555
11
182.6850196654
21
283.6989153555
0
LINE
8
10500_FRONT_LABELING
62
7
6
CONTINUOUS
10
182.1006316654
20
273.3716873555
11
181.9472986654
21
273.1682113555
0
LINE
8
10500_FRONT_LABELING
62
7
6
CONTINUOUS
10
182.7572536654
20
271.5054253555
11
182.9106356654
21
271.7089013555
0
LINE
8
10500_FRONT_LABELING
62
7
6
CONTINUOUS
10
182.9300866654
20
293.4148443555
11
182.7621466654
21
293.1929583555
0
LINE
8
10500_FRONT_LABELING
62
7
6
CONTINUOUS
10
159.1822516654
20
257.2126933555
11
159.0037376654
21
256.9773403555
0
LINE
8
10500_FRONT_LABELING
62
7
6
CONTINUOUS
10
180.7575696654
20
273.4126733555
11
180.5790436654
21
273.1773193555
0
LINE
8
10500_FRONT_LABELING
62
7
6
CONTINUOUS
10
180.7575696654
20
262.6127033555
11
180.5790436654
21
262.3773493555
0
LINE
8
10500_FRONT_LABELING
62
7
6
CONTINUOUS
10
181.2724366654
20
268.0126643555
11
181.0939106654
21
267.7773583555
0
LINE
8
10500_FRONT_LABELING
62
7
6
CONTINUOUS
10
159.1987356654
20
261.2317313555
11
159.4725926654
21
261.5837443555
0
LINE
8
10500_FRONT_LABELING
62
7
6
CONTINUOUS
10
180.7740416654
20
282.9317143555
11
181.0479106654
21
283.2837763555
0
LINE
8
10500_FRONT_LABELING
62
7
6
CONTINUOUS
10
180.7740416654
20
277.5317053555
11
181.0479106654
21
277.8837673555
0
LINE
8
10500_FRONT_LABELING
62
7
6
CONTINUOUS
10
182.0940426654
20
261.2317313555
11
182.3678876654
21
261.5837443555
0
LINE
8
10500_FRONT_LABELING
62
7
6
CONTINUOUS
10
180.7740416654
20
288.3317243555
11
181.0479106654
21
288.6837373555
0
LINE
8
10500_FRONT_LABELING
62
7
6
CONTINUOUS
10
159.4725926654
20
261.5837443555
11
159.7488356654
21
261.9344503555
0
LINE
8
10500_FRONT_LABELING
62
7
6
CONTINUOUS
10
181.0479106654
20
288.6837373555
11
181.3241286654
21
289.0344423555
0
LINE
8
10500_FRONT_LABELING
62
7
6
CONTINUOUS
10
181.0479106654
20
283.2837763555
11
181.3241286654
21
283.6344333555
0
LINE
8
10500_FRONT_LABELING
62
7
6
CONTINUOUS
10
181.0479106654
20
277.8837673555
11
181.3241286654
21
278.2344723555
0
LINE
8
10500_FRONT_LABELING
62
7
6
CONTINUOUS
10
182.3678876654
20
261.5837443555
11
182.6441306654
21
261.9344503555
0
LINE
8
10500_FRONT_LABELING
62
7
6
CONTINUOUS
10
158.9213546654
20
260.8816553555
11
159.1987356654
21
261.2317313555
0
LINE
8
10500_FRONT_LABELING
62
7
6
CONTINUOUS
10
180.4966596654
20
287.9816483555
11
180.7740416654
21
288.3317243555
0
LINE
8
10500_FRONT_LABELING
62
7
6
CONTINUOUS
10
180.4966596654
20
282.5816393555
11
180.7740416654
21
282.9317143555
0
LINE
8
10500_FRONT_LABELING
62
7
6
CONTINUOUS
10
181.8166616654
20
260.8816553555
11
182.0940426654
21
261.2317313555
0
LINE
8
10500_FRONT_LABELING
62
7
6
CONTINUOUS
10
180.4966596654
20
277.1816783555
11
180.7740416654
21
277.5317053555
0
LINE
8
10500_FRONT_LABELING
62
7
6
CONTINUOUS
10
181.5602816654
20
288.7686163555
11
180.9702746654
21
288.0317903555
0
LINE
8
10500_FRONT_LABELING
62
7
6
CONTINUOUS
10
159.9849766654
20
261.6686233555
11
159.3949566654
21
260.9317983555
0
LINE
8
10500_FRONT_LABELING
62
7
6
CONTINUOUS
10
181.5602816654
20
283.3686063555
11
180.9702746654
21
282.6317813555
0
LINE
8
10500_FRONT_LABELING
62
7
6
CONTINUOUS
10
181.5602816654
20
277.9686453555
11
180.9702746654
21
277.2317723555
0
LINE
8
10500_FRONT_LABELING
62
7
6
CONTINUOUS
10
181.5066756654
20
271.4991763555
11
181.6547776654
21
271.6811413555
0
LINE
8
10500_FRONT_LABELING
62
7
6
CONTINUOUS
10
181.5066756654
20
260.6991573555
11
181.6547776654
21
260.8811223555
0
LINE
8
10500_FRONT_LABELING
62
7
6
CONTINUOUS
10
159.9313576654
20
255.2991473555
11
160.0794836654
21
255.4811133555
0
LINE
8
10500_FRONT_LABELING
62
7
6
CONTINUOUS
10
182.0215426654
20
266.0991663555
11
182.1696686654
21
266.2811323555
0
LINE
8
10500_FRONT_LABELING
62
7
6
CONTINUOUS
10
160.0743486654
20
244.7454803555
11
159.8033256654
21
244.4186593555
0
LINE
8
10500_FRONT_LABELING
62
7
6
CONTINUOUS
10
159.8435966654
20
239.0437933555
11
160.0336286654
21
239.2576853555
0
LINE
8
10500_FRONT_LABELING
62
7
6
CONTINUOUS
10
181.9285496654
20
278.7226693555
11
182.1288276654
21
278.9323463555
0
LINE
8
10000_FRONT
62
7
6
CONTINUOUS
10
162.5794886654
20
276.6575823555
11
160.0975416654
21
274.1756113555
0
LINE
8
10000_FRONT
62
7
6
CONTINUOUS
10
160.6632296654
20
273.6099483555
11
163.1451756654
21
276.0918703555
0
LINE
8
10000_FRONT
62
7
6
CONTINUOUS
10
180.5194786654
20
292.8575623555
11
178.0375316654
21
290.3756403555
0
LINE
8
10000_FRONT
62
7
6
CONTINUOUS
10
178.6032196654
20
289.8099283555
11
181.0851656654
21
292.2918993555
0
LINE
8
10000_FRONT
62
7
6
CONTINUOUS
10
162.5794886654
20
271.2575723555
11
160.0975416654
21
268.7756503555
0
LINE
8
10000_FRONT
62
7
6
CONTINUOUS
10
160.6632296654
20
268.2099393555
11
163.1451756654
21
270.6918613555
0
LINE
8
10000_FRONT
62
7
6
CONTINUOUS
10
180.5194786654
20
287.4575523555
11
178.0375316654
21
284.9756303555
0
LINE
8
10000_FRONT
62
7
6
CONTINUOUS
10
178.6032196654
20
284.4099673555
11
181.0851656654
21
286.8918893555
0
LINE
8
10000_FRONT
62
7
6
CONTINUOUS
10
162.5794886654
20
265.8575633555
11
160.0975416654
21
263.3756413555
0
LINE
8
10000_FRONT
62
7
6
CONTINUOUS
10
160.6632296654
20
262.8099293555
11
163.1451756654
21
265.2919003555
0
LINE
8
10000_FRONT
62
7
6
CONTINUOUS
10
180.5194786654
20
282.0575913555
11
178.0375316654
21
279.5756213555
0
LINE
8
10000_FRONT
62
7
6
CONTINUOUS
10
178.6032196654
20
279.0099583555
11
181.0851656654
21
281.4918803555
0
LINE
8
10000_FRONT
62
7
6
CONTINUOUS
10
162.5794886654
20
260.4575533555
11
160.0975416654
21
257.9756313555
0
LINE
8
10000_FRONT
62
7
6
CONTINUOUS
10
160.6632296654
20
257.4099683555
11
163.1451756654
21
259.8918903555
0
LINE
8
10000_FRONT
62
7
6
CONTINUOUS
10
180.5194786654
20
276.6575823555
11
178.0375316654
21
274.1756113555
0
LINE
8
10000_FRONT
62
7
6
CONTINUOUS
10
178.6032196654
20
273.6099483555
11
181.0851656654
21
276.0918703555
0
LINE
8
10000_FRONT
62
7
6
CONTINUOUS
10
162.5794886654
20
255.0575923555
11
160.0975416654
21
252.5756223555
0
LINE
8
10000_FRONT
62
7
6
CONTINUOUS
10
160.6632296654
20
252.0099593555
11
163.1451756654
21
254.4918813555
0
LINE
8
10000_FRONT
62
7
6
CONTINUOUS
10
180.5194786654
20
271.2575723555
11
178.0375316654
21
268.7756503555
0
LINE
8
10000_FRONT
62
7
6
CONTINUOUS
10
178.6032196654
20
268.2099393555
11
181.0851656654
21
270.6918613555
0
LINE
8
10000_FRONT
62
7
6
CONTINUOUS
10
162.5794886654
20
249.6575833555
11
160.0975416654
21
247.1756123555
0
LINE
8
10000_FRONT
62
7
6
CONTINUOUS
10
160.6632296654
20
246.6099493555
11
163.1451756654
21
249.0918713555
0
LINE
8
10000_FRONT
62
7
6
CONTINUOUS
10
180.5194786654
20
265.8575633555
11
178.0375316654
21
263.3756413555
0
LINE
8
10500_FRONT_LABELING
62
7
6
CONTINUOUS
10
180.6393116654
20
289.5869763555
11
180.7889626654
21
289.7330433555
0
LINE
8
10500_FRONT_LABELING
62
7
6
CONTINUOUS
10
180.6393116654
20
284.1869673555
11
180.7889626654
21
284.3330343555
0
LINE
8
10500_FRONT_LABELING
62
7
6
CONTINUOUS
10
159.0640056654
20
262.4869843555
11
159.2136696654
21
262.6330023555
0
LINE
8
10500_FRONT_LABELING
62
7
6
CONTINUOUS
10
180.6393116654
20
278.7870063555
11
180.7889626654
21
278.9330243555
0
LINE
8
10500_FRONT_LABELING
62
7
6
CONTINUOUS
10
182.2865456654
20
278.6280533555
11
182.1906696654
21
278.5427863555
0
LINE
8
10500_FRONT_LABELING
62
7
6
CONTINUOUS
10
182.5816586654
20
293.4248723555
11
182.6856496654
21
293.5170183555
0
LINE
8
10500_FRONT_LABELING
62
7
6
CONTINUOUS
10
159.0463946654
20
277.8726243555
11
159.1431306654
21
277.9571633555
0
LINE
8
10500_FRONT_LABELING
62
7
6
CONTINUOUS
10
182.5416906654
20
277.9726183555
11
182.6384386654
21
278.0571573555
0
LINE
8
10500_FRONT_LABELING
62
7
6
CONTINUOUS
10
180.9689176654
20
289.4193033555
11
180.8590406654
21
289.3252193555
0
LINE
8
10500_FRONT_LABELING
62
7
6
CONTINUOUS
10
180.9689176654
20
284.0192933555
11
180.8590406654
21
283.9252103555
0
LINE
8
10500_FRONT_LABELING
62
7
6
CONTINUOUS
10
159.3936126654
20
262.3193103555
11
159.2837476654
21
262.2252263555
0
LINE
8
10500_FRONT_LABELING
62
7
6
CONTINUOUS
10
180.9689176654
20
278.6192843555
11
180.8590406654
21
278.5252493555
0
LINE
8
10500_FRONT_LABELING
62
7
6
CONTINUOUS
10
182.1183636654
20
299.3786753555
11
182.3089766654
21
299.5357393555
0
LINE
8
10500_FRONT_LABELING
62
7
6
CONTINUOUS
10
182.3063366654
20
294.1288503555
11
182.1983976654
21
294.0399513555
0
LINE
8
10500_FRONT_LABELING
62
7
6
CONTINUOUS
10
180.6795216654
20
295.0001153555
11
180.8376516654
21
295.1286443555
0
LINE
8
10500_FRONT_LABELING
62
7
6
CONTINUOUS
10
182.3523606654
20
294.8666443555
11
182.1876666654
21
294.7380673555
0
LINE
8
10500_FRONT_LABELING
62
7
6
CONTINUOUS
10
181.9919416654
20
294.9271063555
11
182.3151536654
21
295.1786893555
0
LINE
8
10500_FRONT_LABELING
62
7
6
CONTINUOUS
10
159.1324246654
20
277.2215983555
11
159.0320186654
21
277.1436473555
0
LINE
8
10500_FRONT_LABELING
62
7
6
CONTINUOUS
10
182.5273256654
20
277.2436413555
11
182.6277316654
21
277.3215923555
0
LINE
8
10500_FRONT_LABELING
62
7
6
CONTINUOUS
10
159.4757656654
20
273.1264503555
11
159.3499856654
21
273.0384713555
0
LINE
8
10500_FRONT_LABELING
62
7
6
CONTINUOUS
10
159.5925586654
20
271.7510503555
11
159.7223346654
21
271.8379633555
0
LINE
8
10500_FRONT_LABELING
62
7
6
CONTINUOUS
10
159.0058326654
20
276.7634383555
11
159.3602086654
21
276.9892963555
0
LINE
8
10500_FRONT_LABELING
62
7
6
CONTINUOUS
10
159.4281906654
20
273.4958563555
11
159.2053126654
21
273.3716873555
0
LINE
8
10500_FRONT_LABELING
62
7
6
CONTINUOUS
10
182.2694196654
20
299.8504973555
11
182.0872366654
21
299.7535553555
0
LINE
8
10500_FRONT_LABELING
62
7
6
CONTINUOUS
10
159.0714536654
20
277.4997303555
11
159.2385826654
21
277.5862073555
0
LINE
8
10500_FRONT_LABELING
62
7
6
CONTINUOUS
10
182.7621466654
20
293.1929583555
11
182.5767896654
21
293.0986813555
0
LINE
8
10500_FRONT_LABELING
62
7
6
CONTINUOUS
10
159.2668396654
20
293.0929163555
11
159.0814826654
21
292.9986873555
0
LINE
8
10500_FRONT_LABELING
62
7
6
CONTINUOUS
10
182.6336666654
20
310.6135033555
11
182.4523066654
21
310.5318223555
0
LINE
8
10500_FRONT_LABELING
62
7
6
CONTINUOUS
10
158.5964706654
20
294.2227403555
11
158.9284396654
21
294.3685163555
0
LINE
8
10500_FRONT_LABELING
62
7
6
CONTINUOUS
10
182.0917906654
20
294.3227343555
11
182.4237466654
21
294.4685103555
0
LINE
8
10500_FRONT_LABELING
62
7
6
CONTINUOUS
10
158.9336956654
20
284.0455033555
11
158.7469096654
21
283.9647423555
0
LINE
8
10500_FRONT_LABELING
62
7
6
CONTINUOUS
10
158.9336956654
20
283.5253803555
11
159.1204946654
21
283.6061403555
0
LINE
8
10500_FRONT_LABELING
62
7
6
CONTINUOUS
10
174.7140796654
20
312.8506192263
11
174.6264636654
21
312.8161742263
0
LINE
8
10500_FRONT_LABELING
62
7
6
CONTINUOUS
10
159.2003586654
20
298.7906303555
11
158.9731076654
21
298.7050243555
0
LINE
8
10500_FRONT_LABELING
62
7
6
CONTINUOUS
10
182.6656656654
20
298.8906243555
11
182.4384016654
21
298.8050183555
0
LINE
8
10500_FRONT_LABELING
62
7
6
CONTINUOUS
10
158.8458496654
20
311.4014393555
11
158.5672576654
21
311.3025113555
0
LINE
8
10500_FRONT_LABELING
62
7
6
CONTINUOUS
10
182.3561636654
20
311.4116133555
11
182.0775716654
21
311.3126853555
0
LINE
8
10500_FRONT_LABELING
62
7
6
CONTINUOUS
10
180.7889626654
20
316.7330423555
11
180.9873036654
21
316.8024183555
0
LINE
8
10500_FRONT_LABELING
62
7
6
CONTINUOUS
10
182.1089646654
20
316.7330423555
11
182.3073056654
21
316.8024183555
0
LINE
8
10500_FRONT_LABELING
62
7
6
CONTINUOUS
10
180.7889626654
20
311.3330333555
11
180.9873036654
21
311.4024083555
0
LINE
8
10500_FRONT_LABELING
62
7
6
CONTINUOUS
10
166.3982356654
20
313.9972062263
11
166.1291626654
21
313.9108742263
0
LINE
8
10500_FRONT_LABELING
62
7
6
CONTINUOUS
10
174.5147696654
20
313.9971582263
11
174.2456976654
21
313.9108742263
0
LINE
8
10500_FRONT_LABELING
62
7
6
CONTINUOUS
10
159.1567326654
20
218.6824393555
11
159.3206636654
21
218.2650233555
0
LINE
8
10500_FRONT_LABELING
62
7
6
CONTINUOUS
10
159.2160426654
20
223.4502203555
11
159.2953626654
21
223.2076963555
0
LINE
8
10500_FRONT_LABELING
62
7
6
CONTINUOUS
10
159.8213476654
20
223.4502203555
11
159.7421616654
21
223.6927923555
0
LINE
8
10500_FRONT_LABELING
62
7
6
CONTINUOUS
10
160.1183256654
20
223.4924653555
11
159.9863206654
21
223.8996113555
0
LINE
8
10500_FRONT_LABELING
62
7
6
CONTINUOUS
10
159.2464316654
20
239.6798013555
11
159.3241886654
21
239.4353873555
0
LINE
8
10500_FRONT_LABELING
62
7
6
CONTINUOUS
10
159.8508276654
20
239.6798493555
11
159.7767766654
21
239.9215013555
0
LINE
8
10500_FRONT_LABELING
62
7
6
CONTINUOUS
10
160.1073646654
20
240.4901683555
11
160.0282516654
21
240.7663623555
0
LINE
8
10500_FRONT_LABELING
62
7
6
CONTINUOUS
10
158.9600386654
20
222.6370913555
11
159.0384986654
21
222.3628353555
0
LINE
8
10500_FRONT_LABELING
62
7
6
CONTINUOUS
10
159.3464006654
20
217.5912753555
11
159.4719626654
21
217.1162073555
0
LINE
8
10500_FRONT_LABELING
62
7
6
CONTINUOUS
10
160.5546606654
20
218.0387293555
11
160.4292806654
21
218.5137963555
0
LINE
8
10500_FRONT_LABELING
62
7
6
CONTINUOUS
10
158.9000376654
20
255.7871023555
11
158.9581736654
21
255.5580463555
0
LINE
8
10500_FRONT_LABELING
62
7
6
CONTINUOUS
10
160.2665366654
20
217.9593243555
11
160.1997526654
21
218.2499073555
0
LINE
8
10500_FRONT_LABELING
62
7
6
CONTINUOUS
10
159.7744636654
20
256.8419803555
11
159.8127366654
21
256.6751293555
0
LINE
8
10500_FRONT_LABELING
62
7
6
CONTINUOUS
10
159.6356036654
20
217.6716003555
11
159.7017086654
21
217.3799023555
0
LINE
8
10500_FRONT_LABELING
62
7
6
CONTINUOUS
10
159.2623706654
20
299.2606593555
11
159.2993836654
21
299.0174083555
0
LINE
8
10500_FRONT_LABELING
62
7
6
CONTINUOUS
10
159.8450386654
20
245.0188163555
11
159.8103986654
21
245.2497613555
0
LINE
8
13000_TOP
62
7
6
CONTINUOUS
10
172.5913526654
20
109.9347700292
11
172.5596686654
21
110.1840280292
0
LINE
8
10500_FRONT_LABELING
62
7
6
CONTINUOUS
10
160.0657976654
20
229.6714973555
11
160.1059596654
21
229.3262663555
0
LINE
8
10500_FRONT_LABELING
62
7
6
CONTINUOUS
10
159.4657976654
20
284.0215223555
11
159.5059596654
21
283.6762913555
0
LINE
8
10500_FRONT_LABELING
62
7
6
CONTINUOUS
10
181.8658356654
20
228.3200293555
11
181.8306386654
21
228.6871093555
0
LINE
8
10500_FRONT_LABELING
62
7
6
CONTINUOUS
10
181.8658356654
20
282.6700543555
11
181.8306386654
21
283.0371343555
0
LINE
8
10500_FRONT_LABELING
62
7
6
CONTINUOUS
10
182.9777826654
20
294.0509973555
11
183.0082796654
21
293.6824143555
0
LINE
8
10500_FRONT_LABELING
62
7
6
CONTINUOUS
10
181.8752576654
20
293.6954473555
11
181.8408856654
21
294.1122333555
0
LINE
8
10500_FRONT_LABELING
62
7
6
CONTINUOUS
10
181.7173216654
20
222.5580753555
11
181.6960296654
21
222.8713313555
0
LINE
8
10500_FRONT_LABELING
62
7
6
CONTINUOUS
10
181.7173216654
20
228.4580543555
11
181.6960296654
21
228.7713583555
0
LINE
8
10500_FRONT_LABELING
62
7
6
CONTINUOUS
10
181.7173216654
20
234.1080963555
11
181.6960296654
21
234.4213523555
0
LINE
8
10500_FRONT_LABELING
62
7
6
CONTINUOUS
10
181.7173216654
20
239.5080573555
11
181.6960296654
21
239.8213623555
0
LINE
8
10500_FRONT_LABELING
62
7
6
CONTINUOUS
10
181.7173216654
20
244.9080673555
11
181.6960296654
21
245.2213713555
0
LINE
8
10500_FRONT_LABELING
62
7
6
CONTINUOUS
10
181.7173216654
20
250.3080763555
11
181.6960296654
21
250.6213323555
0
LINE
8
10500_FRONT_LABELING
62
7
6
CONTINUOUS
10
181.7173216654
20
255.7080863555
11
181.6960296654
21
256.0213423555
0
LINE
8
10500_FRONT_LABELING
62
7
6
CONTINUOUS
10
181.7173216654
20
261.1080953555
11
181.6960296654
21
261.4213513555
0
LINE
8
10500_FRONT_LABELING
62
7
6
CONTINUOUS
10
181.7173216654
20
271.9080663555
11
181.6960296654
21
272.2213703555
0
LINE
8
10500_FRONT_LABELING
62
7
6
CONTINUOUS
10
182.2321886654
20
266.5080563555
11
182.2108966654
21
266.8213613555
0
LINE
8
10500_FRONT_LABELING
62
7
6
CONTINUOUS
10
183.0373236654
20
255.7080863555
11
183.0160316654
21
256.0213423555
0
LINE
8
10500_FRONT_LABELING
62
7
6
CONTINUOUS
10
183.0373236654
20
309.8080773555
11
183.0160316654
21
310.1213333555
0
LINE
8
10500_FRONT_LABELING
62
7
6
CONTINUOUS
10
181.8167346654
20
240.0530823555
11
181.8455116654
21
239.6234573555
0
LINE
8
10500_FRONT_LABELING
62
7
6
CONTINUOUS
10
183.0413446654
20
223.0656503555
11
183.0136336654
21
223.4924653555
0
LINE
8
10500_FRONT_LABELING
62
7
6
CONTINUOUS
10
183.0136336654
20
278.3424603555
11
183.0413446654
21
277.9156443555
0
LINE
8
10500_FRONT_LABELING
62
7
6
CONTINUOUS
10
181.8333516654
20
223.6031173555
11
181.8533606654
21
223.2219883555
0
LINE
8
10500_FRONT_LABELING
62
7
6
CONTINUOUS
10
181.8533606654
20
278.0719823555
11
181.8333516654
21
278.4531123555
0
LINE
8
10500_FRONT_LABELING
62
7
6
CONTINUOUS
10
181.6813016654
20
294.7672323555
11
181.6895616654
21
294.5374983555
0
LINE
8
10500_FRONT_LABELING
62
7
6
CONTINUOUS
10
181.6813016654
20
300.1672413555
11
181.6895616654
21
299.9375073555
0
LINE
8
10500_FRONT_LABELING
62
7
6
CONTINUOUS
10
181.6813016654
20
305.5672023555
11
181.6895616654
21
305.3375173555
0
LINE
8
10500_FRONT_LABELING
62
7
6
CONTINUOUS
10
183.0236136654
20
239.5285993555
11
183.0149896654
21
239.9090023555
0
LINE
8
10500_FRONT_LABELING
62
7
6
CONTINUOUS
10
182.1116296654
20
272.5925203555
11
182.1149966654
21
272.2754373555
0
LINE
8
10500_FRONT_LABELING
62
7
6
CONTINUOUS
10
181.8246066654
20
272.6740073555
11
181.8286766654
21
272.1631373555
0
LINE
8
10500_FRONT_LABELING
62
7
6
CONTINUOUS
10
183.0331576654
20
272.2031543555
11
183.0294996654
21
272.7143633555
0
LINE
8
10500_FRONT_LABELING
62
7
6
CONTINUOUS
10
182.7440036654
20
272.2873063555
11
182.7426466654
21
272.6019673555
0
LINE
8
13000_TOP
62
7
6
CONTINUOUS
10
175.5913516654
20
102.9847580292
11
175.5913516654
21
97.9847720292
0
LINE
8
10000_FRONT
62
7
6
CONTINUOUS
10
175.5913636654
20
330.4587543555
11
175.5913636654
21
303.6361673555
0
LINE
8
13000_TOP
62
7
6
CONTINUOUS
10
175.6413486654
20
101.9184470292
11
175.6413486654
21
99.0510830292
0
LINE
8
10000_FRONT
62
7
6
CONTINUOUS
10
176.2913446654
20
301.9216893555
11
176.2913446654
21
303.6370883555
0
LINE
8
13000_TOP
62
7
6
CONTINUOUS
10
176.2913576654
20
96.6327720292
11
176.2913576654
21
97.4568010292
0
LINE
8
13000_TOP
62
7
6
CONTINUOUS
10
176.2913576654
20
97.4619850292
11
176.2913576654
21
99.8449300292
0
LINE
8
13000_TOP
62
7
6
CONTINUOUS
10
176.2913576654
20
99.8501140292
11
176.2913576654
21
100.5620380292
0
LINE
8
13000_TOP
62
7
6
CONTINUOUS
10
176.7163556654
20
136.7347810292
11
176.7163556654
21
140.1347670292
0
LINE
8
13000_TOP
62
7
6
CONTINUOUS
10
176.9413656654
20
120.4847550292
11
176.9413656654
21
108.0847860292
0
LINE
8
10000_FRONT
62
7
6
CONTINUOUS
10
177.0413476654
20
212.3337473555
11
177.0413476654
21
211.1337723555
0
LINE
8
10000_FRONT
62
7
6
CONTINUOUS
10
177.0913446654
20
326.6337463555
11
177.0913446654
21
217.6261083555
0
LINE
8
10000_FRONT
62
7
6
CONTINUOUS
10
178.1913506654
20
329.2087823555
11
178.1913506654
21
326.6587443555
0
LINE
8
13000_TOP
62
7
6
CONTINUOUS
10
178.1913626654
20
123.7347510292
11
178.1913626654
21
108.0847860292
0
LINE
8
10000_FRONT
62
7
6
CONTINUOUS
10
178.2913436654
20
212.3337473555
11
178.2913436654
21
216.9337573555
0
LINE
8
10000_FRONT
62
7
6
CONTINUOUS
10
179.2913556654
20
213.3337833555
11
179.2913556654
21
216.0337643555
0
LINE
8
10000_FRONT
62
7
6
CONTINUOUS
10
179.3163546654
20
328.8337573555
11
179.3163546654
21
329.2087823555
0
LINE
8
13000_TOP
62
7
6
CONTINUOUS
10
179.3213566654
20
118.2347470292
11
179.3213566654
21
135.9347810292
0
LINE
8
13000_TOP
62
7
6
CONTINUOUS
10
179.6913676654
20
138.0347500292
11
179.6913676654
21
136.7347810292
0
LINE
8
10500_FRONT_LABELING
62
7
6
CONTINUOUS
10
180.4966596654
20
276.8582483555
11
180.4966596654
21
277.1816783555
0
LINE
8
10500_FRONT_LABELING
62
7
6
CONTINUOUS
10
180.4966596654
20
282.2582573555
11
180.4966596654
21
282.5816393555
0
LINE
8
10500_FRONT_LABELING
62
7
6
CONTINUOUS
10
180.4966596654
20
287.6582673555
11
180.4966596654
21
287.9816483555
0
LINE
8
10500_FRONT_LABELING
62
7
6
CONTINUOUS
10
180.4966596654
20
309.2582563555
11
180.4966596654
21
309.5816863555
0
LINE
8
10500_FRONT_LABELING
62
7
6
CONTINUOUS
10
180.4966596654
20
314.6582663555
11
180.4966596654
21
314.9816473555
0
LINE
8
10500_FRONT_LABELING
62
7
6
CONTINUOUS
10
180.5207866654
20
293.0850193555
11
180.5207866654
21
293.3715813555
0
LINE
8
10500_FRONT_LABELING
62
7
6
CONTINUOUS
10
180.5207866654
20
298.4850283555
11
180.5207866654
21
298.7715903555
0
LINE
8
10500_FRONT_LABELING
62
7
6
CONTINUOUS
10
180.5207866654
20
303.8850383555
11
180.5207866654
21
304.1715513555
0
LINE
8
10500_FRONT_LABELING
62
7
6
CONTINUOUS
10
180.5297486654
20
217.6974703555
11
180.5297486654
21
217.3546133555
0
LINE
8
10000_FRONT
62
7
6
CONTINUOUS
10
180.5913486654
20
200.2087613555
11
180.5913486654
21
212.3337473555
0
LINE
8
13000_TOP
62
7
6
CONTINUOUS
10
180.5913616654
20
139.6347970292
11
180.5913616654
21
142.3347780292
0
LINE
8
10500_FRONT_LABELING
62
7
6
CONTINUOUS
10
180.9766696654
20
272.6254153555
11
180.9766696654
21
272.2944283555
0
LINE
8
10500_FRONT_LABELING
62
7
6
CONTINUOUS
10
180.9766696654
20
261.8253963555
11
180.9766696654
21
261.4944093555
0
LINE
8
10500_FRONT_LABELING
62
7
6
CONTINUOUS
10
180.9766696654
20
256.4253873555
11
180.9766696654
21
256.0943993555
0
LINE
8
10500_FRONT_LABELING
62
7
6
CONTINUOUS
10
180.9766696654
20
251.0253773555
11
180.9766696654
21
250.6944383555
0
LINE
8
10500_FRONT_LABELING
62
7
6
CONTINUOUS
10
180.9766696654
20
245.6254163555
11
180.9766696654
21
245.2944293555
0
LINE
8
10500_FRONT_LABELING
62
7
6
CONTINUOUS
10
180.9766696654
20
240.2254073555
11
180.9766696654
21
239.8944193555
0
LINE
8
10500_FRONT_LABELING
62
7
6
CONTINUOUS
10
180.9766696654
20
234.8253973555
11
180.9766696654
21
234.4944103555
0
LINE
8
10500_FRONT_LABELING
62
7
6
CONTINUOUS
10
180.9766696654
20
229.1754033555
11
180.9766696654
21
228.8444163555
0
LINE
8
10500_FRONT_LABELING
62
7
6
CONTINUOUS
10
180.9766696654
20
223.2754243555
11
180.9766696654
21
222.9444373555
0
LINE
8
10500_FRONT_LABELING
62
7
6
CONTINUOUS
10
181.0115266654
20
320.0582273555
11
181.0115266654
21
320.3816563555
0
LINE
8
10500_FRONT_LABELING
62
7
6
CONTINUOUS
10
181.2497386654
20
217.3546133555
11
181.2497386654
21
216.7886113555
0
LINE
8
10500_FRONT_LABELING
62
7
6
CONTINUOUS
10
181.2497386654
20
217.7498903555
11
181.2497386654
21
218.1995713555
0
LINE
8
10500_FRONT_LABELING
62
7
6
CONTINUOUS
10
181.4915366654
20
267.2254063555
11
181.4915366654
21
266.8944183555
0
LINE
8
10500_FRONT_LABELING
62
7
6
CONTINUOUS
10
181.5744286654
20
216.7886113555
11
181.5744286654
21
217.3546133555
0
LINE
8
10500_FRONT_LABELING
62
7
6
CONTINUOUS
10
181.5744286654
20
217.7498903555
11
181.5744286654
21
218.8413443555
0
LINE
8
10500_FRONT_LABELING
62
7
6
CONTINUOUS
10
181.6972406654
20
304.2049793555
11
181.6972406654
21
303.8850383555
0
LINE
8
10500_FRONT_LABELING
62
7
6
CONTINUOUS
10
181.6972406654
20
298.8049703555
11
181.6972406654
21
298.4850283555
0
LINE
8
10500_FRONT_LABELING
62
7
6
CONTINUOUS
10
181.6972406654
20
293.4050093555
11
181.6972406654
21
293.0850193555
0
LINE
8
10500_FRONT_LABELING
62
7
6
CONTINUOUS
10
181.7213426654
20
315.0317893555
11
181.7213426654
21
314.6582663555
0
LINE
8
10500_FRONT_LABELING
62
7
6
CONTINUOUS
10
181.7213426654
20
309.6317803555
11
181.7213426654
21
309.2582563555
0
LINE
8
10500_FRONT_LABELING
62
7
6
CONTINUOUS
10
181.7213426654
20
288.0317903555
11
181.7213426654
21
287.6582673555
0
LINE
8
10500_FRONT_LABELING
62
7
6
CONTINUOUS
10
181.7213426654
20
282.6317813555
11
181.7213426654
21
282.2582573555
0
LINE
8
10500_FRONT_LABELING
62
7
6
CONTINUOUS
10
181.7213426654
20
277.2317723555
11
181.7213426654
21
276.8582483555
0
LINE
8
10500_FRONT_LABELING
62
7
6
CONTINUOUS
10
181.7544316654
20
217.3546133555
11
181.7544316654
21
217.7498903555
0
LINE
8
10500_FRONT_LABELING
62
7
6
CONTINUOUS
10
181.8166616654
20
250.7149313555
11
181.8166616654
21
250.3540043555
0
LINE
8
10500_FRONT_LABELING
62
7
6
CONTINUOUS
10
181.8166616654
20
235.3454723555
11
181.8166616654
21
235.7189963555
0
LINE
8
10500_FRONT_LABELING
62
7
6
CONTINUOUS
10
181.8166616654
20
245.2518443555
11
181.8166616654
21
246.5190153555
0
LINE
8
10500_FRONT_LABELING
62
7
6
CONTINUOUS
10
181.8166616654
20
260.5582263555
11
181.8166616654
21
260.8816553555
0
LINE
8
10500_FRONT_LABELING
62
7
6
CONTINUOUS
10
181.8166616654
20
289.4454643555
11
181.8166616654
21
289.8190363555
0
LINE
8
10500_FRONT_LABELING
62
7
6
CONTINUOUS
10
181.8166616654
20
314.6582663555
11
181.8166616654
21
314.9816473555
0
LINE
8
10500_FRONT_LABELING
62
7
6
CONTINUOUS
10
181.8407636654
20
300.5922153555
11
181.8407636654
21
299.3786753555
0
LINE
8
10500_FRONT_LABELING
62
7
6
CONTINUOUS
10
181.8407636654
20
304.4807863555
11
181.8407636654
21
304.8064933555
0
LINE
8
10500_FRONT_LABELING
62
7
6
CONTINUOUS
10
182.0872366654
20
299.7535553555
11
182.0872366654
21
300.2722743555
0
LINE
8
10500_FRONT_LABELING
62
7
6
CONTINUOUS
10
182.1113626654
20
246.1454913555
11
182.1113626654
21
245.7078243555
0
LINE
8
10500_FRONT_LABELING
62
7
6
CONTINUOUS
10
182.2362336654
20
320.4317993555
11
182.2362336654
21
320.0582273555
0
LINE
8
10000_FRONT
62
7
6
CONTINUOUS
10
182.2913416654
20
216.0337643555
11
182.2913416654
21
213.3337833555
0
LINE
8
10500_FRONT_LABELING
62
7
6
CONTINUOUS
10
182.2966716654
20
310.5253783555
11
182.2966716654
21
310.1944393555
0
LINE
8
10500_FRONT_LABELING
62
7
6
CONTINUOUS
10
182.2966716654
20
256.4253873555
11
182.2966716654
21
256.0943993555
0
LINE
8
10500_FRONT_LABELING
62
7
6
CONTINUOUS
10
182.3566726654
20
321.5673883555
11
182.3566726654
21
321.0935803555
0
LINE
8
10500_FRONT_LABELING
62
7
6
CONTINUOUS
10
182.3566726654
20
267.4673483555
11
182.3566726654
21
266.9935883555
0
LINE
8
10000_FRONT
62
7
6
CONTINUOUS
10
182.4413576654
20
328.8337573555
11
182.4413576654
21
326.6337463555
0
LINE
8
10500_FRONT_LABELING
62
7
6
CONTINUOUS
10
182.5366516654
20
251.2434363555
11
182.5366516654
21
250.7700633555
0
LINE
8
10500_FRONT_LABELING
62
7
6
CONTINUOUS
10
182.5366516654
20
250.3540043555
11
182.5366516654
21
249.7582553555
0
LINE
8
10500_FRONT_LABELING
62
7
6
CONTINUOUS
10
182.5607786654
20
305.4283543555
11
182.5607786654
21
304.8432643555
0
LINE
8
10500_FRONT_LABELING
62
7
6
CONTINUOUS
10
182.5607786654
20
303.8850383555
11
182.5607786654
21
304.4807863555
0
LINE
8
10500_FRONT_LABELING
62
7
6
CONTINUOUS
10
182.7166556654
20
321.5342993555
11
182.7166556654
21
320.0582273555
0
LINE
8
10500_FRONT_LABELING
62
7
6
CONTINUOUS
10
182.7166556654
20
267.4342593555
11
182.7166556654
21
265.9582353555
0
LINE
8
10500_FRONT_LABELING
62
7
6
CONTINUOUS
10
182.8372386654
20
305.9922253555
11
182.8372386654
21
304.8432643555
0
LINE
8
10500_FRONT_LABELING
62
7
6
CONTINUOUS
10
182.8372386654
20
304.4807863555
11
182.8372386654
21
303.8850383555
0
LINE
8
10500_FRONT_LABELING
62
7
6
CONTINUOUS
10
182.8613416654
20
249.7582553555
11
182.8613416654
21
250.3540043555
0
LINE
8
10500_FRONT_LABELING
62
7
6
CONTINUOUS
10
182.8613416654
20
250.7700633555
11
182.8613416654
21
251.9190243555
0
LINE
8
10500_FRONT_LABELING
62
7
6
CONTINUOUS
10
182.9572416654
20
300.2722743555
11
182.9572416654
21
300.5922153555
0
LINE
8
10500_FRONT_LABELING
62
7
6
CONTINUOUS
10
182.9813436654
20
246.5190153555
11
182.9813436654
21
246.1454913555
0
LINE
8
10500_FRONT_LABELING
62
7
6
CONTINUOUS
10
183.0172426654
20
304.8432643555
11
183.0172426654
21
304.4807863555
0
LINE
8
10500_FRONT_LABELING
62
7
6
CONTINUOUS
10
183.0413446654
20
315.0317893555
11
183.0413446654
21
314.6582663555
0
LINE
8
10500_FRONT_LABELING
62
7
6
CONTINUOUS
10
183.0413446654
20
289.8190363555
11
183.0413446654
21
289.5113513555
0
LINE
8
10500_FRONT_LABELING
62
7
6
CONTINUOUS
10
183.0413446654
20
260.9317983555
11
183.0413446654
21
260.5582263555
0
LINE
8
10500_FRONT_LABELING
62
7
6
CONTINUOUS
10
183.0413446654
20
235.7189963555
11
183.0413446654
21
235.4113603555
0
LINE
8
10500_FRONT_LABELING
62
7
6
CONTINUOUS
10
183.0413446654
20
250.3540043555
11
183.0413446654
21
250.7700633555
0
LINE
8
10500_FRONT_LABELING
62
7
6
CONTINUOUS
10
183.0413446654
20
265.9582353555
11
183.0413446654
21
268.1190043555
0
LINE
8
10500_FRONT_LABELING
62
7
6
CONTINUOUS
10
183.0413446654
20
320.0582273555
11
183.0413446654
21
322.2189963555
0
LINE
8
10000_FRONT
62
7
6
CONTINUOUS
10
183.2913536654
20
201.9087543555
11
183.2913536654
21
326.6337463555
0
LINE
8
13000_TOP
62
7
6
CONTINUOUS
10
183.2913656654
20
105.8847750292
11
183.2913656654
21
142.3347780292
0
LINE
8
13000_TOP
62
7
6
CONTINUOUS
10
185.4913526654
20
130.2847870292
11
185.4913526654
21
133.5347820292
0
LINE
8
10000_FRONT
62
7
6
CONTINUOUS
10
185.4913646654
20
200.2087613555
11
185.4913646654
21
203.6087473555
0
LINE
8
10500_FRONT_LABELING
62
7
6
CONTINUOUS
10
182.1159656654
20
217.9740043555
11
182.1139786654
21
217.6716003555
0
LINE
8
10500_FRONT_LABELING
62
7
6
CONTINUOUS
10
182.7421626654
20
217.6557093555
11
182.7449236654
21
217.9593243555
0
LINE
8
10500_FRONT_LABELING
62
7
6
CONTINUOUS
10
183.0285306654
20
217.5451063555
11
183.0330366654
21
218.0387293555
0
LINE
8
10500_FRONT_LABELING
62
7
6
CONTINUOUS
10
181.8295006654
20
218.0848983555
11
181.8247766654
21
217.5912753555
0
LINE
8
10500_FRONT_LABELING
62
7
6
CONTINUOUS
10
182.9853646654
20
310.6413113555
11
183.0026356654
21
310.9356253555
0
LINE
8
10500_FRONT_LABELING
62
7
6
CONTINUOUS
10
181.6653626654
20
272.7413483555
11
181.6826346654
21
273.0356133555
0
LINE
8
10500_FRONT_LABELING
62
7
6
CONTINUOUS
10
181.6653626654
20
261.9413293555
11
181.6826346654
21
262.2355943555
0
LINE
8
10500_FRONT_LABELING
62
7
6
CONTINUOUS
10
182.1802296654
20
267.3413393555
11
182.1975006654
21
267.6356043555
0
LINE
8
10500_FRONT_LABELING
62
7
6
CONTINUOUS
10
181.6653626654
20
256.5413203555
11
181.6826346654
21
256.8355853555
0
LINE
8
10500_FRONT_LABELING
62
7
6
CONTINUOUS
10
181.6653626654
20
251.1413103555
11
181.6826346654
21
251.4356243555
0
LINE
8
10500_FRONT_LABELING
62
7
6
CONTINUOUS
10
181.6653626654
20
245.7413493555
11
181.6826346654
21
246.0356143555
0
LINE
8
10500_FRONT_LABELING
62
7
6
CONTINUOUS
10
181.6653626654
20
240.3413403555
11
181.6826346654
21
240.6356053555
0
LINE
8
10500_FRONT_LABELING
62
7
6
CONTINUOUS
10
181.6653626654
20
234.9413303555
11
181.6826346654
21
235.2355953555
0
LINE
8
10500_FRONT_LABELING
62
7
6
CONTINUOUS
10
182.9853646654
20
256.5413203555
11
183.0026356654
21
256.8355853555
0
LINE
8
10500_FRONT_LABELING
62
7
6
CONTINUOUS
10
181.6653626654
20
229.2913363555
11
181.6826346654
21
229.5856013555
0
LINE
8
10500_FRONT_LABELING
62
7
6
CONTINUOUS
10
181.6653626654
20
223.3913573555
11
181.6826346654
21
223.6856223555
0
LINE
8
10500_FRONT_LABELING
62
7
6
CONTINUOUS
10
181.8408856654
20
294.1122333555
11
181.8669256654
21
294.5296983555
0
LINE
8
10500_FRONT_LABELING
62
7
6
CONTINUOUS
10
181.8507436654
20
240.4822713555
11
181.8167346654
21
240.0530823555
0
LINE
8
10500_FRONT_LABELING
62
7
6
CONTINUOUS
10
183.0413446654
20
277.9156443555
11
183.0063176654
21
277.4888783555
0
LINE
8
10500_FRONT_LABELING
62
7
6
CONTINUOUS
10
183.0063176654
20
222.6388843555
11
183.0413446654
21
223.0656503555
0
LINE
8
10500_FRONT_LABELING
62
7
6
CONTINUOUS
10
183.0253336654
20
283.0392663555
11
182.9929226654
21
282.6724283555
0
LINE
8
10500_FRONT_LABELING
62
7
6
CONTINUOUS
10
183.0253336654
20
228.6892413555
11
182.9929226654
21
228.3224033555
0
LINE
8
13000_TOP
62
7
6
CONTINUOUS
10
175.1172036654
20
107.3064900292
11
175.0913576654
21
107.0847500292
0
LINE
8
10500_FRONT_LABELING
62
7
6
CONTINUOUS
10
181.8561946654
20
229.3264113555
11
181.9012016654
21
229.6709163555
0
LINE
8
10500_FRONT_LABELING
62
7
6
CONTINUOUS
10
183.0347076654
20
245.1673533555
11
182.9696436654
21
244.7454803555
0
LINE
8
10500_FRONT_LABELING
62
7
6
CONTINUOUS
10
182.7433006654
20
255.8339023555
11
182.7116406654
21
255.6428763555
0
LINE
8
10500_FRONT_LABELING
62
7
6
CONTINUOUS
10
181.4233236654
20
255.8339023555
11
181.3916396654
21
255.6428763555
0
LINE
8
10500_FRONT_LABELING
62
7
6
CONTINUOUS
10
181.4233236654
20
250.4338923555
11
181.3916396654
21
250.2428673555
0
LINE
8
10500_FRONT_LABELING
62
7
6
CONTINUOUS
10
181.4233236654
20
245.0338833555
11
181.3916396654
21
244.8428583555
0
LINE
8
10500_FRONT_LABELING
62
7
6
CONTINUOUS
10
181.4233236654
20
239.6338733555
11
181.3916396654
21
239.4428483555
0
LINE
8
10500_FRONT_LABELING
62
7
6
CONTINUOUS
10
181.4233236654
20
234.2338643555
11
181.3916396654
21
234.0428873555
0
LINE
8
10500_FRONT_LABELING
62
7
6
CONTINUOUS
10
181.4233236654
20
228.5838703555
11
181.3916396654
21
228.3928933555
0
LINE
8
10500_FRONT_LABELING
62
7
6
CONTINUOUS
10
181.4233236654
20
222.6838913555
11
181.3916396654
21
222.4928653555
0
LINE
8
10500_FRONT_LABELING
62
7
6
CONTINUOUS
10
182.1265266654
20
240.2907613555
11
182.1704436654
21
240.5427813555
0
LINE
8
10500_FRONT_LABELING
62
7
6
CONTINUOUS
10
182.7338776654
20
222.8362073555
11
182.6877566654
21
222.5843333555
0
LINE
8
10500_FRONT_LABELING
62
7
6
CONTINUOUS
10
180.5790436654
20
240.7773603555
11
180.5111216654
21
240.4901683555
0
LINE
8
10500_FRONT_LABELING
62
7
6
CONTINUOUS
10
180.5790436654
20
235.3773503555
11
180.5111216654
21
235.0901583555
0
LINE
8
10500_FRONT_LABELING
62
7
6
CONTINUOUS
10
180.5790436654
20
229.7273563555
11
180.5111216654
21
229.4401643555
0
LINE
8
10500_FRONT_LABELING
62
7
6
CONTINUOUS
10
180.5790436654
20
223.8273293555
11
180.5111216654
21
223.5401853555
0
LINE
8
10500_FRONT_LABELING
62
7
6
CONTINUOUS
10
182.1854866654
20
218.2648773555
11
182.1159656654
21
217.9740043555
0
LINE
8
10500_FRONT_LABELING
62
7
6
CONTINUOUS
10
182.6726656654
20
217.3654173555
11
182.7421626654
21
217.6557093555
0
LINE
8
10500_FRONT_LABELING
62
7
6
CONTINUOUS
10
181.6547776654
20
244.6811433555
11
181.7173216654
21
244.9080673555
0
LINE
8
10500_FRONT_LABELING
62
7
6
CONTINUOUS
10
181.6547776654
20
239.2811333555
11
181.7173216654
21
239.5080573555
0
LINE
8
10500_FRONT_LABELING
62
7
6
CONTINUOUS
10
181.6547776654
20
233.8811243555
11
181.7173216654
21
234.1080963555
0
LINE
8
10500_FRONT_LABELING
62
7
6
CONTINUOUS
10
181.6547776654
20
228.2311293555
11
181.7173216654
21
228.4580543555
0
LINE
8
10500_FRONT_LABELING
62
7
6
CONTINUOUS
10
181.6547776654
20
222.3311023555
11
181.7173216654
21
222.5580753555
0
LINE
8
10500_FRONT_LABELING
62
7
6
CONTINUOUS
10
181.9735076654
20
218.5541523555
11
181.8295006654
21
218.0848983555
0
LINE
8
10500_FRONT_LABELING
62
7
6
CONTINUOUS
10
182.8844986654
20
217.0758513555
11
183.0285306654
21
217.5451063555
0
LINE
8
10500_FRONT_LABELING
62
7
6
CONTINUOUS
10
182.2161286654
20
239.9213563555
11
182.1417386654
21
239.6798013555
0
LINE
8
10500_FRONT_LABELING
62
7
6
CONTINUOUS
10
182.6680876654
20
239.4355333555
11
182.7461346654
21
239.6798493555
0
LINE
8
10500_FRONT_LABELING
62
7
6
CONTINUOUS
10
182.6384386654
20
223.2071633555
11
182.7166556654
21
223.4502203555
0
LINE
8
10500_FRONT_LABELING
62
7
6
CONTINUOUS
10
182.1906696654
20
223.6927443555
11
182.1113626654
21
223.4502203555
0
LINE
8
10500_FRONT_LABELING
62
7
6
CONTINUOUS
10
182.0848136654
20
233.5582273555
11
182.6848016654
21
235.3454723555
0
LINE
8
10500_FRONT_LABELING
62
7
6
CONTINUOUS
10
183.0413446654
20
235.4113603555
11
182.4192416654
21
233.5582273555
0
LINE
8
10500_FRONT_LABELING
62
7
6
CONTINUOUS
10
182.9289246654
20
239.2576853555
11
183.0236136654
21
239.5285993555
0
LINE
8
10500_FRONT_LABELING
62
7
6
CONTINUOUS
10
181.9285496654
20
223.8726753555
11
181.8333516654
21
223.6031173555
0
LINE
8
10500_FRONT_LABELING
62
7
6
CONTINUOUS
10
182.6850196654
20
229.3489393555
11
182.7166556654
21
229.4354653555
0
LINE
8
10500_FRONT_LABELING
62
7
6
CONTINUOUS
10
182.1729866654
20
229.5219423555
11
182.1413516654
21
229.4354653555
0
LINE
8
10500_FRONT_LABELING
62
7
6
CONTINUOUS
10
181.9990876654
20
240.8841363555
11
181.8507436654
21
240.4822713555
0
LINE
8
10500_FRONT_LABELING
62
7
6
CONTINUOUS
10
182.8555036654
20
222.2392963555
11
183.0063176654
21
222.6388843555
0
LINE
8
10500_FRONT_LABELING
62
7
6
CONTINUOUS
10
182.6441066654
20
244.8046823555
11
182.7403456654
21
245.0188163555
0
LINE
8
10500_FRONT_LABELING
62
7
6
CONTINUOUS
10
181.3880546654
20
240.4751493555
11
181.3136646654
21
240.3134833555
0
LINE
8
10500_FRONT_LABELING
62
7
6
CONTINUOUS
10
181.3880546654
20
245.8751103555
11
181.3136646654
21
245.7134923555
0
LINE
8
10500_FRONT_LABELING
62
7
6
CONTINUOUS
10
181.3880546654
20
235.0751403555
11
181.3136646654
21
234.9135223555
0
LINE
8
10500_FRONT_LABELING
62
7
6
CONTINUOUS
10
181.3880546654
20
229.4251463555
11
181.3136646654
21
229.2635283555
0
LINE
8
10500_FRONT_LABELING
62
7
6
CONTINUOUS
10
181.3880546654
20
223.5251183555
11
181.3136646654
21
223.3635003555
0
LINE
8
10500_FRONT_LABELING
62
7
6
CONTINUOUS
10
183.0012796654
20
229.3262663555
11
182.8520636654
21
229.0115573555
0
LINE
8
10500_FRONT_LABELING
62
7
6
CONTINUOUS
10
181.5325706654
20
245.4800763555
11
181.6653626654
21
245.7413493555
0
LINE
8
10500_FRONT_LABELING
62
7
6
CONTINUOUS
10
181.5325706654
20
240.0800673555
11
181.6653626654
21
240.3413403555
0
LINE
8
10500_FRONT_LABELING
62
7
6
CONTINUOUS
10
181.5325706654
20
234.6800573555
11
181.6653626654
21
234.9413303555
0
LINE
8
10500_FRONT_LABELING
62
7
6
CONTINUOUS
10
181.5325706654
20
229.0300633555
11
181.6653626654
21
229.2913363555
0
LINE
8
10500_FRONT_LABELING
62
7
6
CONTINUOUS
10
181.5325706654
20
223.1300843555
11
181.6653626654
21
223.3913573555
0
LINE
8
10500_FRONT_LABELING
62
7
6
CONTINUOUS
10
181.5325706654
20
250.8800863555
11
181.6653626654
21
251.1413103555
0
LINE
8
10500_FRONT_LABELING
62
7
6
CONTINUOUS
10
180.7928386654
20
245.8901773555
11
180.8741566654
21
246.0489373555
0
LINE
8
10500_FRONT_LABELING
62
7
6
CONTINUOUS
10
180.7928386654
20
240.4901683555
11
180.8741566654
21
240.6489283555
0
LINE
8
10500_FRONT_LABELING
62
7
6
CONTINUOUS
10
180.7928386654
20
235.0901583555
11
180.8741566654
21
235.2489183555
0
LINE
8
10500_FRONT_LABELING
62
7
6
CONTINUOUS
10
180.7928386654
20
229.4401643555
11
180.8741566654
21
229.5989243555
0
LINE
8
10500_FRONT_LABELING
62
7
6
CONTINUOUS
10
180.7928386654
20
223.5401853555
11
180.8741566654
21
223.6989453555
0
LINE
8
10500_FRONT_LABELING
62
7
6
CONTINUOUS
10
182.6409336654
20
228.3620323555
11
182.7466676654
21
228.5625053555
0
LINE
8
10500_FRONT_LABELING
62
7
6
CONTINUOUS
10
182.1704436654
20
240.5427813555
11
182.2302266654
21
240.6556623555
0
LINE
8
10500_FRONT_LABELING
62
7
6
CONTINUOUS
10
182.2177756654
20
228.7632193555
11
182.1113626654
21
228.5632313555
0
LINE
8
10500_FRONT_LABELING
62
7
6
CONTINUOUS
10
182.6877566654
20
222.5843333555
11
182.6277316654
21
222.4715973555
0
LINE
8
10500_FRONT_LABELING
62
7
6
CONTINUOUS
10
181.8306386654
20
228.6871093555
11
182.0059426654
21
229.0115573555
0
LINE
8
10500_FRONT_LABELING
62
7
6
CONTINUOUS
10
182.5712186654
20
251.9190243555
11
181.8166616654
21
250.7149313555
0
LINE
8
10500_FRONT_LABELING
62
7
6
CONTINUOUS
10
182.2380506654
20
250.7700633555
11
182.5366516654
21
251.2434363555
0
LINE
8
10500_FRONT_LABELING
62
7
6
CONTINUOUS
10
160.0864476654
20
217.1969683555
11
160.1942896654
21
217.3654173555
0
LINE
8
10500_FRONT_LABELING
62
7
6
CONTINUOUS
10
159.8150616654
20
218.4332303555
11
159.7070986654
21
218.2648773555
0
LINE
8
10500_FRONT_LABELING
62
7
6
CONTINUOUS
10
182.2934496654
20
218.4332303555
11
182.1854866654
21
218.2648773555
0
LINE
8
10500_FRONT_LABELING
62
7
6
CONTINUOUS
10
181.2843056654
20
218.8413443555
11
180.5297486654
21
217.6974703555
0
LINE
8
10500_FRONT_LABELING
62
7
6
CONTINUOUS
10
181.2497386654
20
218.1995713555
11
180.9511376654
21
217.7498903555
0
LINE
8
10500_FRONT_LABELING
62
7
6
CONTINUOUS
10
182.9929226654
20
228.3224033555
11
182.7781586654
21
228.0233423555
0
LINE
8
10500_FRONT_LABELING
62
7
6
CONTINUOUS
10
181.9012016654
20
229.6709163555
11
182.1054526654
21
229.9504533555
0
LINE
8
10500_FRONT_LABELING
62
7
6
CONTINUOUS
10
159.7204936654
20
229.2561153555
11
159.7897246654
21
229.3489393555
0
LINE
8
10500_FRONT_LABELING
62
7
6
CONTINUOUS
10
182.2422176654
20
229.6147663555
11
182.1729866654
21
229.5219423555
0
LINE
8
10500_FRONT_LABELING
62
7
6
CONTINUOUS
10
182.6157896654
20
229.2561153555
11
182.6850196654
21
229.3489393555
0
LINE
8
10500_FRONT_LABELING
62
7
6
CONTINUOUS
10
180.7575696654
20
257.2126933555
11
180.5790436654
21
256.9773403555
0
LINE
8
10500_FRONT_LABELING
62
7
6
CONTINUOUS
10
182.0775716654
20
257.2126933555
11
181.8990456654
21
256.9773403555
0
LINE
8
10500_FRONT_LABELING
62
7
6
CONTINUOUS
10
180.7575696654
20
251.8126843555
11
180.5790436654
21
251.5773303555
0
LINE
8
10500_FRONT_LABELING
62
7
6
CONTINUOUS
10
180.7575696654
20
246.4126743555
11
180.5790436654
21
246.1773213555
0
LINE
8
10500_FRONT_LABELING
62
7
6
CONTINUOUS
10
180.7575696654
20
235.6127043555
11
180.5790436654
21
235.3773503555
0
LINE
8
10500_FRONT_LABELING
62
7
6
CONTINUOUS
10
180.7575696654
20
224.0626823555
11
180.5790436654
21
223.8273293555
0
LINE
8
10500_FRONT_LABELING
62
7
6
CONTINUOUS
10
180.7575696654
20
241.0126653555
11
180.5790436654
21
240.7773603555
0
LINE
8
10500_FRONT_LABELING
62
7
6
CONTINUOUS
10
180.7575696654
20
229.9626613555
11
180.5790436654
21
229.7273563555
0
LINE
8
10500_FRONT_LABELING
62
7
6
CONTINUOUS
10
182.8802836654
20
261.6686233555
11
182.2902516654
21
260.9317983555
0
LINE
8
10500_FRONT_LABELING
62
7
6
CONTINUOUS
10
181.5066756654
20
255.2991473555
11
181.6547776654
21
255.4811133555
0
LINE
8
10500_FRONT_LABELING
62
7
6
CONTINUOUS
10
182.8266776654
20
255.2991473555
11
182.9747786654
21
255.4811133555
0
LINE
8
10500_FRONT_LABELING
62
7
6
CONTINUOUS
10
158.5106236654
20
217.5949093555
11
158.9209056654
21
218.0991413555
0
LINE
8
10500_FRONT_LABELING
62
7
6
CONTINUOUS
10
181.5066756654
20
244.4991773555
11
181.6547776654
21
244.6811433555
0
LINE
8
10500_FRONT_LABELING
62
7
6
CONTINUOUS
10
181.5066756654
20
239.0991673555
11
181.6547776654
21
239.2811333555
0
LINE
8
10500_FRONT_LABELING
62
7
6
CONTINUOUS
10
181.5066756654
20
233.6991583555
11
181.6547776654
21
233.8811243555
0
LINE
8
10500_FRONT_LABELING
62
7
6
CONTINUOUS
10
181.5066756654
20
228.0491643555
11
181.6547776654
21
228.2311293555
0
LINE
8
10500_FRONT_LABELING
62
7
6
CONTINUOUS
10
181.5066756654
20
249.8991863555
11
181.6547776654
21
250.0811043555
0
LINE
8
10500_FRONT_LABELING
62
7
6
CONTINUOUS
10
182.9696436654
20
244.7454803555
11
182.6986336654
21
244.4186593555
0
LINE
8
10500_FRONT_LABELING
62
7
6
CONTINUOUS
10
158.0948426654
20
217.0940673555
11
158.5106236654
21
217.5949093555
0
LINE
8
10500_FRONT_LABELING
62
7
6
CONTINUOUS
10
159.1604386654
20
217.8444573555
11
158.5699586654
21
217.1434833555
0
LINE
8
10500_FRONT_LABELING
62
7
6
CONTINUOUS
10
182.7388926654
20
239.0437933555
11
182.9289246654
21
239.2576853555
0
LINE
8
10500_FRONT_LABELING
62
7
6
CONTINUOUS
10
159.2335206654
20
224.0823523555
11
159.0332416654
21
223.8726753555
0
LINE
8
10000_FRONT
62
7
6
CONTINUOUS
10
178.6032196654
20
262.8099293555
11
181.0851656654
21
265.2919003555
0
LINE
8
10000_FRONT
62
7
6
CONTINUOUS
10
162.5794886654
20
244.2575733555
11
160.0975416654
21
241.7756513555
0
LINE
8
10000_FRONT
62
7
6
CONTINUOUS
10
160.6632296654
20
241.2099403555
11
163.1451756654
21
243.6918623555
0
LINE
8
10000_FRONT
62
7
6
CONTINUOUS
10
180.5194786654
20
260.4575533555
11
178.0375316654
21
257.9756313555
0
LINE
8
10000_FRONT
62
7
6
CONTINUOUS
10
178.6032196654
20
257.4099683555
11
181.0851656654
21
259.8918903555
0
LINE
8
10000_FRONT
62
7
6
CONTINUOUS
10
162.5794886654
20
238.8575643555
11
160.0975416654
21
236.3756423555
0
LINE
8
10000_FRONT
62
7
6
CONTINUOUS
10
160.6632296654
20
235.8099303555
11
163.1451756654
21
238.2919013555
0
LINE
8
10000_FRONT
62
7
6
CONTINUOUS
10
180.5194786654
20
255.0575923555
11
178.0375316654
21
252.5756223555
0
LINE
8
10000_FRONT
62
7
6
CONTINUOUS
10
178.6032196654
20
252.0099593555
11
181.0851656654
21
254.4918813555
0
LINE
8
10000_FRONT
62
7
6
CONTINUOUS
10
162.5794886654
20
233.4575553555
11
160.0975416654
21
230.9756323555
0
LINE
8
10000_FRONT
62
7
6
CONTINUOUS
10
160.6632296654
20
230.4099693555
11
163.1451756654
21
232.8918913555
0
LINE
8
10000_FRONT
62
7
6
CONTINUOUS
10
180.5194786654
20
249.6575833555
11
178.0375316654
21
247.1756123555
0
LINE
8
10000_FRONT
62
7
6
CONTINUOUS
10
178.6032196654
20
246.6099493555
11
181.0851656654
21
249.0918713555
0
LINE
8
10000_FRONT
62
7
6
CONTINUOUS
10
162.5794886654
20
227.5575763555
11
160.0975416654
21
225.0756543555
0
LINE
8
10000_FRONT
62
7
6
CONTINUOUS
10
160.6632296654
20
224.5099423555
11
163.1451756654
21
226.9918643555
0
LINE
8
10000_FRONT
62
7
6
CONTINUOUS
10
180.5194786654
20
244.2575733555
11
178.0375316654
21
241.7756513555
0
LINE
8
10000_FRONT
62
7
6
CONTINUOUS
10
178.6032196654
20
241.2099403555
11
181.0851656654
21
243.6918623555
0
LINE
8
10000_FRONT
62
7
6
CONTINUOUS
10
162.5794886654
20
221.6575483555
11
160.0975416654
21
219.1756263555
0
LINE
8
10000_FRONT
62
7
6
CONTINUOUS
10
180.5194786654
20
238.8575643555
11
178.0375316654
21
236.3756423555
0
LINE
8
10000_FRONT
62
7
6
CONTINUOUS
10
160.6632296654
20
218.6099633555
11
163.1451756654
21
221.0918853555
0
LINE
8
10000_FRONT
62
7
6
CONTINUOUS
10
178.6032196654
20
235.8099303555
11
181.0851656654
21
238.2919013555
0
LINE
8
10500_FRONT_LABELING
62
7
6
CONTINUOUS
10
181.9593126654
20
262.4869843555
11
182.1089646654
21
262.6330023555
0
LINE
8
10500_FRONT_LABELING
62
7
6
CONTINUOUS
10
159.6766616654
20
239.3494433555
11
159.7727676654
21
239.4355333555
0
LINE
8
10500_FRONT_LABELING
62
7
6
CONTINUOUS
10
159.3912506654
20
223.7780583555
11
159.2953626654
21
223.6927443555
0
LINE
8
10500_FRONT_LABELING
62
7
6
CONTINUOUS
10
159.4107376654
20
245.4064863555
11
159.2327446654
21
245.2518443555
0
LINE
8
10500_FRONT_LABELING
62
7
6
CONTINUOUS
10
182.3060456654
20
245.4064863555
11
182.1280526654
21
245.2518443555
0
LINE
8
10500_FRONT_LABELING
62
7
6
CONTINUOUS
10
182.2889196654
20
262.3193103555
11
182.1790426654
21
262.2252263555
0
LINE
8
11000_LEFT
62
7
6
CONTINUOUS
10
264.5505516654
20
325.7199960292
11
265.1464696654
21
326.2200140292
0
LINE
8
10500_FRONT_LABELING
62
7
6
CONTINUOUS
10
159.4206936654
20
240.0043933555
11
159.3208206654
21
239.9213563555
0
LINE
8
10500_FRONT_LABELING
62
7
6
CONTINUOUS
10
159.3349316654
20
240.6556623555
11
159.4353976654
21
240.7335643555
0
LINE
8
10500_FRONT_LABELING
62
7
6
CONTINUOUS
10
182.3710606654
20
273.1264503555
11
182.2452936654
21
273.0384713555
0
LINE
8
10500_FRONT_LABELING
62
7
6
CONTINUOUS
10
182.4878656654
20
271.7510503555
11
182.6176306654
21
271.8379633555
0
LINE
8
10500_FRONT_LABELING
62
7
6
CONTINUOUS
10
159.4571746654
20
241.1132893555
11
159.1037796654
21
240.8841363555
0
LINE
8
10500_FRONT_LABELING
62
7
6
CONTINUOUS
10
182.8555036654
20
277.0892903555
11
182.5011406654
21
276.8634323555
0
LINE
8
10500_FRONT_LABELING
62
7
6
CONTINUOUS
10
159.8163336654
20
255.6428763555
11
159.6523416654
21
255.5444813555
0
LINE
8
10500_FRONT_LABELING
62
7
6
CONTINUOUS
10
181.3916396654
20
261.0428863555
11
181.2276476654
21
260.9444913555
0
LINE
8
10500_FRONT_LABELING
62
7
6
CONTINUOUS
10
181.3916396654
20
271.8428563555
11
181.2276476654
21
271.7445103555
0
LINE
8
10500_FRONT_LABELING
62
7
6
CONTINUOUS
10
181.9065056654
20
266.4428473555
11
181.7425146654
21
266.3445003555
0
LINE
8
10500_FRONT_LABELING
62
7
6
CONTINUOUS
10
159.7274096654
20
255.1805983555
11
159.9313576654
21
255.2991473555
0
LINE
8
10500_FRONT_LABELING
62
7
6
CONTINUOUS
10
181.3027156654
20
271.3806273555
11
181.5066756654
21
271.4991763555
0
LINE
8
10500_FRONT_LABELING
62
7
6
CONTINUOUS
10
181.8175826654
20
265.9806173555
11
182.0215426654
21
266.0991663555
0
LINE
8
10500_FRONT_LABELING
62
7
6
CONTINUOUS
10
181.3027156654
20
260.5806083555
11
181.5066756654
21
260.6991573555
0
LINE
8
10500_FRONT_LABELING
62
7
6
CONTINUOUS
10
159.2988506654
20
256.8489073555
11
159.4501976654
21
256.9356753555
0
LINE
8
10500_FRONT_LABELING
62
7
6
CONTINUOUS
10
180.8741566654
20
262.2489173555
11
181.0255036654
21
262.3356853555
0
LINE
8
10500_FRONT_LABELING
62
7
6
CONTINUOUS
10
180.8741566654
20
273.0489363555
11
181.0255036654
21
273.1356553555
0
LINE
8
10500_FRONT_LABELING
62
7
6
CONTINUOUS
10
181.3890236654
20
267.6489263555
11
181.5403706654
21
267.7356463555
0
LINE
8
10500_FRONT_LABELING
62
7
6
CONTINUOUS
10
182.3234866654
20
273.4958563555
11
182.1006316654
21
273.3716873555
0
LINE
8
10500_FRONT_LABELING
62
7
6
CONTINUOUS
10
159.6390306654
20
271.3813543555
11
159.8619456654
21
271.5054253555
0
LINE
8
10500_FRONT_LABELING
62
7
6
CONTINUOUS
10
182.5343506654
20
271.3813543555
11
182.7572536654
21
271.5054253555
0
LINE
8
10500_FRONT_LABELING
62
7
6
CONTINUOUS
10
182.7338776654
20
277.6862013555
11
182.5667616654
21
277.5997243555
0
LINE
8
10500_FRONT_LABELING
62
7
6
CONTINUOUS
10
181.3136646654
20
272.7134913555
11
181.1323046654
21
272.6318103555
0
LINE
8
10500_FRONT_LABELING
62
7
6
CONTINUOUS
10
182.4290036654
20
284.0455033555
11
182.2422176654
21
283.9647423555
0
LINE
8
10500_FRONT_LABELING
62
7
6
CONTINUOUS
10
182.4290036654
20
283.5253803555
11
182.6157896654
21
283.6061403555
0
LINE
8
10500_FRONT_LABELING
62
7
6
CONTINUOUS
10
158.9336956654
20
283.1944403555
11
158.7224566654
21
283.1132443555
0
LINE
8
10500_FRONT_LABELING
62
7
6
CONTINUOUS
10
182.4290036654
20
283.1944403555
11
182.2177756654
21
283.1132443555
0
LINE
8
10500_FRONT_LABELING
62
7
6
CONTINUOUS
10
158.9335746654
20
282.6317813555
11
159.1456136654
21
282.7120573555
0
LINE
8
10500_FRONT_LABELING
62
7
6
CONTINUOUS
10
182.4288826654
20
282.6317813555
11
182.6409336654
21
282.7120573555
0
LINE
8
10500_FRONT_LABELING
62
7
6
CONTINUOUS
10
158.6101446654
20
284.3004783555
11
158.9341806654
21
284.4190273555
0
LINE
8
10500_FRONT_LABELING
62
7
6
CONTINUOUS
10
182.1054526654
20
284.3004783555
11
182.4294876654
21
284.4190273555
0
LINE
8
10500_FRONT_LABELING
62
7
6
CONTINUOUS
10
180.7889626654
20
289.7330433555
11
180.9873036654
21
289.8024193555
0
LINE
8
10500_FRONT_LABELING
62
7
6
CONTINUOUS
10
180.7889626654
20
284.3330343555
11
180.9873036654
21
284.4024093555
0
LINE
8
10500_FRONT_LABELING
62
7
6
CONTINUOUS
10
180.7889626654
20
278.9330243555
11
180.9873036654
21
279.0024003555
0
LINE
8
10500_FRONT_LABELING
62
7
6
CONTINUOUS
10
159.2828636654
20
282.3733183555
11
158.9349796654
21
282.2582573555
0
LINE
8
10500_FRONT_LABELING
62
7
6
CONTINUOUS
10
182.7781586654
20
282.3733183555
11
182.4302876654
21
282.2582573555
0
LINE
8
13000_TOP
62
7
6
CONTINUOUS
10
164.8913626654
20
96.6327720292
11
176.2913576654
21
96.6327720292
0
LINE
8
13000_TOP
62
7
6
CONTINUOUS
10
176.2913576654
20
96.6341770292
11
164.8913626654
21
96.6341770292
0
LINE
8
13000_TOP
62
7
6
CONTINUOUS
10
173.8413616654
20
96.8347460292
11
172.2413626654
21
96.8347460292
0
LINE
8
13000_TOP
62
7
6
CONTINUOUS
10
167.3413586654
20
96.8347460292
11
168.9413576654
21
96.8347460292
0
LINE
8
13000_TOP
62
7
6
CONTINUOUS
10
172.2412046654
20
97.4594170292
11
168.9413576654
21
97.4594170292
0
LINE
8
13000_TOP
62
7
6
CONTINUOUS
10
165.5913566654
20
97.9847720292
11
167.1163606654
21
97.9847720292
0
LINE
8
13000_TOP
62
7
6
CONTINUOUS
10
174.0663476654
20
97.9847720292
11
175.5913516654
21
97.9847720292
0
LINE
8
13000_TOP
62
7
6
CONTINUOUS
10
165.5413596654
20
99.0510830292
11
165.5913686654
21
99.0510830292
0
LINE
8
13000_TOP
62
7
6
CONTINUOUS
10
175.5913516654
20
99.0510830292
11
175.6413486654
21
99.0510830292
0
LINE
8
13000_TOP
62
7
6
CONTINUOUS
10
168.9413576654
20
99.8578650292
11
172.2413626654
21
99.8578650292
0
LINE
8
13000_TOP
62
7
6
CONTINUOUS
10
176.2913576654
20
100.5620380292
11
175.6412026654
21
100.5620380292
0
LINE
8
13000_TOP
62
7
6
CONTINUOUS
10
165.5415166654
20
100.5620380292
11
164.8913626654
21
100.5620380292
0
LINE
8
13000_TOP
62
7
6
CONTINUOUS
10
175.6413486654
20
101.9184470292
11
175.5913516654
21
101.9184470292
0
LINE
8
13000_TOP
62
7
6
CONTINUOUS
10
174.0663966654
20
101.9184470292
11
173.8413616654
21
101.9184470292
0
LINE
8
13000_TOP
62
7
6
CONTINUOUS
10
167.3413586654
20
101.9184470292
11
167.1163606654
21
101.9184470292
0
LINE
8
13000_TOP
62
7
6
CONTINUOUS
10
165.5913686654
20
101.9184470292
11
165.5413596654
21
101.9184470292
0
LINE
8
13000_TOP
62
7
6
CONTINUOUS
10
175.5913516654
20
102.9847580292
11
174.0663476654
21
102.9847580292
0
LINE
8
13000_TOP
62
7
6
CONTINUOUS
10
167.1163606654
20
102.9847580292
11
165.5913566654
21
102.9847580292
0
LINE
8
13000_TOP
62
7
6
CONTINUOUS
10
168.5913546654
20
104.7826620292
11
172.5913526654
21
104.7826620292
0
LINE
8
13000_TOP
62
7
6
CONTINUOUS
10
183.2913656654
20
105.8847750292
11
175.0911156654
21
105.8847750292
0
LINE
8
13000_TOP
62
7
6
CONTINUOUS
10
166.0915926654
20
105.8847750292
11
157.8913546654
21
105.8847750292
0
LINE
8
13000_TOP
62
7
6
CONTINUOUS
10
165.0913626654
20
108.0847860292
11
162.9913576654
21
108.0847860292
0
LINE
8
13000_TOP
62
7
6
CONTINUOUS
10
176.0913456654
20
108.0847860292
11
178.1913626654
21
108.0847860292
0
LINE
8
13000_TOP
62
7
6
CONTINUOUS
10
165.3767136654
20
108.0422500292
11
165.0913626654
21
108.0847860292
0
LINE
8
13000_TOP
62
7
6
CONTINUOUS
10
171.5913536654
20
110.9347570292
11
171.9378196654
21
110.8728420292
0
LINE
8
10500_FRONT_LABELING
62
7
6
CONTINUOUS
10
159.4719626654
20
217.1162073555
11
159.6266646654
21
216.9248433555
0
LINE
8
10500_FRONT_LABELING
62
7
6
CONTINUOUS
10
160.4292806654
20
218.5137963555
11
160.2745786654
21
218.7051613555
0
LINE
8
10500_FRONT_LABELING
62
7
6
CONTINUOUS
10
159.1865636654
20
228.0217433555
11
158.9705156654
21
228.3200293555
0
LINE
8
10500_FRONT_LABELING
62
7
6
CONTINUOUS
10
159.0384986654
20
222.3628353555
11
159.2037256654
21
222.1313573555
0
LINE
8
10500_FRONT_LABELING
62
7
6
CONTINUOUS
10
159.3838746654
20
222.4219403555
11
159.2475336654
21
222.6370913555
0
LINE
8
10500_FRONT_LABELING
62
7
6
CONTINUOUS
10
160.1196946654
20
239.9090023555
11
159.9329446654
21
240.2381483555
0
LINE
8
10500_FRONT_LABELING
62
7
6
CONTINUOUS
10
158.9580526654
20
223.2219883555
11
159.1389886654
21
222.8878033555
0
LINE
8
10500_FRONT_LABELING
62
7
6
CONTINUOUS
10
159.9567566654
20
229.0115573555
11
160.1300256654
21
228.6892413555
0
LINE
8
10500_FRONT_LABELING
62
7
6
CONTINUOUS
10
159.8513486654
20
228.5625053555
11
159.7444146654
21
228.7630253555
0
LINE
8
10500_FRONT_LABELING
62
7
6
CONTINUOUS
10
159.2160426654
20
228.5632313555
11
159.3224926654
21
228.3630983555
0
LINE
8
10500_FRONT_LABELING
62
7
6
CONTINUOUS
10
160.1997526654
20
218.2499073555
11
160.1325936654
21
218.3878843555
0
LINE
8
10500_FRONT_LABELING
62
7
6
CONTINUOUS
10
159.7017086654
20
217.3799023555
11
159.7688196654
21
217.2418293555
0
LINE
8
10500_FRONT_LABELING
62
7
6
CONTINUOUS
10
159.1106356654
20
229.0115573555
11
158.9608986654
21
229.3264113555
0
LINE
8
10500_FRONT_LABELING
62
7
6
CONTINUOUS
10
159.2756326654
20
255.6083823555
11
159.1930676654
21
255.7871023555
0
LINE
8
10500_FRONT_LABELING
62
7
6
CONTINUOUS
10
160.1073286654
20
256.8355853555
11
159.9900756654
21
257.1068863555
0
LINE
8
10500_FRONT_LABELING
62
7
6
CONTINUOUS
10
159.2460436654
20
229.4354653555
11
159.2914986654
21
229.3271873555
0
LINE
8
10500_FRONT_LABELING
62
7
6
CONTINUOUS
10
159.8213476654
20
229.4354653555
11
159.7759046654
21
229.5437433555
0
LINE
8
10500_FRONT_LABELING
62
7
6
CONTINUOUS
10
159.2230556654
20
245.0296683555
11
159.3142086654
21
244.8111733555
0
LINE
8
10500_FRONT_LABELING
62
7
6
CONTINUOUS
10
159.0473886654
20
244.6295953555
11
158.8876716654
21
245.0296683555
0
LINE
8
10500_FRONT_LABELING
62
7
6
CONTINUOUS
10
159.9882586654
20
245.5686853555
11
160.1393996654
21
245.1673533555
0
LINE
8
10500_FRONT_LABELING
62
7
6
CONTINUOUS
10
159.7811976654
20
256.0189683555
11
159.8480056654
21
255.8339023555
0
LINE
8
10500_FRONT_LABELING
62
7
6
CONTINUOUS
10
181.3565156654
20
222.8689573555
11
181.4233236654
21
222.6838913555
0
LINE
8
10500_FRONT_LABELING
62
7
6
CONTINUOUS
10
181.3565156654
20
228.7689843555
11
181.4233236654
21
228.5838703555
0
LINE
8
10500_FRONT_LABELING
62
7
6
CONTINUOUS
10
181.6960296654
20
228.7713583555
11
181.6425446654
21
228.9209133555
0
LINE
8
10500_FRONT_LABELING
62
7
6
CONTINUOUS
10
181.6960296654
20
222.8713313555
11
181.6425446654
21
223.0209343555
0
LINE
8
10500_FRONT_LABELING
62
7
6
CONTINUOUS
10
160.1207116654
20
256.0213423555
11
160.0672506654
21
256.1709453555
0
LINE
8
10500_FRONT_LABELING
62
7
6
CONTINUOUS
10
159.9916986654
20
262.5406633555
11
160.1452986654
21
262.1041583555
0
LINE
8
10500_FRONT_LABELING
62
7
6
CONTINUOUS
10
158.9501916654
20
239.6234573555
11
159.0875866654
21
239.2173773555
0
LINE
8
10500_FRONT_LABELING
62
7
6
CONTINUOUS
10
158.6160436654
20
278.2002203555
11
158.6953626654
21
277.9576963555
0
LINE
8
10500_FRONT_LABELING
62
7
6
CONTINUOUS
10
182.1113626654
20
223.4502203555
11
182.1906696654
21
223.2076963555
0
LINE
8
10500_FRONT_LABELING
62
7
6
CONTINUOUS
10
159.2213476654
20
278.2002203555
11
159.1421616654
21
278.4427933555
0
LINE
8
10500_FRONT_LABELING
62
7
6
CONTINUOUS
10
182.7166556654
20
223.4502203555
11
182.6374696654
21
223.6927923555
0
LINE
8
10500_FRONT_LABELING
62
7
6
CONTINUOUS
10
159.5183256654
20
278.2424663555
11
159.3863206654
21
278.6496113555
0
LINE
8
10500_FRONT_LABELING
62
7
6
CONTINUOUS
10
183.0136336654
20
223.4924653555
11
182.8816406654
21
223.8996113555
0
LINE
8
10500_FRONT_LABELING
62
7
6
CONTINUOUS
10
158.6224146654
20
293.6797983555
11
158.7059966654
21
293.4166363555
0
LINE
8
10500_FRONT_LABELING
62
7
6
CONTINUOUS
10
159.2750146654
20
293.6797983555
11
159.1943146654
21
293.9399083555
0
LINE
8
10500_FRONT_LABELING
62
7
6
CONTINUOUS
10
159.3947146654
20
294.7829293555
11
159.4761406654
21
294.5169563555
0
LINE
8
10500_FRONT_LABELING
62
7
6
CONTINUOUS
10
183.0026606654
20
240.4901683555
11
182.9235466654
21
240.7663623555
0
LINE
8
10500_FRONT_LABELING
62
7
6
CONTINUOUS
10
158.3600396654
20
277.3870913555
11
158.4384986654
21
277.1128353555
0
LINE
8
10500_FRONT_LABELING
62
7
6
CONTINUOUS
10
181.8553466654
20
222.6370913555
11
181.9338056654
21
222.3628353555
0
LINE
8
10500_FRONT_LABELING
62
7
6
CONTINUOUS
10
160.1341796654
20
272.7143633555
11
159.9963856654
21
273.2040623555
0
LINE
8
10500_FRONT_LABELING
62
7
6
CONTINUOUS
10
158.9333686654
20
272.1631373555
11
159.0709216654
21
271.6733413555
0
LINE
8
10000_FRONT
62
7
6
CONTINUOUS
10
173.8742686654
20
211.1337723555
11
174.3565796654
21
209.3337853555
0
LINE
8
10500_FRONT_LABELING
62
7
6
CONTINUOUS
10
181.8247766654
20
217.5912753555
11
181.9503506654
21
217.1162073555
0
LINE
8
10500_FRONT_LABELING
62
7
6
CONTINUOUS
10
183.0330366654
20
218.0387293555
11
182.9076566654
21
218.5137963555
0
LINE
8
10500_FRONT_LABELING
62
7
6
CONTINUOUS
10
158.2850316654
20
309.8769683555
11
158.3431676654
21
309.6479133555
0
LINE
8
10500_FRONT_LABELING
62
7
6
CONTINUOUS
10
180.4753436654
20
222.6370913555
11
180.5334796654
21
222.4080843555
0
LINE
8
10500_FRONT_LABELING
62
7
6
CONTINUOUS
10
180.4753436654
20
228.5371193555
11
180.5334796654
21
228.3080633555
0
LINE
8
10500_FRONT_LABELING
62
7
6
CONTINUOUS
10
180.4753436654
20
234.1871133555
11
180.5334796654
21
233.9580573555
0
LINE
8
10500_FRONT_LABELING
62
7
6
CONTINUOUS
10
180.4753436654
20
239.5871223555
11
180.5334796654
21
239.3580663555
0
LINE
8
10500_FRONT_LABELING
62
7
6
CONTINUOUS
10
180.4753436654
20
244.9870833555
11
180.5334796654
21
244.7580763555
0
LINE
8
10500_FRONT_LABELING
62
7
6
CONTINUOUS
10
180.4753436654
20
250.3870933555
11
180.5334796654
21
250.1580853555
0
LINE
8
10500_FRONT_LABELING
62
7
6
CONTINUOUS
10
180.4753436654
20
255.7871023555
11
180.5334796654
21
255.5580463555
0
LINE
8
10500_FRONT_LABELING
62
7
6
CONTINUOUS
10
182.7449236654
20
217.9593243555
11
182.6781406654
21
218.2499073555
0
LINE
8
10500_FRONT_LABELING
62
7
6
CONTINUOUS
10
159.1594576654
20
310.9318463555
11
159.1977426654
21
310.7649953555
0
LINE
8
10500_FRONT_LABELING
62
7
6
CONTINUOUS
10
181.3497576654
20
223.6919693555
11
181.3880546654
21
223.5251183555
0
LINE
8
10500_FRONT_LABELING
62
7
6
CONTINUOUS
10
181.3497576654
20
229.5919963555
11
181.3880546654
21
229.4251463555
0
LINE
8
10500_FRONT_LABELING
62
7
6
CONTINUOUS
10
181.3497576654
20
235.2419903555
11
181.3880546654
21
235.0751403555
0
LINE
8
10500_FRONT_LABELING
62
7
6
CONTINUOUS
10
181.3497576654
20
240.6420003555
11
181.3880546654
21
240.4751493555
0
LINE
8
10500_FRONT_LABELING
62
7
6
CONTINUOUS
10
181.3497576654
20
246.0420093555
11
181.3880546654
21
245.8751103555
0
LINE
8
10500_FRONT_LABELING
62
7
6
CONTINUOUS
10
181.3497576654
20
251.4419703555
11
181.3880546654
21
251.2751203555
0
LINE
8
10500_FRONT_LABELING
62
7
6
CONTINUOUS
10
181.3497576654
20
256.8419803555
11
181.3880546654
21
256.6751293555
0
LINE
8
10500_FRONT_LABELING
62
7
6
CONTINUOUS
10
181.3497576654
20
262.2419893555
11
181.3880546654
21
262.0751393555
0
LINE
8
10500_FRONT_LABELING
62
7
6
CONTINUOUS
10
182.6697586654
20
256.8419803555
11
182.7080556654
21
256.6751293555
0
LINE
8
10500_FRONT_LABELING
62
7
6
CONTINUOUS
10
182.1139786654
20
217.6716003555
11
182.1800846654
21
217.3799023555
0
LINE
8
10500_FRONT_LABELING
62
7
6
CONTINUOUS
10
159.2196886654
20
272.2754373555
11
159.2882286654
21
271.9719673555
0
LINE
8
10500_FRONT_LABELING
62
7
6
CONTINUOUS
10
159.8473396654
20
272.6019673555
11
159.7799626654
21
272.9053403555
0
LINE
8
10000_FRONT
62
7
6
CONTINUOUS
10
167.2305366654
20
322.9848893555
11
167.1163476654
21
323.5572863555
0
LINE
8
10500_FRONT_LABELING
62
7
6
CONTINUOUS
10
182.7403456654
20
245.0188163555
11
182.7057066654
21
245.2497613555
0
LINE
8
10500_FRONT_LABELING
62
7
6
CONTINUOUS
10
166.6148886654
20
312.9375332263
11
166.6203396654
21
312.8910242263
0
LINE
8
10500_FRONT_LABELING
62
7
6
CONTINUOUS
10
174.7314236654
20
312.9375332263
11
174.7368736654
21
312.8910242263
0
LINE
8
10500_FRONT_LABELING
62
7
6
CONTINUOUS
10
182.9611166654
20
229.6714973555
11
183.0012796654
21
229.3262663555
0
LINE
8
10500_FRONT_LABELING
62
7
6
CONTINUOUS
10
182.9611166654
20
284.0215223555
11
183.0012796654
21
283.6762913555
0
LINE
8
13000_TOP
62
7
6
CONTINUOUS
10
168.6655386654
20
110.3127500292
11
168.5986586654
21
110.0553530292
0
LINE
8
13000_TOP
62
7
6
CONTINUOUS
10
180.0413466654
20
139.1347790292
11
179.6913676654
21
138.0347500292
0
LINE
8
10500_FRONT_LABELING
62
7
6
CONTINUOUS
10
182.5648236654
20
217.1969683555
11
182.6726656654
21
217.3654173555
0
LINE
8
10500_FRONT_LABELING
62
7
6
CONTINUOUS
10
181.5066756654
20
222.1491853555
11
181.6547776654
21
222.3311023555
0
LINE
8
10500_FRONT_LABELING
62
7
6
CONTINUOUS
10
182.1288276654
20
224.0823523555
11
181.9285496654
21
223.8726753555
0
LINE
8
10000_FRONT
62
7
6
CONTINUOUS
10
180.5194786654
20
233.4575553555
11
178.0375316654
21
230.9756323555
0
LINE
8
10000_FRONT
62
7
6
CONTINUOUS
10
178.6032196654
20
230.4099693555
11
181.0851656654
21
232.8918913555
0
LINE
8
10000_FRONT
62
7
6
CONTINUOUS
10
180.5194786654
20
227.5575763555
11
178.0375316654
21
225.0756543555
0
LINE
8
10000_FRONT
62
7
6
CONTINUOUS
10
178.6032196654
20
224.5099423555
11
181.0851656654
21
226.9918643555
0
LINE
8
10000_FRONT
62
7
6
CONTINUOUS
10
180.5194786654
20
221.6575483555
11
178.0375316654
21
219.1756263555
0
LINE
8
10000_FRONT
62
7
6
CONTINUOUS
10
178.6032196654
20
218.6099633555
11
181.0851656654
21
221.0918853555
0
LINE
8
10000_FRONT
62
7
6
CONTINUOUS
10
175.3413546654
20
210.3337733555
11
176.1934106654
21
211.1337723555
0
LINE
8
10500_FRONT_LABELING
62
7
6
CONTINUOUS
10
159.7345196654
20
218.7769103555
11
159.4951196654
21
218.5541523555
0
LINE
8
10500_FRONT_LABELING
62
7
6
CONTINUOUS
10
160.1667236654
20
216.8530453555
11
160.4061226654
21
217.0758513555
0
LINE
8
10500_FRONT_LABELING
62
7
6
CONTINUOUS
10
182.2129066654
20
218.7769103555
11
181.9735076654
21
218.5541523555
0
LINE
8
10500_FRONT_LABELING
62
7
6
CONTINUOUS
10
182.6450996654
20
216.8530453555
11
182.8844986654
21
217.0758513555
0
LINE
8
10500_FRONT_LABELING
62
7
6
CONTINUOUS
10
158.2422776654
20
218.6251273555
11
158.3923046654
21
218.7617953555
0
LINE
8
10500_FRONT_LABELING
62
7
6
CONTINUOUS
10
182.5719696654
20
239.3494433555
11
182.6680876654
21
239.4355333555
0
LINE
8
10500_FRONT_LABELING
62
7
6
CONTINUOUS
10
182.2865456654
20
223.7780583555
11
182.1906696654
21
223.6927443555
0
LINE
8
10500_FRONT_LABELING
62
7
6
CONTINUOUS
10
159.6463946654
20
223.1226243555
11
159.7431306654
21
223.2071633555
0
LINE
8
10500_FRONT_LABELING
62
7
6
CONTINUOUS
10
182.5416906654
20
223.1226243555
11
182.6384386654
21
223.2071633555
0
LINE
8
11000_LEFT
62
7
6
CONTINUOUS
10
306.2483206654
20
328.4727350292
11
306.9073656654
21
329.0257050292
0
LINE
8
10500_FRONT_LABELING
62
7
6
CONTINUOUS
10
182.3160016654
20
240.0043933555
11
182.2161286654
21
239.9213563555
0
LINE
8
10500_FRONT_LABELING
62
7
6
CONTINUOUS
10
158.5697766654
20
218.4615713555
11
158.4594276654
21
218.3734953555
0
LINE
8
10500_FRONT_LABELING
62
7
6
CONTINUOUS
10
159.7324236654
20
222.4715973555
11
159.6320186654
21
222.3936473555
0
LINE
8
10500_FRONT_LABELING
62
7
6
CONTINUOUS
10
182.2302266654
20
240.6556623555
11
182.3307046654
21
240.7335643555
0
LINE
8
10500_FRONT_LABELING
62
7
6
CONTINUOUS
10
182.3524816654
20
241.1132893555
11
181.9990876654
21
240.8841363555
0
LINE
8
10500_FRONT_LABELING
62
7
6
CONTINUOUS
10
159.6058326654
20
222.0134373555
11
159.9602076654
21
222.2392963555
0
LINE
8
10500_FRONT_LABELING
62
7
6
CONTINUOUS
10
181.3916396654
20
255.6428763555
11
181.2276476654
21
255.5444813555
0
LINE
8
10500_FRONT_LABELING
62
7
6
CONTINUOUS
10
182.7116406654
20
255.6428763555
11
182.5476496654
21
255.5444813555
0
LINE
8
10500_FRONT_LABELING
62
7
6
CONTINUOUS
10
181.3916396654
20
250.2428673555
11
181.2276476654
21
250.1444723555
0
LINE
8
10500_FRONT_LABELING
62
7
6
CONTINUOUS
10
181.3916396654
20
244.8428583555
11
181.2276476654
21
244.7445113555
0
LINE
8
10500_FRONT_LABELING
62
7
6
CONTINUOUS
10
181.3916396654
20
239.4428483555
11
181.2276476654
21
239.3445013555
0
LINE
8
10500_FRONT_LABELING
62
7
6
CONTINUOUS
10
181.3027156654
20
255.1805983555
11
181.5066756654
21
255.2991473555
0
LINE
8
10500_FRONT_LABELING
62
7
6
CONTINUOUS
10
182.6227176654
20
255.1805983555
11
182.8266776654
21
255.2991473555
0
LINE
8
10500_FRONT_LABELING
62
7
6
CONTINUOUS
10
181.3027156654
20
249.7806373555
11
181.5066756654
21
249.8991863555
0
LINE
8
10500_FRONT_LABELING
62
7
6
CONTINUOUS
10
181.3027156654
20
244.3806283555
11
181.5066756654
21
244.4991773555
0
LINE
8
10500_FRONT_LABELING
62
7
6
CONTINUOUS
10
181.3027156654
20
238.9806193555
11
181.5066756654
21
239.0991673555
0
LINE
8
10500_FRONT_LABELING
62
7
6
CONTINUOUS
10
180.8741566654
20
256.8489073555
11
181.0255036654
21
256.9356753555
0
LINE
8
10500_FRONT_LABELING
62
7
6
CONTINUOUS
10
182.1941586654
20
256.8489073555
11
182.3455056654
21
256.9356753555
0
LINE
8
10500_FRONT_LABELING
62
7
6
CONTINUOUS
10
180.8741566654
20
251.4489463555
11
181.0255036654
21
251.5356663555
0
LINE
8
10500_FRONT_LABELING
62
7
6
CONTINUOUS
10
180.8741566654
20
246.0489373555
11
181.0255036654
21
246.1356563555
0
LINE
8
10500_FRONT_LABELING
62
7
6
CONTINUOUS
10
180.8741566654
20
240.6489283555
11
181.0255036654
21
240.7356473555
0
LINE
8
10500_FRONT_LABELING
62
7
6
CONTINUOUS
10
159.4000076654
20
240.3766093555
11
159.2312066654
21
240.2907613555
0
LINE
8
10500_FRONT_LABELING
62
7
6
CONTINUOUS
10
181.8285316654
20
267.3135303555
11
181.6471716654
21
267.2318493555
0
LINE
8
10500_FRONT_LABELING
62
7
6
CONTINUOUS
10
159.7383586654
20
256.5135113555
11
159.5569986654
21
256.4318303555
0
LINE
8
10500_FRONT_LABELING
62
7
6
CONTINUOUS
10
181.3136646654
20
261.9135213555
11
181.1323046654
21
261.8318403555
0
LINE
8
10500_FRONT_LABELING
62
7
6
CONTINUOUS
10
181.3136646654
20
256.5135113555
11
181.1323046654
21
256.4318303555
0
LINE
8
10500_FRONT_LABELING
62
7
6
CONTINUOUS
10
182.6336666654
20
256.5135113555
11
182.4523066654
21
256.4318303555
0
LINE
8
10500_FRONT_LABELING
62
7
6
CONTINUOUS
10
181.3136646654
20
251.1135023555
11
181.1323046654
21
251.0318213555
0
LINE
8
10500_FRONT_LABELING
62
7
6
CONTINUOUS
10
181.0361616654
20
273.5116013555
11
180.7575696654
21
273.4126733555
0
LINE
8
10500_FRONT_LABELING
62
7
6
CONTINUOUS
10
181.5510286654
20
268.1115923555
11
181.2724366654
21
268.0126643555
0
LINE
8
10500_FRONT_LABELING
62
7
6
CONTINUOUS
10
159.4608566654
20
257.3116213555
11
159.1822516654
21
257.2126933555
0
LINE
8
10500_FRONT_LABELING
62
7
6
CONTINUOUS
10
181.0361616654
20
257.3116213555
11
180.7575696654
21
257.2126933555
0
LINE
8
10500_FRONT_LABELING
62
7
6
CONTINUOUS
10
182.3561636654
20
257.3116213555
11
182.0775716654
21
257.2126933555
0
LINE
8
10500_FRONT_LABELING
62
7
6
CONTINUOUS
10
181.0361616654
20
262.7115823555
11
180.7575696654
21
262.6127033555
0
LINE
8
10500_FRONT_LABELING
62
7
6
CONTINUOUS
10
159.2136696654
20
262.6330023555
11
159.4119976654
21
262.7023783555
0
LINE
8
10500_FRONT_LABELING
62
7
6
CONTINUOUS
10
182.1089646654
20
262.6330023555
11
182.3073056654
21
262.7023783555
0
LINE
8
13000_TOP
62
7
6
CONTINUOUS
10
176.0913456654
20
108.0847860292
11
175.7656146654
21
108.0293140292
0
LINE
8
13000_TOP
62
7
6
CONTINUOUS
10
169.5913546654
20
110.9347570292
11
171.5913536654
21
110.9347570292
0
LINE
8
13000_TOP
62
7
6
CONTINUOUS
10
179.3913616654
20
118.2347470292
11
178.2913566654
21
118.2347470292
0
LINE
8
13000_TOP
62
7
6
CONTINUOUS
10
162.8913516654
20
118.2347470292
11
161.7913586654
21
118.2347470292
0
LINE
8
13000_TOP
62
7
6
CONTINUOUS
10
168.9413576654
20
120.4847550292
11
164.2413536654
21
120.4847550292
0
LINE
8
13000_TOP
62
7
6
CONTINUOUS
10
172.2413626654
20
120.4847550292
11
176.9413656654
21
120.4847550292
0
LINE
8
13000_TOP
62
7
6
CONTINUOUS
10
172.2413626654
20
122.0847550292
11
168.9413576654
21
122.0847550292
0
LINE
8
13000_TOP
62
7
6
CONTINUOUS
10
179.3213566654
20
123.7347510292
11
178.1913626654
21
123.7347510292
0
LINE
8
13000_TOP
62
7
6
CONTINUOUS
10
161.8613516654
20
123.7347510292
11
162.9913576654
21
123.7347510292
0
LINE
8
13000_TOP
62
7
6
CONTINUOUS
10
168.9413576654
20
127.4348640292
11
172.2413626654
21
127.4348640292
0
LINE
8
10500_FRONT_LABELING
62
7
6
CONTINUOUS
10
159.2953626654
20
223.2076963555
11
159.3914446654
21
223.1225273555
0
LINE
8
10500_FRONT_LABELING
62
7
6
CONTINUOUS
10
159.7421616654
20
223.6927923555
11
159.6461526654
21
223.7780583555
0
LINE
8
10000_FRONT
62
7
6
CONTINUOUS
10
164.9892976654
20
211.1337723555
11
165.8413536654
21
210.3337733555
0
LINE
8
10500_FRONT_LABELING
62
7
6
CONTINUOUS
10
159.0875866654
20
239.2173773555
11
159.2331326654
21
239.0584723555
0
LINE
8
10500_FRONT_LABELING
62
7
6
CONTINUOUS
10
159.1898936654
20
244.4685593555
11
159.0473886654
21
244.6295953555
0
LINE
8
10500_FRONT_LABELING
62
7
6
CONTINUOUS
10
158.9928376654
20
218.2998563555
11
158.8549336654
21
218.4587613555
0
LINE
8
10500_FRONT_LABELING
62
7
6
CONTINUOUS
10
181.9503506654
20
217.1162073555
11
182.1050406654
21
216.9248433555
0
LINE
8
10500_FRONT_LABELING
62
7
6
CONTINUOUS
10
182.9076566654
20
218.5137963555
11
182.7529656654
21
218.7051613555
0
LINE
8
10500_FRONT_LABELING
62
7
6
CONTINUOUS
10
159.7759046654
20
229.5437433555
11
159.7204936654
21
229.6147663555
0
LINE
8
10500_FRONT_LABELING
62
7
6
CONTINUOUS
10
159.2914986654
20
229.3271873555
11
159.3469096654
21
229.2561153555
0
LINE
8
10500_FRONT_LABELING
62
7
6
CONTINUOUS
10
159.8580336654
20
229.9499203555
11
160.0657976654
21
229.6714973555
0
LINE
8
10500_FRONT_LABELING
62
7
6
CONTINUOUS
10
160.0282516654
20
240.7663623555
11
159.8606866654
21
240.9977433555
0
LINE
8
10500_FRONT_LABELING
62
7
6
CONTINUOUS
10
182.0818586654
20
228.0217433555
11
181.8658356654
21
228.3200293555
0
LINE
8
10500_FRONT_LABELING
62
7
6
CONTINUOUS
10
181.9338056654
20
222.3628353555
11
182.0990336654
21
222.1313573555
0
LINE
8
10500_FRONT_LABELING
62
7
6
CONTINUOUS
10
182.5787766654
20
240.7052713555
11
182.7151776654
21
240.4901683555
0
LINE
8
10500_FRONT_LABELING
62
7
6
CONTINUOUS
10
159.6834686654
20
240.7052713555
11
159.8198576654
21
240.4901683555
0
LINE
8
10500_FRONT_LABELING
62
7
6
CONTINUOUS
10
182.2791816654
20
222.4219403555
11
182.1428536654
21
222.6370913555
0
LINE
8
10500_FRONT_LABELING
62
7
6
CONTINUOUS
10
158.7838746654
20
277.1719403555
11
158.6475336654
21
277.3870913555
0
LINE
8
10500_FRONT_LABELING
62
7
6
CONTINUOUS
10
159.7799626654
20
272.9053403555
11
159.6748206654
21
273.0855613555
0
LINE
8
10500_FRONT_LABELING
62
7
6
CONTINUOUS
10
159.2882286654
20
271.9719673555
11
159.3931156654
21
271.7917453555
0
LINE
8
10500_FRONT_LABELING
62
7
6
CONTINUOUS
10
183.0149896654
20
239.9090023555
11
182.8282526654
21
240.2381483555
0
LINE
8
10500_FRONT_LABELING
62
7
6
CONTINUOUS
10
180.5334796654
20
228.3080633555
11
180.6491456654
21
228.1038603555
0
LINE
8
10500_FRONT_LABELING
62
7
6
CONTINUOUS
10
180.5334796654
20
233.9580573555
11
180.6491456654
21
233.7538543555
0
LINE
8
10500_FRONT_LABELING
62
7
6
CONTINUOUS
10
180.5334796654
20
239.3580663555
11
180.6491456654
21
239.1538643555
0
LINE
8
10500_FRONT_LABELING
62
7
6
CONTINUOUS
10
158.9581736654
20
255.5580463555
11
159.0738276654
21
255.3538443555
0
LINE
8
10500_FRONT_LABELING
62
7
6
CONTINUOUS
10
180.5334796654
20
222.4080843555
11
180.6491456654
21
222.2038333555
0
LINE
8
10500_FRONT_LABELING
62
7
6
CONTINUOUS
10
180.5334796654
20
244.7580763555
11
180.6491456654
21
244.5538253555
0
LINE
8
10500_FRONT_LABELING
62
7
6
CONTINUOUS
10
180.5334796654
20
250.1580853555
11
180.6491456654
21
249.9538343555
0
LINE
8
10500_FRONT_LABELING
62
7
6
CONTINUOUS
10
181.8533606654
20
223.2219883555
11
182.0343086654
21
222.8878033555
0
LINE
8
10500_FRONT_LABELING
62
7
6
CONTINUOUS
10
158.3580526654
20
277.9719883555
11
158.5389886654
21
277.6378033555
0
LINE
8
10500_FRONT_LABELING
62
7
6
CONTINUOUS
10
182.8520636654
20
229.0115573555
11
183.0253336654
21
228.6892413555
0
LINE
8
10500_FRONT_LABELING
62
7
6
CONTINUOUS
10
159.3567566654
20
283.3615813555
11
159.5300256654
21
283.0392663555
0
LINE
8
10500_FRONT_LABELING
62
7
6
CONTINUOUS
10
182.7466676654
20
228.5625053555
11
182.6397216654
21
228.7630253555
0
LINE
8
10500_FRONT_LABELING
62
7
6
CONTINUOUS
10
159.2513486654
20
282.9125293555
11
159.1444146654
21
283.1130503555
0
LINE
8
10500_FRONT_LABELING
62
7
6
CONTINUOUS
10
158.6160436654
20
282.9132563555
11
158.7224926654
21
282.7131233555
0
LINE
8
10500_FRONT_LABELING
62
7
6
CONTINUOUS
10
182.1113626654
20
228.5632313555
11
182.2177996654
21
228.3630983555
0
LINE
8
10500_FRONT_LABELING
62
7
6
CONTINUOUS
10
159.2344766654
20
294.5169563555
11
159.1694496654
21
294.6445173555
0
LINE
8
10500_FRONT_LABELING
62
7
6
CONTINUOUS
10
182.6781406654
20
218.2499073555
11
182.6109936654
21
218.3878843555
0
LINE
8
10500_FRONT_LABELING
62
7
6
CONTINUOUS
10
182.1800846654
20
217.3799023555
11
182.2472076654
21
217.2418293555
0
LINE
8
10500_FRONT_LABELING
62
7
6
CONTINUOUS
10
182.0059426654
20
229.0115573555
11
181.8561946654
21
229.3264113555
0
LINE
8
10500_FRONT_LABELING
62
7
6
CONTINUOUS
10
158.5106356654
20
283.3615813555
11
158.3608986654
21
283.6764363555
0
LINE
8
10500_FRONT_LABELING
62
7
6
CONTINUOUS
10
180.8509266654
20
222.4583713555
11
180.7683726654
21
222.6370913555
0
LINE
8
10500_FRONT_LABELING
62
7
6
CONTINUOUS
10
180.8509266654
20
244.8083633555
11
180.7683726654
21
244.9870833555
0
LINE
8
10500_FRONT_LABELING
62
7
6
CONTINUOUS
10
180.8509266654
20
250.2083733555
11
180.7683726654
21
250.3870933555
0
LINE
8
10500_FRONT_LABELING
62
7
6
CONTINUOUS
10
180.8509266654
20
255.6083823555
11
180.7683726654
21
255.7871023555
0
LINE
8
10500_FRONT_LABELING
62
7
6
CONTINUOUS
10
182.1709276654
20
255.6083823555
11
182.0883746654
21
255.7871023555
0
LINE
8
10500_FRONT_LABELING
62
7
6
CONTINUOUS
10
158.6606266654
20
309.6982003555
11
158.5780616654
21
309.8769683555
0
LINE
8
10500_FRONT_LABELING
62
7
6
CONTINUOUS
10
181.3658176654
20
266.4083533555
11
181.2832396654
21
266.5871213555
0
LINE
8
10500_FRONT_LABELING
62
7
6
CONTINUOUS
10
180.8509266654
20
228.3583503555
11
180.7683726654
21
228.5371193555
0
LINE
8
10500_FRONT_LABELING
62
7
6
CONTINUOUS
10
180.8509266654
20
234.0083453555
11
180.7683726654
21
234.1871133555
0
LINE
8
10500_FRONT_LABELING
62
7
6
CONTINUOUS
10
180.8509266654
20
239.4083543555
11
180.7683726654
21
239.5871223555
0
LINE
8
10500_FRONT_LABELING
62
7
6
CONTINUOUS
10
180.8509266654
20
261.0083433555
11
180.7683726654
21
261.1871123555
0
LINE
8
10500_FRONT_LABELING
62
7
6
CONTINUOUS
10
158.7400306654
20
298.7773073555
11
158.6366086654
21
299.0028743555
0
LINE
8
10500_FRONT_LABELING
62
7
6
CONTINUOUS
10
159.5385406654
20
299.2050423555
11
159.3737616654
21
299.5848643555
0
LINE
8
10500_FRONT_LABELING
62
7
6
CONTINUOUS
10
181.6826346654
20
223.6856223555
11
181.5653936654
21
223.9568753555
0
LINE
8
10500_FRONT_LABELING
62
7
6
CONTINUOUS
10
181.6826346654
20
229.5856013555
11
181.5653936654
21
229.8568543555
0
LINE
8
10500_FRONT_LABELING
62
7
6
CONTINUOUS
10
181.6826346654
20
235.2355953555
11
181.5653936654
21
235.5068483555
0
LINE
8
10500_FRONT_LABELING
62
7
6
CONTINUOUS
10
181.6826346654
20
240.6356053555
11
181.5653936654
21
240.9068583555
0
LINE
8
10500_FRONT_LABELING
62
7
6
CONTINUOUS
10
181.6826346654
20
246.0356143555
11
181.5653936654
21
246.3068673555
0
LINE
8
10500_FRONT_LABELING
62
7
6
CONTINUOUS
10
181.6826346654
20
251.4356243555
11
181.5653936654
21
251.7068763555
0
LINE
8
10500_FRONT_LABELING
62
7
6
CONTINUOUS
10
181.6826346654
20
256.8355853555
11
181.5653936654
21
257.1068863555
0
LINE
8
10500_FRONT_LABELING
62
7
6
CONTINUOUS
10
159.4923346654
20
310.9254513555
11
159.3750816654
21
311.1967043555
0
LINE
8
10500_FRONT_LABELING
62
7
6
CONTINUOUS
10
183.0026356654
20
256.8355853555
11
182.8853946654
21
257.1068863555
0
LINE
8
10500_FRONT_LABELING
62
7
6
CONTINUOUS
10
181.6826346654
20
262.2355943555
11
181.5653936654
21
262.5068473555
0
LINE
8
10500_FRONT_LABELING
62
7
6
CONTINUOUS
10
182.1975006654
20
267.6356043555
11
182.0802596654
21
267.9068563555
0
LINE
8
10500_FRONT_LABELING
62
7
6
CONTINUOUS
10
181.6826346654
20
273.0356133555
11
181.5653936654
21
273.3068663555
0
LINE
8
10500_FRONT_LABELING
62
7
6
CONTINUOUS
10
158.3530146654
20
299.0028743555
11
158.5156016654
21
298.6203403555
0
LINE
8
10500_FRONT_LABELING
62
7
6
CONTINUOUS
10
158.6460436654
20
283.7854413555
11
158.6914986654
21
283.6771633555
0
LINE
8
10500_FRONT_LABELING
62
7
6
CONTINUOUS
10
159.2213476654
20
283.7854413555
11
159.1759046654
21
283.8937193555
0
LINE
8
10500_FRONT_LABELING
62
7
6
CONTINUOUS
10
182.1413516654
20
229.4354653555
11
182.1867946654
21
229.3271873555
0
LINE
8
10500_FRONT_LABELING
62
7
6
CONTINUOUS
10
182.7166556654
20
229.4354653555
11
182.6712126654
21
229.5437433555
0
LINE
8
10500_FRONT_LABELING
62
7
6
CONTINUOUS
10
182.1183636654
20
245.0296683555
11
182.2095156654
21
244.8111733555
0
LINE
8
10500_FRONT_LABELING
62
7
6
CONTINUOUS
10
181.9426956654
20
244.6295953555
11
181.7829676654
21
245.0296683555
0
LINE
8
10500_FRONT_LABELING
62
7
6
CONTINUOUS
10
182.8835786654
20
245.5686853555
11
183.0347076654
21
245.1673533555
0
LINE
8
10500_FRONT_LABELING
62
7
6
CONTINUOUS
10
158.5255446654
20
293.2057963555
11
158.3799506654
21
293.5954533555
0
LINE
8
10000_FRONT
62
7
6
CONTINUOUS
10
168.5758036654
20
306.6734333555
11
168.3679436654
21
307.2429723555
0
LINE
8
10000_FRONT
62
7
6
CONTINUOUS
10
172.6069046654
20
308.4185793555
11
172.8147646654
21
307.8490403555
0
LINE
8
10500_FRONT_LABELING
62
7
6
CONTINUOUS
10
181.3565156654
20
250.6189583555
11
181.4233236654
21
250.4338923555
0
LINE
8
10500_FRONT_LABELING
62
7
6
CONTINUOUS
10
181.3565156654
20
256.0189683555
11
181.4233236654
21
255.8339023555
0
LINE
8
10500_FRONT_LABELING
62
7
6
CONTINUOUS
10
181.3565156654
20
234.4189783555
11
181.4233236654
21
234.2338643555
0
LINE
8
10500_FRONT_LABELING
62
7
6
CONTINUOUS
10
181.3565156654
20
239.8189883555
11
181.4233236654
21
239.6338733555
0
LINE
8
10500_FRONT_LABELING
62
7
6
CONTINUOUS
10
181.3565156654
20
245.2189973555
11
181.4233236654
21
245.0338833555
0
LINE
8
10500_FRONT_LABELING
62
7
6
CONTINUOUS
10
159.1662036654
20
310.1088343555
11
159.2329996654
21
309.9237193555
0
LINE
8
10500_FRONT_LABELING
62
7
6
CONTINUOUS
10
182.6765176654
20
256.0189683555
11
182.7433006654
21
255.8339023555
0
LINE
8
10500_FRONT_LABELING
62
7
6
CONTINUOUS
10
181.3565156654
20
261.4189773555
11
181.4233236654
21
261.2338633555
0
LINE
8
10500_FRONT_LABELING
62
7
6
CONTINUOUS
10
181.8713826654
20
266.8189873555
11
181.9381906654
21
266.6338723555
0
LINE
8
10500_FRONT_LABELING
62
7
6
CONTINUOUS
10
181.3565156654
20
272.2189963555
11
181.4233236654
21
272.0338823555
0
LINE
8
10500_FRONT_LABELING
62
7
6
CONTINUOUS
10
181.6960296654
20
234.4213523555
11
181.6425446654
21
234.5709073555
0
LINE
8
10500_FRONT_LABELING
62
7
6
CONTINUOUS
10
181.6960296654
20
239.8213623555
11
181.6425446654
21
239.9709173555
0
LINE
8
10500_FRONT_LABELING
62
7
6
CONTINUOUS
10
181.6960296654
20
245.2213713555
11
181.6425446654
21
245.3709263555
0
LINE
8
10500_FRONT_LABELING
62
7
6
CONTINUOUS
10
181.6960296654
20
261.4213513555
11
181.6425446654
21
261.5709063555
0
LINE
8
10500_FRONT_LABELING
62
7
6
CONTINUOUS
10
181.6960296654
20
272.2213703555
11
181.6425446654
21
272.3709253555
0
LINE
8
10500_FRONT_LABELING
62
7
6
CONTINUOUS
10
159.5057176654
20
310.1112083555
11
159.4522446654
21
310.2607633555
0
LINE
8
10500_FRONT_LABELING
62
7
6
CONTINUOUS
10
181.6960296654
20
250.6213323555
11
181.6425446654
21
250.7709363555
0
LINE
8
10500_FRONT_LABELING
62
7
6
CONTINUOUS
10
181.6960296654
20
256.0213423555
11
181.6425446654
21
256.1709453555
0
LINE
8
10500_FRONT_LABELING
62
7
6
CONTINUOUS
10
183.0160316654
20
256.0213423555
11
182.9625466654
21
256.1709453555
0
LINE
8
10500_FRONT_LABELING
62
7
6
CONTINUOUS
10
182.2108966654
20
266.8213613555
11
182.1574356654
21
266.9709153555
0
LINE
8
10500_FRONT_LABELING
62
7
6
CONTINUOUS
10
159.3916986654
20
316.5406603555
11
159.5452986654
21
316.1041563555
0
LINE
8
10500_FRONT_LABELING
62
7
6
CONTINUOUS
10
182.8870176654
20
262.5406633555
11
183.0405936654
21
262.1041583555
0
LINE
8
10500_FRONT_LABELING
62
7
6
CONTINUOUS
10
181.5670166654
20
278.8406363555
11
181.7206166654
21
278.4041323555
0
LINE
8
10500_FRONT_LABELING
62
7
6
CONTINUOUS
10
181.5670166654
20
284.2406463555
11
181.7206166654
21
283.8041423555
0
LINE
8
10500_FRONT_LABELING
62
7
6
CONTINUOUS
10
181.5670166654
20
289.6406553555
11
181.7206166654
21
289.2041513555
0
LINE
8
10500_FRONT_LABELING
62
7
6
CONTINUOUS
10
181.8455116654
20
239.6234573555
11
181.9828826654
21
239.2173773555
0
LINE
8
10500_FRONT_LABELING
62
7
6
CONTINUOUS
10
182.1113626654
20
278.3002143555
11
182.1906696654
21
278.0576903555
0
LINE
8
10500_FRONT_LABELING
62
7
6
CONTINUOUS
10
182.7166556654
20
278.3002143555
11
182.6374696654
21
278.5427863555
0
LINE
8
10500_FRONT_LABELING
62
7
6
CONTINUOUS
10
182.8816406654
20
278.7496543555
11
183.0136336654
21
278.3424603555
0
LINE
8
10500_FRONT_LABELING
62
7
6
CONTINUOUS
10
182.1417386654
20
239.6798013555
11
182.2194956654
21
239.4353873555
0
LINE
8
10500_FRONT_LABELING
62
7
6
CONTINUOUS
10
182.1177096654
20
293.7797923555
11
182.2013036654
21
293.5166303555
0
LINE
8
10500_FRONT_LABELING
62
7
6
CONTINUOUS
10
182.7703346654
20
293.7797923555
11
182.6896216654
21
294.0399513555
0
LINE
8
10500_FRONT_LABELING
62
7
6
CONTINUOUS
10
182.7461346654
20
239.6798493555
11
182.6720846654
21
239.9215013555
0
LINE
8
10500_FRONT_LABELING
62
7
6
CONTINUOUS
10
182.8900216654
20
294.8829713555
11
182.9714366654
21
294.6169503555
0
LINE
8
10500_FRONT_LABELING
62
7
6
CONTINUOUS
10
181.9338056654
20
277.2128293555
11
181.8553466654
21
277.4870853555
0
LINE
8
10500_FRONT_LABELING
62
7
6
CONTINUOUS
10
183.0294996654
20
272.7143633555
11
182.8916926654
21
273.2040623555
0
LINE
8
10500_FRONT_LABELING
62
7
6
CONTINUOUS
10
181.8286766654
20
272.1631373555
11
181.9662166654
21
271.6733413555
0
LINE
8
10500_FRONT_LABELING
62
7
6
CONTINUOUS
10
181.7953456654
20
255.7871023555
11
181.8534816654
21
255.5580463555
0
LINE
8
10500_FRONT_LABELING
62
7
6
CONTINUOUS
10
180.4753436654
20
261.1871123555
11
180.5334796654
21
260.9580563555
0
LINE
8
10500_FRONT_LABELING
62
7
6
CONTINUOUS
10
180.9902106654
20
266.5871213555
11
181.0483466654
21
266.3580653555
0
LINE
8
10500_FRONT_LABELING
62
7
6
CONTINUOUS
10
180.4753436654
20
271.9870823555
11
180.5334796654
21
271.7580753555
0
LINE
8
10500_FRONT_LABELING
62
7
6
CONTINUOUS
10
181.7953456654
20
309.8870943555
11
181.8534816654
21
309.6580863555
0
LINE
8
10500_FRONT_LABELING
62
7
6
CONTINUOUS
10
181.8646486654
20
267.6419983555
11
181.9029206654
21
267.4751483555
0
LINE
8
10500_FRONT_LABELING
62
7
6
CONTINUOUS
10
181.3497576654
20
273.0420083555
11
181.3880546654
21
272.8751093555
0
LINE
8
10500_FRONT_LABELING
62
7
6
CONTINUOUS
10
182.6697586654
20
310.9419713555
11
182.7080556654
21
310.7751213555
0
LINE
8
10500_FRONT_LABELING
62
7
6
CONTINUOUS
10
182.1149966654
20
272.2754373555
11
182.1835486654
21
271.9719673555
0
LINE
8
10500_FRONT_LABELING
62
7
6
CONTINUOUS
10
182.7426466654
20
272.6019673555
11
182.6752576654
21
272.9053403555
0
LINE
8
10500_FRONT_LABELING
62
7
6
CONTINUOUS
10
182.7276766654
20
299.3606533555
11
182.7646906654
21
299.1174023555
0
LINE
8
13000_TOP
62
7
6
CONTINUOUS
10
175.2372796654
20
107.6020630292
11
175.1172036654
21
107.3064900292
0
LINE
8
13000_TOP
62
7
6
CONTINUOUS
10
168.7770386654
20
110.5151610292
11
168.6655386654
21
110.3127500292
0
LINE
8
13000_TOP
62
7
6
CONTINUOUS
10
180.3300396654
20
139.6347490292
11
180.0413466654
21
139.1347790292
0
LINE
8
10500_FRONT_LABELING
62
7
6
CONTINUOUS
10
182.6277316654
20
222.4715973555
11
182.5273256654
21
222.3936473555
0
LINE
8
10500_FRONT_LABELING
62
7
6
CONTINUOUS
10
182.5011406654
20
222.0134373555
11
182.8555036654
21
222.2392963555
0
LINE
8
10500_FRONT_LABELING
62
7
6
CONTINUOUS
10
181.3916396654
20
234.0428873555
11
181.2276476654
21
233.9444923555
0
LINE
8
10500_FRONT_LABELING
62
7
6
CONTINUOUS
10
181.3916396654
20
228.3928933555
11
181.2276476654
21
228.2944983555
0
LINE
8
10500_FRONT_LABELING
62
7
6
CONTINUOUS
10
181.3916396654
20
222.4928653555
11
181.2276476654
21
222.3944703555
0
LINE
8
10500_FRONT_LABELING
62
7
6
CONTINUOUS
10
181.3027156654
20
233.5806093555
11
181.5066756654
21
233.6991583555
0
LINE
8
10500_FRONT_LABELING
62
7
6
CONTINUOUS
10
181.3027156654
20
227.9306153555
11
181.5066756654
21
228.0491643555
0
LINE
8
10500_FRONT_LABELING
62
7
6
CONTINUOUS
10
181.3027156654
20
222.0306363555
11
181.5066756654
21
222.1491853555
0
LINE
8
10000_FRONT
62
7
6
CONTINUOUS
10
162.8913636654
20
216.9337573555
11
164.0913636654
21
217.6261083555
0
LINE
8
10500_FRONT_LABELING
62
7
6
CONTINUOUS
10
180.8741566654
20
235.2489183555
11
181.0255036654
21
235.3356383555
0
LINE
8
10500_FRONT_LABELING
62
7
6
CONTINUOUS
10
180.8741566654
20
229.5989243555
11
181.0255036654
21
229.6856433555
0
LINE
8
10500_FRONT_LABELING
62
7
6
CONTINUOUS
10
180.8741566654
20
223.6989453555
11
181.0255036654
21
223.7856643555
0
LINE
8
10500_FRONT_LABELING
62
7
6
CONTINUOUS
10
159.6714536654
20
222.7497303555
11
159.8385826654
21
222.8362073555
0
LINE
8
10500_FRONT_LABELING
62
7
6
CONTINUOUS
10
182.5667616654
20
222.7497303555
11
182.7338776654
21
222.8362073555
0
LINE
8
10500_FRONT_LABELING
62
7
6
CONTINUOUS
10
182.2953146654
20
240.3766093555
11
182.1265266654
21
240.2907613555
0
LINE
8
10500_FRONT_LABELING
62
7
6
CONTINUOUS
10
181.3136646654
20
245.7134923555
11
181.1323046654
21
245.6318113555
0
LINE
8
10500_FRONT_LABELING
62
7
6
CONTINUOUS
10
181.3136646654
20
240.3134833555
11
181.1323046654
21
240.2318023555
0
LINE
8
10500_FRONT_LABELING
62
7
6
CONTINUOUS
10
181.3136646654
20
234.9135223555
11
181.1323046654
21
234.8318413555
0
LINE
8
10500_FRONT_LABELING
62
7
6
CONTINUOUS
10
181.3136646654
20
229.2635283555
11
181.1323046654
21
229.1818473555
0
LINE
8
10500_FRONT_LABELING
62
7
6
CONTINUOUS
10
181.3136646654
20
223.3635003555
11
181.1323046654
21
223.2818193555
0
LINE
8
10500_FRONT_LABELING
62
7
6
CONTINUOUS
10
159.5336956654
20
229.6954783555
11
159.3469096654
21
229.6147663555
0
LINE
8
10500_FRONT_LABELING
62
7
6
CONTINUOUS
10
159.5336956654
20
229.1754033555
11
159.7204936654
21
229.2561153555
0
LINE
8
10500_FRONT_LABELING
62
7
6
CONTINUOUS
10
182.4290036654
20
229.6954783555
11
182.2422176654
21
229.6147663555
0
LINE
8
10500_FRONT_LABELING
62
7
6
CONTINUOUS
10
182.4290036654
20
229.1754033555
11
182.6157896654
21
229.2561153555
0
LINE
8
10500_FRONT_LABELING
62
7
6
CONTINUOUS
10
159.6440446654
20
238.9652123555
11
159.8435966654
21
239.0437933555
0
LINE
8
10500_FRONT_LABELING
62
7
6
CONTINUOUS
10
182.5393646654
20
238.9652123555
11
182.7388926654
21
239.0437933555
0
LINE
8
10500_FRONT_LABELING
62
7
6
CONTINUOUS
10
159.5336956654
20
228.8444163555
11
159.3224566654
21
228.7632193555
0
LINE
8
10500_FRONT_LABELING
62
7
6
CONTINUOUS
10
159.5335746654
20
228.2818053555
11
159.7456136654
21
228.3620323555
0
LINE
8
10500_FRONT_LABELING
62
7
6
CONTINUOUS
10
159.2101446654
20
229.9504533555
11
159.5341806654
21
230.0690023555
0
LINE
8
10500_FRONT_LABELING
62
7
6
CONTINUOUS
10
181.0361616654
20
251.9116123555
11
180.7575696654
21
251.8126843555
0
LINE
8
10500_FRONT_LABELING
62
7
6
CONTINUOUS
10
181.0361616654
20
246.5116033555
11
180.7575696654
21
246.4126743555
0
LINE
8
10500_FRONT_LABELING
62
7
6
CONTINUOUS
10
181.0361616654
20
241.1115933555
11
180.7575696654
21
241.0126653555
0
LINE
8
10500_FRONT_LABELING
62
7
6
CONTINUOUS
10
181.0361616654
20
235.7115843555
11
180.7575696654
21
235.6127043555
0
LINE
8
10500_FRONT_LABELING
62
7
6
CONTINUOUS
10
159.5296626654
20
244.7308973555
11
159.7487986654
21
244.8046823555
0
LINE
8
10500_FRONT_LABELING
62
7
6
CONTINUOUS
10
182.4249826654
20
244.7308973555
11
182.6441066654
21
244.8046823555
0
LINE
8
10500_FRONT_LABELING
62
7
6
CONTINUOUS
10
159.8828626654
20
228.0233423555
11
159.5349796654
21
227.9082333555
0
LINE
8
13000_TOP
62
7
6
CONTINUOUS
10
169.2449006654
20
110.8728420292
11
169.5913546654
21
110.9347570292
0
LINE
8
13000_TOP
62
7
6
CONTINUOUS
10
180.3300396654
20
139.6347490292
11
180.5913616654
21
139.6347970292
0
LINE
8
13000_TOP
62
7
6
CONTINUOUS
10
185.4913526654
20
130.2847870292
11
183.2913656654
21
130.2848350292
0
LINE
8
13000_TOP
62
7
6
CONTINUOUS
10
155.6913556654
20
130.2847870292
11
157.8913546654
21
130.2848350292
0
LINE
8
13000_TOP
62
7
6
CONTINUOUS
10
185.4913526654
20
133.5347820292
11
183.2913656654
21
133.5347820292
0
LINE
8
13000_TOP
62
7
6
CONTINUOUS
10
155.6913556654
20
133.5347820292
11
157.8913546654
21
133.5347820292
0
LINE
8
13000_TOP
62
7
6
CONTINUOUS
10
161.8613516654
20
135.9347810292
11
165.9913566654
21
135.9347810292
0
LINE
8
13000_TOP
62
7
6
CONTINUOUS
10
175.1913516654
20
135.9347810292
11
179.3213566654
21
135.9347810292
0
LINE
8
13000_TOP
62
7
6
CONTINUOUS
10
179.6913676654
20
136.7347810292
11
175.3413666654
21
136.7347810292
0
LINE
8
13000_TOP
62
7
6
CONTINUOUS
10
161.4913526654
20
136.7347810292
11
165.8413536654
21
136.7347810292
0
LINE
8
13000_TOP
62
7
6
CONTINUOUS
10
168.9413696654
20
139.6347490292
11
172.2413376654
21
139.6347490292
0
LINE
8
13000_TOP
62
7
6
CONTINUOUS
10
164.4663526654
20
140.1347670292
11
168.9413576654
21
140.1347670292
0
LINE
8
13000_TOP
62
7
6
CONTINUOUS
10
172.2413626654
20
140.1347670292
11
176.7163556654
21
140.1347670292
0
LINE
8
13000_TOP
62
7
6
CONTINUOUS
10
183.2913656654
20
142.3347780292
11
180.5913616654
21
142.3347780292
0
LINE
8
13000_TOP
62
7
6
CONTINUOUS
10
160.5913586654
20
142.3347780292
11
157.8913546654
21
142.3347780292
0
LINE
8
13000_TOP
62
7
6
CONTINUOUS
10
160.8526806654
20
139.6347490292
11
160.5913586654
21
139.6347970292
0
LINE
8
10500_FRONT_LABELING
62
7
6
CONTINUOUS
10
159.7688196654
20
217.2418293555
11
159.8930126654
21
217.1614563555
0
LINE
8
10500_FRONT_LABELING
62
7
6
CONTINUOUS
10
160.1325936654
20
218.3878843555
11
160.0085576654
21
218.4684503555
0
LINE
8
10500_FRONT_LABELING
62
7
6
CONTINUOUS
10
159.9863206654
20
223.8996113555
11
159.6496766654
21
224.1567663555
0
LINE
8
10500_FRONT_LABELING
62
7
6
CONTINUOUS
10
159.7767766654
20
239.9215013555
11
159.6766736654
21
240.0042963555
0
LINE
8
10500_FRONT_LABELING
62
7
6
CONTINUOUS
10
182.1906696654
20
223.2076963555
11
182.2867636654
21
223.1225273555
0
LINE
8
10500_FRONT_LABELING
62
7
6
CONTINUOUS
10
182.6374696654
20
223.6927923555
11
182.5414476654
21
223.7780583555
0
LINE
8
10500_FRONT_LABELING
62
7
6
CONTINUOUS
10
159.3241886654
20
239.4353873555
11
159.4205246654
21
239.3495403555
0
LINE
8
10500_FRONT_LABELING
62
7
6
CONTINUOUS
10
159.8103986654
20
245.2497613555
11
159.6462126654
21
245.4094903555
0
LINE
8
10500_FRONT_LABELING
62
7
6
CONTINUOUS
10
160.0672506654
20
256.1709453555
11
159.9572526654
21
256.2800473555
0
LINE
8
10500_FRONT_LABELING
62
7
6
CONTINUOUS
10
181.6425446654
20
223.0209343555
11
181.5325706654
21
223.1300843555
0
LINE
8
10500_FRONT_LABELING
62
7
6
CONTINUOUS
10
181.6425446654
20
228.9209133555
11
181.5325706654
21
229.0300633555
0
LINE
8
10500_FRONT_LABELING
62
7
6
CONTINUOUS
10
181.6425446654
20
234.5709073555
11
181.5325706654
21
234.6800573555
0
LINE
8
10500_FRONT_LABELING
62
7
6
CONTINUOUS
10
181.6425446654
20
239.9709173555
11
181.5325706654
21
240.0800673555
0
LINE
8
10500_FRONT_LABELING
62
7
6
CONTINUOUS
10
181.9828826654
20
239.2173773555
11
182.1284406654
21
239.0584723555
0
LINE
8
10500_FRONT_LABELING
62
7
6
CONTINUOUS
10
182.0852016654
20
244.4685593555
11
181.9426956654
21
244.6295953555
0
LINE
8
10500_FRONT_LABELING
62
7
6
CONTINUOUS
10
159.8193246654
20
262.1431583555
11
159.6858786654
21
262.3140783555
0
LINE
8
10500_FRONT_LABELING
62
7
6
CONTINUOUS
10
182.6712126654
20
229.5437433555
11
182.6157896654
21
229.6147663555
0
LINE
8
10500_FRONT_LABELING
62
7
6
CONTINUOUS
10
158.6914986654
20
283.6771633555
11
158.7469096654
21
283.6061403555
0
LINE
8
10500_FRONT_LABELING
62
7
6
CONTINUOUS
10
159.1759046654
20
283.8937193555
11
159.1204946654
21
283.9647423555
0
LINE
8
10500_FRONT_LABELING
62
7
6
CONTINUOUS
10
182.1867946654
20
229.3271873555
11
182.2422176654
21
229.2561153555
0
LINE
8
10500_FRONT_LABELING
62
7
6
CONTINUOUS
10
182.7533296654
20
229.9498713555
11
182.9611166654
21
229.6714973555
0
LINE
8
10500_FRONT_LABELING
62
7
6
CONTINUOUS
10
159.2580346654
20
284.2998963555
11
159.4657976654
21
284.0215223555
0
LINE
8
10500_FRONT_LABELING
62
7
6
CONTINUOUS
10
182.9235466654
20
240.7663623555
11
182.7559936654
21
240.9977433555
0
LINE
8
10500_FRONT_LABELING
62
7
6
CONTINUOUS
10
158.5865636654
20
282.3717683555
11
158.3705156654
21
282.6700543555
0
LINE
8
10500_FRONT_LABELING
62
7
6
CONTINUOUS
10
158.4384986654
20
277.1128353555
11
158.6037256654
21
276.8813573555
0
LINE
8
10500_FRONT_LABELING
62
7
6
CONTINUOUS
10
159.2749176654
20
294.2539403555
11
159.4824876654
21
293.9509543555
0
LINE
8
10500_FRONT_LABELING
62
7
6
CONTINUOUS
10
182.1428536654
20
277.4870853555
11
182.2791816654
21
277.2719343555
0
LINE
8
10500_FRONT_LABELING
62
7
6
CONTINUOUS
10
182.6752576654
20
272.9053403555
11
182.5701286654
21
273.0855613555
0
LINE
8
10500_FRONT_LABELING
62
7
6
CONTINUOUS
10
182.1835486654
20
271.9719673555
11
182.2884106654
21
271.7917453555
0
LINE
8
10500_FRONT_LABELING
62
7
6
CONTINUOUS
10
180.5334796654
20
255.5580463555
11
180.6491456654
21
255.3538443555
0
LINE
8
10500_FRONT_LABELING
62
7
6
CONTINUOUS
10
181.8534816654
20
255.5580463555
11
181.9691476654
21
255.3538443555
0
LINE
8
10500_FRONT_LABELING
62
7
6
CONTINUOUS
10
180.5334796654
20
260.9580563555
11
180.6491456654
21
260.7538533555
0
LINE
8
10500_FRONT_LABELING
62
7
6
CONTINUOUS
10
181.0483466654
20
266.3580653555
11
181.1640126654
21
266.1538633555
0
LINE
8
10500_FRONT_LABELING
62
7
6
CONTINUOUS
10
158.3431676654
20
309.6479133555
11
158.4588336654
21
309.4437103555
0
LINE
8
10500_FRONT_LABELING
62
7
6
CONTINUOUS
10
180.5334796654
20
271.7580753555
11
180.6491456654
21
271.5538243555
0
LINE
8
10500_FRONT_LABELING
62
7
6
CONTINUOUS
10
182.0343086654
20
277.7377973555
11
181.8533606654
21
278.0719823555
0
LINE
8
10500_FRONT_LABELING
62
7
6
CONTINUOUS
10
182.8520636654
20
283.3615333555
11
183.0253336654
21
283.0392663555
0
LINE
8
10500_FRONT_LABELING
62
7
6
CONTINUOUS
10
167.0694276654
20
313.0162102263
11
166.9375796654
21
313.2629492263
0
LINE
8
10500_FRONT_LABELING
62
7
6
CONTINUOUS
10
182.7466676654
20
282.9125293555
11
182.6397216654
21
283.1130503555
0
LINE
8
10500_FRONT_LABELING
62
7
6
CONTINUOUS
10
182.1113626654
20
282.9132563555
11
182.2177996654
21
282.7131233555
0
LINE
8
10500_FRONT_LABELING
62
7
6
CONTINUOUS
10
172.9284566654
20
313.3373142263
11
173.3653486654
21
312.4989452263
0
LINE
8
10500_FRONT_LABELING
62
7
6
CONTINUOUS
10
173.5163816654
20
313.1561242263
11
173.0923886654
21
313.9802982263
0
LINE
8
10500_FRONT_LABELING
62
7
6
CONTINUOUS
10
182.7297846654
20
294.6169503555
11
182.6647446654
21
294.7445103555
0
LINE
8
10500_FRONT_LABELING
62
7
6
CONTINUOUS
10
182.0059426654
20
283.3615813555
11
181.8561946654
21
283.6764363555
0
LINE
8
10500_FRONT_LABELING
62
7
6
CONTINUOUS
10
180.8509266654
20
271.8083623555
11
180.7683726654
21
271.9870823555
0
LINE
8
10500_FRONT_LABELING
62
7
6
CONTINUOUS
10
182.1709276654
20
309.7083743555
11
182.0883746654
21
309.8870943555
0
LINE
8
10500_FRONT_LABELING
62
7
6
CONTINUOUS
10
181.5850136654
20
294.9771033555
11
181.6813016654
21
294.7672323555
0
LINE
8
10500_FRONT_LABELING
62
7
6
CONTINUOUS
10
181.5850136654
20
300.3771123555
11
181.6813016654
21
300.1672413555
0
LINE
8
10500_FRONT_LABELING
62
7
6
CONTINUOUS
10
181.5850136654
20
305.7771223555
11
181.6813016654
21
305.5672023555
0
LINE
8
10500_FRONT_LABELING
62
7
6
CONTINUOUS
10
182.2053246654
20
298.8773013555
11
182.1019156654
21
299.1028683555
0
LINE
8
10500_FRONT_LABELING
62
7
6
CONTINUOUS
10
183.0038466654
20
299.3050363555
11
182.8390796654
21
299.6848583555
0
LINE
8
10500_FRONT_LABELING
62
7
6
CONTINUOUS
10
183.0026356654
20
310.9356253555
11
182.8853946654
21
311.2068773555
0
LINE
8
10500_FRONT_LABELING
62
7
6
CONTINUOUS
10
181.8183086654
20
299.1028683555
11
181.9808956654
21
298.7203343555
0
LINE
8
10500_FRONT_LABELING
62
7
6
CONTINUOUS
10
182.1413516654
20
283.7854413555
11
182.1867946654
21
283.6771633555
0
LINE
8
10500_FRONT_LABELING
62
7
6
CONTINUOUS
10
182.7166556654
20
283.7854413555
11
182.6712126654
21
283.8937193555
0
LINE
8
10500_FRONT_LABELING
62
7
6
CONTINUOUS
10
169.5914026654
20
313.3401242263
11
169.9349626654
21
312.4847502263
0
LINE
8
10500_FRONT_LABELING
62
7
6
CONTINUOUS
10
170.1402916654
20
313.1480822263
11
169.8116656654
21
313.9802982263
0
LINE
8
10500_FRONT_LABELING
62
7
6
CONTINUOUS
10
182.0208646654
20
293.3057903555
11
181.8752576654
21
293.6954473555
0
LINE
8
10500_FRONT_LABELING
62
7
6
CONTINUOUS
10
182.6765176654
20
310.1189593555
11
182.7433006654
21
309.9338933555
0
LINE
8
10500_FRONT_LABELING
62
7
6
CONTINUOUS
10
183.0160316654
20
310.1213333555
11
182.9625466654
21
310.2709373555
0
LINE
8
10500_FRONT_LABELING
62
7
6
CONTINUOUS
10
181.5670166654
20
311.2406453555
11
181.7206166654
21
310.8041403555
0
LINE
8
10500_FRONT_LABELING
62
7
6
CONTINUOUS
10
181.5670166654
20
316.6406543555
11
181.7206166654
21
316.2041503555
0
LINE
8
10500_FRONT_LABELING
62
7
6
CONTINUOUS
10
182.8870176654
20
316.6406543555
11
183.0405936654
21
316.2041503555
0
LINE
8
10500_FRONT_LABELING
62
7
6
CONTINUOUS
10
182.0818826654
20
322.0406643555
11
182.2354836654
21
321.6041593555
0
LINE
8
13000_TOP
62
7
6
CONTINUOUS
10
175.0913576654
20
105.5847450292
11
173.8413616654
21
103.4197120292
0
LINE
8
10500_FRONT_LABELING
62
7
6
CONTINUOUS
10
182.4290036654
20
228.8444163555
11
182.2177756654
21
228.7632193555
0
LINE
8
10500_FRONT_LABELING
62
7
6
CONTINUOUS
10
182.4288826654
20
228.2818053555
11
182.6409336654
21
228.3620323555
0
LINE
8
10500_FRONT_LABELING
62
7
6
CONTINUOUS
10
182.1054526654
20
229.9504533555
11
182.4294876654
21
230.0690023555
0
LINE
8
10500_FRONT_LABELING
62
7
6
CONTINUOUS
10
181.0361616654
20
230.0615893555
11
180.7575696654
21
229.9626613555
0
LINE
8
10500_FRONT_LABELING
62
7
6
CONTINUOUS
10
181.0361616654
20
224.1616103555
11
180.7575696654
21
224.0626823555
0
LINE
8
10500_FRONT_LABELING
62
7
6
CONTINUOUS
10
182.7781586654
20
228.0233423555
11
182.4302876654
21
227.9082333555
0
LINE
8
10500_FRONT_LABELING
62
7
6
CONTINUOUS
10
158.3923046654
20
218.7617953555
11
158.5863456654
21
218.8254053555
0
LINE
8
10500_FRONT_LABELING
62
7
6
CONTINUOUS
10
159.1389886654
20
222.8878033555
11
159.4792536654
21
222.7324833555
0
LINE
8
10500_FRONT_LABELING
62
7
6
CONTINUOUS
10
159.6266646654
20
216.9248433555
11
159.8450986654
21
216.8106063555
0
LINE
8
10500_FRONT_LABELING
62
7
6
CONTINUOUS
10
160.2745786654
20
218.7051613555
11
160.0561326654
21
218.8193983555
0
LINE
8
10500_FRONT_LABELING
62
7
6
CONTINUOUS
10
182.1050406654
20
216.9248433555
11
182.3234866654
21
216.8106063555
0
LINE
8
10500_FRONT_LABELING
62
7
6
CONTINUOUS
10
182.7529656654
20
218.7051613555
11
182.5345196654
21
218.8193983555
0
LINE
8
10500_FRONT_LABELING
62
7
6
CONTINUOUS
10
158.8895366654
20
218.8229353555
11
159.1567326654
21
218.6824393555
0
LINE
8
10000_FRONT
62
7
6
CONTINUOUS
10
177.0913446654
20
217.6261083555
11
178.2913436654
21
216.9337573555
0
LINE
8
10500_FRONT_LABELING
62
7
6
CONTINUOUS
10
181.2015106654
20
229.6835603555
11
181.3497576654
21
229.5919963555
0
LINE
8
10500_FRONT_LABELING
62
7
6
CONTINUOUS
10
181.2015106654
20
235.3335543555
11
181.3497576654
21
235.2419903555
0
LINE
8
10500_FRONT_LABELING
62
7
6
CONTINUOUS
10
181.2015106654
20
223.7835813555
11
181.3497576654
21
223.6919693555
0
LINE
8
10500_FRONT_LABELING
62
7
6
CONTINUOUS
10
159.6312426654
20
245.7898443555
11
159.9882586654
21
245.5686853555
0
LINE
8
10500_FRONT_LABELING
62
7
6
CONTINUOUS
10
182.2472076654
20
217.2418293555
11
182.3714006654
21
217.1614563555
0
LINE
8
10500_FRONT_LABELING
62
7
6
CONTINUOUS
10
182.6109936654
20
218.3878843555
11
182.4869456654
21
218.4684503555
0
LINE
8
10500_FRONT_LABELING
62
7
6
CONTINUOUS
10
181.5653936654
20
223.9568753555
11
181.3281256654
21
224.1267773555
0
LINE
8
10500_FRONT_LABELING
62
7
6
CONTINUOUS
10
159.9900756654
20
257.1068863555
11
159.7528196654
21
257.2767883555
0
LINE
8
10500_FRONT_LABELING
62
7
6
CONTINUOUS
10
181.5653936654
20
229.8568543555
11
181.3281256654
21
230.0268053555
0
LINE
8
10500_FRONT_LABELING
62
7
6
CONTINUOUS
10
181.5653936654
20
235.5068483555
11
181.3281256654
21
235.6767993555
0
LINE
8
10500_FRONT_LABELING
62
7
6
CONTINUOUS
10
181.5653936654
20
240.9068583555
11
181.3281256654
21
241.0768083555
0
LINE
8
10500_FRONT_LABELING
62
7
6
CONTINUOUS
10
180.6491456654
20
222.2038333555
11
180.8396136654
21
222.0633373555
0
LINE
8
10500_FRONT_LABELING
62
7
6
CONTINUOUS
10
159.0738276654
20
255.3538443555
11
159.2642956654
21
255.2133483555
0
LINE
8
10500_FRONT_LABELING
62
7
6
CONTINUOUS
10
180.6491456654
20
244.5538253555
11
180.8396136654
21
244.4133293555
0
LINE
8
10500_FRONT_LABELING
62
7
6
CONTINUOUS
10
180.6491456654
20
228.1038603555
11
180.8396136654
21
227.9633163555
0
LINE
8
10500_FRONT_LABELING
62
7
6
CONTINUOUS
10
180.6491456654
20
233.7538543555
11
180.8396136654
21
233.6133113555
0
LINE
8
10500_FRONT_LABELING
62
7
6
CONTINUOUS
10
180.6491456654
20
239.1538643555
11
180.8396136654
21
239.0133203555
0
LINE
8
10500_FRONT_LABELING
62
7
6
CONTINUOUS
10
182.8816406654
20
223.8996113555
11
182.5449846654
21
224.1567663555
0
LINE
8
10500_FRONT_LABELING
62
7
6
CONTINUOUS
10
182.6720846654
20
239.9215013555
11
182.5719696654
21
240.0042963555
0
LINE
8
10500_FRONT_LABELING
62
7
6
CONTINUOUS
10
158.6953626654
20
277.9576963555
11
158.7914446654
21
277.8725273555
0
LINE
8
10500_FRONT_LABELING
62
7
6
CONTINUOUS
10
159.1421616654
20
278.4427933555
11
159.0461526654
21
278.5280593555
0
LINE
8
10500_FRONT_LABELING
62
7
6
CONTINUOUS
10
182.2194956654
20
239.4353873555
11
182.3158316654
21
239.3495403555
0
LINE
8
10500_FRONT_LABELING
62
7
6
CONTINUOUS
10
182.7057066654
20
245.2497613555
11
182.5415206654
21
245.4094903555
0
LINE
8
10500_FRONT_LABELING
62
7
6
CONTINUOUS
10
181.6425446654
20
256.1709453555
11
181.5325706654
21
256.2800473555
0
LINE
8
10500_FRONT_LABELING
62
7
6
CONTINUOUS
10
182.9625466654
20
256.1709453555
11
182.8525726654
21
256.2800473555
0
LINE
8
10500_FRONT_LABELING
62
7
6
CONTINUOUS
10
182.1574356654
20
266.9709153555
11
182.0474376654
21
267.0800663555
0
LINE
8
10500_FRONT_LABELING
62
7
6
CONTINUOUS
10
181.6425446654
20
245.3709263555
11
181.5325706654
21
245.4800763555
0
LINE
8
10500_FRONT_LABELING
62
7
6
CONTINUOUS
10
181.6425446654
20
250.7709363555
11
181.5325706654
21
250.8800863555
0
LINE
8
10500_FRONT_LABELING
62
7
6
CONTINUOUS
10
181.6425446654
20
261.5709063555
11
181.5325706654
21
261.6800563555
0
LINE
8
10500_FRONT_LABELING
62
7
6
CONTINUOUS
10
159.9963856654
20
273.2040623555
11
159.7594206654
21
273.4459083555
0
LINE
8
10500_FRONT_LABELING
62
7
6
CONTINUOUS
10
159.0709216654
20
271.6733413555
11
159.3078136654
21
271.4314473555
0
LINE
8
10500_FRONT_LABELING
62
7
6
CONTINUOUS
10
181.9662166654
20
271.6733413555
11
182.2031206654
21
271.4314473555
0
LINE
8
10500_FRONT_LABELING
62
7
6
CONTINUOUS
10
159.2188166654
20
294.9979353555
11
159.3947146654
21
294.7829293555
0
LINE
8
10500_FRONT_LABELING
62
7
6
CONTINUOUS
10
165.9429096654
20
313.4184622263
11
166.1159006654
21
313.1990482263
0
LINE
8
10500_FRONT_LABELING
62
7
6
CONTINUOUS
10
181.3946186654
20
289.2431993555
11
181.2611726654
21
289.4140703555
0
LINE
8
10500_FRONT_LABELING
62
7
6
CONTINUOUS
10
182.7146206654
20
262.1431583555
11
182.5811746654
21
262.3140783555
0
LINE
8
10500_FRONT_LABELING
62
7
6
CONTINUOUS
10
181.3946186654
20
278.4431803555
11
181.2611726654
21
278.6141003555
0
LINE
8
10500_FRONT_LABELING
62
7
6
CONTINUOUS
10
181.3946186654
20
283.8431903555
11
181.2611726654
21
284.0141093555
0
LINE
8
10500_FRONT_LABELING
62
7
6
CONTINUOUS
10
159.2193136654
20
316.1431563555
11
159.0858786654
21
316.3140753555
0
LINE
8
10500_FRONT_LABELING
62
7
6
CONTINUOUS
10
182.1867946654
20
283.6771633555
11
182.2422176654
21
283.6061403555
0
LINE
8
10500_FRONT_LABELING
62
7
6
CONTINUOUS
10
182.6712126654
20
283.8937193555
11
182.6157896654
21
283.9647423555
0
LINE
8
10500_FRONT_LABELING
62
7
6
CONTINUOUS
10
182.7533296654
20
284.2998963555
11
182.9611166654
21
284.0215223555
0
LINE
8
10500_FRONT_LABELING
62
7
6
CONTINUOUS
10
182.0818586654
20
282.3717683555
11
181.8658356654
21
282.6700543555
0
LINE
8
10500_FRONT_LABELING
62
7
6
CONTINUOUS
10
182.0990336654
20
276.9813993555
11
181.9338056654
21
277.2128293555
0
LINE
8
10500_FRONT_LABELING
62
7
6
CONTINUOUS
10
182.7702126654
20
294.3539343555
11
182.9777826654
21
294.0509973555
0
LINE
8
10000_FRONT
62
7
6
CONTINUOUS
10
167.5556866654
20
322.4995993555
11
167.2305366654
21
322.9848893555
0
LINE
8
10500_FRONT_LABELING
62
7
6
CONTINUOUS
10
181.8534816654
20
309.6580863555
11
181.9691476654
21
309.4538353555
0
LINE
8
10500_FRONT_LABELING
62
7
6
CONTINUOUS
10
175.1859496654
20
313.0162102263
11
175.0541266654
21
313.2629492263
0
LINE
8
11000_LEFT
62
7
6
CONTINUOUS
10
264.1073616654
20
325.7199960292
11
264.1073616654
21
329.5200070292
0
LINE
8
11000_LEFT
62
7
6
CONTINUOUS
10
264.6073556654
20
321.6200040292
11
264.6073556654
21
323.6200280292
0
LINE
8
11000_LEFT
62
7
6
CONTINUOUS
10
266.5073606654
20
205.9199950292
11
266.5073606654
21
205.7779490292
0
LINE
8
11000_LEFT
62
7
6
CONTINUOUS
10
267.5073726654
20
216.4199830292
11
267.5073726654
21
326.2200140292
0
LINE
8
11000_LEFT
62
7
6
CONTINUOUS
10
270.7073706654
20
201.4968150292
11
270.7073706654
21
205.9199950292
0
LINE
8
11000_LEFT
62
7
6
CONTINUOUS
10
273.9573666654
20
308.4199870292
11
273.9573666654
21
292.4199940292
0
LINE
8
11000_LEFT
62
7
6
CONTINUOUS
10
273.9573666654
20
266.4200310292
11
273.9573666654
21
248.4200160292
0
LINE
8
11000_LEFT
62
7
6
CONTINUOUS
10
273.9573666654
20
202.1950280292
11
273.9573666654
21
208.6200240292
0
LINE
8
11000_LEFT
62
7
6
CONTINUOUS
10
277.9573646654
20
326.9200200292
11
277.9573646654
21
308.4199870292
0
LINE
8
11000_LEFT
62
7
6
CONTINUOUS
10
277.9573646654
20
292.4199940292
11
277.9573646654
21
266.4200310292
0
LINE
8
11000_LEFT
62
7
6
CONTINUOUS
10
277.9573646654
20
248.4200160292
11
277.9573646654
21
217.2394590292
0
LINE
8
11000_LEFT
62
7
6
CONTINUOUS
10
265.8938086654
20
214.3709810292
11
262.3556766654
21
209.1549720292
0
LINE
8
13000_TOP
62
7
6
CONTINUOUS
10
175.4509776654
20
107.8538890292
11
175.2372796654
21
107.6020630292
0
LINE
8
13000_TOP
62
7
6
CONTINUOUS
10
168.9413576654
20
110.6947040292
11
168.7770386654
21
110.5151610292
0
LINE
8
10500_FRONT_LABELING
62
7
6
CONTINUOUS
10
159.2037256654
20
222.1313573555
11
159.6058326654
21
222.0134373555
0
LINE
8
10500_FRONT_LABELING
62
7
6
CONTINUOUS
10
182.0990336654
20
222.1313573555
11
182.5011406654
21
222.0134373555
0
LINE
8
10500_FRONT_LABELING
62
7
6
CONTINUOUS
10
159.5349796654
20
227.9082333555
11
159.1865636654
21
228.0217433555
0
LINE
8
10500_FRONT_LABELING
62
7
6
CONTINUOUS
10
182.4302876654
20
227.9082333555
11
182.0818586654
21
228.0217433555
0
LINE
8
10500_FRONT_LABELING
62
7
6
CONTINUOUS
10
159.5341806654
20
230.0690023555
11
159.8580336654
21
229.9499203555
0
LINE
8
10500_FRONT_LABELING
62
7
6
CONTINUOUS
10
182.4294876654
20
230.0690023555
11
182.7533296654
21
229.9498713555
0
LINE
8
10500_FRONT_LABELING
62
7
6
CONTINUOUS
10
159.3224926654
20
228.3630983555
11
159.5335746654
21
228.2818053555
0
LINE
8
10500_FRONT_LABELING
62
7
6
CONTINUOUS
10
182.2177996654
20
228.3630983555
11
182.4288826654
21
228.2818053555
0
LINE
8
10500_FRONT_LABELING
62
7
6
CONTINUOUS
10
159.7444146654
20
228.7630253555
11
159.5336956654
21
228.8444163555
0
LINE
8
10500_FRONT_LABELING
62
7
6
CONTINUOUS
10
182.6397216654
20
228.7630253555
11
182.4290036654
21
228.8444163555
0
LINE
8
10500_FRONT_LABELING
62
7
6
CONTINUOUS
10
181.0318256654
20
228.2872793555
11
180.8509266654
21
228.3583503555
0
LINE
8
10500_FRONT_LABELING
62
7
6
CONTINUOUS
10
181.0318256654
20
233.9372733555
11
180.8509266654
21
234.0083453555
0
LINE
8
10500_FRONT_LABELING
62
7
6
CONTINUOUS
10
181.0318256654
20
222.3872523555
11
180.8509266654
21
222.4583713555
0
LINE
8
10500_FRONT_LABELING
62
7
6
CONTINUOUS
10
181.1969326654
20
222.9339243555
11
181.3565156654
21
222.8689573555
0
LINE
8
10500_FRONT_LABELING
62
7
6
CONTINUOUS
10
181.1969326654
20
228.8339513555
11
181.3565156654
21
228.7689843555
0
LINE
8
10500_FRONT_LABELING
62
7
6
CONTINUOUS
10
181.1969326654
20
234.4839453555
11
181.3565156654
21
234.4189783555
0
LINE
8
10500_FRONT_LABELING
62
7
6
CONTINUOUS
10
159.3469096654
20
229.2561153555
11
159.5336956654
21
229.1754033555
0
LINE
8
10500_FRONT_LABELING
62
7
6
CONTINUOUS
10
159.7204936654
20
229.6147663555
11
159.5336956654
21
229.6954783555
0
LINE
8
10500_FRONT_LABELING
62
7
6
CONTINUOUS
10
182.2422176654
20
229.2561153555
11
182.4290036654
21
229.1754033555
0
LINE
8
10500_FRONT_LABELING
62
7
6
CONTINUOUS
10
182.6157896654
20
229.6147663555
11
182.4290036654
21
229.6954783555
0
LINE
8
10500_FRONT_LABELING
62
7
6
CONTINUOUS
10
159.2331326654
20
239.0584723555
11
159.4285306654
21
238.9696703555
0
LINE
8
10500_FRONT_LABELING
62
7
6
CONTINUOUS
10
182.1284406654
20
239.0584723555
11
182.3238496654
21
238.9696703555
0
LINE
8
10500_FRONT_LABELING
62
7
6
CONTINUOUS
10
182.0343086654
20
222.8878033555
11
182.3745496654
21
222.7324833555
0
LINE
8
10500_FRONT_LABELING
62
7
6
CONTINUOUS
10
159.9329446654
20
240.2381483555
11
159.5902816654
21
240.3947283555
0
LINE
8
10500_FRONT_LABELING
62
7
6
CONTINUOUS
10
182.8282526654
20
240.2381483555
11
182.4855886654
21
240.3947283555
0
LINE
8
10500_FRONT_LABELING
62
7
6
CONTINUOUS
10
159.3807496654
20
244.3724403555
11
159.1898936654
21
244.4685593555
0
LINE
8
10500_FRONT_LABELING
62
7
6
CONTINUOUS
10
182.2760576654
20
244.3724403555
11
182.0852016654
21
244.4685593555
0
LINE
8
11000_LEFT
62
7
6
CONTINUOUS
10
263.8936156654
20
204.8621620292
11
264.4073676654
21
204.5655230292
0
LINE
8
11000_LEFT
62
7
6
CONTINUOUS
10
264.4073676654
20
204.5655230292
11
271.2198636654
21
200.6323330292
0
LINE
8
10500_FRONT_LABELING
62
7
6
CONTINUOUS
10
159.7238726654
20
262.6972913555
11
159.9916986654
21
262.5406633555
0
LINE
8
10500_FRONT_LABELING
62
7
6
CONTINUOUS
10
181.2015106654
20
240.7335643555
11
181.3497576654
21
240.6420003555
0
LINE
8
10500_FRONT_LABELING
62
7
6
CONTINUOUS
10
159.6262046654
20
256.9335443555
11
159.7744636654
21
256.8419803555
0
LINE
8
10500_FRONT_LABELING
62
7
6
CONTINUOUS
10
181.2015106654
20
246.1335733555
11
181.3497576654
21
246.0420093555
0
LINE
8
10500_FRONT_LABELING
62
7
6
CONTINUOUS
10
181.2015106654
20
256.9335443555
11
181.3497576654
21
256.8419803555
0
LINE
8
10500_FRONT_LABELING
62
7
6
CONTINUOUS
10
182.5215126654
20
256.9335443555
11
182.6697586654
21
256.8419803555
0
LINE
8
10500_FRONT_LABELING
62
7
6
CONTINUOUS
10
181.2015106654
20
251.5335833555
11
181.3497576654
21
251.4419703555
0
LINE
8
10500_FRONT_LABELING
62
7
6
CONTINUOUS
10
182.5265506654
20
245.7898443555
11
182.8835786654
21
245.5686853555
0
LINE
8
10500_FRONT_LABELING
62
7
6
CONTINUOUS
10
181.5653936654
20
246.3068673555
11
181.3281256654
21
246.4767693555
0
LINE
8
10500_FRONT_LABELING
62
7
6
CONTINUOUS
10
181.5653936654
20
251.7068763555
11
181.3281256654
21
251.8767793555
0
LINE
8
10500_FRONT_LABELING
62
7
6
CONTINUOUS
10
181.5653936654
20
257.1068863555
11
181.3281256654
21
257.2767883555
0
LINE
8
10500_FRONT_LABELING
62
7
6
CONTINUOUS
10
182.8853946654
20
257.1068863555
11
182.6481276654
21
257.2767883555
0
LINE
8
10500_FRONT_LABELING
62
7
6
CONTINUOUS
10
181.5653936654
20
262.5068473555
11
181.3281256654
21
262.6767983555
0
LINE
8
10500_FRONT_LABELING
62
7
6
CONTINUOUS
10
182.0802596654
20
267.9068563555
11
181.8429926654
21
268.0768073555
0
LINE
8
10500_FRONT_LABELING
62
7
6
CONTINUOUS
10
180.6491456654
20
249.9538343555
11
180.8396136654
21
249.8133393555
0
LINE
8
10500_FRONT_LABELING
62
7
6
CONTINUOUS
10
180.6491456654
20
255.3538443555
11
180.8396136654
21
255.2133483555
0
LINE
8
10500_FRONT_LABELING
62
7
6
CONTINUOUS
10
181.9691476654
20
255.3538443555
11
182.1596156654
21
255.2133483555
0
LINE
8
10500_FRONT_LABELING
62
7
6
CONTINUOUS
10
180.6491456654
20
271.5538243555
11
180.8396136654
21
271.4133283555
0
LINE
8
10500_FRONT_LABELING
62
7
6
CONTINUOUS
10
180.6491456654
20
260.7538533555
11
180.8396136654
21
260.6133093555
0
LINE
8
10500_FRONT_LABELING
62
7
6
CONTINUOUS
10
181.1640126654
20
266.1538633555
11
181.3544806654
21
266.0133193555
0
LINE
8
10500_FRONT_LABELING
62
7
6
CONTINUOUS
10
159.3863206654
20
278.6496113555
11
159.0496776654
21
278.9067663555
0
LINE
8
10500_FRONT_LABELING
62
7
6
CONTINUOUS
10
159.1943146654
20
293.9399083555
11
159.0863756654
21
294.0288563555
0
LINE
8
10500_FRONT_LABELING
62
7
6
CONTINUOUS
10
158.7059966654
20
293.4166363555
11
158.8107506654
21
293.3248783555
0
LINE
8
10500_FRONT_LABELING
62
7
6
CONTINUOUS
10
182.1906696654
20
278.0576903555
11
182.2867636654
21
277.9725213555
0
LINE
8
10500_FRONT_LABELING
62
7
6
CONTINUOUS
10
182.6374696654
20
278.5427863555
11
182.5414476654
21
278.6280533555
0
LINE
8
10500_FRONT_LABELING
62
7
6
CONTINUOUS
10
159.4522446654
20
310.2607633555
11
159.3422586654
21
310.3699133555
0
LINE
8
10500_FRONT_LABELING
62
7
6
CONTINUOUS
10
181.6425446654
20
272.3709253555
11
181.5325706654
21
272.4800753555
0
LINE
8
10500_FRONT_LABELING
62
7
6
CONTINUOUS
10
159.0918866654
20
299.4325483555
11
159.2623706654
21
299.2606593555
0
LINE
8
10500_FRONT_LABELING
62
7
6
CONTINUOUS
10
182.5571936654
20
299.5325423555
11
182.7276766654
21
299.3606533555
0
LINE
8
10500_FRONT_LABELING
62
7
6
CONTINUOUS
10
159.1694496654
20
294.6445173555
11
159.0692016654
21
294.7459153555
0
LINE
8
10500_FRONT_LABELING
62
7
6
CONTINUOUS
10
182.6647446654
20
294.7445103555
11
182.5645086654
21
294.8459093555
0
LINE
8
10500_FRONT_LABELING
62
7
6
CONTINUOUS
10
182.8916926654
20
273.2040623555
11
182.6547166654
21
273.4459083555
0
LINE
8
10500_FRONT_LABELING
62
7
6
CONTINUOUS
10
181.4116236654
20
294.6723253555
11
181.2653386654
21
294.8405323555
0
LINE
8
10500_FRONT_LABELING
62
7
6
CONTINUOUS
10
181.4116236654
20
300.0723343555
11
181.2653386654
21
300.2405413555
0
LINE
8
10500_FRONT_LABELING
62
7
6
CONTINUOUS
10
181.4116236654
20
305.4722953555
11
181.2653386654
21
305.6405513555
0
LINE
8
10000_FRONT
62
7
6
CONTINUOUS
10
168.9664776654
20
306.2091693555
11
168.5758036654
21
306.6734333555
0
LINE
8
10000_FRONT
62
7
6
CONTINUOUS
10
172.2162306654
20
308.8828433555
11
172.6069046654
21
308.4185793555
0
LINE
8
10500_FRONT_LABELING
62
7
6
CONTINUOUS
10
182.7141356654
20
295.0979293555
11
182.8900216654
21
294.8829713555
0
LINE
8
10500_FRONT_LABELING
62
7
6
CONTINUOUS
10
174.0594436654
20
313.4184622263
11
174.2324466654
21
313.1990482263
0
LINE
8
10500_FRONT_LABELING
62
7
6
CONTINUOUS
10
181.3946186654
20
316.2431983555
11
181.2611726654
21
316.4140693555
0
LINE
8
10500_FRONT_LABELING
62
7
6
CONTINUOUS
10
182.7146206654
20
316.2431983555
11
182.5811746654
21
316.4140693555
0
LINE
8
10500_FRONT_LABELING
62
7
6
CONTINUOUS
10
181.3946186654
20
310.8431883555
11
181.2611726654
21
311.0141083555
0
LINE
8
10500_FRONT_LABELING
62
7
6
CONTINUOUS
10
181.9095096654
20
321.6431593555
11
181.7760636654
21
321.8140793555
0
LINE
8
11000_LEFT
62
7
6
CONTINUOUS
10
283.6561446654
20
211.7200280292
11
283.6561446654
21
212.6200220292
0
LINE
8
11000_LEFT
62
7
6
CONTINUOUS
10
283.7573496654
20
330.9452590292
11
283.7573496654
21
329.5200070292
0
LINE
8
11000_LEFT
62
7
6
CONTINUOUS
10
283.8573676654
20
211.7200280292
11
283.8573676654
21
212.6200220292
0
LINE
8
11000_LEFT
62
7
6
CONTINUOUS
10
286.4073566654
20
211.7200280292
11
286.4073566654
21
212.6200220292
0
LINE
8
11000_LEFT
62
7
6
CONTINUOUS
10
297.1573546654
20
330.8976840292
11
297.1573546654
21
326.9700170292
0
LINE
8
11000_LEFT
62
7
6
CONTINUOUS
10
298.3573546654
20
212.6200220292
11
298.3573546654
21
326.5875310292
0
LINE
8
13000_TOP
62
7
6
CONTINUOUS
10
172.2413626654
20
104.4326350292
11
172.5913526654
21
104.7826620292
0
LINE
8
15000_BACK
62
7
6
CONTINUOUS
10
387.6753986654
20
286.4956470292
11
387.3470756654
21
286.2391220292
0
LINE
8
15000_BACK
62
7
6
CONTINUOUS
10
389.3646856654
20
286.4935640292
11
389.0048726654
21
286.2124280292
0
LINE
8
15000_BACK
62
7
6
CONTINUOUS
10
389.0517196654
20
287.5709200292
11
388.7233486654
21
287.3143950292
0
LINE
8
15000_BACK
62
7
6
CONTINUOUS
10
389.4929236654
20
287.7477990292
11
389.8212956654
21
288.0043240292
0
LINE
8
15000_BACK
62
7
6
CONTINUOUS
10
388.6765496654
20
285.9559030292
11
388.3167356654
21
285.6748150292
0
LINE
8
15000_BACK
62
7
6
CONTINUOUS
10
389.2613976654
20
285.8841050292
11
389.6212106654
21
286.1651920292
0
LINE
8
15000_BACK
62
7
6
CONTINUOUS
10
388.5732606654
20
285.3464920292
11
388.9330746654
21
285.6275800292
0
LINE
8
15000_BACK
62
7
6
CONTINUOUS
10
388.4450226654
20
284.0922080292
11
388.1166516654
21
283.8356830292
0
LINE
8
15000_BACK
62
7
6
CONTINUOUS
10
390.2624986654
20
285.3443610292
11
390.5908706654
21
285.6008860292
0
LINE
8
15000_BACK
62
7
6
CONTINUOUS
10
388.8862266654
20
284.2690870292
11
389.2145976654
21
284.5256120292
0
LINE
8
10000_FRONT
62
7
6
CONTINUOUS
10
155.6913556654
20
200.2087613555
11
160.5913586654
21
200.2087613555
0
LINE
8
10000_FRONT
62
7
6
CONTINUOUS
10
180.5913486654
20
200.2087613555
11
185.4913646654
21
200.2087613555
0
LINE
8
11000_LEFT
62
7
6
CONTINUOUS
10
271.7323566654
20
200.4949870292
11
272.2573736654
21
200.4949870292
0
LINE
8
15000_BACK
62
7
6
CONTINUOUS
10
374.0689626654
20
200.4949870292
11
378.9689536654
21
200.4949870292
0
LINE
8
15000_BACK
62
7
6
CONTINUOUS
10
398.9689436654
20
200.4949870292
11
403.8689836654
21
200.4949870292
0
LINE
8
10000_FRONT
62
7
6
CONTINUOUS
10
183.2913536654
20
201.9087543555
11
180.5913486654
21
201.9087543555
0
LINE
8
10000_FRONT
62
7
6
CONTINUOUS
10
160.5913586654
20
201.9087543555
11
157.8913546654
21
201.9087543555
0
LINE
8
10000_FRONT
62
7
6
CONTINUOUS
10
185.4913646654
20
203.6087473555
11
183.2913536654
21
203.6087473555
0
LINE
8
10000_FRONT
62
7
6
CONTINUOUS
10
157.8913546654
20
203.6087473555
11
155.6913556654
21
203.6087473555
0
LINE
8
15000_BACK
62
7
6
CONTINUOUS
10
403.8689836654
20
203.8950210292
11
401.6689726654
21
203.8950210292
0
LINE
8
15000_BACK
62
7
6
CONTINUOUS
10
376.2689736654
20
203.8950210292
11
374.0689626654
21
203.8950210292
0
LINE
8
10000_FRONT
62
7
6
CONTINUOUS
10
160.5913586654
20
205.1337513555
11
180.5913486654
21
205.1337513555
0
LINE
8
15000_BACK
62
7
6
CONTINUOUS
10
398.9689436654
20
205.4200250292
11
378.9689536654
21
205.4200250292
0
LINE
8
10000_FRONT
62
7
6
CONTINUOUS
10
165.8413536654
20
209.3337373555
11
166.8261286654
21
209.3337373555
0
LINE
8
10000_FRONT
62
7
6
CONTINUOUS
10
174.3565796654
20
209.3337853555
11
175.3413546654
21
209.3337853555
0
LINE
8
15000_BACK
62
7
6
CONTINUOUS
10
384.2189726654
20
209.6200110292
11
385.2037476654
21
209.6200110292
0
LINE
8
15000_BACK
62
7
6
CONTINUOUS
10
392.7341986654
20
209.6200110292
11
393.7189736654
21
209.6200110292
0
LINE
8
10000_FRONT
62
7
6
CONTINUOUS
10
164.1413606654
20
211.1337723555
11
164.9892976654
21
211.1337723555
0
LINE
8
10000_FRONT
62
7
6
CONTINUOUS
10
167.3084386654
20
211.1337723555
11
173.8742686654
21
211.1337723555
0
LINE
8
10000_FRONT
62
7
6
CONTINUOUS
10
176.1934106654
20
211.1337723555
11
177.0413476654
21
211.1337723555
0
LINE
8
15000_BACK
62
7
6
CONTINUOUS
10
382.5189796654
20
211.4199980292
11
383.3668926654
21
211.4199980292
0
LINE
8
15000_BACK
62
7
6
CONTINUOUS
10
385.6860336654
20
211.4199980292
11
392.2518636654
21
211.4199980292
0
LINE
8
15000_BACK
62
7
6
CONTINUOUS
10
394.5710056654
20
211.4199980292
11
395.4189666654
21
211.4199980292
0
LINE
8
11000_LEFT
62
7
6
CONTINUOUS
10
283.6561446654
20
211.7200280292
11
286.4073566654
21
211.7200280292
0
LINE
8
10000_FRONT
62
7
6
CONTINUOUS
10
157.8913546654
20
212.3337473555
11
183.2913536654
21
212.3337473555
0
LINE
8
15000_BACK
62
7
6
CONTINUOUS
10
378.9689536654
20
212.4200340292
11
382.5189796654
21
212.4200340292
0
LINE
8
15000_BACK
62
7
6
CONTINUOUS
10
395.4189666654
20
212.4200340292
11
398.9689436654
21
212.4200340292
0
LINE
8
11000_LEFT
62
7
6
CONTINUOUS
10
277.9573646654
20
212.6200220292
11
283.8573676654
21
212.6200220292
0
LINE
8
11000_LEFT
62
7
6
CONTINUOUS
10
286.4073566654
20
212.6200220292
11
298.3573546654
21
212.6200220292
0
LINE
8
15000_BACK
62
7
6
CONTINUOUS
10
382.5189796654
20
212.6200220292
11
395.4189666654
21
212.6200220292
0
LINE
8
10500_FRONT_LABELING
62
7
6
CONTINUOUS
10
159.6320186654
20
222.3936473555
11
159.3838746654
21
222.4219403555
0
LINE
8
10500_FRONT_LABELING
62
7
6
CONTINUOUS
10
182.5273256654
20
222.3936473555
11
182.2791816654
21
222.4219403555
0
LINE
8
10500_FRONT_LABELING
62
7
6
CONTINUOUS
10
181.3281256654
20
224.1267773555
11
181.0361616654
21
224.1616103555
0
LINE
8
10500_FRONT_LABELING
62
7
6
CONTINUOUS
10
159.3914446654
20
223.1225273555
11
159.5189196654
21
223.1051833555
0
LINE
8
10500_FRONT_LABELING
62
7
6
CONTINUOUS
10
182.2867636654
20
223.1225273555
11
182.4142266654
21
223.1051833555
0
LINE
8
10500_FRONT_LABELING
62
7
6
CONTINUOUS
10
159.6461526654
20
223.7780583555
11
159.5187016654
21
223.7954993555
0
LINE
8
10500_FRONT_LABELING
62
7
6
CONTINUOUS
10
182.5414476654
20
223.7780583555
11
182.4140086654
21
223.7954993555
0
LINE
8
10500_FRONT_LABELING
62
7
6
CONTINUOUS
10
180.8396136654
20
222.0633373555
11
181.0667556654
21
222.0087873555
0
LINE
8
10500_FRONT_LABELING
62
7
6
CONTINUOUS
10
180.8396136654
20
227.9633163555
11
181.0667556654
21
227.9087653555
0
LINE
8
10500_FRONT_LABELING
62
7
6
CONTINUOUS
10
180.8396136654
20
233.6133113555
11
181.0667556654
21
233.5587603555
0
LINE
8
10500_FRONT_LABELING
62
7
6
CONTINUOUS
10
180.8396136654
20
239.0133203555
11
181.0667556654
21
238.9587693555
0
LINE
8
10500_FRONT_LABELING
62
7
6
CONTINUOUS
10
159.8606866654
20
240.9977433555
11
159.4571746654
21
241.1132893555
0
LINE
8
10500_FRONT_LABELING
62
7
6
CONTINUOUS
10
182.7559936654
20
240.9977433555
11
182.3524816654
21
241.1132893555
0
LINE
8
10500_FRONT_LABELING
62
7
6
CONTINUOUS
10
159.3142086654
20
244.8111733555
11
159.5296626654
21
244.7308973555
0
LINE
8
10500_FRONT_LABELING
62
7
6
CONTINUOUS
10
182.2095156654
20
244.8111733555
11
182.4249826654
21
244.7308973555
0
LINE
8
10500_FRONT_LABELING
62
7
6
CONTINUOUS
10
181.0318256654
20
239.3372833555
11
180.8509266654
21
239.4083543555
0
LINE
8
10500_FRONT_LABELING
62
7
6
CONTINUOUS
10
181.0318256654
20
244.7372443555
11
180.8509266654
21
244.8083633555
0
LINE
8
10500_FRONT_LABELING
62
7
6
CONTINUOUS
10
181.0318256654
20
250.1372533555
11
180.8509266654
21
250.2083733555
0
LINE
8
10500_FRONT_LABELING
62
7
6
CONTINUOUS
10
181.0318256654
20
255.5372633555
11
180.8509266654
21
255.6083823555
0
LINE
8
10500_FRONT_LABELING
62
7
6
CONTINUOUS
10
159.4565076654
20
255.5372633555
11
159.2756326654
21
255.6083823555
0
LINE
8
10500_FRONT_LABELING
62
7
6
CONTINUOUS
10
182.3518036654
20
255.5372633555
11
182.1709276654
21
255.6083823555
0
LINE
8
10500_FRONT_LABELING
62
7
6
CONTINUOUS
10
181.1969326654
20
245.2839163555
11
181.3565156654
21
245.2189973555
0
LINE
8
10500_FRONT_LABELING
62
7
6
CONTINUOUS
10
181.1969326654
20
239.8839553555
11
181.3565156654
21
239.8189883555
0
LINE
8
10500_FRONT_LABELING
62
7
6
CONTINUOUS
10
181.1969326654
20
250.6839253555
11
181.3565156654
21
250.6189583555
0
LINE
8
10500_FRONT_LABELING
62
7
6
CONTINUOUS
10
181.1969326654
20
256.0839353555
11
181.3565156654
21
256.0189683555
0
LINE
8
10500_FRONT_LABELING
62
7
6
CONTINUOUS
10
182.5169336654
20
256.0839353555
11
182.6765176654
21
256.0189683555
0
LINE
8
10500_FRONT_LABELING
62
7
6
CONTINUOUS
10
159.6216266654
20
256.0839353555
11
159.7811976654
21
256.0189683555
0
LINE
8
10500_FRONT_LABELING
62
7
6
CONTINUOUS
10
182.6191806654
20
262.6972913555
11
182.8870176654
21
262.5406633555
0
LINE
8
10500_FRONT_LABELING
62
7
6
CONTINUOUS
10
181.2991786654
20
278.9973133555
11
181.5670166654
21
278.8406363555
0
LINE
8
10500_FRONT_LABELING
62
7
6
CONTINUOUS
10
181.2015106654
20
262.3335533555
11
181.3497576654
21
262.2419893555
0
LINE
8
10500_FRONT_LABELING
62
7
6
CONTINUOUS
10
181.7163776654
20
267.7335633555
11
181.8646486654
21
267.6419983555
0
LINE
8
10500_FRONT_LABELING
62
7
6
CONTINUOUS
10
181.2015106654
20
273.1335723555
11
181.3497576654
21
273.0420083555
0
LINE
8
10500_FRONT_LABELING
62
7
6
CONTINUOUS
10
158.8717686654
20
292.9897733555
11
158.5255446654
21
293.2057963555
0
LINE
8
10500_FRONT_LABELING
62
7
6
CONTINUOUS
10
158.5156016654
20
298.6203403555
11
158.8524026654
21
298.3928833555
0
LINE
8
10500_FRONT_LABELING
62
7
6
CONTINUOUS
10
181.5653936654
20
273.3068663555
11
181.3281256654
21
273.4767683555
0
LINE
8
10500_FRONT_LABELING
62
7
6
CONTINUOUS
10
159.3750816654
20
311.1967043555
11
159.1378256654
21
311.3666553555
0
LINE
8
10500_FRONT_LABELING
62
7
6
CONTINUOUS
10
158.4588336654
20
309.4437103555
11
158.6493016654
21
309.3031663555
0
LINE
8
10500_FRONT_LABELING
62
7
6
CONTINUOUS
10
181.3413276654
20
295.1574213555
11
181.5850136654
21
294.9771033555
0
LINE
8
10500_FRONT_LABELING
62
7
6
CONTINUOUS
10
182.5449846654
20
279.0067603555
11
182.8816406654
21
278.7496543555
0
LINE
8
10500_FRONT_LABELING
62
7
6
CONTINUOUS
10
166.5292836654
20
313.0036622263
11
166.6148886654
21
312.9375332263
0
LINE
8
10500_FRONT_LABELING
62
7
6
CONTINUOUS
10
159.3737616654
20
299.5848643555
11
159.2124336654
21
299.7164943555
0
LINE
8
10500_FRONT_LABELING
62
7
6
CONTINUOUS
10
182.8390796654
20
299.6848583555
11
182.6777526654
21
299.8164883555
0
LINE
8
10500_FRONT_LABELING
62
7
6
CONTINUOUS
10
182.6896216654
20
294.0399513555
11
182.5816826654
21
294.1288503555
0
LINE
8
10500_FRONT_LABELING
62
7
6
CONTINUOUS
10
166.4347156654
20
313.5308592263
11
166.3649166654
21
313.5919012263
0
LINE
8
10500_FRONT_LABELING
62
7
6
CONTINUOUS
10
174.5512506654
20
313.5308592263
11
174.4814626654
21
313.5919012263
0
LINE
8
10500_FRONT_LABELING
62
7
6
CONTINUOUS
10
182.2013036654
20
293.5166303555
11
182.3060456654
21
293.4248723555
0
LINE
8
10500_FRONT_LABELING
62
7
6
CONTINUOUS
10
182.9625466654
20
310.2709373555
11
182.8525726654
21
310.3800873555
0
LINE
8
11000_LEFT
62
7
6
CONTINUOUS
10
303.6814966654
20
303.1941910292
11
303.7188726654
21
302.6955780292
0
LINE
8
11000_LEFT
62
7
6
CONTINUOUS
10
303.1338066654
20
321.2036540292
11
302.7765126654
21
325.9704650292
0
LINE
8
11000_LEFT
62
7
6
CONTINUOUS
10
305.1299786654
20
304.6064110292
11
304.0312086654
21
319.2653030292
0
LINE
8
11000_LEFT
62
7
6
CONTINUOUS
10
304.8289556654
20
319.3250860292
11
305.9277496654
21
304.6661940292
0
LINE
8
11000_LEFT
62
7
6
CONTINUOUS
10
305.0700746654
20
326.1424030292
11
305.4273686654
21
321.3755430292
0
LINE
8
11000_LEFT
62
7
6
CONTINUOUS
10
307.6079526654
20
302.9870820292
11
307.5705756654
21
303.4856950292
0
LINE
8
11000_LEFT
62
7
6
CONTINUOUS
10
306.9073656654
20
329.0239130292
11
306.9073656654
21
329.3200190292
0
LINE
8
11000_LEFT
62
7
6
CONTINUOUS
10
307.4073586654
20
330.9452590292
11
307.4073586654
21
329.8199880292
0
LINE
8
13000_TOP
62
7
6
CONTINUOUS
10
168.9413576654
20
110.6947040292
11
169.2449006654
21
110.8728420292
0
LINE
8
10500_FRONT_LABELING
62
7
6
CONTINUOUS
10
182.3234866654
20
216.8106063555
11
182.6450996654
21
216.8530453555
0
LINE
8
10500_FRONT_LABELING
62
7
6
CONTINUOUS
10
181.0667556654
20
222.0087873555
11
181.3027156654
21
222.0306363555
0
LINE
8
10500_FRONT_LABELING
62
7
6
CONTINUOUS
10
182.3745496654
20
222.7324833555
11
182.5667616654
21
222.7497303555
0
LINE
8
10500_FRONT_LABELING
62
7
6
CONTINUOUS
10
181.1323046654
20
223.2818193555
11
180.9766696654
21
223.2754243555
0
LINE
8
10500_FRONT_LABELING
62
7
6
CONTINUOUS
10
181.2276476654
20
222.3944703555
11
181.0318256654
21
222.3872523555
0
LINE
8
10500_FRONT_LABELING
62
7
6
CONTINUOUS
10
181.2276476654
20
228.2944983555
11
181.0318256654
21
228.2872793555
0
LINE
8
10000_FRONT
62
7
6
CONTINUOUS
10
182.2913416654
20
213.3337833555
11
179.2913556654
21
213.3337833555
0
LINE
8
10000_FRONT
62
7
6
CONTINUOUS
10
158.8913536654
20
213.3337833555
11
161.8913526654
21
213.3337833555
0
LINE
8
10000_FRONT
62
7
6
CONTINUOUS
10
161.8913526654
20
216.0337643555
11
158.8913536654
21
216.0337643555
0
LINE
8
10000_FRONT
62
7
6
CONTINUOUS
10
179.2913556654
20
216.0337643555
11
182.2913416654
21
216.0337643555
0
LINE
8
15000_BACK
62
7
6
CONTINUOUS
10
376.2689736654
20
216.4199830292
11
378.9689536654
21
216.4199830292
0
LINE
8
15000_BACK
62
7
6
CONTINUOUS
10
398.9689436654
20
216.4199830292
11
401.6689726654
21
216.4199830292
0
LINE
8
10500_FRONT_LABELING
62
7
6
CONTINUOUS
10
159.3210516654
20
216.7886113555
11
158.0944666654
21
216.7886113555
0
LINE
8
10500_FRONT_LABELING
62
7
6
CONTINUOUS
10
181.2497386654
20
216.7886113555
11
181.5744286654
21
216.7886113555
0
LINE
8
10000_FRONT
62
7
6
CONTINUOUS
10
178.2913436654
20
216.8337633555
11
162.8913636654
21
216.8337633555
0
LINE
8
10000_FRONT
62
7
6
CONTINUOUS
10
168.5913546654
20
216.9337573555
11
172.5913526654
21
216.9337573555
0
LINE
8
10500_FRONT_LABELING
62
7
6
CONTINUOUS
10
158.5699586654
20
217.1434833555
11
159.3210516654
21
217.1434833555
0
LINE
8
15000_BACK
62
7
6
CONTINUOUS
10
382.5189796654
20
217.2200310292
11
395.4189666654
21
217.2200310292
0
LINE
8
15000_BACK
62
7
6
CONTINUOUS
10
378.2189516654
20
217.2394590292
11
376.2689736654
21
217.2394590292
0
LINE
8
11000_LEFT
62
7
6
CONTINUOUS
10
277.9573646654
20
217.2394590292
11
267.5073726654
21
217.2394590292
0
LINE
8
15000_BACK
62
7
6
CONTINUOUS
10
399.7189466654
20
217.2394590292
11
401.6689726654
21
217.2394590292
0
LINE
8
10500_FRONT_LABELING
62
7
6
CONTINUOUS
10
180.5297486654
20
217.3546133555
11
181.2497386654
21
217.3546133555
0
LINE
8
10500_FRONT_LABELING
62
7
6
CONTINUOUS
10
181.5744286654
20
217.3546133555
11
181.7544316654
21
217.3546133555
0
LINE
8
10500_FRONT_LABELING
62
7
6
CONTINUOUS
10
181.7544316654
20
217.7498903555
11
181.5744286654
21
217.7498903555
0
LINE
8
10500_FRONT_LABELING
62
7
6
CONTINUOUS
10
180.9511376654
20
217.7498903555
11
181.2497386654
21
217.7498903555
0
LINE
8
10500_FRONT_LABELING
62
7
6
CONTINUOUS
10
158.3925346654
20
218.2439493555
11
158.1108056654
21
218.2439493555
0
LINE
8
10000_FRONT
62
7
6
CONTINUOUS
10
168.5913546654
20
218.3837663555
11
172.5913526654
21
218.3837663555
0
LINE
8
10000_FRONT
62
7
6
CONTINUOUS
10
167.4305976654
20
218.4120583555
11
164.0913636654
21
218.4120583555
0
LINE
8
10000_FRONT
62
7
6
CONTINUOUS
10
173.7520866654
20
218.4120583555
11
177.0913446654
21
218.4120583555
0
LINE
8
15000_BACK
62
7
6
CONTINUOUS
10
397.3048496654
20
218.4650620292
11
395.2330776654
21
218.4650620292
0
LINE
8
15000_BACK
62
7
6
CONTINUOUS
10
382.7048696654
20
218.4650620292
11
380.6330476654
21
218.4650620292
0
LINE
8
10500_FRONT_LABELING
62
7
6
CONTINUOUS
10
181.5744286654
20
218.8413443555
11
181.2843056654
21
218.8413443555
0
LINE
8
10000_FRONT
62
7
6
CONTINUOUS
10
177.0913446654
20
221.8554533555
11
173.7520866654
21
221.8554533555
0
LINE
8
10000_FRONT
62
7
6
CONTINUOUS
10
164.0913636654
20
221.8554533555
11
167.4305976654
21
221.8554533555
0
LINE
8
10000_FRONT
62
7
6
CONTINUOUS
10
168.5913546654
20
221.8837463555
11
172.5913526654
21
221.8837463555
0
LINE
8
10500_FRONT_LABELING
62
7
6
CONTINUOUS
10
158.5013576654
20
222.0082543555
11
158.8260476654
21
222.0082543555
0
LINE
8
10500_FRONT_LABELING
62
7
6
CONTINUOUS
10
182.1428536654
20
222.6370913555
11
181.8553466654
21
222.6370913555
0
LINE
8
10500_FRONT_LABELING
62
7
6
CONTINUOUS
10
180.7683726654
20
222.6370913555
11
180.4753436654
21
222.6370913555
0
LINE
8
10500_FRONT_LABELING
62
7
6
CONTINUOUS
10
159.2475336654
20
222.6370913555
11
158.9600386654
21
222.6370913555
0
LINE
8
10500_FRONT_LABELING
62
7
6
CONTINUOUS
10
158.1413506654
20
223.0435593555
11
158.2350466654
21
223.0435593555
0
LINE
8
15000_BACK
62
7
6
CONTINUOUS
10
383.2689816654
20
223.2200040292
11
385.2689566654
21
223.2200040292
0
LINE
8
15000_BACK
62
7
6
CONTINUOUS
10
392.6689896654
20
223.2200040292
11
394.6689646654
21
223.2200040292
0
LINE
8
10500_FRONT_LABELING
62
7
6
CONTINUOUS
10
180.5111216654
20
223.5401853555
11
180.7928386654
21
223.5401853555
0
LINE
8
15000_BACK
62
7
6
CONTINUOUS
10
380.6330476654
20
223.6465290292
11
382.7048696654
21
223.6465290292
0
LINE
8
15000_BACK
62
7
6
CONTINUOUS
10
395.2330776654
20
223.6465290292
11
397.3048496654
21
223.6465290292
0
LINE
8
10000_FRONT
62
7
6
CONTINUOUS
10
170.1913546654
20
223.7837753555
11
170.9913536654
21
223.7837753555
0
LINE
8
10500_FRONT_LABELING
62
7
6
CONTINUOUS
10
158.8260476654
20
224.1690233555
11
158.5351376654
21
224.1690233555
0
LINE
8
10000_FRONT
62
7
6
CONTINUOUS
10
168.5913546654
20
224.2837453555
11
172.5913526654
21
224.2837453555
0
LINE
8
10000_FRONT
62
7
6
CONTINUOUS
10
167.4305976654
20
224.3120373555
11
164.0913636654
21
224.3120373555
0
LINE
8
10000_FRONT
62
7
6
CONTINUOUS
10
173.7520866654
20
224.3120373555
11
177.0913446654
21
224.3120373555
0
LINE
8
15000_BACK
62
7
6
CONTINUOUS
10
397.3048496654
20
224.3650410292
11
395.2330776654
21
224.3650410292
0
LINE
8
15000_BACK
62
7
6
CONTINUOUS
10
382.7048696654
20
224.3650410292
11
380.6330476654
21
224.3650410292
0
LINE
8
10000_FRONT
62
7
6
CONTINUOUS
10
177.0913446654
20
227.7554803555
11
173.7520866654
21
227.7554803555
0
LINE
8
10000_FRONT
62
7
6
CONTINUOUS
10
164.0913636654
20
227.7554803555
11
167.4305976654
21
227.7554803555
0
LINE
8
10000_FRONT
62
7
6
CONTINUOUS
10
168.5913546654
20
227.7837733555
11
172.5913526654
21
227.7837733555
0
LINE
8
10500_FRONT_LABELING
62
7
6
CONTINUOUS
10
158.5013576654
20
227.9082333555
11
158.8260476654
21
227.9082333555
0
LINE
8
10500_FRONT_LABELING
62
7
6
CONTINUOUS
10
180.7683726654
20
228.5371193555
11
180.4753436654
21
228.5371193555
0
LINE
8
10500_FRONT_LABELING
62
7
6
CONTINUOUS
10
158.1413506654
20
228.9435863555
11
158.2350466654
21
228.9435863555
0
LINE
8
10500_FRONT_LABELING
62
7
6
CONTINUOUS
10
180.5111216654
20
229.4401643555
11
180.7928386654
21
229.4401643555
0
LINE
8
15000_BACK
62
7
6
CONTINUOUS
10
380.6330476654
20
229.5465560292
11
382.7048696654
21
229.5465560292
0
LINE
8
15000_BACK
62
7
6
CONTINUOUS
10
395.2330776654
20
229.5465560292
11
397.3048496654
21
229.5465560292
0
LINE
8
10000_FRONT
62
7
6
CONTINUOUS
10
170.9913536654
20
229.6837543555
11
170.1913546654
21
229.6837543555
0
LINE
8
10000_FRONT
62
7
6
CONTINUOUS
10
168.5913546654
20
229.9724483555
11
170.1913546654
21
229.9724483555
0
LINE
8
10000_FRONT
62
7
6
CONTINUOUS
10
170.9913536654
20
229.9724483555
11
172.5913526654
21
229.9724483555
0
LINE
8
10500_FRONT_LABELING
62
7
6
CONTINUOUS
10
158.8260476654
20
230.0690023555
11
158.5351376654
21
230.0690023555
0
LINE
8
10000_FRONT
62
7
6
CONTINUOUS
10
167.4305976654
20
230.2120653555
11
164.0913636654
21
230.2120653555
0
LINE
8
10000_FRONT
62
7
6
CONTINUOUS
10
173.7520866654
20
230.2120653555
11
177.0913446654
21
230.2120653555
0
LINE
8
15000_BACK
62
7
6
CONTINUOUS
10
397.3048496654
20
230.2650680292
11
395.2330776654
21
230.2650680292
0
LINE
8
15000_BACK
62
7
6
CONTINUOUS
10
382.7048696654
20
230.2650680292
11
380.6330476654
21
230.2650680292
0
LINE
8
10500_FRONT_LABELING
62
7
6
CONTINUOUS
10
158.5863456654
20
218.8254053555
11
158.8895366654
21
218.8229353555
0
LINE
8
10500_FRONT_LABELING
62
7
6
CONTINUOUS
10
158.8549336654
20
218.4587613555
11
158.5697766654
21
218.4615713555
0
LINE
8
10500_FRONT_LABELING
62
7
6
CONTINUOUS
10
181.0255036654
20
223.7856643555
11
181.2015106654
21
223.7835813555
0
LINE
8
10500_FRONT_LABELING
62
7
6
CONTINUOUS
10
181.0255036654
20
229.6856433555
11
181.2015106654
21
229.6835603555
0
LINE
8
10500_FRONT_LABELING
62
7
6
CONTINUOUS
10
180.9766696654
20
228.8444163555
11
181.1969326654
21
228.8339513555
0
LINE
8
10500_FRONT_LABELING
62
7
6
CONTINUOUS
10
180.9766696654
20
234.4944103555
11
181.1969326654
21
234.4839453555
0
LINE
8
10500_FRONT_LABELING
62
7
6
CONTINUOUS
10
180.9766696654
20
222.9444373555
11
181.1969326654
21
222.9339243555
0
LINE
8
10500_FRONT_LABELING
62
7
6
CONTINUOUS
10
159.4353976654
20
240.7335643555
11
159.6834686654
21
240.7052713555
0
LINE
8
10500_FRONT_LABELING
62
7
6
CONTINUOUS
10
182.3307046654
20
240.7335643555
11
182.5787766654
21
240.7052713555
0
LINE
8
10500_FRONT_LABELING
62
7
6
CONTINUOUS
10
181.3281256654
20
230.0268053555
11
181.0361616654
21
230.0615893555
0
LINE
8
10500_FRONT_LABELING
62
7
6
CONTINUOUS
10
181.3281256654
20
235.6767993555
11
181.0361616654
21
235.7115843555
0
LINE
8
10500_FRONT_LABELING
62
7
6
CONTINUOUS
10
181.3281256654
20
241.0768083555
11
181.0361616654
21
241.1115933555
0
LINE
8
10500_FRONT_LABELING
62
7
6
CONTINUOUS
10
181.3281256654
20
246.4767693555
11
181.0361616654
21
246.5116033555
0
LINE
8
10500_FRONT_LABELING
62
7
6
CONTINUOUS
10
159.4205246654
20
239.3495403555
11
159.5485686654
21
239.3317603555
0
LINE
8
10500_FRONT_LABELING
62
7
6
CONTINUOUS
10
159.6766736654
20
240.0042963555
11
159.5487016654
21
240.0220763555
0
LINE
8
10500_FRONT_LABELING
62
7
6
CONTINUOUS
10
182.3158316654
20
239.3495403555
11
182.4438766654
21
239.3317603555
0
LINE
8
10500_FRONT_LABELING
62
7
6
CONTINUOUS
10
182.5719696654
20
240.0042963555
11
182.4439976654
21
240.0220763555
0
LINE
8
10500_FRONT_LABELING
62
7
6
CONTINUOUS
10
180.8396136654
20
244.4133293555
11
181.0667556654
21
244.3587793555
0
LINE
8
10500_FRONT_LABELING
62
7
6
CONTINUOUS
10
180.8396136654
20
249.8133393555
11
181.0667556654
21
249.7587883555
0
LINE
8
10500_FRONT_LABELING
62
7
6
CONTINUOUS
10
159.2642956654
20
255.2133483555
11
159.4914376654
21
255.1587973555
0
LINE
8
10500_FRONT_LABELING
62
7
6
CONTINUOUS
10
180.8396136654
20
255.2133483555
11
181.0667556654
21
255.1587973555
0
LINE
8
10500_FRONT_LABELING
62
7
6
CONTINUOUS
10
182.1596156654
20
255.2133483555
11
182.3867336654
21
255.1587973555
0
LINE
8
10500_FRONT_LABELING
62
7
6
CONTINUOUS
10
180.8396136654
20
260.6133093555
11
181.0667556654
21
260.5587583555
0
LINE
8
10500_FRONT_LABELING
62
7
6
CONTINUOUS
10
158.9341806654
20
284.4190273555
11
159.2580346654
21
284.2998963555
0
LINE
8
10500_FRONT_LABELING
62
7
6
CONTINUOUS
10
158.7224926654
20
282.7131233555
11
158.9335746654
21
282.6317813555
0
LINE
8
10500_FRONT_LABELING
62
7
6
CONTINUOUS
10
159.1444146654
20
283.1130503555
11
158.9336956654
21
283.1944403555
0
LINE
8
10500_FRONT_LABELING
62
7
6
CONTINUOUS
10
181.0318256654
20
260.9372723555
11
180.8509266654
21
261.0083433555
0
LINE
8
10500_FRONT_LABELING
62
7
6
CONTINUOUS
10
181.5466926654
20
266.3372823555
11
181.3658176654
21
266.4083533555
0
LINE
8
10500_FRONT_LABELING
62
7
6
CONTINUOUS
10
181.0318256654
20
271.7372433555
11
180.8509266654
21
271.8083623555
0
LINE
8
10500_FRONT_LABELING
62
7
6
CONTINUOUS
10
181.1969326654
20
272.2839153555
11
181.3565156654
21
272.2189963555
0
LINE
8
10500_FRONT_LABELING
62
7
6
CONTINUOUS
10
181.1969326654
20
261.4839443555
11
181.3565156654
21
261.4189773555
0
LINE
8
10500_FRONT_LABELING
62
7
6
CONTINUOUS
10
181.7117986654
20
266.8839543555
11
181.8713826654
21
266.8189873555
0
LINE
8
10500_FRONT_LABELING
62
7
6
CONTINUOUS
10
158.7469096654
20
283.6061403555
11
158.9336956654
21
283.5253803555
0
LINE
8
10500_FRONT_LABELING
62
7
6
CONTINUOUS
10
159.1204946654
20
283.9647423555
11
158.9336956654
21
284.0455033555
0
LINE
8
10500_FRONT_LABELING
62
7
6
CONTINUOUS
10
182.2422176654
20
283.6061403555
11
182.4290036654
21
283.5253803555
0
LINE
8
10500_FRONT_LABELING
62
7
6
CONTINUOUS
10
182.6157896654
20
283.9647423555
11
182.4290036654
21
284.0455033555
0
LINE
8
10500_FRONT_LABELING
62
7
6
CONTINUOUS
10
158.5389886654
20
277.6378033555
11
158.8792536654
21
277.4824833555
0
LINE
8
10500_FRONT_LABELING
62
7
6
CONTINUOUS
10
182.3745496654
20
277.5824773555
11
182.0343086654
21
277.7377973555
0
LINE
8
10000_FRONT
62
7
6
CONTINUOUS
10
169.4928256654
20
305.9061353555
11
168.9664776654
21
306.2091693555
0
LINE
8
10000_FRONT
62
7
6
CONTINUOUS
10
171.6898816654
20
309.1858773555
11
172.2162306654
21
308.8828433555
0
LINE
8
10500_FRONT_LABELING
62
7
6
CONTINUOUS
10
181.2991786654
20
289.7972833555
11
181.5670166654
21
289.6406553555
0
LINE
8
10500_FRONT_LABELING
62
7
6
CONTINUOUS
10
159.1238736654
20
316.6972883555
11
159.3916986654
21
316.5406603555
0
LINE
8
10500_FRONT_LABELING
62
7
6
CONTINUOUS
10
181.2991786654
20
284.3973223555
11
181.5670166654
21
284.2406463555
0
LINE
8
10500_FRONT_LABELING
62
7
6
CONTINUOUS
10
166.9375796654
20
313.2629492263
11
166.6929366654
21
313.4108562263
0
LINE
8
10500_FRONT_LABELING
62
7
6
CONTINUOUS
10
159.0111986654
20
311.0234103555
11
159.1594576654
21
310.9318463555
0
LINE
8
10500_FRONT_LABELING
62
7
6
CONTINUOUS
10
182.3670646654
20
293.0897673555
11
182.0208646654
21
293.3057903555
0
LINE
8
10000_FRONT
62
7
6
CONTINUOUS
10
168.0423336654
20
322.1753453555
11
167.5556866654
21
322.4995993555
0
LINE
8
10500_FRONT_LABELING
62
7
6
CONTINUOUS
10
181.9808956654
20
298.7203343555
11
182.3176966654
21
298.4928773555
0
LINE
8
10500_FRONT_LABELING
62
7
6
CONTINUOUS
10
182.8853946654
20
311.2068773555
11
182.6481276654
21
311.3767803555
0
LINE
8
10500_FRONT_LABELING
62
7
6
CONTINUOUS
10
181.9691476654
20
309.4538353555
11
182.1596156654
21
309.3133403555
0
LINE
8
10500_FRONT_LABELING
62
7
6
CONTINUOUS
10
181.3413276654
20
300.5573823555
11
181.5850136654
21
300.3771123555
0
LINE
8
10500_FRONT_LABELING
62
7
6
CONTINUOUS
10
181.3413276654
20
305.9573923555
11
181.5850136654
21
305.7771223555
0
LINE
8
10500_FRONT_LABELING
62
7
6
CONTINUOUS
10
174.6458186654
20
313.0036622263
11
174.7314236654
21
312.9375332263
0
LINE
8
13000_TOP
62
7
6
CONTINUOUS
10
175.7656146654
20
108.0293140292
11
175.4509776654
21
107.8538890292
0
LINE
8
15000_BACK
62
7
6
CONTINUOUS
10
380.0439856654
20
218.1519510292
11
378.2189516654
21
217.2394590292
0
LINE
8
10500_FRONT_LABELING
62
7
6
CONTINUOUS
10
182.3714006654
20
217.1614563555
11
182.5648236654
21
217.1969683555
0
LINE
8
10500_FRONT_LABELING
62
7
6
CONTINUOUS
10
159.8930126654
20
217.1614563555
11
160.0864476654
21
217.1969683555
0
LINE
8
10500_FRONT_LABELING
62
7
6
CONTINUOUS
10
182.4869456654
20
218.4684503555
11
182.2934496654
21
218.4332303555
0
LINE
8
10500_FRONT_LABELING
62
7
6
CONTINUOUS
10
160.0085576654
20
218.4684503555
11
159.8150616654
21
218.4332303555
0
LINE
8
10500_FRONT_LABELING
62
7
6
CONTINUOUS
10
182.5449846654
20
224.1567663555
11
182.1288276654
21
224.0823523555
0
LINE
8
10500_FRONT_LABELING
62
7
6
CONTINUOUS
10
159.6496766654
20
224.1567663555
11
159.2335206654
21
224.0823523555
0
LINE
8
10500_FRONT_LABELING
62
7
6
CONTINUOUS
10
182.4142266654
20
223.1051833555
11
182.5416906654
21
223.1226243555
0
LINE
8
10500_FRONT_LABELING
62
7
6
CONTINUOUS
10
182.4140086654
20
223.7954993555
11
182.2865456654
21
223.7780583555
0
LINE
8
10500_FRONT_LABELING
62
7
6
CONTINUOUS
10
159.5189196654
20
223.1051833555
11
159.6463946654
21
223.1226243555
0
LINE
8
10500_FRONT_LABELING
62
7
6
CONTINUOUS
10
159.5187016654
20
223.7954993555
11
159.3912506654
21
223.7780583555
0
LINE
8
10500_FRONT_LABELING
62
7
6
CONTINUOUS
10
182.5345196654
20
218.8193983555
11
182.2129066654
21
218.7769103555
0
LINE
8
10500_FRONT_LABELING
62
7
6
CONTINUOUS
10
160.0561326654
20
218.8193983555
11
159.7345196654
21
218.7769103555
0
LINE
8
10500_FRONT_LABELING
62
7
6
CONTINUOUS
10
159.8450986654
20
216.8106063555
11
160.1667236654
21
216.8530453555
0
LINE
8
10500_FRONT_LABELING
62
7
6
CONTINUOUS
10
182.4855886654
20
240.3947283555
11
182.2953146654
21
240.3766093555
0
LINE
8
10500_FRONT_LABELING
62
7
6
CONTINUOUS
10
159.5902816654
20
240.3947283555
11
159.4000076654
21
240.3766093555
0
LINE
8
10500_FRONT_LABELING
62
7
6
CONTINUOUS
10
181.0667556654
20
227.9087653555
11
181.3027156654
21
227.9306153555
0
LINE
8
10500_FRONT_LABELING
62
7
6
CONTINUOUS
10
181.0667556654
20
233.5587603555
11
181.3027156654
21
233.5806093555
0
LINE
8
10500_FRONT_LABELING
62
7
6
CONTINUOUS
10
181.0667556654
20
238.9587693555
11
181.3027156654
21
238.9806193555
0
LINE
8
10500_FRONT_LABELING
62
7
6
CONTINUOUS
10
159.4792536654
20
222.7324833555
11
159.6714536654
21
222.7497303555
0
LINE
8
10500_FRONT_LABELING
62
7
6
CONTINUOUS
10
181.1323046654
20
229.1818473555
11
180.9766696654
21
229.1754033555
0
LINE
8
10500_FRONT_LABELING
62
7
6
CONTINUOUS
10
181.1323046654
20
234.8318413555
11
180.9766696654
21
234.8253973555
0
LINE
8
10500_FRONT_LABELING
62
7
6
CONTINUOUS
10
181.1323046654
20
240.2318023555
11
180.9766696654
21
240.2254073555
0
LINE
8
10500_FRONT_LABELING
62
7
6
CONTINUOUS
10
181.1323046654
20
245.6318113555
11
180.9766696654
21
245.6254163555
0
LINE
8
10500_FRONT_LABELING
62
7
6
CONTINUOUS
10
181.2276476654
20
244.7445113555
11
181.0318256654
21
244.7372443555
0
LINE
8
10500_FRONT_LABELING
62
7
6
CONTINUOUS
10
181.2276476654
20
233.9444923555
11
181.0318256654
21
233.9372733555
0
LINE
8
10500_FRONT_LABELING
62
7
6
CONTINUOUS
10
181.2276476654
20
239.3445013555
11
181.0318256654
21
239.3372833555
0
LINE
8
10500_FRONT_LABELING
62
7
6
CONTINUOUS
10
182.5415206654
20
245.4094903555
11
182.3060456654
21
245.4064863555
0
LINE
8
10500_FRONT_LABELING
62
7
6
CONTINUOUS
10
159.6462126654
20
245.4094903555
11
159.4107376654
21
245.4064863555
0
LINE
8
10500_FRONT_LABELING
62
7
6
CONTINUOUS
10
182.4192416654
20
233.5582273555
11
182.0848136654
21
233.5582273555
0
LINE
8
10500_FRONT_LABELING
62
7
6
CONTINUOUS
10
158.5013576654
20
233.5582273555
11
158.8260476654
21
233.5582273555
0
LINE
8
10500_FRONT_LABELING
62
7
6
CONTINUOUS
10
159.1894946654
20
233.5582273555
11
159.5239336654
21
233.5582273555
0
LINE
8
10000_FRONT
62
7
6
CONTINUOUS
10
177.0913446654
20
233.6554593555
11
173.7520866654
21
233.6554593555
0
LINE
8
10000_FRONT
62
7
6
CONTINUOUS
10
164.0913636654
20
233.6554593555
11
167.4305976654
21
233.6554593555
0
LINE
8
10500_FRONT_LABELING
62
7
6
CONTINUOUS
10
180.7683726654
20
234.1871133555
11
180.4753436654
21
234.1871133555
0
LINE
8
10500_FRONT_LABELING
62
7
6
CONTINUOUS
10
158.1413506654
20
234.5935803555
11
158.2350466654
21
234.5935803555
0
LINE
8
15000_BACK
62
7
6
CONTINUOUS
10
380.6330476654
20
234.9715640292
11
382.7048696654
21
234.9715640292
0
LINE
8
15000_BACK
62
7
6
CONTINUOUS
10
395.2330776654
20
234.9715640292
11
397.3048496654
21
234.9715640292
0
LINE
8
10500_FRONT_LABELING
62
7
6
CONTINUOUS
10
180.5111216654
20
235.0901583555
11
180.7928386654
21
235.0901583555
0
LINE
8
10500_FRONT_LABELING
62
7
6
CONTINUOUS
10
182.6848016654
20
235.3454723555
11
181.8166616654
21
235.3454723555
0
LINE
8
10500_FRONT_LABELING
62
7
6
CONTINUOUS
10
158.9213546654
20
235.3454723555
11
159.7894936654
21
235.3454723555
0
LINE
8
10000_FRONT
62
7
6
CONTINUOUS
10
167.4305976654
20
235.6120743555
11
164.0913636654
21
235.6120743555
0
LINE
8
10000_FRONT
62
7
6
CONTINUOUS
10
173.7520866654
20
235.6120743555
11
177.0913446654
21
235.6120743555
0
LINE
8
15000_BACK
62
7
6
CONTINUOUS
10
397.3048496654
20
235.6650780292
11
395.2330776654
21
235.6650780292
0
LINE
8
15000_BACK
62
7
6
CONTINUOUS
10
382.7048696654
20
235.6650780292
11
380.6330476654
21
235.6650780292
0
LINE
8
10500_FRONT_LABELING
62
7
6
CONTINUOUS
10
160.1460496654
20
235.7189963555
11
158.9213546654
21
235.7189963555
0
LINE
8
10500_FRONT_LABELING
62
7
6
CONTINUOUS
10
158.8260476654
20
235.7189963555
11
158.5351376654
21
235.7189963555
0
LINE
8
10500_FRONT_LABELING
62
7
6
CONTINUOUS
10
181.8166616654
20
235.7189963555
11
183.0413446654
21
235.7189963555
0
LINE
8
10500_FRONT_LABELING
62
7
6
CONTINUOUS
10
158.5013576654
20
238.9582363555
11
158.8260476654
21
238.9582363555
0
LINE
8
10000_FRONT
62
7
6
CONTINUOUS
10
177.0913446654
20
239.0554693555
11
173.7520866654
21
239.0554693555
0
LINE
8
10000_FRONT
62
7
6
CONTINUOUS
10
164.0913636654
20
239.0554693555
11
167.4305976654
21
239.0554693555
0
LINE
8
10500_FRONT_LABELING
62
7
6
CONTINUOUS
10
180.7683726654
20
239.5871223555
11
180.4753436654
21
239.5871223555
0
LINE
8
10500_FRONT_LABELING
62
7
6
CONTINUOUS
10
158.1413506654
20
239.9935903555
11
158.2350466654
21
239.9935903555
0
LINE
8
15000_BACK
62
7
6
CONTINUOUS
10
380.6330476654
20
240.3715250292
11
382.7048696654
21
240.3715250292
0
LINE
8
15000_BACK
62
7
6
CONTINUOUS
10
395.2330776654
20
240.3715250292
11
397.3048496654
21
240.3715250292
0
LINE
8
10500_FRONT_LABELING
62
7
6
CONTINUOUS
10
159.8198576654
20
240.4901683555
11
160.1073646654
21
240.4901683555
0
LINE
8
10500_FRONT_LABELING
62
7
6
CONTINUOUS
10
180.5111216654
20
240.4901683555
11
180.7928386654
21
240.4901683555
0
LINE
8
10500_FRONT_LABELING
62
7
6
CONTINUOUS
10
182.7151776654
20
240.4901683555
11
183.0026606654
21
240.4901683555
0
LINE
8
10000_FRONT
62
7
6
CONTINUOUS
10
167.4305976654
20
241.0120353555
11
164.0913636654
21
241.0120353555
0
LINE
8
10000_FRONT
62
7
6
CONTINUOUS
10
173.7520866654
20
241.0120353555
11
177.0913446654
21
241.0120353555
0
LINE
8
15000_BACK
62
7
6
CONTINUOUS
10
397.3048496654
20
241.0650390292
11
395.2330776654
21
241.0650390292
0
LINE
8
15000_BACK
62
7
6
CONTINUOUS
10
382.7048696654
20
241.0650390292
11
380.6330476654
21
241.0650390292
0
LINE
8
10500_FRONT_LABELING
62
7
6
CONTINUOUS
10
158.8260476654
20
241.1190053555
11
158.5351376654
21
241.1190053555
0
LINE
8
10500_FRONT_LABELING
62
7
6
CONTINUOUS
10
158.5013576654
20
244.3582463555
11
158.8260476654
21
244.3582463555
0
LINE
8
10000_FRONT
62
7
6
CONTINUOUS
10
177.0913446654
20
244.4554783555
11
173.7520866654
21
244.4554783555
0
LINE
8
10000_FRONT
62
7
6
CONTINUOUS
10
164.0913636654
20
244.4554783555
11
167.4305976654
21
244.4554783555
0
LINE
8
10500_FRONT_LABELING
62
7
6
CONTINUOUS
10
180.7683726654
20
244.9870833555
11
180.4753436654
21
244.9870833555
0
LINE
8
10500_FRONT_LABELING
62
7
6
CONTINUOUS
10
158.8876716654
20
245.0296683555
11
159.2230556654
21
245.0296683555
0
LINE
8
10500_FRONT_LABELING
62
7
6
CONTINUOUS
10
181.7829676654
20
245.0296683555
11
182.1183636654
21
245.0296683555
0
LINE
8
10500_FRONT_LABELING
62
7
6
CONTINUOUS
10
182.1280526654
20
245.2518443555
11
181.8166616654
21
245.2518443555
0
LINE
8
10500_FRONT_LABELING
62
7
6
CONTINUOUS
10
159.2327446654
20
245.2518443555
11
158.9213546654
21
245.2518443555
0
LINE
8
10500_FRONT_LABELING
62
7
6
CONTINUOUS
10
158.1413506654
20
245.3935993555
11
158.2350466654
21
245.3935993555
0
LINE
8
15000_BACK
62
7
6
CONTINUOUS
10
380.6330476654
20
245.7715340292
11
382.7048696654
21
245.7715340292
0
LINE
8
15000_BACK
62
7
6
CONTINUOUS
10
395.2330776654
20
245.7715340292
11
397.3048496654
21
245.7715340292
0
LINE
8
10500_FRONT_LABELING
62
7
6
CONTINUOUS
10
180.5111216654
20
245.8901773555
11
180.7928386654
21
245.8901773555
0
LINE
8
10500_FRONT_LABELING
62
7
6
CONTINUOUS
10
182.9813436654
20
246.1454913555
11
182.1113626654
21
246.1454913555
0
LINE
8
10500_FRONT_LABELING
62
7
6
CONTINUOUS
10
160.0860486654
20
246.1454913555
11
159.2160426654
21
246.1454913555
0
LINE
8
10000_FRONT
62
7
6
CONTINUOUS
10
167.4305976654
20
246.4120453555
11
164.0913636654
21
246.4120453555
0
LINE
8
10000_FRONT
62
7
6
CONTINUOUS
10
173.7520866654
20
246.4120453555
11
177.0913446654
21
246.4120453555
0
LINE
8
15000_BACK
62
7
6
CONTINUOUS
10
397.3048496654
20
246.4650480292
11
395.2330776654
21
246.4650480292
0
LINE
8
15000_BACK
62
7
6
CONTINUOUS
10
382.7048696654
20
246.4650480292
11
380.6330476654
21
246.4650480292
0
LINE
8
10500_FRONT_LABELING
62
7
6
CONTINUOUS
10
158.8260476654
20
246.5190153555
11
158.5351376654
21
246.5190153555
0
LINE
8
10500_FRONT_LABELING
62
7
6
CONTINUOUS
10
158.9213546654
20
246.5190153555
11
160.0860486654
21
246.5190153555
0
LINE
8
10500_FRONT_LABELING
62
7
6
CONTINUOUS
10
181.8166616654
20
246.5190153555
11
182.9813436654
21
246.5190153555
0
LINE
8
11000_LEFT
62
7
6
CONTINUOUS
10
273.9573666654
20
248.4200160292
11
277.9573646654
21
248.4200160292
0
LINE
8
10500_FRONT_LABELING
62
7
6
CONTINUOUS
10
158.5013576654
20
249.7582553555
11
158.8260476654
21
249.7582553555
0
LINE
8
10500_FRONT_LABELING
62
7
6
CONTINUOUS
10
159.6413566654
20
249.7582553555
11
159.9660456654
21
249.7582553555
0
LINE
8
10500_FRONT_LABELING
62
7
6
CONTINUOUS
10
182.5366516654
20
249.7582553555
11
182.8613416654
21
249.7582553555
0
LINE
8
10000_FRONT
62
7
6
CONTINUOUS
10
177.0913446654
20
249.8554393555
11
173.7520866654
21
249.8554393555
0
LINE
8
10000_FRONT
62
7
6
CONTINUOUS
10
164.0913636654
20
249.8554393555
11
167.4305976654
21
249.8554393555
0
LINE
8
10500_FRONT_LABELING
62
7
6
CONTINUOUS
10
158.9213546654
20
250.3540043555
11
159.6413566654
21
250.3540043555
0
LINE
8
10500_FRONT_LABELING
62
7
6
CONTINUOUS
10
159.9660456654
20
250.3540043555
11
160.2660516654
21
250.3540043555
0
LINE
8
10500_FRONT_LABELING
62
7
6
CONTINUOUS
10
181.8166616654
20
250.3540043555
11
182.5366516654
21
250.3540043555
0
LINE
8
10500_FRONT_LABELING
62
7
6
CONTINUOUS
10
182.8613416654
20
250.3540043555
11
183.0413446654
21
250.3540043555
0
LINE
8
10500_FRONT_LABELING
62
7
6
CONTINUOUS
10
180.7683726654
20
250.3870933555
11
180.4753436654
21
250.3870933555
0
LINE
8
10500_FRONT_LABELING
62
7
6
CONTINUOUS
10
183.0413446654
20
250.7700633555
11
182.8613416654
21
250.7700633555
0
LINE
8
10500_FRONT_LABELING
62
7
6
CONTINUOUS
10
182.5366516654
20
250.7700633555
11
182.2380506654
21
250.7700633555
0
LINE
8
10500_FRONT_LABELING
62
7
6
CONTINUOUS
10
160.2660516654
20
250.7700633555
11
159.9660456654
21
250.7700633555
0
LINE
8
10500_FRONT_LABELING
62
7
6
CONTINUOUS
10
159.3427556654
20
250.7700633555
11
159.6413566654
21
250.7700633555
0
LINE
8
10500_FRONT_LABELING
62
7
6
CONTINUOUS
10
158.1413506654
20
250.7935603555
11
158.2350466654
21
250.7935603555
0
LINE
8
15000_BACK
62
7
6
CONTINUOUS
10
380.6330476654
20
251.1715440292
11
382.7048696654
21
251.1715440292
0
LINE
8
15000_BACK
62
7
6
CONTINUOUS
10
395.2330776654
20
251.1715440292
11
397.3048496654
21
251.1715440292
0
LINE
8
10500_FRONT_LABELING
62
7
6
CONTINUOUS
10
180.5111216654
20
251.2901873555
11
180.7928386654
21
251.2901873555
0
LINE
8
10000_FRONT
62
7
6
CONTINUOUS
10
167.4305976654
20
251.8120543555
11
164.0913636654
21
251.8120543555
0
LINE
8
10000_FRONT
62
7
6
CONTINUOUS
10
173.7520866654
20
251.8120543555
11
177.0913446654
21
251.8120543555
0
LINE
8
15000_BACK
62
7
6
CONTINUOUS
10
397.3048496654
20
251.8650580292
11
395.2330776654
21
251.8650580292
0
LINE
8
15000_BACK
62
7
6
CONTINUOUS
10
382.7048696654
20
251.8650580292
11
380.6330476654
21
251.8650580292
0
LINE
8
10500_FRONT_LABELING
62
7
6
CONTINUOUS
10
182.8613416654
20
251.9190243555
11
182.5712186654
21
251.9190243555
0
LINE
8
10500_FRONT_LABELING
62
7
6
CONTINUOUS
10
159.9660456654
20
251.9190243555
11
159.6759226654
21
251.9190243555
0
LINE
8
10500_FRONT_LABELING
62
7
6
CONTINUOUS
10
158.8260476654
20
251.9190243555
11
158.5351376654
21
251.9190243555
0
LINE
8
10500_FRONT_LABELING
62
7
6
CONTINUOUS
10
181.0255036654
20
235.3356383555
11
181.2015106654
21
235.3335543555
0
LINE
8
10500_FRONT_LABELING
62
7
6
CONTINUOUS
10
181.0255036654
20
240.7356473555
11
181.2015106654
21
240.7335643555
0
LINE
8
10500_FRONT_LABELING
62
7
6
CONTINUOUS
10
181.0255036654
20
246.1356563555
11
181.2015106654
21
246.1335733555
0
LINE
8
10500_FRONT_LABELING
62
7
6
CONTINUOUS
10
181.0255036654
20
251.5356663555
11
181.2015106654
21
251.5335833555
0
LINE
8
10500_FRONT_LABELING
62
7
6
CONTINUOUS
10
159.4285306654
20
238.9696703555
11
159.6440446654
21
238.9652123555
0
LINE
8
10500_FRONT_LABELING
62
7
6
CONTINUOUS
10
182.3238496654
20
238.9696703555
11
182.5393646654
21
238.9652123555
0
LINE
8
10500_FRONT_LABELING
62
7
6
CONTINUOUS
10
180.9766696654
20
239.8944193555
11
181.1969326654
21
239.8839553555
0
LINE
8
10500_FRONT_LABELING
62
7
6
CONTINUOUS
10
159.4013516654
20
256.0943993555
11
159.6216266654
21
256.0839353555
0
LINE
8
10500_FRONT_LABELING
62
7
6
CONTINUOUS
10
180.9766696654
20
256.0943993555
11
181.1969326654
21
256.0839353555
0
LINE
8
10500_FRONT_LABELING
62
7
6
CONTINUOUS
10
182.2966716654
20
256.0943993555
11
182.5169336654
21
256.0839353555
0
LINE
8
10500_FRONT_LABELING
62
7
6
CONTINUOUS
10
180.9766696654
20
245.2944293555
11
181.1969326654
21
245.2839163555
0
LINE
8
10500_FRONT_LABELING
62
7
6
CONTINUOUS
10
180.9766696654
20
250.6944383555
11
181.1969326654
21
250.6839253555
0
LINE
8
10500_FRONT_LABELING
62
7
6
CONTINUOUS
10
159.5973426654
20
244.3606203555
11
159.3807496654
21
244.3724403555
0
LINE
8
10500_FRONT_LABELING
62
7
6
CONTINUOUS
10
182.4926376654
20
244.3606203555
11
182.2760576654
21
244.3724403555
0
LINE
8
10500_FRONT_LABELING
62
7
6
CONTINUOUS
10
181.3281256654
20
262.6767983555
11
181.0361616654
21
262.7115823555
0
LINE
8
10500_FRONT_LABELING
62
7
6
CONTINUOUS
10
181.8429926654
20
268.0768073555
11
181.5510286654
21
268.1115923555
0
LINE
8
10500_FRONT_LABELING
62
7
6
CONTINUOUS
10
181.3281256654
20
251.8767793555
11
181.0361616654
21
251.9116123555
0
LINE
8
10500_FRONT_LABELING
62
7
6
CONTINUOUS
10
159.7528196654
20
257.2767883555
11
159.4608566654
21
257.3116213555
0
LINE
8
10500_FRONT_LABELING
62
7
6
CONTINUOUS
10
181.3281256654
20
257.2767883555
11
181.0361616654
21
257.3116213555
0
LINE
8
10500_FRONT_LABELING
62
7
6
CONTINUOUS
10
182.6481276654
20
257.2767883555
11
182.3561636654
21
257.3116213555
0
LINE
8
10500_FRONT_LABELING
62
7
6
CONTINUOUS
10
159.7594206654
20
273.4459083555
11
159.4281906654
21
273.4958563555
0
LINE
8
10500_FRONT_LABELING
62
7
6
CONTINUOUS
10
159.3078136654
20
271.4314473555
11
159.6390306654
21
271.3813543555
0
LINE
8
10500_FRONT_LABELING
62
7
6
CONTINUOUS
10
182.2031206654
20
271.4314473555
11
182.5343506654
21
271.3813543555
0
LINE
8
10500_FRONT_LABELING
62
7
6
CONTINUOUS
10
159.3931156654
20
271.7917453555
11
159.5925586654
21
271.7510503555
0
LINE
8
10500_FRONT_LABELING
62
7
6
CONTINUOUS
10
182.2884106654
20
271.7917453555
11
182.4878656654
21
271.7510503555
0
LINE
8
10500_FRONT_LABELING
62
7
6
CONTINUOUS
10
159.6748206654
20
273.0855613555
11
159.4757656654
21
273.1264503555
0
LINE
8
10500_FRONT_LABELING
62
7
6
CONTINUOUS
10
182.5701286654
20
273.0855613555
11
182.3710606654
21
273.1264503555
0
LINE
8
10500_FRONT_LABELING
62
7
6
CONTINUOUS
10
181.3544806654
20
266.0133193555
11
181.5816226654
21
265.9587683555
0
LINE
8
10500_FRONT_LABELING
62
7
6
CONTINUOUS
10
180.8396136654
20
271.4133283555
11
181.0667556654
21
271.3587773555
0
LINE
8
10500_FRONT_LABELING
62
7
6
CONTINUOUS
10
158.6037256654
20
276.8813573555
11
159.0058326654
21
276.7634383555
0
LINE
8
10500_FRONT_LABELING
62
7
6
CONTINUOUS
10
182.5011406654
20
276.8634323555
11
182.0990336654
21
276.9813993555
0
LINE
8
10500_FRONT_LABELING
62
7
6
CONTINUOUS
10
158.9731076654
20
298.7050243555
11
158.7400306654
21
298.7773073555
0
LINE
8
10500_FRONT_LABELING
62
7
6
CONTINUOUS
10
158.9349796654
20
282.2582573555
11
158.5865636654
21
282.3717683555
0
LINE
8
10500_FRONT_LABELING
62
7
6
CONTINUOUS
10
182.4302876654
20
282.2582573555
11
182.0818586654
21
282.3717683555
0
LINE
8
10500_FRONT_LABELING
62
7
6
CONTINUOUS
10
182.2791816654
20
277.2719343555
11
182.3987486654
21
277.2324013555
0
LINE
8
10500_FRONT_LABELING
62
7
6
CONTINUOUS
10
158.9284396654
20
294.3685163555
11
159.2749176654
21
294.2539403555
0
LINE
8
10500_FRONT_LABELING
62
7
6
CONTINUOUS
10
182.4237466654
20
294.4685103555
11
182.7702126654
21
294.3539343555
0
LINE
8
10500_FRONT_LABELING
62
7
6
CONTINUOUS
10
182.4294876654
20
284.4190273555
11
182.7533296654
21
284.2998963555
0
LINE
8
10500_FRONT_LABELING
62
7
6
CONTINUOUS
10
182.2177996654
20
282.7131233555
11
182.4288826654
21
282.6317813555
0
LINE
8
10500_FRONT_LABELING
62
7
6
CONTINUOUS
10
182.6397216654
20
283.1130503555
11
182.4290036654
21
283.1944403555
0
LINE
8
10500_FRONT_LABELING
62
7
6
CONTINUOUS
10
158.8415146654
20
309.6271293555
11
158.6606266654
21
309.6982003555
0
LINE
8
10500_FRONT_LABELING
62
7
6
CONTINUOUS
10
159.0066206654
20
310.1738013555
11
159.1662036654
21
310.1088343555
0
LINE
8
10500_FRONT_LABELING
62
7
6
CONTINUOUS
10
166.4014816654
20
313.0602962263
11
166.5292836654
21
313.0036622263
0
LINE
8
10500_FRONT_LABELING
62
7
6
CONTINUOUS
10
166.6929366654
20
313.4108562263
11
166.4347156654
21
313.5308592263
0
LINE
8
10500_FRONT_LABELING
62
7
6
CONTINUOUS
10
174.8094706654
20
313.4108562263
11
174.5512506654
21
313.5308592263
0
LINE
8
10500_FRONT_LABELING
62
7
6
CONTINUOUS
10
166.1159006654
20
313.1990482263
11
166.4014816654
21
313.0602962263
0
LINE
8
10500_FRONT_LABELING
62
7
6
CONTINUOUS
10
174.2324466654
20
313.1990482263
11
174.5180156654
21
313.0602962263
0
LINE
8
10500_FRONT_LABELING
62
7
6
CONTINUOUS
10
181.2991786654
20
316.7972823555
11
181.5670166654
21
316.6406543555
0
LINE
8
10500_FRONT_LABELING
62
7
6
CONTINUOUS
10
182.6191806654
20
316.7972823555
11
182.8870176654
21
316.6406543555
0
LINE
8
10500_FRONT_LABELING
62
7
6
CONTINUOUS
10
181.8140456654
20
322.1972923555
11
182.0818826654
21
322.0406643555
0
LINE
8
10500_FRONT_LABELING
62
7
6
CONTINUOUS
10
181.2991786654
20
311.3973213555
11
181.5670166654
21
311.2406453555
0
LINE
8
10000_FRONT
62
7
6
CONTINUOUS
10
176.0913576654
20
330.1686073555
11
175.7689936654
21
330.3579853555
0
LINE
8
10500_FRONT_LABELING
62
7
6
CONTINUOUS
10
175.0541266654
20
313.2629492263
11
174.8094706654
21
313.4108562263
0
LINE
8
10500_FRONT_LABELING
62
7
6
CONTINUOUS
10
182.5215126654
20
311.0335843555
11
182.6697586654
21
310.9419713555
0
LINE
8
10500_FRONT_LABELING
62
7
6
CONTINUOUS
10
182.6986336654
20
244.4186593555
11
182.4926376654
21
244.3606203555
0
LINE
8
10500_FRONT_LABELING
62
7
6
CONTINUOUS
10
182.1113626654
20
245.7078243555
11
182.5265506654
21
245.7898443555
0
LINE
8
10500_FRONT_LABELING
62
7
6
CONTINUOUS
10
159.2160426654
20
245.7078243555
11
159.6312426654
21
245.7898443555
0
LINE
8
10500_FRONT_LABELING
62
7
6
CONTINUOUS
10
182.4438766654
20
239.3317603555
11
182.5719696654
21
239.3494433555
0
LINE
8
10500_FRONT_LABELING
62
7
6
CONTINUOUS
10
182.4439976654
20
240.0220763555
11
182.3160016654
21
240.0043933555
0
LINE
8
10500_FRONT_LABELING
62
7
6
CONTINUOUS
10
159.5485686654
20
239.3317603555
11
159.6766616654
21
239.3494433555
0
LINE
8
10500_FRONT_LABELING
62
7
6
CONTINUOUS
10
159.5487016654
20
240.0220763555
11
159.4206936654
21
240.0043933555
0
LINE
8
10500_FRONT_LABELING
62
7
6
CONTINUOUS
10
181.0667556654
20
244.3587793555
11
181.3027156654
21
244.3806283555
0
LINE
8
10500_FRONT_LABELING
62
7
6
CONTINUOUS
10
181.0667556654
20
249.7587883555
11
181.3027156654
21
249.7806373555
0
LINE
8
10500_FRONT_LABELING
62
7
6
CONTINUOUS
10
181.0667556654
20
260.5587583555
11
181.3027156654
21
260.5806083555
0
LINE
8
10500_FRONT_LABELING
62
7
6
CONTINUOUS
10
182.3867336654
20
255.1587973555
11
182.6227176654
21
255.1805983555
0
LINE
8
10500_FRONT_LABELING
62
7
6
CONTINUOUS
10
181.0667556654
20
255.1587973555
11
181.3027156654
21
255.1805983555
0
LINE
8
10500_FRONT_LABELING
62
7
6
CONTINUOUS
10
159.4914376654
20
255.1587973555
11
159.7274096654
21
255.1805983555
0
LINE
8
10500_FRONT_LABELING
62
7
6
CONTINUOUS
10
181.1323046654
20
251.0318213555
11
180.9766696654
21
251.0253773555
0
LINE
8
10500_FRONT_LABELING
62
7
6
CONTINUOUS
10
182.4523066654
20
256.4318303555
11
182.2966716654
21
256.4253873555
0
LINE
8
10500_FRONT_LABELING
62
7
6
CONTINUOUS
10
181.1323046654
20
256.4318303555
11
180.9766696654
21
256.4253873555
0
LINE
8
10500_FRONT_LABELING
62
7
6
CONTINUOUS
10
159.5569986654
20
256.4318303555
11
159.4013516654
21
256.4253873555
0
LINE
8
10500_FRONT_LABELING
62
7
6
CONTINUOUS
10
181.1323046654
20
261.8318403555
11
180.9766696654
21
261.8253963555
0
LINE
8
10500_FRONT_LABELING
62
7
6
CONTINUOUS
10
181.6471716654
20
267.2318493555
11
181.4915366654
21
267.2254063555
0
LINE
8
10500_FRONT_LABELING
62
7
6
CONTINUOUS
10
181.2276476654
20
250.1444723555
11
181.0318256654
21
250.1372533555
0
LINE
8
10500_FRONT_LABELING
62
7
6
CONTINUOUS
10
182.5476496654
20
255.5444813555
11
182.3518036654
21
255.5372633555
0
LINE
8
10500_FRONT_LABELING
62
7
6
CONTINUOUS
10
181.2276476654
20
255.5444813555
11
181.0318256654
21
255.5372633555
0
LINE
8
10500_FRONT_LABELING
62
7
6
CONTINUOUS
10
159.6523416654
20
255.5444813555
11
159.4565076654
21
255.5372633555
0
LINE
8
10500_FRONT_LABELING
62
7
6
CONTINUOUS
10
181.2276476654
20
260.9444913555
11
181.0318256654
21
260.9372723555
0
LINE
8
10500_FRONT_LABELING
62
7
6
CONTINUOUS
10
181.7425146654
20
266.3445003555
11
181.5466926654
21
266.3372823555
0
LINE
8
10500_FRONT_LABELING
62
7
6
CONTINUOUS
10
158.5013576654
20
255.1582653555
11
158.8260476654
21
255.1582653555
0
LINE
8
10000_FRONT
62
7
6
CONTINUOUS
10
177.0913446654
20
255.2554493555
11
173.7520866654
21
255.2554493555
0
LINE
8
10000_FRONT
62
7
6
CONTINUOUS
10
164.0913636654
20
255.2554493555
11
167.4305976654
21
255.2554493555
0
LINE
8
10500_FRONT_LABELING
62
7
6
CONTINUOUS
10
182.0883746654
20
255.7871023555
11
181.7953456654
21
255.7871023555
0
LINE
8
10500_FRONT_LABELING
62
7
6
CONTINUOUS
10
180.7683726654
20
255.7871023555
11
180.4753436654
21
255.7871023555
0
LINE
8
10500_FRONT_LABELING
62
7
6
CONTINUOUS
10
159.1930676654
20
255.7871023555
11
158.9000376654
21
255.7871023555
0
LINE
8
10500_FRONT_LABELING
62
7
6
CONTINUOUS
10
158.1413506654
20
256.1935703555
11
158.2350466654
21
256.1935703555
0
LINE
8
15000_BACK
62
7
6
CONTINUOUS
10
380.6330476654
20
256.5715530292
11
382.7048696654
21
256.5715530292
0
LINE
8
15000_BACK
62
7
6
CONTINUOUS
10
395.2330776654
20
256.5715530292
11
397.3048496654
21
256.5715530292
0
LINE
8
10500_FRONT_LABELING
62
7
6
CONTINUOUS
10
158.9358156654
20
256.6901483555
11
159.2175326654
21
256.6901483555
0
LINE
8
10500_FRONT_LABELING
62
7
6
CONTINUOUS
10
180.5111216654
20
256.6901483555
11
180.7928386654
21
256.6901483555
0
LINE
8
10500_FRONT_LABELING
62
7
6
CONTINUOUS
10
181.8311236654
20
256.6901483555
11
182.1128406654
21
256.6901483555
0
LINE
8
10000_FRONT
62
7
6
CONTINUOUS
10
167.4305976654
20
257.2120643555
11
164.0913636654
21
257.2120643555
0
LINE
8
10000_FRONT
62
7
6
CONTINUOUS
10
173.7520866654
20
257.2120643555
11
177.0913446654
21
257.2120643555
0
LINE
8
15000_BACK
62
7
6
CONTINUOUS
10
397.3048496654
20
257.2650670292
11
395.2330776654
21
257.2650670292
0
LINE
8
15000_BACK
62
7
6
CONTINUOUS
10
382.7048696654
20
257.2650670292
11
380.6330476654
21
257.2650670292
0
LINE
8
10500_FRONT_LABELING
62
7
6
CONTINUOUS
10
158.8260476654
20
257.3190343555
11
158.5351376654
21
257.3190343555
0
LINE
8
10500_FRONT_LABELING
62
7
6
CONTINUOUS
10
183.0413446654
20
260.5582263555
11
181.8166616654
21
260.5582263555
0
LINE
8
10500_FRONT_LABELING
62
7
6
CONTINUOUS
10
160.1460496654
20
260.5582263555
11
158.9213546654
21
260.5582263555
0
LINE
8
10500_FRONT_LABELING
62
7
6
CONTINUOUS
10
158.5013576654
20
260.5582263555
11
158.8260476654
21
260.5582263555
0
LINE
8
10000_FRONT
62
7
6
CONTINUOUS
10
177.0913446654
20
260.6554583555
11
173.7520866654
21
260.6554583555
0
LINE
8
10000_FRONT
62
7
6
CONTINUOUS
10
164.0913636654
20
260.6554583555
11
167.4305976654
21
260.6554583555
0
LINE
8
10500_FRONT_LABELING
62
7
6
CONTINUOUS
10
159.3949566654
20
260.9317983555
11
160.1460496654
21
260.9317983555
0
LINE
8
10500_FRONT_LABELING
62
7
6
CONTINUOUS
10
182.2902516654
20
260.9317983555
11
183.0413446654
21
260.9317983555
0
LINE
8
10500_FRONT_LABELING
62
7
6
CONTINUOUS
10
180.7683726654
20
261.1871123555
11
180.4753436654
21
261.1871123555
0
LINE
8
10500_FRONT_LABELING
62
7
6
CONTINUOUS
10
158.1413506654
20
261.5935793555
11
158.2350466654
21
261.5935793555
0
LINE
8
15000_BACK
62
7
6
CONTINUOUS
10
380.6330476654
20
261.9715630292
11
382.7048696654
21
261.9715630292
0
LINE
8
15000_BACK
62
7
6
CONTINUOUS
10
395.2330776654
20
261.9715630292
11
397.3048496654
21
261.9715630292
0
LINE
8
10500_FRONT_LABELING
62
7
6
CONTINUOUS
10
182.1128406654
20
262.0901573555
11
181.8311236654
21
262.0901573555
0
LINE
8
10500_FRONT_LABELING
62
7
6
CONTINUOUS
10
159.2175446654
20
262.0901573555
11
158.9358156654
21
262.0901573555
0
LINE
8
10500_FRONT_LABELING
62
7
6
CONTINUOUS
10
180.5111216654
20
262.0901573555
11
180.7928386654
21
262.0901573555
0
LINE
8
10000_FRONT
62
7
6
CONTINUOUS
10
167.4305976654
20
262.6120733555
11
164.0913636654
21
262.6120733555
0
LINE
8
10000_FRONT
62
7
6
CONTINUOUS
10
173.7520866654
20
262.6120733555
11
177.0913446654
21
262.6120733555
0
LINE
8
15000_BACK
62
7
6
CONTINUOUS
10
397.3048496654
20
262.6650770292
11
395.2330776654
21
262.6650770292
0
LINE
8
15000_BACK
62
7
6
CONTINUOUS
10
382.7048696654
20
262.6650770292
11
380.6330476654
21
262.6650770292
0
LINE
8
10500_FRONT_LABELING
62
7
6
CONTINUOUS
10
158.8260476654
20
262.7189953555
11
158.5351376654
21
262.7189953555
0
LINE
8
10500_FRONT_LABELING
62
7
6
CONTINUOUS
10
158.5013576654
20
265.9582353555
11
158.8260476654
21
265.9582353555
0
LINE
8
10500_FRONT_LABELING
62
7
6
CONTINUOUS
10
159.3748636654
20
265.9582353555
11
159.6995526654
21
265.9582353555
0
LINE
8
10500_FRONT_LABELING
62
7
6
CONTINUOUS
10
182.7166556654
20
265.9582353555
11
183.0413446654
21
265.9582353555
0
LINE
8
10000_FRONT
62
7
6
CONTINUOUS
10
177.0913446654
20
266.0554673555
11
173.7520866654
21
266.0554673555
0
LINE
8
10000_FRONT
62
7
6
CONTINUOUS
10
164.0913636654
20
266.0554673555
11
167.4305976654
21
266.0554673555
0
LINE
8
11000_LEFT
62
7
6
CONTINUOUS
10
277.9573646654
20
266.4200310292
11
273.9573666654
21
266.4200310292
0
LINE
8
10500_FRONT_LABELING
62
7
6
CONTINUOUS
10
181.2832396654
20
266.5871213555
11
180.9902106654
21
266.5871213555
0
LINE
8
10500_FRONT_LABELING
62
7
6
CONTINUOUS
10
158.1413506654
20
266.9935883555
11
158.2350466654
21
266.9935883555
0
LINE
8
10500_FRONT_LABELING
62
7
6
CONTINUOUS
10
159.0148566654
20
266.9935883555
11
159.1085516654
21
266.9935883555
0
LINE
8
10500_FRONT_LABELING
62
7
6
CONTINUOUS
10
182.3566726654
20
266.9935883555
11
182.4503436654
21
266.9935883555
0
LINE
8
15000_BACK
62
7
6
CONTINUOUS
10
380.6330476654
20
267.3715240292
11
382.7048696654
21
267.3715240292
0
LINE
8
15000_BACK
62
7
6
CONTINUOUS
10
395.2330776654
20
267.3715240292
11
397.3048496654
21
267.3715240292
0
LINE
8
10500_FRONT_LABELING
62
7
6
CONTINUOUS
10
181.0259886654
20
267.4901673555
11
181.3077056654
21
267.4901673555
0
LINE
8
10000_FRONT
62
7
6
CONTINUOUS
10
167.4305976654
20
268.0120343555
11
164.0913636654
21
268.0120343555
0
LINE
8
10000_FRONT
62
7
6
CONTINUOUS
10
173.7520866654
20
268.0120343555
11
177.0913446654
21
268.0120343555
0
LINE
8
15000_BACK
62
7
6
CONTINUOUS
10
397.3048496654
20
268.0650380292
11
395.2330776654
21
268.0650380292
0
LINE
8
15000_BACK
62
7
6
CONTINUOUS
10
382.7048696654
20
268.0650380292
11
380.6330476654
21
268.0650380292
0
LINE
8
10500_FRONT_LABELING
62
7
6
CONTINUOUS
10
183.0413446654
20
268.1190043555
11
182.7504466654
21
268.1190043555
0
LINE
8
10500_FRONT_LABELING
62
7
6
CONTINUOUS
10
159.6995526654
20
268.1190043555
11
159.4086426654
21
268.1190043555
0
LINE
8
10500_FRONT_LABELING
62
7
6
CONTINUOUS
10
158.8260476654
20
268.1190043555
11
158.5351376654
21
268.1190043555
0
LINE
8
10000_FRONT
62
7
6
CONTINUOUS
10
168.5913546654
20
271.1837403555
11
172.5913526654
21
271.1837403555
0
LINE
8
10500_FRONT_LABELING
62
7
6
CONTINUOUS
10
158.5013576654
20
271.3582443555
11
158.8260476654
21
271.3582443555
0
LINE
8
10000_FRONT
62
7
6
CONTINUOUS
10
177.0913446654
20
271.4554773555
11
173.7520866654
21
271.4554773555
0
LINE
8
10000_FRONT
62
7
6
CONTINUOUS
10
164.0913636654
20
271.4554773555
11
167.4305976654
21
271.4554773555
0
LINE
8
10500_FRONT_LABELING
62
7
6
CONTINUOUS
10
180.7683726654
20
271.9870823555
11
180.4753436654
21
271.9870823555
0
LINE
8
10500_FRONT_LABELING
62
7
6
CONTINUOUS
10
158.1413506654
20
272.3935983555
11
158.2350466654
21
272.3935983555
0
LINE
8
15000_BACK
62
7
6
CONTINUOUS
10
380.6330476654
20
272.7715330292
11
382.7048696654
21
272.7715330292
0
LINE
8
15000_BACK
62
7
6
CONTINUOUS
10
395.2330776654
20
272.7715330292
11
397.3048496654
21
272.7715330292
0
LINE
8
10500_FRONT_LABELING
62
7
6
CONTINUOUS
10
180.5111216654
20
272.8901763555
11
180.7928386654
21
272.8901763555
0
LINE
8
10000_FRONT
62
7
6
CONTINUOUS
10
168.5913546654
20
273.3837513555
11
172.5913526654
21
273.3837513555
0
LINE
8
10000_FRONT
62
7
6
CONTINUOUS
10
167.4305976654
20
273.4120433555
11
164.0913636654
21
273.4120433555
0
LINE
8
10000_FRONT
62
7
6
CONTINUOUS
10
173.7520866654
20
273.4120433555
11
177.0913446654
21
273.4120433555
0
LINE
8
15000_BACK
62
7
6
CONTINUOUS
10
397.3048496654
20
273.4650470292
11
395.2330776654
21
273.4650470292
0
LINE
8
15000_BACK
62
7
6
CONTINUOUS
10
382.7048696654
20
273.4650470292
11
380.6330476654
21
273.4650470292
0
LINE
8
10500_FRONT_LABELING
62
7
6
CONTINUOUS
10
158.8260476654
20
273.5190143555
11
158.5351376654
21
273.5190143555
0
LINE
8
10500_FRONT_LABELING
62
7
6
CONTINUOUS
10
181.5403706654
20
267.7356463555
11
181.7163776654
21
267.7335633555
0
LINE
8
10500_FRONT_LABELING
62
7
6
CONTINUOUS
10
181.0255036654
20
273.1356553555
11
181.2015106654
21
273.1335723555
0
LINE
8
10500_FRONT_LABELING
62
7
6
CONTINUOUS
10
159.4501976654
20
256.9356753555
11
159.6262046654
21
256.9335443555
0
LINE
8
10500_FRONT_LABELING
62
7
6
CONTINUOUS
10
181.0255036654
20
256.9356753555
11
181.2015106654
21
256.9335443555
0
LINE
8
10500_FRONT_LABELING
62
7
6
CONTINUOUS
10
182.3455056654
20
256.9356753555
11
182.5215126654
21
256.9335443555
0
LINE
8
10500_FRONT_LABELING
62
7
6
CONTINUOUS
10
181.0255036654
20
262.3356853555
11
181.2015106654
21
262.3335533555
0
LINE
8
10500_FRONT_LABELING
62
7
6
CONTINUOUS
10
159.4119976654
20
262.7023783555
11
159.7238726654
21
262.6972913555
0
LINE
8
10500_FRONT_LABELING
62
7
6
CONTINUOUS
10
182.3073056654
20
262.7023783555
11
182.6191806654
21
262.6972913555
0
LINE
8
10500_FRONT_LABELING
62
7
6
CONTINUOUS
10
159.6858786654
20
262.3140783555
11
159.3936126654
21
262.3193103555
0
LINE
8
10500_FRONT_LABELING
62
7
6
CONTINUOUS
10
182.5811746654
20
262.3140783555
11
182.2889196654
21
262.3193103555
0
LINE
8
10500_FRONT_LABELING
62
7
6
CONTINUOUS
10
180.9766696654
20
261.4944093555
11
181.1969326654
21
261.4839443555
0
LINE
8
10500_FRONT_LABELING
62
7
6
CONTINUOUS
10
181.4915366654
20
266.8944183555
11
181.7117986654
21
266.8839543555
0
LINE
8
10500_FRONT_LABELING
62
7
6
CONTINUOUS
10
180.9766696654
20
272.2944283555
11
181.1969326654
21
272.2839153555
0
LINE
8
10500_FRONT_LABELING
62
7
6
CONTINUOUS
10
159.0320186654
20
277.1436473555
11
158.7838746654
21
277.1719403555
0
LINE
8
10500_FRONT_LABELING
62
7
6
CONTINUOUS
10
181.3281256654
20
273.4767683555
11
181.0361616654
21
273.5116013555
0
LINE
8
10500_FRONT_LABELING
62
7
6
CONTINUOUS
10
158.7914446654
20
277.8725273555
11
158.9189196654
21
277.8551833555
0
LINE
8
10500_FRONT_LABELING
62
7
6
CONTINUOUS
10
182.2867636654
20
277.9725213555
11
182.4142266654
21
277.9551773555
0
LINE
8
10500_FRONT_LABELING
62
7
6
CONTINUOUS
10
159.0461526654
20
278.5280593555
11
158.9187016654
21
278.5454993555
0
LINE
8
10500_FRONT_LABELING
62
7
6
CONTINUOUS
10
182.5414476654
20
278.6280533555
11
182.4140086654
21
278.6454933555
0
LINE
8
10500_FRONT_LABELING
62
7
6
CONTINUOUS
10
158.8107506654
20
293.3248783555
11
158.9485446654
21
293.3049673555
0
LINE
8
10500_FRONT_LABELING
62
7
6
CONTINUOUS
10
159.0863756654
20
294.0288563555
11
158.9487026654
21
294.0488653555
0
LINE
8
10500_FRONT_LABELING
62
7
6
CONTINUOUS
10
182.6547166654
20
273.4459083555
11
182.3234866654
21
273.4958563555
0
LINE
8
10500_FRONT_LABELING
62
7
6
CONTINUOUS
10
158.8198346654
20
295.0786953555
11
159.2188166654
21
294.9979353555
0
LINE
8
10500_FRONT_LABELING
62
7
6
CONTINUOUS
10
182.3151536654
20
295.1786893555
11
182.7141356654
21
295.0979293555
0
LINE
8
10500_FRONT_LABELING
62
7
6
CONTINUOUS
10
158.6493016654
20
309.3031663555
11
158.8764316654
21
309.2486153555
0
LINE
8
10500_FRONT_LABELING
62
7
6
CONTINUOUS
10
159.2124336654
20
299.7164943555
11
159.0116946654
21
299.7677023555
0
LINE
8
10500_FRONT_LABELING
62
7
6
CONTINUOUS
10
182.6777526654
20
299.8164883555
11
182.4770136654
21
299.8676963555
0
LINE
8
10500_FRONT_LABELING
62
7
6
CONTINUOUS
10
182.4384016654
20
298.8050183555
11
182.2053246654
21
298.8773013555
0
LINE
8
10500_FRONT_LABELING
62
7
6
CONTINUOUS
10
166.7233246654
20
313.6786692263
11
166.9615486654
21
313.6003802263
0
LINE
8
10500_FRONT_LABELING
62
7
6
CONTINUOUS
10
174.8398716654
20
313.6786692263
11
175.0780836654
21
313.6003802263
0
LINE
8
10500_FRONT_LABELING
62
7
6
CONTINUOUS
10
182.3518276654
20
309.6372543555
11
182.1709276654
21
309.7083743555
0
LINE
8
10500_FRONT_LABELING
62
7
6
CONTINUOUS
10
182.5169336654
20
310.1839263555
11
182.6765176654
21
310.1189593555
0
LINE
8
10000_FRONT
62
7
6
CONTINUOUS
10
175.7689936654
20
330.3579853555
11
175.5962566654
21
330.4303163555
0
LINE
8
10000_FRONT
62
7
6
CONTINUOUS
10
175.5424326654
20
330.4528923555
11
175.4575056654
21
330.4884523555
0
LINE
8
10500_FRONT_LABELING
62
7
6
CONTINUOUS
10
174.5180156654
20
313.0602962263
11
174.6458186654
21
313.0036622263
0
LINE
8
15000_BACK
62
7
6
CONTINUOUS
10
399.7189466654
20
217.2394590292
11
397.8939616654
21
218.1519510292
0
LINE
8
15000_BACK
62
7
6
CONTINUOUS
10
383.3668926654
20
211.4199980292
11
384.2189726654
21
210.6199980292
0
LINE
8
15000_BACK
62
7
6
CONTINUOUS
10
374.0689626654
20
203.8950210292
11
374.0689626654
21
200.4949870292
0
LINE
8
15000_BACK
62
7
6
CONTINUOUS
10
376.2689736654
20
326.9200200292
11
376.2689736654
21
203.8950210292
0
LINE
8
15000_BACK
62
7
6
CONTINUOUS
10
377.1189696654
20
317.5955410292
11
377.1189696654
21
329.1200310292
0
LINE
8
15000_BACK
62
7
6
CONTINUOUS
10
378.9689536654
20
216.4199830292
11
378.9689536654
21
204.8575110292
0
LINE
8
15000_BACK
62
7
6
CONTINUOUS
10
378.9689536654
20
204.8489840292
11
378.9689536654
21
200.4949870292
0
LINE
8
15000_BACK
62
7
6
CONTINUOUS
10
379.0689476654
20
217.6644330292
11
379.0689476654
21
326.2200140292
0
LINE
8
15000_BACK
62
7
6
CONTINUOUS
10
380.0439856654
20
326.2200140292
11
380.0439856654
21
218.1519510292
0
LINE
8
15000_BACK
62
7
6
CONTINUOUS
10
380.1689776654
20
329.1200310292
11
380.1689776654
21
327.2200020292
0
LINE
8
15000_BACK
62
7
6
CONTINUOUS
10
380.2389826654
20
329.5200070292
11
380.2389826654
21
329.1200310292
0
LINE
8
15000_BACK
62
7
6
CONTINUOUS
10
380.6330476654
20
218.4650620292
11
380.6330476654
21
223.6465290292
0
LINE
8
15000_BACK
62
7
6
CONTINUOUS
10
380.6330476654
20
224.3650410292
11
380.6330476654
21
229.5465560292
0
LINE
8
15000_BACK
62
7
6
CONTINUOUS
10
380.6330476654
20
230.2650680292
11
380.6330476654
21
234.9715640292
0
LINE
8
15000_BACK
62
7
6
CONTINUOUS
10
380.6330476654
20
235.6650780292
11
380.6330476654
21
240.3715250292
0
LINE
8
15000_BACK
62
7
6
CONTINUOUS
10
380.6330476654
20
241.0650390292
11
380.6330476654
21
245.7715340292
0
LINE
8
15000_BACK
62
7
6
CONTINUOUS
10
380.6330476654
20
246.4650480292
11
380.6330476654
21
251.1715440292
0
LINE
8
15000_BACK
62
7
6
CONTINUOUS
10
380.6330476654
20
251.8650580292
11
380.6330476654
21
256.5715530292
0
LINE
8
15000_BACK
62
7
6
CONTINUOUS
10
380.6330476654
20
257.2650670292
11
380.6330476654
21
261.9715630292
0
LINE
8
15000_BACK
62
7
6
CONTINUOUS
10
380.6330476654
20
262.6650770292
11
380.6330476654
21
267.3715240292
0
LINE
8
15000_BACK
62
7
6
CONTINUOUS
10
380.6330476654
20
268.0650380292
11
380.6330476654
21
272.7715330292
0
LINE
8
15000_BACK
62
7
6
CONTINUOUS
10
380.6330476654
20
273.4650470292
11
380.6330476654
21
278.1715430292
0
LINE
8
15000_BACK
62
7
6
CONTINUOUS
10
380.6330476654
20
278.8650570292
11
380.6330476654
21
283.5715520292
0
LINE
8
15000_BACK
62
7
6
CONTINUOUS
10
380.6330476654
20
284.2650660292
11
380.6330476654
21
288.9715620292
0
LINE
8
15000_BACK
62
7
6
CONTINUOUS
10
380.6330476654
20
289.6650750292
11
380.6330476654
21
294.3715710292
0
LINE
8
15000_BACK
62
7
6
CONTINUOUS
10
380.6330476654
20
295.0650360292
11
380.6330476654
21
299.7715320292
0
LINE
8
15000_BACK
62
7
6
CONTINUOUS
10
380.6330476654
20
300.4650460292
11
380.6330476654
21
305.1715420292
0
LINE
8
15000_BACK
62
7
6
CONTINUOUS
10
380.6330476654
20
305.8650550292
11
380.6330476654
21
310.5715510292
0
LINE
8
15000_BACK
62
7
6
CONTINUOUS
10
380.6330476654
20
311.2650650292
11
380.6330476654
21
315.9715600292
0
LINE
8
15000_BACK
62
7
6
CONTINUOUS
10
380.6330476654
20
316.6650740292
11
380.6330476654
21
321.3715700292
0
LINE
8
15000_BACK
62
7
6
CONTINUOUS
10
380.6330476654
20
322.0650350292
11
380.6330476654
21
326.5353530292
0
LINE
8
15000_BACK
62
7
6
CONTINUOUS
10
381.8689706654
20
327.2200020292
11
381.8689706654
21
328.6700100292
0
LINE
8
15000_BACK
62
7
6
CONTINUOUS
10
382.5189796654
20
211.0901250292
11
382.5189796654
21
217.2200310292
0
LINE
8
15000_BACK
62
7
6
CONTINUOUS
10
385.2037476654
20
209.6200110292
11
385.6860336654
21
211.4199980292
0
LINE
8
15000_BACK
62
7
6
CONTINUOUS
10
393.7189736654
20
210.6199980292
11
394.5710056654
21
211.4199980292
0
LINE
8
10500_FRONT_LABELING
62
7
6
CONTINUOUS
10
159.8033256654
20
244.4186593555
11
159.5973426654
21
244.3606203555
0
LINE
8
10500_FRONT_LABELING
62
7
6
CONTINUOUS
10
182.4142266654
20
277.9551773555
11
182.5416906654
21
277.9726183555
0
LINE
8
10500_FRONT_LABELING
62
7
6
CONTINUOUS
10
182.4140086654
20
278.6454933555
11
182.2865456654
21
278.6280533555
0
LINE
8
10500_FRONT_LABELING
62
7
6
CONTINUOUS
10
181.5816226654
20
265.9587683555
11
181.8175826654
21
265.9806173555
0
LINE
8
10500_FRONT_LABELING
62
7
6
CONTINUOUS
10
181.0667556654
20
271.3587773555
11
181.3027156654
21
271.3806273555
0
LINE
8
10500_FRONT_LABELING
62
7
6
CONTINUOUS
10
182.5667616654
20
277.5997243555
11
182.3745496654
21
277.5824773555
0
LINE
8
10500_FRONT_LABELING
62
7
6
CONTINUOUS
10
158.8792536654
20
277.4824833555
11
159.0714536654
21
277.4997303555
0
LINE
8
10500_FRONT_LABELING
62
7
6
CONTINUOUS
10
182.3987486654
20
277.2324013555
11
182.5273256654
21
277.2436413555
0
LINE
8
10500_FRONT_LABELING
62
7
6
CONTINUOUS
10
181.1323046654
20
272.6318103555
11
180.9766696654
21
272.6254153555
0
LINE
8
10500_FRONT_LABELING
62
7
6
CONTINUOUS
10
181.2276476654
20
271.7445103555
11
181.0318256654
21
271.7372433555
0
LINE
8
10000_FRONT
62
7
6
CONTINUOUS
10
177.0913446654
20
276.8554383555
11
173.7520866654
21
276.8554383555
0
LINE
8
10000_FRONT
62
7
6
CONTINUOUS
10
164.0913636654
20
276.8554383555
11
167.4305976654
21
276.8554383555
0
LINE
8
10500_FRONT_LABELING
62
7
6
CONTINUOUS
10
181.7213426654
20
276.8582483555
11
180.4966596654
21
276.8582483555
0
LINE
8
10000_FRONT
62
7
6
CONTINUOUS
10
168.5913546654
20
276.8837793555
11
172.5913526654
21
276.8837793555
0
LINE
8
10500_FRONT_LABELING
62
7
6
CONTINUOUS
10
180.9702746654
20
277.2317723555
11
181.7213426654
21
277.2317723555
0
LINE
8
10500_FRONT_LABELING
62
7
6
CONTINUOUS
10
158.6475336654
20
277.3870913555
11
158.3600396654
21
277.3870913555
0
LINE
8
10500_FRONT_LABELING
62
7
6
CONTINUOUS
10
181.8553466654
20
277.4870853555
11
182.1428536654
21
277.4870853555
0
LINE
8
15000_BACK
62
7
6
CONTINUOUS
10
380.6330476654
20
278.1715430292
11
382.7048696654
21
278.1715430292
0
LINE
8
15000_BACK
62
7
6
CONTINUOUS
10
395.2330776654
20
278.1715430292
11
397.3048496654
21
278.1715430292
0
LINE
8
10500_FRONT_LABELING
62
7
6
CONTINUOUS
10
180.7928386654
20
278.3901793555
11
180.5111216654
21
278.3901793555
0
LINE
8
10000_FRONT
62
7
6
CONTINUOUS
10
168.5913546654
20
278.7837603555
11
172.5913526654
21
278.7837603555
0
LINE
8
10000_FRONT
62
7
6
CONTINUOUS
10
167.4305976654
20
278.8120533555
11
164.0913636654
21
278.8120533555
0
LINE
8
10000_FRONT
62
7
6
CONTINUOUS
10
173.7520866654
20
278.8120533555
11
177.0913446654
21
278.8120533555
0
LINE
8
15000_BACK
62
7
6
CONTINUOUS
10
397.3048496654
20
278.8650570292
11
395.2330776654
21
278.8650570292
0
LINE
8
15000_BACK
62
7
6
CONTINUOUS
10
382.7048696654
20
278.8650570292
11
380.6330476654
21
278.8650570292
0
LINE
8
10000_FRONT
62
7
6
CONTINUOUS
10
177.0913446654
20
282.2554473555
11
173.7520866654
21
282.2554473555
0
LINE
8
10000_FRONT
62
7
6
CONTINUOUS
10
164.0913636654
20
282.2554473555
11
167.4305976654
21
282.2554473555
0
LINE
8
10500_FRONT_LABELING
62
7
6
CONTINUOUS
10
181.7213426654
20
282.2582573555
11
180.4966596654
21
282.2582573555
0
LINE
8
10000_FRONT
62
7
6
CONTINUOUS
10
168.5913546654
20
282.2837403555
11
172.5913526654
21
282.2837403555
0
LINE
8
10500_FRONT_LABELING
62
7
6
CONTINUOUS
10
180.9702746654
20
282.6317813555
11
181.7213426654
21
282.6317813555
0
LINE
8
15000_BACK
62
7
6
CONTINUOUS
10
380.6330476654
20
283.5715520292
11
382.7048696654
21
283.5715520292
0
LINE
8
15000_BACK
62
7
6
CONTINUOUS
10
395.2330776654
20
283.5715520292
11
397.3048496654
21
283.5715520292
0
LINE
8
10500_FRONT_LABELING
62
7
6
CONTINUOUS
10
180.7928386654
20
283.7901403555
11
180.5111216654
21
283.7901403555
0
LINE
8
10000_FRONT
62
7
6
CONTINUOUS
10
170.9913536654
20
284.1837703555
11
170.1913546654
21
284.1837703555
0
LINE
8
10000_FRONT
62
7
6
CONTINUOUS
10
167.4305976654
20
284.2120623555
11
164.0913636654
21
284.2120623555
0
LINE
8
10000_FRONT
62
7
6
CONTINUOUS
10
173.7520866654
20
284.2120623555
11
177.0913446654
21
284.2120623555
0
LINE
8
15000_BACK
62
7
6
CONTINUOUS
10
397.3048496654
20
284.2650660292
11
395.2330776654
21
284.2650660292
0
LINE
8
15000_BACK
62
7
6
CONTINUOUS
10
382.7048696654
20
284.2650660292
11
380.6330476654
21
284.2650660292
0
LINE
8
10000_FRONT
62
7
6
CONTINUOUS
10
168.5913546654
20
284.4724153555
11
170.1913546654
21
284.4724153555
0
LINE
8
10000_FRONT
62
7
6
CONTINUOUS
10
170.9913536654
20
284.4724153555
11
172.5913526654
21
284.4724153555
0
LINE
8
10500_FRONT_LABELING
62
7
6
CONTINUOUS
10
158.5894946654
20
287.5582243555
11
158.9239336654
21
287.5582243555
0
LINE
8
10000_FRONT
62
7
6
CONTINUOUS
10
177.0913446654
20
287.6554573555
11
173.7520866654
21
287.6554573555
0
LINE
8
10000_FRONT
62
7
6
CONTINUOUS
10
164.0913636654
20
287.6554573555
11
167.4305976654
21
287.6554573555
0
LINE
8
10500_FRONT_LABELING
62
7
6
CONTINUOUS
10
182.4192416654
20
287.6582673555
11
182.0848136654
21
287.6582673555
0
LINE
8
10500_FRONT_LABELING
62
7
6
CONTINUOUS
10
181.7213426654
20
287.6582673555
11
180.4966596654
21
287.6582673555
0
LINE
8
10500_FRONT_LABELING
62
7
6
CONTINUOUS
10
180.9702746654
20
288.0317903555
11
181.7213426654
21
288.0317903555
0
LINE
8
15000_BACK
62
7
6
CONTINUOUS
10
380.6330476654
20
288.9715620292
11
382.7048696654
21
288.9715620292
0
LINE
8
15000_BACK
62
7
6
CONTINUOUS
10
395.2330776654
20
288.9715620292
11
397.3048496654
21
288.9715620292
0
LINE
8
10500_FRONT_LABELING
62
7
6
CONTINUOUS
10
180.7928386654
20
289.1901503555
11
180.5111216654
21
289.1901503555
0
LINE
8
10500_FRONT_LABELING
62
7
6
CONTINUOUS
10
158.3213546654
20
289.3454703555
11
159.1894946654
21
289.3454703555
0
LINE
8
10500_FRONT_LABELING
62
7
6
CONTINUOUS
10
182.6848016654
20
289.4454643555
11
181.8166616654
21
289.4454643555
0
LINE
8
10000_FRONT
62
7
6
CONTINUOUS
10
167.4305976654
20
289.6120723555
11
164.0913636654
21
289.6120723555
0
LINE
8
10000_FRONT
62
7
6
CONTINUOUS
10
173.7520866654
20
289.6120723555
11
177.0913446654
21
289.6120723555
0
LINE
8
15000_BACK
62
7
6
CONTINUOUS
10
397.3048496654
20
289.6650750292
11
395.2330776654
21
289.6650750292
0
LINE
8
15000_BACK
62
7
6
CONTINUOUS
10
382.7048696654
20
289.6650750292
11
380.6330476654
21
289.6650750292
0
LINE
8
10500_FRONT_LABELING
62
7
6
CONTINUOUS
10
159.5460496654
20
289.7189943555
11
158.3213546654
21
289.7189943555
0
LINE
8
10500_FRONT_LABELING
62
7
6
CONTINUOUS
10
181.8166616654
20
289.8190363555
11
183.0413446654
21
289.8190363555
0
LINE
8
11000_LEFT
62
7
6
CONTINUOUS
10
273.9573666654
20
292.4199940292
11
277.9573646654
21
292.4199940292
0
LINE
8
10000_FRONT
62
7
6
CONTINUOUS
10
177.0913446654
20
293.0554663555
11
173.7520866654
21
293.0554663555
0
LINE
8
10000_FRONT
62
7
6
CONTINUOUS
10
164.0913636654
20
293.0554663555
11
167.4305976654
21
293.0554663555
0
LINE
8
10500_FRONT_LABELING
62
7
6
CONTINUOUS
10
181.6972406654
20
293.0850193555
11
180.5207866654
21
293.0850193555
0
LINE
8
10500_FRONT_LABELING
62
7
6
CONTINUOUS
10
180.9164986654
20
293.4050093555
11
181.6972406654
21
293.4050093555
0
LINE
8
15000_BACK
62
7
6
CONTINUOUS
10
380.6330476654
20
294.3715710292
11
382.7048696654
21
294.3715710292
0
LINE
8
15000_BACK
62
7
6
CONTINUOUS
10
395.2330776654
20
294.3715710292
11
397.3048496654
21
294.3715710292
0
LINE
8
10500_FRONT_LABELING
62
7
6
CONTINUOUS
10
159.4761406654
20
294.5169563555
11
159.2344766654
21
294.5169563555
0
LINE
8
10500_FRONT_LABELING
62
7
6
CONTINUOUS
10
182.9714366654
20
294.6169503555
11
182.7297846654
21
294.6169503555
0
LINE
8
10500_FRONT_LABELING
62
7
6
CONTINUOUS
10
180.7782316654
20
294.6169503555
11
180.5404076654
21
294.6169503555
0
LINE
8
10000_FRONT
62
7
6
CONTINUOUS
10
167.4305976654
20
295.0120333555
11
164.0913636654
21
295.0120333555
0
LINE
8
10000_FRONT
62
7
6
CONTINUOUS
10
173.7520866654
20
295.0120333555
11
177.0913446654
21
295.0120333555
0
LINE
8
15000_BACK
62
7
6
CONTINUOUS
10
397.3048496654
20
295.0650360292
11
395.2330776654
21
295.0650360292
0
LINE
8
15000_BACK
62
7
6
CONTINUOUS
10
382.7048696654
20
295.0650360292
11
380.6330476654
21
295.0650360292
0
LINE
8
10500_FRONT_LABELING
62
7
6
CONTINUOUS
10
180.9873036654
20
279.0024003555
11
181.2991786654
21
278.9973133555
0
LINE
8
10500_FRONT_LABELING
62
7
6
CONTINUOUS
10
180.9873036654
20
284.4024093555
11
181.2991786654
21
284.3973223555
0
LINE
8
10500_FRONT_LABELING
62
7
6
CONTINUOUS
10
180.9873036654
20
289.8024193555
11
181.2991786654
21
289.7972833555
0
LINE
8
10500_FRONT_LABELING
62
7
6
CONTINUOUS
10
181.2653386654
20
294.8405323555
11
180.9655026654
21
294.8457153555
0
LINE
8
10500_FRONT_LABELING
62
7
6
CONTINUOUS
10
181.2611726654
20
278.6141003555
11
180.9689176654
21
278.6192843555
0
LINE
8
10500_FRONT_LABELING
62
7
6
CONTINUOUS
10
181.2611726654
20
284.0141093555
11
180.9689176654
21
284.0192933555
0
LINE
8
10500_FRONT_LABELING
62
7
6
CONTINUOUS
10
181.2611726654
20
289.4140703555
11
180.9689176654
21
289.4193033555
0
LINE
8
10500_FRONT_LABELING
62
7
6
CONTINUOUS
10
181.0366226654
20
295.1841643555
11
181.3413276654
21
295.1574213555
0
LINE
8
10500_FRONT_LABELING
62
7
6
CONTINUOUS
10
181.0366226654
20
300.5841733555
11
181.3413276654
21
300.5573823555
0
LINE
8
10500_FRONT_LABELING
62
7
6
CONTINUOUS
10
181.0366226654
20
305.9841833555
11
181.3413276654
21
305.9573923555
0
LINE
8
10500_FRONT_LABELING
62
7
6
CONTINUOUS
10
159.0692016654
20
294.7459153555
11
158.8570536654
21
294.7666513555
0
LINE
8
10500_FRONT_LABELING
62
7
6
CONTINUOUS
10
182.5645086654
20
294.8459093555
11
182.3523606654
21
294.8666443555
0
LINE
8
10500_FRONT_LABELING
62
7
6
CONTINUOUS
10
159.1378256654
20
311.3666553555
11
158.8458496654
21
311.4014393555
0
LINE
8
10500_FRONT_LABELING
62
7
6
CONTINUOUS
10
182.3060456654
20
293.4248723555
11
182.4438526654
21
293.4050093555
0
LINE
8
10500_FRONT_LABELING
62
7
6
CONTINUOUS
10
182.5816826654
20
294.1288503555
11
182.4439976654
21
294.1488593555
0
LINE
8
10000_FRONT
62
7
6
CONTINUOUS
10
170.0913606654
20
305.8009093555
11
169.4928256654
21
305.9061353555
0
LINE
8
10000_FRONT
62
7
6
CONTINUOUS
10
171.0913476654
20
309.2911033555
11
171.6898816654
21
309.1858773555
0
LINE
8
10000_FRONT
62
7
6
CONTINUOUS
10
168.6163536654
20
322.0614963555
11
168.0423336654
21
322.1753453555
0
LINE
8
10500_FRONT_LABELING
62
7
6
CONTINUOUS
10
182.1596156654
20
309.3133403555
11
182.3867336654
21
309.2587893555
0
LINE
8
10500_FRONT_LABELING
62
7
6
CONTINUOUS
10
166.2273276654
20
312.8245552263
11
165.9529376654
21
312.8958682263
0
LINE
8
10500_FRONT_LABELING
62
7
6
CONTINUOUS
10
174.3438746654
20
312.8245552263
11
174.0694726654
21
312.8958682263
0
LINE
8
10000_FRONT
62
7
6
CONTINUOUS
10
175.4575056654
20
330.4884523555
11
175.2394226654
21
330.5535643555
0
LINE
8
90000_FRAME
62
7
6
CONTINUOUS
10
482.9491910000
20
21.5500140000
11
484.6366010000
21
18.6029870000
0
LINE
8
90000_FRAME
62
7
6
CONTINUOUS
10
484.0662090000
20
16.7967450000
11
482.3550320000
21
19.8388370000
0
LINE
8
90000_FRAME
62
7
6
CONTINUOUS
10
472.3969330000
20
16.7492120000
11
471.0660180000
21
19.8388370000
0
LINE
8
15000_BACK
62
7
6
CONTINUOUS
10
382.7048696654
20
326.5353530292
11
382.7048696654
21
322.0650350292
0
LINE
8
15000_BACK
62
7
6
CONTINUOUS
10
382.7048696654
20
321.3715700292
11
382.7048696654
21
316.6650740292
0
LINE
8
15000_BACK
62
7
6
CONTINUOUS
10
382.7048696654
20
315.9715600292
11
382.7048696654
21
311.2650650292
0
LINE
8
15000_BACK
62
7
6
CONTINUOUS
10
382.7048696654
20
310.5715510292
11
382.7048696654
21
305.8650550292
0
LINE
8
15000_BACK
62
7
6
CONTINUOUS
10
382.7048696654
20
305.1715420292
11
382.7048696654
21
300.4650460292
0
LINE
8
15000_BACK
62
7
6
CONTINUOUS
10
382.7048696654
20
299.7715320292
11
382.7048696654
21
295.0650360292
0
LINE
8
15000_BACK
62
7
6
CONTINUOUS
10
382.7048696654
20
294.3715710292
11
382.7048696654
21
289.6650750292
0
LINE
8
15000_BACK
62
7
6
CONTINUOUS
10
382.7048696654
20
288.9715620292
11
382.7048696654
21
284.2650660292
0
LINE
8
15000_BACK
62
7
6
CONTINUOUS
10
382.7048696654
20
283.5715520292
11
382.7048696654
21
278.8650570292
0
LINE
8
15000_BACK
62
7
6
CONTINUOUS
10
382.7048696654
20
278.1715430292
11
382.7048696654
21
273.4650470292
0
LINE
8
15000_BACK
62
7
6
CONTINUOUS
10
382.7048696654
20
272.7715330292
11
382.7048696654
21
268.0650380292
0
LINE
8
15000_BACK
62
7
6
CONTINUOUS
10
382.7048696654
20
267.3715240292
11
382.7048696654
21
262.6650770292
0
LINE
8
15000_BACK
62
7
6
CONTINUOUS
10
382.7048696654
20
261.9715630292
11
382.7048696654
21
257.2650670292
0
LINE
8
15000_BACK
62
7
6
CONTINUOUS
10
382.7048696654
20
256.5715530292
11
382.7048696654
21
251.8650580292
0
LINE
8
15000_BACK
62
7
6
CONTINUOUS
10
382.7048696654
20
251.1715440292
11
382.7048696654
21
246.4650480292
0
LINE
8
15000_BACK
62
7
6
CONTINUOUS
10
382.7048696654
20
245.7715340292
11
382.7048696654
21
241.0650390292
0
LINE
8
15000_BACK
62
7
6
CONTINUOUS
10
382.7048696654
20
240.3715250292
11
382.7048696654
21
235.6650780292
0
LINE
8
15000_BACK
62
7
6
CONTINUOUS
10
382.7048696654
20
234.9715640292
11
382.7048696654
21
230.2650680292
0
LINE
8
15000_BACK
62
7
6
CONTINUOUS
10
382.7048696654
20
229.5465560292
11
382.7048696654
21
224.3650410292
0
LINE
8
15000_BACK
62
7
6
CONTINUOUS
10
382.7048696654
20
223.6465290292
11
382.7048696654
21
218.4650620292
0
LINE
8
15000_BACK
62
7
6
CONTINUOUS
10
382.8439596654
20
328.0200010292
11
382.8439596654
21
327.3199950292
0
LINE
8
15000_BACK
62
7
6
CONTINUOUS
10
383.2689816654
20
223.2200040292
11
383.2689816654
21
217.2200310292
0
LINE
8
15000_BACK
62
7
6
CONTINUOUS
10
384.2189726654
20
328.6700100292
11
384.2189726654
21
328.0199530292
0
LINE
8
15000_BACK
62
7
6
CONTINUOUS
10
384.2189726654
20
327.3199470292
11
384.2189726654
21
323.1200100292
0
LINE
8
15000_BACK
62
7
6
CONTINUOUS
10
384.2189726654
20
210.6199980292
11
384.2189726654
21
209.6200110292
0
LINE
8
15000_BACK
62
7
6
CONTINUOUS
10
384.3689636654
20
328.0200010292
11
384.3689636654
21
329.5200070292
0
LINE
8
15000_BACK
62
7
6
CONTINUOUS
10
384.5359586654
20
330.9096500292
11
384.5359586654
21
330.9452590292
0
LINE
8
15000_BACK
62
7
6
CONTINUOUS
10
385.2689566654
20
223.2200040292
11
385.2689566654
21
321.6200040292
0
LINE
8
15000_BACK
62
7
6
CONTINUOUS
10
385.3189536654
20
327.3199950292
11
385.3189536654
21
325.7199960292
0
LINE
8
15000_BACK
62
7
6
CONTINUOUS
10
385.9689626654
20
323.6200280292
11
385.9689626654
21
321.6200040292
0
LINE
8
15000_BACK
62
7
6
CONTINUOUS
10
386.9189526654
20
287.1700240292
11
386.9189526654
21
284.6700320292
0
LINE
8
15000_BACK
62
7
6
CONTINUOUS
10
386.9689496654
20
323.1200100292
11
386.9689496654
21
323.6200280292
0
LINE
8
15000_BACK
62
7
6
CONTINUOUS
10
387.3189766654
20
330.9452590292
11
387.3189766654
21
325.7199960292
0
LINE
8
15000_BACK
62
7
6
CONTINUOUS
10
388.4689556654
20
323.6200280292
11
388.4689556654
21
323.1200100292
0
LINE
8
15000_BACK
62
7
6
CONTINUOUS
10
388.7189886654
20
327.2200020292
11
388.7189886654
21
326.0700230292
0
LINE
8
15000_BACK
62
7
6
CONTINUOUS
10
389.2189576654
20
326.0700230292
11
389.2189576654
21
327.2200020292
0
LINE
8
15000_BACK
62
7
6
CONTINUOUS
10
389.4689916654
20
323.1200100292
11
389.4689916654
21
323.6200280292
0
LINE
8
15000_BACK
62
7
6
CONTINUOUS
10
390.6189696654
20
330.9452590292
11
390.6189696654
21
325.7199960292
0
LINE
8
15000_BACK
62
7
6
CONTINUOUS
10
390.9689476654
20
323.6200280292
11
390.9689476654
21
323.1200100292
0
LINE
8
15000_BACK
62
7
6
CONTINUOUS
10
391.0189446654
20
284.6700320292
11
391.0189446654
21
287.1700240292
0
LINE
8
15000_BACK
62
7
6
CONTINUOUS
10
391.9689836654
20
321.6200040292
11
391.9689836654
21
323.6200280292
0
LINE
8
15000_BACK
62
7
6
CONTINUOUS
10
392.6189446654
20
327.3199950292
11
392.6189446654
21
325.7199960292
0
LINE
8
15000_BACK
62
7
6
CONTINUOUS
10
392.6689896654
20
321.6200040292
11
392.6689896654
21
223.2200040292
0
LINE
8
15000_BACK
62
7
6
CONTINUOUS
10
393.4019876654
20
330.9452590292
11
393.4019876654
21
330.9096500292
0
LINE
8
15000_BACK
62
7
6
CONTINUOUS
10
393.5689826654
20
328.0200010292
11
393.5689826654
21
329.5200070292
0
LINE
8
15000_BACK
62
7
6
CONTINUOUS
10
393.7189736654
20
209.6200110292
11
393.7189736654
21
210.6199980292
0
LINE
8
15000_BACK
62
7
6
CONTINUOUS
10
393.7189736654
20
323.1200100292
11
393.7189736654
21
327.3199470292
0
LINE
8
15000_BACK
62
7
6
CONTINUOUS
10
393.7189736654
20
328.0199530292
11
393.7189736654
21
328.6700100292
0
LINE
8
15000_BACK
62
7
6
CONTINUOUS
10
394.6689646654
20
223.2200040292
11
394.6689646654
21
217.2200310292
0
LINE
8
15000_BACK
62
7
6
CONTINUOUS
10
395.0939866654
20
328.0200010292
11
395.0939866654
21
327.3199950292
0
LINE
8
15000_BACK
62
7
6
CONTINUOUS
10
395.2330776654
20
218.4650620292
11
395.2330776654
21
223.6465290292
0
LINE
8
15000_BACK
62
7
6
CONTINUOUS
10
395.2330776654
20
224.3650410292
11
395.2330776654
21
229.5465560292
0
LINE
8
15000_BACK
62
7
6
CONTINUOUS
10
395.2330776654
20
230.2650680292
11
395.2330776654
21
234.9715640292
0
LINE
8
15000_BACK
62
7
6
CONTINUOUS
10
395.2330776654
20
235.6650780292
11
395.2330776654
21
240.3715250292
0
LINE
8
15000_BACK
62
7
6
CONTINUOUS
10
395.2330776654
20
241.0650390292
11
395.2330776654
21
245.7715340292
0
LINE
8
15000_BACK
62
7
6
CONTINUOUS
10
395.2330776654
20
246.4650480292
11
395.2330776654
21
251.1715440292
0
LINE
8
15000_BACK
62
7
6
CONTINUOUS
10
395.2330776654
20
251.8650580292
11
395.2330776654
21
256.5715530292
0
LINE
8
15000_BACK
62
7
6
CONTINUOUS
10
395.2330776654
20
257.2650670292
11
395.2330776654
21
261.9715630292
0
LINE
8
15000_BACK
62
7
6
CONTINUOUS
10
395.2330776654
20
262.6650770292
11
395.2330776654
21
267.3715240292
0
LINE
8
15000_BACK
62
7
6
CONTINUOUS
10
395.2330776654
20
268.0650380292
11
395.2330776654
21
272.7715330292
0
LINE
8
15000_BACK
62
7
6
CONTINUOUS
10
395.2330776654
20
273.4650470292
11
395.2330776654
21
278.1715430292
0
LINE
8
15000_BACK
62
7
6
CONTINUOUS
10
395.2330776654
20
278.8650570292
11
395.2330776654
21
283.5715520292
0
LINE
8
15000_BACK
62
7
6
CONTINUOUS
10
395.2330776654
20
284.2650660292
11
395.2330776654
21
288.9715620292
0
LINE
8
15000_BACK
62
7
6
CONTINUOUS
10
395.2330776654
20
289.6650750292
11
395.2330776654
21
294.3715710292
0
LINE
8
15000_BACK
62
7
6
CONTINUOUS
10
395.2330776654
20
295.0650360292
11
395.2330776654
21
299.7715320292
0
LINE
8
15000_BACK
62
7
6
CONTINUOUS
10
395.2330776654
20
300.4650460292
11
395.2330776654
21
305.1715420292
0
LINE
8
15000_BACK
62
7
6
CONTINUOUS
10
395.2330776654
20
305.8650550292
11
395.2330776654
21
310.5715510292
0
LINE
8
15000_BACK
62
7
6
CONTINUOUS
10
395.2330776654
20
311.2650650292
11
395.2330776654
21
315.9715600292
0
LINE
8
15000_BACK
62
7
6
CONTINUOUS
10
395.2330776654
20
316.6650740292
11
395.2330776654
21
321.3715700292
0
LINE
8
15000_BACK
62
7
6
CONTINUOUS
10
395.2330776654
20
322.0650350292
11
395.2330776654
21
326.5353530292
0
LINE
8
15000_BACK
62
7
6
CONTINUOUS
10
395.4189666654
20
211.0901250292
11
395.4189666654
21
217.2200310292
0
LINE
8
15000_BACK
62
7
6
CONTINUOUS
10
396.0689756654
20
328.6700100292
11
396.0689756654
21
327.2200020292
0
LINE
8
15000_BACK
62
7
6
CONTINUOUS
10
397.3048496654
20
326.5353530292
11
397.3048496654
21
322.0650350292
0
LINE
8
15000_BACK
62
7
6
CONTINUOUS
10
397.3048496654
20
321.3715700292
11
397.3048496654
21
316.6650740292
0
LINE
8
15000_BACK
62
7
6
CONTINUOUS
10
397.3048496654
20
315.9715600292
11
397.3048496654
21
311.2650650292
0
LINE
8
15000_BACK
62
7
6
CONTINUOUS
10
397.3048496654
20
310.5715510292
11
397.3048496654
21
305.8650550292
0
LINE
8
15000_BACK
62
7
6
CONTINUOUS
10
397.3048496654
20
305.1715420292
11
397.3048496654
21
300.4650460292
0
LINE
8
15000_BACK
62
7
6
CONTINUOUS
10
397.3048496654
20
299.7715320292
11
397.3048496654
21
295.0650360292
0
LINE
8
15000_BACK
62
7
6
CONTINUOUS
10
397.3048496654
20
294.3715710292
11
397.3048496654
21
289.6650750292
0
LINE
8
15000_BACK
62
7
6
CONTINUOUS
10
397.3048496654
20
288.9715620292
11
397.3048496654
21
284.2650660292
0
LINE
8
15000_BACK
62
7
6
CONTINUOUS
10
397.3048496654
20
283.5715520292
11
397.3048496654
21
278.8650570292
0
LINE
8
15000_BACK
62
7
6
CONTINUOUS
10
397.3048496654
20
278.1715430292
11
397.3048496654
21
273.4650470292
0
LINE
8
15000_BACK
62
7
6
CONTINUOUS
10
397.3048496654
20
272.7715330292
11
397.3048496654
21
268.0650380292
0
LINE
8
15000_BACK
62
7
6
CONTINUOUS
10
397.3048496654
20
267.3715240292
11
397.3048496654
21
262.6650770292
0
LINE
8
15000_BACK
62
7
6
CONTINUOUS
10
397.3048496654
20
261.9715630292
11
397.3048496654
21
257.2650670292
0
LINE
8
15000_BACK
62
7
6
CONTINUOUS
10
397.3048496654
20
256.5715530292
11
397.3048496654
21
251.8650580292
0
LINE
8
15000_BACK
62
7
6
CONTINUOUS
10
397.3048496654
20
251.1715440292
11
397.3048496654
21
246.4650480292
0
LINE
8
15000_BACK
62
7
6
CONTINUOUS
10
397.3048496654
20
245.7715340292
11
397.3048496654
21
241.0650390292
0
LINE
8
15000_BACK
62
7
6
CONTINUOUS
10
397.3048496654
20
240.3715250292
11
397.3048496654
21
235.6650780292
0
LINE
8
15000_BACK
62
7
6
CONTINUOUS
10
397.3048496654
20
234.9715640292
11
397.3048496654
21
230.2650680292
0
LINE
8
15000_BACK
62
7
6
CONTINUOUS
10
397.3048496654
20
229.5465560292
11
397.3048496654
21
224.3650410292
0
LINE
8
15000_BACK
62
7
6
CONTINUOUS
10
397.3048496654
20
223.6465290292
11
397.3048496654
21
218.4650620292
0
LINE
8
15000_BACK
62
7
6
CONTINUOUS
10
397.6989636654
20
329.5200070292
11
397.6989636654
21
329.1200310292
0
LINE
8
15000_BACK
62
7
6
CONTINUOUS
10
397.7689686654
20
327.2200020292
11
397.7689686654
21
329.1200310292
0
LINE
8
15000_BACK
62
7
6
CONTINUOUS
10
397.8939616654
20
218.1519510292
11
397.8939616654
21
326.2200140292
0
LINE
8
15000_BACK
62
7
6
CONTINUOUS
10
398.8689506654
20
326.2200140292
11
398.8689506654
21
217.6644330292
0
LINE
8
15000_BACK
62
7
6
CONTINUOUS
10
398.9689436654
20
200.4949870292
11
398.9689436654
21
204.8489840292
0
LINE
8
15000_BACK
62
7
6
CONTINUOUS
10
398.9689436654
20
204.8575110292
11
398.9689436654
21
216.4199830292
0
LINE
8
15000_BACK
62
7
6
CONTINUOUS
10
400.8189766654
20
317.5955410292
11
400.8189766654
21
329.1200310292
0
LINE
8
15000_BACK
62
7
6
CONTINUOUS
10
401.6689726654
20
326.9200200292
11
401.6689726654
21
203.8950210292
0
LINE
8
10500_FRONT_LABELING
62
7
6
CONTINUOUS
10
182.1288276654
20
278.9323463555
11
182.5449846654
21
279.0067603555
0
LINE
8
10500_FRONT_LABELING
62
7
6
CONTINUOUS
10
159.0496776654
20
278.9067663555
11
158.6335206654
21
278.8323523555
0
LINE
8
10500_FRONT_LABELING
62
7
6
CONTINUOUS
10
182.4439976654
20
294.1488593555
11
182.3063366654
21
294.1288503555
0
LINE
8
10500_FRONT_LABELING
62
7
6
CONTINUOUS
10
158.9487026654
20
294.0488653555
11
158.8110286654
21
294.0288563555
0
LINE
8
10500_FRONT_LABELING
62
7
6
CONTINUOUS
10
158.9485446654
20
293.3049673555
11
159.0863516654
21
293.3248783555
0
LINE
8
10500_FRONT_LABELING
62
7
6
CONTINUOUS
10
182.4438526654
20
293.4050093555
11
182.5816586654
21
293.4248723555
0
LINE
8
10500_FRONT_LABELING
62
7
6
CONTINUOUS
10
158.9189196654
20
277.8551833555
11
159.0463946654
21
277.8726243555
0
LINE
8
10500_FRONT_LABELING
62
7
6
CONTINUOUS
10
158.9187016654
20
278.5454993555
11
158.7912506654
21
278.5280593555
0
LINE
8
10500_FRONT_LABELING
62
7
6
CONTINUOUS
10
182.4770136654
20
299.8676963555
11
182.2694196654
21
299.8504973555
0
LINE
8
10500_FRONT_LABELING
62
7
6
CONTINUOUS
10
159.0116946654
20
299.7677023555
11
158.8041256654
21
299.7505033555
0
LINE
8
11000_LEFT
62
7
6
CONTINUOUS
10
304.3920146654
20
303.7488570292
11
304.1427086654
21
303.7301570292
0
LINE
8
11000_LEFT
62
7
6
CONTINUOUS
10
304.2548386654
20
302.2343660292
11
307.1467156654
21
302.4511170292
0
LINE
8
11000_LEFT
62
7
6
CONTINUOUS
10
307.0346106654
20
303.9469070292
11
306.7853036654
21
303.9282550292
0
LINE
8
10500_FRONT_LABELING
62
7
6
CONTINUOUS
10
182.5767896654
20
293.0986813555
11
182.3670646654
21
293.0897673555
0
LINE
8
10500_FRONT_LABELING
62
7
6
CONTINUOUS
10
159.0814826654
20
292.9986873555
11
158.8717686654
21
292.9897733555
0
LINE
8
10500_FRONT_LABELING
62
7
6
CONTINUOUS
10
182.4523066654
20
310.5318223555
11
182.2966716654
21
310.5253783555
0
LINE
8
10500_FRONT_LABELING
62
7
6
CONTINUOUS
10
158.9420046654
20
310.5216963555
11
158.7863576654
21
310.5152533555
0
LINE
8
10500_FRONT_LABELING
62
7
6
CONTINUOUS
10
182.5476496654
20
309.6444733555
11
182.3518276654
21
309.6372543555
0
LINE
8
10500_FRONT_LABELING
62
7
6
CONTINUOUS
10
159.0373476654
20
309.6343473555
11
158.8415146654
21
309.6271293555
0
LINE
8
10000_FRONT
62
7
6
CONTINUOUS
10
177.0913446654
20
298.4554763555
11
173.7520866654
21
298.4554763555
0
LINE
8
10000_FRONT
62
7
6
CONTINUOUS
10
164.0913636654
20
298.4554763555
11
167.4305976654
21
298.4554763555
0
LINE
8
10500_FRONT_LABELING
62
7
6
CONTINUOUS
10
181.6972406654
20
298.4850283555
11
180.5207866654
21
298.4850283555
0
LINE
8
10500_FRONT_LABELING
62
7
6
CONTINUOUS
10
180.9164986654
20
298.8049703555
11
181.6972406654
21
298.8049703555
0
LINE
8
10500_FRONT_LABELING
62
7
6
CONTINUOUS
10
158.6366086654
20
299.0028743555
11
158.3530146654
21
299.0028743555
0
LINE
8
10500_FRONT_LABELING
62
7
6
CONTINUOUS
10
182.1019156654
20
299.1028683555
11
181.8183086654
21
299.1028683555
0
LINE
8
10500_FRONT_LABELING
62
7
6
CONTINUOUS
10
158.3754696654
20
299.2786813555
11
158.6530686654
21
299.2786813555
0
LINE
8
10500_FRONT_LABELING
62
7
6
CONTINUOUS
10
181.8407636654
20
299.3786753555
11
182.1183636654
21
299.3786753555
0
LINE
8
15000_BACK
62
7
6
CONTINUOUS
10
380.6330476654
20
299.7715320292
11
382.7048696654
21
299.7715320292
0
LINE
8
15000_BACK
62
7
6
CONTINUOUS
10
395.2330776654
20
299.7715320292
11
397.3048496654
21
299.7715320292
0
LINE
8
10500_FRONT_LABELING
62
7
6
CONTINUOUS
10
180.7782316654
20
300.0169603555
11
180.5404076654
21
300.0169603555
0
LINE
8
10500_FRONT_LABELING
62
7
6
CONTINUOUS
10
158.6219296654
20
300.1722803555
11
159.4919346654
21
300.1722803555
0
LINE
8
10500_FRONT_LABELING
62
7
6
CONTINUOUS
10
182.0872366654
20
300.2722743555
11
182.9572416654
21
300.2722743555
0
LINE
8
10000_FRONT
62
7
6
CONTINUOUS
10
167.4305976654
20
300.4120423555
11
164.0913636654
21
300.4120423555
0
LINE
8
10000_FRONT
62
7
6
CONTINUOUS
10
173.7520866654
20
300.4120423555
11
177.0913446654
21
300.4120423555
0
LINE
8
15000_BACK
62
7
6
CONTINUOUS
10
397.3048496654
20
300.4650460292
11
395.2330776654
21
300.4650460292
0
LINE
8
15000_BACK
62
7
6
CONTINUOUS
10
382.7048696654
20
300.4650460292
11
380.6330476654
21
300.4650460292
0
LINE
8
10500_FRONT_LABELING
62
7
6
CONTINUOUS
10
159.4919346654
20
300.4922223555
11
158.3754696654
21
300.4922223555
0
LINE
8
10500_FRONT_LABELING
62
7
6
CONTINUOUS
10
182.9572416654
20
300.5922153555
11
181.8407636654
21
300.5922153555
0
LINE
8
10000_FRONT
62
7
6
CONTINUOUS
10
164.8913626654
20
301.9216893555
11
176.2913446654
21
301.9216893555
0
LINE
8
10000_FRONT
62
7
6
CONTINUOUS
10
176.2913446654
20
301.9230933555
11
164.8913626654
21
301.9230933555
0
LINE
8
10000_FRONT
62
7
6
CONTINUOUS
10
176.2913446654
20
303.6370883555
11
164.8913626654
21
303.6370883555
0
LINE
8
10500_FRONT_LABELING
62
7
6
CONTINUOUS
10
159.0054696654
20
303.7915843555
11
159.2819306654
21
303.7915843555
0
LINE
8
10000_FRONT
62
7
6
CONTINUOUS
10
177.0913446654
20
303.8554853555
11
175.5913396654
21
303.8554853555
0
LINE
8
10000_FRONT
62
7
6
CONTINUOUS
10
164.0913636654
20
303.8554853555
11
165.5913686654
21
303.8554853555
0
LINE
8
10500_FRONT_LABELING
62
7
6
CONTINUOUS
10
182.8372386654
20
303.8850383555
11
182.5607786654
21
303.8850383555
0
LINE
8
10500_FRONT_LABELING
62
7
6
CONTINUOUS
10
181.6972406654
20
303.8850383555
11
180.5207866654
21
303.8850383555
0
LINE
8
10500_FRONT_LABELING
62
7
6
CONTINUOUS
10
180.9164986654
20
304.2049793555
11
181.6972406654
21
304.2049793555
0
LINE
8
10500_FRONT_LABELING
62
7
6
CONTINUOUS
10
158.2854676654
20
304.3872843555
11
159.0054696654
21
304.3872843555
0
LINE
8
10500_FRONT_LABELING
62
7
6
CONTINUOUS
10
159.2819306654
20
304.3872843555
11
159.5819246654
21
304.3872843555
0
LINE
8
10500_FRONT_LABELING
62
7
6
CONTINUOUS
10
183.0172426654
20
304.4807863555
11
182.8372386654
21
304.4807863555
0
LINE
8
10500_FRONT_LABELING
62
7
6
CONTINUOUS
10
182.5607786654
20
304.4807863555
11
181.8407636654
21
304.4807863555
0
LINE
8
10500_FRONT_LABELING
62
7
6
CONTINUOUS
10
159.5819246654
20
304.7498103555
11
159.2819306654
21
304.7498103555
0
LINE
8
10500_FRONT_LABELING
62
7
6
CONTINUOUS
10
159.0054696654
20
304.7498103555
11
158.6364026654
21
304.7498103555
0
LINE
8
10500_FRONT_LABELING
62
7
6
CONTINUOUS
10
182.5607786654
20
304.8432643555
11
182.1917116654
21
304.8432643555
0
LINE
8
10500_FRONT_LABELING
62
7
6
CONTINUOUS
10
182.8372386654
20
304.8432643555
11
183.0172426654
21
304.8432643555
0
LINE
8
15000_BACK
62
7
6
CONTINUOUS
10
380.6330476654
20
305.1715420292
11
382.7048696654
21
305.1715420292
0
LINE
8
15000_BACK
62
7
6
CONTINUOUS
10
395.2330776654
20
305.1715420292
11
397.3048496654
21
305.1715420292
0
LINE
8
10500_FRONT_LABELING
62
7
6
CONTINUOUS
10
180.7782316654
20
305.4169693555
11
180.5404076654
21
305.4169693555
0
LINE
8
10000_FRONT
62
7
6
CONTINUOUS
10
171.0913476654
20
305.8009093555
11
170.0913606654
21
305.8009093555
0
LINE
8
10000_FRONT
62
7
6
CONTINUOUS
10
165.5913686654
20
305.8120523555
11
164.0913636654
21
305.8120523555
0
LINE
8
10000_FRONT
62
7
6
CONTINUOUS
10
175.5913396654
20
305.8120523555
11
177.0913446654
21
305.8120523555
0
LINE
8
15000_BACK
62
7
6
CONTINUOUS
10
397.3048496654
20
305.8650550292
11
395.2330776654
21
305.8650550292
0
LINE
8
15000_BACK
62
7
6
CONTINUOUS
10
382.7048696654
20
305.8650550292
11
380.6330476654
21
305.8650550292
0
LINE
8
10500_FRONT_LABELING
62
7
6
CONTINUOUS
10
159.2819306654
20
305.8987233555
11
159.0285056654
21
305.8987233555
0
LINE
8
10500_FRONT_LABELING
62
7
6
CONTINUOUS
10
182.5838146654
20
305.9922253555
11
182.8372386654
21
305.9922253555
0
LINE
8
11000_LEFT
62
7
6
CONTINUOUS
10
277.9573646654
20
308.4199870292
11
273.9573666654
21
308.4199870292
0
LINE
8
10000_FRONT
62
7
6
CONTINUOUS
10
177.0913446654
20
309.2554463555
11
175.5913396654
21
309.2554463555
0
LINE
8
10000_FRONT
62
7
6
CONTINUOUS
10
164.0913636654
20
309.2554463555
11
165.5913686654
21
309.2554463555
0
LINE
8
10500_FRONT_LABELING
62
7
6
CONTINUOUS
10
181.7213426654
20
309.2582563555
11
180.4966596654
21
309.2582563555
0
LINE
8
10000_FRONT
62
7
6
CONTINUOUS
10
170.0913606654
20
309.2911033555
11
171.0913476654
21
309.2911033555
0
LINE
8
10500_FRONT_LABELING
62
7
6
CONTINUOUS
10
180.9702746654
20
309.6317803555
11
181.7213426654
21
309.6317803555
0
LINE
8
10500_FRONT_LABELING
62
7
6
CONTINUOUS
10
158.5780616654
20
309.8769683555
11
158.2850316654
21
309.8769683555
0
LINE
8
10500_FRONT_LABELING
62
7
6
CONTINUOUS
10
182.0883746654
20
309.8870943555
11
181.7953456654
21
309.8870943555
0
LINE
8
15000_BACK
62
7
6
CONTINUOUS
10
380.6330476654
20
310.5715510292
11
382.7048696654
21
310.5715510292
0
LINE
8
15000_BACK
62
7
6
CONTINUOUS
10
395.2330776654
20
310.5715510292
11
397.3048496654
21
310.5715510292
0
LINE
8
10500_FRONT_LABELING
62
7
6
CONTINUOUS
10
158.3208096654
20
310.7800143555
11
158.6025386654
21
310.7800143555
0
LINE
8
10500_FRONT_LABELING
62
7
6
CONTINUOUS
10
180.7928386654
20
310.7901393555
11
180.5111216654
21
310.7901393555
0
LINE
8
10500_FRONT_LABELING
62
7
6
CONTINUOUS
10
181.8311236654
20
310.7901393555
11
182.1128406654
21
310.7901393555
0
LINE
8
10000_FRONT
62
7
6
CONTINUOUS
10
165.5913686654
20
311.2120613555
11
164.0913636654
21
311.2120613555
0
LINE
8
10000_FRONT
62
7
6
CONTINUOUS
10
175.5913396654
20
311.2120613555
11
177.0913446654
21
311.2120613555
0
LINE
8
15000_BACK
62
7
6
CONTINUOUS
10
397.3048496654
20
311.2650650292
11
395.2330776654
21
311.2650650292
0
LINE
8
15000_BACK
62
7
6
CONTINUOUS
10
382.7048696654
20
311.2650650292
11
380.6330476654
21
311.2650650292
0
LINE
8
10500_FRONT_LABELING
62
7
6
CONTINUOUS
10
169.9349626654
20
312.4847502263
11
170.2249036654
21
312.4847502263
0
LINE
8
10500_FRONT_LABELING
62
7
6
CONTINUOUS
10
167.2212836654
20
312.4989452263
11
167.6828466654
21
312.4989452263
0
LINE
8
10500_FRONT_LABELING
62
7
6
CONTINUOUS
10
167.9709466654
20
312.4989452263
11
169.0605606654
21
312.4989452263
0
LINE
8
10500_FRONT_LABELING
62
7
6
CONTINUOUS
10
169.2453726654
20
312.4989452263
11
169.5914026654
21
312.4989452263
0
LINE
8
10500_FRONT_LABELING
62
7
6
CONTINUOUS
10
170.5765046654
20
312.4989452263
11
171.0178056654
21
312.4989452263
0
LINE
8
10500_FRONT_LABELING
62
7
6
CONTINUOUS
10
171.3059056654
20
312.4989452263
11
172.3955196654
21
312.4989452263
0
LINE
8
10500_FRONT_LABELING
62
7
6
CONTINUOUS
10
172.5823906654
20
312.4989452263
11
172.9284566654
21
312.4989452263
0
LINE
8
10500_FRONT_LABELING
62
7
6
CONTINUOUS
10
173.3653486654
20
312.4989452263
11
173.8623876654
21
312.4989452263
0
LINE
8
10500_FRONT_LABELING
62
7
6
CONTINUOUS
10
172.3955196654
20
312.8508612263
11
171.7532866654
21
312.8508612263
0
LINE
8
10500_FRONT_LABELING
62
7
6
CONTINUOUS
10
169.0605606654
20
312.8508612263
11
168.4183276654
21
312.8508612263
0
LINE
8
10500_FRONT_LABELING
62
7
6
CONTINUOUS
10
168.4183276654
20
313.1118922263
11
168.9633166654
21
313.1118922263
0
LINE
8
10500_FRONT_LABELING
62
7
6
CONTINUOUS
10
171.7532866654
20
313.1118922263
11
172.2982746654
21
313.1118922263
0
LINE
8
10500_FRONT_LABELING
62
7
6
CONTINUOUS
10
172.2982746654
20
313.4125042263
11
171.7532866654
21
313.4125042263
0
LINE
8
10500_FRONT_LABELING
62
7
6
CONTINUOUS
10
168.9633166654
20
313.4125042263
11
168.4183276654
21
313.4125042263
0
LINE
8
10500_FRONT_LABELING
62
7
6
CONTINUOUS
10
168.4183276654
20
313.6574012263
11
169.0444036654
21
313.6574012263
0
LINE
8
10500_FRONT_LABELING
62
7
6
CONTINUOUS
10
171.7532866654
20
313.6574012263
11
172.3793626654
21
313.6574012263
0
LINE
8
10500_FRONT_LABELING
62
7
6
CONTINUOUS
10
173.8623876654
20
313.9802982263
11
173.5163816654
21
313.9802982263
0
LINE
8
10500_FRONT_LABELING
62
7
6
CONTINUOUS
10
173.0923886654
20
313.9802982263
11
172.5823906654
21
313.9802982263
0
LINE
8
10500_FRONT_LABELING
62
7
6
CONTINUOUS
10
172.3793626654
20
313.9802982263
11
171.3059056654
21
313.9802982263
0
LINE
8
10500_FRONT_LABELING
62
7
6
CONTINUOUS
10
171.0178056654
20
313.9802982263
11
170.4771776654
21
313.9802982263
0
LINE
8
10500_FRONT_LABELING
62
7
6
CONTINUOUS
10
169.8116656654
20
313.9802982263
11
169.2453726654
21
313.9802982263
0
LINE
8
10500_FRONT_LABELING
62
7
6
CONTINUOUS
10
169.0444036654
20
313.9802982263
11
167.9709466654
21
313.9802982263
0
LINE
8
10500_FRONT_LABELING
62
7
6
CONTINUOUS
10
167.6828466654
20
313.9802982263
11
167.2212836654
21
313.9802982263
0
LINE
8
10500_FRONT_LABELING
62
7
6
CONTINUOUS
10
159.5460496654
20
314.5582233555
11
158.3213546654
21
314.5582233555
0
LINE
8
10000_FRONT
62
7
6
CONTINUOUS
10
177.0913446654
20
314.6554563555
11
175.5913396654
21
314.6554563555
0
LINE
8
10000_FRONT
62
7
6
CONTINUOUS
10
164.0913636654
20
314.6554563555
11
165.5913686654
21
314.6554563555
0
LINE
8
10500_FRONT_LABELING
62
7
6
CONTINUOUS
10
183.0413446654
20
314.6582663555
11
181.8166616654
21
314.6582663555
0
LINE
8
10500_FRONT_LABELING
62
7
6
CONTINUOUS
10
181.7213426654
20
314.6582663555
11
180.4966596654
21
314.6582663555
0
LINE
8
10500_FRONT_LABELING
62
7
6
CONTINUOUS
10
158.7949566654
20
314.9317953555
11
159.5460496654
21
314.9317953555
0
LINE
8
10500_FRONT_LABELING
62
7
6
CONTINUOUS
10
180.9702746654
20
315.0317893555
11
181.7213426654
21
315.0317893555
0
LINE
8
10500_FRONT_LABELING
62
7
6
CONTINUOUS
10
182.2902516654
20
315.0317893555
11
183.0413446654
21
315.0317893555
0
LINE
8
15000_BACK
62
7
6
CONTINUOUS
10
380.6330476654
20
315.9715600292
11
382.7048696654
21
315.9715600292
0
LINE
8
15000_BACK
62
7
6
CONTINUOUS
10
395.2330776654
20
315.9715600292
11
397.3048496654
21
315.9715600292
0
LINE
8
10500_FRONT_LABELING
62
7
6
CONTINUOUS
10
158.6175336654
20
316.0901553555
11
158.3358156654
21
316.0901553555
0
LINE
8
10500_FRONT_LABELING
62
7
6
CONTINUOUS
10
182.1128406654
20
316.1901493555
11
181.8311236654
21
316.1901493555
0
LINE
8
10500_FRONT_LABELING
62
7
6
CONTINUOUS
10
180.7928386654
20
316.1901493555
11
180.5111216654
21
316.1901493555
0
LINE
8
10500_FRONT_LABELING
62
7
6
CONTINUOUS
10
158.8352036654
20
311.0254933555
11
159.0111986654
21
311.0234103555
0
LINE
8
10500_FRONT_LABELING
62
7
6
CONTINUOUS
10
182.3455056654
20
311.0356673555
11
182.5215126654
21
311.0335843555
0
LINE
8
10500_FRONT_LABELING
62
7
6
CONTINUOUS
10
158.8436576654
20
299.4357453555
11
159.0918866654
21
299.4325483555
0
LINE
8
10500_FRONT_LABELING
62
7
6
CONTINUOUS
10
182.3089766654
20
299.5357393555
11
182.5571936654
21
299.5325423555
0
LINE
8
10500_FRONT_LABELING
62
7
6
CONTINUOUS
10
180.9873036654
20
311.4024083555
11
181.2991786654
21
311.3973213555
0
LINE
8
10500_FRONT_LABELING
62
7
6
CONTINUOUS
10
158.8119976654
20
316.7023753555
11
159.1238736654
21
316.6972883555
0
LINE
8
10500_FRONT_LABELING
62
7
6
CONTINUOUS
10
180.9873036654
20
316.8024183555
11
181.2991786654
21
316.7972823555
0
LINE
8
10500_FRONT_LABELING
62
7
6
CONTINUOUS
10
182.3073056654
20
316.8024183555
11
182.6191806654
21
316.7972823555
0
LINE
8
10500_FRONT_LABELING
62
7
6
CONTINUOUS
10
181.2653386654
20
305.6405513555
11
180.9655026654
21
305.6456863555
0
LINE
8
10500_FRONT_LABELING
62
7
6
CONTINUOUS
10
181.2653386654
20
300.2405413555
11
180.9655026654
21
300.2457253555
0
LINE
8
10500_FRONT_LABELING
62
7
6
CONTINUOUS
10
181.2611726654
20
311.0141083555
11
180.9689176654
21
311.0192923555
0
LINE
8
10500_FRONT_LABELING
62
7
6
CONTINUOUS
10
159.0858786654
20
316.3140753555
11
158.7936126654
21
316.3193083555
0
LINE
8
10500_FRONT_LABELING
62
7
6
CONTINUOUS
10
181.2611726654
20
316.4140693555
11
180.9689176654
21
316.4193013555
0
LINE
8
10500_FRONT_LABELING
62
7
6
CONTINUOUS
10
182.5811746654
20
316.4140693555
11
182.2889196654
21
316.4193013555
0
LINE
8
10500_FRONT_LABELING
62
7
6
CONTINUOUS
10
166.5099166654
20
312.8162222263
11
166.2273276654
21
312.8245552263
0
LINE
8
10500_FRONT_LABELING
62
7
6
CONTINUOUS
10
174.6264636654
20
312.8161742263
11
174.3438746654
21
312.8245552263
0
LINE
8
10500_FRONT_LABELING
62
7
6
CONTINUOUS
10
158.7863576654
20
310.1842653555
11
159.0066206654
21
310.1738013555
0
LINE
8
10500_FRONT_LABELING
62
7
6
CONTINUOUS
10
182.2966716654
20
310.1944393555
11
182.5169336654
21
310.1839263555
0
LINE
8
10500_FRONT_LABELING
62
7
6
CONTINUOUS
10
166.9615486654
20
313.9474032263
11
166.3982356654
21
313.9972062263
0
LINE
8
10500_FRONT_LABELING
62
7
6
CONTINUOUS
10
175.0780836654
20
313.9474032263
11
174.5147696654
21
313.9971582263
0
LINE
8
10500_FRONT_LABELING
62
7
6
CONTINUOUS
10
165.9529376654
20
312.5439032263
11
166.5190246654
21
312.4892562263
0
LINE
8
10500_FRONT_LABELING
62
7
6
CONTINUOUS
10
174.0694726654
20
312.5439032263
11
174.6355716654
21
312.4892562263
0
LINE
8
10500_FRONT_LABELING
62
7
6
CONTINUOUS
10
182.6481276654
20
311.3767803555
11
182.3561636654
21
311.4116133555
0
LINE
8
10500_FRONT_LABELING
62
7
6
CONTINUOUS
10
166.5837986654
20
313.6954802263
11
166.7233246654
21
313.6786692263
0
LINE
8
10500_FRONT_LABELING
62
7
6
CONTINUOUS
10
174.7003446654
20
313.6954802263
11
174.8398716654
21
313.6786692263
0
LINE
8
10000_FRONT
62
7
6
CONTINUOUS
10
175.0913456654
20
330.5864113555
11
174.8800456654
21
330.6182413555
0
LINE
8
10000_FRONT
62
7
6
CONTINUOUS
10
175.1169016654
20
330.5813733555
11
175.0913456654
21
330.5864113555
0
LINE
8
10000_FRONT
62
7
6
CONTINUOUS
10
175.2394226654
20
330.5535643555
11
175.1169016654
21
330.5813733555
0
LINE
8
90000_FRAME
62
7
6
CONTINUOUS
10
471.8265410000
20
21.5500140000
11
473.0623910000
21
18.6505200000
0
LINE
8
15000_BACK
62
7
6
CONTINUOUS
10
392.2518636654
20
211.4199980292
11
392.7341986654
21
209.6200110292
0
LINE
8
15000_BACK
62
7
6
CONTINUOUS
10
403.8689836654
20
203.8950210292
11
403.8689836654
21
200.4949870292
0
LINE
8
91000_TIP
62
7
6
CONTINUOUS
10
422.7797810000
20
20.8043440000
11
422.7797810000
21
15.8043440000
0
LINE
8
10500_FRONT_LABELING
62
7
6
CONTINUOUS
10
180.8376516654
20
295.1286443555
11
181.0366226654
21
295.1841643555
0
LINE
8
10500_FRONT_LABELING
62
7
6
CONTINUOUS
10
180.8376516654
20
300.5286533555
11
181.0366226654
21
300.5841733555
0
LINE
8
10500_FRONT_LABELING
62
7
6
CONTINUOUS
10
180.8376516654
20
305.9286633555
11
181.0366226654
21
305.9841833555
0
LINE
8
10000_FRONT
62
7
6
CONTINUOUS
10
171.6898816654
20
305.9061353555
11
171.0913476654
21
305.8009093555
0
LINE
8
10000_FRONT
62
7
6
CONTINUOUS
10
169.4928256654
20
309.1858773555
11
170.0913606654
21
309.2911033555
0
LINE
8
10500_FRONT_LABELING
62
7
6
CONTINUOUS
10
182.3176966654
20
298.4928773555
11
182.7207736654
21
298.5628823555
0
LINE
8
10500_FRONT_LABELING
62
7
6
CONTINUOUS
10
158.8524026654
20
298.3928833555
11
159.2554666654
21
298.4628403555
0
LINE
8
10500_FRONT_LABELING
62
7
6
CONTINUOUS
10
174.5245566654
20
313.6698522263
11
174.7003446654
21
313.6954802263
0
LINE
8
10500_FRONT_LABELING
62
7
6
CONTINUOUS
10
166.4080216654
20
313.6698522263
11
166.5837986654
21
313.6954802263
0
LINE
8
10500_FRONT_LABELING
62
7
6
CONTINUOUS
10
182.3867336654
20
309.2587893555
11
182.6227176654
21
309.2806383555
0
LINE
8
10500_FRONT_LABELING
62
7
6
CONTINUOUS
10
158.8764316654
20
309.2486153555
11
159.1124036654
21
309.2704653555
0
LINE
8
10000_FRONT
62
7
6
CONTINUOUS
10
165.5913686654
20
316.6120713555
11
164.0913636654
21
316.6120713555
0
LINE
8
10000_FRONT
62
7
6
CONTINUOUS
10
175.5913396654
20
316.6120713555
11
177.0913446654
21
316.6120713555
0
LINE
8
15000_BACK
62
7
6
CONTINUOUS
10
397.3048496654
20
316.6650740292
11
395.2330776654
21
316.6650740292
0
LINE
8
15000_BACK
62
7
6
CONTINUOUS
10
382.7048696654
20
316.6650740292
11
380.6330476654
21
316.6650740292
0
LINE
8
15000_BACK
62
7
6
CONTINUOUS
10
377.1189696654
20
317.5955410292
11
379.0689476654
21
317.5955410292
0
LINE
8
15000_BACK
62
7
6
CONTINUOUS
10
398.8689506654
20
317.5955410292
11
400.8189766654
21
317.5955410292
0
LINE
8
10500_FRONT_LABELING
62
7
6
CONTINUOUS
10
158.8613526654
20
319.9582333555
11
159.1860426654
21
319.9582333555
0
LINE
8
10000_FRONT
62
7
6
CONTINUOUS
10
177.0913446654
20
320.0554653555
11
175.5913396654
21
320.0554653555
0
LINE
8
10000_FRONT
62
7
6
CONTINUOUS
10
164.0913636654
20
320.0554653555
11
165.5913686654
21
320.0554653555
0
LINE
8
10500_FRONT_LABELING
62
7
6
CONTINUOUS
10
182.2362336654
20
320.0582273555
11
181.0115266654
21
320.0582273555
0
LINE
8
10500_FRONT_LABELING
62
7
6
CONTINUOUS
10
182.7166556654
20
320.0582273555
11
183.0413446654
21
320.0582273555
0
LINE
8
10500_FRONT_LABELING
62
7
6
CONTINUOUS
10
181.4851416654
20
320.4317993555
11
182.2362336654
21
320.4317993555
0
LINE
8
10500_FRONT_LABELING
62
7
6
CONTINUOUS
10
158.5013576654
20
320.9935863555
11
158.5950416654
21
320.9935863555
0
LINE
8
10500_FRONT_LABELING
62
7
6
CONTINUOUS
10
182.3566726654
20
321.0935803555
11
182.4503436654
21
321.0935803555
0
LINE
8
15000_BACK
62
7
6
CONTINUOUS
10
380.6330476654
20
321.3715700292
11
382.7048696654
21
321.3715700292
0
LINE
8
15000_BACK
62
7
6
CONTINUOUS
10
395.2330776654
20
321.3715700292
11
397.3048496654
21
321.3715700292
0
LINE
8
10500_FRONT_LABELING
62
7
6
CONTINUOUS
10
181.3077056654
20
321.5901583555
11
181.0259886654
21
321.5901583555
0
LINE
8
11000_LEFT
62
7
6
CONTINUOUS
10
264.6073556654
20
321.6200040292
11
267.5073726654
21
321.6200040292
0
LINE
8
15000_BACK
62
7
6
CONTINUOUS
10
385.2689566654
20
321.6200040292
11
392.6689896654
21
321.6200040292
0
LINE
8
10000_FRONT
62
7
6
CONTINUOUS
10
165.5913686654
20
322.0120323555
11
164.0913636654
21
322.0120323555
0
LINE
8
10000_FRONT
62
7
6
CONTINUOUS
10
175.5913396654
20
322.0120323555
11
177.0913446654
21
322.0120323555
0
LINE
8
10000_FRONT
62
7
6
CONTINUOUS
10
172.5663546654
20
322.0614963555
11
168.6163536654
21
322.0614963555
0
LINE
8
15000_BACK
62
7
6
CONTINUOUS
10
397.3048496654
20
322.0650350292
11
395.2330776654
21
322.0650350292
0
LINE
8
15000_BACK
62
7
6
CONTINUOUS
10
382.7048696654
20
322.0650350292
11
380.6330476654
21
322.0650350292
0
LINE
8
10500_FRONT_LABELING
62
7
6
CONTINUOUS
10
159.1860426654
20
322.1190023555
11
158.8951326654
21
322.1190023555
0
LINE
8
10500_FRONT_LABELING
62
7
6
CONTINUOUS
10
183.0413446654
20
322.2189963555
11
182.7504466654
21
322.2189963555
0
LINE
8
15000_BACK
62
7
6
CONTINUOUS
10
390.9689476654
20
323.1200100292
11
389.4689916654
21
323.1200100292
0
LINE
8
15000_BACK
62
7
6
CONTINUOUS
10
388.4689556654
20
323.1200100292
11
386.9689496654
21
323.1200100292
0
LINE
8
15000_BACK
62
7
6
CONTINUOUS
10
384.2189726654
20
323.1200100292
11
385.9689626654
21
323.1200100292
0
LINE
8
15000_BACK
62
7
6
CONTINUOUS
10
391.9689836654
20
323.1200100292
11
393.7189736654
21
323.1200100292
0
LINE
8
15000_BACK
62
7
6
CONTINUOUS
10
391.9689836654
20
323.6200280292
11
390.9689476654
21
323.6200280292
0
LINE
8
15000_BACK
62
7
6
CONTINUOUS
10
389.4689916654
20
323.6200280292
11
388.4689556654
21
323.6200280292
0
LINE
8
15000_BACK
62
7
6
CONTINUOUS
10
386.9689496654
20
323.6200280292
11
385.9689626654
21
323.6200280292
0
LINE
8
11000_LEFT
62
7
6
CONTINUOUS
10
264.6073556654
20
323.6200280292
11
267.5075416654
21
323.6200280292
0
LINE
8
10000_FRONT
62
7
6
CONTINUOUS
10
177.0913446654
20
325.4554753555
11
175.5913396654
21
325.4554753555
0
LINE
8
10000_FRONT
62
7
6
CONTINUOUS
10
174.0663596654
20
325.4554753555
11
173.7520866654
21
325.4554753555
0
LINE
8
10000_FRONT
62
7
6
CONTINUOUS
10
164.0913636654
20
325.4554753555
11
165.5913686654
21
325.4554753555
0
LINE
8
10000_FRONT
62
7
6
CONTINUOUS
10
167.1163476654
20
325.4554753555
11
167.4305976654
21
325.4554753555
0
LINE
8
15000_BACK
62
7
6
CONTINUOUS
10
387.3189766654
20
325.7199960292
11
385.3189536654
21
325.7199960292
0
LINE
8
11000_LEFT
62
7
6
CONTINUOUS
10
264.1073616654
20
325.7199960292
11
264.5505516654
21
325.7199960292
0
LINE
8
15000_BACK
62
7
6
CONTINUOUS
10
390.6189696654
20
325.7199960292
11
392.6189446654
21
325.7199960292
0
LINE
8
15000_BACK
62
7
6
CONTINUOUS
10
387.3189766654
20
326.0700230292
11
388.7189886654
21
326.0700230292
0
LINE
8
15000_BACK
62
7
6
CONTINUOUS
10
389.2189576654
20
326.0700230292
11
390.6189696654
21
326.0700230292
0
LINE
8
11000_LEFT
62
7
6
CONTINUOUS
10
265.1464696654
20
326.2200140292
11
277.9573646654
21
326.2200140292
0
LINE
8
15000_BACK
62
7
6
CONTINUOUS
10
377.1189696654
20
326.2200140292
11
380.0439856654
21
326.2200140292
0
LINE
8
15000_BACK
62
7
6
CONTINUOUS
10
397.8939616654
20
326.2200140292
11
400.8189766654
21
326.2200140292
0
LINE
8
10000_FRONT
62
7
6
CONTINUOUS
10
172.2413496654
20
326.4911193555
11
168.9413576654
21
326.4911193555
0
LINE
8
15000_BACK
62
7
6
CONTINUOUS
10
380.6330476654
20
326.5353530292
11
382.7048696654
21
326.5353530292
0
LINE
8
15000_BACK
62
7
6
CONTINUOUS
10
395.2330776654
20
326.5353530292
11
397.3048496654
21
326.5353530292
0
LINE
8
11000_LEFT
62
7
6
CONTINUOUS
10
301.9243606654
20
326.5699930292
11
298.3573056654
21
326.5699930292
0
LINE
8
10000_FRONT
62
7
6
CONTINUOUS
10
157.8913546654
20
326.6337463555
11
165.5414686654
21
326.6337463555
0
LINE
8
10000_FRONT
62
7
6
CONTINUOUS
10
175.6412396654
20
326.6337463555
11
183.2913536654
21
326.6337463555
0
LINE
8
11000_LEFT
62
7
6
CONTINUOUS
10
294.5573686654
20
326.9200200292
11
277.9573646654
21
326.9200200292
0
LINE
8
15000_BACK
62
7
6
CONTINUOUS
10
376.2689736654
20
326.9200200292
11
377.1189696654
21
326.9200200292
0
LINE
8
15000_BACK
62
7
6
CONTINUOUS
10
388.7189886654
20
326.9200200292
11
389.2189576654
21
326.9200200292
0
LINE
8
15000_BACK
62
7
6
CONTINUOUS
10
400.8189766654
20
326.9200200292
11
401.6689726654
21
326.9200200292
0
LINE
8
15000_BACK
62
7
6
CONTINUOUS
10
380.1689776654
20
327.2200020292
11
381.8689706654
21
327.2200020292
0
LINE
8
15000_BACK
62
7
6
CONTINUOUS
10
387.3189766654
20
327.2200020292
11
390.6189696654
21
327.2200020292
0
LINE
8
15000_BACK
62
7
6
CONTINUOUS
10
396.0689756654
20
327.2200020292
11
397.7689686654
21
327.2200020292
0
LINE
8
15000_BACK
62
7
6
CONTINUOUS
10
395.0939866654
20
327.3199950292
11
392.6189446654
21
327.3199950292
0
LINE
8
15000_BACK
62
7
6
CONTINUOUS
10
385.3189536654
20
327.3199950292
11
382.8439596654
21
327.3199950292
0
LINE
8
15000_BACK
62
7
6
CONTINUOUS
10
390.6189696654
20
327.7700160292
11
387.3189766654
21
327.7700160292
0
LINE
8
15000_BACK
62
7
6
CONTINUOUS
10
395.0939866654
20
328.0200010292
11
393.5689826654
21
328.0200010292
0
LINE
8
15000_BACK
62
7
6
CONTINUOUS
10
382.8439596654
20
328.0200010292
11
384.3689636654
21
328.0200010292
0
LINE
8
15000_BACK
62
7
6
CONTINUOUS
10
381.8689706654
20
328.6700100292
11
384.2189726654
21
328.6700100292
0
LINE
8
15000_BACK
62
7
6
CONTINUOUS
10
393.7189736654
20
328.6700100292
11
396.0689756654
21
328.6700100292
0
LINE
8
10000_FRONT
62
7
6
CONTINUOUS
10
158.7413506654
20
328.8337573555
11
162.8913636654
21
328.8337573555
0
LINE
8
10000_FRONT
62
7
6
CONTINUOUS
10
178.2913436654
20
328.8337573555
11
182.4413576654
21
328.8337573555
0
LINE
8
15000_BACK
62
7
6
CONTINUOUS
10
377.1189696654
20
329.1200310292
11
380.2389826654
21
329.1200310292
0
LINE
8
15000_BACK
62
7
6
CONTINUOUS
10
397.6989636654
20
329.1200310292
11
400.8189766654
21
329.1200310292
0
LINE
8
10000_FRONT
62
7
6
CONTINUOUS
10
172.2413496654
20
329.2087823555
11
168.9413576654
21
329.2087823555
0
LINE
8
10000_FRONT
62
7
6
CONTINUOUS
10
164.2413536654
20
329.2087823555
11
161.8663536654
21
329.2087823555
0
LINE
8
10000_FRONT
62
7
6
CONTINUOUS
10
176.9413536654
20
329.2087823555
11
179.3163546654
21
329.2087823555
0
LINE
8
15000_BACK
62
7
6
CONTINUOUS
10
397.6989636654
20
329.5200070292
11
380.2389826654
21
329.5200070292
0
LINE
8
11000_LEFT
62
7
6
CONTINUOUS
10
264.1073616654
20
329.5200070292
11
297.1573546654
21
329.5200070292
0
LINE
8
10000_FRONT
62
7
6
CONTINUOUS
10
175.5913636654
20
330.4587543555
11
174.0663596654
21
330.4587543555
0
LINE
8
10000_FRONT
62
7
6
CONTINUOUS
10
167.1163476654
20
330.4587543555
11
165.5913446654
21
330.4587543555
0
LINE
8
10000_FRONT
62
7
6
CONTINUOUS
10
174.8800456654
20
330.6340343555
11
172.2413496654
21
330.6340343555
0
LINE
8
10000_FRONT
62
7
6
CONTINUOUS
10
166.3026626654
20
330.6340343555
11
168.9413576654
21
330.6340343555
0
LINE
8
11000_LEFT
62
7
6
CONTINUOUS
10
283.7573496654
20
330.9452590292
11
307.4073586654
21
330.9452590292
0
LINE
8
15000_BACK
62
7
6
CONTINUOUS
10
384.5359586654
20
330.9452590292
11
387.3189766654
21
330.9452590292
0
LINE
8
15000_BACK
62
7
6
CONTINUOUS
10
390.6189696654
20
330.9452590292
11
393.4019876654
21
330.9452590292
0
LINE
8
10500_FRONT_LABELING
62
7
6
CONTINUOUS
10
181.5021706654
20
322.2023793555
11
181.8140456654
21
322.1972923555
0
LINE
8
10500_FRONT_LABELING
62
7
6
CONTINUOUS
10
181.7760636654
20
321.8140793555
11
181.4837846654
21
321.8193113555
0
LINE
8
11000_LEFT
62
7
6
CONTINUOUS
10
298.3573546654
20
326.5875310292
11
294.5573686654
21
326.9200200292
0
LINE
8
15000_BACK
62
7
6
CONTINUOUS
10
387.3470756654
20
286.2391220292
11
388.8862266654
21
284.2690870292
0
LINE
8
15000_BACK
62
7
6
CONTINUOUS
10
389.2145976654
20
284.5256120292
11
388.5732606654
21
285.3464920292
0
LINE
8
15000_BACK
62
7
6
CONTINUOUS
10
388.3167356654
20
285.6748150292
11
387.6753986654
21
286.4956470292
0
LINE
8
15000_BACK
62
7
6
CONTINUOUS
10
388.9330746654
20
285.6275800292
11
389.4929236654
21
284.9109570292
0
LINE
8
15000_BACK
62
7
6
CONTINUOUS
10
388.1166516654
20
286.6725260292
11
388.6765496654
21
285.9559030292
0
LINE
8
15000_BACK
62
7
6
CONTINUOUS
10
389.0048726654
20
286.2124280292
11
388.4450226654
21
286.9290510292
0
LINE
8
15000_BACK
62
7
6
CONTINUOUS
10
389.8212956654
20
285.1674820292
11
389.2613976654
21
285.8841050292
0
LINE
8
15000_BACK
62
7
6
CONTINUOUS
10
389.6212106654
20
286.1651920292
11
390.2624986654
21
285.3443610292
0
LINE
8
15000_BACK
62
7
6
CONTINUOUS
10
388.7233486654
20
287.3143950292
11
389.3646856654
21
286.4935640292
0
LINE
8
15000_BACK
62
7
6
CONTINUOUS
10
390.5908706654
20
285.6008860292
11
389.0517196654
21
287.5709200292
0
LINE
8
91000_TIP
62
7
6
CONTINUOUS
10
432.7797810000
20
23.3043440000
11
432.7797810000
21
13.3043440000
0
LINE
8
91000_TIP
62
7
6
CENTER
10
439.2797810000
20
12.5828630000
11
439.2797810000
21
23.8662490000
0
LINE
8
10500_FRONT_LABELING
62
7
6
CONTINUOUS
10
166.5190246654
20
312.4892562263
11
166.7960426654
21
312.5558212263
0
LINE
8
10500_FRONT_LABELING
62
7
6
CONTINUOUS
10
174.6355716654
20
312.4892562263
11
174.9125896654
21
312.5557732263
0
LINE
8
10000_FRONT
62
7
6
CONTINUOUS
10
166.0913626654
20
330.5864113555
11
166.0374896654
21
330.5755113555
0
LINE
8
10000_FRONT
62
7
6
CONTINUOUS
10
173.1403746654
20
322.1753453555
11
172.5663546654
21
322.0614963555
0
LINE
8
10000_FRONT
62
7
6
CONTINUOUS
10
166.3026626654
20
330.6182413555
11
166.0913626654
21
330.5864113555
0
LINE
8
90000_FRAME
62
7
6
CONTINUOUS
10
449.0000000000
20
10.0000000000
11
449.0000000000
21
28.0000000000
0
LINE
8
90000_FRAME
62
7
6
CONTINUOUS
10
458.8025840000
20
16.8918100000
11
458.8025840000
21
17.8424640000
0
LINE
8
90000_FRAME
62
7
6
CONTINUOUS
10
462.1298720000
20
20.5518270000
11
462.1298720000
21
21.5024810000
0
LINE
8
90000_FRAME
62
7
6
CONTINUOUS
10
463.2231240000
20
21.5500140000
11
463.2231240000
21
16.7967450000
0
LINE
8
90000_FRAME
62
7
6
CONTINUOUS
10
464.6491050000
20
21.5500140000
11
464.6491050000
21
16.7967450000
0
LINE
8
10000_FRONT
62
7
6
CONTINUOUS
10
166.0374896654
20
330.5755113555
11
165.8829446654
21
330.5375773555
0
LINE
8
90000_FRAME
62
7
6
CONTINUOUS
10
465.7423570000
20
21.5500140000
11
465.7423570000
21
16.7967450000
0
LINE
8
90000_FRAME
62
7
6
CONTINUOUS
10
467.1208050000
20
20.6706590000
11
467.1208050000
21
19.6011730000
0
LINE
8
90000_FRAME
62
7
6
CONTINUOUS
10
467.1208050000
20
18.8168840000
11
467.1208050000
21
17.6998660000
0
LINE
8
90000_FRAME
62
7
6
CONTINUOUS
10
468.9745800000
20
19.6011730000
11
468.9745800000
21
18.8168840000
0
LINE
8
90000_FRAME
62
7
6
CONTINUOUS
10
469.2597760000
20
21.5500140000
11
469.2597760000
21
20.6706590000
0
LINE
8
90000_FRAME
62
7
6
CONTINUOUS
10
469.3073090000
20
17.6998660000
11
469.3073090000
21
16.7967450000
0
LINE
8
90000_FRAME
62
7
6
CONTINUOUS
10
470.1153640000
20
16.7967450000
11
470.1153640000
21
21.5500140000
0
LINE
8
90000_FRAME
62
7
6
CONTINUOUS
10
471.0660180000
20
16.7967450000
11
471.0660180000
21
19.8388370000
0
LINE
8
90000_FRAME
62
7
6
CONTINUOUS
10
474.5834370000
20
19.8863700000
11
474.5834370000
21
16.7967450000
0
LINE
8
90000_FRAME
62
7
6
CONTINUOUS
10
475.9618850000
20
21.5500140000
11
475.9618850000
21
16.7967450000
0
LINE
8
90000_FRAME
62
7
6
CONTINUOUS
10
477.0551370000
20
21.5500140000
11
477.0551370000
21
16.7967450000
0
LINE
8
90000_FRAME
62
7
6
CONTINUOUS
10
478.4335850000
20
20.6706590000
11
478.4335850000
21
19.6011730000
0
LINE
8
90000_FRAME
62
7
6
CONTINUOUS
10
478.4335850000
20
18.8168840000
11
478.4335850000
21
17.6998660000
0
LINE
8
90000_FRAME
62
7
6
CONTINUOUS
10
480.2873600000
20
19.6011730000
11
480.2873600000
21
18.8168840000
0
LINE
8
90000_FRAME
62
7
6
CONTINUOUS
10
480.5725560000
20
21.5500140000
11
480.5725560000
21
20.6706590000
0
LINE
8
90000_FRAME
62
7
6
CONTINUOUS
10
480.6200890000
20
17.6998660000
11
480.6200890000
21
16.7967450000
0
LINE
8
90000_FRAME
62
7
6
CONTINUOUS
10
481.4043780000
20
16.7967450000
11
481.4043780000
21
21.5500140000
0
LINE
8
90000_FRAME
62
7
6
CONTINUOUS
10
482.3550320000
20
16.7967450000
11
482.3550320000
21
19.8388370000
0
LINE
8
90000_FRAME
62
7
6
CONTINUOUS
10
484.6366010000
20
21.5500140000
11
484.6366010000
21
18.6029870000
0
LINE
8
90000_FRAME
62
7
6
CONTINUOUS
10
485.5872550000
20
21.5500140000
11
485.5872550000
21
16.7967450000
0
LINE
8
90000_FRAME
62
7
6
CONTINUOUS
10
486.3953110000
20
16.8918100000
11
486.3953110000
21
17.8424640000
0
LINE
8
90000_FRAME
62
7
6
CONTINUOUS
10
489.7225990000
20
20.5518270000
11
489.7225990000
21
21.5024810000
0
LINE
8
90000_FRAME
62
7
6
CONTINUOUS
10
499.0000000000
20
10.0000000000
11
499.0000000000
21
28.0000000000
0
LINE
8
90000_FRAME
62
7
6
CONTINUOUS
10
589.0000000000
20
415.0000000000
11
5.0000000000
21
415.0000000000
0
LINE
8
90000_FRAME
62
7
6
CONTINUOUS
10
594.0000000000
20
420.0000000000
11
0.0000000000
21
420.0000000000
0
LINE
8
90000_FRAME
62
7
6
CONTINUOUS
10
541.5000000000
20
10.0000000000
11
541.5000000000
21
16.0000000000
0
LINE
8
90000_FRAME
62
7
6
CONTINUOUS
10
474.2507080000
20
21.5500140000
11
473.0623910000
21
18.6505200000
0
LINE
8
90000_FRAME
62
7
6
CONTINUOUS
10
474.5834370000
20
19.8863700000
11
473.2525220000
21
16.7492120000
0
LINE
8
90000_FRAME
62
7
6
CONTINUOUS
10
458.9944120000
20
20.9692080000
11
459.2684780000
21
21.2432810000
0
LINE
8
90000_FRAME
62
7
6
CONTINUOUS
10
584.0000000000
20
10.0000000000
11
584.0000000000
21
28.0000000000
0
LINE
8
90000_FRAME
62
7
6
CONTINUOUS
10
589.0000000000
20
5.0000000000
11
589.0000000000
21
415.0000000000
0
LINE
8
90000_FRAME
62
7
6
CONTINUOUS
10
594.0000000000
20
0.0000000000
11
594.0000000000
21
420.0000000000
0
CIRCLE
8
91000_TIP
62
7
6
CONTINUOUS
10
439.2797810000
20
18.3043440000
40
5.0000000000
0
CIRCLE
8
91000_TIP
62
7
6
CONTINUOUS
10
439.2797810000
20
18.3043440000
40
2.5000000000
0
ARC
8
90000_FRAME
62
7
6
CONTINUOUS
10
488.0999520000
20
18.7539030000
40
1.1116190000
50
277.7099960000
51
295.6884930000
0
ARC
8
90000_FRAME
62
7
6
CONTINUOUS
10
488.3842620000
20
18.0290770000
40
0.3401690000
50
305.5032210000
51
72.4652900000
0
ARC
8
90000_FRAME
62
7
6
CONTINUOUS
10
487.8182680000
20
21.4307840000
40
4.7567950000
50
252.5939200000
51
280.9816600000
0
ARC
8
90000_FRAME
62
7
6
CONTINUOUS
10
488.2731040000
20
18.8127710000
40
2.1007270000
50
282.4058360000
51
311.8644430000
0
ARC
8
90000_FRAME
62
7
6
CONTINUOUS
10
487.9995390000
20
20.4211120000
40
0.3029630000
50
154.4400350000
51
221.8201700000
0
ARC
8
90000_FRAME
62
7
6
CONTINUOUS
10
488.0787600000
20
20.3418910000
40
0.4103090000
50
102.8287830000
51
149.2259640000
0
ARC
8
90000_FRAME
62
7
6
CONTINUOUS
10
488.4957870000
20
18.5995560000
40
2.2018370000
50
84.0400060000
51
103.3427660000
0
ARC
8
90000_FRAME
62
7
6
CONTINUOUS
10
488.1548230000
20
16.1821920000
40
4.6423740000
50
70.2625860000
51
82.9524190000
0
ARC
8
90000_FRAME
62
7
6
CONTINUOUS
10
487.6408050000
20
20.8538150000
40
3.2587560000
50
247.5300210000
51
280.7579520000
0
ARC
8
90000_FRAME
62
7
6
CONTINUOUS
10
481.2558390000
20
2.6022950000
40
17.3316080000
50
65.3414670000
51
67.3997770000
0
ARC
8
90000_FRAME
62
7
6
CONTINUOUS
10
492.0517010000
20
28.3947210000
40
10.6291640000
50
242.8620100000
51
247.1042030000
0
ARC
8
90000_FRAME
62
7
6
CONTINUOUS
10
488.1968000000
20
20.8607900000
40
2.1662920000
50
227.3119280000
51
242.7040320000
0
ARC
8
90000_FRAME
62
7
6
CONTINUOUS
10
487.5927690000
20
20.1551120000
40
1.2385220000
50
194.7952190000
51
225.7176550000
0
ARC
8
90000_FRAME
62
7
6
CONTINUOUS
10
487.6549270000
20
20.1953320000
40
1.3090920000
50
164.1974860000
51
195.8025140000
0
ARC
8
90000_FRAME
62
7
6
CONTINUOUS
10
488.2119510000
20
19.3070650000
40
2.3669250000
50
86.2218020000
51
120.4272600000
0
ARC
8
90000_FRAME
62
7
6
CONTINUOUS
10
487.9430940000
20
12.6108970000
40
9.0679050000
50
78.6827050000
51
87.3147600000
0
ARC
8
90000_FRAME
62
7
6
CONTINUOUS
10
487.4870250000
20
20.3028400000
40
1.1197470000
50
142.8139180000
51
167.1522950000
0
ARC
8
90000_FRAME
62
7
6
CONTINUOUS
10
487.8323340000
20
19.9962580000
40
1.5805470000
50
121.2140950000
51
141.5254770000
0
ARC
8
90000_FRAME
62
7
6
CONTINUOUS
10
488.4095090000
20
20.8073150000
40
0.8661280000
50
222.7760390000
51
239.0362430000
0
ARC
8
90000_FRAME
62
7
6
CONTINUOUS
10
485.9027990000
20
13.4770430000
40
6.8587740000
50
59.9020270000
51
68.2036480000
0
ARC
8
90000_FRAME
62
7
6
CONTINUOUS
10
489.3112940000
20
22.4029300000
40
2.6987410000
50
240.0482000000
51
251.3779670000
0
ARC
8
90000_FRAME
62
7
6
CONTINUOUS
10
488.6458360000
20
18.2460310000
40
1.4334470000
50
315.8904550000
51
333.5229260000
0
ARC
8
90000_FRAME
62
7
6
CONTINUOUS
10
488.6504750000
20
18.1926240000
40
1.4062290000
50
335.3867970000
51
24.3915120000
0
ARC
8
90000_FRAME
62
7
6
CONTINUOUS
10
488.5782700000
20
18.1147670000
40
1.5047030000
50
25.9562920000
51
59.4834830000
0
ARC
8
90000_FRAME
62
7
6
CONTINUOUS
10
460.5072250000
20
18.7539030000
40
1.1116190000
50
277.7099960000
51
295.6884930000
0
ARC
8
90000_FRAME
62
7
6
CONTINUOUS
10
460.7915350000
20
18.0290770000
40
0.3401690000
50
305.5032210000
51
72.4652900000
0
ARC
8
90000_FRAME
62
7
6
CONTINUOUS
10
460.2255410000
20
21.4307840000
40
4.7567950000
50
252.5939200000
51
280.9816600000
0
ARC
8
90000_FRAME
62
7
6
CONTINUOUS
10
460.6803770000
20
18.8127710000
40
2.1007270000
50
282.4058360000
51
311.8644430000
0
ARC
8
90000_FRAME
62
7
6
CONTINUOUS
10
460.4068120000
20
20.4211120000
40
0.3029630000
50
154.4400350000
51
221.8201700000
0
ARC
8
90000_FRAME
62
7
6
CONTINUOUS
10
460.4860330000
20
20.3418910000
40
0.4103090000
50
102.8287830000
51
149.2259640000
0
ARC
8
90000_FRAME
62
7
6
CONTINUOUS
10
460.9030600000
20
18.5995560000
40
2.2018370000
50
84.0400060000
51
103.3427660000
0
ARC
8
90000_FRAME
62
7
6
CONTINUOUS
10
460.5620960000
20
16.1821920000
40
4.6423740000
50
70.2625860000
51
82.9524190000
0
ARC
8
90000_FRAME
62
7
6
CONTINUOUS
10
460.0480780000
20
20.8538150000
40
3.2587560000
50
247.5300210000
51
280.7579520000
0
ARC
8
90000_FRAME
62
7
6
CONTINUOUS
10
453.6631120000
20
2.6022950000
40
17.3316080000
50
65.3414670000
51
67.3997770000
0
ARC
8
90000_FRAME
62
7
6
CONTINUOUS
10
464.4589740000
20
28.3947210000
40
10.6291640000
50
242.8620100000
51
247.1042030000
0
ARC
8
90000_FRAME
62
7
6
CONTINUOUS
10
460.6040730000
20
20.8607900000
40
2.1662920000
50
227.3119280000
51
242.7040320000
0
ARC
8
90000_FRAME
62
7
6
CONTINUOUS
10
460.0000420000
20
20.1551120000
40
1.2385220000
50
194.7952190000
51
225.7176550000
0
ARC
8
90000_FRAME
62
7
6
CONTINUOUS
10
460.6192240000
20
19.3070650000
40
2.3669250000
50
86.2218020000
51
120.4272600000
0
ARC
8
90000_FRAME
62
7
6
CONTINUOUS
10
460.3503670000
20
12.6108970000
40
9.0679050000
50
78.6827050000
51
87.3147600000
0
ARC
8
90000_FRAME
62
7
6
CONTINUOUS
10
460.2396070000
20
19.9962580000
40
1.5805470000
50
121.2140950000
51
141.5254770000
0
ARC
8
90000_FRAME
62
7
6
CONTINUOUS
10
460.8167820000
20
20.8073150000
40
0.8661280000
50
222.7760390000
51
239.0362430000
0
ARC
8
90000_FRAME
62
7
6
CONTINUOUS
10
458.3100720000
20
13.4770430000
40
6.8587740000
50
59.9020270000
51
68.2036480000
0
ARC
8
90000_FRAME
62
7
6
CONTINUOUS
10
461.7185670000
20
22.4029300000
40
2.6987410000
50
240.0482000000
51
251.3779670000
0
ARC
8
90000_FRAME
62
7
6
CONTINUOUS
10
461.0531090000
20
18.2460310000
40
1.4334470000
50
315.8904550000
51
333.5229260000
0
ARC
8
90000_FRAME
62
7
6
CONTINUOUS
10
461.0577480000
20
18.1926240000
40
1.4062290000
50
335.3867970000
51
24.3915120000
0
ARC
8
90000_FRAME
62
7
6
CONTINUOUS
10
460.9855430000
20
18.1147670000
40
1.5047030000
50
25.9562920000
51
59.4834830000
0
ARC
8
90000_FRAME
62
7
6
CONTINUOUS
10
460.0622000000
20
20.1953320000
40
1.3090920000
50
164.1974860000
51
195.8025140000
0
ARC
8
90000_FRAME
62
7
6
CONTINUOUS
10
459.8942980000
20
20.3028400000
40
1.1197470000
50
142.8139180000
51
167.1522950000
0
ARC
8
11000_LEFT
62
7
6
CONTINUOUS
10
303.7573636654
20
328.2699860292
40
2.4999999058
50
301.6737950000
51
246.8995800000
0
ARC
8
11000_LEFT
62
7
6
CONTINUOUS
10
307.8621276654
20
319.5524460292
40
3.0416666215
50
143.1745950000
51
184.2866860000
0
ARC
8
11000_LEFT
62
7
6
CONTINUOUS
10
306.7254966654
20
304.7260260292
40
0.7999999850
50
184.2866860000
51
273.9154110000
0
ARC
8
11000_LEFT
62
7
6
CONTINUOUS
10
304.3322316654
20
304.5466280292
40
0.7999999850
50
274.6579620000
51
4.2866860000
0
ARC
8
11000_LEFT
62
7
6
CONTINUOUS
10
300.9980356654
20
319.0379430292
40
3.0416666215
50
4.2866860000
51
45.3987770000
0
ARC
8
11000_LEFT
62
7
6
CONTINUOUS
10
304.2174616654
20
302.7329790292
40
0.4999999906
50
184.2866860000
51
274.2866860000
0
ARC
8
11000_LEFT
62
7
6
CONTINUOUS
10
307.1093636654
20
302.9497300292
40
0.4999999906
50
274.2866860000
51
4.2866860000
0
ARC
8
11000_LEFT
62
7
6
CONTINUOUS
10
307.0719866654
20
303.4483420292
40
0.4999999906
50
4.2866860000
51
94.2866860000
0
ARC
8
11000_LEFT
62
7
6
CONTINUOUS
10
304.1800846654
20
303.2315440292
40
0.4999999906
50
94.2866860000
51
184.2866860000
0
ARC
8
11000_LEFT
62
7
6
CONTINUOUS
10
277.9573646654
20
208.6200240292
40
3.9999999250
50
90.0000000000
51
180.0000000000
0
ARC
8
11000_LEFT
62
7
6
CONTINUOUS
10
266.5073606654
20
216.4199830292
40
0.9999999813
50
305.9715160000
51
360.0000000000
0
ARC
8
11000_LEFT
62
7
6
CONTINUOUS
10
270.0316616654
20
211.5641270292
40
4.9999998117
50
125.9715170000
51
145.8500000000
0
ARC
8
11000_LEFT
62
7
6
CONTINUOUS
10
264.5073616654
20
207.6954190292
40
2.6000000459
50
145.8500290000
51
219.7151370000
0
ARC
8
11000_LEFT
62
7
6
CONTINUOUS
10
266.5073606654
20
209.3567520292
40
5.2000000918
50
219.7151370000
51
239.9999980000
0
ARC
8
11000_LEFT
62
7
6
CONTINUOUS
10
265.1073496654
20
205.7779490292
40
1.3999999738
50
240.0000000000
51
360.0000000000
0
ARC
8
11000_LEFT
62
7
6
CONTINUOUS
10
268.6073536654
20
205.9199950292
40
2.0999999133
50
0.0000000000
51
180.0000000000
0
ARC
8
11000_LEFT
62
7
6
CONTINUOUS
10
271.7323566654
20
201.5200210292
40
1.0249999690
50
240.0000010000
51
270.0000000000
0
ARC
8
11000_LEFT
62
7
6
CONTINUOUS
10
272.2573736654
20
202.1950280292
40
1.6999999208
50
204.2495970000
51
155.7504030000
0
ARC
8
11000_LEFT
62
7
6
CONTINUOUS
10
307.4073586654
20
329.3200190292
40
0.4999999906
50
90.0000000000
51
180.0000000000
0
CIRCLE
8
11000_LEFT
62
7
6
CONTINUOUS
10
303.7573636654
20
328.2699860292
40
1.4337011509
0
ARC
8
13000_TOP
62
7
6
CONTINUOUS
10
172.4018906654
20
132.6578010292
40
0.2499999953
50
130.1128980000
51
133.3736110000
0
ARC
8
13000_TOP
62
7
6
CONTINUOUS
10
168.7808296654
20
132.6578010292
40
0.2499999953
50
46.6263890000
51
49.9582450000
0
ARC
8
15000_BACK
62
7
6
CONTINUOUS
10
388.9689736654
20
287.1700240292
40
2.0499999379
50
0.0000000000
51
180.0000000000
0
ARC
8
15000_BACK
62
7
6
CONTINUOUS
10
388.9689736654
20
284.6700320292
40
2.0499999379
50
180.0000000000
51
360.0000000000
0
ARC
8
15000_BACK
62
7
6
CONTINUOUS
10
392.9689716654
20
328.2952750292
40
2.6500000213
50
27.5270850000
51
152.4729150000
0
ARC
8
15000_BACK
62
7
6
CONTINUOUS
10
384.9689756654
20
328.2952750292
40
2.6500000213
50
27.5270870000
51
152.4729150000
0
ARC
8
15000_BACK
62
7
6
CONTINUOUS
10
388.9689736654
20
287.3384250292
40
0.6649256498
50
38.0000020000
51
218.0000020000
0
ARC
8
15000_BACK
62
7
6
CONTINUOUS
10
388.9689736654
20
287.3384250292
40
1.0815922850
50
38.0000000000
51
218.0000000000
0
ARC
8
15000_BACK
62
7
6
CONTINUOUS
10
388.9689736654
20
284.5015830292
40
0.6649256498
50
218.0000020000
51
38.0000020000
0
ARC
8
15000_BACK
62
7
6
CONTINUOUS
10
388.9689736654
20
284.5015830292
40
1.0815922850
50
218.0000000000
51
38.0000000000
0
CIRCLE
8
10000_FRONT
62
7
6
CONTINUOUS
10
179.5613486654
20
220.1337563555
40
1.8000000609
0
CIRCLE
8
10000_FRONT
62
7
6
CONTINUOUS
10
179.5613486654
20
237.3337713555
40
1.8000000609
0
CIRCLE
8
10000_FRONT
62
7
6
CONTINUOUS
10
179.5613486654
20
285.9337603555
40
1.8000000609
0
CIRCLE
8
10000_FRONT
62
7
6
CONTINUOUS
10
179.5613486654
20
312.9337583555
40
1.8000000609
0
CIRCLE
8
10000_FRONT
62
7
6
CONTINUOUS
10
179.5613486654
20
253.5337513555
40
1.8000000609
0
CIRCLE
8
10000_FRONT
62
7
6
CONTINUOUS
10
179.5613486654
20
231.9337623555
40
1.8000000609
0
CIRCLE
8
10000_FRONT
62
7
6
CONTINUOUS
10
179.5613486654
20
269.7337803555
40
1.8000000609
0
CIRCLE
8
10000_FRONT
62
7
6
CONTINUOUS
10
179.5613486654
20
280.5337503555
40
1.8000000609
0
CIRCLE
8
10000_FRONT
62
7
6
CONTINUOUS
10
179.5613486654
20
307.5337493555
40
1.8000000609
0
CIRCLE
8
10000_FRONT
62
7
6
CONTINUOUS
10
179.5613486654
20
248.1337423555
40
1.8000000609
0
CIRCLE
8
10000_FRONT
62
7
6
CONTINUOUS
10
179.5613486654
20
323.7337773555
40
1.8000000609
0
CIRCLE
8
10000_FRONT
62
7
6
CONTINUOUS
10
179.5613486654
20
264.3337703555
40
1.8000000609
0
CIRCLE
8
10000_FRONT
62
7
6
CONTINUOUS
10
179.5613486654
20
226.0337833555
40
1.8000000609
0
CIRCLE
8
10000_FRONT
62
7
6
CONTINUOUS
10
179.5613486654
20
302.1337403555
40
1.8000000609
0
CIRCLE
8
10000_FRONT
62
7
6
CONTINUOUS
10
179.5613486654
20
275.1337413555
40
1.8000000609
0
CIRCLE
8
10000_FRONT
62
7
6
CONTINUOUS
10
179.5613486654
20
242.7337813555
40
1.8000000609
0
CIRCLE
8
10000_FRONT
62
7
6
CONTINUOUS
10
179.5613486654
20
318.3337683555
40
1.8000000609
0
CIRCLE
8
10000_FRONT
62
7
6
CONTINUOUS
10
179.5613486654
20
258.9337613555
40
1.8000000609
0
CIRCLE
8
10000_FRONT
62
7
6
CONTINUOUS
10
179.5613486654
20
291.3337693555
40
1.8000000609
0
CIRCLE
8
10000_FRONT
62
7
6
CONTINUOUS
10
179.5613486654
20
296.7337793555
40
1.8000000609
0
CIRCLE
8
10000_FRONT
62
7
6
CONTINUOUS
10
161.6213586654
20
318.3337683555
40
1.8000000609
0
CIRCLE
8
10000_FRONT
62
7
6
CONTINUOUS
10
161.6213586654
20
220.1337563555
40
1.8000000609
0
CIRCLE
8
10000_FRONT
62
7
6
CONTINUOUS
10
161.6213586654
20
291.3337693555
40
1.8000000609
0
CIRCLE
8
10000_FRONT
62
7
6
CONTINUOUS
10
161.6213586654
20
242.7337813555
40
1.8000000609
0
CIRCLE
8
10000_FRONT
62
7
6
CONTINUOUS
10
161.6213586654
20
275.1337413555
40
1.8000000609
0
CIRCLE
8
10000_FRONT
62
7
6
CONTINUOUS
10
161.6213586654
20
302.1337403555
40
1.8000000609
0
CIRCLE
8
10000_FRONT
62
7
6
CONTINUOUS
10
161.6213586654
20
264.3337703555
40
1.8000000609
0
CIRCLE
8
10000_FRONT
62
7
6
CONTINUOUS
10
161.6213586654
20
248.1337423555
40
1.8000000609
0
CIRCLE
8
10000_FRONT
62
7
6
CONTINUOUS
10
161.6213586654
20
226.0337833555
40
1.8000000609
0
CIRCLE
8
10000_FRONT
62
7
6
CONTINUOUS
10
161.6213586654
20
323.7337773555
40
1.8000000609
0
CIRCLE
8
10000_FRONT
62
7
6
CONTINUOUS
10
161.6213586654
20
307.5337493555
40
1.8000000609
0
CIRCLE
8
10000_FRONT
62
7
6
CONTINUOUS
10
161.6213586654
20
280.5337503555
40
1.8000000609
0
CIRCLE
8
10000_FRONT
62
7
6
CONTINUOUS
10
161.6213586654
20
269.7337803555
40
1.8000000609
0
CIRCLE
8
10000_FRONT
62
7
6
CONTINUOUS
10
161.6213586654
20
253.5337513555
40
1.8000000609
0
CIRCLE
8
10000_FRONT
62
7
6
CONTINUOUS
10
161.6213586654
20
312.9337583555
40
1.8000000609
0
CIRCLE
8
10000_FRONT
62
7
6
CONTINUOUS
10
161.6213586654
20
285.9337603555
40
1.8000000609
0
CIRCLE
8
10000_FRONT
62
7
6
CONTINUOUS
10
161.6213586654
20
237.3337713555
40
1.8000000609
0
CIRCLE
8
10000_FRONT
62
7
6
CONTINUOUS
10
161.6213586654
20
258.9337613555
40
1.8000000609
0
CIRCLE
8
10000_FRONT
62
7
6
CONTINUOUS
10
161.6213586654
20
296.7337793555
40
1.8000000609
0
ARC
8
10000_FRONT
62
7
6
CONTINUOUS
10
166.5913556654
20
327.9840023555
40
2.6500000213
50
124.4743500000
51
152.4729150000
0
ARC
8
10000_FRONT
62
7
6
CONTINUOUS
10
174.5913516654
20
327.9840023555
40
2.6500000213
50
27.5270850000
51
55.5256500000
0
CIRCLE
8
10000_FRONT
62
7
6
CONTINUOUS
10
161.6213649361
20
231.9337676263
40
1.8000000609
0
ENDSEC
0
EOF
