0
SECTION
2
HEADER
9
$EXTMAX
10
841.0000000000
20
594.0000000000
9
$EXTMIN
10
0.0000000000
20
0.0000000000
9
$LIMMIN
10
0.0000000000
20
0.0000000000
9
$LIMMAX
10
841.0000000000
20
594.0000000000
9
$VIEWCTR
10
420.5000000000
20
297.0000000000
9
$VIEWSIZE
40
594.0000000000
9
$CLAYER
8
0
9
$LTSCALE
40
46.2550000000
9
$CELTYPE
6
BYLAYER
9
$DIMSCALE
40
1
9
$DIMASZ
40
3.5000000000
9
$DIMEXO
40
5.2562500000
9
$DIMDLI
40
31.9580000000
9
$DIMEXE
40
15.1380000000
9
$DIMCEN
40
7.5690000000
9
$DIMLFAC
40
1.0000000000
0
ENDSEC
0
SECTION
2
TABLES
0
TABLE
2
LTYPE
70
6
0
LTYPE
2
BYBLOCK
70
0
3

72
65
73
0
40
0.0
0
LTYPE
2
BYLAYER
70
0
3

72
65
73
0
40
0.0
0
LTYPE
2
CONTINUOUS
70
64
3
Solid line
72
65
73
0
40
0
0
LTYPE
2
CENTER
70
64
3
____ _ ____ _ ____ _ ____ _ ____ _ ____ _ ____
72
65
73
4
40
0.6
49
0.375
49
-0.075
49
0.075
49
-0.075
0
LTYPE
2
HIDDEN
70
64
3
- - - - - - - - - - - - - - - - - - - -
72
65
73
2
40
0.2
49
0.1
49
-0.1
0
LTYPE
2
PHANTOM
70
64
3
_____ _ _ _____ _ _ _____ _ _ _____
72
65
73
6
40
0.8
49
0.45
49
-0.05
49
0.1
49
-0.05
49
0.1
49
-0.05
0
LTYPE
2
DOT
70
64
3
. . . . . . . . . . . . . . . . . . . .
72
65
73
2
40
0.2
49
0.1
49
-0.1
0
LTYPE
2
DASHED
70
64
3
- - - - - - - - - - - - - - - - - - - -
72
65
73
2
40
0.2
49
0.1
49
-0.1
0
ENDTAB
0
TABLE
2
LAYER
70
36
0
LAYER
2
0
70
0
62
7
6
CONTINUOUS
0
LAYER
2
DEFAULT_1
70
0
62
7
6
CENTER
0
LAYER
2
DEFAULT_2
70
0
62
8
6
HIDDEN
0
LAYER
2
DEFAULT_3
70
0
62
7
6
PHANTOM
0
LAYER
2
10000_FRONT
70
0
62
7
6
CONTINUOUS
0
LAYER
2
10100_DIM_FRONT
70
0
62
7
6
CONTINUOUS
0
LAYER
2
10300_FRONT_GERMAN_ENGLISH
70
0
62
7
6
CONTINUOUS
0
LAYER
2
11000_LEFT
70
0
62
7
6
CONTINUOUS
0
LAYER
2
11100_DIM_LEFT
70
0
62
7
6
CONTINUOUS
0
LAYER
2
11300_LEFT_GERMAN_ENGLISH
70
0
62
7
6
CONTINUOUS
0
LAYER
2
12000_RIGHT
70
0
62
7
6
CONTINUOUS
0
LAYER
2
12100_DIM_RIGHT
70
0
62
7
6
CONTINUOUS
0
LAYER
2
12300_RIGHT_GERMAN_ENGLISH
70
0
62
7
6
CONTINUOUS
0
LAYER
2
13000_TOP
70
0
62
7
6
CONTINUOUS
0
LAYER
2
13100_DIM_TOP
70
0
62
7
6
CONTINUOUS
0
LAYER
2
13300_TOP_GERMAN_ENGLISH
70
0
62
7
6
CONTINUOUS
0
LAYER
2
14000_BOTTOM
70
0
62
7
6
CONTINUOUS
0
LAYER
2
14100_DIM_BOTTOM
70
0
62
7
6
CONTINUOUS
0
LAYER
2
14300_BOTTOM_GERMAN_ENGLISH
70
0
62
7
6
CONTINUOUS
0
LAYER
2
15000_BACK
70
0
62
7
6
CONTINUOUS
0
LAYER
2
15100_DIM_BACK
70
0
62
7
6
CONTINUOUS
0
LAYER
2
15300_BACK_GERMAN_ENGLISH
70
0
62
7
6
CONTINUOUS
0
LAYER
2
20000_FRONT_O
70
0
62
7
6
CONTINUOUS
0
LAYER
2
20100_DIM_FRONT_O
70
0
62
7
6
CONTINUOUS
0
LAYER
2
20300_FRONT_O_GERMAN_ENGLISH
70
0
62
7
6
CONTINUOUS
0
LAYER
2
40000_ISO
70
0
62
7
6
CONTINUOUS
0
LAYER
2
40300_ISO_GERMAN_ENGLISH
70
0
62
7
6
CONTINUOUS
0
LAYER
2
50000_WIRING
70
0
62
7
6
CONTINUOUS
0
LAYER
2
50300_WIRING_GERMAN_ENGLISH
70
0
62
7
6
CONTINUOUS
0
LAYER
2
90000_FRAME
70
0
62
7
6
CONTINUOUS
0
LAYER
2
91000_TIP
70
0
62
7
6
CONTINUOUS
0
ENDTAB
0
ENDSEC
0
SECTION
2
BLOCKS
0
BLOCK
8
10100_DIM_FRONT
62
7
6
CONTINUOUS
2
*D0
70
65
10
0.0000000000
20
0.0000000000
0
TEXT
8
10100_DIM_FRONT
62
7
6
CONTINUOUS
10
378.1353701027
20
284.9598460000
40
3.5000000000
1
2000
72
5
11
389.1353698973
21
284.9598460000
0
LINE
8
10100_DIM_FRONT
62
7
6
CONTINUOUS
10
237.9707570000
20
306.8245940000
11
237.9707570000
21
282.0848460000
0
LINE
8
10100_DIM_FRONT
62
7
6
CONTINUOUS
10
522.7556840000
20
341.8245940000
11
522.7556840000
21
282.0848460000
0
LINE
8
10100_DIM_FRONT
62
7
6
CONTINUOUS
10
237.9707570000
20
284.0848460000
11
380.3632205000
21
284.0848460000
0
LINE
8
10100_DIM_FRONT
62
7
6
CONTINUOUS
10
522.7556840000
20
284.0848460000
11
380.3632205000
21
284.0848460000
0
SOLID
8
10100_DIM_FRONT
62
7
6
CONTINUOUS
10
241.4707570000
20
284.5848460000
11
237.9707570000
21
284.0848460000
12
241.4707570000
22
283.5848460000
13
241.4707570000
23
283.5848460000
0
SOLID
8
10100_DIM_FRONT
62
7
6
CONTINUOUS
10
519.2556840000
20
283.5848460000
11
522.7556840000
21
284.0848460000
12
519.2556840000
22
284.5848460000
13
519.2556840000
23
284.5848460000
0
ENDBLK
8
0
0
BLOCK
8
10100_DIM_FRONT
62
7
6
CONTINUOUS
2
*D1
70
65
10
0.0000000000
20
0.0000000000
0
TEXT
8
10100_DIM_FRONT
62
7
6
CONTINUOUS
10
546.9371340000
20
381.2083340000
40
3.5000000000
1
155
50
90.0000000000
72
5
11
546.9371340000
21
388.2083340000
0
LINE
8
10100_DIM_FRONT
62
7
6
CONTINUOUS
10
522.7556840000
20
461.8245940000
11
549.8121340000
21
461.8245940000
0
LINE
8
10100_DIM_FRONT
62
7
6
CONTINUOUS
10
522.7556840000
20
306.8245940000
11
549.8121340000
21
306.8245940000
0
LINE
8
10100_DIM_FRONT
62
7
6
CONTINUOUS
10
547.8121340000
20
461.8245940000
11
547.8121340000
21
384.3245940000
0
LINE
8
10100_DIM_FRONT
62
7
6
CONTINUOUS
10
547.8121340000
20
306.8245940000
11
547.8121340000
21
384.3245940000
0
SOLID
8
10100_DIM_FRONT
62
7
6
CONTINUOUS
10
548.3121340000
20
458.3245940000
11
547.8121340000
21
461.8245940000
12
547.3121340000
22
458.3245940000
13
547.3121340000
23
458.3245940000
0
SOLID
8
10100_DIM_FRONT
62
7
6
CONTINUOUS
10
547.3121340000
20
310.3245940000
11
547.8121340000
21
306.8245940000
12
548.3121340000
22
310.3245940000
13
548.3121340000
23
310.3245940000
0
ENDBLK
8
0
0
BLOCK
8
11100_DIM_LEFT
62
7
6
CONTINUOUS
2
*D2
70
65
10
0.0000000000
20
0.0000000000
0
TEXT
8
11100_DIM_LEFT
62
7
6
CONTINUOUS
10
671.1639240000
20
284.9863730000
40
3.5000000000
1
15.7
72
5
11
680.4139240000
21
284.9863730000
0
LINE
8
11100_DIM_LEFT
62
7
6
CONTINUOUS
10
667.4073260000
20
311.0245940000
11
667.4073260000
21
282.1113730000
0
LINE
8
11100_DIM_LEFT
62
7
6
CONTINUOUS
10
683.1073260000
20
307.1245940000
11
683.1073260000
21
282.1113730000
0
LINE
8
11100_DIM_LEFT
62
7
6
CONTINUOUS
10
667.4073260000
20
284.1113730000
11
675.2573260000
21
284.1113730000
0
LINE
8
11100_DIM_LEFT
62
7
6
CONTINUOUS
10
683.1073260000
20
284.1113730000
11
675.2573260000
21
284.1113730000
0
SOLID
8
11100_DIM_LEFT
62
7
6
CONTINUOUS
10
670.9073260000
20
284.6113730000
11
667.4073260000
21
284.1113730000
12
670.9073260000
22
283.6113730000
13
670.9073260000
23
283.6113730000
0
SOLID
8
11100_DIM_LEFT
62
7
6
CONTINUOUS
10
679.6073260000
20
283.6113730000
11
683.1073260000
21
284.1113730000
12
679.6073260000
22
284.6113730000
13
679.6073260000
23
284.6113730000
0
ENDBLK
8
0
0
ENDSEC
0
SECTION
2
ENTITIES
0
DIMENSION
8
10100_DIM_FRONT
62
7
6
CONTINUOUS
2
*D0
10
522.7556840000
20
284.0848460000
11
383.6353700000
21
286.7098460000
70
128
13
237.9707570000
23
306.8245940000
14
522.7556840000
24
341.8245940000
0
DIMENSION
8
10100_DIM_FRONT
62
7
6
CONTINUOUS
2
*D1
10
547.8121340000
20
306.8245940000
11
545.1871340000
21
384.7083340000
70
128
13
522.7556840000
23
461.8245940000
14
522.7556840000
24
306.8245940000
50
270.000000
0
DIMENSION
8
11100_DIM_LEFT
62
7
6
CONTINUOUS
2
*D2
10
683.1073260000
20
284.1113730000
11
675.7889240000
21
286.7363730000
70
128
13
667.4073260000
23
311.0245940000
14
683.1073260000
24
307.1245940000
0
TEXT
8
90000_FRAME
62
7
6
CONTINUOUS
10
746.6600000000
20
11.9000000000
40
2.2000000000
1
Format / Size: DIN A1
72
5
11
779.7647619048
21
11.9000000000
0
TEXT
8
90000_FRAME
62
7
6
CONTINUOUS
10
789.1600000000
20
11.9000000000
40
2.2000000000
1
Massstab / Scale: 1:1
72
5
11
820.0647619048
21
11.9000000000
0
TEXT
8
90000_FRAME
62
7
6
CONTINUOUS
10
764.6250000000
20
20.2500000000
40
3.5000000000
1
6ES75901BC000AA0_001
72
5
11
818.2916666667
21
20.2500000000
0
TEXT
8
11300_LEFT_GERMAN_ENGLISH
62
7
6
CONTINUOUS
10
658.9943220000
20
493.0927680000
40
3.5000000000
1
Links / Left
72
5
11
687.4943220000
21
493.0927680000
0
TEXT
8
10300_FRONT_GERMAN_ENGLISH
62
7
6
CONTINUOUS
10
243.4650840000
20
493.7326780000
40
3.5000000000
1
Vorne / Front
72
5
11
276.0484173333
21
493.7326780000
0
TEXT
8
13300_TOP_GERMAN_ENGLISH
62
7
6
CONTINUOUS
10
242.7380410000
20
253.0815190000
40
3.5000000000
1
Oben / Top
72
5
11
269.1547076667
21
253.0815190000
0
TEXT
8
91000_TIP
62
7
6
CONTINUOUS
10
11.2756234532
20
15.1898618139
40
3.5000000000
1
Alle Bemassungswerte sind in Millimeter (mm) angegeben.
72
5
11
145.8589567865
21
15.1898618139
0
TEXT
8
91000_TIP
62
7
6
CONTINUOUS
10
11.2756234532
20
9.9398618139
40
3.5000000000
1
All dimensions are in millimeters (mm).
72
5
11
104.4422901199
21
9.9398618139
0
LINE
8
90000_FRAME
62
7
6
CONTINUOUS
10
0.0000000000
20
594.0000000000
11
0.0000000000
21
0.0000000000
0
LINE
8
90000_FRAME
62
7
6
CONTINUOUS
10
5.0000000000
20
589.0000000000
11
5.0000000000
21
5.0000000000
0
LINE
8
91000_TIP
62
7
6
CONTINUOUS
10
669.7690050000
20
20.5214770000
11
679.7690050000
21
23.0214770000
0
LINE
8
90000_FRAME
62
7
6
CONTINUOUS
10
0.0000000000
20
0.0000000000
11
841.0000000000
21
0.0000000000
0
LINE
8
90000_FRAME
62
7
6
CONTINUOUS
10
5.0000000000
20
5.0000000000
11
836.0000000000
21
5.0000000000
0
LINE
8
90000_FRAME
62
7
6
CONTINUOUS
10
696.0000000000
20
10.0000000000
11
831.0000000000
21
10.0000000000
0
LINE
8
90000_FRAME
62
7
6
CONTINUOUS
10
746.0000000000
20
16.0000000000
11
831.0000000000
21
16.0000000000
0
LINE
8
90000_FRAME
62
7
6
CONTINUOUS
10
719.5642260000
20
16.2683480000
11
720.4198150000
21
16.2683480000
0
LINE
8
90000_FRAME
62
7
6
CONTINUOUS
10
732.7545480000
20
16.3158800000
11
731.2335020000
21
16.3158800000
0
LINE
8
90000_FRAME
62
7
6
CONTINUOUS
10
723.1291780000
20
16.3158800000
11
721.7507300000
21
16.3158800000
0
LINE
8
90000_FRAME
62
7
6
CONTINUOUS
10
710.3904170000
20
16.3158800000
11
711.8163980000
21
16.3158800000
0
LINE
8
90000_FRAME
62
7
6
CONTINUOUS
10
712.9096500000
20
16.3158800000
11
716.4746010000
21
16.3158800000
0
LINE
8
90000_FRAME
62
7
6
CONTINUOUS
10
717.2826570000
20
16.3158800000
11
718.2333110000
21
16.3158800000
0
LINE
8
90000_FRAME
62
7
6
CONTINUOUS
10
724.2224300000
20
16.3158800000
11
727.7873820000
21
16.3158800000
0
LINE
8
90000_FRAME
62
7
6
CONTINUOUS
10
728.5716710000
20
16.3158800000
11
729.5223250000
21
16.3158800000
0
LINE
8
90000_FRAME
62
7
6
CONTINUOUS
10
727.7873820000
20
17.2190020000
11
725.6008780000
21
17.2190020000
0
LINE
8
90000_FRAME
62
7
6
CONTINUOUS
10
716.4746010000
20
17.2190020000
11
714.2880980000
21
17.2190020000
0
LINE
8
91000_TIP
62
7
6
CENTER
10
668.4894950000
20
18.0214780000
11
692.0914840000
21
18.0214780000
0
LINE
8
90000_FRAME
62
7
6
CONTINUOUS
10
727.4546530000
20
18.3360200000
11
725.6008780000
21
18.3360200000
0
LINE
8
90000_FRAME
62
7
6
CONTINUOUS
10
716.1418730000
20
18.3360200000
11
714.2880980000
21
18.3360200000
0
LINE
8
90000_FRAME
62
7
6
CONTINUOUS
10
727.4546530000
20
19.1203090000
11
725.6008780000
21
19.1203090000
0
LINE
8
90000_FRAME
62
7
6
CONTINUOUS
10
716.1418730000
20
19.1203090000
11
714.2880980000
21
19.1203090000
0
LINE
8
90000_FRAME
62
7
6
CONTINUOUS
10
727.7398490000
20
20.1897950000
11
725.6008780000
21
20.1897950000
0
LINE
8
90000_FRAME
62
7
6
CONTINUOUS
10
716.4270690000
20
20.1897950000
11
714.2880980000
21
20.1897950000
0
LINE
8
90000_FRAME
62
7
6
CONTINUOUS
10
732.7545480000
20
21.0691500000
11
731.8038940000
21
21.0691500000
0
LINE
8
90000_FRAME
62
7
6
CONTINUOUS
10
730.1164840000
20
21.0691500000
11
728.5716710000
21
21.0691500000
0
LINE
8
90000_FRAME
62
7
6
CONTINUOUS
10
727.7398490000
20
21.0691500000
11
724.2224300000
21
21.0691500000
0
LINE
8
90000_FRAME
62
7
6
CONTINUOUS
10
723.1291780000
20
21.0691500000
11
721.4180010000
21
21.0691500000
0
LINE
8
90000_FRAME
62
7
6
CONTINUOUS
10
718.9938340000
20
21.0691500000
11
717.2826570000
21
21.0691500000
0
LINE
8
90000_FRAME
62
7
6
CONTINUOUS
10
716.4270690000
20
21.0691500000
11
712.9096500000
21
21.0691500000
0
LINE
8
90000_FRAME
62
7
6
CONTINUOUS
10
710.3904170000
20
21.0691500000
11
711.8163980000
21
21.0691500000
0
LINE
8
90000_FRAME
62
7
6
CONTINUOUS
10
696.0000000000
20
28.0000000000
11
831.0000000000
21
28.0000000000
0
LINE
8
91000_TIP
62
7
6
CONTINUOUS
10
669.7690050000
20
15.5214780000
11
679.7690050000
21
13.0214780000
0
LINE
8
10000_FRONT
62
7
6
CONTINUOUS
10
237.9707570000
20
461.8245940000
11
237.9707570000
21
306.8245940000
0
LINE
8
13000_TOP
62
7
6
CONTINUOUS
10
237.9707570000
20
207.1264200000
11
237.9707570000
21
222.8264200000
0
LINE
8
13000_TOP
62
7
6
CONTINUOUS
10
522.7556840000
20
207.1264200000
11
428.7203490000
21
207.1264200000
0
LINE
8
13000_TOP
62
7
6
CONTINUOUS
10
395.1312900000
20
207.1264200000
11
237.9707570000
21
207.1264200000
0
LINE
8
13000_TOP
62
7
6
CONTINUOUS
10
522.7556840000
20
212.0764200000
11
425.9270930000
21
212.0764200000
0
LINE
8
13000_TOP
62
7
6
CONTINUOUS
10
392.3380340000
20
212.0764200000
11
237.9707570000
21
212.0764200000
0
LINE
8
10000_FRONT
62
7
6
CONTINUOUS
10
372.7488050000
20
353.3223770000
11
374.3832530000
21
360.9681330000
0
LINE
8
10000_FRONT
62
7
6
CONTINUOUS
10
374.3832530000
20
360.9681330000
11
376.7733190000
21
368.0030940000
0
LINE
8
10000_FRONT
62
7
6
CONTINUOUS
10
396.8689880000
20
400.6460940000
11
399.2594710000
21
407.6803320000
0
LINE
8
10000_FRONT
62
7
6
CONTINUOUS
10
376.7733190000
20
368.0030940000
11
379.7754230000
21
374.0654940000
0
LINE
8
10000_FRONT
62
7
6
CONTINUOUS
10
393.8667450000
20
394.5839350000
11
396.8689880000
21
400.6460940000
0
LINE
8
10000_FRONT
62
7
6
CONTINUOUS
10
379.7754230000
20
374.0654940000
11
383.1941570000
21
379.3815780000
0
LINE
8
10000_FRONT
62
7
6
CONTINUOUS
10
390.4480800000
20
389.2677310000
11
393.8667450000
21
394.5839350000
0
LINE
8
10000_FRONT
62
7
6
CONTINUOUS
10
383.1941570000
20
379.3815780000
11
390.4480800000
21
389.2677310000
0
LINE
8
13000_TOP
62
7
6
CONTINUOUS
10
522.7556840000
20
219.8264200000
11
420.7628790000
21
219.8264200000
0
LINE
8
13000_TOP
62
7
6
CONTINUOUS
10
387.1738200000
20
219.8264200000
11
237.9707570000
21
219.8264200000
0
LINE
8
13000_TOP
62
7
6
CONTINUOUS
10
522.7556840000
20
222.8264200000
11
420.4102120000
21
222.8264200000
0
LINE
8
13000_TOP
62
7
6
CONTINUOUS
10
386.8211530000
20
222.8264200000
11
237.9707570000
21
222.8264200000
0
LINE
8
13000_TOP
62
7
6
CONTINUOUS
10
388.5970830000
20
217.8085590000
11
386.8211530000
21
220.3264200000
0
LINE
8
13000_TOP
62
7
6
CONTINUOUS
10
392.5941840000
20
211.6839290000
11
388.5970830000
21
217.8085590000
0
LINE
8
13000_TOP
62
7
6
CONTINUOUS
10
395.1312900000
20
207.1264200000
11
392.5941840000
21
211.6839290000
0
LINE
8
10000_FRONT
62
7
6
CONTINUOUS
10
372.2838310000
20
338.0979720000
11
372.1540220000
21
341.5245940000
0
LINE
8
10000_FRONT
62
7
6
CONTINUOUS
10
372.1426570000
20
341.8245940000
11
372.0005970000
21
345.5745940000
0
LINE
8
13000_TOP
62
7
6
CONTINUOUS
10
386.8211530000
20
220.3264200000
11
386.8211530000
21
222.8264200000
0
LINE
8
10000_FRONT
62
7
6
CONTINUOUS
10
400.8941270000
20
415.3257270000
11
401.6417100000
21
423.0745940000
0
LINE
8
10000_FRONT
62
7
6
CONTINUOUS
10
372.0005970000
20
345.5745940000
11
372.7488050000
21
353.3223770000
0
LINE
8
10000_FRONT
62
7
6
CONTINUOUS
10
399.2594710000
20
407.6803320000
11
400.8941270000
21
415.3257270000
0
LINE
8
10000_FRONT
62
7
6
CONTINUOUS
10
407.9723120000
20
360.9681330000
11
406.3378640000
21
353.3223770000
0
LINE
8
10000_FRONT
62
7
6
CONTINUOUS
10
410.3623780000
20
368.0030940000
11
407.9723120000
21
360.9681330000
0
LINE
8
10000_FRONT
62
7
6
CONTINUOUS
10
413.3644820000
20
374.0654940000
11
410.3623780000
21
368.0030940000
0
LINE
8
10000_FRONT
62
7
6
CONTINUOUS
10
430.4580470000
20
400.6460940000
11
427.4558040000
21
394.5839350000
0
LINE
8
10000_FRONT
62
7
6
CONTINUOUS
10
416.7832160000
20
379.3815780000
11
413.3644820000
21
374.0654940000
0
LINE
8
10000_FRONT
62
7
6
CONTINUOUS
10
427.4558040000
20
394.5839350000
11
424.0371390000
21
389.2677310000
0
LINE
8
10000_FRONT
62
7
6
CONTINUOUS
10
424.0371390000
20
389.2677310000
11
416.7832160000
21
379.3815780000
0
LINE
8
13000_TOP
62
7
6
CONTINUOUS
10
420.4102120000
20
220.3264200000
11
422.1861420000
21
217.8085590000
0
LINE
8
13000_TOP
62
7
6
CONTINUOUS
10
422.1861420000
20
217.8085590000
11
426.1832430000
21
211.6839290000
0
LINE
8
13000_TOP
62
7
6
CONTINUOUS
10
426.1832430000
20
211.6839290000
11
428.7203490000
21
207.1264200000
0
LINE
8
10000_FRONT
62
7
6
CONTINUOUS
10
378.2149170000
20
320.5566210000
11
376.7733190000
21
323.1460940000
0
LINE
8
10000_FRONT
62
7
6
CONTINUOUS
10
381.0541020000
20
315.4567280000
11
378.2338070000
21
320.5226890000
0
LINE
8
10000_FRONT
62
7
6
CONTINUOUS
10
376.7733190000
20
323.1460940000
11
373.8020350000
21
330.7233770000
0
LINE
8
10000_FRONT
62
7
6
CONTINUOUS
10
373.8020350000
20
330.7233770000
11
372.2838310000
21
338.0979720000
0
LINE
8
10000_FRONT
62
7
6
CONTINUOUS
10
401.6417100000
20
423.0745940000
11
401.3568770000
21
430.5539860000
0
LINE
8
10000_FRONT
62
7
6
CONTINUOUS
10
405.5896560000
20
345.5745940000
11
405.8728900000
21
338.0979720000
0
LINE
8
13000_TOP
62
7
6
CONTINUOUS
10
420.4102120000
20
222.8264200000
11
420.4102120000
21
220.3264200000
0
LINE
8
10000_FRONT
62
7
6
CONTINUOUS
10
435.2307690000
20
423.0745940000
11
434.4831860000
21
415.3257270000
0
LINE
8
10000_FRONT
62
7
6
CONTINUOUS
10
406.3378640000
20
353.3223770000
11
405.5896560000
21
345.5745940000
0
LINE
8
10000_FRONT
62
7
6
CONTINUOUS
10
434.4831860000
20
415.3257270000
11
432.8485300000
21
407.6803320000
0
LINE
8
10000_FRONT
62
7
6
CONTINUOUS
10
432.8485300000
20
407.6803320000
11
430.4580470000
21
400.6460940000
0
LINE
8
11000_LEFT
62
7
6
CONTINUOUS
10
671.8299440000
20
441.9417680000
11
679.8073760000
21
445.6617050000
0
LINE
8
11000_LEFT
62
7
6
CONTINUOUS
10
672.1354340000
20
438.7740860000
11
670.9847080000
21
438.2374940000
0
LINE
8
11000_LEFT
62
7
6
CONTINUOUS
10
673.2230030000
20
439.2812280000
11
672.6792180000
21
439.0276570000
0
LINE
8
11000_LEFT
62
7
6
CONTINUOUS
10
679.8960170000
20
442.3929050000
11
674.8543570000
21
440.0419410000
0
LINE
8
11000_LEFT
62
7
6
CONTINUOUS
10
674.3105720000
20
439.7883700000
11
673.7667880000
21
439.5347990000
0
LINE
8
10000_FRONT
62
7
6
CONTINUOUS
10
386.8211530000
20
306.8245940000
11
385.0540540000
21
309.3271610000
0
LINE
8
10000_FRONT
62
7
6
CONTINUOUS
10
385.0540540000
20
309.3271610000
11
381.0541020000
21
315.4567280000
0
LINE
8
10000_FRONT
62
7
6
CONTINUOUS
10
411.8228660000
20
320.5226890000
11
414.6431610000
21
315.4567280000
0
LINE
8
10000_FRONT
62
7
6
CONTINUOUS
10
410.3623780000
20
323.1460940000
11
411.8039760000
21
320.5566210000
0
LINE
8
10000_FRONT
62
7
6
CONTINUOUS
10
407.3910940000
20
330.7233770000
11
410.3543040000
21
323.1666820000
0
LINE
8
10000_FRONT
62
7
6
CONTINUOUS
10
405.8728900000
20
338.0979720000
11
407.3910940000
21
330.7233770000
0
LINE
8
10000_FRONT
62
7
6
CONTINUOUS
10
434.9459350000
20
430.5539860000
11
435.2307690000
21
423.0745940000
0
LINE
8
11000_LEFT
62
7
6
CONTINUOUS
10
682.8073260000
20
306.8245940000
11
682.3375240000
21
306.8245940000
0
LINE
8
10000_FRONT
62
7
6
CONTINUOUS
10
522.7556840000
20
306.8245940000
11
420.4102120000
21
306.8245940000
0
LINE
8
10000_FRONT
62
7
6
CONTINUOUS
10
386.8211530000
20
306.8245940000
11
237.9707570000
21
306.8245940000
0
LINE
8
11000_LEFT
62
7
6
CONTINUOUS
10
667.9073260000
20
310.5245940000
11
671.3573260000
21
310.5245940000
0
LINE
8
11000_LEFT
62
7
6
CONTINUOUS
10
678.4573260000
20
310.5245940000
11
681.1159140000
21
310.5245940000
0
LINE
8
11000_LEFT
62
7
6
CONTINUOUS
10
679.2328260000
20
313.0245940000
11
678.3573260000
21
313.0245940000
0
LINE
8
11000_LEFT
62
7
6
CONTINUOUS
10
671.4573260000
20
313.0245940000
11
670.5818260000
21
313.0245940000
0
LINE
8
10000_FRONT
62
7
6
CONTINUOUS
10
237.9707570000
20
319.4957670000
11
378.8055100000
21
319.4957670000
0
LINE
8
10000_FRONT
62
7
6
CONTINUOUS
10
412.3945690000
20
319.4957670000
11
522.7556840000
21
319.4957670000
0
LINE
8
10000_FRONT
62
7
6
CONTINUOUS
10
237.9707570000
20
320.1258840000
11
378.4547140000
21
320.1258840000
0
LINE
8
10000_FRONT
62
7
6
CONTINUOUS
10
412.0437730000
20
320.1258840000
11
522.7556840000
21
320.1258840000
0
LINE
8
10000_FRONT
62
7
6
CONTINUOUS
10
237.9707570000
20
320.2694630000
11
378.3747820000
21
320.2694630000
0
LINE
8
10000_FRONT
62
7
6
CONTINUOUS
10
411.9638410000
20
320.2694630000
11
522.7556840000
21
320.2694630000
0
LINE
8
10000_FRONT
62
7
6
CONTINUOUS
10
237.9707570000
20
320.4130420000
11
378.2948490000
21
320.4130420000
0
LINE
8
10000_FRONT
62
7
6
CONTINUOUS
10
411.8839080000
20
320.4130420000
11
522.7556840000
21
320.4130420000
0
LINE
8
10000_FRONT
62
7
6
CONTINUOUS
10
237.9707570000
20
320.5226890000
11
378.2338070000
21
320.5226890000
0
LINE
8
10000_FRONT
62
7
6
CONTINUOUS
10
411.8228660000
20
320.5226890000
11
522.7556840000
21
320.5226890000
0
LINE
8
10000_FRONT
62
7
6
CONTINUOUS
10
237.9707570000
20
320.5566210000
11
378.2149170000
21
320.5566210000
0
LINE
8
10000_FRONT
62
7
6
CONTINUOUS
10
411.8039760000
20
320.5566210000
11
522.7556840000
21
320.5566210000
0
LINE
8
10000_FRONT
62
7
6
CONTINUOUS
10
237.9707570000
20
320.7002000000
11
378.1349840000
21
320.7002000000
0
LINE
8
10000_FRONT
62
7
6
CONTINUOUS
10
411.7240430000
20
320.7002000000
11
522.7556840000
21
320.7002000000
0
LINE
8
10000_FRONT
62
7
6
CONTINUOUS
10
237.9707570000
20
320.8437780000
11
378.0550520000
21
320.8437780000
0
LINE
8
10000_FRONT
62
7
6
CONTINUOUS
10
411.6441110000
20
320.8437780000
11
522.7556840000
21
320.8437780000
0
LINE
8
10000_FRONT
62
7
6
CONTINUOUS
10
237.9707570000
20
320.9873570000
11
377.9751190000
21
320.9873570000
0
LINE
8
10000_FRONT
62
7
6
CONTINUOUS
10
411.5641780000
20
320.9873570000
11
522.7556840000
21
320.9873570000
0
LINE
8
10000_FRONT
62
7
6
CONTINUOUS
10
237.9707570000
20
321.1309360000
11
377.8951870000
21
321.1309360000
0
LINE
8
10000_FRONT
62
7
6
CONTINUOUS
10
411.4842460000
20
321.1309360000
11
522.7556840000
21
321.1309360000
0
LINE
8
10000_FRONT
62
7
6
CONTINUOUS
10
237.9707570000
20
322.9927870000
11
376.8586670000
21
322.9927870000
0
LINE
8
10000_FRONT
62
7
6
CONTINUOUS
10
410.4477260000
20
322.9927870000
11
522.7556840000
21
322.9927870000
0
LINE
8
10000_FRONT
62
7
6
CONTINUOUS
10
237.9707570000
20
323.4876400000
11
376.6393880000
21
323.4876400000
0
LINE
8
10000_FRONT
62
7
6
CONTINUOUS
10
410.2284470000
20
323.4876400000
11
522.7556840000
21
323.4876400000
0
LINE
8
10000_FRONT
62
7
6
CONTINUOUS
10
418.6431130000
20
309.3271610000
11
420.4102120000
21
306.8245940000
0
LINE
8
10000_FRONT
62
7
6
CONTINUOUS
10
414.6431610000
20
315.4567280000
11
418.6431130000
21
309.3271610000
0
LINE
8
10000_FRONT
62
7
6
CONTINUOUS
10
399.8379080000
20
437.9299060000
11
396.8689880000
21
445.5030940000
0
LINE
8
10000_FRONT
62
7
6
CONTINUOUS
10
401.3568770000
20
430.5539860000
11
399.9813740000
21
437.2332520000
0
LINE
8
10000_FRONT
62
7
6
CONTINUOUS
10
522.7556840000
20
341.5245940000
11
405.7430810000
21
341.5245940000
0
LINE
8
10000_FRONT
62
7
6
CONTINUOUS
10
372.1540220000
20
341.5245940000
11
237.9707570000
21
341.5245940000
0
LINE
8
10000_FRONT
62
7
6
CONTINUOUS
10
522.7556840000
20
341.8245940000
11
405.7317160000
21
341.8245940000
0
LINE
8
10000_FRONT
62
7
6
CONTINUOUS
10
372.1426570000
20
341.8245940000
11
237.9707570000
21
341.8245940000
0
LINE
8
11000_LEFT
62
7
6
CONTINUOUS
10
682.3375240000
20
341.8245940000
11
682.8073260000
21
341.8245940000
0
LINE
8
11000_LEFT
62
7
6
CONTINUOUS
10
676.8566080000
20
317.0394950000
11
677.4580440000
21
316.9978120000
0
LINE
8
11000_LEFT
62
7
6
CONTINUOUS
10
673.2566080000
20
317.2890000000
11
673.8580440000
21
317.2473170000
0
LINE
8
11000_LEFT
62
7
6
CONTINUOUS
10
679.2566080000
20
316.8731590000
11
679.6780680000
21
316.8439490000
0
LINE
8
11000_LEFT
62
7
6
CONTINUOUS
10
670.9264670000
20
317.4504950000
11
671.4580440000
21
317.4136530000
0
LINE
8
11000_LEFT
62
7
6
CONTINUOUS
10
672.0566080000
20
317.3721690000
11
672.6580440000
21
317.3304850000
0
LINE
8
11000_LEFT
62
7
6
CONTINUOUS
10
674.4566080000
20
317.2058320000
11
675.0580440000
21
317.1641480000
0
LINE
8
11000_LEFT
62
7
6
CONTINUOUS
10
675.6566080000
20
317.1226640000
11
676.2580440000
21
317.0809800000
0
LINE
8
11000_LEFT
62
7
6
CONTINUOUS
10
678.0566080000
20
316.9563270000
11
678.6580440000
21
316.9146430000
0
LINE
8
11000_LEFT
62
7
6
CONTINUOUS
10
679.2085070000
20
319.7449780000
11
678.9202770000
21
319.7829240000
0
LINE
8
11000_LEFT
62
7
6
CONTINUOUS
10
678.1179180000
20
319.8885570000
11
677.8296880000
21
319.9265030000
0
LINE
8
11000_LEFT
62
7
6
CONTINUOUS
10
677.0273280000
20
320.0321360000
11
676.7390980000
21
320.0700820000
0
LINE
8
11000_LEFT
62
7
6
CONTINUOUS
10
675.9367390000
20
320.1757150000
11
675.6485090000
21
320.2136610000
0
LINE
8
11000_LEFT
62
7
6
CONTINUOUS
10
674.8461490000
20
320.3192940000
11
674.5579190000
21
320.3572400000
0
LINE
8
11000_LEFT
62
7
6
CONTINUOUS
10
672.6649710000
20
320.6064510000
11
672.3767410000
21
320.6443970000
0
LINE
8
11000_LEFT
62
7
6
CONTINUOUS
10
682.2378520000
20
319.3461570000
11
681.1014560000
21
319.4957670000
0
LINE
8
11000_LEFT
62
7
6
CONTINUOUS
10
673.7555600000
20
320.4628720000
11
673.4673300000
21
320.5008190000
0
LINE
8
11000_LEFT
62
7
6
CONTINUOUS
10
680.2990960000
20
319.6013990000
11
680.0108660000
21
319.6393460000
0
LINE
8
11000_LEFT
62
7
6
CONTINUOUS
10
679.6298950000
20
320.2694630000
11
679.8876300000
21
320.2355320000
0
LINE
8
11000_LEFT
62
7
6
CONTINUOUS
10
673.0863590000
20
321.1309360000
11
673.3440940000
21
321.0970050000
0
LINE
8
11000_LEFT
62
7
6
CONTINUOUS
10
680.7204850000
20
320.1258840000
11
680.9782190000
21
320.0919530000
0
LINE
8
11000_LEFT
62
7
6
CONTINUOUS
10
674.1769490000
20
320.9873570000
11
674.4346830000
21
320.9534260000
0
LINE
8
11000_LEFT
62
7
6
CONTINUOUS
10
675.2675380000
20
320.8437780000
11
675.5252720000
21
320.8098470000
0
LINE
8
11000_LEFT
62
7
6
CONTINUOUS
10
678.5393060000
20
320.4130420000
11
678.7970400000
21
320.3791110000
0
LINE
8
11000_LEFT
62
7
6
CONTINUOUS
10
676.3581270000
20
320.7002000000
11
676.6158620000
21
320.6662680000
0
LINE
8
11000_LEFT
62
7
6
CONTINUOUS
10
677.4487170000
20
320.5566210000
11
677.7064510000
21
320.5226890000
0
LINE
8
11000_LEFT
62
7
6
CONTINUOUS
10
672.7442270000
20
324.2018650000
11
673.1903780000
21
324.1431290000
0
LINE
8
11000_LEFT
62
7
6
CONTINUOUS
10
679.7339140000
20
323.2816560000
11
679.4761790000
21
323.3155870000
0
LINE
8
11000_LEFT
62
7
6
CONTINUOUS
10
674.2809670000
20
323.9995500000
11
674.0232320000
21
324.0334810000
0
LINE
8
11000_LEFT
62
7
6
CONTINUOUS
10
681.9150920000
20
322.9944980000
11
681.6573580000
21
323.0284290000
0
LINE
8
11000_LEFT
62
7
6
CONTINUOUS
10
680.8245030000
20
323.1380770000
11
680.5667690000
21
323.1720080000
0
LINE
8
11000_LEFT
62
7
6
CONTINUOUS
10
678.6433240000
20
323.4252350000
11
678.3855900000
21
323.4591660000
0
LINE
8
11000_LEFT
62
7
6
CONTINUOUS
10
675.3715560000
20
323.8559710000
11
675.1138220000
21
323.8899020000
0
LINE
8
11000_LEFT
62
7
6
CONTINUOUS
10
676.4621460000
20
323.7123920000
11
676.2044110000
21
323.7463240000
0
LINE
8
11000_LEFT
62
7
6
CONTINUOUS
10
677.5527350000
20
323.5688130000
11
677.2950010000
21
323.6027450000
0
LINE
8
11000_LEFT
62
7
6
CONTINUOUS
10
678.9166660000
20
323.9692100000
11
679.2048960000
21
323.9312640000
0
LINE
8
11000_LEFT
62
7
6
CONTINUOUS
10
680.0072550000
20
323.8256310000
11
680.2954850000
21
323.7876850000
0
LINE
8
11000_LEFT
62
7
6
CONTINUOUS
10
681.0978450000
20
323.6820520000
11
681.3860750000
21
323.6441060000
0
LINE
8
11000_LEFT
62
7
6
CONTINUOUS
10
673.4637190000
20
324.6871040000
11
673.7519490000
21
324.6491580000
0
LINE
8
11000_LEFT
62
7
6
CONTINUOUS
10
674.5543090000
20
324.5435250000
11
674.8425390000
21
324.5055790000
0
LINE
8
11000_LEFT
62
7
6
CONTINUOUS
10
677.8260770000
20
324.1127890000
11
678.1143070000
21
324.0748430000
0
LINE
8
11000_LEFT
62
7
6
CONTINUOUS
10
682.1884340000
20
323.5384740000
11
682.5420630000
21
323.4919180000
0
LINE
8
11000_LEFT
62
7
6
CONTINUOUS
10
675.6448980000
20
324.3999470000
11
675.9331280000
21
324.3620000000
0
LINE
8
11000_LEFT
62
7
6
CONTINUOUS
10
676.7354870000
20
324.2563680000
11
677.0237170000
21
324.2184210000
0
LINE
8
10000_FRONT
62
7
6
CONTINUOUS
10
392.5941840000
20
453.1821030000
11
388.5970830000
21
459.3067330000
0
LINE
8
10000_FRONT
62
7
6
CONTINUOUS
10
396.8689880000
20
445.5030940000
11
392.5941840000
21
453.1821030000
0
LINE
8
10000_FRONT
62
7
6
CONTINUOUS
10
433.5704330000
20
437.2332520000
11
434.9459350000
21
430.5539860000
0
LINE
8
10000_FRONT
62
7
6
CONTINUOUS
10
388.5970830000
20
459.3067330000
11
386.8211530000
21
461.8245940000
0
LINE
8
10000_FRONT
62
7
6
CONTINUOUS
10
422.1861420000
20
459.3067330000
11
426.1832430000
21
453.1821030000
0
LINE
8
10000_FRONT
62
7
6
CONTINUOUS
10
426.1832430000
20
453.1821030000
11
430.4580470000
21
445.5030940000
0
LINE
8
10000_FRONT
62
7
6
CONTINUOUS
10
430.4580470000
20
445.5030940000
11
433.4269670000
21
437.9299060000
0
LINE
8
10000_FRONT
62
7
6
CONTINUOUS
10
522.7556840000
20
320.7011950000
11
522.7556840000
21
320.6662680000
0
LINE
8
10000_FRONT
62
7
6
CONTINUOUS
10
522.7556840000
20
320.8447740000
11
522.7556840000
21
320.8098470000
0
LINE
8
10000_FRONT
62
7
6
CONTINUOUS
10
522.7556840000
20
320.9883530000
11
522.7556840000
21
320.9534260000
0
LINE
8
10000_FRONT
62
7
6
CONTINUOUS
10
522.7556840000
20
321.1319310000
11
522.7556840000
21
321.0970050000
0
LINE
8
10000_FRONT
62
7
6
CONTINUOUS
10
522.7556840000
20
320.2704590000
11
522.7556840000
21
320.2355320000
0
LINE
8
10000_FRONT
62
7
6
CONTINUOUS
10
522.7556840000
20
320.4140370000
11
522.7556840000
21
320.3791110000
0
LINE
8
10000_FRONT
62
7
6
CONTINUOUS
10
522.7556840000
20
320.5576160000
11
522.7556840000
21
320.5226890000
0
LINE
8
13000_TOP
62
7
6
CONTINUOUS
10
522.7556840000
20
222.8264200000
11
522.7556840000
21
219.8264200000
0
LINE
8
13000_TOP
62
7
6
CONTINUOUS
10
522.7556840000
20
219.7031470000
11
522.7556840000
21
207.1264200000
0
LINE
8
10000_FRONT
62
7
6
CONTINUOUS
10
522.7556840000
20
306.8245940000
11
522.7556840000
21
320.1268800000
0
LINE
8
10000_FRONT
62
7
6
CONTINUOUS
10
522.7556840000
20
321.2416230000
11
522.7556840000
21
461.8245940000
0
LINE
8
11000_LEFT
62
7
6
CONTINUOUS
10
670.1073260000
20
391.6745940000
11
670.4073260000
21
391.9745940000
0
LINE
8
10000_FRONT
62
7
6
CONTINUOUS
10
237.9707570000
20
391.3745940000
11
391.8029300000
21
391.3745940000
0
LINE
8
10000_FRONT
62
7
6
CONTINUOUS
10
425.3919890000
20
391.3745940000
11
522.7556840000
21
391.3745940000
0
LINE
8
10000_FRONT
62
7
6
CONTINUOUS
10
237.9707570000
20
391.6745940000
11
391.9958500000
21
391.6745940000
0
LINE
8
10000_FRONT
62
7
6
CONTINUOUS
10
425.5849080000
20
391.6745940000
11
522.7556840000
21
391.6745940000
0
LINE
8
10000_FRONT
62
7
6
CONTINUOUS
10
237.9707570000
20
391.9745940000
11
392.1887690000
21
391.9745940000
0
LINE
8
10000_FRONT
62
7
6
CONTINUOUS
10
425.7778280000
20
391.9745940000
11
522.7556840000
21
391.9745940000
0
LINE
8
10000_FRONT
62
7
6
CONTINUOUS
10
420.4102120000
20
461.8245940000
11
422.1861420000
21
459.3067330000
0
LINE
8
10000_FRONT
62
7
6
CONTINUOUS
10
399.9856480000
20
437.2124990000
11
237.9707570000
21
437.2124990000
0
LINE
8
10000_FRONT
62
7
6
CONTINUOUS
10
522.7556840000
20
437.2332520000
11
433.5704330000
21
437.2332520000
0
LINE
8
10000_FRONT
62
7
6
CONTINUOUS
10
399.9813740000
20
437.2332520000
11
237.9707570000
21
437.2332520000
0
LINE
8
90000_FRAME
62
7
6
CONTINUOUS
10
730.1164840000
20
21.0691500000
11
731.8038940000
21
18.1221230000
0
LINE
8
90000_FRAME
62
7
6
CONTINUOUS
10
731.2335020000
20
16.3158800000
11
729.5223250000
21
19.3579730000
0
LINE
8
10000_FRONT
62
7
6
CONTINUOUS
10
237.9707570000
20
449.8245940000
11
394.4632660000
21
449.8245940000
0
LINE
8
10000_FRONT
62
7
6
CONTINUOUS
10
428.0523240000
20
449.8245940000
11
522.7556840000
21
449.8245940000
0
LINE
8
10000_FRONT
62
7
6
CONTINUOUS
10
522.7556840000
20
461.8245940000
11
420.4102120000
21
461.8245940000
0
LINE
8
10000_FRONT
62
7
6
CONTINUOUS
10
386.8211530000
20
461.8245940000
11
237.9707570000
21
461.8245940000
0
LINE
8
11000_LEFT
62
7
6
CONTINUOUS
10
667.9073260000
20
461.8245940000
11
669.9073260000
21
461.8245940000
0
LINE
8
90000_FRAME
62
7
6
CONTINUOUS
10
719.5642260000
20
16.2683480000
11
718.2333110000
21
19.3579730000
0
LINE
8
90000_FRAME
62
7
6
CONTINUOUS
10
718.9938340000
20
21.0691500000
11
720.2296840000
21
18.1696550000
0
LINE
8
11000_LEFT
62
7
6
CONTINUOUS
10
669.3773870000
20
326.5703870000
11
667.9189420000
21
323.4297070000
0
LINE
8
11000_LEFT
62
7
6
CONTINUOUS
10
672.6649710000
20
320.6064510000
11
672.8828520000
21
321.0249970000
0
LINE
8
11000_LEFT
62
7
6
CONTINUOUS
10
673.7555600000
20
320.4628720000
11
673.9734410000
21
320.8814180000
0
LINE
8
11000_LEFT
62
7
6
CONTINUOUS
10
674.8461490000
20
320.3192940000
11
675.0640310000
21
320.7378390000
0
LINE
8
11000_LEFT
62
7
6
CONTINUOUS
10
675.9367390000
20
320.1757150000
11
676.1546200000
21
320.5942600000
0
LINE
8
11000_LEFT
62
7
6
CONTINUOUS
10
677.0273280000
20
320.0321360000
11
677.2452090000
21
320.4506810000
0
LINE
8
11000_LEFT
62
7
6
CONTINUOUS
10
678.1179180000
20
319.8885570000
11
678.3357990000
21
320.3071030000
0
LINE
8
11000_LEFT
62
7
6
CONTINUOUS
10
679.2085070000
20
319.7449780000
11
679.4263880000
21
320.1635240000
0
LINE
8
11000_LEFT
62
7
6
CONTINUOUS
10
680.2990960000
20
319.6013990000
11
680.5169770000
21
320.0199450000
0
LINE
8
11000_LEFT
62
7
6
CONTINUOUS
10
667.4073260000
20
311.0245940000
11
667.4073260000
21
312.4245940000
0
LINE
8
11000_LEFT
62
7
6
CONTINUOUS
10
667.4073260000
20
313.0245940000
11
667.4073260000
21
313.6245940000
0
LINE
8
11000_LEFT
62
7
6
CONTINUOUS
10
667.4073260000
20
314.2245940000
11
667.4073260000
21
314.8245940000
0
LINE
8
11000_LEFT
62
7
6
CONTINUOUS
10
667.4073260000
20
315.4245940000
11
667.4073260000
21
316.0245940000
0
LINE
8
11000_LEFT
62
7
6
CONTINUOUS
10
667.4073260000
20
316.6245940000
11
667.4073260000
21
317.2245940000
0
LINE
8
11000_LEFT
62
7
6
CONTINUOUS
10
667.4073260000
20
317.8245940000
11
667.4073260000
21
321.1132390000
0
LINE
8
11000_LEFT
62
7
6
CONTINUOUS
10
667.4073260000
20
340.2852640000
11
667.4073260000
21
461.3245940000
0
LINE
8
91000_TIP
62
7
6
CONTINUOUS
10
669.7690050000
20
20.5214770000
11
669.7690050000
21
15.5214780000
0
LINE
8
11000_LEFT
62
7
6
CONTINUOUS
10
669.8573260000
20
313.7490940000
11
669.8573260000
21
316.4528880000
0
LINE
8
11000_LEFT
62
7
6
CONTINUOUS
10
670.4073260000
20
461.3245940000
11
670.4073260000
21
442.8480750000
0
LINE
8
11000_LEFT
62
7
6
CONTINUOUS
10
670.4073260000
20
340.2852640000
11
670.4073260000
21
391.3745940000
0
LINE
8
11000_LEFT
62
7
6
CONTINUOUS
10
670.4073260000
20
391.9745940000
11
670.4073260000
21
437.3311860000
0
LINE
8
11000_LEFT
62
7
6
CONTINUOUS
10
671.8573260000
20
311.0245940000
11
671.8573260000
21
312.6245940000
0
LINE
8
11000_LEFT
62
7
6
CONTINUOUS
10
677.9573260000
20
312.6245940000
11
677.9573260000
21
311.0245940000
0
LINE
8
11000_LEFT
62
7
6
CONTINUOUS
10
678.1573260000
20
447.9387510000
11
678.1573260000
21
448.8245940000
0
LINE
8
91000_TIP
62
7
6
CONTINUOUS
10
679.7690050000
20
23.0214770000
11
679.7690050000
21
13.0214780000
0
LINE
8
11000_LEFT
62
7
6
CONTINUOUS
10
679.9573260000
20
316.5446670000
11
679.9573260000
21
313.7490940000
0
LINE
8
11000_LEFT
62
7
6
CONTINUOUS
10
680.6073260000
20
437.7124990000
11
680.6073260000
21
441.9397510000
0
LINE
8
11000_LEFT
62
7
6
CONTINUOUS
10
683.1073260000
20
444.5999640000
11
683.1073260000
21
438.9422250000
0
LINE
8
11000_LEFT
62
7
6
CONTINUOUS
10
683.1073260000
20
341.5245940000
11
683.1073260000
21
323.9876400000
0
LINE
8
11000_LEFT
62
7
6
CONTINUOUS
10
683.1073260000
20
318.3547130000
11
683.1073260000
21
307.1245940000
0
LINE
8
91000_TIP
62
7
6
CENTER
10
686.2690050000
20
12.2999960000
11
686.2690050000
21
23.5833820000
0
LINE
8
11000_LEFT
62
7
6
CONTINUOUS
10
672.3767410000
20
320.6443970000
11
672.4260720000
21
321.0191080000
0
LINE
8
11000_LEFT
62
7
6
CONTINUOUS
10
673.4147720000
20
324.3153120000
11
673.4637190000
21
324.6871040000
0
LINE
8
11000_LEFT
62
7
6
CONTINUOUS
10
673.5162770000
20
320.8726100000
11
673.4673300000
21
320.5008190000
0
LINE
8
11000_LEFT
62
7
6
CONTINUOUS
10
674.5543090000
20
324.5435250000
11
674.5053610000
21
324.1717330000
0
LINE
8
11000_LEFT
62
7
6
CONTINUOUS
10
674.6068670000
20
320.7290320000
11
674.5579190000
21
320.3572400000
0
LINE
8
11000_LEFT
62
7
6
CONTINUOUS
10
675.6448980000
20
324.3999470000
11
675.5959510000
21
324.0281550000
0
LINE
8
11000_LEFT
62
7
6
CONTINUOUS
10
675.6974560000
20
320.5854530000
11
675.6485090000
21
320.2136610000
0
LINE
8
11000_LEFT
62
7
6
CONTINUOUS
10
676.7354870000
20
324.2563680000
11
676.6865400000
21
323.8845760000
0
LINE
8
11000_LEFT
62
7
6
CONTINUOUS
10
676.7880460000
20
320.4418740000
11
676.7390980000
21
320.0700820000
0
LINE
8
11000_LEFT
62
7
6
CONTINUOUS
10
677.8260770000
20
324.1127890000
11
677.7771290000
21
323.7409970000
0
LINE
8
11000_LEFT
62
7
6
CONTINUOUS
10
677.8786350000
20
320.2982950000
11
677.8296880000
21
319.9265030000
0
LINE
8
11000_LEFT
62
7
6
CONTINUOUS
10
678.9166660000
20
323.9692100000
11
678.8677190000
21
323.5974180000
0
LINE
8
11000_LEFT
62
7
6
CONTINUOUS
10
678.9692240000
20
320.1547160000
11
678.9202770000
21
319.7829240000
0
LINE
8
11000_LEFT
62
7
6
CONTINUOUS
10
680.0072550000
20
323.8256310000
11
679.9583080000
21
323.4538390000
0
LINE
8
11000_LEFT
62
7
6
CONTINUOUS
10
680.0598140000
20
320.0111370000
11
680.0108660000
21
319.6393460000
0
LINE
8
11000_LEFT
62
7
6
CONTINUOUS
10
681.0978450000
20
323.6820520000
11
681.0488970000
21
323.3102610000
0
LINE
8
11000_LEFT
62
7
6
CONTINUOUS
10
681.1504030000
20
319.8675590000
11
681.1014560000
21
319.4957670000
0
LINE
8
11000_LEFT
62
7
6
CONTINUOUS
10
682.1884340000
20
323.5384740000
11
682.1394870000
21
323.1666820000
0
LINE
8
11000_LEFT
62
7
6
CONTINUOUS
10
682.0477460000
20
341.6022400000
11
681.1540250000
21
338.2668250000
0
LINE
8
11000_LEFT
62
7
6
CONTINUOUS
10
670.4073260000
20
391.3745940000
11
670.1073260000
21
391.6745940000
0
LINE
8
11000_LEFT
62
7
6
CONTINUOUS
10
682.0477460000
20
307.0469480000
11
681.1159140000
21
310.5245940000
0
LINE
8
11000_LEFT
62
7
6
CONTINUOUS
10
673.8540790000
20
324.1884820000
11
673.7519490000
21
324.6491580000
0
LINE
8
11000_LEFT
62
7
6
CONTINUOUS
10
674.9446680000
20
324.0449030000
11
674.8425390000
21
324.5055790000
0
LINE
8
11000_LEFT
62
7
6
CONTINUOUS
10
676.0352570000
20
323.9013250000
11
675.9331280000
21
324.3620000000
0
LINE
8
11000_LEFT
62
7
6
CONTINUOUS
10
677.1258470000
20
323.7577460000
11
677.0237170000
21
324.2184210000
0
LINE
8
11000_LEFT
62
7
6
CONTINUOUS
10
678.2164360000
20
323.6141670000
11
678.1143070000
21
324.0748430000
0
LINE
8
11000_LEFT
62
7
6
CONTINUOUS
10
679.3070250000
20
323.4705880000
11
679.2048960000
21
323.9312640000
0
LINE
8
11000_LEFT
62
7
6
CONTINUOUS
10
680.3976150000
20
323.3270090000
11
680.2954850000
21
323.7876850000
0
LINE
8
11000_LEFT
62
7
6
CONTINUOUS
10
681.4882040000
20
323.1834310000
11
681.3860750000
21
323.6441060000
0
LINE
8
90000_FRAME
62
7
6
CONTINUOUS
10
696.0000000000
20
10.0000000000
11
696.0000000000
21
28.0000000000
0
LINE
8
90000_FRAME
62
7
6
CONTINUOUS
10
705.9698770000
20
16.4109460000
11
705.9698770000
21
17.3616000000
0
LINE
8
90000_FRAME
62
7
6
CONTINUOUS
10
709.2971650000
20
20.0709630000
11
709.2971650000
21
21.0216170000
0
LINE
8
90000_FRAME
62
7
6
CONTINUOUS
10
710.3904170000
20
21.0691500000
11
710.3904170000
21
16.3158800000
0
LINE
8
90000_FRAME
62
7
6
CONTINUOUS
10
711.8163980000
20
21.0691500000
11
711.8163980000
21
16.3158800000
0
LINE
8
90000_FRAME
62
7
6
CONTINUOUS
10
712.9096500000
20
21.0691500000
11
712.9096500000
21
16.3158800000
0
LINE
8
90000_FRAME
62
7
6
CONTINUOUS
10
714.2880980000
20
20.1897950000
11
714.2880980000
21
19.1203090000
0
LINE
8
90000_FRAME
62
7
6
CONTINUOUS
10
714.2880980000
20
18.3360200000
11
714.2880980000
21
17.2190020000
0
LINE
8
90000_FRAME
62
7
6
CONTINUOUS
10
716.1418730000
20
19.1203090000
11
716.1418730000
21
18.3360200000
0
LINE
8
90000_FRAME
62
7
6
CONTINUOUS
10
716.4270690000
20
21.0691500000
11
716.4270690000
21
20.1897950000
0
LINE
8
90000_FRAME
62
7
6
CONTINUOUS
10
716.4746010000
20
17.2190020000
11
716.4746010000
21
16.3158800000
0
LINE
8
90000_FRAME
62
7
6
CONTINUOUS
10
717.2826570000
20
16.3158800000
11
717.2826570000
21
21.0691500000
0
LINE
8
90000_FRAME
62
7
6
CONTINUOUS
10
836.0000000000
20
589.0000000000
11
5.0000000000
21
589.0000000000
0
LINE
8
90000_FRAME
62
7
6
CONTINUOUS
10
841.0000000000
20
594.0000000000
11
0.0000000000
21
594.0000000000
0
LINE
8
90000_FRAME
62
7
6
CONTINUOUS
10
718.2333110000
20
16.3158800000
11
718.2333110000
21
19.3579730000
0
LINE
8
90000_FRAME
62
7
6
CONTINUOUS
10
721.7507300000
20
19.4055050000
11
721.7507300000
21
16.3158800000
0
LINE
8
90000_FRAME
62
7
6
CONTINUOUS
10
723.1291780000
20
21.0691500000
11
723.1291780000
21
16.3158800000
0
LINE
8
90000_FRAME
62
7
6
CONTINUOUS
10
724.2224300000
20
21.0691500000
11
724.2224300000
21
16.3158800000
0
LINE
8
90000_FRAME
62
7
6
CONTINUOUS
10
725.6008780000
20
20.1897950000
11
725.6008780000
21
19.1203090000
0
LINE
8
90000_FRAME
62
7
6
CONTINUOUS
10
725.6008780000
20
18.3360200000
11
725.6008780000
21
17.2190020000
0
LINE
8
90000_FRAME
62
7
6
CONTINUOUS
10
727.4546530000
20
19.1203090000
11
727.4546530000
21
18.3360200000
0
LINE
8
90000_FRAME
62
7
6
CONTINUOUS
10
727.7398490000
20
21.0691500000
11
727.7398490000
21
20.1897950000
0
LINE
8
90000_FRAME
62
7
6
CONTINUOUS
10
727.7873820000
20
17.2190020000
11
727.7873820000
21
16.3158800000
0
LINE
8
90000_FRAME
62
7
6
CONTINUOUS
10
728.5716710000
20
16.3158800000
11
728.5716710000
21
21.0691500000
0
LINE
8
90000_FRAME
62
7
6
CONTINUOUS
10
729.5223250000
20
16.3158800000
11
729.5223250000
21
19.3579730000
0
LINE
8
90000_FRAME
62
7
6
CONTINUOUS
10
731.8038940000
20
21.0691500000
11
731.8038940000
21
18.1221230000
0
LINE
8
90000_FRAME
62
7
6
CONTINUOUS
10
732.7545480000
20
21.0691500000
11
732.7545480000
21
16.3158800000
0
LINE
8
90000_FRAME
62
7
6
CONTINUOUS
10
733.5626040000
20
16.4109460000
11
733.5626040000
21
17.3616000000
0
LINE
8
90000_FRAME
62
7
6
CONTINUOUS
10
736.8898920000
20
20.0709630000
11
736.8898920000
21
21.0216170000
0
LINE
8
90000_FRAME
62
7
6
CONTINUOUS
10
746.0000000000
20
10.0000000000
11
746.0000000000
21
28.0000000000
0
LINE
8
90000_FRAME
62
7
6
CONTINUOUS
10
788.5000000000
20
10.0000000000
11
788.5000000000
21
16.0000000000
0
LINE
8
90000_FRAME
62
7
6
CONTINUOUS
10
721.4180010000
20
21.0691500000
11
720.2296840000
21
18.1696550000
0
LINE
8
90000_FRAME
62
7
6
CONTINUOUS
10
831.0000000000
20
10.0000000000
11
831.0000000000
21
28.0000000000
0
LINE
8
90000_FRAME
62
7
6
CONTINUOUS
10
836.0000000000
20
5.0000000000
11
836.0000000000
21
589.0000000000
0
LINE
8
90000_FRAME
62
7
6
CONTINUOUS
10
841.0000000000
20
0.0000000000
11
841.0000000000
21
594.0000000000
0
LINE
8
90000_FRAME
62
7
6
CONTINUOUS
10
721.7507300000
20
19.4055050000
11
720.4198150000
21
16.2683480000
0
LINE
8
90000_FRAME
62
7
6
CONTINUOUS
10
706.1617050000
20
20.4883440000
11
706.4357710000
21
20.7624170000
0
ARC
8
90000_FRAME
62
7
6
CONTINUOUS
10
735.2672450000
20
18.2730390000
40
1.1116190000
50
277.7099960000
51
295.6884930000
0
ARC
8
90000_FRAME
62
7
6
CONTINUOUS
10
735.5515550000
20
17.5482130000
40
0.3401690000
50
305.5032210000
51
72.4652900000
0
ARC
8
90000_FRAME
62
7
6
CONTINUOUS
10
734.9855610000
20
20.9499200000
40
4.7567950000
50
252.5939200000
51
280.9816600000
0
ARC
8
90000_FRAME
62
7
6
CONTINUOUS
10
735.4403960000
20
18.3319060000
40
2.1007270000
50
282.4058360000
51
311.8644430000
0
ARC
8
90000_FRAME
62
7
6
CONTINUOUS
10
735.1668320000
20
19.9402480000
40
0.3029630000
50
154.4400350000
51
221.8201700000
0
ARC
8
90000_FRAME
62
7
6
CONTINUOUS
10
735.2460530000
20
19.8610270000
40
0.4103090000
50
102.8287830000
51
149.2259640000
0
ARC
8
90000_FRAME
62
7
6
CONTINUOUS
10
735.6630800000
20
18.1186920000
40
2.2018370000
50
84.0400060000
51
103.3427660000
0
ARC
8
90000_FRAME
62
7
6
CONTINUOUS
10
735.3221160000
20
15.7013280000
40
4.6423740000
50
70.2625860000
51
82.9524190000
0
ARC
8
90000_FRAME
62
7
6
CONTINUOUS
10
734.8080980000
20
20.3729510000
40
3.2587560000
50
247.5300210000
51
280.7579520000
0
ARC
8
90000_FRAME
62
7
6
CONTINUOUS
10
728.4231320000
20
2.1214310000
40
17.3316080000
50
65.3414670000
51
67.3997770000
0
ARC
8
90000_FRAME
62
7
6
CONTINUOUS
10
739.2189940000
20
27.9138570000
40
10.6291640000
50
242.8620100000
51
247.1042030000
0
ARC
8
90000_FRAME
62
7
6
CONTINUOUS
10
735.3640930000
20
20.3799260000
40
2.1662920000
50
227.3119280000
51
242.7040320000
0
ARC
8
90000_FRAME
62
7
6
CONTINUOUS
10
734.7600620000
20
19.6742480000
40
1.2385220000
50
194.7952190000
51
225.7176550000
0
ARC
8
90000_FRAME
62
7
6
CONTINUOUS
10
734.8222200000
20
19.7144680000
40
1.3090920000
50
164.1974860000
51
195.8025140000
0
ARC
8
90000_FRAME
62
7
6
CONTINUOUS
10
735.3792440000
20
18.8262010000
40
2.3669250000
50
86.2218020000
51
120.4272600000
0
ARC
8
90000_FRAME
62
7
6
CONTINUOUS
10
735.1103870000
20
12.1300330000
40
9.0679050000
50
78.6827050000
51
87.3147600000
0
ARC
8
90000_FRAME
62
7
6
CONTINUOUS
10
734.6543180000
20
19.8219760000
40
1.1197470000
50
142.8139180000
51
167.1522950000
0
ARC
8
90000_FRAME
62
7
6
CONTINUOUS
10
734.9996270000
20
19.5153940000
40
1.5805470000
50
121.2140950000
51
141.5254770000
0
ARC
8
90000_FRAME
62
7
6
CONTINUOUS
10
735.5768020000
20
20.3264510000
40
0.8661280000
50
222.7760390000
51
239.0362430000
0
ARC
8
90000_FRAME
62
7
6
CONTINUOUS
10
733.0700920000
20
12.9961790000
40
6.8587740000
50
59.9020270000
51
68.2036480000
0
ARC
8
90000_FRAME
62
7
6
CONTINUOUS
10
736.4785870000
20
21.9220660000
40
2.6987410000
50
240.0482000000
51
251.3779670000
0
ARC
8
90000_FRAME
62
7
6
CONTINUOUS
10
735.8131290000
20
17.7651670000
40
1.4334470000
50
315.8904550000
51
333.5229260000
0
ARC
8
90000_FRAME
62
7
6
CONTINUOUS
10
735.8177680000
20
17.7117600000
40
1.4062290000
50
335.3867970000
51
24.3915120000
0
ARC
8
90000_FRAME
62
7
6
CONTINUOUS
10
735.7455630000
20
17.6339030000
40
1.5047030000
50
25.9562920000
51
59.4834830000
0
ARC
8
90000_FRAME
62
7
6
CONTINUOUS
10
707.6745180000
20
18.2730390000
40
1.1116190000
50
277.7099960000
51
295.6884930000
0
ARC
8
90000_FRAME
62
7
6
CONTINUOUS
10
707.9588280000
20
17.5482130000
40
0.3401690000
50
305.5032210000
51
72.4652900000
0
ARC
8
90000_FRAME
62
7
6
CONTINUOUS
10
707.3928340000
20
20.9499200000
40
4.7567950000
50
252.5939200000
51
280.9816600000
0
ARC
8
90000_FRAME
62
7
6
CONTINUOUS
10
707.8476690000
20
18.3319060000
40
2.1007270000
50
282.4058360000
51
311.8644430000
0
ARC
8
90000_FRAME
62
7
6
CONTINUOUS
10
707.5741050000
20
19.9402480000
40
0.3029630000
50
154.4400350000
51
221.8201700000
0
ARC
8
90000_FRAME
62
7
6
CONTINUOUS
10
707.6533260000
20
19.8610270000
40
0.4103090000
50
102.8287830000
51
149.2259640000
0
ARC
8
90000_FRAME
62
7
6
CONTINUOUS
10
708.0703530000
20
18.1186920000
40
2.2018370000
50
84.0400060000
51
103.3427660000
0
ARC
8
90000_FRAME
62
7
6
CONTINUOUS
10
707.7293890000
20
15.7013280000
40
4.6423740000
50
70.2625860000
51
82.9524190000
0
ARC
8
90000_FRAME
62
7
6
CONTINUOUS
10
707.2153710000
20
20.3729510000
40
3.2587560000
50
247.5300210000
51
280.7579520000
0
ARC
8
90000_FRAME
62
7
6
CONTINUOUS
10
700.8304050000
20
2.1214310000
40
17.3316080000
50
65.3414670000
51
67.3997770000
0
ARC
8
90000_FRAME
62
7
6
CONTINUOUS
10
711.6262670000
20
27.9138570000
40
10.6291640000
50
242.8620100000
51
247.1042030000
0
ARC
8
90000_FRAME
62
7
6
CONTINUOUS
10
707.7713660000
20
20.3799260000
40
2.1662920000
50
227.3119280000
51
242.7040320000
0
ARC
8
90000_FRAME
62
7
6
CONTINUOUS
10
707.1673350000
20
19.6742480000
40
1.2385220000
50
194.7952190000
51
225.7176550000
0
ARC
8
90000_FRAME
62
7
6
CONTINUOUS
10
707.7865170000
20
18.8262010000
40
2.3669250000
50
86.2218020000
51
120.4272600000
0
ARC
8
90000_FRAME
62
7
6
CONTINUOUS
10
707.5176600000
20
12.1300330000
40
9.0679050000
50
78.6827050000
51
87.3147600000
0
ARC
8
90000_FRAME
62
7
6
CONTINUOUS
10
707.4069000000
20
19.5153940000
40
1.5805470000
50
121.2140950000
51
141.5254770000
0
ARC
8
90000_FRAME
62
7
6
CONTINUOUS
10
707.9840750000
20
20.3264510000
40
0.8661280000
50
222.7760390000
51
239.0362430000
0
ARC
8
90000_FRAME
62
7
6
CONTINUOUS
10
705.4773650000
20
12.9961790000
40
6.8587740000
50
59.9020270000
51
68.2036480000
0
ARC
8
90000_FRAME
62
7
6
CONTINUOUS
10
708.8858590000
20
21.9220660000
40
2.6987410000
50
240.0482000000
51
251.3779670000
0
ARC
8
90000_FRAME
62
7
6
CONTINUOUS
10
708.2204020000
20
17.7651670000
40
1.4334470000
50
315.8904550000
51
333.5229260000
0
ARC
8
90000_FRAME
62
7
6
CONTINUOUS
10
708.2250410000
20
17.7117600000
40
1.4062290000
50
335.3867970000
51
24.3915120000
0
ARC
8
90000_FRAME
62
7
6
CONTINUOUS
10
708.1528360000
20
17.6339030000
40
1.5047030000
50
25.9562920000
51
59.4834830000
0
ARC
8
90000_FRAME
62
7
6
CONTINUOUS
10
707.2294930000
20
19.7144680000
40
1.3090920000
50
164.1974860000
51
195.8025140000
0
ARC
8
90000_FRAME
62
7
6
CONTINUOUS
10
707.0615910000
20
19.8219760000
40
1.1197470000
50
142.8139180000
51
167.1522950000
0
CIRCLE
8
91000_TIP
62
7
6
CONTINUOUS
10
686.2690050000
20
18.0214780000
40
5.0000000000
0
CIRCLE
8
91000_TIP
62
7
6
CONTINUOUS
10
686.2690050000
20
18.0214780000
40
2.5000000000
0
ARC
8
11000_LEFT
62
7
6
CONTINUOUS
10
672.9073260000
20
321.1132390000
40
5.5000000000
50
155.0911370000
51
180.0000000000
0
ARC
8
11000_LEFT
62
7
6
CONTINUOUS
10
672.9073260000
20
340.2852640000
40
5.5000000000
50
180.0000000000
51
224.5347140000
0
ARC
8
11000_LEFT
62
7
6
CONTINUOUS
10
672.9073260000
20
340.2852640000
40
2.5000000000
50
180.0000000000
51
290.7037060000
0
ARC
8
11000_LEFT
62
7
6
CONTINUOUS
10
667.2047210000
20
334.6745330000
40
2.5000000000
50
338.3657220000
51
44.5347140000
0
ARC
8
11000_LEFT
62
7
6
CONTINUOUS
10
667.1099400000
20
327.6233270000
40
2.5000000000
50
335.0911370000
51
20.0940600000
0
ARC
8
11000_LEFT
62
7
6
CONTINUOUS
10
672.5484380000
20
322.7146980000
40
1.5000000000
50
82.5000000000
51
259.1277130000
0
ARC
8
11000_LEFT
62
7
6
CONTINUOUS
10
670.8573260000
20
316.4528880000
40
1.0000000000
50
86.0353450000
51
180.0000000000
0
ARC
8
11000_LEFT
62
7
6
CONTINUOUS
10
671.3573260000
20
311.0245940000
40
0.5000000000
50
270.0000000000
51
360.0000000000
0
ARC
8
11000_LEFT
62
7
6
CONTINUOUS
10
667.9073260000
20
311.0245940000
40
0.5000000000
50
180.0000000000
51
270.0000000000
0
ARC
8
11000_LEFT
62
7
6
CONTINUOUS
10
669.4573260000
20
313.7490940000
40
0.4000000000
50
308.6821870000
51
360.0000000000
0
ARC
8
11000_LEFT
62
7
6
CONTINUOUS
10
669.9573260000
20
313.1245940000
40
0.4000000000
50
128.6821870000
51
321.3178130000
0
ARC
8
11000_LEFT
62
7
6
CONTINUOUS
10
670.5818260000
20
312.6245940000
40
0.4000000000
50
90.0000000000
51
141.3178130000
0
ARC
8
11000_LEFT
62
7
6
CONTINUOUS
10
671.4573260000
20
312.6245940000
40
0.4000000000
50
0.0000000000
51
90.0000000000
0
ARC
8
11000_LEFT
62
7
6
CONTINUOUS
10
667.4073260000
20
312.7245940000
40
0.3000000000
50
270.0000000000
51
90.0000000000
0
ARC
8
11000_LEFT
62
7
6
CONTINUOUS
10
667.4073260000
20
313.9245940000
40
0.3000000000
50
270.0000000000
51
90.0000000000
0
ARC
8
11000_LEFT
62
7
6
CONTINUOUS
10
667.4073260000
20
315.1245940000
40
0.3000000000
50
270.0000000000
51
90.0000000000
0
ARC
8
11000_LEFT
62
7
6
CONTINUOUS
10
667.4073260000
20
316.3245940000
40
0.3000000000
50
270.0000000000
51
90.0000000000
0
ARC
8
11000_LEFT
62
7
6
CONTINUOUS
10
667.4073260000
20
317.5245940000
40
0.3000000000
50
270.0000000000
51
90.0000000000
0
ARC
8
11000_LEFT
62
7
6
CONTINUOUS
10
674.1573260000
20
317.2265740000
40
0.3000000000
50
356.0353450000
51
176.0353450000
0
ARC
8
11000_LEFT
62
7
6
CONTINUOUS
10
672.9573260000
20
317.3097430000
40
0.3000000000
50
356.0353450000
51
176.0353450000
0
ARC
8
11000_LEFT
62
7
6
CONTINUOUS
10
671.7573260000
20
317.3929110000
40
0.3000000000
50
356.0353450000
51
176.0353450000
0
ARC
8
11000_LEFT
62
7
6
CONTINUOUS
10
674.3070720000
20
324.1978390000
40
0.2000000000
50
262.5000000000
51
352.5000000000
0
ARC
8
11000_LEFT
62
7
6
CONTINUOUS
10
674.0493380000
20
324.2317700000
40
0.2000000000
50
192.5000000000
51
262.5000000000
0
ARC
8
11000_LEFT
62
7
6
CONTINUOUS
10
673.2164830000
20
324.3414180000
40
0.2000000000
50
262.5000000000
51
352.5000000000
0
ARC
8
11000_LEFT
62
7
6
CONTINUOUS
10
672.2277830000
20
321.0452130000
40
0.2000000000
50
352.5000000000
51
79.1277130000
0
ARC
8
11000_LEFT
62
7
6
CONTINUOUS
10
673.0602540000
20
320.9326470000
40
0.2000000000
50
82.5000000000
51
152.5000000000
0
ARC
8
11000_LEFT
62
7
6
CONTINUOUS
10
673.3179880000
20
320.8987160000
40
0.2000000000
50
352.5000000000
51
82.5000000000
0
ARC
8
11000_LEFT
62
7
6
CONTINUOUS
10
674.1508430000
20
320.7890680000
40
0.2000000000
50
82.5000000001
51
152.5000000001
0
ARC
8
11000_LEFT
62
7
6
CONTINUOUS
10
674.4085780000
20
320.7551370000
40
0.2000000000
50
352.5000000000
51
82.5000000000
0
ARC
8
11000_LEFT
62
7
6
CONTINUOUS
10
671.4073260000
20
437.3311860000
40
1.0000000000
50
115.0000000000
51
180.0000000000
0
ARC
8
11000_LEFT
62
7
6
CONTINUOUS
10
671.4073260000
20
442.8480750000
40
1.0000000000
50
180.0000000000
51
295.0000000000
0
ARC
8
11000_LEFT
62
7
6
CONTINUOUS
10
667.9073260000
20
461.3245940000
40
0.5000000000
50
90.0000000000
51
180.0000000000
0
ARC
8
11000_LEFT
62
7
6
CONTINUOUS
10
669.9073260000
20
461.3245940000
40
0.5000000000
50
0.0000000000
51
90.0000000000
0
ARC
8
11000_LEFT
62
7
6
CONTINUOUS
10
674.5824650000
20
439.9151550000
40
0.3000000000
50
205.0000000000
51
25.0000000000
0
ARC
8
11000_LEFT
62
7
6
CONTINUOUS
10
673.4948950000
20
439.4080130000
40
0.3000000000
50
205.0000000000
51
25.0000000000
0
ARC
8
11000_LEFT
62
7
6
CONTINUOUS
10
672.4073260000
20
438.9008710000
40
0.3000000000
50
205.0000000000
51
25.0000000000
0
ARC
8
11000_LEFT
62
7
6
CONTINUOUS
10
678.4573260000
20
311.0245940000
40
0.5000000000
50
180.0000000000
51
270.0000000000
0
ARC
8
11000_LEFT
62
7
6
CONTINUOUS
10
678.3573260000
20
312.6245940000
40
0.4000000000
50
90.0000000000
51
180.0000000000
0
ARC
8
11000_LEFT
62
7
6
CONTINUOUS
10
677.7573260000
20
316.9770690000
40
0.3000000000
50
356.0353450000
51
176.0353450000
0
ARC
8
11000_LEFT
62
7
6
CONTINUOUS
10
676.5573260000
20
317.0602380000
40
0.3000000000
50
356.0353450000
51
176.0353450000
0
ARC
8
11000_LEFT
62
7
6
CONTINUOUS
10
675.3573260000
20
317.1434060000
40
0.3000000000
50
356.0353450000
51
176.0353450000
0
ARC
8
11000_LEFT
62
7
6
CONTINUOUS
10
678.9573260000
20
316.8939010000
40
0.3000000000
50
356.0353450000
51
176.0353450000
0
ARC
8
11000_LEFT
62
7
6
CONTINUOUS
10
678.6694300000
20
323.6235230000
40
0.2000000000
50
262.5000000000
51
352.5000000000
0
ARC
8
11000_LEFT
62
7
6
CONTINUOUS
10
678.4116950000
20
323.6574550000
40
0.2000000000
50
192.5000000000
51
262.5000000000
0
ARC
8
11000_LEFT
62
7
6
CONTINUOUS
10
677.5788400000
20
323.7671020000
40
0.2000000000
50
262.5000000000
51
352.5000000000
0
ARC
8
11000_LEFT
62
7
6
CONTINUOUS
10
677.3211060000
20
323.8010340000
40
0.2000000000
50
192.5000000000
51
262.5000000000
0
ARC
8
11000_LEFT
62
7
6
CONTINUOUS
10
676.4882510000
20
323.9106810000
40
0.2000000000
50
262.5000000000
51
352.5000000000
0
ARC
8
11000_LEFT
62
7
6
CONTINUOUS
10
676.2305160000
20
323.9446120000
40
0.2000000000
50
192.5000000000
51
262.5000000000
0
ARC
8
11000_LEFT
62
7
6
CONTINUOUS
10
675.3976620000
20
324.0542600000
40
0.2000000000
50
262.5000000001
51
352.5000000001
0
ARC
8
11000_LEFT
62
7
6
CONTINUOUS
10
675.1399270000
20
324.0881910000
40
0.2000000000
50
192.5000000000
51
262.5000000000
0
ARC
8
11000_LEFT
62
7
6
CONTINUOUS
10
675.2414330000
20
320.6454890000
40
0.2000000000
50
82.5000000000
51
152.5000000000
0
ARC
8
11000_LEFT
62
7
6
CONTINUOUS
10
675.4991670000
20
320.6115580000
40
0.2000000000
50
352.5000000000
51
82.5000000000
0
ARC
8
11000_LEFT
62
7
6
CONTINUOUS
10
676.3320220000
20
320.5019110000
40
0.2000000000
50
82.5000000000
51
152.5000000000
0
ARC
8
11000_LEFT
62
7
6
CONTINUOUS
10
676.5897570000
20
320.4679790000
40
0.2000000000
50
352.5000000000
51
82.5000000000
0
ARC
8
11000_LEFT
62
7
6
CONTINUOUS
10
677.4226110000
20
320.3583320000
40
0.2000000000
50
82.5000000000
51
152.5000000000
0
ARC
8
11000_LEFT
62
7
6
CONTINUOUS
10
677.6803460000
20
320.3244000000
40
0.2000000000
50
352.5000000000
51
82.5000000000
0
ARC
8
11000_LEFT
62
7
6
CONTINUOUS
10
678.5132010000
20
320.2147530000
40
0.2000000000
50
82.5000000001
51
152.5000000001
0
ARC
8
11000_LEFT
62
7
6
CONTINUOUS
10
678.7709350000
20
320.1808220000
40
0.2000000000
50
352.5000000000
51
82.5000000000
0
ARC
8
11000_LEFT
62
7
6
CONTINUOUS
10
676.4073260000
20
331.0245940000
40
7.4000000000
50
63.2504120000
51
110.7037060000
0
ARC
8
11000_LEFT
62
7
6
CONTINUOUS
10
676.4073260000
20
331.0245940000
40
7.4000000000
50
158.3657220000
51
200.0940600000
0
CIRCLE
8
11000_LEFT
62
7
6
CONTINUOUS
10
676.4073260000
20
331.0245940000
40
4.4000000000
0
ARC
8
11000_LEFT
62
7
6
CONTINUOUS
10
682.1073260000
20
318.3547130000
40
1.0000000000
50
0.0000000000
51
82.5000000000
0
ARC
8
11000_LEFT
62
7
6
CONTINUOUS
10
682.6073260000
20
323.9876400000
40
0.5000000000
50
262.5000000000
51
360.0000000000
0
ARC
8
11000_LEFT
62
7
6
CONTINUOUS
10
679.2328260000
20
312.6245940000
40
0.4000000000
50
38.6821870000
51
90.0000000000
0
ARC
8
11000_LEFT
62
7
6
CONTINUOUS
10
679.8573260000
20
313.1245940000
40
0.4000000000
50
218.6821870000
51
51.3178130000
0
ARC
8
11000_LEFT
62
7
6
CONTINUOUS
10
680.3573260000
20
313.7490940000
40
0.4000000000
50
180.0000000000
51
231.3178130000
0
ARC
8
11000_LEFT
62
7
6
CONTINUOUS
10
682.8073260000
20
307.1245940000
40
0.3000000000
50
270.0000000000
51
360.0000000000
0
ARC
8
11000_LEFT
62
7
6
CONTINUOUS
10
682.3375240000
20
307.1245940000
40
0.3000000000
50
195.0000000000
51
270.0000000000
0
ARC
8
11000_LEFT
62
7
6
CONTINUOUS
10
679.6573260000
20
316.5446670000
40
0.3000000000
50
0.0000000000
51
86.0353450000
0
ARC
8
11000_LEFT
62
7
6
CONTINUOUS
10
681.9411980000
20
323.1927870000
40
0.2000000000
50
262.5000000001
51
352.5000000001
0
ARC
8
11000_LEFT
62
7
6
CONTINUOUS
10
681.6834630000
20
323.2267180000
40
0.2000000000
50
192.5000000000
51
262.5000000000
0
ARC
8
11000_LEFT
62
7
6
CONTINUOUS
10
680.8506080000
20
323.3363660000
40
0.2000000000
50
262.5000000000
51
352.5000000000
0
ARC
8
11000_LEFT
62
7
6
CONTINUOUS
10
680.5928740000
20
323.3702970000
40
0.2000000000
50
192.5000000000
51
262.5000000000
0
ARC
8
11000_LEFT
62
7
6
CONTINUOUS
10
679.7600190000
20
323.4799450000
40
0.2000000000
50
262.5000000000
51
352.5000000000
0
ARC
8
11000_LEFT
62
7
6
CONTINUOUS
10
679.5022840000
20
323.5138760000
40
0.2000000000
50
192.5000000000
51
262.5000000000
0
ARC
8
11000_LEFT
62
7
6
CONTINUOUS
10
679.6037900000
20
320.0711740000
40
0.2000000000
50
82.5000000000
51
152.5000000000
0
ARC
8
11000_LEFT
62
7
6
CONTINUOUS
10
679.8615250000
20
320.0372430000
40
0.2000000000
50
352.5000000000
51
82.5000000000
0
ARC
8
11000_LEFT
62
7
6
CONTINUOUS
10
680.6943790000
20
319.9275950000
40
0.2000000000
50
82.5000000000
51
152.5000000000
0
ARC
8
11000_LEFT
62
7
6
CONTINUOUS
10
680.9521140000
20
319.8936640000
40
0.2000000000
50
352.5000000000
51
82.5000000000
0
ARC
8
11000_LEFT
62
7
6
CONTINUOUS
10
680.1880990000
20
338.5256440000
40
1.0000000000
50
243.2504120000
51
345.0000000000
0
ARC
8
11000_LEFT
62
7
6
CONTINUOUS
10
682.3375240000
20
341.5245940000
40
0.3000000000
50
90.0000000000
51
165.0000000000
0
ARC
8
11000_LEFT
62
7
6
CONTINUOUS
10
682.8073260000
20
341.5245940000
40
0.3000000000
50
0.0000000000
51
90.0000000000
0
ARC
8
11000_LEFT
62
7
6
CONTINUOUS
10
678.0993320000
20
447.8245940000
40
11.0500000000
50
286.5658950000
51
291.5509950000
0
ARC
8
11000_LEFT
62
7
6
CONTINUOUS
10
677.6073260000
20
444.5999640000
40
5.5000000000
50
0.0000000000
51
69.8521140000
0
ARC
8
11000_LEFT
62
7
6
CONTINUOUS
10
677.6073260000
20
444.5999640000
40
3.0000000000
50
37.2978180000
51
72.5423970000
0
ARC
8
11000_LEFT
62
7
6
CONTINUOUS
10
681.6073260000
20
438.9422250000
40
1.5000000000
50
291.5509950000
51
360.0000000000
0
ARC
8
11000_LEFT
62
7
6
CONTINUOUS
10
679.1573260000
20
448.8245940000
40
1.0000000000
50
69.8521140000
51
180.0000000000
0
ARC
8
11000_LEFT
62
7
6
CONTINUOUS
10
678.6573260000
20
447.9387510000
40
0.5000000000
50
180.0000000000
51
252.5423970000
0
ARC
8
11000_LEFT
62
7
6
CONTINUOUS
10
681.1073260000
20
437.7124990000
40
0.5000000000
50
180.0000000000
51
286.5658950000
0
ARC
8
11000_LEFT
62
7
6
CONTINUOUS
10
680.1073260000
20
441.9397510000
40
0.5000000000
50
0.0000000000
51
115.0000000000
0
ARC
8
11000_LEFT
62
7
6
CONTINUOUS
10
679.5960670000
20
446.1148590000
40
0.5000000000
50
295.0000000000
51
37.2978180000
0
ENDSEC
0
EOF
