0
SECTION
2
HEADER
9
$EXTMAX
10
841.0000000000
20
594.0000000000
9
$EXTMIN
10
0.0000000000
20
0.0000000000
9
$LIMMIN
10
0.0000000000
20
0.0000000000
9
$LIMMAX
10
841.0000000000
20
594.0000000000
9
$VIEWCTR
10
420.5000000000
20
297.0000000000
9
$VIEWSIZE
40
594.0000000000
9
$CLAYER
8
0
9
$LTSCALE
40
46.2550000000
9
$CELTYPE
6
BYLAYER
9
$DIMSCALE
40
1
9
$DIMASZ
40
3.5000000000
9
$DIMEXO
40
5.2562500000
9
$DIMDLI
40
31.9580000000
9
$DIMEXE
40
15.1380000000
9
$DIMCEN
40
7.5690000000
9
$DIMLFAC
40
1.0000000000
0
ENDSEC
0
SECTION
2
TABLES
0
TABLE
2
LTYPE
70
6
0
LTYPE
2
BYBLOCK
70
0
3

72
65
73
0
40
0.0
0
LTYPE
2
BYLAYER
70
0
3

72
65
73
0
40
0.0
0
LTYPE
2
CONTINUOUS
70
64
3
Solid line
72
65
73
0
40
0
0
LTYPE
2
CENTER
70
64
3
____ _ ____ _ ____ _ ____ _ ____ _ ____ _ ____
72
65
73
4
40
0.6
49
0.375
49
-0.075
49
0.075
49
-0.075
0
LTYPE
2
HIDDEN
70
64
3
- - - - - - - - - - - - - - - - - - - -
72
65
73
2
40
0.2
49
0.1
49
-0.1
0
LTYPE
2
PHANTOM
70
64
3
_____ _ _ _____ _ _ _____ _ _ _____
72
65
73
6
40
0.8
49
0.45
49
-0.05
49
0.1
49
-0.05
49
0.1
49
-0.05
0
LTYPE
2
DOT
70
64
3
. . . . . . . . . . . . . . . . . . . .
72
65
73
2
40
0.2
49
0.1
49
-0.1
0
LTYPE
2
DASHED
70
64
3
- - - - - - - - - - - - - - - - - - - -
72
65
73
2
40
0.2
49
0.1
49
-0.1
0
ENDTAB
0
TABLE
2
LAYER
70
36
0
LAYER
2
0
70
0
62
7
6
CONTINUOUS
0
LAYER
2
DEFAULT_1
70
0
62
7
6
CENTER
0
LAYER
2
DEFAULT_2
70
0
62
8
6
HIDDEN
0
LAYER
2
DEFAULT_3
70
0
62
7
6
PHANTOM
0
LAYER
2
10000_FRONT
70
0
62
7
6
CONTINUOUS
0
LAYER
2
10100_DIM_FRONT
70
0
62
7
6
CONTINUOUS
0
LAYER
2
10300_FRONT_GERMAN_ENGLISH
70
0
62
7
6
CONTINUOUS
0
LAYER
2
11000_LEFT
70
0
62
7
6
CONTINUOUS
0
LAYER
2
11100_DIM_LEFT
70
0
62
7
6
CONTINUOUS
0
LAYER
2
11300_LEFT_GERMAN_ENGLISH
70
0
62
7
6
CONTINUOUS
0
LAYER
2
12000_RIGHT
70
0
62
7
6
CONTINUOUS
0
LAYER
2
12100_DIM_RIGHT
70
0
62
7
6
CONTINUOUS
0
LAYER
2
12300_RIGHT_GERMAN_ENGLISH
70
0
62
7
6
CONTINUOUS
0
LAYER
2
13000_TOP
70
0
62
7
6
CONTINUOUS
0
LAYER
2
13100_DIM_TOP
70
0
62
7
6
CONTINUOUS
0
LAYER
2
13300_TOP_GERMAN_ENGLISH
70
0
62
7
6
CONTINUOUS
0
LAYER
2
14000_BOTTOM
70
0
62
7
6
CONTINUOUS
0
LAYER
2
14100_DIM_BOTTOM
70
0
62
7
6
CONTINUOUS
0
LAYER
2
14300_BOTTOM_GERMAN_ENGLISH
70
0
62
7
6
CONTINUOUS
0
LAYER
2
15000_BACK
70
0
62
7
6
CONTINUOUS
0
LAYER
2
15100_DIM_BACK
70
0
62
7
6
CONTINUOUS
0
LAYER
2
15300_BACK_GERMAN_ENGLISH
70
0
62
7
6
CONTINUOUS
0
LAYER
2
20000_FRONT_O
70
0
62
7
6
CONTINUOUS
0
LAYER
2
20100_DIM_FRONT_O
70
0
62
7
6
CONTINUOUS
0
LAYER
2
20300_FRONT_O_GERMAN_ENGLISH
70
0
62
7
6
CONTINUOUS
0
LAYER
2
40000_ISO
70
0
62
7
6
CONTINUOUS
0
LAYER
2
40300_ISO_GERMAN_ENGLISH
70
0
62
7
6
CONTINUOUS
0
LAYER
2
50000_WIRING
70
0
62
7
6
CONTINUOUS
0
LAYER
2
50300_WIRING_GERMAN_ENGLISH
70
0
62
7
6
CONTINUOUS
0
LAYER
2
90000_FRAME
70
0
62
7
6
CONTINUOUS
0
LAYER
2
91000_TIP
70
0
62
7
6
CONTINUOUS
0
ENDTAB
0
ENDSEC
0
SECTION
2
BLOCKS
0
BLOCK
8
10100_DIM_FRONT
6
CONTINUOUS
2
*D0
70
65
10
0.0000000000
20
0.0000000000
0
TEXT
8
10100_DIM_FRONT
6
CONTINUOUS
10
375.6353695800
20
284.9598457352
40
3.5000000000
1
830
72
5
11
383.6353694307
21
284.9598457352
0
LINE
8
10100_DIM_FRONT
6
CONTINUOUS
10
237.9707566760
20
306.8245941142
11
237.9707566760
21
282.0848457352
0
LINE
8
10100_DIM_FRONT
6
CONTINUOUS
10
522.7556843589
20
341.8245941142
11
522.7556843589
21
282.0848457352
0
LINE
8
10100_DIM_FRONT
6
CONTINUOUS
10
237.9707566760
20
284.0848457352
11
380.3632205175
21
284.0848457352
0
LINE
8
10100_DIM_FRONT
6
CONTINUOUS
10
522.7556843589
20
284.0848457352
11
380.3632205175
21
284.0848457352
0
SOLID
8
10100_DIM_FRONT
6
CONTINUOUS
10
241.4707566760
20
284.5848457352
11
237.9707566760
21
284.0848457352
12
241.4707566760
22
283.5848457352
13
241.4707566760
23
283.5848457352
0
SOLID
8
10100_DIM_FRONT
6
CONTINUOUS
10
519.2556843589
20
283.5848457352
11
522.7556843589
21
284.0848457352
12
519.2556843589
22
284.5848457352
13
519.2556843589
23
284.5848457352
0
ENDBLK
8
0
0
BLOCK
8
10100_DIM_FRONT
6
CONTINUOUS
2
*D1
70
65
10
0.0000000000
20
0.0000000000
0
TEXT
8
10100_DIM_FRONT
6
CONTINUOUS
10
546.9371342489
20
381.2083343100
40
3.5000000000
1
155
50
90.0000000000
72
5
11
546.9371342489
21
388.2083343100
0
LINE
8
10100_DIM_FRONT
6
CONTINUOUS
10
522.7556843589
20
461.8245941142
11
549.8121342489
21
461.8245941142
0
LINE
8
10100_DIM_FRONT
6
CONTINUOUS
10
522.7556843589
20
306.8245941142
11
549.8121342489
21
306.8245941142
0
LINE
8
10100_DIM_FRONT
6
CONTINUOUS
10
547.8121342489
20
461.8245941142
11
547.8121342489
21
384.3245941142
0
LINE
8
10100_DIM_FRONT
6
CONTINUOUS
10
547.8121342489
20
306.8245941142
11
547.8121342489
21
384.3245941142
0
SOLID
8
10100_DIM_FRONT
6
CONTINUOUS
10
548.3121342489
20
458.3245941142
11
547.8121342489
21
461.8245941142
12
547.3121342489
22
458.3245941142
13
547.3121342489
23
458.3245941142
0
SOLID
8
10100_DIM_FRONT
6
CONTINUOUS
10
547.3121342489
20
310.3245941142
11
547.8121342489
21
306.8245941142
12
548.3121342489
22
310.3245941142
13
548.3121342489
23
310.3245941142
0
ENDBLK
8
0
0
BLOCK
8
11100_DIM_LEFT
6
CONTINUOUS
2
*D2
70
65
10
0.0000000000
20
0.0000000000
0
TEXT
8
11100_DIM_LEFT
6
CONTINUOUS
10
671.1639237550
20
284.9863729650
40
3.5000000000
1
15.7
72
5
11
680.4139237550
21
284.9863729650
0
LINE
8
11100_DIM_LEFT
6
CONTINUOUS
10
667.4073259301
20
311.0245941142
11
667.4073259301
21
282.1113729650
0
LINE
8
11100_DIM_LEFT
6
CONTINUOUS
10
683.1073259301
20
307.1245941142
11
683.1073259301
21
282.1113729650
0
LINE
8
11100_DIM_LEFT
6
CONTINUOUS
10
667.4073259301
20
284.1113729650
11
675.2573259301
21
284.1113729650
0
LINE
8
11100_DIM_LEFT
6
CONTINUOUS
10
683.1073259301
20
284.1113729650
11
675.2573259301
21
284.1113729650
0
SOLID
8
11100_DIM_LEFT
6
CONTINUOUS
10
670.9073259301
20
284.6113729650
11
667.4073259301
21
284.1113729650
12
670.9073259301
22
283.6113729650
13
670.9073259301
23
283.6113729650
0
SOLID
8
11100_DIM_LEFT
6
CONTINUOUS
10
679.6073259301
20
283.6113729650
11
683.1073259301
21
284.1113729650
12
679.6073259301
22
284.6113729650
13
679.6073259301
23
284.6113729650
0
ENDBLK
8
0
0
ENDSEC
0
SECTION
2
ENTITIES
0
DIMENSION
8
10100_DIM_FRONT
6
CONTINUOUS
2
*D0
10
522.7556843589
20
284.0848457352
11
379.6353695053
21
286.7098457352
70
128
13
237.9707566760
23
306.8245941142
14
522.7556843589
24
341.8245941142
0
DIMENSION
8
10100_DIM_FRONT
6
CONTINUOUS
2
*D1
10
547.8121342489
20
306.8245941142
11
545.1871342489
21
384.7083343100
70
128
13
522.7556843589
23
461.8245941142
14
522.7556843589
24
306.8245941142
50
270.000000
0
DIMENSION
8
11100_DIM_LEFT
6
CONTINUOUS
2
*D2
10
683.1073259301
20
284.1113729650
11
675.7889237550
21
286.7363729650
70
128
13
667.4073259301
23
311.0245941142
14
683.1073259301
24
307.1245941142
0
TEXT
8
90000_FRAME
62
7
6
CONTINUOUS
10
746.6600000000
20
11.9000000000
40
2.2000000000
1
Format / Size: DIN A1
72
5
11
779.7647619048
21
11.9000000000
0
TEXT
8
90000_FRAME
62
7
6
CONTINUOUS
10
789.1600000000
20
11.9000000000
40
2.2000000000
1
Massstab / Scale: 1:1
72
5
11
820.0647619048
21
11.9000000000
0
TEXT
8
90000_FRAME
62
7
6
CONTINUOUS
10
764.6250000000
20
20.2500000000
40
3.5000000000
1
6ES75901AJ300AA0_001
72
5
11
817.6250000000
21
20.2500000000
0
TEXT
8
11300_LEFT_GERMAN_ENGLISH
6
CONTINUOUS
10
658.9943221420
20
493.0927677098
40
3.5000000000
1
Links / Left
72
5
11
687.4943221420
21
493.0927677098
0
TEXT
8
10300_FRONT_GERMAN_ENGLISH
6
CONTINUOUS
10
243.4650838883
20
493.7326780225
40
3.5000000000
1
Vorne / Front
72
5
11
276.0484172217
21
493.7326780225
0
TEXT
8
13300_TOP_GERMAN_ENGLISH
6
CONTINUOUS
10
242.7380411117
20
253.0815189549
40
3.5000000000
1
Oben / Top
72
5
11
269.1547077783
21
253.0815189549
0
TEXT
8
91000_TIP
62
7
6
CONTINUOUS
10
11.2756234532
20
15.1898618139
40
3.5000000000
1
Alle Bemassungswerte sind in Millimeter (mm) angegeben.
72
5
11
145.8589567865
21
15.1898618139
0
TEXT
8
91000_TIP
62
7
6
CONTINUOUS
10
11.2756234532
20
9.9398618139
40
3.5000000000
1
All dimensions are in millimeters (mm).
72
5
11
104.4422901199
21
9.9398618139
0
LINE
8
90000_FRAME
62
7
6
CONTINUOUS
10
0.0000000000
20
594.0000000000
11
0.0000000000
21
0.0000000000
0
LINE
8
90000_FRAME
62
7
6
CONTINUOUS
10
5.0000000000
20
589.0000000000
11
5.0000000000
21
5.0000000000
0
LINE
8
91000_TIP
62
7
6
CONTINUOUS
10
669.7690050000
20
20.5214770000
11
679.7690050000
21
23.0214770000
0
LINE
8
90000_FRAME
62
7
6
CONTINUOUS
10
0.0000000000
20
0.0000000000
11
841.0000000000
21
0.0000000000
0
LINE
8
90000_FRAME
62
7
6
CONTINUOUS
10
5.0000000000
20
5.0000000000
11
836.0000000000
21
5.0000000000
0
LINE
8
90000_FRAME
62
7
6
CONTINUOUS
10
696.0000000000
20
10.0000000000
11
831.0000000000
21
10.0000000000
0
LINE
8
90000_FRAME
62
7
6
CONTINUOUS
10
746.0000000000
20
16.0000000000
11
831.0000000000
21
16.0000000000
0
LINE
8
90000_FRAME
62
7
6
CONTINUOUS
10
719.5642260000
20
16.2683480000
11
720.4198150000
21
16.2683480000
0
LINE
8
90000_FRAME
62
7
6
CONTINUOUS
10
732.7545480000
20
16.3158800000
11
731.2335020000
21
16.3158800000
0
LINE
8
90000_FRAME
62
7
6
CONTINUOUS
10
723.1291780000
20
16.3158800000
11
721.7507300000
21
16.3158800000
0
LINE
8
90000_FRAME
62
7
6
CONTINUOUS
10
710.3904170000
20
16.3158800000
11
711.8163980000
21
16.3158800000
0
LINE
8
90000_FRAME
62
7
6
CONTINUOUS
10
712.9096500000
20
16.3158800000
11
716.4746010000
21
16.3158800000
0
LINE
8
90000_FRAME
62
7
6
CONTINUOUS
10
717.2826570000
20
16.3158800000
11
718.2333110000
21
16.3158800000
0
LINE
8
90000_FRAME
62
7
6
CONTINUOUS
10
724.2224300000
20
16.3158800000
11
727.7873820000
21
16.3158800000
0
LINE
8
90000_FRAME
62
7
6
CONTINUOUS
10
728.5716710000
20
16.3158800000
11
729.5223250000
21
16.3158800000
0
LINE
8
90000_FRAME
62
7
6
CONTINUOUS
10
727.7873820000
20
17.2190020000
11
725.6008780000
21
17.2190020000
0
LINE
8
90000_FRAME
62
7
6
CONTINUOUS
10
716.4746010000
20
17.2190020000
11
714.2880980000
21
17.2190020000
0
LINE
8
91000_TIP
62
7
6
CENTER
10
668.4894950000
20
18.0214780000
11
692.0914840000
21
18.0214780000
0
LINE
8
90000_FRAME
62
7
6
CONTINUOUS
10
727.4546530000
20
18.3360200000
11
725.6008780000
21
18.3360200000
0
LINE
8
90000_FRAME
62
7
6
CONTINUOUS
10
716.1418730000
20
18.3360200000
11
714.2880980000
21
18.3360200000
0
LINE
8
90000_FRAME
62
7
6
CONTINUOUS
10
727.4546530000
20
19.1203090000
11
725.6008780000
21
19.1203090000
0
LINE
8
90000_FRAME
62
7
6
CONTINUOUS
10
716.1418730000
20
19.1203090000
11
714.2880980000
21
19.1203090000
0
LINE
8
90000_FRAME
62
7
6
CONTINUOUS
10
727.7398490000
20
20.1897950000
11
725.6008780000
21
20.1897950000
0
LINE
8
90000_FRAME
62
7
6
CONTINUOUS
10
716.4270690000
20
20.1897950000
11
714.2880980000
21
20.1897950000
0
LINE
8
90000_FRAME
62
7
6
CONTINUOUS
10
732.7545480000
20
21.0691500000
11
731.8038940000
21
21.0691500000
0
LINE
8
90000_FRAME
62
7
6
CONTINUOUS
10
730.1164840000
20
21.0691500000
11
728.5716710000
21
21.0691500000
0
LINE
8
90000_FRAME
62
7
6
CONTINUOUS
10
727.7398490000
20
21.0691500000
11
724.2224300000
21
21.0691500000
0
LINE
8
90000_FRAME
62
7
6
CONTINUOUS
10
723.1291780000
20
21.0691500000
11
721.4180010000
21
21.0691500000
0
LINE
8
90000_FRAME
62
7
6
CONTINUOUS
10
718.9938340000
20
21.0691500000
11
717.2826570000
21
21.0691500000
0
LINE
8
90000_FRAME
62
7
6
CONTINUOUS
10
716.4270690000
20
21.0691500000
11
712.9096500000
21
21.0691500000
0
LINE
8
90000_FRAME
62
7
6
CONTINUOUS
10
710.3904170000
20
21.0691500000
11
711.8163980000
21
21.0691500000
0
LINE
8
90000_FRAME
62
7
6
CONTINUOUS
10
696.0000000000
20
28.0000000000
11
831.0000000000
21
28.0000000000
0
LINE
8
91000_TIP
62
7
6
CONTINUOUS
10
669.7690050000
20
15.5214780000
11
679.7690050000
21
13.0214780000
0
LINE
8
10000_FRONT
6
CONTINUOUS
10
237.9707566760
20
461.8245941142
11
237.9707566760
21
306.8245941142
0
LINE
8
13000_TOP
6
CONTINUOUS
10
237.9707566760
20
207.1264199608
11
237.9707566760
21
222.8264199608
0
LINE
8
13000_TOP
6
CONTINUOUS
10
522.7556843589
20
207.1264199608
11
428.7203487841
21
207.1264199608
0
LINE
8
13000_TOP
6
CONTINUOUS
10
395.1312899214
20
207.1264199608
11
237.9707566760
21
207.1264199608
0
LINE
8
13000_TOP
6
CONTINUOUS
10
522.7556843589
20
212.0764199608
11
425.9270927071
21
212.0764199608
0
LINE
8
13000_TOP
6
CONTINUOUS
10
392.3380338444
20
212.0764199608
11
237.9707566760
21
212.0764199608
0
LINE
8
10000_FRONT
6
CONTINUOUS
10
372.7488054307
20
353.3223771962
11
374.3832531114
21
360.9681333562
0
LINE
8
10000_FRONT
6
CONTINUOUS
10
374.3832531114
20
360.9681333562
11
376.7733186967
21
368.0030941142
0
LINE
8
10000_FRONT
6
CONTINUOUS
10
396.8689882024
20
400.6460941142
11
399.2594709504
21
407.6803323252
0
LINE
8
10000_FRONT
6
CONTINUOUS
10
376.7733186967
20
368.0030941142
11
379.7754230935
21
374.0654937657
0
LINE
8
10000_FRONT
6
CONTINUOUS
10
393.8667447514
20
394.5839353117
11
396.8689882024
21
400.6460941142
0
LINE
8
10000_FRONT
6
CONTINUOUS
10
379.7754230935
20
374.0654937657
11
383.1941569734
21
379.3815777080
0
LINE
8
10000_FRONT
6
CONTINUOUS
10
390.4480803986
20
389.2677309449
11
393.8667447514
21
394.5839353117
0
LINE
8
10000_FRONT
6
CONTINUOUS
10
383.1941569734
20
379.3815777080
11
390.4480803986
21
389.2677309449
0
LINE
8
13000_TOP
6
CONTINUOUS
10
522.7556843589
20
219.8264199608
11
420.7628786188
21
219.8264199608
0
LINE
8
13000_TOP
6
CONTINUOUS
10
387.1738197561
20
219.8264199608
11
237.9707566760
21
219.8264199608
0
LINE
8
13000_TOP
6
CONTINUOUS
10
522.7556843589
20
222.8264199608
11
420.4102123123
21
222.8264199608
0
LINE
8
13000_TOP
6
CONTINUOUS
10
386.8211534496
20
222.8264199608
11
237.9707566760
21
222.8264199608
0
LINE
8
13000_TOP
6
CONTINUOUS
10
388.5970829068
20
217.8085589912
11
386.8211534496
21
220.3264199608
0
LINE
8
13000_TOP
6
CONTINUOUS
10
392.5941839758
20
211.6839293374
11
388.5970829068
21
217.8085589912
0
LINE
8
13000_TOP
6
CONTINUOUS
10
395.1312899214
20
207.1264199608
11
392.5941839758
21
211.6839293374
0
LINE
8
10000_FRONT
6
CONTINUOUS
10
372.2838311900
20
338.0979720708
11
372.1540217834
21
341.5245941142
0
LINE
8
10000_FRONT
6
CONTINUOUS
10
372.1426569987
20
341.8245941142
11
372.0005971892
21
345.5745941142
0
LINE
8
13000_TOP
6
CONTINUOUS
10
386.8211534496
20
220.3264199608
11
386.8211534496
21
222.8264199608
0
LINE
8
10000_FRONT
6
CONTINUOUS
10
400.8941272125
20
415.3257272117
11
401.6417097099
21
423.0745941142
0
LINE
8
10000_FRONT
6
CONTINUOUS
10
372.0005971892
20
345.5745941142
11
372.7488054307
21
353.3223771962
0
LINE
8
10000_FRONT
6
CONTINUOUS
10
399.2594709504
20
407.6803323252
11
400.8941272125
21
415.3257272117
0
LINE
8
10000_FRONT
6
CONTINUOUS
10
407.9723119741
20
360.9681333562
11
406.3378642934
21
353.3223771962
0
LINE
8
10000_FRONT
6
CONTINUOUS
10
410.3623775594
20
368.0030941142
11
407.9723119741
21
360.9681333562
0
LINE
8
10000_FRONT
6
CONTINUOUS
10
413.3644819562
20
374.0654937657
11
410.3623775594
21
368.0030941142
0
LINE
8
10000_FRONT
6
CONTINUOUS
10
430.4580470651
20
400.6460941142
11
427.4558036141
21
394.5839353117
0
LINE
8
10000_FRONT
6
CONTINUOUS
10
416.7832158361
20
379.3815777080
11
413.3644819562
21
374.0654937657
0
LINE
8
10000_FRONT
6
CONTINUOUS
10
427.4558036141
20
394.5839353117
11
424.0371392613
21
389.2677309449
0
LINE
8
10000_FRONT
6
CONTINUOUS
10
424.0371392613
20
389.2677309449
11
416.7832158361
21
379.3815777080
0
LINE
8
13000_TOP
6
CONTINUOUS
10
420.4102123123
20
220.3264199608
11
422.1861417695
21
217.8085589912
0
LINE
8
13000_TOP
6
CONTINUOUS
10
422.1861417695
20
217.8085589912
11
426.1832428385
21
211.6839293374
0
LINE
8
13000_TOP
6
CONTINUOUS
10
426.1832428385
20
211.6839293374
11
428.7203487841
21
207.1264199608
0
LINE
8
10000_FRONT
6
CONTINUOUS
10
381.0541022553
20
315.4567282308
11
378.2338068868
21
320.5226893313
0
LINE
8
10000_FRONT
6
CONTINUOUS
10
378.2149167797
20
320.5566207234
11
376.7733186967
21
323.1460941142
0
LINE
8
10000_FRONT
6
CONTINUOUS
10
376.7733186967
20
323.1460941142
11
373.8020353105
21
330.7233769495
0
LINE
8
10000_FRONT
6
CONTINUOUS
10
373.8020353105
20
330.7233769495
11
372.2838311900
21
338.0979720708
0
LINE
8
10000_FRONT
6
CONTINUOUS
10
401.6417097099
20
423.0745941142
11
401.3568765854
21
430.5539859210
0
LINE
8
10000_FRONT
6
CONTINUOUS
10
405.5896560519
20
345.5745941142
11
405.8728900527
21
338.0979720708
0
LINE
8
13000_TOP
6
CONTINUOUS
10
420.4102123123
20
222.8264199608
11
420.4102123123
21
220.3264199608
0
LINE
8
10000_FRONT
6
CONTINUOUS
10
435.2307685727
20
423.0745941142
11
434.4831860752
21
415.3257272117
0
LINE
8
10000_FRONT
6
CONTINUOUS
10
406.3378642934
20
353.3223771962
11
405.5896560519
21
345.5745941142
0
LINE
8
10000_FRONT
6
CONTINUOUS
10
434.4831860752
20
415.3257272117
11
432.8485298131
21
407.6803323252
0
LINE
8
10000_FRONT
6
CONTINUOUS
10
432.8485298131
20
407.6803323252
11
430.4580470651
21
400.6460941142
0
LINE
8
11000_LEFT
6
CONTINUOUS
10
671.8299441918
20
441.9417675480
11
679.8073764667
21
445.6617053102
0
LINE
8
11000_LEFT
6
CONTINUOUS
10
679.8960167992
20
442.3929052192
11
674.8543569551
21
440.0419406240
0
LINE
8
11000_LEFT
6
CONTINUOUS
10
674.3105722829
20
439.7883696670
11
673.7667876106
21
439.5347987099
0
LINE
8
11000_LEFT
6
CONTINUOUS
10
673.2230029384
20
439.2812277529
11
672.6792182662
21
439.0276567959
0
LINE
8
11000_LEFT
6
CONTINUOUS
10
672.1354335940
20
438.7740858388
11
670.9847076683
21
438.2374935272
0
LINE
8
10000_FRONT
6
CONTINUOUS
10
386.8211534496
20
306.8245941142
11
385.0540539361
21
309.3271611725
0
LINE
8
10000_FRONT
6
CONTINUOUS
10
385.0540539361
20
309.3271611725
11
381.0541022553
21
315.4567282308
0
LINE
8
10000_FRONT
6
CONTINUOUS
10
410.3623775594
20
323.1460941142
11
411.8039756424
21
320.5566207234
0
LINE
8
10000_FRONT
6
CONTINUOUS
10
411.8228657495
20
320.5226893313
11
414.6431611180
21
315.4567282308
0
LINE
8
10000_FRONT
6
CONTINUOUS
10
407.3910941732
20
330.7233769495
11
410.3543044972
21
323.1666818092
0
LINE
8
10000_FRONT
6
CONTINUOUS
10
405.8728900527
20
338.0979720708
11
407.3910941732
21
330.7233769495
0
LINE
8
10000_FRONT
6
CONTINUOUS
10
434.9459354481
20
430.5539859210
11
435.2307685727
21
423.0745941142
0
LINE
8
11000_LEFT
6
CONTINUOUS
10
682.8073259301
20
306.8245941142
11
682.3375240265
21
306.8245941142
0
LINE
8
10000_FRONT
6
CONTINUOUS
10
522.7556843589
20
306.8245941142
11
420.4102123123
21
306.8245941142
0
LINE
8
10000_FRONT
6
CONTINUOUS
10
386.8211534496
20
306.8245941142
11
237.9707566760
21
306.8245941142
0
LINE
8
11000_LEFT
6
CONTINUOUS
10
667.9073259301
20
310.5245941142
11
671.3573259301
21
310.5245941142
0
LINE
8
11000_LEFT
6
CONTINUOUS
10
678.4573259301
20
310.5245941142
11
681.1159139181
21
310.5245941142
0
LINE
8
11000_LEFT
6
CONTINUOUS
10
679.2328261302
20
313.0245941142
11
678.3573259301
21
313.0245941142
0
LINE
8
11000_LEFT
6
CONTINUOUS
10
671.4573259301
20
313.0245941142
11
670.5818257299
21
313.0245941142
0
LINE
8
10000_FRONT
6
CONTINUOUS
10
237.9707566760
20
319.4957668632
11
378.8055097924
21
319.4957668632
0
LINE
8
10000_FRONT
6
CONTINUOUS
10
412.3945686551
20
319.4957668632
11
522.7556843589
21
319.4957668632
0
LINE
8
10000_FRONT
6
CONTINUOUS
10
237.9707566760
20
320.1258842891
11
378.4547141146
21
320.1258842891
0
LINE
8
10000_FRONT
6
CONTINUOUS
10
412.0437729773
20
320.1258842891
11
522.7556843589
21
320.1258842891
0
LINE
8
10000_FRONT
6
CONTINUOUS
10
237.9707566760
20
320.2694631006
11
378.3747816696
21
320.2694631006
0
LINE
8
10000_FRONT
6
CONTINUOUS
10
411.9638405323
20
320.2694631006
11
522.7556843589
21
320.2694631006
0
LINE
8
10000_FRONT
6
CONTINUOUS
10
237.9707566760
20
320.4130419120
11
378.2948492246
21
320.4130419120
0
LINE
8
10000_FRONT
6
CONTINUOUS
10
411.8839080873
20
320.4130419120
11
522.7556843589
21
320.4130419120
0
LINE
8
10000_FRONT
6
CONTINUOUS
10
237.9707566760
20
320.5226893313
11
378.2338068868
21
320.5226893313
0
LINE
8
10000_FRONT
6
CONTINUOUS
10
411.8228657495
20
320.5226893313
11
522.7556843589
21
320.5226893313
0
LINE
8
10000_FRONT
6
CONTINUOUS
10
237.9707566760
20
320.5566207234
11
378.2149167797
21
320.5566207234
0
LINE
8
10000_FRONT
6
CONTINUOUS
10
411.8039756424
20
320.5566207234
11
522.7556843589
21
320.5566207234
0
LINE
8
10000_FRONT
6
CONTINUOUS
10
237.9707566760
20
320.7001995349
11
378.1349843347
21
320.7001995349
0
LINE
8
10000_FRONT
6
CONTINUOUS
10
411.7240431974
20
320.7001995349
11
522.7556843589
21
320.7001995349
0
LINE
8
10000_FRONT
6
CONTINUOUS
10
237.9707566760
20
320.8437783463
11
378.0550518897
21
320.8437783463
0
LINE
8
10000_FRONT
6
CONTINUOUS
10
411.6441107524
20
320.8437783463
11
522.7556843589
21
320.8437783463
0
LINE
8
10000_FRONT
6
CONTINUOUS
10
237.9707566760
20
320.9873571578
11
377.9751194447
21
320.9873571578
0
LINE
8
10000_FRONT
6
CONTINUOUS
10
411.5641783074
20
320.9873571578
11
522.7556843589
21
320.9873571578
0
LINE
8
10000_FRONT
6
CONTINUOUS
10
237.9707566760
20
321.1309359692
11
377.8951869997
21
321.1309359692
0
LINE
8
10000_FRONT
6
CONTINUOUS
10
411.4842458624
20
321.1309359692
11
522.7556843589
21
321.1309359692
0
LINE
8
10000_FRONT
6
CONTINUOUS
10
237.9707566760
20
322.9927870476
11
376.8586670050
21
322.9927870476
0
LINE
8
10000_FRONT
6
CONTINUOUS
10
410.4477258677
20
322.9927870476
11
522.7556843589
21
322.9927870476
0
LINE
8
10000_FRONT
6
CONTINUOUS
10
237.9707566760
20
323.4876399365
11
376.6393881771
21
323.4876399365
0
LINE
8
10000_FRONT
6
CONTINUOUS
10
410.2284470398
20
323.4876399365
11
522.7556843589
21
323.4876399365
0
LINE
8
10000_FRONT
6
CONTINUOUS
10
418.6431127988
20
309.3271611725
11
420.4102123123
21
306.8245941142
0
LINE
8
10000_FRONT
6
CONTINUOUS
10
414.6431611180
20
315.4567282308
11
418.6431127988
21
309.3271611725
0
LINE
8
10000_FRONT
6
CONTINUOUS
10
399.8379076666
20
437.9299057119
11
396.8689882024
21
445.5030941142
0
LINE
8
10000_FRONT
6
CONTINUOUS
10
401.3568765854
20
430.5539859210
11
399.9813737983
21
437.2332524317
0
LINE
8
10000_FRONT
6
CONTINUOUS
10
522.7556843589
20
341.5245941142
11
405.7430806461
21
341.5245941142
0
LINE
8
10000_FRONT
6
CONTINUOUS
10
372.1540217834
20
341.5245941142
11
237.9707566760
21
341.5245941142
0
LINE
8
10000_FRONT
6
CONTINUOUS
10
522.7556843589
20
341.8245941142
11
405.7317158614
21
341.8245941142
0
LINE
8
10000_FRONT
6
CONTINUOUS
10
372.1426569987
20
341.8245941142
11
237.9707566760
21
341.8245941142
0
LINE
8
11000_LEFT
6
CONTINUOUS
10
682.3375240265
20
341.8245941142
11
682.8073259301
21
341.8245941142
0
LINE
8
11000_LEFT
6
CONTINUOUS
10
670.9264670019
20
317.4504952280
11
671.4580438623
21
317.4136532674
0
LINE
8
11000_LEFT
6
CONTINUOUS
10
672.0566079979
20
317.3721686244
11
672.6580438623
21
317.3304849506
0
LINE
8
11000_LEFT
6
CONTINUOUS
10
673.2566079979
20
317.2890003075
11
673.8580438623
21
317.2473166338
0
LINE
8
11000_LEFT
6
CONTINUOUS
10
674.4566079979
20
317.2058319907
11
675.0580438623
21
317.1641483169
0
LINE
8
11000_LEFT
6
CONTINUOUS
10
675.6566079979
20
317.1226636739
11
676.2580438623
21
317.0809800001
0
LINE
8
11000_LEFT
6
CONTINUOUS
10
676.8566079979
20
317.0394953570
11
677.4580438623
21
316.9978116833
0
LINE
8
11000_LEFT
6
CONTINUOUS
10
678.0566079979
20
316.9563270402
11
678.6580438623
21
316.9146433664
0
LINE
8
11000_LEFT
6
CONTINUOUS
10
679.2566079979
20
316.8731587234
11
679.6780682516
21
316.8439486068
0
LINE
8
11000_LEFT
6
CONTINUOUS
10
682.2378521223
20
319.3461574194
11
681.1014555738
21
319.4957668632
0
LINE
8
11000_LEFT
6
CONTINUOUS
10
680.2990962164
20
319.6013994766
11
680.0108662263
21
319.6393456747
0
LINE
8
11000_LEFT
6
CONTINUOUS
10
679.2085068689
20
319.7449782880
11
678.9202768788
21
319.7829244861
0
LINE
8
11000_LEFT
6
CONTINUOUS
10
678.1179175214
20
319.8885570995
11
677.8296875313
21
319.9265032976
0
LINE
8
11000_LEFT
6
CONTINUOUS
10
677.0273281739
20
320.0321359109
11
676.7390981838
21
320.0700821090
0
LINE
8
11000_LEFT
6
CONTINUOUS
10
675.9367388263
20
320.1757147224
11
675.6485088363
21
320.2136609204
0
LINE
8
11000_LEFT
6
CONTINUOUS
10
674.8461494788
20
320.3192935338
11
674.5579194888
21
320.3572397319
0
LINE
8
11000_LEFT
6
CONTINUOUS
10
673.7555601313
20
320.4628723453
11
673.4673301412
21
320.5008185433
0
LINE
8
11000_LEFT
6
CONTINUOUS
10
672.6649707838
20
320.6064511567
11
672.3767407937
21
320.6443973548
0
LINE
8
11000_LEFT
6
CONTINUOUS
10
673.0863592181
20
321.1309359692
11
673.3440937295
21
321.0970045771
0
LINE
8
11000_LEFT
6
CONTINUOUS
10
674.1769485656
20
320.9873571578
11
674.4346830770
21
320.9534257656
0
LINE
8
11000_LEFT
6
CONTINUOUS
10
675.2675379131
20
320.8437783463
11
675.5252724245
21
320.8098469542
0
LINE
8
11000_LEFT
6
CONTINUOUS
10
676.3581272606
20
320.7001995349
11
676.6158617720
21
320.6662681427
0
LINE
8
11000_LEFT
6
CONTINUOUS
10
677.4487166081
20
320.5566207234
11
677.7064511195
21
320.5226893313
0
LINE
8
11000_LEFT
6
CONTINUOUS
10
678.5393059556
20
320.4130419120
11
678.7970404671
21
320.3791105199
0
LINE
8
11000_LEFT
6
CONTINUOUS
10
679.6298953031
20
320.2694631006
11
679.8876298146
21
320.2355317084
0
LINE
8
11000_LEFT
6
CONTINUOUS
10
680.7204846507
20
320.1258842891
11
680.9782191621
21
320.0919528970
0
LINE
8
11000_LEFT
6
CONTINUOUS
10
681.9150924125
20
322.9944980754
11
681.6573579011
21
323.0284294675
0
LINE
8
11000_LEFT
6
CONTINUOUS
10
680.8245030650
20
323.1380768868
11
680.5667685536
21
323.1720082790
0
LINE
8
11000_LEFT
6
CONTINUOUS
10
679.7339137175
20
323.2816556983
11
679.4761792061
21
323.3155870904
0
LINE
8
11000_LEFT
6
CONTINUOUS
10
678.6433243700
20
323.4252345097
11
678.3855898585
21
323.4591659018
0
LINE
8
11000_LEFT
6
CONTINUOUS
10
677.5527350225
20
323.5688133211
11
677.2950005110
21
323.6027447133
0
LINE
8
11000_LEFT
6
CONTINUOUS
10
676.4621456749
20
323.7123921326
11
676.2044111635
21
323.7463235247
0
LINE
8
11000_LEFT
6
CONTINUOUS
10
675.3715563274
20
323.8559709440
11
675.1138218160
21
323.8899023362
0
LINE
8
11000_LEFT
6
CONTINUOUS
10
674.2809669799
20
323.9995497555
11
674.0232324685
21
324.0334811476
0
LINE
8
11000_LEFT
6
CONTINUOUS
10
672.7442274448
20
324.2018653534
11
673.1903776324
21
324.1431285669
0
LINE
8
11000_LEFT
6
CONTINUOUS
10
673.4637191652
20
324.6871041238
11
673.7519491553
21
324.6491579257
0
LINE
8
11000_LEFT
6
CONTINUOUS
10
674.5543085127
20
324.5435253123
11
674.8425385028
21
324.5055791142
0
LINE
8
11000_LEFT
6
CONTINUOUS
10
675.6448978602
20
324.3999465009
11
675.9331278503
21
324.3620003028
0
LINE
8
11000_LEFT
6
CONTINUOUS
10
676.7354872077
20
324.2563676894
11
677.0237171978
21
324.2184214914
0
LINE
8
11000_LEFT
6
CONTINUOUS
10
677.8260765553
20
324.1127888780
11
678.1143065453
21
324.0748426799
0
LINE
8
11000_LEFT
6
CONTINUOUS
10
678.9166659028
20
323.9692100665
11
679.2048958928
21
323.9312638685
0
LINE
8
11000_LEFT
6
CONTINUOUS
10
680.0072552503
20
323.8256312551
11
680.2954852403
21
323.7876850570
0
LINE
8
11000_LEFT
6
CONTINUOUS
10
681.0978445978
20
323.6820524437
11
681.3860745879
21
323.6441062456
0
LINE
8
11000_LEFT
6
CONTINUOUS
10
682.1884339453
20
323.5384736322
11
682.5420628340
21
323.4919175058
0
LINE
8
10000_FRONT
6
CONTINUOUS
10
392.5941839758
20
453.1821034907
11
388.5970829068
21
459.3067331446
0
LINE
8
10000_FRONT
6
CONTINUOUS
10
396.8689882024
20
445.5030941142
11
392.5941839758
21
453.1821034907
0
LINE
8
10000_FRONT
6
CONTINUOUS
10
433.5704326610
20
437.2332524317
11
434.9459354481
21
430.5539859210
0
LINE
8
10000_FRONT
6
CONTINUOUS
10
249.1694411142
20
388.2745941142
11
256.7720722377
21
388.2745941142
0
LINE
8
10000_FRONT
6
CONTINUOUS
10
503.9543687972
20
388.2745941142
11
511.5569999207
21
388.2745941142
0
LINE
8
10000_FRONT
6
CONTINUOUS
10
388.5970829068
20
459.3067331446
11
386.8211534496
21
461.8245941142
0
LINE
8
10000_FRONT
6
CONTINUOUS
10
422.1861417695
20
459.3067331446
11
426.1832428385
21
453.1821034907
0
LINE
8
10000_FRONT
6
CONTINUOUS
10
426.1832428385
20
453.1821034907
11
430.4580470651
21
445.5030941142
0
LINE
8
10000_FRONT
6
CONTINUOUS
10
430.4580470651
20
445.5030941142
11
433.4269665293
21
437.9299057119
0
LINE
8
10000_FRONT
6
CONTINUOUS
10
522.7556843589
20
320.7011950394
11
522.7556843589
21
320.6662681427
0
LINE
8
10000_FRONT
6
CONTINUOUS
10
522.7556843589
20
320.8447738509
11
522.7556843589
21
320.8098469542
0
LINE
8
10000_FRONT
6
CONTINUOUS
10
522.7556843589
20
320.9883526623
11
522.7556843589
21
320.9534257656
0
LINE
8
10000_FRONT
6
CONTINUOUS
10
522.7556843589
20
321.1319314738
11
522.7556843589
21
321.0970045771
0
LINE
8
10000_FRONT
6
CONTINUOUS
10
522.7556843589
20
320.2704586051
11
522.7556843589
21
320.2355317084
0
LINE
8
10000_FRONT
6
CONTINUOUS
10
522.7556843589
20
320.4140374166
11
522.7556843589
21
320.3791105199
0
LINE
8
10000_FRONT
6
CONTINUOUS
10
522.7556843589
20
320.5576162280
11
522.7556843589
21
320.5226893313
0
LINE
8
13000_TOP
6
CONTINUOUS
10
522.7556843589
20
222.8264199608
11
522.7556843589
21
219.8264199608
0
LINE
8
13000_TOP
6
CONTINUOUS
10
522.7556843589
20
219.7031467165
11
522.7556843589
21
207.1264199608
0
LINE
8
10000_FRONT
6
CONTINUOUS
10
522.7556843589
20
306.8245941142
11
522.7556843589
21
320.1268797937
0
LINE
8
10000_FRONT
6
CONTINUOUS
10
522.7556843589
20
321.2416229696
11
522.7556843589
21
461.8245941142
0
LINE
8
11000_LEFT
6
CONTINUOUS
10
670.1073259301
20
391.6745941142
11
670.4073259301
21
391.9745941142
0
LINE
8
10000_FRONT
6
CONTINUOUS
10
237.9707566760
20
391.3745941142
11
247.8795878514
21
391.3745941142
0
LINE
8
10000_FRONT
6
CONTINUOUS
10
258.0619255005
20
391.3745941142
11
391.8029301215
21
391.3745941142
0
LINE
8
10000_FRONT
6
CONTINUOUS
10
425.3919889842
20
391.3745941142
11
502.6645155344
21
391.3745941142
0
LINE
8
10000_FRONT
6
CONTINUOUS
10
512.8468531834
20
391.3745941142
11
522.7556843589
21
391.3745941142
0
LINE
8
10000_FRONT
6
CONTINUOUS
10
237.9707566760
20
391.6745941142
11
247.8707566760
21
391.6745941142
0
LINE
8
10000_FRONT
6
CONTINUOUS
10
258.0707566760
20
391.6745941142
11
391.9958495871
21
391.6745941142
0
LINE
8
10000_FRONT
6
CONTINUOUS
10
425.5849084498
20
391.6745941142
11
502.6556843589
21
391.6745941142
0
LINE
8
10000_FRONT
6
CONTINUOUS
10
512.8556843589
20
391.6745941142
11
522.7556843589
21
391.6745941142
0
LINE
8
10000_FRONT
6
CONTINUOUS
10
237.9707566760
20
391.9745941142
11
247.8795878514
21
391.9745941142
0
LINE
8
10000_FRONT
6
CONTINUOUS
10
258.0619255005
20
391.9745941142
11
392.1887690528
21
391.9745941142
0
LINE
8
10000_FRONT
6
CONTINUOUS
10
425.7778279155
20
391.9745941142
11
502.6645155344
21
391.9745941142
0
LINE
8
10000_FRONT
6
CONTINUOUS
10
512.8468531834
20
391.9745941142
11
522.7556843589
21
391.9745941142
0
LINE
8
10000_FRONT
6
CONTINUOUS
10
511.5569999207
20
395.0745941142
11
503.9543687972
21
395.0745941142
0
LINE
8
10000_FRONT
6
CONTINUOUS
10
256.7720722377
20
395.0745941142
11
249.1694411142
21
395.0745941142
0
LINE
8
10000_FRONT
6
CONTINUOUS
10
420.4102123123
20
461.8245941142
11
422.1861417695
21
459.3067331446
0
LINE
8
10000_FRONT
6
CONTINUOUS
10
399.9856477509
20
437.2124986617
11
237.9707566760
21
437.2124986617
0
LINE
8
10000_FRONT
6
CONTINUOUS
10
522.7556843589
20
437.2332524317
11
433.5704326610
21
437.2332524317
0
LINE
8
10000_FRONT
6
CONTINUOUS
10
399.9813737983
20
437.2332524317
11
237.9707566760
21
437.2332524317
0
LINE
8
90000_FRAME
62
7
6
CONTINUOUS
10
730.1164840000
20
21.0691500000
11
731.8038940000
21
18.1221230000
0
LINE
8
90000_FRAME
62
7
6
CONTINUOUS
10
731.2335020000
20
16.3158800000
11
729.5223250000
21
19.3579730000
0
LINE
8
10000_FRONT
6
CONTINUOUS
10
237.9707566760
20
449.8245941142
11
394.4632655942
21
449.8245941142
0
LINE
8
10000_FRONT
6
CONTINUOUS
10
428.0523244569
20
449.8245941142
11
522.7556843589
21
449.8245941142
0
LINE
8
10000_FRONT
6
CONTINUOUS
10
522.7556843589
20
461.8245941142
11
420.4102123123
21
461.8245941142
0
LINE
8
10000_FRONT
6
CONTINUOUS
10
386.8211534496
20
461.8245941142
11
237.9707566760
21
461.8245941142
0
LINE
8
11000_LEFT
6
CONTINUOUS
10
667.9073259301
20
461.8245941142
11
669.9073259301
21
461.8245941142
0
LINE
8
90000_FRAME
62
7
6
CONTINUOUS
10
719.5642260000
20
16.2683480000
11
718.2333110000
21
19.3579730000
0
LINE
8
90000_FRAME
62
7
6
CONTINUOUS
10
718.9938340000
20
21.0691500000
11
720.2296840000
21
18.1696550000
0
LINE
8
11000_LEFT
6
CONTINUOUS
10
669.3773873826
20
326.5703866630
11
667.9189421053
21
323.4297074404
0
LINE
8
11000_LEFT
6
CONTINUOUS
10
672.6649707838
20
320.6064511567
11
672.8828518130
21
321.0249967196
0
LINE
8
11000_LEFT
6
CONTINUOUS
10
673.7555601313
20
320.4628723453
11
673.9734411605
21
320.8814179081
0
LINE
8
11000_LEFT
6
CONTINUOUS
10
674.8461494788
20
320.3192935338
11
675.0640305080
21
320.7378390967
0
LINE
8
11000_LEFT
6
CONTINUOUS
10
675.9367388263
20
320.1757147224
11
676.1546198555
21
320.5942602853
0
LINE
8
11000_LEFT
6
CONTINUOUS
10
677.0273281739
20
320.0321359109
11
677.2452092030
21
320.4506814738
0
LINE
8
11000_LEFT
6
CONTINUOUS
10
678.1179175214
20
319.8885570995
11
678.3357985506
21
320.3071026624
0
LINE
8
11000_LEFT
6
CONTINUOUS
10
679.2085068689
20
319.7449782880
11
679.4263878981
21
320.1635238509
0
LINE
8
11000_LEFT
6
CONTINUOUS
10
680.2990962164
20
319.6013994766
11
680.5169772456
21
320.0199450395
0
LINE
8
11000_LEFT
6
CONTINUOUS
10
667.4073259301
20
311.0245941142
11
667.4073259301
21
312.4245941142
0
LINE
8
11000_LEFT
6
CONTINUOUS
10
667.4073259301
20
313.0245941142
11
667.4073259301
21
313.6245941142
0
LINE
8
11000_LEFT
6
CONTINUOUS
10
667.4073259301
20
314.2245941142
11
667.4073259301
21
314.8245941142
0
LINE
8
11000_LEFT
6
CONTINUOUS
10
667.4073259301
20
315.4245941142
11
667.4073259301
21
316.0245941142
0
LINE
8
11000_LEFT
6
CONTINUOUS
10
667.4073259301
20
316.6245941142
11
667.4073259301
21
317.2245941142
0
LINE
8
11000_LEFT
6
CONTINUOUS
10
667.4073259301
20
317.8245941142
11
667.4073259301
21
321.1132388313
0
LINE
8
11000_LEFT
6
CONTINUOUS
10
667.4073259301
20
340.2852636364
11
667.4073259301
21
461.3245941142
0
LINE
8
91000_TIP
62
7
6
CONTINUOUS
10
669.7690050000
20
20.5214770000
11
669.7690050000
21
15.5214780000
0
LINE
8
11000_LEFT
6
CONTINUOUS
10
669.8573259301
20
313.7490939140
11
669.8573259301
21
316.4528883354
0
LINE
8
11000_LEFT
6
CONTINUOUS
10
670.4073259301
20
461.3245941142
11
670.4073259301
21
442.8480753350
0
LINE
8
11000_LEFT
6
CONTINUOUS
10
670.4073259301
20
340.2852636364
11
670.4073259301
21
391.3745941142
0
LINE
8
11000_LEFT
6
CONTINUOUS
10
670.4073259301
20
391.9745941142
11
670.4073259301
21
437.3311857402
0
LINE
8
11000_LEFT
6
CONTINUOUS
10
671.8573259301
20
311.0245941142
11
671.8573259301
21
312.6245941142
0
LINE
8
11000_LEFT
6
CONTINUOUS
10
677.9573259301
20
312.6245941142
11
677.9573259301
21
311.0245941142
0
LINE
8
11000_LEFT
6
CONTINUOUS
10
678.1573259301
20
447.9387511578
11
678.1573259301
21
448.8245941142
0
LINE
8
91000_TIP
62
7
6
CONTINUOUS
10
679.7690050000
20
23.0214770000
11
679.7690050000
21
13.0214780000
0
LINE
8
11000_LEFT
6
CONTINUOUS
10
679.9573259301
20
316.5446665390
11
679.9573259301
21
313.7490939140
0
LINE
8
11000_LEFT
6
CONTINUOUS
10
680.6073259301
20
437.7124986617
11
680.6073259301
21
441.9397513256
0
LINE
8
11000_LEFT
6
CONTINUOUS
10
683.1073259301
20
444.5999639529
11
683.1073259301
21
438.9422250141
0
LINE
8
11000_LEFT
6
CONTINUOUS
10
683.1073259301
20
341.5245941142
11
683.1073259301
21
323.9876399365
0
LINE
8
11000_LEFT
6
CONTINUOUS
10
683.1073259301
20
318.3547125580
11
683.1073259301
21
307.1245941142
0
LINE
8
91000_TIP
62
7
6
CENTER
10
686.2690050000
20
12.2999960000
11
686.2690050000
21
23.5833820000
0
LINE
8
11000_LEFT
6
CONTINUOUS
10
672.3767407937
20
320.6443973548
11
672.4260723491
21
321.0191077190
0
LINE
8
11000_LEFT
6
CONTINUOUS
10
673.4147718431
20
324.3153123007
11
673.4637191652
21
324.6871041238
0
LINE
8
11000_LEFT
6
CONTINUOUS
10
673.5162774633
20
320.8726103663
11
673.4673301412
21
320.5008185433
0
LINE
8
11000_LEFT
6
CONTINUOUS
10
674.5543085127
20
324.5435253123
11
674.5053611906
21
324.1717334893
0
LINE
8
11000_LEFT
6
CONTINUOUS
10
674.6068668108
20
320.7290315549
11
674.5579194888
21
320.3572397319
0
LINE
8
11000_LEFT
6
CONTINUOUS
10
675.6448978602
20
324.3999465009
11
675.5959505381
21
324.0281546779
0
LINE
8
11000_LEFT
6
CONTINUOUS
10
675.6974561584
20
320.5854527435
11
675.6485088363
21
320.2136609204
0
LINE
8
11000_LEFT
6
CONTINUOUS
10
676.7354872077
20
324.2563676894
11
676.6865398857
21
323.8845758664
0
LINE
8
11000_LEFT
6
CONTINUOUS
10
676.7880455059
20
320.4418739320
11
676.7390981838
21
320.0700821090
0
LINE
8
11000_LEFT
6
CONTINUOUS
10
677.8260765553
20
324.1127888780
11
677.7771292332
21
323.7409970550
0
LINE
8
11000_LEFT
6
CONTINUOUS
10
677.8786348534
20
320.2982951206
11
677.8296875313
21
319.9265032976
0
LINE
8
11000_LEFT
6
CONTINUOUS
10
678.9166659028
20
323.9692100665
11
678.8677185807
21
323.5974182435
0
LINE
8
11000_LEFT
6
CONTINUOUS
10
678.9692242009
20
320.1547163091
11
678.9202768788
21
319.7829244861
0
LINE
8
11000_LEFT
6
CONTINUOUS
10
680.0072552503
20
323.8256312551
11
679.9583079282
21
323.4538394321
0
LINE
8
11000_LEFT
6
CONTINUOUS
10
680.0598135484
20
320.0111374977
11
680.0108662263
21
319.6393456747
0
LINE
8
11000_LEFT
6
CONTINUOUS
10
681.0978445978
20
323.6820524437
11
681.0488972757
21
323.3102606206
0
LINE
8
11000_LEFT
6
CONTINUOUS
10
681.1504028959
20
319.8675586863
11
681.1014555738
21
319.4957668632
0
LINE
8
11000_LEFT
6
CONTINUOUS
10
682.1884339453
20
323.5384736322
11
682.1394866232
21
323.1666818092
0
LINE
8
11000_LEFT
6
CONTINUOUS
10
682.0477462786
20
341.6022398277
11
681.1540246772
21
338.2668254036
0
LINE
8
11000_LEFT
6
CONTINUOUS
10
670.4073259301
20
391.3745941142
11
670.1073259301
21
391.6745941142
0
LINE
8
11000_LEFT
6
CONTINUOUS
10
682.0477462786
20
307.0469484007
11
681.1159139181
21
310.5245941142
0
LINE
8
11000_LEFT
6
CONTINUOUS
10
673.8540785055
20
324.1884821971
11
673.7519491553
21
324.6491579257
0
LINE
8
11000_LEFT
6
CONTINUOUS
10
674.9446678530
20
324.0449033857
11
674.8425385028
21
324.5055791142
0
LINE
8
11000_LEFT
6
CONTINUOUS
10
676.0352572005
20
323.9013245742
11
675.9331278503
21
324.3620003028
0
LINE
8
11000_LEFT
6
CONTINUOUS
10
677.1258465481
20
323.7577457628
11
677.0237171978
21
324.2184214914
0
LINE
8
11000_LEFT
6
CONTINUOUS
10
678.2164358956
20
323.6141669513
11
678.1143065453
21
324.0748426799
0
LINE
8
11000_LEFT
6
CONTINUOUS
10
679.3070252431
20
323.4705881399
11
679.2048958928
21
323.9312638685
0
LINE
8
11000_LEFT
6
CONTINUOUS
10
680.3976145906
20
323.3270093284
11
680.2954852403
21
323.7876850570
0
LINE
8
11000_LEFT
6
CONTINUOUS
10
681.4882039381
20
323.1834305170
11
681.3860745879
21
323.6441062456
0
LINE
8
90000_FRAME
62
7
6
CONTINUOUS
10
696.0000000000
20
10.0000000000
11
696.0000000000
21
28.0000000000
0
LINE
8
90000_FRAME
62
7
6
CONTINUOUS
10
705.9698770000
20
16.4109460000
11
705.9698770000
21
17.3616000000
0
LINE
8
90000_FRAME
62
7
6
CONTINUOUS
10
709.2971650000
20
20.0709630000
11
709.2971650000
21
21.0216170000
0
LINE
8
90000_FRAME
62
7
6
CONTINUOUS
10
710.3904170000
20
21.0691500000
11
710.3904170000
21
16.3158800000
0
LINE
8
90000_FRAME
62
7
6
CONTINUOUS
10
711.8163980000
20
21.0691500000
11
711.8163980000
21
16.3158800000
0
LINE
8
90000_FRAME
62
7
6
CONTINUOUS
10
712.9096500000
20
21.0691500000
11
712.9096500000
21
16.3158800000
0
LINE
8
90000_FRAME
62
7
6
CONTINUOUS
10
714.2880980000
20
20.1897950000
11
714.2880980000
21
19.1203090000
0
LINE
8
90000_FRAME
62
7
6
CONTINUOUS
10
714.2880980000
20
18.3360200000
11
714.2880980000
21
17.2190020000
0
LINE
8
90000_FRAME
62
7
6
CONTINUOUS
10
716.1418730000
20
19.1203090000
11
716.1418730000
21
18.3360200000
0
LINE
8
90000_FRAME
62
7
6
CONTINUOUS
10
716.4270690000
20
21.0691500000
11
716.4270690000
21
20.1897950000
0
LINE
8
90000_FRAME
62
7
6
CONTINUOUS
10
716.4746010000
20
17.2190020000
11
716.4746010000
21
16.3158800000
0
LINE
8
90000_FRAME
62
7
6
CONTINUOUS
10
717.2826570000
20
16.3158800000
11
717.2826570000
21
21.0691500000
0
LINE
8
90000_FRAME
62
7
6
CONTINUOUS
10
836.0000000000
20
589.0000000000
11
5.0000000000
21
589.0000000000
0
LINE
8
90000_FRAME
62
7
6
CONTINUOUS
10
841.0000000000
20
594.0000000000
11
0.0000000000
21
594.0000000000
0
LINE
8
90000_FRAME
62
7
6
CONTINUOUS
10
718.2333110000
20
16.3158800000
11
718.2333110000
21
19.3579730000
0
LINE
8
90000_FRAME
62
7
6
CONTINUOUS
10
721.7507300000
20
19.4055050000
11
721.7507300000
21
16.3158800000
0
LINE
8
90000_FRAME
62
7
6
CONTINUOUS
10
723.1291780000
20
21.0691500000
11
723.1291780000
21
16.3158800000
0
LINE
8
90000_FRAME
62
7
6
CONTINUOUS
10
724.2224300000
20
21.0691500000
11
724.2224300000
21
16.3158800000
0
LINE
8
90000_FRAME
62
7
6
CONTINUOUS
10
725.6008780000
20
20.1897950000
11
725.6008780000
21
19.1203090000
0
LINE
8
90000_FRAME
62
7
6
CONTINUOUS
10
725.6008780000
20
18.3360200000
11
725.6008780000
21
17.2190020000
0
LINE
8
90000_FRAME
62
7
6
CONTINUOUS
10
727.4546530000
20
19.1203090000
11
727.4546530000
21
18.3360200000
0
LINE
8
90000_FRAME
62
7
6
CONTINUOUS
10
727.7398490000
20
21.0691500000
11
727.7398490000
21
20.1897950000
0
LINE
8
90000_FRAME
62
7
6
CONTINUOUS
10
727.7873820000
20
17.2190020000
11
727.7873820000
21
16.3158800000
0
LINE
8
90000_FRAME
62
7
6
CONTINUOUS
10
728.5716710000
20
16.3158800000
11
728.5716710000
21
21.0691500000
0
LINE
8
90000_FRAME
62
7
6
CONTINUOUS
10
729.5223250000
20
16.3158800000
11
729.5223250000
21
19.3579730000
0
LINE
8
90000_FRAME
62
7
6
CONTINUOUS
10
731.8038940000
20
21.0691500000
11
731.8038940000
21
18.1221230000
0
LINE
8
90000_FRAME
62
7
6
CONTINUOUS
10
732.7545480000
20
21.0691500000
11
732.7545480000
21
16.3158800000
0
LINE
8
90000_FRAME
62
7
6
CONTINUOUS
10
733.5626040000
20
16.4109460000
11
733.5626040000
21
17.3616000000
0
LINE
8
90000_FRAME
62
7
6
CONTINUOUS
10
736.8898920000
20
20.0709630000
11
736.8898920000
21
21.0216170000
0
LINE
8
90000_FRAME
62
7
6
CONTINUOUS
10
746.0000000000
20
10.0000000000
11
746.0000000000
21
28.0000000000
0
LINE
8
90000_FRAME
62
7
6
CONTINUOUS
10
788.5000000000
20
10.0000000000
11
788.5000000000
21
16.0000000000
0
LINE
8
90000_FRAME
62
7
6
CONTINUOUS
10
721.4180010000
20
21.0691500000
11
720.2296840000
21
18.1696550000
0
LINE
8
90000_FRAME
62
7
6
CONTINUOUS
10
831.0000000000
20
10.0000000000
11
831.0000000000
21
28.0000000000
0
LINE
8
90000_FRAME
62
7
6
CONTINUOUS
10
836.0000000000
20
5.0000000000
11
836.0000000000
21
589.0000000000
0
LINE
8
90000_FRAME
62
7
6
CONTINUOUS
10
841.0000000000
20
0.0000000000
11
841.0000000000
21
594.0000000000
0
LINE
8
90000_FRAME
62
7
6
CONTINUOUS
10
721.7507300000
20
19.4055050000
11
720.4198150000
21
16.2683480000
0
LINE
8
90000_FRAME
62
7
6
CONTINUOUS
10
706.1617050000
20
20.4883440000
11
706.4357710000
21
20.7624170000
0
ARC
8
10000_FRONT
6
CONTINUOUS
10
252.9707566760
20
391.6745941142
40
5.1000000000
50
318.1896851042
51
41.8103148958
0
ARC
8
10000_FRONT
6
CONTINUOUS
10
252.9707566760
20
391.6745941142
40
5.1000000000
50
138.1896851042
51
221.8103148958
0
ARC
8
11000_LEFT
6
CONTINUOUS
10
672.9073259301
20
321.1132388313
40
5.5000000000
50
155.0911374351
51
180.0000000000
0
ARC
8
11000_LEFT
6
CONTINUOUS
10
672.9073259301
20
340.2852636364
40
5.5000000000
50
180.0000000000
51
224.5347141465
0
ARC
8
11000_LEFT
6
CONTINUOUS
10
672.9073259301
20
340.2852636364
40
2.5000000000
50
180.0000000000
51
290.7037062570
0
ARC
8
11000_LEFT
6
CONTINUOUS
10
667.2047206976
20
334.6745334199
40
2.5000000000
50
338.3657220361
51
44.5347141465
0
ARC
8
11000_LEFT
6
CONTINUOUS
10
667.1099401895
20
327.6233269399
40
2.5000000000
50
335.0911374351
51
20.0940603909
0
ARC
8
11000_LEFT
6
CONTINUOUS
10
672.5484381565
20
322.7146980613
40
1.5000000000
50
82.5000000000
51
259.1277133166
0
ARC
8
11000_LEFT
6
CONTINUOUS
10
670.8573259301
20
316.4528883354
40
1.0000000000
50
86.0353452771
51
180.0000000000
0
ARC
8
11000_LEFT
6
CONTINUOUS
10
671.3573259301
20
311.0245941142
40
0.5000000000
50
270.0000000000
51
360.0000000000
0
ARC
8
11000_LEFT
6
CONTINUOUS
10
667.9073259301
20
311.0245941142
40
0.5000000000
50
180.0000000000
51
270.0000000000
0
ARC
8
11000_LEFT
6
CONTINUOUS
10
669.4573259301
20
313.7490939140
40
0.4000000000
50
308.6821874535
51
360.0000000000
0
ARC
8
11000_LEFT
6
CONTINUOUS
10
669.9573259301
20
313.1245941142
40
0.4000000000
50
128.6821874535
51
321.3178125465
0
ARC
8
11000_LEFT
6
CONTINUOUS
10
670.5818257299
20
312.6245941142
40
0.4000000000
50
90.0000000000
51
141.3178125465
0
ARC
8
11000_LEFT
6
CONTINUOUS
10
671.4573259301
20
312.6245941142
40
0.4000000000
50
0.0000000000
51
90.0000000000
0
ARC
8
11000_LEFT
6
CONTINUOUS
10
667.4073259301
20
312.7245941142
40
0.3000000000
50
270.0000000000
51
90.0000000000
0
ARC
8
11000_LEFT
6
CONTINUOUS
10
667.4073259301
20
313.9245941142
40
0.3000000000
50
270.0000000000
51
90.0000000000
0
ARC
8
11000_LEFT
6
CONTINUOUS
10
667.4073259301
20
315.1245941142
40
0.3000000000
50
270.0000000000
51
90.0000000000
0
ARC
8
11000_LEFT
6
CONTINUOUS
10
667.4073259301
20
316.3245941142
40
0.3000000000
50
270.0000000000
51
90.0000000000
0
ARC
8
11000_LEFT
6
CONTINUOUS
10
667.4073259301
20
317.5245941142
40
0.3000000000
50
270.0000000000
51
90.0000000000
0
ARC
8
11000_LEFT
6
CONTINUOUS
10
674.1573259301
20
317.2265743122
40
0.3000000000
50
356.0353452771
51
176.0353452771
0
ARC
8
11000_LEFT
6
CONTINUOUS
10
672.9573259301
20
317.3097426291
40
0.3000000000
50
356.0353452771
51
176.0353452771
0
ARC
8
11000_LEFT
6
CONTINUOUS
10
671.7573259301
20
317.3929109459
40
0.3000000000
50
356.0353452771
51
176.0353452771
0
ARC
8
11000_LEFT
6
CONTINUOUS
10
674.3070722184
20
324.1978387277
40
0.2000000000
50
262.5000000000
51
352.5000000000
0
ARC
8
11000_LEFT
6
CONTINUOUS
10
674.0493377069
20
324.2317701199
40
0.2000000000
50
192.5000000000
51
262.5000000000
0
ARC
8
11000_LEFT
6
CONTINUOUS
10
673.2164828708
20
324.3414175392
40
0.2000000000
50
262.5000000000
51
352.5000000000
0
ARC
8
11000_LEFT
6
CONTINUOUS
10
672.2277833768
20
321.0452129574
40
0.2000000000
50
352.5000000000
51
79.1277133166
0
ARC
8
11000_LEFT
6
CONTINUOUS
10
673.0602539796
20
320.9326469969
40
0.2000000000
50
82.5000000001
51
152.5000000001
0
ARC
8
11000_LEFT
6
CONTINUOUS
10
673.3179884911
20
320.8987156048
40
0.2000000000
50
352.5000000000
51
82.5000000000
0
ARC
8
11000_LEFT
6
CONTINUOUS
10
674.1508433271
20
320.7890681855
40
0.2000000000
50
82.5000000000
51
152.5000000000
0
ARC
8
11000_LEFT
6
CONTINUOUS
10
674.4085778386
20
320.7551367933
40
0.2000000000
50
352.5000000000
51
82.5000000000
0
ARC
8
11000_LEFT
6
CONTINUOUS
10
671.4073259301
20
437.3311857402
40
1.0000000000
50
115.0000000000
51
180.0000000000
0
ARC
8
11000_LEFT
6
CONTINUOUS
10
671.4073259301
20
442.8480753350
40
1.0000000000
50
180.0000000000
51
295.0000000000
0
ARC
8
11000_LEFT
6
CONTINUOUS
10
667.9073259301
20
461.3245941142
40
0.5000000000
50
90.0000000000
51
180.0000000000
0
ARC
8
11000_LEFT
6
CONTINUOUS
10
669.9073259301
20
461.3245941142
40
0.5000000000
50
0.0000000000
51
90.0000000000
0
ARC
8
11000_LEFT
6
CONTINUOUS
10
674.5824646190
20
439.9151551455
40
0.3000000000
50
205.0000000000
51
25.0000000000
0
ARC
8
11000_LEFT
6
CONTINUOUS
10
673.4948952745
20
439.4080132314
40
0.3000000000
50
205.0000000000
51
25.0000000000
0
ARC
8
11000_LEFT
6
CONTINUOUS
10
672.4073259301
20
438.9008713173
40
0.3000000000
50
205.0000000000
51
25.0000000000
0
ARC
8
11000_LEFT
6
CONTINUOUS
10
678.4573259301
20
311.0245941142
40
0.5000000000
50
180.0000000000
51
270.0000000000
0
ARC
8
11000_LEFT
6
CONTINUOUS
10
678.3573259301
20
312.6245941142
40
0.4000000000
50
90.0000000000
51
180.0000000000
0
ARC
8
11000_LEFT
6
CONTINUOUS
10
677.7573259301
20
316.9770693617
40
0.3000000000
50
356.0353452771
51
176.0353452771
0
ARC
8
11000_LEFT
6
CONTINUOUS
10
676.5573259301
20
317.0602376786
40
0.3000000000
50
356.0353452771
51
176.0353452771
0
ARC
8
11000_LEFT
6
CONTINUOUS
10
675.3573259301
20
317.1434059954
40
0.3000000000
50
356.0353452771
51
176.0353452771
0
ARC
8
11000_LEFT
6
CONTINUOUS
10
678.9573259301
20
316.8939010449
40
0.3000000000
50
356.0353452771
51
176.0353452771
0
ARC
8
11000_LEFT
6
CONTINUOUS
10
678.6694296084
20
323.6235234820
40
0.2000000000
50
262.5000000000
51
352.5000000000
0
ARC
8
11000_LEFT
6
CONTINUOUS
10
678.4116950970
20
323.6574548741
40
0.2000000000
50
192.5000000000
51
262.5000000000
0
ARC
8
11000_LEFT
6
CONTINUOUS
10
677.5788402609
20
323.7671022934
40
0.2000000000
50
262.5000000001
51
352.5000000001
0
ARC
8
11000_LEFT
6
CONTINUOUS
10
677.3211057495
20
323.8010336856
40
0.2000000000
50
192.5000000000
51
262.5000000000
0
ARC
8
11000_LEFT
6
CONTINUOUS
10
676.4882509134
20
323.9106811049
40
0.2000000000
50
262.5000000000
51
352.5000000000
0
ARC
8
11000_LEFT
6
CONTINUOUS
10
676.2305164020
20
323.9446124970
40
0.2000000000
50
192.5000000000
51
262.5000000000
0
ARC
8
11000_LEFT
6
CONTINUOUS
10
675.3976615659
20
324.0542599163
40
0.2000000000
50
262.5000000001
51
352.5000000001
0
ARC
8
11000_LEFT
6
CONTINUOUS
10
675.1399270545
20
324.0881913084
40
0.2000000000
50
192.5000000000
51
262.5000000000
0
ARC
8
11000_LEFT
6
CONTINUOUS
10
675.2414326747
20
320.6454893740
40
0.2000000000
50
82.5000000000
51
152.5000000000
0
ARC
8
11000_LEFT
6
CONTINUOUS
10
675.4991671861
20
320.6115579819
40
0.2000000000
50
352.5000000000
51
82.5000000000
0
ARC
8
11000_LEFT
6
CONTINUOUS
10
676.3320220222
20
320.5019105626
40
0.2000000000
50
82.5000000000
51
152.5000000000
0
ARC
8
11000_LEFT
6
CONTINUOUS
10
676.5897565336
20
320.4679791705
40
0.2000000000
50
352.5000000000
51
82.5000000000
0
ARC
8
11000_LEFT
6
CONTINUOUS
10
677.4226113697
20
320.3583317512
40
0.2000000000
50
82.5000000000
51
152.5000000000
0
ARC
8
11000_LEFT
6
CONTINUOUS
10
677.6803458811
20
320.3244003590
40
0.2000000000
50
352.5000000000
51
82.5000000000
0
ARC
8
11000_LEFT
6
CONTINUOUS
10
678.5132007172
20
320.2147529397
40
0.2000000000
50
82.5000000001
51
152.5000000001
0
ARC
8
11000_LEFT
6
CONTINUOUS
10
678.7709352286
20
320.1808215476
40
0.2000000000
50
352.5000000000
51
82.5000000000
0
ARC
8
11000_LEFT
6
CONTINUOUS
10
676.4073259301
20
331.0245941142
40
7.4000000000
50
63.2504123493
51
110.7037062570
0
ARC
8
11000_LEFT
6
CONTINUOUS
10
676.4073259301
20
331.0245941142
40
7.4000000000
50
158.3657220361
51
200.0940603909
0
CIRCLE
8
11000_LEFT
6
CONTINUOUS
10
676.4073259301
20
331.0245941142
40
4.4000000000
0
ARC
8
11000_LEFT
6
CONTINUOUS
10
682.1073259301
20
318.3547125580
40
1.0000000000
50
0.0000000000
51
82.5000000000
0
ARC
8
11000_LEFT
6
CONTINUOUS
10
682.6073259301
20
323.9876399365
40
0.5000000000
50
262.5000000000
51
360.0000000000
0
ARC
8
11000_LEFT
6
CONTINUOUS
10
679.2328261302
20
312.6245941142
40
0.4000000000
50
38.6821874535
51
90.0000000000
0
ARC
8
11000_LEFT
6
CONTINUOUS
10
679.8573259301
20
313.1245941142
40
0.4000000000
50
218.6821874535
51
51.3178125465
0
ARC
8
11000_LEFT
6
CONTINUOUS
10
680.3573259301
20
313.7490939140
40
0.4000000000
50
180.0000000000
51
231.3178125465
0
ARC
8
11000_LEFT
6
CONTINUOUS
10
682.8073259301
20
307.1245941142
40
0.3000000000
50
270.0000000000
51
360.0000000000
0
ARC
8
11000_LEFT
6
CONTINUOUS
10
682.3375240265
20
307.1245941142
40
0.3000000000
50
195.0000000000
51
270.0000000000
0
ARC
8
11000_LEFT
6
CONTINUOUS
10
679.6573259301
20
316.5446665390
40
0.3000000000
50
0.0000000000
51
86.0353452771
0
ARC
8
11000_LEFT
6
CONTINUOUS
10
681.9411976509
20
323.1927870476
40
0.2000000000
50
262.5000000001
51
352.5000000001
0
ARC
8
11000_LEFT
6
CONTINUOUS
10
681.6834631395
20
323.2267184398
40
0.2000000000
50
192.5000000000
51
262.5000000000
0
ARC
8
11000_LEFT
6
CONTINUOUS
10
680.8506083034
20
323.3363658591
40
0.2000000000
50
262.5000000000
51
352.5000000000
0
ARC
8
11000_LEFT
6
CONTINUOUS
10
680.5928737920
20
323.3702972512
40
0.2000000000
50
192.5000000000
51
262.5000000000
0
ARC
8
11000_LEFT
6
CONTINUOUS
10
679.7600189559
20
323.4799446705
40
0.2000000000
50
262.5000000000
51
352.5000000000
0
ARC
8
11000_LEFT
6
CONTINUOUS
10
679.5022844445
20
323.5138760627
40
0.2000000000
50
192.5000000000
51
262.5000000000
0
ARC
8
11000_LEFT
6
CONTINUOUS
10
679.6037900647
20
320.0711741283
40
0.2000000000
50
82.5000000000
51
152.5000000000
0
ARC
8
11000_LEFT
6
CONTINUOUS
10
679.8615245761
20
320.0372427361
40
0.2000000000
50
352.5000000000
51
82.5000000000
0
ARC
8
11000_LEFT
6
CONTINUOUS
10
680.6943794122
20
319.9275953168
40
0.2000000000
50
82.5000000000
51
152.5000000000
0
ARC
8
11000_LEFT
6
CONTINUOUS
10
680.9521139236
20
319.8936639247
40
0.2000000000
50
352.5000000000
51
82.5000000000
0
ARC
8
11000_LEFT
6
CONTINUOUS
10
680.1880988509
20
338.5256444487
40
1.0000000000
50
243.2504123493
51
345.0000000000
0
ARC
8
11000_LEFT
6
CONTINUOUS
10
682.3375240265
20
341.5245941142
40
0.3000000000
50
90.0000000000
51
165.0000000000
0
ARC
8
11000_LEFT
6
CONTINUOUS
10
682.8073259301
20
341.5245941142
40
0.3000000000
50
0.0000000000
51
90.0000000000
0
ARC
8
11000_LEFT
6
CONTINUOUS
10
678.0993323199
20
447.8245941142
40
11.0500000000
50
286.5658948327
51
291.5509945218
0
ARC
8
11000_LEFT
6
CONTINUOUS
10
677.6073259301
20
444.5999639529
40
5.5000000000
50
0.0000000000
51
69.8521137128
0
ARC
8
11000_LEFT
6
CONTINUOUS
10
677.6073259301
20
444.5999639529
40
3.0000000000
50
37.2978176103
51
72.5423968763
0
ARC
8
11000_LEFT
6
CONTINUOUS
10
681.6073259301
20
438.9422250141
40
1.5000000000
50
291.5509945218
51
360.0000000000
0
ARC
8
11000_LEFT
6
CONTINUOUS
10
679.1573259301
20
448.8245941142
40
1.0000000000
50
69.8521137128
51
180.0000000000
0
ARC
8
11000_LEFT
6
CONTINUOUS
10
678.6573259301
20
447.9387511578
40
0.5000000000
50
180.0000000000
51
252.5423968763
0
ARC
8
11000_LEFT
6
CONTINUOUS
10
681.1073259301
20
437.7124986617
40
0.5000000000
50
180.0000000000
51
286.5658948327
0
ARC
8
11000_LEFT
6
CONTINUOUS
10
680.1073259301
20
441.9397513256
40
0.5000000000
50
0.0000000000
51
115.0000000000
0
ARC
8
11000_LEFT
6
CONTINUOUS
10
679.5960673359
20
446.1148592037
40
0.5000000000
50
295.0000000000
51
37.2978176103
0
ARC
8
10000_FRONT
6
CONTINUOUS
10
507.7556843589
20
391.6745941142
40
5.1000000000
50
318.1896851042
51
41.8103148958
0
ARC
8
10000_FRONT
6
CONTINUOUS
10
507.7556843589
20
391.6745941142
40
5.1000000000
50
138.1896851042
51
221.8103148958
0
ARC
8
90000_FRAME
62
7
6
CONTINUOUS
10
735.2672450000
20
18.2730390000
40
1.1116190000
50
277.7099960000
51
295.6884930000
0
ARC
8
90000_FRAME
62
7
6
CONTINUOUS
10
735.5515550000
20
17.5482130000
40
0.3401690000
50
305.5032210000
51
72.4652900000
0
ARC
8
90000_FRAME
62
7
6
CONTINUOUS
10
734.9855610000
20
20.9499200000
40
4.7567950000
50
252.5939200000
51
280.9816600000
0
ARC
8
90000_FRAME
62
7
6
CONTINUOUS
10
735.4403960000
20
18.3319060000
40
2.1007270000
50
282.4058360000
51
311.8644430000
0
ARC
8
90000_FRAME
62
7
6
CONTINUOUS
10
735.1668320000
20
19.9402480000
40
0.3029630000
50
154.4400350000
51
221.8201700000
0
ARC
8
90000_FRAME
62
7
6
CONTINUOUS
10
735.2460530000
20
19.8610270000
40
0.4103090000
50
102.8287830000
51
149.2259640000
0
ARC
8
90000_FRAME
62
7
6
CONTINUOUS
10
735.6630800000
20
18.1186920000
40
2.2018370000
50
84.0400060000
51
103.3427660000
0
ARC
8
90000_FRAME
62
7
6
CONTINUOUS
10
735.3221160000
20
15.7013280000
40
4.6423740000
50
70.2625860000
51
82.9524190000
0
ARC
8
90000_FRAME
62
7
6
CONTINUOUS
10
734.8080980000
20
20.3729510000
40
3.2587560000
50
247.5300210000
51
280.7579520000
0
ARC
8
90000_FRAME
62
7
6
CONTINUOUS
10
728.4231320000
20
2.1214310000
40
17.3316080000
50
65.3414670000
51
67.3997770000
0
ARC
8
90000_FRAME
62
7
6
CONTINUOUS
10
739.2189940000
20
27.9138570000
40
10.6291640000
50
242.8620100000
51
247.1042030000
0
ARC
8
90000_FRAME
62
7
6
CONTINUOUS
10
735.3640930000
20
20.3799260000
40
2.1662920000
50
227.3119280000
51
242.7040320000
0
ARC
8
90000_FRAME
62
7
6
CONTINUOUS
10
734.7600620000
20
19.6742480000
40
1.2385220000
50
194.7952190000
51
225.7176550000
0
ARC
8
90000_FRAME
62
7
6
CONTINUOUS
10
734.8222200000
20
19.7144680000
40
1.3090920000
50
164.1974860000
51
195.8025140000
0
ARC
8
90000_FRAME
62
7
6
CONTINUOUS
10
735.3792440000
20
18.8262010000
40
2.3669250000
50
86.2218020000
51
120.4272600000
0
ARC
8
90000_FRAME
62
7
6
CONTINUOUS
10
735.1103870000
20
12.1300330000
40
9.0679050000
50
78.6827050000
51
87.3147600000
0
ARC
8
90000_FRAME
62
7
6
CONTINUOUS
10
734.6543180000
20
19.8219760000
40
1.1197470000
50
142.8139180000
51
167.1522950000
0
ARC
8
90000_FRAME
62
7
6
CONTINUOUS
10
734.9996270000
20
19.5153940000
40
1.5805470000
50
121.2140950000
51
141.5254770000
0
ARC
8
90000_FRAME
62
7
6
CONTINUOUS
10
735.5768020000
20
20.3264510000
40
0.8661280000
50
222.7760390000
51
239.0362430000
0
ARC
8
90000_FRAME
62
7
6
CONTINUOUS
10
733.0700920000
20
12.9961790000
40
6.8587740000
50
59.9020270000
51
68.2036480000
0
ARC
8
90000_FRAME
62
7
6
CONTINUOUS
10
736.4785870000
20
21.9220660000
40
2.6987410000
50
240.0482000000
51
251.3779670000
0
ARC
8
90000_FRAME
62
7
6
CONTINUOUS
10
735.8131290000
20
17.7651670000
40
1.4334470000
50
315.8904550000
51
333.5229260000
0
ARC
8
90000_FRAME
62
7
6
CONTINUOUS
10
735.8177680000
20
17.7117600000
40
1.4062290000
50
335.3867970000
51
24.3915120000
0
ARC
8
90000_FRAME
62
7
6
CONTINUOUS
10
735.7455630000
20
17.6339030000
40
1.5047030000
50
25.9562920000
51
59.4834830000
0
ARC
8
90000_FRAME
62
7
6
CONTINUOUS
10
707.6745180000
20
18.2730390000
40
1.1116190000
50
277.7099960000
51
295.6884930000
0
ARC
8
90000_FRAME
62
7
6
CONTINUOUS
10
707.9588280000
20
17.5482130000
40
0.3401690000
50
305.5032210000
51
72.4652900000
0
ARC
8
90000_FRAME
62
7
6
CONTINUOUS
10
707.3928340000
20
20.9499200000
40
4.7567950000
50
252.5939200000
51
280.9816600000
0
ARC
8
90000_FRAME
62
7
6
CONTINUOUS
10
707.8476690000
20
18.3319060000
40
2.1007270000
50
282.4058360000
51
311.8644430000
0
ARC
8
90000_FRAME
62
7
6
CONTINUOUS
10
707.5741050000
20
19.9402480000
40
0.3029630000
50
154.4400350000
51
221.8201700000
0
ARC
8
90000_FRAME
62
7
6
CONTINUOUS
10
707.6533260000
20
19.8610270000
40
0.4103090000
50
102.8287830000
51
149.2259640000
0
ARC
8
90000_FRAME
62
7
6
CONTINUOUS
10
708.0703530000
20
18.1186920000
40
2.2018370000
50
84.0400060000
51
103.3427660000
0
ARC
8
90000_FRAME
62
7
6
CONTINUOUS
10
707.7293890000
20
15.7013280000
40
4.6423740000
50
70.2625860000
51
82.9524190000
0
ARC
8
90000_FRAME
62
7
6
CONTINUOUS
10
707.2153710000
20
20.3729510000
40
3.2587560000
50
247.5300210000
51
280.7579520000
0
ARC
8
90000_FRAME
62
7
6
CONTINUOUS
10
700.8304050000
20
2.1214310000
40
17.3316080000
50
65.3414670000
51
67.3997770000
0
ARC
8
90000_FRAME
62
7
6
CONTINUOUS
10
711.6262670000
20
27.9138570000
40
10.6291640000
50
242.8620100000
51
247.1042030000
0
ARC
8
90000_FRAME
62
7
6
CONTINUOUS
10
707.7713660000
20
20.3799260000
40
2.1662920000
50
227.3119280000
51
242.7040320000
0
ARC
8
90000_FRAME
62
7
6
CONTINUOUS
10
707.1673350000
20
19.6742480000
40
1.2385220000
50
194.7952190000
51
225.7176550000
0
ARC
8
90000_FRAME
62
7
6
CONTINUOUS
10
707.7865170000
20
18.8262010000
40
2.3669250000
50
86.2218020000
51
120.4272600000
0
ARC
8
90000_FRAME
62
7
6
CONTINUOUS
10
707.5176600000
20
12.1300330000
40
9.0679050000
50
78.6827050000
51
87.3147600000
0
ARC
8
90000_FRAME
62
7
6
CONTINUOUS
10
707.4069000000
20
19.5153940000
40
1.5805470000
50
121.2140950000
51
141.5254770000
0
ARC
8
90000_FRAME
62
7
6
CONTINUOUS
10
707.9840750000
20
20.3264510000
40
0.8661280000
50
222.7760390000
51
239.0362430000
0
ARC
8
90000_FRAME
62
7
6
CONTINUOUS
10
705.4773650000
20
12.9961790000
40
6.8587740000
50
59.9020270000
51
68.2036480000
0
ARC
8
90000_FRAME
62
7
6
CONTINUOUS
10
708.8858590000
20
21.9220660000
40
2.6987410000
50
240.0482000000
51
251.3779670000
0
ARC
8
90000_FRAME
62
7
6
CONTINUOUS
10
708.2204020000
20
17.7651670000
40
1.4334470000
50
315.8904550000
51
333.5229260000
0
ARC
8
90000_FRAME
62
7
6
CONTINUOUS
10
708.2250410000
20
17.7117600000
40
1.4062290000
50
335.3867970000
51
24.3915120000
0
ARC
8
90000_FRAME
62
7
6
CONTINUOUS
10
708.1528360000
20
17.6339030000
40
1.5047030000
50
25.9562920000
51
59.4834830000
0
ARC
8
90000_FRAME
62
7
6
CONTINUOUS
10
707.2294930000
20
19.7144680000
40
1.3090920000
50
164.1974860000
51
195.8025140000
0
ARC
8
90000_FRAME
62
7
6
CONTINUOUS
10
707.0615910000
20
19.8219760000
40
1.1197470000
50
142.8139180000
51
167.1522950000
0
CIRCLE
8
91000_TIP
62
7
6
CONTINUOUS
10
686.2690050000
20
18.0214780000
40
5.0000000000
0
CIRCLE
8
91000_TIP
62
7
6
CONTINUOUS
10
686.2690050000
20
18.0214780000
40
2.5000000000
0
ENDSEC
0
EOF
