0
SECTION
2
HEADER
9
$EXTMAX
10
841.0000000000
20
594.0000000000
9
$EXTMIN
10
0.0000000000
20
0.0000000000
9
$LIMMIN
10
0.0000000000
20
0.0000000000
9
$LIMMAX
10
841.0000000000
20
594.0000000000
9
$VIEWCTR
10
420.5000000000
20
297.0000000000
9
$VIEWSIZE
40
594.0000000000
9
$CLAYER
8
0
9
$LTSCALE
40
46.2550000000
9
$CELTYPE
6
BYLAYER
9
$DIMSCALE
40
1
9
$DIMASZ
40
3.5000000000
9
$DIMEXO
40
5.2562500000
9
$DIMDLI
40
31.9580000000
9
$DIMEXE
40
15.1380000000
9
$DIMCEN
40
7.5690000000
9
$DIMLFAC
40
1.0000000000
0
ENDSEC
0
SECTION
2
TABLES
0
TABLE
2
LTYPE
70
6
0
LTYPE
2
BYBLOCK
70
0
3

72
65
73
0
40
0.0
0
LTYPE
2
BYLAYER
70
0
3

72
65
73
0
40
0.0
0
LTYPE
2
CONTINUOUS
70
64
3
Solid line
72
65
73
0
40
0
0
LTYPE
2
CENTER
70
64
3
____ _ ____ _ ____ _ ____ _ ____ _ ____ _ ____
72
65
73
4
40
0.6
49
0.375
49
-0.075
49
0.075
49
-0.075
0
LTYPE
2
HIDDEN
70
64
3
- - - - - - - - - - - - - - - - - - - -
72
65
73
2
40
0.2
49
0.1
49
-0.1
0
LTYPE
2
PHANTOM
70
64
3
_____ _ _ _____ _ _ _____ _ _ _____
72
65
73
6
40
0.8
49
0.45
49
-0.05
49
0.1
49
-0.05
49
0.1
49
-0.05
0
LTYPE
2
DOT
70
64
3
. . . . . . . . . . . . . . . . . . . .
72
65
73
2
40
0.2
49
0.1
49
-0.1
0
LTYPE
2
DASHED
70
64
3
- - - - - - - - - - - - - - - - - - - -
72
65
73
2
40
0.2
49
0.1
49
-0.1
0
ENDTAB
0
TABLE
2
LAYER
70
36
0
LAYER
2
0
70
0
62
7
6
CONTINUOUS
0
LAYER
2
DEFAULT_1
70
0
62
7
6
CENTER
0
LAYER
2
DEFAULT_2
70
0
62
8
6
HIDDEN
0
LAYER
2
DEFAULT_3
70
0
62
7
6
PHANTOM
0
LAYER
2
10000_FRONT
70
0
62
7
6
CONTINUOUS
0
LAYER
2
10100_DIM_FRONT
70
0
62
7
6
CONTINUOUS
0
LAYER
2
10300_FRONT_GERMAN_ENGLISH
70
0
62
7
6
CONTINUOUS
0
LAYER
2
11000_LEFT
70
0
62
7
6
CONTINUOUS
0
LAYER
2
11100_DIM_LEFT
70
0
62
7
6
CONTINUOUS
0
LAYER
2
11300_LEFT_GERMAN_ENGLISH
70
0
62
7
6
CONTINUOUS
0
LAYER
2
12000_RIGHT
70
0
62
7
6
CONTINUOUS
0
LAYER
2
12100_DIM_RIGHT
70
0
62
7
6
CONTINUOUS
0
LAYER
2
12300_RIGHT_GERMAN_ENGLISH
70
0
62
7
6
CONTINUOUS
0
LAYER
2
13000_TOP
70
0
62
7
6
CONTINUOUS
0
LAYER
2
13100_DIM_TOP
70
0
62
7
6
CONTINUOUS
0
LAYER
2
13300_TOP_GERMAN_ENGLISH
70
0
62
7
6
CONTINUOUS
0
LAYER
2
14000_BOTTOM
70
0
62
7
6
CONTINUOUS
0
LAYER
2
14100_DIM_BOTTOM
70
0
62
7
6
CONTINUOUS
0
LAYER
2
14300_BOTTOM_GERMAN_ENGLISH
70
0
62
7
6
CONTINUOUS
0
LAYER
2
15000_BACK
70
0
62
7
6
CONTINUOUS
0
LAYER
2
15100_DIM_BACK
70
0
62
7
6
CONTINUOUS
0
LAYER
2
15300_BACK_GERMAN_ENGLISH
70
0
62
7
6
CONTINUOUS
0
LAYER
2
20000_FRONT_O
70
0
62
7
6
CONTINUOUS
0
LAYER
2
20100_DIM_FRONT_O
70
0
62
7
6
CONTINUOUS
0
LAYER
2
20300_FRONT_O_GERMAN_ENGLISH
70
0
62
7
6
CONTINUOUS
0
LAYER
2
40000_ISO
70
0
62
7
6
CONTINUOUS
0
LAYER
2
40300_ISO_GERMAN_ENGLISH
70
0
62
7
6
CONTINUOUS
0
LAYER
2
50000_WIRING
70
0
62
7
6
CONTINUOUS
0
LAYER
2
50300_WIRING_GERMAN_ENGLISH
70
0
62
7
6
CONTINUOUS
0
LAYER
2
90000_FRAME
70
0
62
7
6
CONTINUOUS
0
LAYER
2
91000_TIP
70
0
62
7
6
CONTINUOUS
0
ENDTAB
0
ENDSEC
0
SECTION
2
BLOCKS
0
BLOCK
8
10100_DIM_FRONT
6
CONTINUOUS
2
*D0
70
65
10
0.0000000000
20
0.0000000000
0
TEXT
8
10100_DIM_FRONT
6
CONTINUOUS
10
344.3412837967
20
294.1762089672
40
3.5000000000
1
482
72
5
11
352.5912836427
21
294.1762089672
0
LINE
8
10100_DIM_FRONT
6
CONTINUOUS
10
107.9391125370
20
333.9532894832
11
107.9391125370
21
291.3012089835
0
LINE
8
10100_DIM_FRONT
6
CONTINUOUS
10
589.9391125370
20
352.2887404131
11
589.9391125370
21
291.3012089835
0
LINE
8
10100_DIM_FRONT
6
CONTINUOUS
10
107.9391125370
20
293.3012089835
11
348.9391125370
21
293.3012089835
0
LINE
8
10100_DIM_FRONT
6
CONTINUOUS
10
589.9391125370
20
293.3012089835
11
348.9391125370
21
293.3012089835
0
SOLID
8
10100_DIM_FRONT
6
CONTINUOUS
10
111.4391125370
20
293.8012089835
11
107.9391125370
21
293.3012089835
12
111.4391125370
22
292.8012089835
13
111.4391125370
23
292.8012089835
0
SOLID
8
10100_DIM_FRONT
6
CONTINUOUS
10
586.4391125370
20
292.8012089835
11
589.9391125370
21
293.3012089835
12
586.4391125370
22
293.8012089835
13
586.4391125370
23
293.8012089835
0
ENDBLK
8
0
0
BLOCK
8
10100_DIM_FRONT
6
CONTINUOUS
2
*D1
70
65
10
0.0000000000
20
0.0000000000
0
TEXT
8
10100_DIM_FRONT
6
CONTINUOUS
10
619.3639564421
20
394.5109927800
40
3.5000000000
1
155
50
90.0000000000
72
5
11
619.3639564421
21
401.5109927800
0
LINE
8
10100_DIM_FRONT
6
CONTINUOUS
10
589.9391125370
20
472.2887404131
11
622.2389564421
21
472.2887404131
0
LINE
8
10100_DIM_FRONT
6
CONTINUOUS
10
589.9391125370
20
317.2887404131
11
622.2389564421
21
317.2887404131
0
LINE
8
10100_DIM_FRONT
6
CONTINUOUS
10
620.2389564421
20
472.2887404131
11
620.2389564421
21
394.7887404131
0
LINE
8
10100_DIM_FRONT
6
CONTINUOUS
10
620.2389564421
20
317.2887404131
11
620.2389564421
21
394.7887404131
0
SOLID
8
10100_DIM_FRONT
6
CONTINUOUS
10
620.7389564421
20
468.7887404131
11
620.2389564421
21
472.2887404131
12
619.7389564421
22
468.7887404131
13
619.7389564421
23
468.7887404131
0
SOLID
8
10100_DIM_FRONT
6
CONTINUOUS
10
619.7389564421
20
320.7887404131
11
620.2389564421
21
317.2887404131
12
620.7389564421
22
320.7887404131
13
620.7389564421
23
320.7887404131
0
ENDBLK
8
0
0
BLOCK
8
11100_DIM_LEFT
6
CONTINUOUS
2
*D2
70
65
10
0.0000000000
20
0.0000000000
0
TEXT
8
11100_DIM_LEFT
6
CONTINUOUS
10
722.5083082962
20
293.9934792071
40
3.5000000000
1
15.7
72
5
11
731.7583082962
21
293.9934792071
0
LINE
8
11100_DIM_LEFT
6
CONTINUOUS
10
718.9464860569
20
321.4887404131
11
718.9464860569
21
291.1184792071
0
LINE
8
11100_DIM_LEFT
6
CONTINUOUS
10
734.6464860569
20
317.5887404131
11
734.6464860569
21
291.1184792071
0
LINE
8
11100_DIM_LEFT
6
CONTINUOUS
10
718.9464860569
20
293.1184792071
11
726.7964860569
21
293.1184792071
0
LINE
8
11100_DIM_LEFT
6
CONTINUOUS
10
734.6464860569
20
293.1184792071
11
726.7964860569
21
293.1184792071
0
SOLID
8
11100_DIM_LEFT
6
CONTINUOUS
10
722.4464860569
20
293.6184792071
11
718.9464860569
21
293.1184792071
12
722.4464860569
22
292.6184792071
13
722.4464860569
23
292.6184792071
0
SOLID
8
11100_DIM_LEFT
6
CONTINUOUS
10
731.1464860569
20
292.6184792071
11
734.6464860569
21
293.1184792071
12
731.1464860569
22
293.6184792071
13
731.1464860569
23
293.6184792071
0
ENDBLK
8
0
0
ENDSEC
0
SECTION
2
ENTITIES
0
DIMENSION
8
10100_DIM_FRONT
6
CONTINUOUS
2
*D0
10
589.9391125370
20
293.3012089835
11
348.4662837197
21
295.9262089672
70
128
13
107.9391125370
23
333.9532894832
14
589.9391125370
24
352.2887404131
0
DIMENSION
8
10100_DIM_FRONT
6
CONTINUOUS
2
*D1
10
620.2389564421
20
317.2887404131
11
617.6139564421
21
398.0109927800
70
128
13
589.9391125370
23
472.2887404131
14
589.9391125370
24
317.2887404131
50
270.000000
0
DIMENSION
8
11100_DIM_LEFT
6
CONTINUOUS
2
*D2
10
734.6464860569
20
293.1184792071
11
727.1333082962
21
295.7434792071
70
128
13
718.9464860569
23
321.4887404131
14
734.6464860569
24
317.5887404131
0
TEXT
8
90000_FRAME
62
7
6
CONTINUOUS
10
746.6600000000
20
11.9000000000
40
2.2000000000
1
Format / Size: DIN A1
72
5
11
779.7647619048
21
11.9000000000
0
TEXT
8
90000_FRAME
62
7
6
CONTINUOUS
10
789.1600000000
20
11.9000000000
40
2.2000000000
1
Massstab / Scale: 1:1
72
5
11
820.0647619048
21
11.9000000000
0
TEXT
8
90000_FRAME
62
7
6
CONTINUOUS
10
764.6250000000
20
20.2500000000
40
3.5000000000
1
6ES75901AE800AA0_001
72
5
11
818.1250000000
21
20.2500000000
0
TEXT
8
11300_LEFT_GERMAN_ENGLISH
6
CONTINUOUS
10
708.9080147902
20
489.5633787776
40
3.5000000000
1
Links / Left
72
5
11
737.4080147902
21
489.5633787776
0
TEXT
8
10300_FRONT_GERMAN_ENGLISH
6
CONTINUOUS
10
114.7785124232
20
490.0974641393
40
3.5000000000
1
Vorne / Front
72
5
11
147.3618457565
21
490.0974641393
0
TEXT
8
13300_TOP_GERMAN_ENGLISH
6
CONTINUOUS
10
114.7785124232
20
230.5431928791
40
3.5000000000
1
Oben / Top
72
5
11
141.1951790898
21
230.5431928791
0
TEXT
8
91000_TIP
62
7
6
CONTINUOUS
10
11.2756234532
20
15.1898618139
40
3.5000000000
1
Alle Bemassungswerte sind in Millimeter (mm) angegeben.
72
5
11
145.8589567865
21
15.1898618139
0
TEXT
8
91000_TIP
62
7
6
CONTINUOUS
10
11.2756234532
20
9.9398618139
40
3.5000000000
1
All dimensions are in millimeters (mm).
72
5
11
104.4422901199
21
9.9398618139
0
LINE
8
90000_FRAME
62
7
6
CONTINUOUS
10
0.0000000000
20
594.0000000000
11
0.0000000000
21
0.0000000000
0
LINE
8
90000_FRAME
62
7
6
CONTINUOUS
10
5.0000000000
20
589.0000000000
11
5.0000000000
21
5.0000000000
0
LINE
8
91000_TIP
62
7
6
CONTINUOUS
10
669.7690050000
20
20.5214770000
11
679.7690050000
21
23.0214770000
0
LINE
8
13000_TOP
6
CONTINUOUS
10
107.9391125370
20
183.6154593313
11
107.9391125370
21
199.3154593313
0
LINE
8
10000_FRONT
6
CONTINUOUS
10
107.9391125370
20
317.2887404131
11
107.9391125370
21
331.5950822681
0
LINE
8
10000_FRONT
6
CONTINUOUS
10
107.9391125370
20
331.6631316602
11
107.9391125370
21
472.2887404131
0
LINE
8
90000_FRAME
62
7
6
CONTINUOUS
10
0.0000000000
20
0.0000000000
11
841.0000000000
21
0.0000000000
0
LINE
8
90000_FRAME
62
7
6
CONTINUOUS
10
5.0000000000
20
5.0000000000
11
836.0000000000
21
5.0000000000
0
LINE
8
90000_FRAME
62
7
6
CONTINUOUS
10
696.0000000000
20
10.0000000000
11
831.0000000000
21
10.0000000000
0
LINE
8
90000_FRAME
62
7
6
CONTINUOUS
10
746.0000000000
20
16.0000000000
11
831.0000000000
21
16.0000000000
0
LINE
8
90000_FRAME
62
7
6
CONTINUOUS
10
719.5642260000
20
16.2683480000
11
720.4198150000
21
16.2683480000
0
LINE
8
90000_FRAME
62
7
6
CONTINUOUS
10
732.7545480000
20
16.3158800000
11
731.2335020000
21
16.3158800000
0
LINE
8
90000_FRAME
62
7
6
CONTINUOUS
10
723.1291780000
20
16.3158800000
11
721.7507300000
21
16.3158800000
0
LINE
8
90000_FRAME
62
7
6
CONTINUOUS
10
710.3904170000
20
16.3158800000
11
711.8163980000
21
16.3158800000
0
LINE
8
90000_FRAME
62
7
6
CONTINUOUS
10
712.9096500000
20
16.3158800000
11
716.4746010000
21
16.3158800000
0
LINE
8
90000_FRAME
62
7
6
CONTINUOUS
10
717.2826570000
20
16.3158800000
11
718.2333110000
21
16.3158800000
0
LINE
8
90000_FRAME
62
7
6
CONTINUOUS
10
724.2224300000
20
16.3158800000
11
727.7873820000
21
16.3158800000
0
LINE
8
90000_FRAME
62
7
6
CONTINUOUS
10
728.5716710000
20
16.3158800000
11
729.5223250000
21
16.3158800000
0
LINE
8
90000_FRAME
62
7
6
CONTINUOUS
10
727.7873820000
20
17.2190020000
11
725.6008780000
21
17.2190020000
0
LINE
8
90000_FRAME
62
7
6
CONTINUOUS
10
716.4746010000
20
17.2190020000
11
714.2880980000
21
17.2190020000
0
LINE
8
91000_TIP
62
7
6
CENTER
10
668.4894950000
20
18.0214780000
11
692.0914840000
21
18.0214780000
0
LINE
8
90000_FRAME
62
7
6
CONTINUOUS
10
727.4546530000
20
18.3360200000
11
725.6008780000
21
18.3360200000
0
LINE
8
90000_FRAME
62
7
6
CONTINUOUS
10
716.1418730000
20
18.3360200000
11
714.2880980000
21
18.3360200000
0
LINE
8
90000_FRAME
62
7
6
CONTINUOUS
10
727.4546530000
20
19.1203090000
11
725.6008780000
21
19.1203090000
0
LINE
8
90000_FRAME
62
7
6
CONTINUOUS
10
716.1418730000
20
19.1203090000
11
714.2880980000
21
19.1203090000
0
LINE
8
90000_FRAME
62
7
6
CONTINUOUS
10
727.7398490000
20
20.1897950000
11
725.6008780000
21
20.1897950000
0
LINE
8
90000_FRAME
62
7
6
CONTINUOUS
10
716.4270690000
20
20.1897950000
11
714.2880980000
21
20.1897950000
0
LINE
8
90000_FRAME
62
7
6
CONTINUOUS
10
732.7545480000
20
21.0691500000
11
731.8038940000
21
21.0691500000
0
LINE
8
90000_FRAME
62
7
6
CONTINUOUS
10
730.1164840000
20
21.0691500000
11
728.5716710000
21
21.0691500000
0
LINE
8
90000_FRAME
62
7
6
CONTINUOUS
10
727.7398490000
20
21.0691500000
11
724.2224300000
21
21.0691500000
0
LINE
8
90000_FRAME
62
7
6
CONTINUOUS
10
723.1291780000
20
21.0691500000
11
721.4180010000
21
21.0691500000
0
LINE
8
90000_FRAME
62
7
6
CONTINUOUS
10
718.9938340000
20
21.0691500000
11
717.2826570000
21
21.0691500000
0
LINE
8
90000_FRAME
62
7
6
CONTINUOUS
10
716.4270690000
20
21.0691500000
11
712.9096500000
21
21.0691500000
0
LINE
8
90000_FRAME
62
7
6
CONTINUOUS
10
710.3904170000
20
21.0691500000
11
711.8163980000
21
21.0691500000
0
LINE
8
90000_FRAME
62
7
6
CONTINUOUS
10
696.0000000000
20
28.0000000000
11
831.0000000000
21
28.0000000000
0
LINE
8
91000_TIP
62
7
6
CONTINUOUS
10
669.7690050000
20
15.5214780000
11
679.7690050000
21
13.0214780000
0
LINE
8
13000_TOP
6
CONTINUOUS
10
589.9391125370
20
183.6154593313
11
107.9391125370
21
183.6154593313
0
LINE
8
13000_TOP
6
CONTINUOUS
10
589.9391125370
20
188.5654593313
11
107.9391125370
21
188.5654593313
0
LINE
8
13000_TOP
6
CONTINUOUS
10
589.9391125370
20
196.3154593313
11
107.9391125370
21
196.3154593313
0
LINE
8
13000_TOP
6
CONTINUOUS
10
589.9391125370
20
199.3154593313
11
107.9391125370
21
199.3154593313
0
LINE
8
11000_LEFT
6
CONTINUOUS
10
723.3691043187
20
452.4059138469
11
731.3465365936
21
456.1258516091
0
LINE
8
11000_LEFT
6
CONTINUOUS
10
731.4351769260
20
452.8570515180
11
726.3935170819
21
450.5060869229
0
LINE
8
11000_LEFT
6
CONTINUOUS
10
725.8497324097
20
450.2525159659
11
725.3059477375
21
449.9989450088
0
LINE
8
11000_LEFT
6
CONTINUOUS
10
724.7621630652
20
449.7453740518
11
724.2183783930
21
449.4918030947
0
LINE
8
11000_LEFT
6
CONTINUOUS
10
723.6745937208
20
449.2382321377
11
722.5238677952
21
448.7016398261
0
LINE
8
11000_LEFT
6
CONTINUOUS
10
734.3464860569
20
317.2887404131
11
733.8766841533
21
317.2887404131
0
LINE
8
10000_FRONT
6
CONTINUOUS
10
589.9391125370
20
317.2887404131
11
107.9391125370
21
317.2887404131
0
LINE
8
11000_LEFT
6
CONTINUOUS
10
719.4464860569
20
320.9887404131
11
722.8964860569
21
320.9887404131
0
LINE
8
11000_LEFT
6
CONTINUOUS
10
729.9964860569
20
320.9887404131
11
732.6550740449
21
320.9887404131
0
LINE
8
11000_LEFT
6
CONTINUOUS
10
730.7719862571
20
323.4887404131
11
729.8964860569
21
323.4887404131
0
LINE
8
11000_LEFT
6
CONTINUOUS
10
722.9964860569
20
323.4887404131
11
722.1209858568
21
323.4887404131
0
LINE
8
10000_FRONT
6
CONTINUOUS
10
107.9391125370
20
329.9599131621
11
589.9391125370
21
329.9599131621
0
LINE
8
10000_FRONT
6
CONTINUOUS
10
107.9391125370
20
330.5917414131
11
589.9391125370
21
330.5917414131
0
LINE
8
10000_FRONT
6
CONTINUOUS
10
107.9391125370
20
330.7353204131
11
589.9391125370
21
330.7353204131
0
LINE
8
10000_FRONT
6
CONTINUOUS
10
107.9391125370
20
330.8788984131
11
589.9391125370
21
330.8788984131
0
LINE
8
10000_FRONT
6
CONTINUOUS
10
107.9391125370
20
331.0224774131
11
589.9391125370
21
331.0224774131
0
LINE
8
10000_FRONT
6
CONTINUOUS
10
107.9391125370
20
331.1660564131
11
589.9391125370
21
331.1660564131
0
LINE
8
10000_FRONT
6
CONTINUOUS
10
107.9391125370
20
331.3096354131
11
589.9391125370
21
331.3096354131
0
LINE
8
10000_FRONT
6
CONTINUOUS
10
107.9391125370
20
331.4532144131
11
589.9391125370
21
331.4532144131
0
LINE
8
10000_FRONT
6
CONTINUOUS
10
107.9391125370
20
331.5967924131
11
589.9391125370
21
331.5967924131
0
LINE
8
10000_FRONT
6
CONTINUOUS
10
107.9391125370
20
333.4569333465
11
589.9391125370
21
333.4569333465
0
LINE
8
10000_FRONT
6
CONTINUOUS
10
107.9391125370
20
333.9517862354
11
589.9391125370
21
333.9517862354
0
LINE
8
10000_FRONT
6
CONTINUOUS
10
107.9391125370
20
351.9887404131
11
589.9391125370
21
351.9887404131
0
LINE
8
10000_FRONT
6
CONTINUOUS
10
589.9391125370
20
352.2887404131
11
107.9391125370
21
352.2887404131
0
LINE
8
11000_LEFT
6
CONTINUOUS
10
733.8766841533
20
352.2887404131
11
734.3464860569
21
352.2887404131
0
LINE
8
11000_LEFT
6
CONTINUOUS
10
722.4656271287
20
327.9146415269
11
722.9972039891
21
327.8777995663
0
LINE
8
11000_LEFT
6
CONTINUOUS
10
723.5957681247
20
327.8363149232
11
724.1972039891
21
327.7946312495
0
LINE
8
11000_LEFT
6
CONTINUOUS
10
724.7957681247
20
327.7531466064
11
725.3972039891
21
327.7114629326
0
LINE
8
11000_LEFT
6
CONTINUOUS
10
725.9957681247
20
327.6699782896
11
726.5972039891
21
327.6282946158
0
LINE
8
11000_LEFT
6
CONTINUOUS
10
727.1957681247
20
327.5868099727
11
727.7972039891
21
327.5451262990
0
LINE
8
11000_LEFT
6
CONTINUOUS
10
728.3957681247
20
327.5036416559
11
728.9972039891
21
327.4619579821
0
LINE
8
11000_LEFT
6
CONTINUOUS
10
729.5957681247
20
327.4204733391
11
730.1972039891
21
327.3787896653
0
LINE
8
11000_LEFT
6
CONTINUOUS
10
730.7957681247
20
327.3373050222
11
731.2172283784
21
327.3080949056
0
LINE
8
11000_LEFT
6
CONTINUOUS
10
733.7770122491
20
329.8103037183
11
732.6406157007
21
329.9599131621
0
LINE
8
11000_LEFT
6
CONTINUOUS
10
731.8382563432
20
330.0655457755
11
731.5500263531
21
330.1034919736
0
LINE
8
11000_LEFT
6
CONTINUOUS
10
730.7476669957
20
330.2091245869
11
730.4594370056
21
330.2470707850
0
LINE
8
11000_LEFT
6
CONTINUOUS
10
729.6570776482
20
330.3527033984
11
729.3688476581
21
330.3906495964
0
LINE
8
11000_LEFT
6
CONTINUOUS
10
728.5664883007
20
330.4962822098
11
728.2782583106
21
330.5342284079
0
LINE
8
11000_LEFT
6
CONTINUOUS
10
727.4758989532
20
330.6398610213
11
727.1876689631
21
330.6778072193
0
LINE
8
11000_LEFT
6
CONTINUOUS
10
726.3853096057
20
330.7834398327
11
726.0970796156
21
330.8213860308
0
LINE
8
11000_LEFT
6
CONTINUOUS
10
725.2947202582
20
330.9270186441
11
725.0064902681
21
330.9649648422
0
LINE
8
11000_LEFT
6
CONTINUOUS
10
724.2041309106
20
331.0705974556
11
723.9159009206
21
331.1085436536
0
LINE
8
11000_LEFT
6
CONTINUOUS
10
724.6255193449
20
331.5950822681
11
724.8832538563
21
331.5611508759
0
LINE
8
11000_LEFT
6
CONTINUOUS
10
725.7161086924
20
331.4515034566
11
725.9738432038
21
331.4175720645
0
LINE
8
11000_LEFT
6
CONTINUOUS
10
726.8066980399
20
331.3079246452
11
727.0644325514
21
331.2739932531
0
LINE
8
11000_LEFT
6
CONTINUOUS
10
727.8972873874
20
331.1643458338
11
728.1550218989
21
331.1304144416
0
LINE
8
11000_LEFT
6
CONTINUOUS
10
728.9878767350
20
331.0207670223
11
729.2456112464
21
330.9868356302
0
LINE
8
11000_LEFT
6
CONTINUOUS
10
730.0784660825
20
330.8771882109
11
730.3362005939
21
330.8432568187
0
LINE
8
11000_LEFT
6
CONTINUOUS
10
731.1690554300
20
330.7336093994
11
731.4267899414
21
330.6996780073
0
LINE
8
11000_LEFT
6
CONTINUOUS
10
732.2596447775
20
330.5900305880
11
732.5173792889
21
330.5560991958
0
LINE
8
11000_LEFT
6
CONTINUOUS
10
733.4542525393
20
333.4586443742
11
733.1965180279
21
333.4925757664
0
LINE
8
11000_LEFT
6
CONTINUOUS
10
732.3636631918
20
333.6022231857
11
732.1059286804
21
333.6361545778
0
LINE
8
11000_LEFT
6
CONTINUOUS
10
731.2730738443
20
333.7458019971
11
731.0153393329
21
333.7797333893
0
LINE
8
11000_LEFT
6
CONTINUOUS
10
730.1824844968
20
333.8893808086
11
729.9247499854
21
333.9233122007
0
LINE
8
11000_LEFT
6
CONTINUOUS
10
729.0918951493
20
334.0329596200
11
728.8341606379
21
334.0668910122
0
LINE
8
11000_LEFT
6
CONTINUOUS
10
728.0013058018
20
334.1765384315
11
727.7435712903
21
334.2104698236
0
LINE
8
11000_LEFT
6
CONTINUOUS
10
726.9107164543
20
334.3201172429
11
726.6529819428
21
334.3540486350
0
LINE
8
11000_LEFT
6
CONTINUOUS
10
725.8201271067
20
334.4636960543
11
725.5623925953
21
334.4976274465
0
LINE
8
11000_LEFT
6
CONTINUOUS
10
724.2833875716
20
334.6660116523
11
724.7295377592
21
334.6072748658
0
LINE
8
11000_LEFT
6
CONTINUOUS
10
725.0028792920
20
335.1512504226
11
725.2911092821
21
335.1133042246
0
LINE
8
11000_LEFT
6
CONTINUOUS
10
726.0934686395
20
335.0076716112
11
726.3816986296
21
334.9697254131
0
LINE
8
11000_LEFT
6
CONTINUOUS
10
727.1840579871
20
334.8640927997
11
727.4722879771
21
334.8261466017
0
LINE
8
11000_LEFT
6
CONTINUOUS
10
728.2746473346
20
334.7205139883
11
728.5628773246
21
334.6825677902
0
LINE
8
11000_LEFT
6
CONTINUOUS
10
729.3652366821
20
334.5769351769
11
729.6534666722
21
334.5389889788
0
LINE
8
11000_LEFT
6
CONTINUOUS
10
730.4558260296
20
334.4333563654
11
730.7440560197
21
334.3954101673
0
LINE
8
11000_LEFT
6
CONTINUOUS
10
731.5464153771
20
334.2897775540
11
731.8346453672
21
334.2518313559
0
LINE
8
11000_LEFT
6
CONTINUOUS
10
732.6370047246
20
334.1461987425
11
732.9252347147
21
334.1082525445
0
LINE
8
11000_LEFT
6
CONTINUOUS
10
733.7275940721
20
334.0026199311
11
734.0812229608
21
333.9560638047
0
LINE
8
10000_FRONT
6
CONTINUOUS
10
119.1377969753
20
398.7387404131
11
126.7404280988
21
398.7387404131
0
LINE
8
10000_FRONT
6
CONTINUOUS
10
571.1377969753
20
398.7387404131
11
578.7404280988
21
398.7387404131
0
LINE
8
10000_FRONT
6
CONTINUOUS
10
107.9391125370
20
401.8387404131
11
117.8479437125
21
401.8387404131
0
LINE
8
10000_FRONT
6
CONTINUOUS
10
128.0302813615
20
401.8387404131
11
569.8479437125
21
401.8387404131
0
LINE
8
10000_FRONT
6
CONTINUOUS
10
580.0302813615
20
401.8387404131
11
589.9391125370
21
401.8387404131
0
LINE
8
10000_FRONT
6
CONTINUOUS
10
107.9391125370
20
402.1387404131
11
117.8391125370
21
402.1387404131
0
LINE
8
10000_FRONT
6
CONTINUOUS
10
128.0391125370
20
402.1387404131
11
569.8391125370
21
402.1387404131
0
LINE
8
10000_FRONT
6
CONTINUOUS
10
580.0391125370
20
402.1387404131
11
589.9391125370
21
402.1387404131
0
LINE
8
10000_FRONT
6
CONTINUOUS
10
107.9391125370
20
402.4387404131
11
117.8479437125
21
402.4387404131
0
LINE
8
10000_FRONT
6
CONTINUOUS
10
128.0302813615
20
402.4387404131
11
569.8479437125
21
402.4387404131
0
LINE
8
10000_FRONT
6
CONTINUOUS
10
580.0302813615
20
402.4387404131
11
589.9391125370
21
402.4387404131
0
LINE
8
10000_FRONT
6
CONTINUOUS
10
578.7404280988
20
405.5387404131
11
571.1377969753
21
405.5387404131
0
LINE
8
10000_FRONT
6
CONTINUOUS
10
126.7404280988
20
405.5387404131
11
119.1377969753
21
405.5387404131
0
LINE
8
11000_LEFT
6
CONTINUOUS
10
721.6464860569
20
402.1387404131
11
721.9464860569
21
402.4387404131
0
LINE
8
90000_FRAME
62
7
6
CONTINUOUS
10
730.1164840000
20
21.0691500000
11
731.8038940000
21
18.1221230000
0
LINE
8
90000_FRAME
62
7
6
CONTINUOUS
10
731.2335020000
20
16.3158800000
11
729.5223250000
21
19.3579730000
0
LINE
8
13000_TOP
6
CONTINUOUS
10
589.9391125370
20
199.3154593313
11
589.9391125370
21
183.6154593313
0
LINE
8
10000_FRONT
6
CONTINUOUS
10
589.9391125370
20
317.2887404131
11
589.9391125370
21
472.2887404131
0
LINE
8
10000_FRONT
6
CONTINUOUS
10
589.9391125370
20
447.6766449606
11
107.9391125370
21
447.6766449606
0
LINE
8
10000_FRONT
6
CONTINUOUS
10
107.9391125370
20
460.2887404131
11
589.9391125370
21
460.2887404131
0
LINE
8
10000_FRONT
6
CONTINUOUS
10
589.9391125370
20
472.2887404131
11
107.9391125370
21
472.2887404131
0
LINE
8
11000_LEFT
6
CONTINUOUS
10
719.4464860569
20
472.2887404131
11
721.4464860569
21
472.2887404131
0
LINE
8
90000_FRAME
62
7
6
CONTINUOUS
10
719.5642260000
20
16.2683480000
11
718.2333110000
21
19.3579730000
0
LINE
8
90000_FRAME
62
7
6
CONTINUOUS
10
718.9938340000
20
21.0691500000
11
720.2296840000
21
18.1696550000
0
LINE
8
91000_TIP
62
7
6
CONTINUOUS
10
669.7690050000
20
20.5214770000
11
669.7690050000
21
15.5214780000
0
LINE
8
91000_TIP
62
7
6
CONTINUOUS
10
679.7690050000
20
23.0214770000
11
679.7690050000
21
13.0214780000
0
LINE
8
91000_TIP
62
7
6
CENTER
10
686.2690050000
20
12.2999960000
11
686.2690050000
21
23.5833820000
0
LINE
8
11000_LEFT
6
CONTINUOUS
10
720.9165475094
20
337.0345329619
11
719.4581022322
21
333.8938537393
0
LINE
8
11000_LEFT
6
CONTINUOUS
10
724.2041309106
20
331.0705974556
11
724.4220119398
21
331.4891430185
0
LINE
8
11000_LEFT
6
CONTINUOUS
10
725.2947202582
20
330.9270186441
11
725.5126012873
21
331.3455642070
0
LINE
8
11000_LEFT
6
CONTINUOUS
10
726.3853096057
20
330.7834398327
11
726.6031906349
21
331.2019853956
0
LINE
8
11000_LEFT
6
CONTINUOUS
10
727.4758989532
20
330.6398610213
11
727.6937799824
21
331.0584065841
0
LINE
8
11000_LEFT
6
CONTINUOUS
10
728.5664883007
20
330.4962822098
11
728.7843693299
21
330.9148277727
0
LINE
8
11000_LEFT
6
CONTINUOUS
10
729.6570776482
20
330.3527033984
11
729.8749586774
21
330.7712489612
0
LINE
8
11000_LEFT
6
CONTINUOUS
10
730.7476669957
20
330.2091245869
11
730.9655480249
21
330.6276701498
0
LINE
8
11000_LEFT
6
CONTINUOUS
10
731.8382563432
20
330.0655457755
11
732.0561373724
21
330.4840913384
0
LINE
8
90000_FRAME
62
7
6
CONTINUOUS
10
696.0000000000
20
10.0000000000
11
696.0000000000
21
28.0000000000
0
LINE
8
90000_FRAME
62
7
6
CONTINUOUS
10
705.9698770000
20
16.4109460000
11
705.9698770000
21
17.3616000000
0
LINE
8
90000_FRAME
62
7
6
CONTINUOUS
10
709.2971650000
20
20.0709630000
11
709.2971650000
21
21.0216170000
0
LINE
8
90000_FRAME
62
7
6
CONTINUOUS
10
710.3904170000
20
21.0691500000
11
710.3904170000
21
16.3158800000
0
LINE
8
90000_FRAME
62
7
6
CONTINUOUS
10
711.8163980000
20
21.0691500000
11
711.8163980000
21
16.3158800000
0
LINE
8
90000_FRAME
62
7
6
CONTINUOUS
10
712.9096500000
20
21.0691500000
11
712.9096500000
21
16.3158800000
0
LINE
8
90000_FRAME
62
7
6
CONTINUOUS
10
714.2880980000
20
20.1897950000
11
714.2880980000
21
19.1203090000
0
LINE
8
90000_FRAME
62
7
6
CONTINUOUS
10
714.2880980000
20
18.3360200000
11
714.2880980000
21
17.2190020000
0
LINE
8
90000_FRAME
62
7
6
CONTINUOUS
10
716.1418730000
20
19.1203090000
11
716.1418730000
21
18.3360200000
0
LINE
8
90000_FRAME
62
7
6
CONTINUOUS
10
716.4270690000
20
21.0691500000
11
716.4270690000
21
20.1897950000
0
LINE
8
90000_FRAME
62
7
6
CONTINUOUS
10
716.4746010000
20
17.2190020000
11
716.4746010000
21
16.3158800000
0
LINE
8
90000_FRAME
62
7
6
CONTINUOUS
10
717.2826570000
20
16.3158800000
11
717.2826570000
21
21.0691500000
0
LINE
8
11000_LEFT
6
CONTINUOUS
10
723.9159009206
20
331.1085436536
11
723.9652324759
21
331.4832540178
0
LINE
8
11000_LEFT
6
CONTINUOUS
10
724.9539319700
20
334.7794585996
11
725.0028792920
21
335.1512504226
0
LINE
8
11000_LEFT
6
CONTINUOUS
10
733.5869064054
20
352.0663861266
11
732.6931848041
21
348.7309717025
0
LINE
8
90000_FRAME
62
7
6
CONTINUOUS
10
836.0000000000
20
589.0000000000
11
5.0000000000
21
589.0000000000
0
LINE
8
90000_FRAME
62
7
6
CONTINUOUS
10
841.0000000000
20
594.0000000000
11
0.0000000000
21
594.0000000000
0
LINE
8
11000_LEFT
6
CONTINUOUS
10
721.9464860569
20
401.8387404131
11
721.6464860569
21
402.1387404131
0
LINE
8
90000_FRAME
62
7
6
CONTINUOUS
10
718.2333110000
20
16.3158800000
11
718.2333110000
21
19.3579730000
0
LINE
8
11000_LEFT
6
CONTINUOUS
10
718.9464860569
20
321.4887404131
11
718.9464860569
21
322.8887404131
0
LINE
8
11000_LEFT
6
CONTINUOUS
10
718.9464860569
20
323.4887404131
11
718.9464860569
21
324.0887404131
0
LINE
8
11000_LEFT
6
CONTINUOUS
10
718.9464860569
20
324.6887404131
11
718.9464860569
21
325.2887404131
0
LINE
8
11000_LEFT
6
CONTINUOUS
10
718.9464860569
20
325.8887404131
11
718.9464860569
21
326.4887404131
0
LINE
8
11000_LEFT
6
CONTINUOUS
10
718.9464860569
20
327.0887404131
11
718.9464860569
21
327.6887404131
0
LINE
8
11000_LEFT
6
CONTINUOUS
10
718.9464860569
20
328.2887404131
11
718.9464860569
21
331.5773851302
0
LINE
8
11000_LEFT
6
CONTINUOUS
10
718.9464860569
20
350.7494099353
11
718.9464860569
21
471.7887404131
0
LINE
8
11000_LEFT
6
CONTINUOUS
10
721.3964860569
20
324.2132402129
11
721.3964860569
21
326.9170346343
0
LINE
8
90000_FRAME
62
7
6
CONTINUOUS
10
721.7507300000
20
19.4055050000
11
721.7507300000
21
16.3158800000
0
LINE
8
11000_LEFT
6
CONTINUOUS
10
721.9464860569
20
471.7887404131
11
721.9464860569
21
453.3122216339
0
LINE
8
11000_LEFT
6
CONTINUOUS
10
721.9464860569
20
350.7494099353
11
721.9464860569
21
401.8387404131
0
LINE
8
11000_LEFT
6
CONTINUOUS
10
721.9464860569
20
402.4387404131
11
721.9464860569
21
447.7953320391
0
LINE
8
90000_FRAME
62
7
6
CONTINUOUS
10
723.1291780000
20
21.0691500000
11
723.1291780000
21
16.3158800000
0
LINE
8
11000_LEFT
6
CONTINUOUS
10
723.3964860569
20
321.4887404131
11
723.3964860569
21
323.0887404131
0
LINE
8
90000_FRAME
62
7
6
CONTINUOUS
10
724.2224300000
20
21.0691500000
11
724.2224300000
21
16.3158800000
0
LINE
8
90000_FRAME
62
7
6
CONTINUOUS
10
725.6008780000
20
20.1897950000
11
725.6008780000
21
19.1203090000
0
LINE
8
90000_FRAME
62
7
6
CONTINUOUS
10
725.6008780000
20
18.3360200000
11
725.6008780000
21
17.2190020000
0
LINE
8
90000_FRAME
62
7
6
CONTINUOUS
10
727.4546530000
20
19.1203090000
11
727.4546530000
21
18.3360200000
0
LINE
8
90000_FRAME
62
7
6
CONTINUOUS
10
727.7398490000
20
21.0691500000
11
727.7398490000
21
20.1897950000
0
LINE
8
90000_FRAME
62
7
6
CONTINUOUS
10
727.7873820000
20
17.2190020000
11
727.7873820000
21
16.3158800000
0
LINE
8
90000_FRAME
62
7
6
CONTINUOUS
10
728.5716710000
20
16.3158800000
11
728.5716710000
21
21.0691500000
0
LINE
8
11000_LEFT
6
CONTINUOUS
10
729.4964860569
20
323.0887404131
11
729.4964860569
21
321.4887404131
0
LINE
8
90000_FRAME
62
7
6
CONTINUOUS
10
729.5223250000
20
16.3158800000
11
729.5223250000
21
19.3579730000
0
LINE
8
11000_LEFT
6
CONTINUOUS
10
729.6964860569
20
458.4028974567
11
729.6964860569
21
459.2887404131
0
LINE
8
11000_LEFT
6
CONTINUOUS
10
731.4964860569
20
327.0088128379
11
731.4964860569
21
324.2132402129
0
LINE
8
90000_FRAME
62
7
6
CONTINUOUS
10
731.8038940000
20
21.0691500000
11
731.8038940000
21
18.1221230000
0
LINE
8
11000_LEFT
6
CONTINUOUS
10
732.1464860569
20
448.1766449606
11
732.1464860569
21
452.4038976245
0
LINE
8
90000_FRAME
62
7
6
CONTINUOUS
10
732.7545480000
20
21.0691500000
11
732.7545480000
21
16.3158800000
0
LINE
8
90000_FRAME
62
7
6
CONTINUOUS
10
733.5626040000
20
16.4109460000
11
733.5626040000
21
17.3616000000
0
LINE
8
11000_LEFT
6
CONTINUOUS
10
734.6464860569
20
455.0641102518
11
734.6464860569
21
449.4063713130
0
LINE
8
11000_LEFT
6
CONTINUOUS
10
734.6464860569
20
351.9887404131
11
734.6464860569
21
334.4517862354
0
LINE
8
11000_LEFT
6
CONTINUOUS
10
734.6464860569
20
328.8188588569
11
734.6464860569
21
317.5887404131
0
LINE
8
90000_FRAME
62
7
6
CONTINUOUS
10
736.8898920000
20
20.0709630000
11
736.8898920000
21
21.0216170000
0
LINE
8
90000_FRAME
62
7
6
CONTINUOUS
10
746.0000000000
20
10.0000000000
11
746.0000000000
21
28.0000000000
0
LINE
8
11000_LEFT
6
CONTINUOUS
10
725.0554375902
20
331.3367566652
11
725.0064902681
21
330.9649648422
0
LINE
8
11000_LEFT
6
CONTINUOUS
10
726.0934686395
20
335.0076716112
11
726.0445213175
21
334.6358797882
0
LINE
8
11000_LEFT
6
CONTINUOUS
10
726.1460269377
20
331.1931778538
11
726.0970796156
21
330.8213860308
0
LINE
8
11000_LEFT
6
CONTINUOUS
10
727.1840579871
20
334.8640927997
11
727.1351106650
21
334.4923009767
0
LINE
8
11000_LEFT
6
CONTINUOUS
10
727.2366162852
20
331.0495990423
11
727.1876689631
21
330.6778072193
0
LINE
8
11000_LEFT
6
CONTINUOUS
10
728.2746473346
20
334.7205139883
11
728.2257000125
21
334.3487221653
0
LINE
8
11000_LEFT
6
CONTINUOUS
10
728.3272056327
20
330.9060202309
11
728.2782583106
21
330.5342284079
0
LINE
8
11000_LEFT
6
CONTINUOUS
10
729.3652366821
20
334.5769351769
11
729.3162893600
21
334.2051433538
0
LINE
8
11000_LEFT
6
CONTINUOUS
10
729.4177949802
20
330.7624414195
11
729.3688476581
21
330.3906495964
0
LINE
8
11000_LEFT
6
CONTINUOUS
10
730.4558260296
20
334.4333563654
11
730.4068787075
21
334.0615645424
0
LINE
8
11000_LEFT
6
CONTINUOUS
10
730.5083843277
20
330.6188626080
11
730.4594370056
21
330.2470707850
0
LINE
8
11000_LEFT
6
CONTINUOUS
10
731.5464153771
20
334.2897775540
11
731.4974680550
21
333.9179857310
0
LINE
8
11000_LEFT
6
CONTINUOUS
10
731.5989736752
20
330.4752837966
11
731.5500263531
21
330.1034919736
0
LINE
8
11000_LEFT
6
CONTINUOUS
10
732.6370047246
20
334.1461987425
11
732.5880574025
21
333.7744069195
0
LINE
8
11000_LEFT
6
CONTINUOUS
10
732.6895630227
20
330.3317049851
11
732.6406157007
21
329.9599131621
0
LINE
8
11000_LEFT
6
CONTINUOUS
10
733.7275940721
20
334.0026199311
11
733.6786467500
21
333.6308281081
0
LINE
8
11000_LEFT
6
CONTINUOUS
10
733.5869064054
20
317.5110946995
11
732.6550740449
21
320.9887404131
0
LINE
8
11000_LEFT
6
CONTINUOUS
10
725.3932386323
20
334.6526284960
11
725.2911092821
21
335.1133042246
0
LINE
8
11000_LEFT
6
CONTINUOUS
10
726.4838279799
20
334.5090496845
11
726.3816986296
21
334.9697254131
0
LINE
8
11000_LEFT
6
CONTINUOUS
10
727.5744173274
20
334.3654708731
11
727.4722879771
21
334.8261466017
0
LINE
8
11000_LEFT
6
CONTINUOUS
10
728.6650066749
20
334.2218920616
11
728.5628773246
21
334.6825677902
0
LINE
8
11000_LEFT
6
CONTINUOUS
10
729.7555960224
20
334.0783132502
11
729.6534666722
21
334.5389889788
0
LINE
8
11000_LEFT
6
CONTINUOUS
10
730.8461853699
20
333.9347344388
11
730.7440560197
21
334.3954101673
0
LINE
8
11000_LEFT
6
CONTINUOUS
10
731.9367747174
20
333.7911556273
11
731.8346453672
21
334.2518313559
0
LINE
8
11000_LEFT
6
CONTINUOUS
10
733.0273640649
20
333.6475768159
11
732.9252347147
21
334.1082525445
0
LINE
8
90000_FRAME
62
7
6
CONTINUOUS
10
788.5000000000
20
10.0000000000
11
788.5000000000
21
16.0000000000
0
LINE
8
90000_FRAME
62
7
6
CONTINUOUS
10
721.4180010000
20
21.0691500000
11
720.2296840000
21
18.1696550000
0
LINE
8
90000_FRAME
62
7
6
CONTINUOUS
10
831.0000000000
20
10.0000000000
11
831.0000000000
21
28.0000000000
0
LINE
8
90000_FRAME
62
7
6
CONTINUOUS
10
836.0000000000
20
5.0000000000
11
836.0000000000
21
589.0000000000
0
LINE
8
90000_FRAME
62
7
6
CONTINUOUS
10
841.0000000000
20
0.0000000000
11
841.0000000000
21
594.0000000000
0
LINE
8
90000_FRAME
62
7
6
CONTINUOUS
10
721.7507300000
20
19.4055050000
11
720.4198150000
21
16.2683480000
0
LINE
8
90000_FRAME
62
7
6
CONTINUOUS
10
706.1617050000
20
20.4883440000
11
706.4357710000
21
20.7624170000
0
ARC
8
10000_FRONT
6
CONTINUOUS
10
574.9391125370
20
402.1387404131
40
5.1000000000
50
138.1896851042
51
221.8103148958
0
ARC
8
10000_FRONT
6
CONTINUOUS
10
574.9391125370
20
402.1387404131
40
5.1000000000
50
318.1896851042
51
41.8103148958
0
ARC
8
10000_FRONT
6
CONTINUOUS
10
122.9391125370
20
402.1387404131
40
5.1000000000
50
138.1896851042
51
221.8103148958
0
ARC
8
10000_FRONT
6
CONTINUOUS
10
122.9391125370
20
402.1387404131
40
5.1000000000
50
318.1896851042
51
41.8103148958
0
ARC
8
11000_LEFT
6
CONTINUOUS
10
724.4464860569
20
331.5773851302
40
5.5000000000
50
155.0911374351
51
180.0000000000
0
ARC
8
11000_LEFT
6
CONTINUOUS
10
724.4464860569
20
350.7494099353
40
5.5000000000
50
180.0000000000
51
224.5347141465
0
ARC
8
11000_LEFT
6
CONTINUOUS
10
724.4464860569
20
350.7494099353
40
2.5000000000
50
180.0000000000
51
290.7037062570
0
ARC
8
11000_LEFT
6
CONTINUOUS
10
718.7438808244
20
345.1386797188
40
2.5000000000
50
338.3657220361
51
44.5347141465
0
ARC
8
11000_LEFT
6
CONTINUOUS
10
718.6491003164
20
338.0874732387
40
2.5000000000
50
335.0911374351
51
20.0940603909
0
ARC
8
11000_LEFT
6
CONTINUOUS
10
724.0875982833
20
333.1788443602
40
1.5000000000
50
82.5000000000
51
259.1277133166
0
ARC
8
11000_LEFT
6
CONTINUOUS
10
722.3964860569
20
326.9170346343
40
1.0000000000
50
86.0353452771
51
180.0000000000
0
ARC
8
11000_LEFT
6
CONTINUOUS
10
722.8964860569
20
321.4887404131
40
0.5000000000
50
270.0000000000
51
360.0000000000
0
ARC
8
11000_LEFT
6
CONTINUOUS
10
719.4464860569
20
321.4887404131
40
0.5000000000
50
180.0000000000
51
270.0000000000
0
ARC
8
11000_LEFT
6
CONTINUOUS
10
720.9964860569
20
324.2132402129
40
0.4000000000
50
308.6821874535
51
360.0000000000
0
ARC
8
11000_LEFT
6
CONTINUOUS
10
721.4964860569
20
323.5887404131
40
0.4000000000
50
128.6821874535
51
321.3178125465
0
ARC
8
11000_LEFT
6
CONTINUOUS
10
722.1209858568
20
323.0887404131
40
0.4000000000
50
90.0000000000
51
141.3178125465
0
ARC
8
11000_LEFT
6
CONTINUOUS
10
722.9964860569
20
323.0887404131
40
0.4000000000
50
0.0000000000
51
90.0000000000
0
ARC
8
11000_LEFT
6
CONTINUOUS
10
718.9464860569
20
323.1887404131
40
0.3000000000
50
270.0000000000
51
90.0000000000
0
ARC
8
11000_LEFT
6
CONTINUOUS
10
718.9464860569
20
324.3887404131
40
0.3000000000
50
270.0000000000
51
90.0000000000
0
ARC
8
11000_LEFT
6
CONTINUOUS
10
718.9464860569
20
325.5887404131
40
0.3000000000
50
270.0000000000
51
90.0000000000
0
ARC
8
11000_LEFT
6
CONTINUOUS
10
718.9464860569
20
326.7887404131
40
0.3000000000
50
270.0000000000
51
90.0000000000
0
ARC
8
11000_LEFT
6
CONTINUOUS
10
718.9464860569
20
327.9887404131
40
0.3000000000
50
270.0000000000
51
90.0000000000
0
ARC
8
11000_LEFT
6
CONTINUOUS
10
725.6964860569
20
327.6907206111
40
0.3000000000
50
356.0353452771
51
176.0353452771
0
ARC
8
11000_LEFT
6
CONTINUOUS
10
724.4964860569
20
327.7738889279
40
0.3000000000
50
356.0353452771
51
176.0353452771
0
ARC
8
11000_LEFT
6
CONTINUOUS
10
723.2964860569
20
327.8570572448
40
0.3000000000
50
356.0353452771
51
176.0353452771
0
ARC
8
11000_LEFT
6
CONTINUOUS
10
725.8462323452
20
334.6619850266
40
0.2000000000
50
262.5000000001
51
352.5000000001
0
ARC
8
11000_LEFT
6
CONTINUOUS
10
725.5884978338
20
334.6959164188
40
0.2000000000
50
192.5000000000
51
262.5000000000
0
ARC
8
11000_LEFT
6
CONTINUOUS
10
724.7556429977
20
334.8055638381
40
0.2000000000
50
262.5000000000
51
352.5000000000
0
ARC
8
11000_LEFT
6
CONTINUOUS
10
723.7669435036
20
331.5093592563
40
0.2000000000
50
352.5000000000
51
79.1277133166
0
ARC
8
11000_LEFT
6
CONTINUOUS
10
724.5994141065
20
331.3967932958
40
0.2000000000
50
82.5000000001
51
152.5000000001
0
ARC
8
11000_LEFT
6
CONTINUOUS
10
724.8571486179
20
331.3628619037
40
0.2000000000
50
352.5000000000
51
82.5000000000
0
ARC
8
11000_LEFT
6
CONTINUOUS
10
725.6900034540
20
331.2532144844
40
0.2000000000
50
82.5000000000
51
152.5000000000
0
ARC
8
11000_LEFT
6
CONTINUOUS
10
725.9477379654
20
331.2192830922
40
0.2000000000
50
352.5000000000
51
82.5000000000
0
ARC
8
11000_LEFT
6
CONTINUOUS
10
722.9464860569
20
447.7953320391
40
1.0000000000
50
115.0000000000
51
180.0000000000
0
ARC
8
11000_LEFT
6
CONTINUOUS
10
722.9464860569
20
453.3122216339
40
1.0000000000
50
180.0000000000
51
295.0000000000
0
ARC
8
11000_LEFT
6
CONTINUOUS
10
719.4464860569
20
471.7887404131
40
0.5000000000
50
90.0000000000
51
180.0000000000
0
ARC
8
11000_LEFT
6
CONTINUOUS
10
721.4464860569
20
471.7887404131
40
0.5000000000
50
0.0000000000
51
90.0000000000
0
ARC
8
11000_LEFT
6
CONTINUOUS
10
726.1216247458
20
450.3793014444
40
0.3000000000
50
205.0000000000
51
25.0000000000
0
ARC
8
11000_LEFT
6
CONTINUOUS
10
723.9464860569
20
449.3650176162
40
0.3000000000
50
205.0000000000
51
25.0000000000
0
ARC
8
11000_LEFT
6
CONTINUOUS
10
725.0340554014
20
449.8721595303
40
0.3000000000
50
205.0000000000
51
25.0000000000
0
ARC
8
11000_LEFT
6
CONTINUOUS
10
729.9964860569
20
321.4887404131
40
0.5000000000
50
180.0000000000
51
270.0000000000
0
ARC
8
11000_LEFT
6
CONTINUOUS
10
729.8964860569
20
323.0887404131
40
0.4000000000
50
90.0000000000
51
180.0000000000
0
ARC
8
11000_LEFT
6
CONTINUOUS
10
729.2964860569
20
327.4412156606
40
0.3000000000
50
356.0353452771
51
176.0353452771
0
ARC
8
11000_LEFT
6
CONTINUOUS
10
728.0964860569
20
327.5243839774
40
0.3000000000
50
356.0353452771
51
176.0353452771
0
ARC
8
11000_LEFT
6
CONTINUOUS
10
726.8964860569
20
327.6075522943
40
0.3000000000
50
356.0353452771
51
176.0353452771
0
ARC
8
11000_LEFT
6
CONTINUOUS
10
730.4964860569
20
327.3580473438
40
0.3000000000
50
356.0353452771
51
176.0353452771
0
ARC
8
11000_LEFT
6
CONTINUOUS
10
730.2085897352
20
334.0876697808
40
0.2000000000
50
262.5000000000
51
352.5000000000
0
ARC
8
11000_LEFT
6
CONTINUOUS
10
729.9508552238
20
334.1216011730
40
0.2000000000
50
192.5000000000
51
262.5000000000
0
ARC
8
11000_LEFT
6
CONTINUOUS
10
729.1180003877
20
334.2312485923
40
0.2000000000
50
262.5000000000
51
352.5000000000
0
ARC
8
11000_LEFT
6
CONTINUOUS
10
728.8602658763
20
334.2651799844
40
0.2000000000
50
192.5000000000
51
262.5000000000
0
ARC
8
11000_LEFT
6
CONTINUOUS
10
728.0274110402
20
334.3748274037
40
0.2000000000
50
262.5000000001
51
352.5000000001
0
ARC
8
11000_LEFT
6
CONTINUOUS
10
727.7696765288
20
334.4087587959
40
0.2000000000
50
192.5000000000
51
262.5000000000
0
ARC
8
11000_LEFT
6
CONTINUOUS
10
726.9368216927
20
334.5184062152
40
0.2000000000
50
262.5000000000
51
352.5000000000
0
ARC
8
11000_LEFT
6
CONTINUOUS
10
726.6790871813
20
334.5523376073
40
0.2000000000
50
192.5000000000
51
262.5000000000
0
ARC
8
11000_LEFT
6
CONTINUOUS
10
726.7805928015
20
331.1096356729
40
0.2000000000
50
82.5000000000
51
152.5000000000
0
ARC
8
11000_LEFT
6
CONTINUOUS
10
727.0383273129
20
331.0757042808
40
0.2000000000
50
352.5000000000
51
82.5000000000
0
ARC
8
11000_LEFT
6
CONTINUOUS
10
727.8711821490
20
330.9660568615
40
0.2000000000
50
82.5000000000
51
152.5000000000
0
ARC
8
11000_LEFT
6
CONTINUOUS
10
728.1289166604
20
330.9321254693
40
0.2000000000
50
352.5000000000
51
82.5000000000
0
ARC
8
11000_LEFT
6
CONTINUOUS
10
728.9617714965
20
330.8224780500
40
0.2000000000
50
82.5000000001
51
152.5000000001
0
ARC
8
11000_LEFT
6
CONTINUOUS
10
729.2195060079
20
330.7885466579
40
0.2000000000
50
352.5000000000
51
82.5000000000
0
ARC
8
11000_LEFT
6
CONTINUOUS
10
730.0523608440
20
330.6788992386
40
0.2000000000
50
82.5000000000
51
152.5000000000
0
ARC
8
11000_LEFT
6
CONTINUOUS
10
730.3100953554
20
330.6449678465
40
0.2000000000
50
352.5000000000
51
82.5000000000
0
ARC
8
11000_LEFT
6
CONTINUOUS
10
727.9464860569
20
341.4887404131
40
7.4000000000
50
63.2504123493
51
110.7037062570
0
ARC
8
11000_LEFT
6
CONTINUOUS
10
727.9464860569
20
341.4887404131
40
7.4000000000
50
158.3657220361
51
200.0940603909
0
CIRCLE
8
11000_LEFT
6
CONTINUOUS
10
727.9464860569
20
341.4887404131
40
4.4000000000
0
ARC
8
11000_LEFT
6
CONTINUOUS
10
733.6464860569
20
328.8188588569
40
1.0000000000
50
0.0000000000
51
82.5000000000
0
ARC
8
11000_LEFT
6
CONTINUOUS
10
734.1464860569
20
334.4517862354
40
0.5000000000
50
262.5000000000
51
360.0000000000
0
ARC
8
11000_LEFT
6
CONTINUOUS
10
730.7719862571
20
323.0887404131
40
0.4000000000
50
38.6821874535
51
90.0000000000
0
ARC
8
11000_LEFT
6
CONTINUOUS
10
731.3964860569
20
323.5887404131
40
0.4000000000
50
218.6821874535
51
51.3178125465
0
ARC
8
11000_LEFT
6
CONTINUOUS
10
731.8964860569
20
324.2132402129
40
0.4000000000
50
180.0000000000
51
231.3178125465
0
ARC
8
11000_LEFT
6
CONTINUOUS
10
734.3464860569
20
317.5887404131
40
0.3000000000
50
270.0000000000
51
360.0000000000
0
ARC
8
11000_LEFT
6
CONTINUOUS
10
733.8766841533
20
317.5887404131
40
0.3000000000
50
195.0000000000
51
270.0000000000
0
ARC
8
11000_LEFT
6
CONTINUOUS
10
731.1964860569
20
327.0088128379
40
0.3000000000
50
0.0000000000
51
86.0353452771
0
ARC
8
11000_LEFT
6
CONTINUOUS
10
733.4803577778
20
333.6569333465
40
0.2000000000
50
262.5000000001
51
352.5000000001
0
ARC
8
11000_LEFT
6
CONTINUOUS
10
733.2226232663
20
333.6908647387
40
0.2000000000
50
192.5000000000
51
262.5000000000
0
ARC
8
11000_LEFT
6
CONTINUOUS
10
732.3897684303
20
333.8005121580
40
0.2000000000
50
262.5000000000
51
352.5000000000
0
ARC
8
11000_LEFT
6
CONTINUOUS
10
732.1320339188
20
333.8344435501
40
0.2000000000
50
192.5000000000
51
262.5000000000
0
ARC
8
11000_LEFT
6
CONTINUOUS
10
731.2991790827
20
333.9440909694
40
0.2000000000
50
262.5000000000
51
352.5000000000
0
ARC
8
11000_LEFT
6
CONTINUOUS
10
731.0414445713
20
333.9780223615
40
0.2000000000
50
192.5000000000
51
262.5000000000
0
ARC
8
11000_LEFT
6
CONTINUOUS
10
731.1429501915
20
330.5353204272
40
0.2000000000
50
82.5000000000
51
152.5000000000
0
ARC
8
11000_LEFT
6
CONTINUOUS
10
731.4006847030
20
330.5013890350
40
0.2000000000
50
352.5000000000
51
82.5000000000
0
ARC
8
11000_LEFT
6
CONTINUOUS
10
732.2335395390
20
330.3917416157
40
0.2000000000
50
82.5000000001
51
152.5000000001
0
ARC
8
11000_LEFT
6
CONTINUOUS
10
732.4912740505
20
330.3578102236
40
0.2000000000
50
352.5000000000
51
82.5000000000
0
ARC
8
11000_LEFT
6
CONTINUOUS
10
731.7272589778
20
348.9897907476
40
1.0000000000
50
243.2504123493
51
345.0000000000
0
ARC
8
11000_LEFT
6
CONTINUOUS
10
733.8766841533
20
351.9887404131
40
0.3000000000
50
90.0000000000
51
165.0000000000
0
ARC
8
11000_LEFT
6
CONTINUOUS
10
734.3464860569
20
351.9887404131
40
0.3000000000
50
0.0000000000
51
90.0000000000
0
ARC
8
11000_LEFT
6
CONTINUOUS
10
729.6384924467
20
458.2887404131
40
11.0500000000
50
286.5658948327
51
291.5509945218
0
ARC
8
11000_LEFT
6
CONTINUOUS
10
729.1464860569
20
455.0641102518
40
5.5000000000
50
0.0000000000
51
69.8521137128
0
ARC
8
11000_LEFT
6
CONTINUOUS
10
729.1464860569
20
455.0641102518
40
3.0000000000
50
37.2978176103
51
72.5423968763
0
ARC
8
11000_LEFT
6
CONTINUOUS
10
733.1464860569
20
449.4063713130
40
1.5000000000
50
291.5509945219
51
360.0000000000
0
ARC
8
11000_LEFT
6
CONTINUOUS
10
730.6964860569
20
459.2887404131
40
1.0000000000
50
69.8521137128
51
180.0000000000
0
ARC
8
11000_LEFT
6
CONTINUOUS
10
730.1964860569
20
458.4028974567
40
0.5000000000
50
180.0000000000
51
252.5423968763
0
ARC
8
11000_LEFT
6
CONTINUOUS
10
732.6464860569
20
448.1766449606
40
0.5000000000
50
180.0000000000
51
286.5658948327
0
ARC
8
11000_LEFT
6
CONTINUOUS
10
731.6464860569
20
452.4038976245
40
0.5000000000
50
0.0000000000
51
115.0000000000
0
ARC
8
11000_LEFT
6
CONTINUOUS
10
731.1352274627
20
456.5790055026
40
0.5000000000
50
295.0000000000
51
37.2978176103
0
ARC
8
90000_FRAME
62
7
6
CONTINUOUS
10
735.2672450000
20
18.2730390000
40
1.1116190000
50
277.7099960000
51
295.6884930000
0
ARC
8
90000_FRAME
62
7
6
CONTINUOUS
10
735.5515550000
20
17.5482130000
40
0.3401690000
50
305.5032210000
51
72.4652900000
0
ARC
8
90000_FRAME
62
7
6
CONTINUOUS
10
734.9855610000
20
20.9499200000
40
4.7567950000
50
252.5939200000
51
280.9816600000
0
ARC
8
90000_FRAME
62
7
6
CONTINUOUS
10
735.4403960000
20
18.3319060000
40
2.1007270000
50
282.4058360000
51
311.8644430000
0
ARC
8
90000_FRAME
62
7
6
CONTINUOUS
10
735.1668320000
20
19.9402480000
40
0.3029630000
50
154.4400350000
51
221.8201700000
0
ARC
8
90000_FRAME
62
7
6
CONTINUOUS
10
735.2460530000
20
19.8610270000
40
0.4103090000
50
102.8287830000
51
149.2259640000
0
ARC
8
90000_FRAME
62
7
6
CONTINUOUS
10
735.6630800000
20
18.1186920000
40
2.2018370000
50
84.0400060000
51
103.3427660000
0
ARC
8
90000_FRAME
62
7
6
CONTINUOUS
10
735.3221160000
20
15.7013280000
40
4.6423740000
50
70.2625860000
51
82.9524190000
0
ARC
8
90000_FRAME
62
7
6
CONTINUOUS
10
734.8080980000
20
20.3729510000
40
3.2587560000
50
247.5300210000
51
280.7579520000
0
ARC
8
90000_FRAME
62
7
6
CONTINUOUS
10
728.4231320000
20
2.1214310000
40
17.3316080000
50
65.3414670000
51
67.3997770000
0
ARC
8
90000_FRAME
62
7
6
CONTINUOUS
10
739.2189940000
20
27.9138570000
40
10.6291640000
50
242.8620100000
51
247.1042030000
0
ARC
8
90000_FRAME
62
7
6
CONTINUOUS
10
735.3640930000
20
20.3799260000
40
2.1662920000
50
227.3119280000
51
242.7040320000
0
ARC
8
90000_FRAME
62
7
6
CONTINUOUS
10
734.7600620000
20
19.6742480000
40
1.2385220000
50
194.7952190000
51
225.7176550000
0
ARC
8
90000_FRAME
62
7
6
CONTINUOUS
10
734.8222200000
20
19.7144680000
40
1.3090920000
50
164.1974860000
51
195.8025140000
0
ARC
8
90000_FRAME
62
7
6
CONTINUOUS
10
735.3792440000
20
18.8262010000
40
2.3669250000
50
86.2218020000
51
120.4272600000
0
ARC
8
90000_FRAME
62
7
6
CONTINUOUS
10
735.1103870000
20
12.1300330000
40
9.0679050000
50
78.6827050000
51
87.3147600000
0
ARC
8
90000_FRAME
62
7
6
CONTINUOUS
10
734.6543180000
20
19.8219760000
40
1.1197470000
50
142.8139180000
51
167.1522950000
0
ARC
8
90000_FRAME
62
7
6
CONTINUOUS
10
734.9996270000
20
19.5153940000
40
1.5805470000
50
121.2140950000
51
141.5254770000
0
ARC
8
90000_FRAME
62
7
6
CONTINUOUS
10
735.5768020000
20
20.3264510000
40
0.8661280000
50
222.7760390000
51
239.0362430000
0
ARC
8
90000_FRAME
62
7
6
CONTINUOUS
10
733.0700920000
20
12.9961790000
40
6.8587740000
50
59.9020270000
51
68.2036480000
0
ARC
8
90000_FRAME
62
7
6
CONTINUOUS
10
736.4785870000
20
21.9220660000
40
2.6987410000
50
240.0482000000
51
251.3779670000
0
ARC
8
90000_FRAME
62
7
6
CONTINUOUS
10
735.8131290000
20
17.7651670000
40
1.4334470000
50
315.8904550000
51
333.5229260000
0
ARC
8
90000_FRAME
62
7
6
CONTINUOUS
10
735.8177680000
20
17.7117600000
40
1.4062290000
50
335.3867970000
51
24.3915120000
0
ARC
8
90000_FRAME
62
7
6
CONTINUOUS
10
735.7455630000
20
17.6339030000
40
1.5047030000
50
25.9562920000
51
59.4834830000
0
ARC
8
90000_FRAME
62
7
6
CONTINUOUS
10
707.6745180000
20
18.2730390000
40
1.1116190000
50
277.7099960000
51
295.6884930000
0
ARC
8
90000_FRAME
62
7
6
CONTINUOUS
10
707.9588280000
20
17.5482130000
40
0.3401690000
50
305.5032210000
51
72.4652900000
0
ARC
8
90000_FRAME
62
7
6
CONTINUOUS
10
707.3928340000
20
20.9499200000
40
4.7567950000
50
252.5939200000
51
280.9816600000
0
ARC
8
90000_FRAME
62
7
6
CONTINUOUS
10
707.8476690000
20
18.3319060000
40
2.1007270000
50
282.4058360000
51
311.8644430000
0
ARC
8
90000_FRAME
62
7
6
CONTINUOUS
10
707.5741050000
20
19.9402480000
40
0.3029630000
50
154.4400350000
51
221.8201700000
0
ARC
8
90000_FRAME
62
7
6
CONTINUOUS
10
707.6533260000
20
19.8610270000
40
0.4103090000
50
102.8287830000
51
149.2259640000
0
ARC
8
90000_FRAME
62
7
6
CONTINUOUS
10
708.0703530000
20
18.1186920000
40
2.2018370000
50
84.0400060000
51
103.3427660000
0
ARC
8
90000_FRAME
62
7
6
CONTINUOUS
10
707.7293890000
20
15.7013280000
40
4.6423740000
50
70.2625860000
51
82.9524190000
0
ARC
8
90000_FRAME
62
7
6
CONTINUOUS
10
707.2153710000
20
20.3729510000
40
3.2587560000
50
247.5300210000
51
280.7579520000
0
ARC
8
90000_FRAME
62
7
6
CONTINUOUS
10
700.8304050000
20
2.1214310000
40
17.3316080000
50
65.3414670000
51
67.3997770000
0
ARC
8
90000_FRAME
62
7
6
CONTINUOUS
10
711.6262670000
20
27.9138570000
40
10.6291640000
50
242.8620100000
51
247.1042030000
0
ARC
8
90000_FRAME
62
7
6
CONTINUOUS
10
707.7713660000
20
20.3799260000
40
2.1662920000
50
227.3119280000
51
242.7040320000
0
ARC
8
90000_FRAME
62
7
6
CONTINUOUS
10
707.1673350000
20
19.6742480000
40
1.2385220000
50
194.7952190000
51
225.7176550000
0
ARC
8
90000_FRAME
62
7
6
CONTINUOUS
10
707.7865170000
20
18.8262010000
40
2.3669250000
50
86.2218020000
51
120.4272600000
0
ARC
8
90000_FRAME
62
7
6
CONTINUOUS
10
707.5176600000
20
12.1300330000
40
9.0679050000
50
78.6827050000
51
87.3147600000
0
ARC
8
90000_FRAME
62
7
6
CONTINUOUS
10
707.4069000000
20
19.5153940000
40
1.5805470000
50
121.2140950000
51
141.5254770000
0
ARC
8
90000_FRAME
62
7
6
CONTINUOUS
10
707.9840750000
20
20.3264510000
40
0.8661280000
50
222.7760390000
51
239.0362430000
0
ARC
8
90000_FRAME
62
7
6
CONTINUOUS
10
705.4773650000
20
12.9961790000
40
6.8587740000
50
59.9020270000
51
68.2036480000
0
ARC
8
90000_FRAME
62
7
6
CONTINUOUS
10
708.8858590000
20
21.9220660000
40
2.6987410000
50
240.0482000000
51
251.3779670000
0
ARC
8
90000_FRAME
62
7
6
CONTINUOUS
10
708.2204020000
20
17.7651670000
40
1.4334470000
50
315.8904550000
51
333.5229260000
0
ARC
8
90000_FRAME
62
7
6
CONTINUOUS
10
708.2250410000
20
17.7117600000
40
1.4062290000
50
335.3867970000
51
24.3915120000
0
ARC
8
90000_FRAME
62
7
6
CONTINUOUS
10
708.1528360000
20
17.6339030000
40
1.5047030000
50
25.9562920000
51
59.4834830000
0
ARC
8
90000_FRAME
62
7
6
CONTINUOUS
10
707.2294930000
20
19.7144680000
40
1.3090920000
50
164.1974860000
51
195.8025140000
0
ARC
8
90000_FRAME
62
7
6
CONTINUOUS
10
707.0615910000
20
19.8219760000
40
1.1197470000
50
142.8139180000
51
167.1522950000
0
CIRCLE
8
91000_TIP
62
7
6
CONTINUOUS
10
686.2690050000
20
18.0214780000
40
5.0000000000
0
CIRCLE
8
91000_TIP
62
7
6
CONTINUOUS
10
686.2690050000
20
18.0214780000
40
2.5000000000
0
ENDSEC
0
EOF
