0
SECTION
2
HEADER
9
$EXTMAX
10
594.0000000000
20
420.0000000000
9
$EXTMIN
10
0.0000000000
20
0.0000000000
9
$LIMMIN
10
0.0000000000
20
0.0000000000
9
$LIMMAX
10
594.0000000000
20
420.0000000000
9
$VIEWCTR
10
297.0000000000
20
210.0000000000
9
$VIEWSIZE
40
420.0000000000
9
$CLAYER
8
0
9
$LTSCALE
40
32.6700000000
9
$CELTYPE
6
BYLAYER
9
$DIMSCALE
40
1
9
$DIMASZ
40
3.5000000000
9
$DIMEXO
40
3.7125000000
9
$DIMDLI
40
22.5720000000
9
$DIMEXE
40
10.6920000000
9
$DIMCEN
40
5.3460000000
9
$DIMLFAC
40
1.0000000000
0
ENDSEC
0
SECTION
2
TABLES
0
TABLE
2
LTYPE
70
6
0
LTYPE
2
BYBLOCK
70
0
3

72
65
73
0
40
0.0
0
LTYPE
2
BYLAYER
70
0
3

72
65
73
0
40
0.0
0
LTYPE
2
CONTINUOUS
70
64
3
Solid line
72
65
73
0
40
0
0
LTYPE
2
CENTER
70
64
3
____ _ ____ _ ____ _ ____ _ ____ _ ____ _ ____
72
65
73
4
40
0.6
49
0.375
49
-0.075
49
0.075
49
-0.075
0
LTYPE
2
HIDDEN
70
64
3
- - - - - - - - - - - - - - - - - - - -
72
65
73
2
40
0.2
49
0.1
49
-0.1
0
LTYPE
2
PHANTOM
70
64
3
_____ _ _ _____ _ _ _____ _ _ _____
72
65
73
6
40
0.8
49
0.45
49
-0.05
49
0.1
49
-0.05
49
0.1
49
-0.05
0
LTYPE
2
DOT
70
64
3
. . . . . . . . . . . . . . . . . . . .
72
65
73
2
40
0.2
49
0.1
49
-0.1
0
LTYPE
2
DASHED
70
64
3
- - - - - - - - - - - - - - - - - - - -
72
65
73
2
40
0.2
49
0.1
49
-0.1
0
ENDTAB
0
TABLE
2
LAYER
70
36
0
LAYER
2
0
70
0
62
7
6
CONTINUOUS
0
LAYER
2
DEFAULT_1
70
0
62
7
6
CENTER
0
LAYER
2
DEFAULT_2
70
0
62
8
6
HIDDEN
0
LAYER
2
DEFAULT_3
70
0
62
7
6
PHANTOM
0
LAYER
2
10000_FRONT
70
0
62
7
6
CONTINUOUS
0
LAYER
2
10100_DIM_FRONT
70
0
62
7
6
CONTINUOUS
0
LAYER
2
10300_FRONT_GERMAN_ENGLISH
70
0
62
7
6
CONTINUOUS
0
LAYER
2
10500_FRONT_LABELING
70
0
62
7
6
CONTINUOUS
0
LAYER
2
11000_LEFT
70
0
62
7
6
CONTINUOUS
0
LAYER
2
11100_DIM_LEFT
70
0
62
7
6
CONTINUOUS
0
LAYER
2
11300_LEFT_GERMAN_ENGLISH
70
0
62
7
6
CONTINUOUS
0
LAYER
2
11500_LEFT_LABELING
70
0
62
7
6
CONTINUOUS
0
LAYER
2
12000_RIGHT
70
0
62
7
6
CONTINUOUS
0
LAYER
2
12100_DIM_RIGHT
70
0
62
7
6
CONTINUOUS
0
LAYER
2
12300_RIGHT_GERMAN_ENGLISH
70
0
62
7
6
CONTINUOUS
0
LAYER
2
12500_RIGHT_LABELING
70
0
62
7
6
CONTINUOUS
0
LAYER
2
13000_TOP
70
0
62
7
6
CONTINUOUS
0
LAYER
2
13100_DIM_TOP
70
0
62
7
6
CONTINUOUS
0
LAYER
2
13300_TOP_GERMAN_ENGLISH
70
0
62
7
6
CONTINUOUS
0
LAYER
2
13500_TOP_LABELING
70
0
62
7
6
CONTINUOUS
0
LAYER
2
14000_BOTTOM
70
0
62
7
6
CONTINUOUS
0
LAYER
2
14100_DIM_BOTTOM
70
0
62
7
6
CONTINUOUS
0
LAYER
2
14300_BOTTOM_GERMAN_ENGLISH
70
0
62
7
6
CONTINUOUS
0
LAYER
2
14500_BOTTOM_LABELING
70
0
62
7
6
CONTINUOUS
0
LAYER
2
15000_BACK
70
0
62
7
6
CONTINUOUS
0
LAYER
2
15100_DIM_BACK
70
0
62
7
6
CONTINUOUS
0
LAYER
2
15300_BACK_GERMAN_ENGLISH
70
0
62
7
6
CONTINUOUS
0
LAYER
2
15500_BACK_LABELING
70
0
62
7
6
CONTINUOUS
0
LAYER
2
20000_FRONT_O
70
0
62
7
6
CONTINUOUS
0
LAYER
2
20100_DIM_FRONT_O
70
0
62
7
6
CONTINUOUS
0
LAYER
2
20300_FRONT_O_GERMAN_ENGLISH
70
0
62
7
6
CONTINUOUS
0
LAYER
2
20500_FRONT_O_LABELING
70
0
62
7
6
CONTINUOUS
0
LAYER
2
40000_ISO
70
0
62
7
6
CONTINUOUS
0
LAYER
2
40300_ISO_GERMAN_ENGLISH
70
0
62
7
6
CONTINUOUS
0
LAYER
2
50000_WIRING
70
0
62
7
6
CONTINUOUS
0
LAYER
2
50300_WIRING_GERMAN_ENGLISH
70
0
62
7
6
CONTINUOUS
0
LAYER
2
90000_FRAME
70
0
62
7
6
CONTINUOUS
0
LAYER
2
91000_TIP
70
0
62
7
6
CONTINUOUS
0
ENDTAB
0
ENDSEC
0
SECTION
2
BLOCKS
0
BLOCK
8
11100_DIM_LEFT
62
7
6
CONTINUOUS
2
*D0
70
65
10
0.0000000000
20
0.0000000000
0
TEXT
8
11100_DIM_LEFT
62
7
6
CONTINUOUS
10
441.9729075083
20
200.5615775513
40
3.5000000000
1
129
72
5
11
449.4729075083
21
200.5615775513
0
LINE
8
11100_DIM_LEFT
62
7
6
CONTINUOUS
10
381.5481041337
20
337.5143997813
11
381.5481041337
21
197.6865775513
0
LINE
8
11100_DIM_LEFT
62
7
6
CONTINUOUS
10
510.4853163585
20
222.0307378152
11
510.4853163585
21
197.6865775513
0
LINE
8
11100_DIM_LEFT
62
7
6
CONTINUOUS
10
381.5481041337
20
199.6865775513
11
446.0167102461
21
199.6865775513
0
LINE
8
11100_DIM_LEFT
62
7
6
CONTINUOUS
10
510.4853163585
20
199.6865775513
11
446.0167102461
21
199.6865775513
0
SOLID
8
11100_DIM_LEFT
62
7
6
CONTINUOUS
10
385.0481041337
20
200.1865775513
11
381.5481041337
21
199.6865775513
12
385.0481041337
22
199.1865775513
13
385.0481041337
23
199.1865775513
0
SOLID
8
11100_DIM_LEFT
62
7
6
CONTINUOUS
10
506.9853163585
20
199.1865775513
11
510.4853163585
21
199.6865775513
12
506.9853163585
22
200.1865775513
13
506.9853163585
23
200.1865775513
0
ENDBLK
8
0
0
BLOCK
8
10100_DIM_FRONT
62
7
6
CONTINUOUS
2
*D1
70
65
10
0.0000000000
20
0.0000000000
0
TEXT
8
10100_DIM_FRONT
62
7
6
CONTINUOUS
10
334.3360507371
20
287.4092167994
40
3.5000000000
1
147
50
90.0000000000
72
5
11
334.3360507371
21
294.9092167994
0
LINE
8
10100_DIM_FRONT
62
7
6
CONTINUOUS
10
317.3101737484
20
364.0303448647
11
337.2110507371
21
364.0303448647
0
LINE
8
10100_DIM_FRONT
62
7
6
CONTINUOUS
10
317.3101737484
20
217.0303568647
11
337.2110507371
21
217.0303568647
0
LINE
8
10100_DIM_FRONT
62
7
6
CONTINUOUS
10
335.2110507371
20
364.0303448647
11
335.2110507371
21
290.5303508647
0
LINE
8
10100_DIM_FRONT
62
7
6
CONTINUOUS
10
335.2110507371
20
217.0303568647
11
335.2110507371
21
290.5303508647
0
SOLID
8
10100_DIM_FRONT
62
7
6
CONTINUOUS
10
335.7110507371
20
360.5303448647
11
335.2110507371
21
364.0303448647
12
334.7110507371
22
360.5303448647
13
334.7110507371
23
360.5303448647
0
SOLID
8
10100_DIM_FRONT
62
7
6
CONTINUOUS
10
334.7110507371
20
220.5303568647
11
335.2110507371
21
217.0303568647
12
335.7110507371
22
220.5303568647
13
335.7110507371
23
220.5303568647
0
ENDBLK
8
0
0
BLOCK
8
10100_DIM_FRONT
62
7
6
CONTINUOUS
2
*D2
70
65
10
0.0000000000
20
0.0000000000
0
TEXT
8
10100_DIM_FRONT
62
7
6
CONTINUOUS
10
280.6382214239
20
201.1242851328
40
3.5000000000
1
69.8
72
5
11
290.8882214239
21
201.1242851328
0
LINE
8
10100_DIM_FRONT
62
7
6
CONTINUOUS
10
247.5101717484
20
217.0303568647
11
247.5101717484
21
198.2492851328
0
LINE
8
10100_DIM_FRONT
62
7
6
CONTINUOUS
10
317.3101737484
20
217.0303568647
11
317.3101737484
21
198.2492851328
0
LINE
8
10100_DIM_FRONT
62
7
6
CONTINUOUS
10
247.5101717484
20
200.2492851328
11
282.4101727484
21
200.2492851328
0
LINE
8
10100_DIM_FRONT
62
7
6
CONTINUOUS
10
317.3101737484
20
200.2492851328
11
282.4101727484
21
200.2492851328
0
SOLID
8
10100_DIM_FRONT
62
7
6
CONTINUOUS
10
251.0101717484
20
200.7492851328
11
247.5101717484
21
200.2492851328
12
251.0101717484
22
199.7492851328
13
251.0101717484
23
199.7492851328
0
SOLID
8
10100_DIM_FRONT
62
7
6
CONTINUOUS
10
313.8101737484
20
199.7492851328
11
317.3101737484
21
200.2492851328
12
313.8101737484
22
200.7492851328
13
313.8101737484
23
200.7492851328
0
ENDBLK
8
0
0
ENDSEC
0
SECTION
2
ENTITIES
0
DIMENSION
8
11100_DIM_LEFT
62
7
6
CONTINUOUS
2
*D0
10
510.4853163585
20
199.6865775513
11
445.7229075083
21
202.3115775513
70
128
13
381.5481041337
23
337.5143997813
14
510.4853163585
24
222.0307378152
0
DIMENSION
8
10100_DIM_FRONT
62
7
6
CONTINUOUS
2
*D1
10
335.2110507371
20
217.0303568647
11
332.5860507371
21
291.1592167994
70
128
13
317.3101737484
23
364.0303448647
14
317.3101737484
24
217.0303568647
50
270.000000
0
DIMENSION
8
10100_DIM_FRONT
62
7
6
CONTINUOUS
2
*D2
10
317.3101737484
20
200.2492851328
11
285.7632214239
21
202.8742851328
70
128
13
247.5101717484
23
217.0303568647
14
317.3101737484
24
217.0303568647
0
TEXT
8
90000_FRAME
62
7
6
CONTINUOUS
10
499.6600000000
20
11.9000000000
40
2.2000000000
1
Format / Size: DIN A2
72
5
11
533.2361904762
21
11.9000000000
0
TEXT
8
90000_FRAME
62
7
6
CONTINUOUS
10
542.1600000000
20
11.9000000000
40
2.2000000000
1
Massstab / Scale: 1:1
72
5
11
573.0647619048
21
11.9000000000
0
TEXT
8
90000_FRAME
62
7
6
CONTINUOUS
10
516.5027930000
20
19.8924840000
40
3.5000000000
1
6ES7507-0RA00-0AB0
72
5
11
565.5027930000
21
19.8924840000
0
TEXT
8
20300_FRONT_O_GERMAN_ENGLISH
62
7
6
CONTINUOUS
10
132.0795622216
20
382.7200547201
40
3.5000000000
1
Vorne offen / Front open
72
5
11
191.6628955550
21
382.7200547201
0
TEXT
8
10300_FRONT_GERMAN_ENGLISH
62
7
6
CONTINUOUS
10
268.5292180421
20
381.5381769851
40
3.5000000000
1
Vorne / Front
72
5
11
301.1125513754
21
381.5381769851
0
TEXT
8
13300_TOP_GERMAN_ENGLISH
62
7
6
CONTINUOUS
10
269.4801540666
20
167.4001871994
40
3.5000000000
1
Oben / Top
72
5
11
295.8968207333
21
167.4001871994
0
TEXT
8
91000_TIP
62
7
6
CONTINUOUS
10
11.2756234532
20
15.1898618139
40
3.5000000000
1
Alle Bemassungswerte sind in Millimeter (mm) angegeben.
72
5
11
145.8589567865
21
15.1898618139
0
TEXT
8
91000_TIP
62
7
6
CONTINUOUS
10
11.2756234532
20
9.9398618139
40
3.5000000000
1
All dimensions are in millimeters (mm).
72
5
11
104.4422901199
21
9.9398618139
0
TEXT
8
11300_LEFT_GERMAN_ENGLISH
62
7
6
CONTINUOUS
10
416.9241586319
20
381.1108694584
40
3.5000000000
1
Links / Left
72
5
11
445.4241586319
21
381.1108694584
0
LINE
8
90000_FRAME
62
7
6
CONTINUOUS
10
0.0000000000
20
420.0000000000
11
0.0000000000
21
0.0000000000
0
LINE
8
90000_FRAME
62
7
6
CONTINUOUS
10
5.0000000000
20
415.0000000000
11
5.0000000000
21
5.0000000000
0
LINE
8
91000_TIP
62
7
6
CONTINUOUS
10
422.7797810000
20
20.8043440000
11
432.7797810000
21
23.3043440000
0
LINE
8
90000_FRAME
62
7
6
CONTINUOUS
10
0.0000000000
20
0.0000000000
11
594.0000000000
21
0.0000000000
0
LINE
8
90000_FRAME
62
7
6
CONTINUOUS
10
5.0000000000
20
5.0000000000
11
589.0000000000
21
5.0000000000
0
LINE
8
90000_FRAME
62
7
6
CONTINUOUS
10
449.0000000000
20
10.0000000000
11
584.0000000000
21
10.0000000000
0
LINE
8
90000_FRAME
62
7
6
CONTINUOUS
10
499.0000000000
20
16.0000000000
11
584.0000000000
21
16.0000000000
0
LINE
8
90000_FRAME
62
7
6
CONTINUOUS
10
472.3969330000
20
16.7492120000
11
473.2525220000
21
16.7492120000
0
LINE
8
90000_FRAME
62
7
6
CONTINUOUS
10
485.5872550000
20
16.7967450000
11
484.0662090000
21
16.7967450000
0
LINE
8
90000_FRAME
62
7
6
CONTINUOUS
10
475.9618850000
20
16.7967450000
11
474.5834370000
21
16.7967450000
0
LINE
8
90000_FRAME
62
7
6
CONTINUOUS
10
463.2231240000
20
16.7967450000
11
464.6491050000
21
16.7967450000
0
LINE
8
90000_FRAME
62
7
6
CONTINUOUS
10
465.7423570000
20
16.7967450000
11
469.3073090000
21
16.7967450000
0
LINE
8
90000_FRAME
62
7
6
CONTINUOUS
10
470.1153640000
20
16.7967450000
11
471.0660180000
21
16.7967450000
0
LINE
8
90000_FRAME
62
7
6
CONTINUOUS
10
477.0551370000
20
16.7967450000
11
480.6200890000
21
16.7967450000
0
LINE
8
90000_FRAME
62
7
6
CONTINUOUS
10
481.4043780000
20
16.7967450000
11
482.3550320000
21
16.7967450000
0
LINE
8
90000_FRAME
62
7
6
CONTINUOUS
10
480.6200890000
20
17.6998660000
11
478.4335850000
21
17.6998660000
0
LINE
8
90000_FRAME
62
7
6
CONTINUOUS
10
469.3073090000
20
17.6998660000
11
467.1208050000
21
17.6998660000
0
LINE
8
91000_TIP
62
7
6
CENTER
10
421.5002710000
20
18.3043440000
11
445.1022600000
21
18.3043440000
0
LINE
8
90000_FRAME
62
7
6
CONTINUOUS
10
480.2873600000
20
18.8168840000
11
478.4335850000
21
18.8168840000
0
LINE
8
90000_FRAME
62
7
6
CONTINUOUS
10
468.9745800000
20
18.8168840000
11
467.1208050000
21
18.8168840000
0
LINE
8
90000_FRAME
62
7
6
CONTINUOUS
10
480.2873600000
20
19.6011730000
11
478.4335850000
21
19.6011730000
0
LINE
8
90000_FRAME
62
7
6
CONTINUOUS
10
468.9745800000
20
19.6011730000
11
467.1208050000
21
19.6011730000
0
LINE
8
90000_FRAME
62
7
6
CONTINUOUS
10
480.5725560000
20
20.6706590000
11
478.4335850000
21
20.6706590000
0
LINE
8
90000_FRAME
62
7
6
CONTINUOUS
10
469.2597760000
20
20.6706590000
11
467.1208050000
21
20.6706590000
0
LINE
8
13000_TOP
62
7
6
CONTINUOUS
10
247.5101717484
20
20.9876418647
11
317.3101737484
21
20.9876418647
0
LINE
8
90000_FRAME
62
7
6
CONTINUOUS
10
485.5872550000
20
21.5500140000
11
484.6366010000
21
21.5500140000
0
LINE
8
90000_FRAME
62
7
6
CONTINUOUS
10
482.9491910000
20
21.5500140000
11
481.4043780000
21
21.5500140000
0
LINE
8
90000_FRAME
62
7
6
CONTINUOUS
10
480.5725560000
20
21.5500140000
11
477.0551370000
21
21.5500140000
0
LINE
8
90000_FRAME
62
7
6
CONTINUOUS
10
475.9618850000
20
21.5500140000
11
474.2507080000
21
21.5500140000
0
LINE
8
90000_FRAME
62
7
6
CONTINUOUS
10
471.8265410000
20
21.5500140000
11
470.1153640000
21
21.5500140000
0
LINE
8
90000_FRAME
62
7
6
CONTINUOUS
10
469.2597760000
20
21.5500140000
11
465.7423570000
21
21.5500140000
0
LINE
8
90000_FRAME
62
7
6
CONTINUOUS
10
463.2231240000
20
21.5500140000
11
464.6491050000
21
21.5500140000
0
LINE
8
20000_FRONT_O
62
7
6
CONTINUOUS
10
127.2148497484
20
217.0303568647
11
127.2148497484
21
364.0303448647
0
LINE
8
20000_FRONT_O
62
7
6
CONTINUOUS
10
128.8657477484
20
233.5702868647
11
128.8657477484
21
349.3482958647
0
LINE
8
20000_FRONT_O
62
7
6
CONTINUOUS
10
128.8657477484
20
349.3483928647
11
128.8657477484
21
349.3993098647
0
LINE
8
20000_FRONT_O
62
7
6
CONTINUOUS
10
128.9726337484
20
232.0303618647
11
128.9726337484
21
217.0303568647
0
LINE
8
20000_FRONT_O
62
7
6
CONTINUOUS
10
130.3648507484
20
314.4802698647
11
130.3648507484
21
344.9803938647
0
LINE
8
20000_FRONT_O
62
7
6
CONTINUOUS
10
133.4157487484
20
232.0303618647
11
133.4157487484
21
235.7916148647
0
LINE
8
20000_FRONT_O
62
7
6
CONTINUOUS
10
172.7394197484
20
331.8561468647
11
172.6367007484
21
331.6585328647
0
LINE
8
20000_FRONT_O
62
7
6
CONTINUOUS
10
175.8909287484
20
329.1703608647
11
175.9374617484
21
329.2511218647
0
LINE
8
20000_FRONT_O
62
7
6
CONTINUOUS
10
176.1661907484
20
330.3020268647
11
176.2255017484
21
330.4015848647
0
LINE
8
20000_FRONT_O
62
7
6
CONTINUOUS
10
172.8567157484
20
332.0416488647
11
172.7394197484
21
331.8561468647
0
LINE
8
20000_FRONT_O
62
7
6
CONTINUOUS
10
173.8596577484
20
333.2052888647
11
173.5824337484
21
332.7856438647
0
LINE
8
20000_FRONT_O
62
7
6
CONTINUOUS
10
175.8540007484
20
329.1153258647
11
175.8909287484
21
329.1703608647
0
LINE
8
20000_FRONT_O
62
7
6
CONTINUOUS
10
176.0351667484
20
326.2397748647
11
176.3159757484
21
326.6501658647
0
LINE
8
20000_FRONT_O
62
7
6
CONTINUOUS
10
176.0937387484
20
330.2009178647
11
176.1661907484
21
330.3020268647
0
LINE
8
20000_FRONT_O
62
7
6
CONTINUOUS
10
172.9871757484
20
332.2141678647
11
172.8567157484
21
332.0416488647
0
LINE
8
20000_FRONT_O
62
7
6
CONTINUOUS
10
176.8457157484
20
327.1566758647
11
177.1100407484
21
327.5031668647
0
LINE
8
20000_FRONT_O
62
7
6
CONTINUOUS
10
175.7755417484
20
329.0172698647
11
175.8540007484
21
329.1153258647
0
LINE
8
20000_FRONT_O
62
7
6
CONTINUOUS
10
176.0133657484
20
330.1073678647
11
176.0937387484
21
330.2009178647
0
LINE
8
20000_FRONT_O
62
7
6
CONTINUOUS
10
173.0573687484
20
332.2958488647
11
172.9871757484
21
332.2141678647
0
LINE
8
20000_FRONT_O
62
7
6
CONTINUOUS
10
174.0668517484
20
332.1878608647
11
173.7335027484
21
331.8320198647
0
LINE
8
20000_FRONT_O
62
7
6
CONTINUOUS
10
173.1728297484
20
332.4164808647
11
173.0573687484
21
332.2958488647
0
LINE
8
20000_FRONT_O
62
7
6
CONTINUOUS
10
175.6875987484
20
328.9297268647
11
175.7755417484
21
329.0172698647
0
LINE
8
20000_FRONT_O
62
7
6
CONTINUOUS
10
175.9034527484
20
330.0026748647
11
176.0133657484
21
330.1073678647
0
LINE
8
20000_FRONT_O
62
7
6
CONTINUOUS
10
173.4234017484
20
332.6315358647
11
173.1728297484
21
332.4164808647
0
LINE
8
20000_FRONT_O
62
7
6
CONTINUOUS
10
176.3523837484
20
326.7354808647
11
176.8457157484
21
327.1566758647
0
LINE
8
20000_FRONT_O
62
7
6
CONTINUOUS
10
175.6381347484
20
328.8882558647
11
175.6875987484
21
328.9297268647
0
LINE
8
20000_FRONT_O
62
7
6
CONTINUOUS
10
175.8328417484
20
329.9462338647
11
175.9034527484
21
330.0026748647
0
LINE
8
20000_FRONT_O
62
7
6
CONTINUOUS
10
174.2553577484
20
333.5072568647
11
173.8596577484
21
333.2052888647
0
LINE
8
20000_FRONT_O
62
7
6
CONTINUOUS
10
175.6478727484
20
325.9500638647
11
176.0351667484
21
326.2397748647
0
LINE
8
20000_FRONT_O
62
7
6
CONTINUOUS
10
175.5621577484
20
328.8332208647
11
175.6381347484
21
328.8882558647
0
LINE
8
20000_FRONT_O
62
7
6
CONTINUOUS
10
173.5573147484
20
332.7252308647
11
173.4234017484
21
332.6315358647
0
LINE
8
20000_FRONT_O
62
7
6
CONTINUOUS
10
175.7062147484
20
329.8614528647
11
175.8328417484
21
329.9462338647
0
LINE
8
20000_FRONT_O
62
7
6
CONTINUOUS
10
174.4934247484
20
332.4089228647
11
174.0668517484
21
332.1878608647
0
LINE
8
90000_FRAME
62
7
6
CONTINUOUS
10
449.0000000000
20
28.0000000000
11
584.0000000000
21
28.0000000000
0
LINE
8
13000_TOP
62
7
6
CONTINUOUS
10
254.7101687484
20
28.4230408647
11
310.1101777484
21
28.4230408647
0
LINE
8
13000_TOP
62
7
6
CONTINUOUS
10
309.9101657484
20
28.4454958647
11
254.9101807484
21
28.4454958647
0
LINE
8
13000_TOP
62
7
6
CONTINUOUS
10
309.9101657484
20
29.7251178647
11
254.9101807484
21
29.7251178647
0
LINE
8
13000_TOP
62
7
6
CONTINUOUS
10
317.3101737484
20
29.7379078647
11
310.1101777484
21
29.7379078647
0
LINE
8
13000_TOP
62
7
6
CONTINUOUS
10
254.7101687484
20
29.7379078647
11
247.5101717484
21
29.7379078647
0
LINE
8
13000_TOP
62
7
6
CONTINUOUS
10
254.7101447484
20
31.1748348647
11
254.9101807484
21
31.1748348647
0
LINE
8
13000_TOP
62
7
6
CONTINUOUS
10
309.9101657484
20
31.1748348647
11
310.1102017484
21
31.1748348647
0
LINE
8
13000_TOP
62
7
6
CONTINUOUS
10
317.3101737484
20
32.1599008647
11
310.1101777484
21
32.1599008647
0
LINE
8
13000_TOP
62
7
6
CONTINUOUS
10
254.7101687484
20
32.1599008647
11
247.5101717484
21
32.1599008647
0
LINE
8
13000_TOP
62
7
6
CONTINUOUS
10
254.9101807484
20
36.0541888647
11
247.5101717484
21
36.0541888647
0
LINE
8
13000_TOP
62
7
6
CONTINUOUS
10
309.9101657484
20
36.0541888647
11
317.3101737484
21
36.0541888647
0
LINE
8
13000_TOP
62
7
6
CONTINUOUS
10
254.9101807484
20
39.3703378647
11
247.5101717484
21
39.3703378647
0
LINE
8
13000_TOP
62
7
6
CONTINUOUS
10
309.9101657484
20
39.3703378647
11
317.3101737484
21
39.3703378647
0
LINE
8
13000_TOP
62
7
6
CONTINUOUS
10
254.9101807484
20
42.7748298647
11
247.5101717484
21
42.7748298647
0
LINE
8
13000_TOP
62
7
6
CONTINUOUS
10
309.9101657484
20
42.7748298647
11
317.3101737484
21
42.7748298647
0
LINE
8
20000_FRONT_O
62
7
6
CONTINUOUS
10
134.6148517484
20
364.0303448647
11
134.6148517484
21
349.3992128647
0
LINE
8
20000_FRONT_O
62
7
6
CONTINUOUS
10
136.7148507484
20
232.0303618647
11
136.7148507484
21
222.8634308647
0
LINE
8
20000_FRONT_O
62
7
6
CONTINUOUS
10
138.0648467484
20
232.0303618647
11
138.0648467484
21
222.8634308647
0
LINE
8
20000_FRONT_O
62
7
6
CONTINUOUS
10
138.2148497484
20
219.0795538647
11
138.2148497484
21
232.0303618647
0
LINE
8
20000_FRONT_O
62
7
6
CONTINUOUS
10
139.2148497484
20
222.0976348647
11
139.2148497484
21
230.8908958647
0
LINE
8
20000_FRONT_O
62
7
6
CONTINUOUS
10
142.3148477484
20
361.0658458647
11
142.3148477484
21
359.0290998647
0
LINE
8
20000_FRONT_O
62
7
6
CONTINUOUS
10
144.3148467484
20
359.0290998647
11
144.3148467484
21
361.0658458647
0
LINE
8
20000_FRONT_O
62
7
6
CONTINUOUS
10
146.3148457484
20
361.0658458647
11
146.3148457484
21
359.0290998647
0
LINE
8
20000_FRONT_O
62
7
6
CONTINUOUS
10
146.5648487484
20
221.6630678647
11
146.5648487484
21
221.4563468647
0
LINE
8
20000_FRONT_O
62
7
6
CONTINUOUS
10
146.5648487484
20
221.3382338647
11
146.5648487484
21
220.3795228647
0
LINE
8
20000_FRONT_O
62
7
6
CONTINUOUS
10
148.0648487484
20
221.6630678647
11
148.0648487484
21
221.4563468647
0
LINE
8
20000_FRONT_O
62
7
6
CONTINUOUS
10
148.0648487484
20
221.3382338647
11
148.0648487484
21
220.3795228647
0
LINE
8
20000_FRONT_O
62
7
6
CONTINUOUS
10
148.3148507484
20
359.0290998647
11
148.3148507484
21
361.0658458647
0
LINE
8
20000_FRONT_O
62
7
6
CONTINUOUS
10
150.3148507484
20
361.0658458647
11
150.3148507484
21
359.0290998647
0
LINE
8
20000_FRONT_O
62
7
6
CONTINUOUS
10
151.9648467484
20
223.8794538647
11
151.9648467484
21
225.3666208647
0
LINE
8
20000_FRONT_O
62
7
6
CONTINUOUS
10
152.2417187484
20
224.8520208647
11
152.2417187484
21
224.8128758647
0
LINE
8
20000_FRONT_O
62
7
6
CONTINUOUS
10
152.3148497484
20
359.0290998647
11
152.3148497484
21
361.0658458647
0
LINE
8
20000_FRONT_O
62
7
6
CONTINUOUS
10
152.4387217484
20
225.0046278647
11
152.4387217484
21
224.9654348647
0
LINE
8
20000_FRONT_O
62
7
6
CONTINUOUS
10
152.5658937484
20
225.5059538647
11
152.5658937484
21
225.4668088647
0
LINE
8
20000_FRONT_O
62
7
6
CONTINUOUS
10
152.7034637484
20
223.4223118647
11
152.7034637484
21
223.3831178647
0
LINE
8
20000_FRONT_O
62
7
6
CONTINUOUS
10
152.8235087484
20
224.5163338647
11
152.8235087484
21
224.4771408647
0
LINE
8
20000_FRONT_O
62
7
6
CONTINUOUS
10
152.9004667484
20
225.2624128647
11
152.9004667484
21
225.2232678647
0
LINE
8
20000_FRONT_O
62
7
6
CONTINUOUS
10
152.9004667484
20
223.5749188647
11
152.9004667484
21
223.5357248647
0
LINE
8
20000_FRONT_O
62
7
6
CONTINUOUS
10
153.0674857484
20
225.4916618647
11
153.0674857484
21
225.4525168647
0
LINE
8
20000_FRONT_O
62
7
6
CONTINUOUS
10
153.2363897484
20
224.8361298647
11
153.2363897484
21
224.7969858647
0
LINE
8
20000_FRONT_O
62
7
6
CONTINUOUS
10
153.2644887484
20
225.6442688647
11
153.2644887484
21
225.6050758647
0
LINE
8
20000_FRONT_O
62
7
6
CONTINUOUS
10
153.3622117484
20
223.8327028647
11
153.3622117484
21
223.7935578647
0
LINE
8
20000_FRONT_O
62
7
6
CONTINUOUS
10
153.7262337484
20
225.9020538647
11
153.7262337484
21
225.8629088647
0
LINE
8
20000_FRONT_O
62
7
6
CONTINUOUS
10
153.7262337484
20
224.2145598647
11
153.7262337484
21
224.1753668647
0
LINE
8
20000_FRONT_O
62
7
6
CONTINUOUS
10
153.8638037484
20
223.7792668647
11
153.8638037484
21
223.8184118647
0
LINE
8
20000_FRONT_O
62
7
6
CONTINUOUS
10
154.1879787484
20
224.4723448647
11
154.1879787484
21
224.4331998647
0
LINE
8
20000_FRONT_O
62
7
6
CONTINUOUS
10
154.4648507484
20
225.3666208647
11
154.4648507484
21
223.8794538647
0
LINE
8
20000_FRONT_O
62
7
6
CONTINUOUS
10
144.8201697484
20
229.5133158647
11
144.7148467484
21
228.7870998647
0
LINE
8
20000_FRONT_O
62
7
6
CONTINUOUS
10
149.8095277484
20
228.0608368647
11
149.9148507484
21
228.7870998647
0
LINE
8
20000_FRONT_O
62
7
6
CONTINUOUS
10
176.3539827484
20
330.7293258647
11
176.3786057484
21
330.8466638647
0
LINE
8
20000_FRONT_O
62
7
6
CONTINUOUS
10
172.4859957484
20
331.2494978647
11
172.4367437484
21
331.0351698647
0
LINE
8
20000_FRONT_O
62
7
6
CONTINUOUS
10
151.9648467484
20
225.3666208647
11
152.0886397484
21
225.9043308647
0
LINE
8
20000_FRONT_O
62
7
6
CONTINUOUS
10
176.1944107484
20
330.1153128647
11
176.3523597484
21
330.7230278647
0
LINE
8
20000_FRONT_O
62
7
6
CONTINUOUS
10
176.0364627484
20
329.5075498647
11
176.1944107484
21
330.1153128647
0
LINE
8
20000_FRONT_O
62
7
6
CONTINUOUS
10
152.6768427484
20
225.8265738647
11
152.5662877484
21
225.4443298647
0
LINE
8
20000_FRONT_O
62
7
6
CONTINUOUS
10
176.3199247484
20
330.6158158647
11
176.3539827484
21
330.7293258647
0
LINE
8
20000_FRONT_O
62
7
6
CONTINUOUS
10
177.3175987484
20
327.9007678647
11
177.4508997484
21
328.3167798647
0
LINE
8
20000_FRONT_O
62
7
6
CONTINUOUS
10
172.5522217484
20
331.4557348647
11
172.4859957484
21
331.2494978647
0
LINE
8
20000_FRONT_O
62
7
6
CONTINUOUS
10
175.9374617484
20
329.2511218647
11
176.0362207484
21
329.5077438647
0
LINE
8
20000_FRONT_O
62
7
6
CONTINUOUS
10
172.5915367484
20
331.5561168647
11
172.5522217484
21
331.4557348647
0
LINE
8
20000_FRONT_O
62
7
6
CONTINUOUS
10
173.5824337484
20
332.7856438647
11
173.5573147484
21
332.7252308647
0
LINE
8
20000_FRONT_O
62
7
6
CONTINUOUS
10
176.3159757484
20
326.6501658647
11
176.3523837484
21
326.7354808647
0
LINE
8
20000_FRONT_O
62
7
6
CONTINUOUS
10
173.7335027484
20
331.8320198647
11
173.5457117484
21
331.4047208647
0
LINE
8
20000_FRONT_O
62
7
6
CONTINUOUS
10
176.2255017484
20
330.4015848647
11
176.3199247484
21
330.6158158647
0
LINE
8
20000_FRONT_O
62
7
6
CONTINUOUS
10
172.6367007484
20
331.6585328647
11
172.5915367484
21
331.5561168647
0
LINE
8
20000_FRONT_O
62
7
6
CONTINUOUS
10
145.1275877484
20
230.1807168647
11
144.8201697484
21
229.5133158647
0
LINE
8
20000_FRONT_O
62
7
6
CONTINUOUS
10
177.1100407484
20
327.5031668647
11
177.3175987484
21
327.9007678647
0
LINE
8
20000_FRONT_O
62
7
6
CONTINUOUS
10
175.3996927484
20
328.7438848647
11
175.5621577484
21
328.8332208647
0
LINE
8
20000_FRONT_O
62
7
6
CONTINUOUS
10
175.5180357484
20
329.7666908647
11
175.7062147484
21
329.8614528647
0
LINE
8
20000_FRONT_O
62
7
6
CONTINUOUS
10
175.3144627484
20
328.7098268647
11
175.3996927484
21
328.7438848647
0
LINE
8
20000_FRONT_O
62
7
6
CONTINUOUS
10
175.4062687484
20
329.7251238647
11
175.5180357484
21
329.7666908647
0
LINE
8
20000_FRONT_O
62
7
6
CONTINUOUS
10
175.1919287484
20
325.7992008647
11
175.6478727484
21
325.9500638647
0
LINE
8
20000_FRONT_O
62
7
6
CONTINUOUS
10
174.7266587484
20
333.6628678647
11
174.2553577484
21
333.5072568647
0
LINE
8
20000_FRONT_O
62
7
6
CONTINUOUS
10
175.2245817484
20
328.6822608647
11
175.3144627484
21
328.7098268647
0
LINE
8
91000_TIP
62
7
6
CONTINUOUS
10
422.7797810000
20
15.8043440000
11
432.7797810000
21
13.3043440000
0
LINE
8
20000_FRONT_O
62
7
6
CONTINUOUS
10
144.7148467484
20
228.7870998647
11
144.8201697484
21
228.0608368647
0
LINE
8
20000_FRONT_O
62
7
6
CONTINUOUS
10
149.9148507484
20
228.7870998647
11
149.8095277484
21
229.5133158647
0
LINE
8
20000_FRONT_O
62
7
6
CONTINUOUS
10
155.4148477484
20
222.0976348647
11
155.4148477484
21
230.8908958647
0
LINE
8
20000_FRONT_O
62
7
6
CONTINUOUS
10
156.4148477484
20
219.0795538647
11
156.4148477484
21
232.0303618647
0
LINE
8
20000_FRONT_O
62
7
6
CONTINUOUS
10
156.5648497484
20
232.0303618647
11
156.5648497484
21
222.8634308647
0
LINE
8
20000_FRONT_O
62
7
6
CONTINUOUS
10
157.9148467484
20
232.0303618647
11
157.9148467484
21
222.8634308647
0
LINE
8
20000_FRONT_O
62
7
6
CONTINUOUS
10
166.5548527484
20
228.2303518647
11
166.5548527484
21
226.4303648647
0
LINE
8
20000_FRONT_O
62
7
6
CONTINUOUS
10
168.4137517484
20
280.6739038647
11
168.4137517484
21
232.0303618647
0
LINE
8
20000_FRONT_O
62
7
6
CONTINUOUS
10
168.5548517484
20
264.6303578647
11
168.5548517484
21
223.6303418647
0
LINE
8
20000_FRONT_O
62
7
6
CONTINUOUS
10
170.5148467484
20
216.0331308647
11
170.5148467484
21
223.6305838647
0
LINE
8
20000_FRONT_O
62
7
6
CONTINUOUS
10
170.8548507484
20
264.6303578647
11
170.8548507484
21
266.1303628647
0
LINE
8
20000_FRONT_O
62
7
6
CONTINUOUS
10
171.6848507484
20
316.7304718647
11
171.6848507484
21
342.7302408647
0
LINE
8
20000_FRONT_O
62
7
6
CONTINUOUS
10
172.3948487484
20
330.5803528647
11
172.3948487484
21
328.8803598647
0
LINE
8
20000_FRONT_O
62
7
6
CONTINUOUS
10
175.0548487484
20
255.4921078647
11
175.0548487484
21
248.4803748647
0
LINE
8
20000_FRONT_O
62
7
6
CONTINUOUS
10
177.5121357484
20
328.7639908647
11
177.5148487484
21
328.8803598647
0
LINE
8
20000_FRONT_O
62
7
6
CONTINUOUS
10
172.3978467484
20
330.7020508647
11
172.3948487484
21
330.5803528647
0
LINE
8
20000_FRONT_O
62
7
6
CONTINUOUS
10
176.3930427484
20
330.9668118647
11
176.3966277484
21
331.0896718647
0
LINE
8
20000_FRONT_O
62
7
6
CONTINUOUS
10
172.4058887484
20
330.8140108647
11
172.3978467484
21
330.7020508647
0
LINE
8
20000_FRONT_O
62
7
6
CONTINUOUS
10
173.5457117484
20
331.4047208647
11
173.5109507484
21
330.9203998647
0
LINE
8
20000_FRONT_O
62
7
6
CONTINUOUS
10
175.0548487484
20
255.4805288647
11
175.1426097484
21
256.2593568647
0
LINE
8
20000_FRONT_O
62
7
6
CONTINUOUS
10
176.3786057484
20
330.8466638647
11
176.3930427484
21
330.9668118647
0
LINE
8
20000_FRONT_O
62
7
6
CONTINUOUS
10
177.4508997484
20
328.3167798647
11
177.5121357484
21
328.7639908647
0
LINE
8
20000_FRONT_O
62
7
6
CONTINUOUS
10
172.4367437484
20
331.0351698647
11
172.4058887484
21
330.8140108647
0
LINE
8
20000_FRONT_O
62
7
6
CONTINUOUS
10
175.0548487484
20
255.4921078647
11
175.2076617484
21
256.5062408647
0
LINE
8
20000_FRONT_O
62
7
6
CONTINUOUS
10
154.4648507484
20
223.9185988647
11
154.3410577484
21
223.3808898647
0
LINE
8
20000_FRONT_O
62
7
6
CONTINUOUS
10
154.4648507484
20
223.8794538647
11
154.3410577484
21
223.3417448647
0
LINE
8
20000_FRONT_O
62
7
6
CONTINUOUS
10
153.7528547484
20
223.4194528647
11
153.8634097484
21
223.8016978647
0
LINE
8
20000_FRONT_O
62
7
6
CONTINUOUS
10
152.6865377484
20
225.8795748647
11
152.5658937484
21
225.5059538647
0
LINE
8
20000_FRONT_O
62
7
6
CONTINUOUS
10
175.1426097484
20
256.2593568647
11
175.4014607484
21
256.9991378647
0
LINE
8
20000_FRONT_O
62
7
6
CONTINUOUS
10
149.5021087484
20
227.3934358647
11
149.8095277484
21
228.0608368647
0
LINE
8
20000_FRONT_O
62
7
6
CONTINUOUS
10
175.2076617484
20
256.5062408647
11
175.6420827484
21
257.4290528647
0
LINE
8
20000_FRONT_O
62
7
6
CONTINUOUS
10
153.6133167484
20
223.7988388647
11
153.4754007484
21
223.5188658647
0
LINE
8
20000_FRONT_O
62
7
6
CONTINUOUS
10
149.3935887484
20
228.9356378647
11
149.7699227484
21
229.6353048647
0
LINE
8
20000_FRONT_O
62
7
6
CONTINUOUS
10
153.6108277484
20
223.7310618647
11
153.4604677484
21
223.4675608647
0
LINE
8
20000_FRONT_O
62
7
6
CONTINUOUS
10
152.8188637484
20
225.5150128647
11
152.9692247484
21
225.7784658647
0
LINE
8
20000_FRONT_O
62
7
6
CONTINUOUS
10
175.4014607484
20
256.9991378647
11
175.8184407484
21
257.6627598647
0
LINE
8
20000_FRONT_O
62
7
6
CONTINUOUS
10
152.0886397484
20
225.9043308647
11
152.4354877484
21
226.3355538647
0
LINE
8
20000_FRONT_O
62
7
6
CONTINUOUS
10
145.6122117484
20
230.7352368647
11
145.1275877484
21
230.1807168647
0
LINE
8
20000_FRONT_O
62
7
6
CONTINUOUS
10
149.0174847484
20
226.8389638647
11
149.5021087484
21
227.3934358647
0
LINE
8
20000_FRONT_O
62
7
6
CONTINUOUS
10
143.3644997484
20
231.2177178647
11
143.0722087484
21
230.8908478647
0
LINE
8
20000_FRONT_O
62
7
6
CONTINUOUS
10
175.6420827484
20
257.4290528647
11
176.3224797484
21
258.1861778647
0
LINE
8
20000_FRONT_O
62
7
6
CONTINUOUS
10
144.8596967484
20
229.6355468647
11
145.2359577484
21
228.9358318647
0
LINE
8
20000_FRONT_O
62
7
6
CONTINUOUS
10
144.8201697484
20
228.0608368647
11
145.1275877484
21
227.3934358647
0
LINE
8
20000_FRONT_O
62
7
6
CONTINUOUS
10
149.8095277484
20
229.5133158647
11
149.5021087484
21
230.1807168647
0
LINE
8
20000_FRONT_O
62
7
6
CONTINUOUS
10
152.5662877484
20
225.4443298647
11
152.7034637484
21
225.0706608647
0
LINE
8
20000_FRONT_O
62
7
6
CONTINUOUS
10
153.8634097484
20
223.8016978647
11
153.7262337484
21
224.1753668647
0
LINE
8
20000_FRONT_O
62
7
6
CONTINUOUS
10
153.5292317484
20
224.0227598647
11
153.6108277484
21
223.7310618647
0
LINE
8
20000_FRONT_O
62
7
6
CONTINUOUS
10
152.9004667484
20
225.2232678647
11
152.8188637484
21
225.5150128647
0
LINE
8
20000_FRONT_O
62
7
6
CONTINUOUS
10
152.0886397484
20
223.3417448647
11
151.9648467484
21
223.8794538647
0
LINE
8
20000_FRONT_O
62
7
6
CONTINUOUS
10
152.0886397484
20
223.3808898647
11
151.9648467484
21
223.9185988647
0
LINE
8
20000_FRONT_O
62
7
6
CONTINUOUS
10
154.3410577484
20
225.9043308647
11
154.4648507484
21
225.3666208647
0
LINE
8
20000_FRONT_O
62
7
6
CONTINUOUS
10
152.8409557484
20
225.3679778647
11
152.8163807484
21
225.4863808647
0
LINE
8
20000_FRONT_O
62
7
6
CONTINUOUS
10
153.8638037484
20
223.8184118647
11
153.8284497484
21
224.0278948647
0
LINE
8
20000_FRONT_O
62
7
6
CONTINUOUS
10
190.5378427484
20
262.8990678647
11
190.5542057484
21
262.7287298647
0
LINE
8
20000_FRONT_O
62
7
6
CONTINUOUS
10
176.3966277484
20
331.0896718647
11
176.3887427484
21
331.2136958647
0
LINE
8
20000_FRONT_O
62
7
6
CONTINUOUS
10
177.5148487484
20
330.5803528647
11
177.5094347484
21
330.7440048647
0
LINE
8
20000_FRONT_O
62
7
6
CONTINUOUS
10
190.5542057484
20
262.7287298647
11
190.5551987484
21
262.5534978647
0
LINE
8
20000_FRONT_O
62
7
6
CONTINUOUS
10
175.4548487484
20
223.6303418647
11
175.4548487484
21
217.1303508647
0
LINE
8
20000_FRONT_O
62
7
6
CONTINUOUS
10
177.5148487484
20
328.8803598647
11
177.5148487484
21
330.5803528647
0
LINE
8
20000_FRONT_O
62
7
6
CONTINUOUS
10
178.2548477484
20
264.6303578647
11
178.2548477484
21
266.1303628647
0
LINE
8
20000_FRONT_O
62
7
6
CONTINUOUS
10
178.4048507484
20
316.7304718647
11
178.4048507484
21
342.7302408647
0
LINE
8
20000_FRONT_O
62
7
6
CONTINUOUS
10
178.8648517484
20
216.0331308647
11
178.8648517484
21
216.0303698647
0
LINE
8
20000_FRONT_O
62
7
6
CONTINUOUS
10
180.3648447484
20
216.0331308647
11
180.3648447484
21
216.0303698647
0
LINE
8
20000_FRONT_O
62
7
6
CONTINUOUS
10
180.4333967484
20
300.5387278647
11
180.4333967484
21
310.4996988647
0
LINE
8
20000_FRONT_O
62
7
6
CONTINUOUS
10
181.9548517484
20
217.1303508647
11
181.9548517484
21
241.7917328647
0
LINE
8
20000_FRONT_O
62
7
6
CONTINUOUS
10
181.9548517484
20
258.9803638647
11
181.9548517484
21
260.5303658647
0
LINE
8
20000_FRONT_O
62
7
6
CONTINUOUS
10
181.9557237484
20
260.6303598647
11
181.9557237484
21
258.9805088647
0
LINE
8
20000_FRONT_O
62
7
6
CONTINUOUS
10
181.9557237484
20
223.6303418647
11
181.9557237484
21
241.7912478647
0
LINE
8
20000_FRONT_O
62
7
6
CONTINUOUS
10
182.8548577484
20
260.5303658647
11
182.8548577484
21
260.6303598647
0
LINE
8
20000_FRONT_O
62
7
6
CONTINUOUS
10
185.0548557484
20
217.1303508647
11
185.0548557484
21
223.6303418647
0
LINE
8
20000_FRONT_O
62
7
6
CONTINUOUS
10
186.5548497484
20
260.6303598647
11
186.5548497484
21
260.5303658647
0
LINE
8
20000_FRONT_O
62
7
6
CONTINUOUS
10
187.5311827484
20
262.8639928647
11
187.5311827484
21
262.3967248647
0
LINE
8
20000_FRONT_O
62
7
6
CONTINUOUS
10
188.7148437484
20
216.0331308647
11
188.7148437484
21
217.1305448647
0
LINE
8
20000_FRONT_O
62
7
6
CONTINUOUS
10
189.6148487484
20
349.3992128647
11
189.6148487484
21
364.0303448647
0
LINE
8
20000_FRONT_O
62
7
6
CONTINUOUS
10
190.4332827484
20
310.4996988647
11
190.4332827484
21
300.5387278647
0
LINE
8
20000_FRONT_O
62
7
6
CONTINUOUS
10
190.6048567484
20
262.5803858647
11
190.6048567484
21
217.1303508647
0
LINE
8
20000_FRONT_O
62
7
6
CONTINUOUS
10
190.8148487484
20
280.6739038647
11
190.8148487484
21
232.0303618647
0
LINE
8
20000_FRONT_O
62
7
6
CONTINUOUS
10
193.8648437484
20
314.4802698647
11
193.8648437484
21
344.9803938647
0
LINE
8
20000_FRONT_O
62
7
6
CONTINUOUS
10
195.2590897484
20
217.0303568647
11
195.2590897484
21
232.0303618647
0
LINE
8
20000_FRONT_O
62
7
6
CONTINUOUS
10
195.3639527484
20
233.5702868647
11
195.3639527484
21
349.3482958647
0
LINE
8
20000_FRONT_O
62
7
6
CONTINUOUS
10
195.3639527484
20
349.3483928647
11
195.3639527484
21
349.3993098647
0
LINE
8
20000_FRONT_O
62
7
6
CONTINUOUS
10
189.5789137484
20
262.4022478647
11
189.5959547484
21
262.7636108647
0
LINE
8
20000_FRONT_O
62
7
6
CONTINUOUS
10
190.5551987484
20
262.5534978647
11
190.5399987484
21
262.3774428647
0
LINE
8
20000_FRONT_O
62
7
6
CONTINUOUS
10
190.5399987484
20
262.3774428647
11
190.5123837484
21
262.2184408647
0
LINE
8
20000_FRONT_O
62
7
6
CONTINUOUS
10
190.5123837484
20
262.2184408647
11
190.4177317484
21
261.9046038647
0
LINE
8
20000_FRONT_O
62
7
6
CONTINUOUS
10
189.4497187484
20
262.0829838647
11
189.5789137484
21
262.4022478647
0
LINE
8
20000_FRONT_O
62
7
6
CONTINUOUS
10
190.4177317484
20
261.9046038647
11
190.3507537484
21
261.7518998647
0
LINE
8
20000_FRONT_O
62
7
6
CONTINUOUS
10
187.7339317484
20
263.2850428647
11
187.5311827484
21
262.8639928647
0
LINE
8
20000_FRONT_O
62
7
6
CONTINUOUS
10
190.3507537484
20
261.7518998647
11
190.2706837484
21
261.6035558647
0
LINE
8
20000_FRONT_O
62
7
6
CONTINUOUS
10
190.2706837484
20
261.6035558647
11
190.1779327484
21
261.4613648647
0
LINE
8
20000_FRONT_O
62
7
6
CONTINUOUS
10
190.1779327484
20
261.4613648647
11
190.0709867484
21
261.3246488647
0
LINE
8
20000_FRONT_O
62
7
6
CONTINUOUS
10
154.3410577484
20
223.3808898647
11
153.9942097484
21
222.9496658647
0
LINE
8
20000_FRONT_O
62
7
6
CONTINUOUS
10
154.3410577484
20
223.3417448647
11
153.9942097484
21
222.9105208647
0
LINE
8
20000_FRONT_O
62
7
6
CONTINUOUS
10
189.2138677484
20
261.8133788647
11
189.4497187484
21
262.0829838647
0
LINE
8
20000_FRONT_O
62
7
6
CONTINUOUS
10
190.0709867484
20
261.3246488647
11
189.9512987484
21
261.1970398647
0
LINE
8
20000_FRONT_O
62
7
6
CONTINUOUS
10
175.8184407484
20
257.6627598647
11
176.3726347484
21
258.2169408647
0
LINE
8
20000_FRONT_O
62
7
6
CONTINUOUS
10
148.8205437484
20
228.3824258647
11
149.3935887484
21
228.9356378647
0
LINE
8
20000_FRONT_O
62
7
6
CONTINUOUS
10
143.6798207484
20
231.5184258647
11
143.3644997484
21
231.2177178647
0
LINE
8
20000_FRONT_O
62
7
6
CONTINUOUS
10
189.9512987484
20
261.1970398647
11
189.8283167484
21
261.0872598647
0
LINE
8
20000_FRONT_O
62
7
6
CONTINUOUS
10
144.0115167484
20
231.7883708647
11
143.6798207484
21
231.5184258647
0
LINE
8
20000_FRONT_O
62
7
6
CONTINUOUS
10
188.0992807484
20
263.5764008647
11
187.7339317484
21
263.2850428647
0
LINE
8
20000_FRONT_O
62
7
6
CONTINUOUS
10
152.9928907484
20
226.0713748647
11
152.6768427484
21
225.8265738647
0
LINE
8
20000_FRONT_O
62
7
6
CONTINUOUS
10
144.3610227484
20
232.0303618647
11
144.0115167484
21
231.7883708647
0
LINE
8
20000_FRONT_O
62
7
6
CONTINUOUS
10
189.8283167484
20
261.0872598647
11
189.5517837484
21
260.8973488647
0
LINE
8
20000_FRONT_O
62
7
6
CONTINUOUS
10
176.3224797484
20
258.1861778647
11
176.9959607484
21
258.6218098647
0
LINE
8
20000_FRONT_O
62
7
6
CONTINUOUS
10
176.3726347484
20
258.2169408647
11
177.0362567484
21
258.6339218647
0
LINE
8
20000_FRONT_O
62
7
6
CONTINUOUS
10
145.1275877484
20
227.3934358647
11
145.6122117484
21
226.8389638647
0
LINE
8
20000_FRONT_O
62
7
6
CONTINUOUS
10
152.4354877484
20
222.9105208647
11
152.0886397484
21
223.3417448647
0
LINE
8
20000_FRONT_O
62
7
6
CONTINUOUS
10
152.4354877484
20
222.9496658647
11
152.0886397484
21
223.3808898647
0
LINE
8
20000_FRONT_O
62
7
6
CONTINUOUS
10
153.9942097484
20
226.3355538647
11
154.3410577484
21
225.9043308647
0
LINE
8
20000_FRONT_O
62
7
6
CONTINUOUS
10
152.2417187484
20
224.8128758647
11
153.1652087484
21
223.6409518647
0
LINE
8
20000_FRONT_O
62
7
6
CONTINUOUS
10
152.8235087484
20
224.4771408647
11
152.4387217484
21
224.9654348647
0
LINE
8
20000_FRONT_O
62
7
6
CONTINUOUS
10
153.3622117484
20
223.7935578647
11
152.9774237484
21
224.2818518647
0
LINE
8
20000_FRONT_O
62
7
6
CONTINUOUS
10
153.3622117484
20
223.8327028647
11
152.9965907484
21
224.2966768647
0
LINE
8
20000_FRONT_O
62
7
6
CONTINUOUS
10
152.8235087484
20
224.5163338647
11
152.4387217484
21
225.0046278647
0
LINE
8
20000_FRONT_O
62
7
6
CONTINUOUS
10
152.7034637484
20
225.0706608647
11
153.0393867484
21
224.6443788647
0
LINE
8
20000_FRONT_O
62
7
6
CONTINUOUS
10
153.7262337484
20
224.1753668647
11
153.3903107484
21
224.6016488647
0
LINE
8
20000_FRONT_O
62
7
6
CONTINUOUS
10
153.2363897484
20
224.7969858647
11
152.9004667484
21
225.2232678647
0
LINE
8
20000_FRONT_O
62
7
6
CONTINUOUS
10
153.2363897484
20
224.8361298647
11
152.9004667484
21
225.2624128647
0
LINE
8
20000_FRONT_O
62
7
6
CONTINUOUS
10
153.7262337484
20
224.2145598647
11
153.4094707484
21
224.6165218647
0
LINE
8
20000_FRONT_O
62
7
6
CONTINUOUS
10
153.6061887484
20
224.7688868647
11
153.9909767484
21
224.2805928647
0
LINE
8
20000_FRONT_O
62
7
6
CONTINUOUS
10
153.0674857484
20
225.4525168647
11
153.4522737484
21
224.9642228647
0
LINE
8
20000_FRONT_O
62
7
6
CONTINUOUS
10
154.1879787484
20
224.4331998647
11
153.2644887484
21
225.6050758647
0
LINE
8
20000_FRONT_O
62
7
6
CONTINUOUS
10
154.1879787484
20
224.4723448647
11
153.2644887484
21
225.6442688647
0
LINE
8
20000_FRONT_O
62
7
6
CONTINUOUS
10
153.1933017484
20
224.4490898647
11
153.5292317484
21
224.0227598647
0
LINE
8
20000_FRONT_O
62
7
6
CONTINUOUS
10
152.9004667484
20
225.2624128647
11
152.8409557484
21
225.3679778647
0
LINE
8
20000_FRONT_O
62
7
6
CONTINUOUS
10
153.8284497484
20
224.0278948647
11
153.7262337484
21
224.2145598647
0
LINE
8
20000_FRONT_O
62
7
6
CONTINUOUS
10
175.4467947484
20
246.8711708647
11
175.1542497484
21
247.6523248647
0
LINE
8
20000_FRONT_O
62
7
6
CONTINUOUS
10
175.1542497484
20
247.6521788647
11
175.4468067484
21
246.8710248647
0
LINE
8
20000_FRONT_O
62
7
6
CONTINUOUS
10
176.3887427484
20
331.2136958647
11
176.3713137484
21
331.3278358647
0
LINE
8
20000_FRONT_O
62
7
6
CONTINUOUS
10
177.5094347484
20
330.7440048647
11
177.4658447484
21
331.0721348647
0
LINE
8
20000_FRONT_O
62
7
6
CONTINUOUS
10
172.3948487484
20
328.8803598647
11
172.4788187484
21
328.2354378647
0
LINE
8
20000_FRONT_O
62
7
6
CONTINUOUS
10
175.1542497484
20
247.6521788647
11
175.0548487484
21
248.4805198647
0
LINE
8
20000_FRONT_O
62
7
6
CONTINUOUS
10
197.0148457484
20
217.0303568647
11
197.0148457484
21
364.0303448647
0
LINE
8
20000_FRONT_O
62
7
6
CONTINUOUS
10
152.4387217484
20
225.0046278647
11
152.2417187484
21
224.8520208647
0
LINE
8
20000_FRONT_O
62
7
6
CONTINUOUS
10
153.2644887484
20
225.6442688647
11
153.0674857484
21
225.4916618647
0
LINE
8
20000_FRONT_O
62
7
6
CONTINUOUS
10
153.5292317484
20
225.7103018647
11
153.7262337484
21
225.8629088647
0
LINE
8
20000_FRONT_O
62
7
6
CONTINUOUS
10
153.4331067484
20
224.9884948647
11
153.2363897484
21
224.8361298647
0
LINE
8
20000_FRONT_O
62
7
6
CONTINUOUS
10
153.0202267484
20
224.6686988647
11
152.8235087484
21
224.5163338647
0
LINE
8
20000_FRONT_O
62
7
6
CONTINUOUS
10
153.0393867484
20
224.6443788647
11
152.8235087484
21
224.4771408647
0
LINE
8
20000_FRONT_O
62
7
6
CONTINUOUS
10
153.4522737484
20
224.9642228647
11
153.2363897484
21
224.7969858647
0
LINE
8
20000_FRONT_O
62
7
6
CONTINUOUS
10
152.9774237484
20
224.2818518647
11
153.1933017484
21
224.4490898647
0
LINE
8
20000_FRONT_O
62
7
6
CONTINUOUS
10
153.3903107484
20
224.6016488647
11
153.6061887484
21
224.7688868647
0
LINE
8
20000_FRONT_O
62
7
6
CONTINUOUS
10
152.9004667484
20
223.5749188647
11
152.7034637484
21
223.4223118647
0
LINE
8
20000_FRONT_O
62
7
6
CONTINUOUS
10
152.9004667484
20
223.5357248647
11
152.7034637484
21
223.3831178647
0
LINE
8
20000_FRONT_O
62
7
6
CONTINUOUS
10
153.9909767484
20
224.2805928647
11
154.1879787484
21
224.4331998647
0
LINE
8
20000_FRONT_O
62
7
6
CONTINUOUS
10
153.1652087484
20
223.6409518647
11
153.3622117484
21
223.7935578647
0
LINE
8
20000_FRONT_O
62
7
6
CONTINUOUS
10
153.4368067484
20
223.1746518647
11
153.7528547484
21
223.4194528647
0
LINE
8
20000_FRONT_O
62
7
6
CONTINUOUS
10
153.2644887484
20
225.6050758647
11
153.0674857484
21
225.4525168647
0
LINE
8
20000_FRONT_O
62
7
6
CONTINUOUS
10
152.4387217484
20
224.9654348647
11
152.2417187484
21
224.8128758647
0
LINE
8
20000_FRONT_O
62
7
6
CONTINUOUS
10
153.0035847484
20
226.1142988647
11
152.6865377484
21
225.8795748647
0
LINE
8
20000_FRONT_O
62
7
6
CONTINUOUS
10
146.2347697484
20
231.1319188647
11
145.6122117484
21
230.7352368647
0
LINE
8
20000_FRONT_O
62
7
6
CONTINUOUS
10
148.3949277484
20
226.4422818647
11
149.0174847484
21
226.8389638647
0
LINE
8
20000_FRONT_O
62
7
6
CONTINUOUS
10
188.9041967484
20
261.6414418647
11
189.2138677484
21
261.8133788647
0
LINE
8
20000_FRONT_O
62
7
6
CONTINUOUS
10
189.5517837484
20
260.8973488647
11
189.3999037484
21
260.8189628647
0
LINE
8
20000_FRONT_O
62
7
6
CONTINUOUS
10
148.1050227484
20
228.0280868647
11
148.8205437484
21
228.3824258647
0
LINE
8
11000_LEFT
62
7
6
CONTINUOUS
10
390.7928177484
20
347.8303168647
11
390.1230427484
21
347.5360998647
0
LINE
8
11000_LEFT
62
7
6
CONTINUOUS
10
388.7481027484
20
345.0303428647
11
381.5480817484
21
342.0303318647
0
LINE
8
20000_FRONT_O
62
7
6
CONTINUOUS
10
189.3999037484
20
260.8189628647
11
189.2475987484
21
260.7556428647
0
LINE
8
20000_FRONT_O
62
7
6
CONTINUOUS
10
176.9959607484
20
258.6218098647
11
177.7523347484
21
258.8959698647
0
LINE
8
20000_FRONT_O
62
7
6
CONTINUOUS
10
177.0362567484
20
258.6339218647
11
177.7760247484
21
258.8927718647
0
LINE
8
20000_FRONT_O
62
7
6
CONTINUOUS
10
151.2744997484
20
231.2080768647
11
150.9659307484
21
231.5042308647
0
LINE
8
20000_FRONT_O
62
7
6
CONTINUOUS
10
145.2359577484
20
228.9358318647
11
145.8089417484
21
228.3825708647
0
LINE
8
20000_FRONT_O
62
7
6
CONTINUOUS
10
151.5574887484
20
230.8908478647
11
151.2744997484
21
231.2080768647
0
LINE
8
20000_FRONT_O
62
7
6
CONTINUOUS
10
149.5021087484
20
230.1807168647
11
149.0174847484
21
230.7352368647
0
LINE
8
20000_FRONT_O
62
7
6
CONTINUOUS
10
189.5959547484
20
262.7636108647
11
189.4964087484
21
263.0921278647
0
LINE
8
20000_FRONT_O
62
7
6
CONTINUOUS
10
173.8633517484
20
329.5075978647
11
173.8915597484
21
329.4142418647
0
LINE
8
20000_FRONT_O
62
7
6
CONTINUOUS
10
177.4276207484
20
331.2351088647
11
177.3976077484
21
331.3380098647
0
LINE
8
20000_FRONT_O
62
7
6
CONTINUOUS
10
173.5109507484
20
330.9203998647
11
173.6387047484
21
330.4715408647
0
LINE
8
20000_FRONT_O
62
7
6
CONTINUOUS
10
176.3713137484
20
331.3278358647
11
176.3174897484
21
331.5252078647
0
LINE
8
20000_FRONT_O
62
7
6
CONTINUOUS
10
190.4630897484
20
263.2277788647
11
190.5070907484
21
263.0660638647
0
LINE
8
20000_FRONT_O
62
7
6
CONTINUOUS
10
173.7052827484
20
330.1153128647
11
173.8632307484
21
329.5075498647
0
LINE
8
20000_FRONT_O
62
7
6
CONTINUOUS
10
173.5473347484
20
330.7230278647
11
173.7052827484
21
330.1153128647
0
LINE
8
20000_FRONT_O
62
7
6
CONTINUOUS
10
177.4658447484
20
331.0721348647
11
177.4276207484
21
331.2351088647
0
LINE
8
20000_FRONT_O
62
7
6
CONTINUOUS
10
190.5070907484
20
263.0660638647
11
190.5378427484
21
262.8990678647
0
LINE
8
11000_LEFT
62
7
6
CONTINUOUS
10
390.1230427484
20
347.5360998647
11
389.5019327484
21
347.1325878647
0
LINE
8
20000_FRONT_O
62
7
6
CONTINUOUS
10
152.4354877484
20
226.3355538647
11
152.9366987484
21
226.5748318647
0
LINE
8
20000_FRONT_O
62
7
6
CONTINUOUS
10
153.9942097484
20
222.9496658647
11
153.4929987484
21
222.7103878647
0
LINE
8
20000_FRONT_O
62
7
6
CONTINUOUS
10
153.9942097484
20
222.9105208647
11
153.4929987484
21
222.6711948647
0
LINE
8
11000_LEFT
62
7
6
CONTINUOUS
10
498.7954297484
20
352.7235738647
11
498.3809687484
21
352.5765868647
0
LINE
8
11000_LEFT
62
7
6
CONTINUOUS
10
499.8889187484
20
364.0303448647
11
499.5786667484
21
363.9212918647
0
LINE
8
20000_FRONT_O
62
7
6
CONTINUOUS
10
146.9448287484
20
231.3385918647
11
146.2347697484
21
231.1319188647
0
LINE
8
13000_TOP
62
7
6
CONTINUOUS
10
307.3101787484
20
144.2748338647
11
287.4101587484
21
144.2748338647
0
LINE
8
13000_TOP
62
7
6
CONTINUOUS
10
257.5101667484
20
144.2748338647
11
277.4101637484
21
144.2748338647
0
LINE
8
13000_TOP
62
7
6
CONTINUOUS
10
315.3101747484
20
146.7748268647
11
313.3101757484
21
146.7748268647
0
LINE
8
13000_TOP
62
7
6
CONTINUOUS
10
307.3039297484
20
146.7748268647
11
287.4105707484
21
146.7748268647
0
LINE
8
13000_TOP
62
7
6
CONTINUOUS
10
255.5101677484
20
146.7748268647
11
253.5101687484
21
146.7748268647
0
LINE
8
13000_TOP
62
7
6
CONTINUOUS
10
251.5101697484
20
146.7748268647
11
249.5101707484
21
146.7748268647
0
LINE
8
13000_TOP
62
7
6
CONTINUOUS
10
309.3101777484
20
146.7748268647
11
311.3101767484
21
146.7748268647
0
LINE
8
13000_TOP
62
7
6
CONTINUOUS
10
307.3096707484
20
147.1748508647
11
287.4097227484
21
147.1748508647
0
LINE
8
13000_TOP
62
7
6
CONTINUOUS
10
277.4105997484
20
147.1748508647
11
257.5106517484
21
147.1748508647
0
LINE
8
13000_TOP
62
7
6
CONTINUOUS
10
250.1913557484
20
147.1748508647
11
249.5107287484
21
147.1748508647
0
LINE
8
13000_TOP
62
7
6
CONTINUOUS
10
285.4101597484
20
147.2748448647
11
283.4101607484
21
147.2748448647
0
LINE
8
13000_TOP
62
7
6
CONTINUOUS
10
281.4101617484
20
147.2748448647
11
279.4101627484
21
147.2748448647
0
LINE
8
13000_TOP
62
7
6
CONTINUOUS
10
317.3101737484
20
147.4748328647
11
315.3101747484
21
147.4748328647
0
LINE
8
13000_TOP
62
7
6
CONTINUOUS
10
313.3101757484
20
147.4748328647
11
311.3101767484
21
147.4748328647
0
LINE
8
13000_TOP
62
7
6
CONTINUOUS
10
309.3101777484
20
147.4748328647
11
307.3101787484
21
147.4748328647
0
LINE
8
13000_TOP
62
7
6
CONTINUOUS
10
287.4101587484
20
147.4748328647
11
285.4101597484
21
147.4748328647
0
LINE
8
13000_TOP
62
7
6
CONTINUOUS
10
283.4101607484
20
147.4748328647
11
281.4101617484
21
147.4748328647
0
LINE
8
13000_TOP
62
7
6
CONTINUOUS
10
279.4101627484
20
147.4748328647
11
277.4101637484
21
147.4748328647
0
LINE
8
13000_TOP
62
7
6
CONTINUOUS
10
257.5101667484
20
147.4748328647
11
255.5101677484
21
147.4748328647
0
LINE
8
13000_TOP
62
7
6
CONTINUOUS
10
253.5101687484
20
147.4748328647
11
251.5101697484
21
147.4748328647
0
LINE
8
13000_TOP
62
7
6
CONTINUOUS
10
249.5101707484
20
147.4748328647
11
247.5101717484
21
147.4748328647
0
LINE
8
13000_TOP
62
7
6
CONTINUOUS
10
317.3101737484
20
149.7748378647
11
315.3101747484
21
149.7748378647
0
LINE
8
13000_TOP
62
7
6
CONTINUOUS
10
313.3101757484
20
149.7748378647
11
311.3101767484
21
149.7748378647
0
LINE
8
13000_TOP
62
7
6
CONTINUOUS
10
309.3101777484
20
149.7748378647
11
307.3101787484
21
149.7748378647
0
LINE
8
13000_TOP
62
7
6
CONTINUOUS
10
287.4101587484
20
149.7748378647
11
285.4101597484
21
149.7748378647
0
LINE
8
13000_TOP
62
7
6
CONTINUOUS
10
283.4101607484
20
149.7748378647
11
281.4101617484
21
149.7748378647
0
LINE
8
13000_TOP
62
7
6
CONTINUOUS
10
279.4101627484
20
149.7748378647
11
277.4101637484
21
149.7748378647
0
LINE
8
13000_TOP
62
7
6
CONTINUOUS
10
257.5101667484
20
149.7748378647
11
255.5101677484
21
149.7748378647
0
LINE
8
13000_TOP
62
7
6
CONTINUOUS
10
253.5101687484
20
149.7748378647
11
251.5101697484
21
149.7748378647
0
LINE
8
13000_TOP
62
7
6
CONTINUOUS
10
249.5101707484
20
149.7748378647
11
247.5101717484
21
149.7748378647
0
LINE
8
13000_TOP
62
7
6
CONTINUOUS
10
250.1908467484
20
149.9748248647
11
255.5809247484
21
149.9748248647
0
LINE
8
13000_TOP
62
7
6
CONTINUOUS
10
308.2394097484
20
149.9748248647
11
315.6294627484
21
149.9748248647
0
LINE
8
20000_FRONT_O
62
7
6
CONTINUOUS
10
145.6122117484
20
226.8389638647
11
146.2347697484
21
226.4422818647
0
LINE
8
20000_FRONT_O
62
7
6
CONTINUOUS
10
149.0174847484
20
230.7352368647
11
148.3949277484
21
231.1319188647
0
LINE
8
20000_FRONT_O
62
7
6
CONTINUOUS
10
152.7034637484
20
223.3831178647
11
153.0359717484
21
223.1607968647
0
LINE
8
20000_FRONT_O
62
7
6
CONTINUOUS
10
153.7262337484
20
225.8629088647
11
153.3937257484
21
226.0852788647
0
LINE
8
20000_FRONT_O
62
7
6
CONTINUOUS
10
153.7262337484
20
225.9020538647
11
153.3991697484
21
226.1228738647
0
LINE
8
20000_FRONT_O
62
7
6
CONTINUOUS
10
150.6288697484
20
231.7803288647
11
150.2686747484
21
232.0303618647
0
LINE
8
20000_FRONT_O
62
7
6
CONTINUOUS
10
150.9659307484
20
231.5042308647
11
150.6288697484
21
231.7803288647
0
LINE
8
20000_FRONT_O
62
7
6
CONTINUOUS
10
175.4468067484
20
246.8710248647
11
175.9158917484
21
246.1812418647
0
LINE
8
20000_FRONT_O
62
7
6
CONTINUOUS
10
175.9158797484
20
246.1814358647
11
175.4467947484
21
246.8711708647
0
LINE
8
20000_FRONT_O
62
7
6
CONTINUOUS
10
190.2600737484
20
263.6747958647
11
190.3387877484
21
263.5328958647
0
LINE
8
20000_FRONT_O
62
7
6
CONTINUOUS
10
187.5311827484
20
262.3967248647
11
187.7339317484
21
261.9756748647
0
LINE
8
20000_FRONT_O
62
7
6
CONTINUOUS
10
176.3174897484
20
331.5252078647
11
176.2609887484
21
331.6625058647
0
LINE
8
20000_FRONT_O
62
7
6
CONTINUOUS
10
190.3387877484
20
263.5328958647
11
190.4630897484
21
263.2277788647
0
LINE
8
20000_FRONT_O
62
7
6
CONTINUOUS
10
173.8915597484
20
329.4142418647
11
173.9290097484
21
329.3196738647
0
LINE
8
13000_TOP
62
7
6
CONTINUOUS
10
255.6577127484
20
149.7747888647
11
255.5809247484
21
149.9748248647
0
LINE
8
20000_FRONT_O
62
7
6
CONTINUOUS
10
177.3976077484
20
331.3380098647
11
177.3245987484
21
331.5404678647
0
LINE
8
20000_FRONT_O
62
7
6
CONTINUOUS
10
172.4788187484
20
328.2354378647
11
172.6245347484
21
327.8262088647
0
LINE
8
13000_TOP
62
7
6
CONTINUOUS
10
247.5101717484
20
20.9876418647
11
247.5101717484
21
32.1478378647
0
LINE
8
13000_TOP
62
7
6
CONTINUOUS
10
247.5101717484
20
32.1607248647
11
247.5101717484
21
149.7748378647
0
LINE
8
10000_FRONT
62
7
6
CONTINUOUS
10
247.5101717484
20
217.0303568647
11
247.5101717484
21
364.0303448647
0
LINE
8
10000_FRONT
62
7
6
CONTINUOUS
10
249.2679617484
20
222.0464268647
11
249.2679617484
21
217.0303568647
0
LINE
8
13000_TOP
62
7
6
CONTINUOUS
10
249.5101707484
20
146.7748268647
11
249.5101707484
21
149.7748378647
0
LINE
8
13000_TOP
62
7
6
CONTINUOUS
10
250.1908467484
20
146.7747778647
11
250.1908467484
21
149.9748248647
0
LINE
8
13000_TOP
62
7
6
CONTINUOUS
10
251.5101697484
20
146.7748268647
11
251.5101697484
21
149.7748378647
0
LINE
8
13000_TOP
62
7
6
CONTINUOUS
10
253.5101687484
20
146.7748268647
11
253.5101687484
21
149.7748378647
0
LINE
8
10000_FRONT
62
7
6
CONTINUOUS
10
254.7101687484
20
364.0303448647
11
254.7101687484
21
353.7495288647
0
LINE
8
13000_TOP
62
7
6
CONTINUOUS
10
254.7101687484
20
32.1598278647
11
254.7101687484
21
28.4230408647
0
LINE
8
10000_FRONT
62
7
6
CONTINUOUS
10
254.9101807484
20
364.0303448647
11
254.9101807484
21
353.7495288647
0
LINE
8
13000_TOP
62
7
6
CONTINUOUS
10
254.9101807484
20
42.7748298647
11
254.9101807484
21
28.4454958647
0
LINE
8
13000_TOP
62
7
6
CONTINUOUS
10
255.5101677484
20
146.7748268647
11
255.5101677484
21
149.7748378647
0
LINE
8
13000_TOP
62
7
6
CONTINUOUS
10
257.5101667484
20
144.2748338647
11
257.5101667484
21
149.7748378647
0
LINE
8
20000_FRONT_O
62
7
6
CONTINUOUS
10
153.4754007484
20
223.5188658647
11
153.1758307484
21
223.4247828647
0
LINE
8
20000_FRONT_O
62
7
6
CONTINUOUS
10
147.6848687484
20
226.2355608647
11
148.3949277484
21
226.4422818647
0
LINE
8
20000_FRONT_O
62
7
6
CONTINUOUS
10
152.9366987484
20
222.7103878647
11
152.4354877484
21
222.9496658647
0
LINE
8
20000_FRONT_O
62
7
6
CONTINUOUS
10
153.4929987484
20
226.5748318647
11
153.9942097484
21
226.3355538647
0
LINE
8
20000_FRONT_O
62
7
6
CONTINUOUS
10
152.9366987484
20
222.6711948647
11
152.4354877484
21
222.9105208647
0
LINE
8
20000_FRONT_O
62
7
6
CONTINUOUS
10
145.8089417484
20
228.3825708647
11
146.5244327484
21
228.0281838647
0
LINE
8
20000_FRONT_O
62
7
6
CONTINUOUS
10
153.1758307484
20
223.4247828647
11
152.9004667484
21
223.5749188647
0
LINE
8
20000_FRONT_O
62
7
6
CONTINUOUS
10
153.1662267484
20
223.3866548647
11
152.9004667484
21
223.5357248647
0
LINE
8
20000_FRONT_O
62
7
6
CONTINUOUS
10
153.2634707484
20
225.8593718647
11
153.5292317484
21
225.7103018647
0
LINE
8
20000_FRONT_O
62
7
6
CONTINUOUS
10
176.5348697484
20
245.6221188647
11
181.9548517484
21
241.7917328647
0
LINE
8
20000_FRONT_O
62
7
6
CONTINUOUS
10
181.9557237484
20
241.7912478647
11
176.5348577484
21
245.6222648647
0
LINE
8
20000_FRONT_O
62
7
6
CONTINUOUS
10
175.9158917484
20
246.1812418647
11
176.5348697484
21
245.6221188647
0
LINE
8
20000_FRONT_O
62
7
6
CONTINUOUS
10
176.5348577484
20
245.6222648647
11
175.9158797484
21
246.1814358647
0
LINE
8
20000_FRONT_O
62
7
6
CONTINUOUS
10
189.9381937484
20
264.0762728647
11
190.0550717484
21
263.9543818647
0
LINE
8
20000_FRONT_O
62
7
6
CONTINUOUS
10
190.0550717484
20
263.9543818647
11
190.1632647484
21
263.8196028647
0
LINE
8
20000_FRONT_O
62
7
6
CONTINUOUS
10
189.4964087484
20
263.0921278647
11
189.2864417484
21
263.3833408647
0
LINE
8
20000_FRONT_O
62
7
6
CONTINUOUS
10
190.1632647484
20
263.8196028647
11
190.2600737484
21
263.6747958647
0
LINE
8
20000_FRONT_O
62
7
6
CONTINUOUS
10
173.9733257484
20
329.2304838647
11
174.0254907484
21
329.1445878647
0
LINE
8
20000_FRONT_O
62
7
6
CONTINUOUS
10
173.5573147484
20
326.7354808647
11
173.8211187484
21
326.2982498647
0
LINE
8
20000_FRONT_O
62
7
6
CONTINUOUS
10
176.3523837484
20
332.7252308647
11
176.0919947484
21
333.1585378647
0
LINE
8
20000_FRONT_O
62
7
6
CONTINUOUS
10
177.2337737484
20
331.7389538647
11
177.1251077484
21
331.9317238647
0
LINE
8
20000_FRONT_O
62
7
6
CONTINUOUS
10
172.6245347484
20
327.8262088647
11
172.8431747484
21
327.4371338647
0
LINE
8
20000_FRONT_O
62
7
6
CONTINUOUS
10
176.2609887484
20
331.6625058647
11
176.2202207484
21
331.7421518647
0
LINE
8
20000_FRONT_O
62
7
6
CONTINUOUS
10
173.9290097484
20
329.3196738647
11
173.9733257484
21
329.2304838647
0
LINE
8
20000_FRONT_O
62
7
6
CONTINUOUS
10
177.3245987484
20
331.5404678647
11
177.2337737484
21
331.7389538647
0
LINE
8
10000_FRONT
62
7
6
CONTINUOUS
10
258.5101787484
20
219.0795538647
11
258.5101787484
21
222.6051618647
0
LINE
8
10000_FRONT
62
7
6
CONTINUOUS
10
259.5101667484
20
222.0976348647
11
259.5101667484
21
222.7141668647
0
LINE
8
10000_FRONT
62
7
6
CONTINUOUS
10
262.6101707484
20
361.0658458647
11
262.6101707484
21
359.0290998647
0
LINE
8
10000_FRONT
62
7
6
CONTINUOUS
10
264.6101697484
20
359.0290998647
11
264.6101697484
21
361.0658458647
0
LINE
8
10000_FRONT
62
7
6
CONTINUOUS
10
266.6101687484
20
361.0658458647
11
266.6101687484
21
359.0290998647
0
LINE
8
10000_FRONT
62
7
6
CONTINUOUS
10
266.8601777484
20
221.6630678647
11
266.8601777484
21
221.4563468647
0
LINE
8
10000_FRONT
62
7
6
CONTINUOUS
10
266.8601777484
20
221.3382338647
11
266.8601777484
21
220.3795228647
0
LINE
8
10000_FRONT
62
7
6
CONTINUOUS
10
268.3601587484
20
221.6630678647
11
268.3601587484
21
221.4563468647
0
LINE
8
10000_FRONT
62
7
6
CONTINUOUS
10
268.3601587484
20
221.3382338647
11
268.3601587484
21
220.3795228647
0
LINE
8
10000_FRONT
62
7
6
CONTINUOUS
10
268.6101677484
20
359.0290998647
11
268.6101677484
21
361.0658458647
0
LINE
8
10000_FRONT
62
7
6
CONTINUOUS
10
270.6101667484
20
361.0658458647
11
270.6101667484
21
359.0290998647
0
LINE
8
10000_FRONT
62
7
6
CONTINUOUS
10
272.2601627484
20
223.8794538647
11
272.2601627484
21
224.9704248647
0
LINE
8
10000_FRONT
62
7
6
CONTINUOUS
10
272.5370357484
20
224.8520208647
11
272.5370357484
21
224.8128758647
0
LINE
8
10000_FRONT
62
7
6
CONTINUOUS
10
272.6101657484
20
359.0290998647
11
272.6101657484
21
361.0658458647
0
LINE
8
10000_FRONT
62
7
6
CONTINUOUS
10
272.7340437484
20
225.0046278647
11
272.7340437484
21
224.9654348647
0
LINE
8
10000_FRONT
62
7
6
CONTINUOUS
10
272.9987807484
20
223.4223118647
11
272.9987807484
21
223.3831178647
0
LINE
8
10000_FRONT
62
7
6
CONTINUOUS
10
273.1188317484
20
224.5163338647
11
273.1188317484
21
224.4771408647
0
LINE
8
10000_FRONT
62
7
6
CONTINUOUS
10
273.1957887484
20
223.5749188647
11
273.1957887484
21
223.5357248647
0
LINE
8
10000_FRONT
62
7
6
CONTINUOUS
10
273.5317177484
20
224.8361298647
11
273.5317177484
21
224.7969858647
0
LINE
8
10000_FRONT
62
7
6
CONTINUOUS
10
273.6575337484
20
223.8327028647
11
273.6575337484
21
223.7935578647
0
LINE
8
10000_FRONT
62
7
6
CONTINUOUS
10
274.0215627484
20
224.2145598647
11
274.0215627484
21
224.1753668647
0
LINE
8
10000_FRONT
62
7
6
CONTINUOUS
10
274.1591267484
20
223.7792668647
11
274.1591267484
21
223.8184118647
0
LINE
8
10000_FRONT
62
7
6
CONTINUOUS
10
274.4833077484
20
224.4723448647
11
274.4833077484
21
224.4331998647
0
LINE
8
10000_FRONT
62
7
6
CONTINUOUS
10
274.7601797484
20
225.0303528647
11
274.7601797484
21
223.8794538647
0
LINE
8
10000_FRONT
62
7
6
CONTINUOUS
10
275.7101707484
20
222.0976348647
11
275.7101707484
21
225.0303528647
0
LINE
8
10000_FRONT
62
7
6
CONTINUOUS
10
276.7101577484
20
219.0795538647
11
276.7101577484
21
225.0303048647
0
LINE
8
10000_FRONT
62
7
6
CONTINUOUS
10
276.8601727484
20
225.0047248647
11
276.8601727484
21
222.8634308647
0
LINE
8
13000_TOP
62
7
6
CONTINUOUS
10
277.4101637484
20
144.2748338647
11
277.4101637484
21
149.7748378647
0
LINE
8
10000_FRONT
62
7
6
CONTINUOUS
10
278.2101627484
20
225.0047248647
11
278.2101627484
21
222.8634308647
0
LINE
8
10000_FRONT
62
7
6
CONTINUOUS
10
274.7601797484
20
223.9185988647
11
274.6363747484
21
223.3808898647
0
LINE
8
10000_FRONT
62
7
6
CONTINUOUS
10
274.7601797484
20
223.8794538647
11
274.6363747484
21
223.3417448647
0
LINE
8
10000_FRONT
62
7
6
CONTINUOUS
10
274.0481837484
20
223.4194528647
11
274.1587387484
21
223.8016978647
0
LINE
8
10000_FRONT
62
7
6
CONTINUOUS
10
273.9086327484
20
223.7988388647
11
273.7707297484
21
223.5188658647
0
LINE
8
10000_FRONT
62
7
6
CONTINUOUS
10
273.9061627484
20
223.7310618647
11
273.7557837484
21
223.4675608647
0
LINE
8
10000_FRONT
62
7
6
CONTINUOUS
10
274.6363747484
20
223.3808898647
11
274.2895207484
21
222.9496658647
0
LINE
8
10000_FRONT
62
7
6
CONTINUOUS
10
274.6363747484
20
223.3417448647
11
274.2895207484
21
222.9105208647
0
LINE
8
10000_FRONT
62
7
6
CONTINUOUS
10
272.7340437484
20
225.0046278647
11
272.5370357484
21
224.8520208647
0
LINE
8
10000_FRONT
62
7
6
CONTINUOUS
10
273.3155487484
20
224.6686988647
11
273.1188317484
21
224.5163338647
0
LINE
8
10000_FRONT
62
7
6
CONTINUOUS
10
273.7284357484
20
224.9884948647
11
273.5317177484
21
224.8361298647
0
LINE
8
10000_FRONT
62
7
6
CONTINUOUS
10
273.3347097484
20
224.6443788647
11
273.1188317484
21
224.4771408647
0
LINE
8
10000_FRONT
62
7
6
CONTINUOUS
10
273.7475967484
20
224.9642228647
11
273.5317177484
21
224.7969858647
0
LINE
8
10000_FRONT
62
7
6
CONTINUOUS
10
273.2727467484
20
224.2818518647
11
273.4886247484
21
224.4490898647
0
LINE
8
10000_FRONT
62
7
6
CONTINUOUS
10
273.6856327484
20
224.6016488647
11
273.9015117484
21
224.7688868647
0
LINE
8
10000_FRONT
62
7
6
CONTINUOUS
10
273.1957887484
20
223.5749188647
11
272.9987807484
21
223.4223118647
0
LINE
8
10000_FRONT
62
7
6
CONTINUOUS
10
273.1957887484
20
223.5357248647
11
272.9987807484
21
223.3831178647
0
LINE
8
10000_FRONT
62
7
6
CONTINUOUS
10
273.4605257484
20
223.6409518647
11
273.6575337484
21
223.7935578647
0
LINE
8
10000_FRONT
62
7
6
CONTINUOUS
10
274.2862987484
20
224.2805928647
11
274.4833077484
21
224.4331998647
0
LINE
8
10000_FRONT
62
7
6
CONTINUOUS
10
273.7321177484
20
223.1746518647
11
274.0481837484
21
223.4194528647
0
LINE
8
10000_FRONT
62
7
6
CONTINUOUS
10
272.7340437484
20
224.9654348647
11
272.5370357484
21
224.8128758647
0
LINE
8
10000_FRONT
62
7
6
CONTINUOUS
10
274.2895207484
20
222.9496658647
11
273.7883157484
21
222.7103878647
0
LINE
8
10000_FRONT
62
7
6
CONTINUOUS
10
274.2895207484
20
222.9105208647
11
273.7883157484
21
222.6711948647
0
LINE
8
10000_FRONT
62
7
6
CONTINUOUS
10
273.7707297484
20
223.5188658647
11
273.4711597484
21
223.4247828647
0
LINE
8
20000_FRONT_O
62
7
6
CONTINUOUS
10
146.2347697484
20
226.4422818647
11
146.9448287484
21
226.2355608647
0
LINE
8
20000_FRONT_O
62
7
6
CONTINUOUS
10
148.3949277484
20
231.1319188647
11
147.6848687484
21
231.3385918647
0
LINE
8
20000_FRONT_O
62
7
6
CONTINUOUS
10
189.6727307484
20
264.2886148647
11
189.8120637484
21
264.1865868647
0
LINE
8
20000_FRONT_O
62
7
6
CONTINUOUS
10
187.7339317484
20
261.9756748647
11
188.0992807484
21
261.6843648647
0
LINE
8
20000_FRONT_O
62
7
6
CONTINUOUS
10
189.8120637484
20
264.1865868647
11
189.9381937484
21
264.0762728647
0
LINE
8
20000_FRONT_O
62
7
6
CONTINUOUS
10
172.8431747484
20
327.4371338647
11
173.1172677484
21
327.0996058647
0
LINE
8
20000_FRONT_O
62
7
6
CONTINUOUS
10
176.1405747484
20
331.8699538647
11
176.0659667484
21
331.9673798647
0
LINE
8
20000_FRONT_O
62
7
6
CONTINUOUS
10
174.0254907484
20
329.1445878647
11
174.0856377484
21
329.0626158647
0
LINE
8
20000_FRONT_O
62
7
6
CONTINUOUS
10
177.0645007484
20
332.0248868647
11
177.0022837484
21
332.1122838647
0
LINE
8
20000_FRONT_O
62
7
6
CONTINUOUS
10
173.6387047484
20
330.4715408647
11
173.9176727484
21
330.0751028647
0
LINE
8
20000_FRONT_O
62
7
6
CONTINUOUS
10
177.1251077484
20
331.9317238647
11
177.0645007484
21
332.0248868647
0
LINE
8
20000_FRONT_O
62
7
6
CONTINUOUS
10
176.2202207484
20
331.7421518647
11
176.1405747484
21
331.8699538647
0
LINE
8
10000_FRONT
62
7
6
CONTINUOUS
10
273.8245537484
20
224.0227598647
11
273.9061627484
21
223.7310618647
0
LINE
8
10000_FRONT
62
7
6
CONTINUOUS
10
272.3839687484
20
223.3417448647
11
272.2601627484
21
223.8794538647
0
LINE
8
10000_FRONT
62
7
6
CONTINUOUS
10
272.3839687484
20
223.3808898647
11
272.2601627484
21
223.9185988647
0
LINE
8
10000_FRONT
62
7
6
CONTINUOUS
10
274.1591267484
20
223.8184118647
11
274.1237847484
21
224.0278948647
0
LINE
8
13000_TOP
62
7
6
CONTINUOUS
10
279.4101627484
20
147.2748448647
11
279.4101627484
21
149.7748378647
0
LINE
8
13000_TOP
62
7
6
CONTINUOUS
10
281.4101617484
20
147.2748448647
11
281.4101617484
21
149.7748378647
0
LINE
8
13000_TOP
62
7
6
CONTINUOUS
10
283.4101607484
20
147.2748448647
11
283.4101607484
21
149.7748378647
0
LINE
8
13000_TOP
62
7
6
CONTINUOUS
10
285.4101597484
20
147.2748448647
11
285.4101597484
21
149.7748378647
0
LINE
8
13000_TOP
62
7
6
CONTINUOUS
10
287.4101587484
20
144.2748338647
11
287.4101587484
21
149.7748378647
0
LINE
8
10000_FRONT
62
7
6
CONTINUOUS
10
288.8501627484
20
225.0309338647
11
288.8501627484
21
223.6303418647
0
LINE
8
10000_FRONT
62
7
6
CONTINUOUS
10
289.3101637484
20
223.5954118647
11
289.3101637484
21
222.8634308647
0
LINE
8
10000_FRONT
62
7
6
CONTINUOUS
10
290.6601777484
20
223.5954118647
11
290.6601777484
21
222.8634308647
0
LINE
8
10000_FRONT
62
7
6
CONTINUOUS
10
290.8101687484
20
216.0331308647
11
290.8101687484
21
223.6305838647
0
LINE
8
10000_FRONT
62
7
6
CONTINUOUS
10
295.7501777484
20
223.6303418647
11
295.7501777484
21
217.1303508647
0
LINE
8
10000_FRONT
62
7
6
CONTINUOUS
10
299.1601677484
20
216.0331308647
11
299.1601677484
21
216.0303698647
0
LINE
8
11000_LEFT
62
7
6
CONTINUOUS
10
389.5019327484
20
347.1325878647
11
389.0407207484
21
346.5534568647
0
LINE
8
11000_LEFT
62
7
6
CONTINUOUS
10
387.3480917484
20
287.2260228647
11
394.2508917484
21
293.0095358647
0
LINE
8
11000_LEFT
62
7
6
CONTINUOUS
10
412.4990747484
20
222.8809198647
11
413.3290147484
21
223.0808108647
0
LINE
8
11000_LEFT
62
7
6
CONTINUOUS
10
421.2227917484
20
225.7127238647
11
425.2757417484
21
226.6617458647
0
LINE
8
11000_LEFT
62
7
6
CONTINUOUS
10
435.0019887484
20
227.9062428647
11
435.8319287484
21
228.0731908647
0
LINE
8
11000_LEFT
62
7
6
CONTINUOUS
10
425.2757417484
20
226.6617458647
11
430.1163857484
21
227.4594678647
0
LINE
8
11000_LEFT
62
7
6
CONTINUOUS
10
472.1400797484
20
224.8516328647
11
471.8180547484
21
224.8291058647
0
LINE
8
20000_FRONT_O
62
7
6
CONTINUOUS
10
146.5244327484
20
228.0281838647
11
147.3147187484
21
227.9061948647
0
LINE
8
10000_FRONT
62
7
6
CONTINUOUS
10
273.2320267484
20
222.7103878647
11
272.7307977484
21
222.9496658647
0
LINE
8
10000_FRONT
62
7
6
CONTINUOUS
10
273.2320267484
20
222.6711948647
11
272.7307977484
21
222.9105208647
0
LINE
8
10000_FRONT
62
7
6
CONTINUOUS
10
273.4711597484
20
223.4247828647
11
273.1957887484
21
223.5749188647
0
LINE
8
20000_FRONT_O
62
7
6
CONTINUOUS
10
189.3760317484
20
264.4526558647
11
189.6727307484
21
264.2886148647
0
LINE
8
10000_FRONT
62
7
6
CONTINUOUS
10
273.4615427484
20
223.3866548647
11
273.1957887484
21
223.5357248647
0
LINE
8
10000_FRONT
62
7
6
CONTINUOUS
10
272.9987807484
20
223.3831178647
11
273.3312947484
21
223.1607968647
0
LINE
8
20000_FRONT_O
62
7
6
CONTINUOUS
10
189.2864417484
20
263.3833408647
11
188.9970817484
21
263.5814878647
0
LINE
8
20000_FRONT_O
62
7
6
CONTINUOUS
10
174.1535957484
20
328.9856828647
11
174.1986997484
21
328.9418378647
0
LINE
8
20000_FRONT_O
62
7
6
CONTINUOUS
10
176.8667057484
20
332.2796678647
11
176.7153697484
21
332.4372638647
0
LINE
8
20000_FRONT_O
62
7
6
CONTINUOUS
10
176.0659667484
20
331.9673798647
11
175.9820207484
21
332.0589448647
0
LINE
8
20000_FRONT_O
62
7
6
CONTINUOUS
10
174.0856377484
20
329.0626158647
11
174.1535957484
21
328.9856828647
0
LINE
8
20000_FRONT_O
62
7
6
CONTINUOUS
10
177.0022837484
20
332.1122838647
11
176.8667057484
21
332.2796678647
0
LINE
8
10000_FRONT
62
7
6
CONTINUOUS
10
272.7307977484
20
222.9105208647
11
272.3839687484
21
223.3417448647
0
LINE
8
10000_FRONT
62
7
6
CONTINUOUS
10
272.7307977484
20
222.9496658647
11
272.3839687484
21
223.3808898647
0
LINE
8
10000_FRONT
62
7
6
CONTINUOUS
10
273.6954437484
20
225.0303528647
11
273.7475967484
21
224.9642228647
0
LINE
8
10000_FRONT
62
7
6
CONTINUOUS
10
272.5370357484
20
224.8128758647
11
273.4605257484
21
223.6409518647
0
LINE
8
10000_FRONT
62
7
6
CONTINUOUS
10
273.6575337484
20
223.7935578647
11
273.2727467484
21
224.2818518647
0
LINE
8
10000_FRONT
62
7
6
CONTINUOUS
10
273.1188317484
20
224.4771408647
11
272.7340437484
21
224.9654348647
0
LINE
8
10000_FRONT
62
7
6
CONTINUOUS
10
273.1188317484
20
224.5163338647
11
272.7340437484
21
225.0046278647
0
LINE
8
10000_FRONT
62
7
6
CONTINUOUS
10
273.6575337484
20
223.8327028647
11
273.2919067484
21
224.2966768647
0
LINE
8
10000_FRONT
62
7
6
CONTINUOUS
10
273.0305617484
20
225.0303528647
11
273.3347097484
21
224.6443788647
0
LINE
8
10000_FRONT
62
7
6
CONTINUOUS
10
273.5317177484
20
224.7969858647
11
273.3478147484
21
225.0303528647
0
LINE
8
10000_FRONT
62
7
6
CONTINUOUS
10
274.0215627484
20
224.1753668647
11
273.6856327484
21
224.6016488647
0
LINE
8
10000_FRONT
62
7
6
CONTINUOUS
10
274.0215627484
20
224.2145598647
11
273.7047937484
21
224.6165218647
0
LINE
8
10000_FRONT
62
7
6
CONTINUOUS
10
273.5317177484
20
224.8361298647
11
273.3786507484
21
225.0303528647
0
LINE
8
10000_FRONT
62
7
6
CONTINUOUS
10
273.9015117484
20
224.7688868647
11
274.2862987484
21
224.2805928647
0
LINE
8
10000_FRONT
62
7
6
CONTINUOUS
10
274.4833077484
20
224.4331998647
11
274.0127207484
21
225.0303528647
0
LINE
8
10000_FRONT
62
7
6
CONTINUOUS
10
274.4833077484
20
224.4723448647
11
274.0435567484
21
225.0303528647
0
LINE
8
10000_FRONT
62
7
6
CONTINUOUS
10
273.4886247484
20
224.4490898647
11
273.8245537484
21
224.0227598647
0
LINE
8
10000_FRONT
62
7
6
CONTINUOUS
10
274.1237847484
20
224.0278948647
11
274.0215627484
21
224.2145598647
0
LINE
8
10000_FRONT
62
7
6
CONTINUOUS
10
274.1587387484
20
223.8016978647
11
274.0215627484
21
224.1753668647
0
LINE
8
10000_FRONT
62
7
6
CONTINUOUS
10
300.6601737484
20
216.0331308647
11
300.6601737484
21
216.0303698647
0
LINE
8
10000_FRONT
62
7
6
CONTINUOUS
10
302.2501677484
20
217.1303508647
11
302.2501677484
21
225.0304978647
0
LINE
8
10000_FRONT
62
7
6
CONTINUOUS
10
302.2510407484
20
223.6303418647
11
302.2510407484
21
225.0304978647
0
LINE
8
10000_FRONT
62
7
6
CONTINUOUS
10
305.3501727484
20
217.1303508647
11
305.3501727484
21
223.6303418647
0
LINE
8
13000_TOP
62
7
6
CONTINUOUS
10
307.3101787484
20
144.2748338647
11
307.3101787484
21
149.7748378647
0
LINE
8
10000_FRONT
62
7
6
CONTINUOUS
10
309.0101717484
20
216.0331308647
11
309.0101717484
21
217.1305448647
0
LINE
8
13000_TOP
62
7
6
CONTINUOUS
10
309.3101777484
20
146.7748268647
11
309.3101777484
21
149.7748378647
0
LINE
8
13000_TOP
62
7
6
CONTINUOUS
10
309.9101657484
20
42.7748298647
11
309.9101657484
21
28.4454958647
0
LINE
8
10000_FRONT
62
7
6
CONTINUOUS
10
309.9101657484
20
353.7495288647
11
309.9101657484
21
364.0303448647
0
LINE
8
10000_FRONT
62
7
6
CONTINUOUS
10
310.1101777484
20
364.0303448647
11
310.1101777484
21
353.7495288647
0
LINE
8
13000_TOP
62
7
6
CONTINUOUS
10
310.1101777484
20
32.1568968647
11
310.1101777484
21
28.4230408647
0
LINE
8
10000_FRONT
62
7
6
CONTINUOUS
10
310.9001727484
20
225.0304018647
11
310.9001727484
21
217.1303508647
0
LINE
8
13000_TOP
62
7
6
CONTINUOUS
10
311.3101767484
20
146.7748268647
11
311.3101767484
21
149.7748378647
0
LINE
8
13000_TOP
62
7
6
CONTINUOUS
10
313.3101757484
20
146.7748268647
11
313.3101757484
21
149.7748378647
0
LINE
8
13000_TOP
62
7
6
CONTINUOUS
10
315.3101747484
20
146.7748268647
11
315.3101747484
21
149.7748378647
0
LINE
8
10000_FRONT
62
7
6
CONTINUOUS
10
315.5543947484
20
217.0303568647
11
315.5543947484
21
225.0311768647
0
LINE
8
13000_TOP
62
7
6
CONTINUOUS
10
315.6294627484
20
149.7747888647
11
315.6294627484
21
149.9748248647
0
LINE
8
13000_TOP
62
7
6
CONTINUOUS
10
317.3101737484
20
20.9876418647
11
317.3101737484
21
32.1478378647
0
LINE
8
13000_TOP
62
7
6
CONTINUOUS
10
317.3101737484
20
32.1607248647
11
317.3101737484
21
39.0592378647
0
LINE
8
13000_TOP
62
7
6
CONTINUOUS
10
317.3101737484
20
39.0817168647
11
317.3101737484
21
149.7748378647
0
LINE
8
10000_FRONT
62
7
6
CONTINUOUS
10
317.3101737484
20
217.0303568647
11
317.3101737484
21
364.0303448647
0
LINE
8
11000_LEFT
62
7
6
CONTINUOUS
10
499.1503007484
20
352.9882868647
11
498.7954297484
21
352.7235738647
0
LINE
8
11000_LEFT
62
7
6
CONTINUOUS
10
417.2354137484
20
224.5174968647
11
421.2227917484
21
225.7127238647
0
LINE
8
10000_FRONT
62
7
6
CONTINUOUS
10
273.7557837484
20
223.4675608647
11
273.4615427484
21
223.3866548647
0
LINE
8
10000_FRONT
62
7
6
CONTINUOUS
10
272.5101717484
20
225.0303528647
11
266.4688987484
21
223.7450628647
0
LINE
8
10000_FRONT
62
7
6
CONTINUOUS
10
266.4688987484
20
223.7450628647
11
260.3410507484
21
222.8122708647
0
LINE
8
10000_FRONT
62
7
6
CONTINUOUS
10
260.3410507484
20
222.8122708647
11
254.1349377484
21
222.2382268647
0
LINE
8
11000_LEFT
62
7
6
CONTINUOUS
10
430.1163857484
20
227.4594678647
11
435.0019887484
21
227.9061948647
0
LINE
8
10000_FRONT
62
7
6
CONTINUOUS
10
254.1349377484
20
222.2382268647
11
251.0109517484
21
222.0883818647
0
LINE
8
10000_FRONT
62
7
6
CONTINUOUS
10
273.3312947484
20
223.1607968647
11
273.7321177484
21
223.1746518647
0
LINE
8
20000_FRONT_O
62
7
6
CONTINUOUS
10
153.0359717484
20
223.1607968647
11
153.4368067484
21
223.1746518647
0
LINE
8
20000_FRONT_O
62
7
6
CONTINUOUS
10
153.3937257484
20
226.0852788647
11
152.9928907484
21
226.0713748647
0
LINE
8
20000_FRONT_O
62
7
6
CONTINUOUS
10
153.3991697484
20
226.1228738647
11
153.0035847484
21
226.1142988647
0
LINE
8
10000_FRONT
62
7
6
CONTINUOUS
10
251.0109517484
20
222.0883818647
11
247.8116067484
21
222.0307788647
0
LINE
8
20000_FRONT_O
62
7
6
CONTINUOUS
10
178.8648517484
20
216.0303698647
11
180.3648447484
21
216.0303698647
0
LINE
8
10000_FRONT
62
7
6
CONTINUOUS
10
299.1601677484
20
216.0303698647
11
300.6601737484
21
216.0303698647
0
LINE
8
10000_FRONT
62
7
6
CONTINUOUS
10
309.0101717484
20
216.0331308647
11
300.6601737484
21
216.0331308647
0
LINE
8
20000_FRONT_O
62
7
6
CONTINUOUS
10
188.7148437484
20
216.0331308647
11
180.3648447484
21
216.0331308647
0
LINE
8
20000_FRONT_O
62
7
6
CONTINUOUS
10
170.5148467484
20
216.0331308647
11
178.8648517484
21
216.0331308647
0
LINE
8
10000_FRONT
62
7
6
CONTINUOUS
10
290.8101687484
20
216.0331308647
11
299.1601677484
21
216.0331308647
0
LINE
8
20000_FRONT_O
62
7
6
CONTINUOUS
10
170.5148467484
20
216.0440318647
11
188.7148437484
21
216.0440318647
0
LINE
8
10000_FRONT
62
7
6
CONTINUOUS
10
290.8101687484
20
216.0440318647
11
309.0101717484
21
216.0440318647
0
LINE
8
11000_LEFT
62
7
6
CONTINUOUS
10
394.7480997484
20
217.0303568647
11
391.2480957484
21
217.0303568647
0
LINE
8
10000_FRONT
62
7
6
CONTINUOUS
10
317.3101737484
20
217.0303568647
11
309.0096637484
21
217.0303568647
0
LINE
8
10000_FRONT
62
7
6
CONTINUOUS
10
290.8098787484
20
217.0303568647
11
247.5101717484
21
217.0303568647
0
LINE
8
20000_FRONT_O
62
7
6
CONTINUOUS
10
197.0148457484
20
217.0303568647
11
188.7143347484
21
217.0303568647
0
LINE
8
20000_FRONT_O
62
7
6
CONTINUOUS
10
170.5145617484
20
217.0303568647
11
127.2148497484
21
217.0303568647
0
LINE
8
20000_FRONT_O
62
7
6
CONTINUOUS
10
175.4548487484
20
217.1303508647
11
190.6048567484
21
217.1303508647
0
LINE
8
10000_FRONT
62
7
6
CONTINUOUS
10
295.7501777484
20
217.1303508647
11
310.9001727484
21
217.1303508647
0
LINE
8
11000_LEFT
62
7
6
CONTINUOUS
10
472.1400797484
20
217.1303508647
11
498.1400917484
21
217.1303508647
0
LINE
8
20000_FRONT_O
62
7
6
CONTINUOUS
10
138.2148497484
20
219.0795538647
11
156.4148477484
21
219.0795538647
0
LINE
8
10000_FRONT
62
7
6
CONTINUOUS
10
258.5101787484
20
219.0795538647
11
276.7101577484
21
219.0795538647
0
LINE
8
11000_LEFT
62
7
6
CONTINUOUS
10
476.2900687484
20
219.1303258647
11
482.4900777484
21
219.1303258647
0
LINE
8
20000_FRONT_O
62
7
6
CONTINUOUS
10
138.2148497484
20
219.3525988647
11
156.4148477484
21
219.3525988647
0
LINE
8
10000_FRONT
62
7
6
CONTINUOUS
10
258.5101787484
20
219.3525988647
11
276.7101577484
21
219.3525988647
0
LINE
8
20000_FRONT_O
62
7
6
CONTINUOUS
10
146.5648487484
20
220.3795228647
11
148.0648487484
21
220.3795228647
0
LINE
8
10000_FRONT
62
7
6
CONTINUOUS
10
266.8601777484
20
220.3795228647
11
268.3601587484
21
220.3795228647
0
LINE
8
10000_FRONT
62
7
6
CONTINUOUS
10
276.7101577484
20
221.3382338647
11
268.3601587484
21
221.3382338647
0
LINE
8
20000_FRONT_O
62
7
6
CONTINUOUS
10
156.4148477484
20
221.3382338647
11
148.0648487484
21
221.3382338647
0
LINE
8
20000_FRONT_O
62
7
6
CONTINUOUS
10
138.2148497484
20
221.3382338647
11
146.5648487484
21
221.3382338647
0
LINE
8
10000_FRONT
62
7
6
CONTINUOUS
10
258.5101787484
20
221.3382338647
11
266.8601777484
21
221.3382338647
0
LINE
8
10000_FRONT
62
7
6
CONTINUOUS
10
266.8601777484
20
221.4563468647
11
258.5101787484
21
221.4563468647
0
LINE
8
20000_FRONT_O
62
7
6
CONTINUOUS
10
146.5648487484
20
221.4563468647
11
138.2148497484
21
221.4563468647
0
LINE
8
20000_FRONT_O
62
7
6
CONTINUOUS
10
148.0648487484
20
221.4563468647
11
156.4148477484
21
221.4563468647
0
LINE
8
10000_FRONT
62
7
6
CONTINUOUS
10
268.3601587484
20
221.4563468647
11
276.7101577484
21
221.4563468647
0
LINE
8
20000_FRONT_O
62
7
6
CONTINUOUS
10
146.5649517484
20
221.6777478647
11
148.0647457484
21
221.6777478647
0
LINE
8
10000_FRONT
62
7
6
CONTINUOUS
10
266.8602747484
20
221.6777478647
11
268.3600617484
21
221.6777478647
0
LINE
8
20000_FRONT_O
62
7
6
CONTINUOUS
10
138.2148497484
20
221.6785708647
11
146.5648977484
21
221.6785708647
0
LINE
8
20000_FRONT_O
62
7
6
CONTINUOUS
10
148.0647997484
20
221.6785708647
11
156.4148477484
21
221.6785708647
0
LINE
8
10000_FRONT
62
7
6
CONTINUOUS
10
258.5101787484
20
221.6785708647
11
266.8602257484
21
221.6785708647
0
LINE
8
10000_FRONT
62
7
6
CONTINUOUS
10
268.3601107484
20
221.6785708647
11
276.7101577484
21
221.6785708647
0
LINE
8
11000_LEFT
62
7
6
CONTINUOUS
10
482.4900777484
20
221.7803578647
11
476.2900687484
21
221.7803578647
0
LINE
8
10000_FRONT
62
7
6
CONTINUOUS
10
247.8116067484
20
222.0307788647
11
247.5101717484
21
222.0307788647
0
LINE
8
11000_LEFT
62
7
6
CONTINUOUS
10
508.8353207484
20
222.0307778647
11
510.4853167484
21
222.0307778647
0
LINE
8
10000_FRONT
62
7
6
CONTINUOUS
10
275.7101707484
20
222.0976348647
11
259.5101667484
21
222.0976348647
0
LINE
8
20000_FRONT_O
62
7
6
CONTINUOUS
10
155.4148477484
20
222.0976348647
11
139.2148497484
21
222.0976348647
0
LINE
8
10000_FRONT
62
7
6
CONTINUOUS
10
273.7883157484
20
222.6711948647
11
273.2320267484
21
222.6711948647
0
LINE
8
20000_FRONT_O
62
7
6
CONTINUOUS
10
153.4929987484
20
222.6711948647
11
152.9366987484
21
222.6711948647
0
LINE
8
10000_FRONT
62
7
6
CONTINUOUS
10
273.7883157484
20
222.7103878647
11
273.2320267484
21
222.7103878647
0
LINE
8
20000_FRONT_O
62
7
6
CONTINUOUS
10
153.4929987484
20
222.7103878647
11
152.9366987484
21
222.7103878647
0
LINE
8
20000_FRONT_O
62
7
6
CONTINUOUS
10
136.7148507484
20
222.8634308647
11
138.0648467484
21
222.8634308647
0
LINE
8
20000_FRONT_O
62
7
6
CONTINUOUS
10
156.5648497484
20
222.8634308647
11
157.9148467484
21
222.8634308647
0
LINE
8
10000_FRONT
62
7
6
CONTINUOUS
10
276.8601727484
20
222.8634308647
11
278.2101627484
21
222.8634308647
0
LINE
8
10000_FRONT
62
7
6
CONTINUOUS
10
289.3101637484
20
222.8634308647
11
290.6601777484
21
222.8634308647
0
LINE
8
20000_FRONT_O
62
7
6
CONTINUOUS
10
138.2148497484
20
222.8971498647
11
139.2148497484
21
222.8971498647
0
LINE
8
20000_FRONT_O
62
7
6
CONTINUOUS
10
155.4148477484
20
222.8971498647
11
156.4148477484
21
222.8971498647
0
LINE
8
10000_FRONT
62
7
6
CONTINUOUS
10
275.7101707484
20
222.8971498647
11
276.7101577484
21
222.8971498647
0
LINE
8
10000_FRONT
62
7
6
CONTINUOUS
10
290.6601777484
20
223.0808108647
11
289.3101637484
21
223.0808108647
0
LINE
8
20000_FRONT_O
62
7
6
CONTINUOUS
10
138.0648467484
20
223.0808108647
11
136.7148507484
21
223.0808108647
0
LINE
8
20000_FRONT_O
62
7
6
CONTINUOUS
10
156.5648497484
20
223.0808108647
11
157.9148467484
21
223.0808108647
0
LINE
8
10000_FRONT
62
7
6
CONTINUOUS
10
276.8601727484
20
223.0808108647
11
278.2101627484
21
223.0808108647
0
LINE
8
11000_LEFT
62
7
6
CONTINUOUS
10
499.5325937484
20
223.6303418647
11
472.1400797484
21
223.6303418647
0
LINE
8
20000_FRONT_O
62
7
6
CONTINUOUS
10
168.5548517484
20
223.6303418647
11
190.6048567484
21
223.6303418647
0
LINE
8
10000_FRONT
62
7
6
CONTINUOUS
10
288.8501627484
20
223.6303418647
11
310.9001727484
21
223.6303418647
0
LINE
8
20000_FRONT_O
62
7
6
CONTINUOUS
10
168.5548517484
20
223.7236498647
11
190.6048567484
21
223.7236498647
0
LINE
8
10000_FRONT
62
7
6
CONTINUOUS
10
288.8501627484
20
223.7236498647
11
310.9001727484
21
223.7236498647
0
LINE
8
20000_FRONT_O
62
7
6
CONTINUOUS
10
168.5548517484
20
224.3825238647
11
190.6048567484
21
224.3825238647
0
LINE
8
10000_FRONT
62
7
6
CONTINUOUS
10
288.8501627484
20
224.3825238647
11
310.9001727484
21
224.3825238647
0
LINE
8
10000_FRONT
62
7
6
CONTINUOUS
10
317.3101737484
20
225.0303528647
11
272.5101717484
21
225.0303528647
0
LINE
8
11000_LEFT
62
7
6
CONTINUOUS
10
421.4813027484
20
225.7803558647
11
424.7281007484
21
225.7803558647
0
LINE
8
11000_LEFT
62
7
6
CONTINUOUS
10
425.8280817484
20
225.7803558647
11
431.2980967484
21
225.7803558647
0
LINE
8
11000_LEFT
62
7
6
CONTINUOUS
10
432.3980777484
20
225.7803558647
11
437.8680927484
21
225.7803558647
0
LINE
8
11000_LEFT
62
7
6
CONTINUOUS
10
438.9680747484
20
225.7803558647
11
444.4380887484
21
225.7803558647
0
LINE
8
11000_LEFT
62
7
6
CONTINUOUS
10
445.5380707484
20
225.7803558647
11
451.0080857484
21
225.7803558647
0
LINE
8
11000_LEFT
62
7
6
CONTINUOUS
10
452.1081147484
20
225.7803558647
11
457.5780817484
21
225.7803558647
0
LINE
8
11000_LEFT
62
7
6
CONTINUOUS
10
458.6781117484
20
225.7803558647
11
464.1480777484
21
225.7803558647
0
LINE
8
11000_LEFT
62
7
6
CONTINUOUS
10
465.2481077484
20
225.7803558647
11
470.7180737484
21
225.7803558647
0
LINE
8
20000_FRONT_O
62
7
6
CONTINUOUS
10
146.9448287484
20
226.2355608647
11
147.6848687484
21
226.2355608647
0
LINE
8
20000_FRONT_O
62
7
6
CONTINUOUS
10
166.5548527484
20
226.4303648647
11
168.5548517484
21
226.4303648647
0
LINE
8
20000_FRONT_O
62
7
6
CONTINUOUS
10
138.2148497484
20
226.4535218647
11
139.2148497484
21
226.4535218647
0
LINE
8
20000_FRONT_O
62
7
6
CONTINUOUS
10
155.4148477484
20
226.4535218647
11
156.4148477484
21
226.4535218647
0
LINE
8
20000_FRONT_O
62
7
6
CONTINUOUS
10
152.9366987484
20
226.5748318647
11
153.4929987484
21
226.5748318647
0
LINE
8
20000_FRONT_O
62
7
6
CONTINUOUS
10
138.0648467484
20
227.9062428647
11
136.7148507484
21
227.9062428647
0
LINE
8
20000_FRONT_O
62
7
6
CONTINUOUS
10
156.5648497484
20
227.9062428647
11
157.9148467484
21
227.9062428647
0
LINE
8
20000_FRONT_O
62
7
6
CONTINUOUS
10
166.5548527484
20
228.2303518647
11
168.5548517484
21
228.2303518647
0
LINE
8
20000_FRONT_O
62
7
6
CONTINUOUS
10
143.0722087484
20
230.8908478647
11
139.2148497484
21
230.8908958647
0
LINE
8
20000_FRONT_O
62
7
6
CONTINUOUS
10
155.4148477484
20
230.8908958647
11
151.5574887484
21
230.8908478647
0
LINE
8
20000_FRONT_O
62
7
6
CONTINUOUS
10
138.0648467484
20
230.9016998647
11
136.7148507484
21
230.9016998647
0
LINE
8
20000_FRONT_O
62
7
6
CONTINUOUS
10
156.5648497484
20
230.9016998647
11
157.9148467484
21
230.9016998647
0
LINE
8
20000_FRONT_O
62
7
6
CONTINUOUS
10
147.6848687484
20
231.3385918647
11
146.9448287484
21
231.3385918647
0
LINE
8
11000_LEFT
62
7
6
CONTINUOUS
10
490.5481127484
20
232.0303128647
11
438.7480777484
21
232.0303128647
0
LINE
8
20000_FRONT_O
62
7
6
CONTINUOUS
10
127.2148497484
20
232.0303618647
11
168.5548767484
21
232.0303618647
0
LINE
8
20000_FRONT_O
62
7
6
CONTINUOUS
10
190.6048327484
20
232.0303618647
11
197.0148457484
21
232.0303618647
0
LINE
8
11000_LEFT
62
7
6
CONTINUOUS
10
490.5479677484
20
232.9303548647
11
490.6851207484
21
232.9303548647
0
LINE
8
11000_LEFT
62
7
6
CONTINUOUS
10
411.6461237484
20
222.9202108647
11
412.4990747484
21
222.8809198647
0
LINE
8
11000_LEFT
62
7
6
CONTINUOUS
10
471.8180547484
20
219.5315608647
11
472.1400797484
21
219.5090328647
0
LINE
8
20000_FRONT_O
62
7
6
CONTINUOUS
10
188.9970817484
20
263.5814878647
11
188.6585727484
21
263.6749898647
0
LINE
8
20000_FRONT_O
62
7
6
CONTINUOUS
10
189.0558957484
20
264.5653418647
11
189.2212437484
21
264.5146188647
0
LINE
8
20000_FRONT_O
62
7
6
CONTINUOUS
10
189.2212437484
20
264.5146188647
11
189.3760317484
21
264.4526558647
0
LINE
8
20000_FRONT_O
62
7
6
CONTINUOUS
10
175.9171387484
20
332.1195508647
11
175.7995227484
21
332.2120358647
0
LINE
8
20000_FRONT_O
62
7
6
CONTINUOUS
10
173.8211187484
20
326.2982498647
11
174.2203677484
21
325.9724938647
0
LINE
8
20000_FRONT_O
62
7
6
CONTINUOUS
10
174.1986997484
20
328.9418378647
11
174.2906997484
21
328.8659708647
0
LINE
8
20000_FRONT_O
62
7
6
CONTINUOUS
10
176.0919947484
20
333.1585378647
11
175.7018057484
21
333.4811448647
0
LINE
8
20000_FRONT_O
62
7
6
CONTINUOUS
10
173.1172677484
20
327.0996058647
11
173.4557277484
21
326.8052918647
0
LINE
8
20000_FRONT_O
62
7
6
CONTINUOUS
10
176.7153697484
20
332.4372638647
11
176.5485197484
21
332.5833308647
0
LINE
8
20000_FRONT_O
62
7
6
CONTINUOUS
10
175.9820207484
20
332.0589448647
11
175.9171387484
21
332.1195508647
0
LINE
8
13000_TOP
62
7
6
CONTINUOUS
10
308.2394097484
20
149.9748248647
11
308.1626217484
21
149.7747888647
0
LINE
8
11000_LEFT
62
7
6
CONTINUOUS
10
389.0407207484
20
346.5534568647
11
388.8234617484
21
346.0125978647
0
LINE
8
11000_LEFT
62
7
6
CONTINUOUS
10
499.4670937484
20
353.2991688647
11
499.1503007484
21
352.9882868647
0
LINE
8
11000_LEFT
62
7
6
CONTINUOUS
10
413.3290387484
20
223.0808108647
11
417.2354137484
21
224.5174968647
0
LINE
8
20000_FRONT_O
62
7
6
CONTINUOUS
10
147.3147187484
20
227.9061948647
11
148.1050227484
21
228.0280868647
0
LINE
8
20000_FRONT_O
62
7
6
CONTINUOUS
10
133.4157487484
20
233.5702868647
11
128.8657477484
21
233.5702868647
0
LINE
8
20000_FRONT_O
62
7
6
CONTINUOUS
10
190.8148487484
20
233.5702868647
11
195.3639527484
21
233.5702868647
0
LINE
8
20000_FRONT_O
62
7
6
CONTINUOUS
10
190.8148487484
20
233.8474988647
11
195.3639527484
21
233.8474988647
0
LINE
8
20000_FRONT_O
62
7
6
CONTINUOUS
10
133.4157487484
20
234.7272898647
11
128.8657477484
21
234.7272898647
0
LINE
8
20000_FRONT_O
62
7
6
CONTINUOUS
10
190.8148487484
20
234.7272898647
11
195.3639527484
21
234.7272898647
0
LINE
8
20000_FRONT_O
62
7
6
CONTINUOUS
10
133.4157487484
20
235.7916148647
11
128.8657477484
21
235.7916148647
0
LINE
8
20000_FRONT_O
62
7
6
CONTINUOUS
10
190.8148487484
20
235.7916148647
11
195.3639527484
21
235.7916148647
0
LINE
8
11000_LEFT
62
7
6
CONTINUOUS
10
506.8246387484
20
236.6419498647
11
490.6853137484
21
236.6419498647
0
LINE
8
11000_LEFT
62
7
6
CONTINUOUS
10
497.6435137484
20
237.0302018647
11
490.5481127484
21
237.0302018647
0
LINE
8
20000_FRONT_O
62
7
6
CONTINUOUS
10
128.8657477484
20
237.0302498647
11
127.2148497484
21
237.0302498647
0
LINE
8
20000_FRONT_O
62
7
6
CONTINUOUS
10
195.3639527484
20
237.0302498647
11
197.0148457484
21
237.0302498647
0
LINE
8
11000_LEFT
62
7
6
CONTINUOUS
10
490.6853137484
20
234.7727328647
11
490.5481127484
21
234.7755908647
0
LINE
8
11000_LEFT
62
7
6
CONTINUOUS
10
490.6853137484
20
232.2790868647
11
502.0828257484
21
231.9806548647
0
LINE
8
11000_LEFT
62
7
6
CONTINUOUS
10
502.0828257484
20
231.9806548647
11
503.4794457484
21
231.8389968647
0
LINE
8
20000_FRONT_O
62
7
6
CONTINUOUS
10
188.7214567484
20
264.6230908647
11
188.8880527484
21
264.6016288647
0
LINE
8
11000_LEFT
62
7
6
CONTINUOUS
10
406.6214547484
20
224.4692918647
11
409.8235597484
21
224.0477578647
0
LINE
8
11000_LEFT
62
7
6
CONTINUOUS
10
457.5780817484
20
218.4760048647
11
452.1081147484
21
219.1961158647
0
LINE
8
11000_LEFT
62
7
6
CONTINUOUS
10
464.1480777484
20
217.6110388647
11
458.6781117484
21
218.3311978647
0
LINE
8
11000_LEFT
62
7
6
CONTINUOUS
10
470.7180737484
20
216.7460718647
11
465.2481077484
21
217.4662318647
0
LINE
8
11000_LEFT
62
7
6
CONTINUOUS
10
425.8280817484
20
224.0219358647
11
431.2980967484
21
223.3018248647
0
LINE
8
11000_LEFT
62
7
6
CONTINUOUS
10
419.2580857484
20
224.8869028647
11
424.7281007484
21
224.1667908647
0
LINE
8
11000_LEFT
62
7
6
CONTINUOUS
10
438.9680747484
20
222.2920508647
11
444.4380887484
21
221.5718918647
0
LINE
8
11000_LEFT
62
7
6
CONTINUOUS
10
432.3980777484
20
223.1570178647
11
437.8680927484
21
222.4368578647
0
LINE
8
11000_LEFT
62
7
6
CONTINUOUS
10
445.5380707484
20
221.4270848647
11
451.0080857484
21
220.7069248647
0
LINE
8
11000_LEFT
62
7
6
CONTINUOUS
10
452.1081147484
20
225.6360818647
11
452.1433847484
21
225.6314308647
0
LINE
8
20000_FRONT_O
62
7
6
CONTINUOUS
10
188.8880527484
20
264.6016288647
11
189.0558957484
21
264.5653418647
0
LINE
8
20000_FRONT_O
62
7
6
CONTINUOUS
10
188.0992807484
20
261.6843648647
11
188.5548487484
21
261.5803498647
0
LINE
8
20000_FRONT_O
62
7
6
CONTINUOUS
10
175.7995227484
20
332.2120358647
11
175.6970457484
21
332.2780198647
0
LINE
8
20000_FRONT_O
62
7
6
CONTINUOUS
10
174.2906997484
20
328.8659708647
11
174.3796847484
21
328.8066238647
0
LINE
8
20000_FRONT_O
62
7
6
CONTINUOUS
10
173.4557277484
20
326.8052918647
11
173.5573147484
21
326.7354808647
0
LINE
8
20000_FRONT_O
62
7
6
CONTINUOUS
10
176.4599837484
20
332.6510108647
11
176.3523837484
21
332.7252308647
0
LINE
8
20000_FRONT_O
62
7
6
CONTINUOUS
10
173.9176727484
20
330.0751028647
11
174.3115317484
21
329.7981328647
0
LINE
8
20000_FRONT_O
62
7
6
CONTINUOUS
10
176.5485197484
20
332.5833308647
11
176.4599837484
21
332.6510108647
0
LINE
8
11000_LEFT
62
7
6
CONTINUOUS
10
435.8319287484
20
228.0731908647
11
436.5832877484
21
228.4628468647
0
LINE
8
11000_LEFT
62
7
6
CONTINUOUS
10
504.6400827484
20
225.3018968647
11
499.5325937484
21
223.6303418647
0
LINE
8
11000_LEFT
62
7
6
CONTINUOUS
10
506.6534767484
20
224.3825238647
11
504.6400827484
21
223.7236008647
0
LINE
8
20000_FRONT_O
62
7
6
CONTINUOUS
10
153.4604677484
20
223.4675608647
11
153.1662267484
21
223.3866548647
0
LINE
8
20000_FRONT_O
62
7
6
CONTINUOUS
10
152.9692247484
20
225.7784658647
11
153.2634707484
21
225.8593718647
0
LINE
8
11000_LEFT
62
7
6
CONTINUOUS
10
391.2480467484
20
292.4818068647
11
384.3481047484
21
291.2651658647
0
LINE
8
20000_FRONT_O
62
7
6
CONTINUOUS
10
177.7523347484
20
258.8959698647
11
178.5548537484
21
258.9912158647
0
LINE
8
20000_FRONT_O
62
7
6
CONTINUOUS
10
177.7760247484
20
258.8927718647
11
178.5548537484
21
258.9805088647
0
LINE
8
20000_FRONT_O
62
7
6
CONTINUOUS
10
188.7557447484
20
260.6408728647
11
188.5548487484
21
260.6304078647
0
LINE
8
20000_FRONT_O
62
7
6
CONTINUOUS
10
190.8148727484
20
255.9803528647
11
190.6048567484
21
255.9803528647
0
LINE
8
20000_FRONT_O
62
7
6
CONTINUOUS
10
190.8148727484
20
257.7803398647
11
190.6048567484
21
257.7803398647
0
LINE
8
20000_FRONT_O
62
7
6
CONTINUOUS
10
178.5548537484
20
258.9803638647
11
181.9548517484
21
258.9803638647
0
LINE
8
20000_FRONT_O
62
7
6
CONTINUOUS
10
178.5548537484
20
258.9805088647
11
181.9557237484
21
258.9805088647
0
LINE
8
20000_FRONT_O
62
7
6
CONTINUOUS
10
168.4137267484
20
259.9803508647
11
168.5548517484
21
259.9803508647
0
LINE
8
20000_FRONT_O
62
7
6
CONTINUOUS
10
190.6048567484
20
260.5303658647
11
181.9548517484
21
260.5303658647
0
LINE
8
20000_FRONT_O
62
7
6
CONTINUOUS
10
181.9557237484
20
260.6303598647
11
188.5548487484
21
260.6303598647
0
LINE
8
20000_FRONT_O
62
7
6
CONTINUOUS
10
168.4137267484
20
261.7803868647
11
168.5548517484
21
261.7803868647
0
LINE
8
20000_FRONT_O
62
7
6
CONTINUOUS
10
190.5560347484
20
262.5803858647
11
190.6048567484
21
262.5803858647
0
LINE
8
20000_FRONT_O
62
7
6
CONTINUOUS
10
188.6399567484
20
264.6303578647
11
188.5761047484
21
264.6303578647
0
LINE
8
20000_FRONT_O
62
7
6
CONTINUOUS
10
168.5548517484
20
264.6303578647
11
188.5548487484
21
264.6303578647
0
LINE
8
20000_FRONT_O
62
7
6
CONTINUOUS
10
168.4137517484
20
264.7303518647
11
170.8551177484
21
264.7303518647
0
LINE
8
20000_FRONT_O
62
7
6
CONTINUOUS
10
178.2547867484
20
264.7303518647
11
190.8148487484
21
264.7303518647
0
LINE
8
20000_FRONT_O
62
7
6
CONTINUOUS
10
178.2548477484
20
266.1303628647
11
170.8548507484
21
266.1303628647
0
LINE
8
11000_LEFT
62
7
6
CONTINUOUS
10
391.2480957484
20
254.2701378647
11
387.3480917484
21
254.3041468647
0
LINE
8
11000_LEFT
62
7
6
CONTINUOUS
10
384.3481047484
20
254.3303568647
11
387.3480917484
21
254.3041468647
0
LINE
8
20000_FRONT_O
62
7
6
CONTINUOUS
10
188.5548487484
20
264.6302608647
11
188.7214567484
21
264.6230908647
0
LINE
8
20000_FRONT_O
62
7
6
CONTINUOUS
10
188.6585727484
20
263.6749898647
11
188.5548487484
21
263.6803188647
0
LINE
8
11000_LEFT
62
7
6
CONTINUOUS
10
498.0734777484
20
239.1927148647
11
506.9114547484
21
237.6343318647
0
LINE
8
11000_LEFT
62
7
6
CONTINUOUS
10
410.8383237484
20
223.1920448647
11
411.6461237484
21
222.9202108647
0
LINE
8
20000_FRONT_O
62
7
6
CONTINUOUS
10
175.5881737484
20
332.3359138647
11
175.4788297484
21
332.3831008647
0
LINE
8
20000_FRONT_O
62
7
6
CONTINUOUS
10
174.4679177484
20
328.7588548647
11
174.5533167484
21
328.7216478647
0
LINE
8
20000_FRONT_O
62
7
6
CONTINUOUS
10
175.6970457484
20
332.2780198647
11
175.5881737484
21
332.3359138647
0
LINE
8
20000_FRONT_O
62
7
6
CONTINUOUS
10
174.3796847484
20
328.8066238647
11
174.4679177484
21
328.7588548647
0
LINE
8
11000_LEFT
62
7
6
CONTINUOUS
10
381.5480817484
20
342.0303318647
11
381.5480817484
21
337.5144248647
0
LINE
8
11000_LEFT
62
7
6
CONTINUOUS
10
381.7480937484
20
357.1303308647
11
381.7480937484
21
361.7303398647
0
LINE
8
11000_LEFT
62
7
6
CONTINUOUS
10
388.8234617484
20
346.0125978647
11
388.7481027484
21
345.4345328647
0
LINE
8
11000_LEFT
62
7
6
CONTINUOUS
10
499.5786667484
20
363.9212918647
11
499.3954897484
21
363.6441768647
0
LINE
8
11000_LEFT
62
7
6
CONTINUOUS
10
500.5430457484
20
360.2026238647
11
500.4488657484
21
360.0784058647
0
LINE
8
11000_LEFT
62
7
6
CONTINUOUS
10
499.8819427484
20
353.8165788647
11
499.4670937484
21
353.2991688647
0
LINE
8
11000_LEFT
62
7
6
CONTINUOUS
10
436.5832877484
20
228.4628468647
11
437.1947327484
21
229.0457088647
0
LINE
8
20000_FRONT_O
62
7
6
CONTINUOUS
10
189.2475987484
20
260.7556428647
11
188.9246297484
21
260.6657258647
0
LINE
8
20000_FRONT_O
62
7
6
CONTINUOUS
10
188.5548487484
20
263.6803668647
11
188.0992807484
21
263.5764008647
0
LINE
8
20000_FRONT_O
62
7
6
CONTINUOUS
10
188.5548487484
20
261.5804468647
11
188.9041967484
21
261.6414418647
0
LINE
8
20000_FRONT_O
62
7
6
CONTINUOUS
10
188.9246297484
20
260.6657258647
11
188.7557447484
21
260.6408728647
0
LINE
8
20000_FRONT_O
62
7
6
CONTINUOUS
10
168.4137517484
20
280.6739038647
11
190.8148487484
21
280.6739038647
0
LINE
8
11000_LEFT
62
7
6
CONTINUOUS
10
503.4794457484
20
231.8389968647
11
504.8884687484
21
231.4651828647
0
LINE
8
20000_FRONT_O
62
7
6
CONTINUOUS
10
174.3115317484
20
329.7981328647
11
174.7736887484
21
329.6625308647
0
LINE
8
20000_FRONT_O
62
7
6
CONTINUOUS
10
174.5533167484
20
328.7216478647
11
174.7339387484
21
328.6685988647
0
LINE
8
20000_FRONT_O
62
7
6
CONTINUOUS
10
175.4788297484
20
332.3831008647
11
175.2769407484
21
332.4449188647
0
LINE
8
20000_FRONT_O
62
7
6
CONTINUOUS
10
174.2203677484
20
325.9724938647
11
174.7004137484
21
325.8021078647
0
LINE
8
20000_FRONT_O
62
7
6
CONTINUOUS
10
175.7018057484
20
333.4811448647
11
175.2270287484
21
333.6554558647
0
LINE
8
11000_LEFT
62
7
6
CONTINUOUS
10
410.1736117484
20
223.6567938647
11
410.8383237484
21
223.1920448647
0
LINE
8
90000_FRAME
62
7
6
CONTINUOUS
10
482.9491910000
20
21.5500140000
11
484.6366010000
21
18.6029870000
0
LINE
8
90000_FRAME
62
7
6
CONTINUOUS
10
484.0662090000
20
16.7967450000
11
482.3550320000
21
19.8388370000
0
LINE
8
90000_FRAME
62
7
6
CONTINUOUS
10
472.3969330000
20
16.7492120000
11
471.0660180000
21
19.8388370000
0
LINE
8
11000_LEFT
62
7
6
CONTINUOUS
10
384.3481047484
20
291.2651658647
11
384.3481047484
21
254.3303568647
0
LINE
8
11000_LEFT
62
7
6
CONTINUOUS
10
384.7481047484
20
312.7303278647
11
384.7481047484
21
333.3303298647
0
LINE
8
11000_LEFT
62
7
6
CONTINUOUS
10
386.2480857484
20
359.0303108647
11
386.2480857484
21
357.1303308647
0
LINE
8
11000_LEFT
62
7
6
CONTINUOUS
10
387.3480917484
20
254.3041468647
11
387.3480917484
21
287.2260228647
0
LINE
8
11000_LEFT
62
7
6
CONTINUOUS
10
388.7481027484
20
345.4345328647
11
388.7481027484
21
345.0303428647
0
LINE
8
11000_LEFT
62
7
6
CONTINUOUS
10
388.8980937484
20
292.0674418647
11
388.8980937484
21
312.2834078647
0
LINE
8
11000_LEFT
62
7
6
CONTINUOUS
10
391.2480957484
20
217.0303568647
11
391.2480957484
21
254.2701378647
0
LINE
8
11000_LEFT
62
7
6
CONTINUOUS
10
391.2480957484
20
292.4818068647
11
391.2480957484
21
356.5303188647
0
LINE
8
11000_LEFT
62
7
6
CONTINUOUS
10
394.2508917484
20
293.0095358647
11
394.2508187484
21
311.7069408647
0
LINE
8
11000_LEFT
62
7
6
CONTINUOUS
10
398.4480917484
20
219.7022378647
11
398.4480917484
21
219.0795048647
0
LINE
8
11000_LEFT
62
7
6
CONTINUOUS
10
399.5480977484
20
219.3525508647
11
399.5480977484
21
220.4301978647
0
LINE
8
11000_LEFT
62
7
6
CONTINUOUS
10
500.4488657484
20
360.0784058647
11
500.3868047484
21
359.9757958647
0
LINE
8
11000_LEFT
62
7
6
CONTINUOUS
10
497.6666227484
20
353.8235068647
11
497.8236867484
21
354.0795958647
0
LINE
8
20000_FRONT_O
62
7
6
CONTINUOUS
10
180.4333967484
20
300.5387278647
11
190.4332827484
21
300.5387278647
0
LINE
8
20000_FRONT_O
62
7
6
CONTINUOUS
10
190.4332827484
20
300.5453158647
11
180.4333967484
21
300.5453158647
0
LINE
8
20000_FRONT_O
62
7
6
CONTINUOUS
10
180.4333967484
20
310.4996988647
11
190.4332827484
21
310.4996988647
0
LINE
8
20000_FRONT_O
62
7
6
CONTINUOUS
10
130.3648507484
20
314.4802698647
11
193.8648437484
21
314.4802698647
0
LINE
8
20000_FRONT_O
62
7
6
CONTINUOUS
10
174.7339387484
20
328.6685988647
11
174.8280827484
21
328.6536288647
0
LINE
8
20000_FRONT_O
62
7
6
CONTINUOUS
10
175.2769407484
20
332.4449188647
11
175.1260167484
21
332.4715158647
0
LINE
8
11000_LEFT
62
7
6
CONTINUOUS
10
409.6595677484
20
224.2876168647
11
410.1736117484
21
223.6567938647
0
LINE
8
90000_FRAME
62
7
6
CONTINUOUS
10
471.8265410000
20
21.5500140000
11
473.0623910000
21
18.6505200000
0
LINE
8
11000_LEFT
62
7
6
CONTINUOUS
10
405.0180877484
20
221.3346478647
11
405.0180877484
21
223.6450688647
0
LINE
8
11000_LEFT
62
7
6
CONTINUOUS
10
406.1180937484
20
221.4534398647
11
406.1180937484
21
224.2160128647
0
LINE
8
11000_LEFT
62
7
6
CONTINUOUS
10
411.5880837484
20
221.7018258647
11
411.5880837484
21
222.9317888647
0
LINE
8
11000_LEFT
62
7
6
CONTINUOUS
10
412.6880897484
20
221.7059438647
11
412.6880897484
21
222.9051918647
0
LINE
8
11000_LEFT
62
7
6
CONTINUOUS
10
418.1581047484
20
221.6032368647
11
418.1581047484
21
224.8177688647
0
LINE
8
11000_LEFT
62
7
6
CONTINUOUS
10
419.2580857484
20
221.5577938647
11
419.2580857484
21
225.1566538647
0
LINE
8
91000_TIP
62
7
6
CONTINUOUS
10
422.7797810000
20
20.8043440000
11
422.7797810000
21
15.8043440000
0
LINE
8
11000_LEFT
62
7
6
CONTINUOUS
10
497.5499627484
20
353.5553068647
11
497.6666227484
21
353.8235068647
0
LINE
8
11000_LEFT
62
7
6
CONTINUOUS
10
497.8236867484
20
354.0795958647
11
498.0766747484
21
354.6139138647
0
LINE
8
11000_LEFT
62
7
6
CONTINUOUS
10
437.1947327484
20
229.0457088647
11
437.6699457484
21
229.9202678647
0
LINE
8
11000_LEFT
62
7
6
CONTINUOUS
10
500.2036287484
20
354.3975998647
11
499.8819427484
21
353.8165788647
0
LINE
8
11000_LEFT
62
7
6
CONTINUOUS
10
494.9938687484
20
362.3301578647
11
494.4673017484
21
362.2612668647
0
LINE
8
11000_LEFT
62
7
6
CONTINUOUS
10
386.8905607484
20
333.5610818647
11
384.7481047484
21
333.3303298647
0
LINE
8
11000_LEFT
62
7
6
CONTINUOUS
10
389.0620367484
20
333.7949338647
11
386.8905607484
21
333.5610818647
0
LINE
8
11000_LEFT
62
7
6
CONTINUOUS
10
391.2480957484
20
334.0303358647
11
389.0620367484
21
333.7949338647
0
LINE
8
20000_FRONT_O
62
7
6
CONTINUOUS
10
174.9498527484
20
328.6466528647
11
175.0415987484
21
328.6505768647
0
LINE
8
20000_FRONT_O
62
7
6
CONTINUOUS
10
174.9498527484
20
329.6516788647
11
175.0643327484
21
329.6562808647
0
LINE
8
20000_FRONT_O
62
7
6
CONTINUOUS
10
171.6848507484
20
316.7304718647
11
178.4048507484
21
316.7304718647
0
LINE
8
11000_LEFT
62
7
6
CONTINUOUS
10
387.2481697484
20
336.5303288647
11
391.2480957484
21
336.5303288647
0
LINE
8
20000_FRONT_O
62
7
6
CONTINUOUS
10
174.7004137484
20
325.8021078647
11
175.1919287484
21
325.7992008647
0
LINE
8
20000_FRONT_O
62
7
6
CONTINUOUS
10
175.2270287484
20
333.6554558647
11
174.7266587484
21
333.6628678647
0
LINE
8
20000_FRONT_O
62
7
6
CONTINUOUS
10
174.8280827484
20
328.6536288647
11
174.9498527484
21
328.6466528647
0
LINE
8
20000_FRONT_O
62
7
6
CONTINUOUS
10
174.7736887484
20
329.6625308647
11
174.9498527484
21
329.6516788647
0
LINE
8
20000_FRONT_O
62
7
6
CONTINUOUS
10
175.1260167484
20
332.4715158647
11
174.9498527484
21
332.4823678647
0
LINE
8
11000_LEFT
62
7
6
CONTINUOUS
10
384.7481047484
20
312.7303278647
11
386.8905607484
21
312.4996248647
0
LINE
8
11000_LEFT
62
7
6
CONTINUOUS
10
386.8905607484
20
312.4996248647
11
389.0620367484
21
312.2657728647
0
LINE
8
11000_LEFT
62
7
6
CONTINUOUS
10
394.2508187484
20
311.7069408647
11
391.2481197484
21
312.0303218647
0
LINE
8
11000_LEFT
62
7
6
CONTINUOUS
10
389.0620367484
20
312.2657728647
11
391.2480957484
21
312.0303218647
0
LINE
8
11000_LEFT
62
7
6
CONTINUOUS
10
504.8884687484
20
231.4651828647
11
506.2042307484
21
230.8511218647
0
LINE
8
11000_LEFT
62
7
6
CONTINUOUS
10
409.3286287484
20
225.0319028647
11
409.6595677484
21
224.2876168647
0
LINE
8
11000_LEFT
62
7
6
CONTINUOUS
10
409.2287567484
20
225.6983358647
11
409.3286287484
21
225.0319028647
0
LINE
8
11000_LEFT
62
7
6
CONTINUOUS
10
424.7281007484
20
221.2082028647
11
424.7281007484
21
225.7803558647
0
LINE
8
11000_LEFT
62
7
6
CONTINUOUS
10
425.8280817484
20
221.1129568647
11
425.8280817484
21
225.7803558647
0
LINE
8
11000_LEFT
62
7
6
CONTINUOUS
10
431.2980967484
20
220.5143498647
11
431.2980967484
21
225.7803558647
0
LINE
8
11000_LEFT
62
7
6
CONTINUOUS
10
432.3980777484
20
220.3663448647
11
432.3980777484
21
225.7803558647
0
LINE
8
91000_TIP
62
7
6
CONTINUOUS
10
432.7797810000
20
23.3043440000
11
432.7797810000
21
13.3043440000
0
LINE
8
11000_LEFT
62
7
6
CONTINUOUS
10
437.8367477484
20
230.9016518647
11
437.8367477484
21
232.0245478647
0
LINE
8
11000_LEFT
62
7
6
CONTINUOUS
10
437.8680927484
20
219.5173178647
11
437.8680927484
21
225.7803558647
0
LINE
8
11000_LEFT
62
7
6
CONTINUOUS
10
438.9680747484
20
219.3236758647
11
438.9680747484
21
225.7803558647
0
LINE
8
91000_TIP
62
7
6
CENTER
10
439.2797810000
20
12.5828630000
11
439.2797810000
21
23.8662490000
0
LINE
8
11000_LEFT
62
7
6
CONTINUOUS
10
444.4380887484
20
218.2453018647
11
444.4380887484
21
225.7803558647
0
LINE
8
11000_LEFT
62
7
6
CONTINUOUS
10
437.6699457484
20
229.9202678647
11
437.8367477484
21
230.9016518647
0
LINE
8
11000_LEFT
62
7
6
CONTINUOUS
10
492.9509707484
20
362.7183608647
11
492.5462957484
21
361.5647498647
0
LINE
8
20000_FRONT_O
62
7
6
CONTINUOUS
10
175.0415987484
20
328.6505768647
11
175.2245817484
21
328.6822608647
0
LINE
8
20000_FRONT_O
62
7
6
CONTINUOUS
10
174.9498527484
20
332.4823678647
11
174.4934247484
21
332.4089228647
0
LINE
8
20000_FRONT_O
62
7
6
CONTINUOUS
10
175.0643327484
20
329.6562808647
11
175.2933157484
21
329.6930518647
0
LINE
8
20000_FRONT_O
62
7
6
CONTINUOUS
10
178.4048507484
20
342.7302408647
11
171.6848507484
21
342.7302408647
0
LINE
8
20000_FRONT_O
62
7
6
CONTINUOUS
10
130.3648507484
20
344.9803938647
11
193.8648437484
21
344.9803938647
0
LINE
8
11000_LEFT
62
7
6
CONTINUOUS
10
391.2480957484
20
347.8303168647
11
390.7928177484
21
347.8303168647
0
LINE
8
20000_FRONT_O
62
7
6
CONTINUOUS
10
195.3639527484
20
349.3483928647
11
128.8657477484
21
349.3483928647
0
LINE
8
20000_FRONT_O
62
7
6
CONTINUOUS
10
189.6148487484
20
349.3992128647
11
134.6148517484
21
349.3992128647
0
LINE
8
20000_FRONT_O
62
7
6
CONTINUOUS
10
128.8657477484
20
349.3993098647
11
127.2148497484
21
349.3993098647
0
LINE
8
20000_FRONT_O
62
7
6
CONTINUOUS
10
195.3639527484
20
349.3993098647
11
197.0148457484
21
349.3993098647
0
LINE
8
20000_FRONT_O
62
7
6
CONTINUOUS
10
134.6148517484
20
349.4434938647
11
127.2148497484
21
349.4434938647
0
LINE
8
20000_FRONT_O
62
7
6
CONTINUOUS
10
189.6148487484
20
349.4434938647
11
197.0148457484
21
349.4434938647
0
LINE
8
20000_FRONT_O
62
7
6
CONTINUOUS
10
189.6148487484
20
352.6887408647
11
134.6148517484
21
352.6887408647
0
LINE
8
10000_FRONT
62
7
6
CONTINUOUS
10
254.7101687484
20
353.7495288647
11
310.1101777484
21
353.7495288647
0
LINE
8
10000_FRONT
62
7
6
CONTINUOUS
10
309.9101657484
20
354.0364788647
11
254.9101807484
21
354.0364788647
0
LINE
8
10000_FRONT
62
7
6
CONTINUOUS
10
254.9101807484
20
356.3376948647
11
254.7101447484
21
356.3376948647
0
LINE
8
20000_FRONT_O
62
7
6
CONTINUOUS
10
134.6148517484
20
356.3376948647
11
127.2148497484
21
356.3376948647
0
LINE
8
20000_FRONT_O
62
7
6
CONTINUOUS
10
189.6148487484
20
356.3376948647
11
197.0148457484
21
356.3376948647
0
LINE
8
10000_FRONT
62
7
6
CONTINUOUS
10
309.9101657484
20
356.3376948647
11
310.1102017484
21
356.3376948647
0
LINE
8
11000_LEFT
62
7
6
CONTINUOUS
10
386.2480857484
20
357.1303308647
11
381.7480937484
21
357.1303308647
0
LINE
8
20000_FRONT_O
62
7
6
CONTINUOUS
10
127.2148497484
20
357.5303548647
11
134.6148517484
21
357.5303548647
0
LINE
8
20000_FRONT_O
62
7
6
CONTINUOUS
10
189.6148487484
20
357.5303548647
11
197.0148457484
21
357.5303548647
0
LINE
8
10000_FRONT
62
7
6
CONTINUOUS
10
254.7101447484
20
357.5303548647
11
254.9101807484
21
357.5303548647
0
LINE
8
10000_FRONT
62
7
6
CONTINUOUS
10
309.9101657484
20
357.5303548647
11
310.1102017484
21
357.5303548647
0
LINE
8
11000_LEFT
62
7
6
CONTINUOUS
10
497.0224267484
20
349.3935938647
11
496.7030187484
21
349.3991648647
0
LINE
8
11000_LEFT
62
7
6
CONTINUOUS
10
496.6982707484
20
349.3992618647
11
494.1666907484
21
349.4434448647
0
LINE
8
11000_LEFT
62
7
6
CONTINUOUS
10
506.2042307484
20
230.8511218647
11
507.3183097484
21
230.0240398647
0
LINE
8
11000_LEFT
62
7
6
CONTINUOUS
10
445.5380707484
20
218.0561658647
11
445.5380707484
21
225.7803558647
0
LINE
8
90000_FRAME
62
7
6
CONTINUOUS
10
449.0000000000
20
10.0000000000
11
449.0000000000
21
28.0000000000
0
LINE
8
11000_LEFT
62
7
6
CONTINUOUS
10
451.0080857484
20
217.2427958647
11
451.0080857484
21
225.7803558647
0
LINE
8
11000_LEFT
62
7
6
CONTINUOUS
10
452.1081147484
20
217.1046258647
11
452.1081147484
21
225.7803558647
0
LINE
8
11000_LEFT
62
7
6
CONTINUOUS
10
457.5780817484
20
216.5424988647
11
457.5780817484
21
225.7803558647
0
LINE
8
11000_LEFT
62
7
6
CONTINUOUS
10
458.6781117484
20
216.4544718647
11
458.6781117484
21
225.7803558647
0
LINE
8
90000_FRAME
62
7
6
CONTINUOUS
10
458.8025840000
20
16.8918100000
11
458.8025840000
21
17.8424640000
0
LINE
8
90000_FRAME
62
7
6
CONTINUOUS
10
462.1298720000
20
20.5518270000
11
462.1298720000
21
21.5024810000
0
LINE
8
90000_FRAME
62
7
6
CONTINUOUS
10
463.2231240000
20
21.5500140000
11
463.2231240000
21
16.7967450000
0
LINE
8
11000_LEFT
62
7
6
CONTINUOUS
10
464.1480777484
20
216.1401008647
11
464.1480777484
21
225.7803558647
0
LINE
8
90000_FRAME
62
7
6
CONTINUOUS
10
464.6491050000
20
21.5500140000
11
464.6491050000
21
16.7967450000
0
LINE
8
11000_LEFT
62
7
6
CONTINUOUS
10
465.2481077484
20
216.1016348647
11
465.2481077484
21
225.7803558647
0
LINE
8
11000_LEFT
62
7
6
CONTINUOUS
10
452.1081147484
20
225.3634238647
11
452.1359237484
21
225.5748928647
0
LINE
8
11000_LEFT
62
7
6
CONTINUOUS
10
452.1359237484
20
225.5748928647
11
452.1630047484
21
225.7803558647
0
LINE
8
11000_LEFT
62
7
6
CONTINUOUS
10
494.3489957484
20
360.8151828647
11
494.5271337484
21
361.5860658647
0
LINE
8
11000_LEFT
62
7
6
CONTINUOUS
10
500.6365957484
20
360.5181568647
11
500.5430457484
21
360.2026238647
0
LINE
8
11000_LEFT
62
7
6
CONTINUOUS
10
498.0766747484
20
354.6139138647
11
498.2443487484
21
355.1791408647
0
LINE
8
11000_LEFT
62
7
6
CONTINUOUS
10
500.4961487484
20
355.3473968647
11
500.2036287484
21
354.3975998647
0
LINE
8
20000_FRONT_O
62
7
6
CONTINUOUS
10
175.2933157484
20
329.6930518647
11
175.4062687484
21
329.7251238647
0
LINE
8
20000_FRONT_O
62
7
6
CONTINUOUS
10
142.3148477484
20
359.0290998647
11
144.3148467484
21
359.0290998647
0
LINE
8
20000_FRONT_O
62
7
6
CONTINUOUS
10
146.3148457484
20
359.0290998647
11
148.3148507484
21
359.0290998647
0
LINE
8
20000_FRONT_O
62
7
6
CONTINUOUS
10
150.3148507484
20
359.0290998647
11
152.3148497484
21
359.0290998647
0
LINE
8
10000_FRONT
62
7
6
CONTINUOUS
10
262.6101707484
20
359.0290998647
11
264.6101697484
21
359.0290998647
0
LINE
8
10000_FRONT
62
7
6
CONTINUOUS
10
266.6101687484
20
359.0290998647
11
268.6101677484
21
359.0290998647
0
LINE
8
10000_FRONT
62
7
6
CONTINUOUS
10
270.6101667484
20
359.0290998647
11
272.6101657484
21
359.0290998647
0
LINE
8
20000_FRONT_O
62
7
6
CONTINUOUS
10
142.3148477484
20
359.0671788647
11
144.3148467484
21
359.0671788647
0
LINE
8
20000_FRONT_O
62
7
6
CONTINUOUS
10
146.3148457484
20
359.0671788647
11
148.3148507484
21
359.0671788647
0
LINE
8
20000_FRONT_O
62
7
6
CONTINUOUS
10
150.3148507484
20
359.0671788647
11
152.3148497484
21
359.0671788647
0
LINE
8
10000_FRONT
62
7
6
CONTINUOUS
10
262.6101707484
20
359.0671788647
11
264.6101697484
21
359.0671788647
0
LINE
8
10000_FRONT
62
7
6
CONTINUOUS
10
266.6101687484
20
359.0671788647
11
268.6101677484
21
359.0671788647
0
LINE
8
10000_FRONT
62
7
6
CONTINUOUS
10
270.6101667484
20
359.0671788647
11
272.6101657484
21
359.0671788647
0
LINE
8
11000_LEFT
62
7
6
CONTINUOUS
10
387.7480907484
20
360.0303468647
11
387.2480977484
21
360.0303468647
0
LINE
8
10000_FRONT
62
7
6
CONTINUOUS
10
272.6101657484
20
361.0658458647
11
270.6101667484
21
361.0658458647
0
LINE
8
10000_FRONT
62
7
6
CONTINUOUS
10
268.6101677484
20
361.0658458647
11
266.6101687484
21
361.0658458647
0
LINE
8
10000_FRONT
62
7
6
CONTINUOUS
10
264.6101697484
20
361.0658458647
11
262.6101707484
21
361.0658458647
0
LINE
8
20000_FRONT_O
62
7
6
CONTINUOUS
10
152.3148497484
20
361.0658458647
11
150.3148507484
21
361.0658458647
0
LINE
8
20000_FRONT_O
62
7
6
CONTINUOUS
10
148.3148507484
20
361.0658458647
11
146.3148457484
21
361.0658458647
0
LINE
8
20000_FRONT_O
62
7
6
CONTINUOUS
10
144.3148467484
20
361.0658458647
11
142.3148477484
21
361.0658458647
0
LINE
8
10000_FRONT
62
7
6
CONTINUOUS
10
310.1102017484
20
363.5303758647
11
309.9101657484
21
363.5303758647
0
LINE
8
20000_FRONT_O
62
7
6
CONTINUOUS
10
197.0148457484
20
363.5303758647
11
189.6148487484
21
363.5303758647
0
LINE
8
20000_FRONT_O
62
7
6
CONTINUOUS
10
134.6148517484
20
363.5303758647
11
127.2148497484
21
363.5303758647
0
LINE
8
20000_FRONT_O
62
7
6
CONTINUOUS
10
127.2148497484
20
364.0303448647
11
197.0148457484
21
364.0303448647
0
LINE
8
10000_FRONT
62
7
6
CONTINUOUS
10
247.5101717484
20
364.0303448647
11
317.3101737484
21
364.0303448647
0
LINE
8
11000_LEFT
62
7
6
CONTINUOUS
10
384.0480987484
20
364.0303448647
11
501.7978137484
21
364.0303448647
0
LINE
8
11000_LEFT
62
7
6
CONTINUOUS
10
499.9061177484
20
362.2409678647
11
500.0327087484
21
362.2358808647
0
LINE
8
11000_LEFT
62
7
6
CONTINUOUS
10
497.4236627484
20
357.5168378647
11
496.9809087484
21
357.5510898647
0
LINE
8
11000_LEFT
62
7
6
CONTINUOUS
10
494.5238397484
20
349.9197238647
11
497.0026607484
21
349.7028768647
0
LINE
8
90000_FRAME
62
7
6
CONTINUOUS
10
465.7423570000
20
21.5500140000
11
465.7423570000
21
16.7967450000
0
LINE
8
90000_FRAME
62
7
6
CONTINUOUS
10
467.1208050000
20
20.6706590000
11
467.1208050000
21
19.6011730000
0
LINE
8
90000_FRAME
62
7
6
CONTINUOUS
10
467.1208050000
20
18.8168840000
11
467.1208050000
21
17.6998660000
0
LINE
8
90000_FRAME
62
7
6
CONTINUOUS
10
468.9745800000
20
19.6011730000
11
468.9745800000
21
18.8168840000
0
LINE
8
90000_FRAME
62
7
6
CONTINUOUS
10
469.2597760000
20
21.5500140000
11
469.2597760000
21
20.6706590000
0
LINE
8
90000_FRAME
62
7
6
CONTINUOUS
10
469.3073090000
20
17.6998660000
11
469.3073090000
21
16.7967450000
0
LINE
8
90000_FRAME
62
7
6
CONTINUOUS
10
470.1153640000
20
16.7967450000
11
470.1153640000
21
21.5500140000
0
LINE
8
11000_LEFT
62
7
6
CONTINUOUS
10
470.7180737484
20
216.0330828647
11
470.7180737484
21
225.7803558647
0
LINE
8
90000_FRAME
62
7
6
CONTINUOUS
10
471.0660180000
20
16.7967450000
11
471.0660180000
21
19.8388370000
0
LINE
8
11000_LEFT
62
7
6
CONTINUOUS
10
471.8181037484
20
216.0439828647
11
471.8181037484
21
232.0300708647
0
LINE
8
11000_LEFT
62
7
6
CONTINUOUS
10
472.1400797484
20
217.1303508647
11
472.1400797484
21
232.0308458647
0
LINE
8
90000_FRAME
62
7
6
CONTINUOUS
10
474.5834370000
20
19.8863700000
11
474.5834370000
21
16.7967450000
0
LINE
8
90000_FRAME
62
7
6
CONTINUOUS
10
475.9618850000
20
21.5500140000
11
475.9618850000
21
16.7967450000
0
LINE
8
11000_LEFT
62
7
6
CONTINUOUS
10
476.2900687484
20
221.7803578647
11
476.2900687484
21
219.1303258647
0
LINE
8
90000_FRAME
62
7
6
CONTINUOUS
10
477.0551370000
20
21.5500140000
11
477.0551370000
21
16.7967450000
0
LINE
8
11000_LEFT
62
7
6
CONTINUOUS
10
477.2901047484
20
219.1303258647
11
477.2901047484
21
221.7803088647
0
LINE
8
90000_FRAME
62
7
6
CONTINUOUS
10
478.4335850000
20
20.6706590000
11
478.4335850000
21
19.6011730000
0
LINE
8
90000_FRAME
62
7
6
CONTINUOUS
10
478.4335850000
20
18.8168840000
11
478.4335850000
21
17.6998660000
0
LINE
8
90000_FRAME
62
7
6
CONTINUOUS
10
480.2873600000
20
19.6011730000
11
480.2873600000
21
18.8168840000
0
LINE
8
90000_FRAME
62
7
6
CONTINUOUS
10
480.5725560000
20
21.5500140000
11
480.5725560000
21
20.6706590000
0
LINE
8
90000_FRAME
62
7
6
CONTINUOUS
10
480.6200890000
20
17.6998660000
11
480.6200890000
21
16.7967450000
0
LINE
8
90000_FRAME
62
7
6
CONTINUOUS
10
481.4043780000
20
16.7967450000
11
481.4043780000
21
21.5500140000
0
LINE
8
11000_LEFT
62
7
6
CONTINUOUS
10
481.4900907484
20
221.7803088647
11
481.4900907484
21
219.1303258647
0
LINE
8
90000_FRAME
62
7
6
CONTINUOUS
10
482.3550320000
20
16.7967450000
11
482.3550320000
21
19.8388370000
0
LINE
8
11000_LEFT
62
7
6
CONTINUOUS
10
482.4900777484
20
219.1303258647
11
482.4900777484
21
221.7803578647
0
LINE
8
90000_FRAME
62
7
6
CONTINUOUS
10
484.6366010000
20
21.5500140000
11
484.6366010000
21
18.6029870000
0
LINE
8
90000_FRAME
62
7
6
CONTINUOUS
10
485.5872550000
20
21.5500140000
11
485.5872550000
21
16.7967450000
0
LINE
8
11000_LEFT
62
7
6
CONTINUOUS
10
495.4687427484
20
363.3165808647
11
495.4275147484
21
362.7871068647
0
LINE
8
11000_LEFT
62
7
6
CONTINUOUS
10
492.5462957484
20
361.5647498647
11
492.4464467484
21
360.3452498647
0
LINE
8
11000_LEFT
62
7
6
CONTINUOUS
10
500.6099017484
20
356.3374528647
11
500.4961487484
21
355.3473968647
0
LINE
8
11000_LEFT
62
7
6
CONTINUOUS
10
499.3954897484
20
363.6441768647
11
499.3645327484
21
363.3983098647
0
LINE
8
11000_LEFT
62
7
6
CONTINUOUS
10
496.9809087484
20
357.5510898647
11
496.5488607484
21
357.6352418647
0
LINE
8
11000_LEFT
62
7
6
CONTINUOUS
10
498.3809687484
20
352.5765868647
11
497.9485817484
21
352.6722208647
0
LINE
8
11000_LEFT
62
7
6
CONTINUOUS
10
507.3183097484
20
230.0240398647
11
508.1778507484
21
228.9955658647
0
LINE
8
11000_LEFT
62
7
6
CONTINUOUS
10
494.3663877484
20
351.8364678647
11
494.5238397484
21
349.9197238647
0
LINE
8
11000_LEFT
62
7
6
CONTINUOUS
10
499.7231827484
20
362.7654518647
11
499.7344707484
21
362.5166298647
0
LINE
8
11000_LEFT
62
7
6
CONTINUOUS
10
494.3769487484
20
360.0324298647
11
494.3489957484
21
360.8151828647
0
LINE
8
11000_LEFT
62
7
6
CONTINUOUS
10
500.6256957484
20
360.8511788647
11
500.6365957484
21
360.5181568647
0
LINE
8
11000_LEFT
62
7
6
CONTINUOUS
10
506.5739277484
20
230.6159128647
11
506.6534767484
21
224.3825238647
0
LINE
8
90000_FRAME
62
7
6
CONTINUOUS
10
486.3953110000
20
16.8918100000
11
486.3953110000
21
17.8424640000
0
LINE
8
90000_FRAME
62
7
6
CONTINUOUS
10
489.7225990000
20
20.5518270000
11
489.7225990000
21
21.5024810000
0
LINE
8
11000_LEFT
62
7
6
CONTINUOUS
10
490.5481127484
20
237.0302018647
11
490.5481127484
21
232.0303128647
0
LINE
8
11000_LEFT
62
7
6
CONTINUOUS
10
490.6853137484
20
236.6419498647
11
490.6853137484
21
232.2790868647
0
LINE
8
11000_LEFT
62
7
6
CONTINUOUS
10
498.1400917484
20
223.6303418647
11
498.1400917484
21
217.1303508647
0
LINE
8
90000_FRAME
62
7
6
CONTINUOUS
10
499.0000000000
20
10.0000000000
11
499.0000000000
21
28.0000000000
0
LINE
8
11000_LEFT
62
7
6
CONTINUOUS
10
504.6400827484
20
223.7236008647
11
504.6400827484
21
225.3018968647
0
LINE
8
11000_LEFT
62
7
6
CONTINUOUS
10
499.7344707484
20
362.5166298647
11
499.7335507484
21
362.3914918647
0
LINE
8
11000_LEFT
62
7
6
CONTINUOUS
10
500.7226857484
20
358.3253158647
11
500.6822327484
21
357.3300278647
0
LINE
8
11000_LEFT
62
7
6
CONTINUOUS
10
497.5367857484
20
353.2611378647
11
497.5499627484
21
353.5553068647
0
LINE
8
11000_LEFT
62
7
6
CONTINUOUS
10
498.2443487484
20
355.1791408647
11
498.3297117484
21
356.3533428647
0
LINE
8
11000_LEFT
62
7
6
CONTINUOUS
10
500.6822327484
20
357.3300278647
11
500.6099017484
21
356.3374528647
0
LINE
8
90000_FRAME
62
7
6
CONTINUOUS
10
589.0000000000
20
415.0000000000
11
5.0000000000
21
415.0000000000
0
LINE
8
90000_FRAME
62
7
6
CONTINUOUS
10
594.0000000000
20
420.0000000000
11
0.0000000000
21
420.0000000000
0
LINE
8
11000_LEFT
62
7
6
CONTINUOUS
10
495.9261277484
20
363.1719188647
11
495.4687427484
21
363.3165808647
0
LINE
8
11000_LEFT
62
7
6
CONTINUOUS
10
497.8356527484
20
357.3759548647
11
497.4236627484
21
357.5168378647
0
LINE
8
11000_LEFT
62
7
6
CONTINUOUS
10
496.5488607484
20
357.6352418647
11
496.1329947484
21
357.7821798647
0
LINE
8
11000_LEFT
62
7
6
CONTINUOUS
10
508.1778507484
20
228.9955658647
11
508.6790797484
21
227.8920968647
0
LINE
8
11000_LEFT
62
7
6
CONTINUOUS
10
500.6580577484
20
359.3174548647
11
500.7226857484
21
358.3253158647
0
LINE
8
11000_LEFT
62
7
6
CONTINUOUS
10
508.8353207484
20
226.8038398647
11
508.8353207484
21
222.0307778647
0
LINE
8
11000_LEFT
62
7
6
CONTINUOUS
10
499.7890707484
20
362.2831648647
11
499.9061177484
21
362.2409678647
0
LINE
8
11000_LEFT
62
7
6
CONTINUOUS
10
496.1329947484
20
357.7821798647
11
495.5330797484
21
358.1320138647
0
LINE
8
11000_LEFT
62
7
6
CONTINUOUS
10
493.4039467484
20
356.8120838647
11
493.7441877484
21
355.6369618647
0
LINE
8
11000_LEFT
62
7
6
CONTINUOUS
10
498.3297117484
20
356.3533428647
11
498.2154747484
21
356.9307788647
0
LINE
8
11000_LEFT
62
7
6
CONTINUOUS
10
493.7441877484
20
355.6369618647
11
494.1170817484
21
353.7469128647
0
LINE
8
11000_LEFT
62
7
6
CONTINUOUS
10
500.5712417484
20
361.1786298647
11
500.6256957484
21
360.8511788647
0
LINE
8
11000_LEFT
62
7
6
CONTINUOUS
10
492.4464467484
20
360.3452498647
11
492.6248757484
21
359.1324368647
0
LINE
8
11000_LEFT
62
7
6
CONTINUOUS
10
508.6790797484
20
227.8920968647
11
508.8353207484
21
226.8038398647
0
LINE
8
11000_LEFT
62
7
6
CONTINUOUS
10
494.1170817484
20
353.7469128647
11
494.3663877484
21
351.8364678647
0
LINE
8
90000_FRAME
62
7
6
CONTINUOUS
10
541.5000000000
20
10.0000000000
11
541.5000000000
21
16.0000000000
0
LINE
8
90000_FRAME
62
7
6
CONTINUOUS
10
474.2507080000
20
21.5500140000
11
473.0623910000
21
18.6505200000
0
LINE
8
90000_FRAME
62
7
6
CONTINUOUS
10
474.5834370000
20
19.8863700000
11
473.2525220000
21
16.7492120000
0
LINE
8
90000_FRAME
62
7
6
CONTINUOUS
10
458.9944120000
20
20.9692080000
11
459.2684780000
21
21.2432810000
0
LINE
8
11000_LEFT
62
7
6
CONTINUOUS
10
500.0327087484
20
362.2358808647
11
500.2387517484
21
362.1165088647
0
LINE
8
11000_LEFT
62
7
6
CONTINUOUS
10
494.3579097484
20
362.2939688647
11
493.7361457484
21
362.8637498647
0
LINE
8
11000_LEFT
62
7
6
CONTINUOUS
10
495.5330797484
20
358.1320138647
11
495.0296227484
21
358.6111508647
0
LINE
8
11000_LEFT
62
7
6
CONTINUOUS
10
497.9485817484
20
352.6722208647
11
497.6339207484
21
352.9797598647
0
LINE
8
11000_LEFT
62
7
6
CONTINUOUS
10
498.2154747484
20
356.9307788647
11
497.8356527484
21
357.3759548647
0
LINE
8
11000_LEFT
62
7
6
CONTINUOUS
10
495.0296227484
20
358.6111508647
11
494.6090567484
21
359.2786488647
0
LINE
8
11000_LEFT
62
7
6
CONTINUOUS
10
492.1526177484
20
357.8910398647
11
489.9361347484
21
361.8896808647
0
LINE
8
11000_LEFT
62
7
6
CONTINUOUS
10
499.7335507484
20
362.3914918647
11
499.7890707484
21
362.2831648647
0
LINE
8
11000_LEFT
62
7
6
CONTINUOUS
10
500.3868047484
20
359.9757958647
11
500.4403387484
21
359.8667428647
0
LINE
8
11000_LEFT
62
7
6
CONTINUOUS
10
500.2387517484
20
362.1165088647
11
500.3508097484
21
361.8578518647
0
LINE
8
11000_LEFT
62
7
6
CONTINUOUS
10
500.3508097484
20
361.8578518647
11
500.4573437484
21
361.6021988647
0
LINE
8
11000_LEFT
62
7
6
CONTINUOUS
10
494.4673017484
20
362.2612668647
11
494.6357027484
21
361.8121178647
0
LINE
8
11000_LEFT
62
7
6
CONTINUOUS
10
492.9898247484
20
357.9646788647
11
493.4039467484
21
356.8120838647
0
LINE
8
11000_LEFT
62
7
6
CONTINUOUS
10
500.4949377484
20
359.7872898647
11
500.6580577484
21
359.3174548647
0
LINE
8
11000_LEFT
62
7
6
CONTINUOUS
10
497.6339207484
20
352.9797598647
11
497.5367857484
21
353.2611378647
0
LINE
8
11000_LEFT
62
7
6
CONTINUOUS
10
492.6248757484
20
359.1324368647
11
492.9898247484
21
357.9646788647
0
LINE
8
11000_LEFT
62
7
6
CONTINUOUS
10
494.6090567484
20
359.2786488647
11
494.3769487484
21
360.0324298647
0
LINE
8
11000_LEFT
62
7
6
CONTINUOUS
10
500.4573437484
20
361.6021988647
11
500.5712417484
21
361.1786298647
0
LINE
8
11000_LEFT
62
7
6
CONTINUOUS
10
499.3645327484
20
363.3983098647
11
499.4232007484
21
363.1543328647
0
LINE
8
11000_LEFT
62
7
6
CONTINUOUS
10
499.4232007484
20
363.1543328647
11
499.5817667484
21
362.9619998647
0
LINE
8
11000_LEFT
62
7
6
CONTINUOUS
10
499.5817667484
20
362.9619998647
11
499.7231827484
21
362.7654518647
0
LINE
8
11000_LEFT
62
7
6
CONTINUOUS
10
500.4403387484
20
359.8667428647
11
500.4949377484
21
359.7872898647
0
LINE
8
90000_FRAME
62
7
6
CONTINUOUS
10
584.0000000000
20
10.0000000000
11
584.0000000000
21
28.0000000000
0
LINE
8
90000_FRAME
62
7
6
CONTINUOUS
10
589.0000000000
20
5.0000000000
11
589.0000000000
21
415.0000000000
0
LINE
8
90000_FRAME
62
7
6
CONTINUOUS
10
594.0000000000
20
0.0000000000
11
594.0000000000
21
420.0000000000
0
CIRCLE
8
91000_TIP
62
7
6
CONTINUOUS
10
439.2797810000
20
18.3043440000
40
5.0000000000
0
CIRCLE
8
91000_TIP
62
7
6
CONTINUOUS
10
439.2797810000
20
18.3043440000
40
2.5000000000
0
ARC
8
90000_FRAME
62
7
6
CONTINUOUS
10
488.0999520000
20
18.7539030000
40
1.1116190000
50
277.7099960000
51
295.6884930000
0
ARC
8
90000_FRAME
62
7
6
CONTINUOUS
10
488.3842620000
20
18.0290770000
40
0.3401690000
50
305.5032210000
51
72.4652900000
0
ARC
8
90000_FRAME
62
7
6
CONTINUOUS
10
487.8182680000
20
21.4307840000
40
4.7567950000
50
252.5939200000
51
280.9816600000
0
ARC
8
90000_FRAME
62
7
6
CONTINUOUS
10
488.2731040000
20
18.8127710000
40
2.1007270000
50
282.4058360000
51
311.8644430000
0
ARC
8
90000_FRAME
62
7
6
CONTINUOUS
10
487.9995390000
20
20.4211120000
40
0.3029630000
50
154.4400350000
51
221.8201700000
0
ARC
8
90000_FRAME
62
7
6
CONTINUOUS
10
488.0787600000
20
20.3418910000
40
0.4103090000
50
102.8287830000
51
149.2259640000
0
ARC
8
90000_FRAME
62
7
6
CONTINUOUS
10
488.4957870000
20
18.5995560000
40
2.2018370000
50
84.0400060000
51
103.3427660000
0
ARC
8
90000_FRAME
62
7
6
CONTINUOUS
10
488.1548230000
20
16.1821920000
40
4.6423740000
50
70.2625860000
51
82.9524190000
0
ARC
8
90000_FRAME
62
7
6
CONTINUOUS
10
487.6408050000
20
20.8538150000
40
3.2587560000
50
247.5300210000
51
280.7579520000
0
ARC
8
90000_FRAME
62
7
6
CONTINUOUS
10
481.2558390000
20
2.6022950000
40
17.3316080000
50
65.3414670000
51
67.3997770000
0
ARC
8
90000_FRAME
62
7
6
CONTINUOUS
10
492.0517010000
20
28.3947210000
40
10.6291640000
50
242.8620100000
51
247.1042030000
0
ARC
8
90000_FRAME
62
7
6
CONTINUOUS
10
488.1968000000
20
20.8607900000
40
2.1662920000
50
227.3119280000
51
242.7040320000
0
ARC
8
90000_FRAME
62
7
6
CONTINUOUS
10
487.5927690000
20
20.1551120000
40
1.2385220000
50
194.7952190000
51
225.7176550000
0
ARC
8
90000_FRAME
62
7
6
CONTINUOUS
10
487.6549270000
20
20.1953320000
40
1.3090920000
50
164.1974860000
51
195.8025140000
0
ARC
8
90000_FRAME
62
7
6
CONTINUOUS
10
488.2119510000
20
19.3070650000
40
2.3669250000
50
86.2218020000
51
120.4272600000
0
ARC
8
90000_FRAME
62
7
6
CONTINUOUS
10
487.9430940000
20
12.6108970000
40
9.0679050000
50
78.6827050000
51
87.3147600000
0
ARC
8
90000_FRAME
62
7
6
CONTINUOUS
10
487.4870250000
20
20.3028400000
40
1.1197470000
50
142.8139180000
51
167.1522950000
0
ARC
8
90000_FRAME
62
7
6
CONTINUOUS
10
487.8323340000
20
19.9962580000
40
1.5805470000
50
121.2140950000
51
141.5254770000
0
ARC
8
90000_FRAME
62
7
6
CONTINUOUS
10
488.4095090000
20
20.8073150000
40
0.8661280000
50
222.7760390000
51
239.0362430000
0
ARC
8
90000_FRAME
62
7
6
CONTINUOUS
10
485.9027990000
20
13.4770430000
40
6.8587740000
50
59.9020270000
51
68.2036480000
0
ARC
8
90000_FRAME
62
7
6
CONTINUOUS
10
489.3112940000
20
22.4029300000
40
2.6987410000
50
240.0482000000
51
251.3779670000
0
ARC
8
90000_FRAME
62
7
6
CONTINUOUS
10
488.6458360000
20
18.2460310000
40
1.4334470000
50
315.8904550000
51
333.5229260000
0
ARC
8
90000_FRAME
62
7
6
CONTINUOUS
10
488.6504750000
20
18.1926240000
40
1.4062290000
50
335.3867970000
51
24.3915120000
0
ARC
8
90000_FRAME
62
7
6
CONTINUOUS
10
488.5782700000
20
18.1147670000
40
1.5047030000
50
25.9562920000
51
59.4834830000
0
ARC
8
90000_FRAME
62
7
6
CONTINUOUS
10
460.5072250000
20
18.7539030000
40
1.1116190000
50
277.7099960000
51
295.6884930000
0
ARC
8
90000_FRAME
62
7
6
CONTINUOUS
10
460.7915350000
20
18.0290770000
40
0.3401690000
50
305.5032210000
51
72.4652900000
0
ARC
8
90000_FRAME
62
7
6
CONTINUOUS
10
460.2255410000
20
21.4307840000
40
4.7567950000
50
252.5939200000
51
280.9816600000
0
ARC
8
90000_FRAME
62
7
6
CONTINUOUS
10
460.6803770000
20
18.8127710000
40
2.1007270000
50
282.4058360000
51
311.8644430000
0
ARC
8
90000_FRAME
62
7
6
CONTINUOUS
10
460.4068120000
20
20.4211120000
40
0.3029630000
50
154.4400350000
51
221.8201700000
0
ARC
8
90000_FRAME
62
7
6
CONTINUOUS
10
460.4860330000
20
20.3418910000
40
0.4103090000
50
102.8287830000
51
149.2259640000
0
ARC
8
90000_FRAME
62
7
6
CONTINUOUS
10
460.9030600000
20
18.5995560000
40
2.2018370000
50
84.0400060000
51
103.3427660000
0
ARC
8
90000_FRAME
62
7
6
CONTINUOUS
10
460.5620960000
20
16.1821920000
40
4.6423740000
50
70.2625860000
51
82.9524190000
0
ARC
8
90000_FRAME
62
7
6
CONTINUOUS
10
460.0480780000
20
20.8538150000
40
3.2587560000
50
247.5300210000
51
280.7579520000
0
ARC
8
90000_FRAME
62
7
6
CONTINUOUS
10
453.6631120000
20
2.6022950000
40
17.3316080000
50
65.3414670000
51
67.3997770000
0
ARC
8
90000_FRAME
62
7
6
CONTINUOUS
10
464.4589740000
20
28.3947210000
40
10.6291640000
50
242.8620100000
51
247.1042030000
0
ARC
8
90000_FRAME
62
7
6
CONTINUOUS
10
460.6040730000
20
20.8607900000
40
2.1662920000
50
227.3119280000
51
242.7040320000
0
ARC
8
90000_FRAME
62
7
6
CONTINUOUS
10
460.0000420000
20
20.1551120000
40
1.2385220000
50
194.7952190000
51
225.7176550000
0
ARC
8
90000_FRAME
62
7
6
CONTINUOUS
10
460.6192240000
20
19.3070650000
40
2.3669250000
50
86.2218020000
51
120.4272600000
0
ARC
8
90000_FRAME
62
7
6
CONTINUOUS
10
460.3503670000
20
12.6108970000
40
9.0679050000
50
78.6827050000
51
87.3147600000
0
ARC
8
90000_FRAME
62
7
6
CONTINUOUS
10
460.2396070000
20
19.9962580000
40
1.5805470000
50
121.2140950000
51
141.5254770000
0
ARC
8
90000_FRAME
62
7
6
CONTINUOUS
10
460.8167820000
20
20.8073150000
40
0.8661280000
50
222.7760390000
51
239.0362430000
0
ARC
8
90000_FRAME
62
7
6
CONTINUOUS
10
458.3100720000
20
13.4770430000
40
6.8587740000
50
59.9020270000
51
68.2036480000
0
ARC
8
90000_FRAME
62
7
6
CONTINUOUS
10
461.7185670000
20
22.4029300000
40
2.6987410000
50
240.0482000000
51
251.3779670000
0
ARC
8
90000_FRAME
62
7
6
CONTINUOUS
10
461.0531090000
20
18.2460310000
40
1.4334470000
50
315.8904550000
51
333.5229260000
0
ARC
8
90000_FRAME
62
7
6
CONTINUOUS
10
461.0577480000
20
18.1926240000
40
1.4062290000
50
335.3867970000
51
24.3915120000
0
ARC
8
90000_FRAME
62
7
6
CONTINUOUS
10
460.9855430000
20
18.1147670000
40
1.5047030000
50
25.9562920000
51
59.4834830000
0
ARC
8
90000_FRAME
62
7
6
CONTINUOUS
10
460.0622000000
20
20.1953320000
40
1.3090920000
50
164.1974860000
51
195.8025140000
0
ARC
8
90000_FRAME
62
7
6
CONTINUOUS
10
459.8942980000
20
20.3028400000
40
1.1197470000
50
142.8139180000
51
167.1522950000
0
ARC
8
11000_LEFT
62
7
6
CONTINUOUS
10
-489.4646792516
20
232.0303128647
40
999.9999926109
50
359.4270570000
51
7.5851800000
0
ARC
8
11000_LEFT
62
7
6
CONTINUOUS
10
493.9186437484
20
361.8147828647
40
0.6500808190
50
339.4013520000
51
47.4908130000
0
ARC
8
11000_LEFT
62
7
6
CONTINUOUS
10
493.3983267484
20
362.4951188647
40
0.4999999906
50
47.4999990000
51
153.4782780000
0
ARC
8
11000_LEFT
62
7
6
CONTINUOUS
10
-497.8216302516
20
284.8028178647
40
996.9389391901
50
357.3777930000
51
3.7325540000
0
ARC
8
11000_LEFT
62
7
6
CONTINUOUS
10
506.8246387484
20
237.1419198647
40
0.4999999906
50
270.0000000000
51
80.0000000000
0
ARC
8
11000_LEFT
62
7
6
CONTINUOUS
10
438.7480777484
20
159.9970168647
40
72.0333322197
50
90.0000000000
51
127.6494200000
0
ARC
8
11000_LEFT
62
7
6
CONTINUOUS
10
384.0480987484
20
361.7303398647
40
2.3000000042
50
90.0000000000
51
180.0000000000
0
ARC
8
11000_LEFT
62
7
6
CONTINUOUS
10
387.2480977484
20
359.0303108647
40
0.9999999813
50
90.0000000000
51
180.0000000000
0
ARC
8
11000_LEFT
62
7
6
CONTINUOUS
10
387.7480907484
20
356.5303188647
40
3.4999997925
50
0.0000000000
51
90.0000000000
0
ARC
8
11000_LEFT
62
7
6
CONTINUOUS
10
469.8180807484
20
362.5435168647
40
146.5131962707
50
260.0245190000
51
270.7821490000
0
ARC
8
11000_LEFT
62
7
6
CONTINUOUS
10
409.9613667484
20
57.7711848647
40
164.1359090950
50
77.8747280000
51
82.5307420000
0
ARC
8
11000_LEFT
62
7
6
CONTINUOUS
10
412.6830997484
20
75.7059428647
40
146.0000008591
50
82.6748490000
51
90.9893780000
0
ARC
8
11000_LEFT
62
7
6
CONTINUOUS
10
411.0427197484
20
170.6917618647
40
50.9999991387
50
90.9893780000
51
103.0255140000
0
ARC
8
11000_LEFT
62
7
6
CONTINUOUS
10
411.0427197484
20
170.6917618647
40
49.9999996305
50
103.2907500000
51
104.5895360000
0
ARC
8
11000_LEFT
62
7
6
CONTINUOUS
10
387.2481697484
20
353.5307438647
40
17.0004125188
50
250.4098360000
51
269.9999960000
0
ARC
8
11000_LEFT
62
7
6
CONTINUOUS
10
-501.2084392516
20
284.8027208647
40
999.9936945458
50
357.2617780000
51
3.7037060000
0
ARC
8
11000_LEFT
62
7
6
CONTINUOUS
10
470.1881157484
20
348.4303288647
40
24.0000003071
50
2.4193540000
51
19.2368030000
0
ARC
8
11000_LEFT
62
7
6
CONTINUOUS
10
483.4063977484
20
353.0429348647
40
9.9999996233
50
19.2368030000
51
28.9999990000
0
ARC
8
11000_LEFT
62
7
6
CONTINUOUS
10
488.7480777484
20
362.6303338647
40
1.3999999738
50
328.0592810000
51
90.0000000000
0
ARC
8
11000_LEFT
62
7
6
CONTINUOUS
10
-489.4527132516
20
232.0301678647
40
996.0008181715
50
0.2653880000
51
0.3262650000
0
ARC
8
11000_LEFT
62
7
6
CONTINUOUS
10
497.3480857484
20
360.5303168647
40
8.6599999796
50
311.3191240000
51
311.4210370000
0
ARC
8
11000_LEFT
62
7
6
CONTINUOUS
10
-501.2084392516
20
284.8028178647
40
999.9999926109
50
3.7036770000
51
3.7227270000
0
ARC
8
11000_LEFT
62
7
6
CONTINUOUS
10
497.3480857484
20
360.5303168647
40
3.0000000384
50
154.7065880000
51
118.2934090000
0
ARC
8
11000_LEFT
62
7
6
CONTINUOUS
10
494.9290477484
20
362.8259128647
40
0.4999999906
50
277.4507390000
51
355.5492600000
0
CIRCLE
8
11000_LEFT
62
7
6
CONTINUOUS
10
497.3480857484
20
360.5303168647
40
1.7499998962
0
ARC
8
20000_FRONT_O
62
7
6
CONTINUOUS
10
188.5548487484
20
262.6303828647
40
2.0018097100
50
46.4701240000
51
87.5634050000
0
ARC
8
20000_FRONT_O
62
7
6
CONTINUOUS
10
188.5548487484
20
262.6303828647
40
2.0018097100
50
6.4461680000
51
45.8610670000
0
ARC
8
20000_FRONT_O
62
7
6
CONTINUOUS
10
174.9498527484
20
329.7303558647
40
1.8457789323
50
141.0356250000
51
38.9362500000
0
ENDSEC
0
EOF
