0
SECTION
2
HEADER
9
$EXTMAX
10
594.0000000000
20
420.0000000000
9
$EXTMIN
10
0.0000000000
20
0.0000000000
9
$LIMMIN
10
0.0000000000
20
0.0000000000
9
$LIMMAX
10
594.0000000000
20
420.0000000000
9
$VIEWCTR
10
297.0000000000
20
210.0000000000
9
$VIEWSIZE
40
420.0000000000
9
$CLAYER
8
0
9
$LTSCALE
40
32.6700000000
9
$CELTYPE
6
BYLAYER
9
$DIMSCALE
40
1
9
$DIMASZ
40
3.5000000000
9
$DIMEXO
40
3.7125000000
9
$DIMDLI
40
22.5720000000
9
$DIMEXE
40
10.6920000000
9
$DIMCEN
40
5.3460000000
9
$DIMLFAC
40
1.0000000000
0
ENDSEC
0
SECTION
2
TABLES
0
TABLE
2
LTYPE
70
6
0
LTYPE
2
BYBLOCK
70
0
3

72
65
73
0
40
0.0
0
LTYPE
2
BYLAYER
70
0
3

72
65
73
0
40
0.0
0
LTYPE
2
CONTINUOUS
70
64
3
Solid line
72
65
73
0
40
0
0
LTYPE
2
CENTER
70
64
3
____ _ ____ _ ____ _ ____ _ ____ _ ____ _ ____
72
65
73
4
40
0.6
49
0.375
49
-0.075
49
0.075
49
-0.075
0
LTYPE
2
HIDDEN
70
64
3
- - - - - - - - - - - - - - - - - - - -
72
65
73
2
40
0.2
49
0.1
49
-0.1
0
LTYPE
2
PHANTOM
70
64
3
_____ _ _ _____ _ _ _____ _ _ _____
72
65
73
6
40
0.8
49
0.45
49
-0.05
49
0.1
49
-0.05
49
0.1
49
-0.05
0
LTYPE
2
DOT
70
64
3
. . . . . . . . . . . . . . . . . . . .
72
65
73
2
40
0.2
49
0.1
49
-0.1
0
LTYPE
2
DASHED
70
64
3
- - - - - - - - - - - - - - - - - - - -
72
65
73
2
40
0.2
49
0.1
49
-0.1
0
ENDTAB
0
TABLE
2
LAYER
70
36
0
LAYER
2
0
70
0
62
7
6
CONTINUOUS
0
LAYER
2
DEFAULT_1
70
0
62
7
6
CENTER
0
LAYER
2
DEFAULT_2
70
0
62
8
6
HIDDEN
0
LAYER
2
DEFAULT_3
70
0
62
7
6
PHANTOM
0
LAYER
2
10000_FRONT
70
0
62
7
6
CONTINUOUS
0
LAYER
2
10100_DIM_FRONT
70
0
62
7
6
CONTINUOUS
0
LAYER
2
10300_FRONT_GERMAN_ENGLISH
70
0
62
7
6
CONTINUOUS
0
LAYER
2
10500_FRONT_LABELING
70
0
62
7
6
CONTINUOUS
0
LAYER
2
11000_LEFT
70
0
62
7
6
CONTINUOUS
0
LAYER
2
11100_DIM_LEFT
70
0
62
7
6
CONTINUOUS
0
LAYER
2
11300_LEFT_GERMAN_ENGLISH
70
0
62
7
6
CONTINUOUS
0
LAYER
2
11500_LEFT_LABELING
70
0
62
7
6
CONTINUOUS
0
LAYER
2
12000_RIGHT
70
0
62
7
6
CONTINUOUS
0
LAYER
2
12100_DIM_RIGHT
70
0
62
7
6
CONTINUOUS
0
LAYER
2
12300_RIGHT_GERMAN_ENGLISH
70
0
62
7
6
CONTINUOUS
0
LAYER
2
12500_RIGHT_LABELING
70
0
62
7
6
CONTINUOUS
0
LAYER
2
13000_TOP
70
0
62
7
6
CONTINUOUS
0
LAYER
2
13100_DIM_TOP
70
0
62
7
6
CONTINUOUS
0
LAYER
2
13300_TOP_GERMAN_ENGLISH
70
0
62
7
6
CONTINUOUS
0
LAYER
2
13500_TOP_LABELING
70
0
62
7
6
CONTINUOUS
0
LAYER
2
14000_BOTTOM
70
0
62
7
6
CONTINUOUS
0
LAYER
2
14100_DIM_BOTTOM
70
0
62
7
6
CONTINUOUS
0
LAYER
2
14300_BOTTOM_GERMAN_ENGLISH
70
0
62
7
6
CONTINUOUS
0
LAYER
2
14500_BOTTOM_LABELING
70
0
62
7
6
CONTINUOUS
0
LAYER
2
15000_BACK
70
0
62
7
6
CONTINUOUS
0
LAYER
2
15100_DIM_BACK
70
0
62
7
6
CONTINUOUS
0
LAYER
2
15300_BACK_GERMAN_ENGLISH
70
0
62
7
6
CONTINUOUS
0
LAYER
2
15500_BACK_LABELING
70
0
62
7
6
CONTINUOUS
0
LAYER
2
20000_FRONT_O
70
0
62
7
6
CONTINUOUS
0
LAYER
2
20100_DIM_FRONT_O
70
0
62
7
6
CONTINUOUS
0
LAYER
2
20300_FRONT_O_GERMAN_ENGLISH
70
0
62
7
6
CONTINUOUS
0
LAYER
2
20500_FRONT_O_LABELING
70
0
62
7
6
CONTINUOUS
0
LAYER
2
40000_ISO
70
0
62
7
6
CONTINUOUS
0
LAYER
2
40300_ISO_GERMAN_ENGLISH
70
0
62
7
6
CONTINUOUS
0
LAYER
2
50000_WIRING
70
0
62
7
6
CONTINUOUS
0
LAYER
2
50300_WIRING_GERMAN_ENGLISH
70
0
62
7
6
CONTINUOUS
0
LAYER
2
90000_FRAME
70
0
62
7
6
CONTINUOUS
0
LAYER
2
91000_TIP
70
0
62
7
6
CONTINUOUS
0
ENDTAB
0
ENDSEC
0
SECTION
2
BLOCKS
0
BLOCK
8
11100_DIM_LEFT
62
7
6
CONTINUOUS
2
*D0
70
65
10
0.0000000000
20
0.0000000000
0
TEXT
8
11100_DIM_LEFT
62
7
6
CONTINUOUS
10
441.9729080000
20
200.5615780000
40
3.5000000000
1
129
72
5
11
449.4729080000
21
200.5615780000
0
LINE
8
11100_DIM_LEFT
62
7
6
CONTINUOUS
10
381.5481040000
20
337.5144000000
11
381.5481040000
21
197.6865780000
0
LINE
8
11100_DIM_LEFT
62
7
6
CONTINUOUS
10
510.4853160000
20
222.0307380000
11
510.4853160000
21
197.6865780000
0
LINE
8
11100_DIM_LEFT
62
7
6
CONTINUOUS
10
381.5481040000
20
199.6865780000
11
446.0167100000
21
199.6865780000
0
LINE
8
11100_DIM_LEFT
62
7
6
CONTINUOUS
10
510.4853160000
20
199.6865780000
11
446.0167100000
21
199.6865780000
0
SOLID
8
11100_DIM_LEFT
62
7
6
CONTINUOUS
10
385.0481040000
20
200.1865780000
11
381.5481040000
21
199.6865780000
12
385.0481040000
22
199.1865780000
13
385.0481040000
23
199.1865780000
0
SOLID
8
11100_DIM_LEFT
62
7
6
CONTINUOUS
10
506.9853160000
20
199.1865780000
11
510.4853160000
21
199.6865780000
12
506.9853160000
22
200.1865780000
13
506.9853160000
23
200.1865780000
0
ENDBLK
8
0
0
BLOCK
8
10100_DIM_FRONT
62
7
6
CONTINUOUS
2
*D1
70
65
10
0.0000000000
20
0.0000000000
0
TEXT
8
10100_DIM_FRONT
62
7
6
CONTINUOUS
10
334.3360510000
20
287.4092170000
40
3.5000000000
1
147
50
90.0000000000
72
5
11
334.3360510000
21
294.9092170000
0
LINE
8
10100_DIM_FRONT
62
7
6
CONTINUOUS
10
317.3101740000
20
364.0303450000
11
337.2110510000
21
364.0303450000
0
LINE
8
10100_DIM_FRONT
62
7
6
CONTINUOUS
10
317.3101740000
20
217.0303570000
11
337.2110510000
21
217.0303570000
0
LINE
8
10100_DIM_FRONT
62
7
6
CONTINUOUS
10
335.2110510000
20
364.0303450000
11
335.2110510000
21
290.5303510000
0
LINE
8
10100_DIM_FRONT
62
7
6
CONTINUOUS
10
335.2110510000
20
217.0303570000
11
335.2110510000
21
290.5303510000
0
SOLID
8
10100_DIM_FRONT
62
7
6
CONTINUOUS
10
335.7110510000
20
360.5303450000
11
335.2110510000
21
364.0303450000
12
334.7110510000
22
360.5303450000
13
334.7110510000
23
360.5303450000
0
SOLID
8
10100_DIM_FRONT
62
7
6
CONTINUOUS
10
334.7110510000
20
220.5303570000
11
335.2110510000
21
217.0303570000
12
335.7110510000
22
220.5303570000
13
335.7110510000
23
220.5303570000
0
ENDBLK
8
0
0
BLOCK
8
10100_DIM_FRONT
62
7
6
CONTINUOUS
2
*D2
70
65
10
0.0000000000
20
0.0000000000
0
TEXT
8
10100_DIM_FRONT
62
7
6
CONTINUOUS
10
280.6382210000
20
201.1242850000
40
3.5000000000
1
69.8
72
5
11
290.8882210000
21
201.1242850000
0
LINE
8
10100_DIM_FRONT
62
7
6
CONTINUOUS
10
247.5101720000
20
217.0303570000
11
247.5101720000
21
198.2492850000
0
LINE
8
10100_DIM_FRONT
62
7
6
CONTINUOUS
10
317.3101740000
20
217.0303570000
11
317.3101740000
21
198.2492850000
0
LINE
8
10100_DIM_FRONT
62
7
6
CONTINUOUS
10
247.5101720000
20
200.2492850000
11
282.4101730000
21
200.2492850000
0
LINE
8
10100_DIM_FRONT
62
7
6
CONTINUOUS
10
317.3101740000
20
200.2492850000
11
282.4101730000
21
200.2492850000
0
SOLID
8
10100_DIM_FRONT
62
7
6
CONTINUOUS
10
251.0101720000
20
200.7492850000
11
247.5101720000
21
200.2492850000
12
251.0101720000
22
199.7492850000
13
251.0101720000
23
199.7492850000
0
SOLID
8
10100_DIM_FRONT
62
7
6
CONTINUOUS
10
313.8101740000
20
199.7492850000
11
317.3101740000
21
200.2492850000
12
313.8101740000
22
200.7492850000
13
313.8101740000
23
200.7492850000
0
ENDBLK
8
0
0
ENDSEC
0
SECTION
2
ENTITIES
0
DIMENSION
8
11100_DIM_LEFT
62
7
6
CONTINUOUS
2
*D0
10
510.4853160000
20
199.6865780000
11
445.7229080000
21
202.3115780000
70
128
13
381.5481040000
23
337.5144000000
14
510.4853160000
24
222.0307380000
0
DIMENSION
8
10100_DIM_FRONT
62
7
6
CONTINUOUS
2
*D1
10
335.2110510000
20
217.0303570000
11
332.5860510000
21
291.1592170000
70
128
13
317.3101740000
23
364.0303450000
14
317.3101740000
24
217.0303570000
50
270.000000
0
DIMENSION
8
10100_DIM_FRONT
62
7
6
CONTINUOUS
2
*D2
10
317.3101740000
20
200.2492850000
11
285.7632210000
21
202.8742850000
70
128
13
247.5101720000
23
217.0303570000
14
317.3101740000
24
217.0303570000
0
TEXT
8
90000_FRAME
62
7
6
CONTINUOUS
10
499.6600000000
20
11.9000000000
40
2.2000000000
1
Format / Size: DIN A2
72
5
11
533.2361904762
21
11.9000000000
0
TEXT
8
90000_FRAME
62
7
6
CONTINUOUS
10
542.1600000000
20
11.9000000000
40
2.2000000000
1
Massstab / Scale: 1:1
72
5
11
573.0647619048
21
11.9000000000
0
TEXT
8
90000_FRAME
62
7
6
CONTINUOUS
10
516.5027930000
20
19.8924840000
40
3.5000000000
1
6ES7505-0RA00-0AB0
72
5
11
565.2527930000
21
19.8924840000
0
TEXT
8
20300_FRONT_O_GERMAN_ENGLISH
62
7
6
CONTINUOUS
10
132.0795620000
20
382.7200550000
40
3.5000000000
1
Vorne offen / Front open
72
5
11
191.6628953333
21
382.7200550000
0
TEXT
8
10300_FRONT_GERMAN_ENGLISH
62
7
6
CONTINUOUS
10
268.5292180000
20
381.5381770000
40
3.5000000000
1
Vorne / Front
72
5
11
301.1125513333
21
381.5381770000
0
TEXT
8
13300_TOP_GERMAN_ENGLISH
62
7
6
CONTINUOUS
10
269.4801540000
20
167.4001870000
40
3.5000000000
1
Oben / Top
72
5
11
295.8968206667
21
167.4001870000
0
TEXT
8
11300_LEFT_GERMAN_ENGLISH
62
7
6
CONTINUOUS
10
416.9241590000
20
381.1108690000
40
3.5000000000
1
Links / Left
72
5
11
445.4241590000
21
381.1108690000
0
TEXT
8
91000_TIP
62
7
6
CONTINUOUS
10
11.2756234532
20
15.1898618139
40
3.5000000000
1
Alle Bemassungswerte sind in Millimeter (mm) angegeben.
72
5
11
145.8589567865
21
15.1898618139
0
TEXT
8
91000_TIP
62
7
6
CONTINUOUS
10
11.2756234532
20
9.9398618139
40
3.5000000000
1
All dimensions are in millimeters (mm).
72
5
11
104.4422901199
21
9.9398618139
0
LINE
8
90000_FRAME
62
7
6
CONTINUOUS
10
0.0000000000
20
420.0000000000
11
0.0000000000
21
0.0000000000
0
LINE
8
90000_FRAME
62
7
6
CONTINUOUS
10
5.0000000000
20
415.0000000000
11
5.0000000000
21
5.0000000000
0
LINE
8
91000_TIP
62
7
6
CONTINUOUS
10
422.7797810000
20
20.8043440000
11
432.7797810000
21
23.3043440000
0
LINE
8
90000_FRAME
62
7
6
CONTINUOUS
10
0.0000000000
20
0.0000000000
11
594.0000000000
21
0.0000000000
0
LINE
8
90000_FRAME
62
7
6
CONTINUOUS
10
5.0000000000
20
5.0000000000
11
589.0000000000
21
5.0000000000
0
LINE
8
90000_FRAME
62
7
6
CONTINUOUS
10
449.0000000000
20
10.0000000000
11
584.0000000000
21
10.0000000000
0
LINE
8
90000_FRAME
62
7
6
CONTINUOUS
10
499.0000000000
20
16.0000000000
11
584.0000000000
21
16.0000000000
0
LINE
8
90000_FRAME
62
7
6
CONTINUOUS
10
472.3969330000
20
16.7492120000
11
473.2525220000
21
16.7492120000
0
LINE
8
90000_FRAME
62
7
6
CONTINUOUS
10
485.5872550000
20
16.7967450000
11
484.0662090000
21
16.7967450000
0
LINE
8
90000_FRAME
62
7
6
CONTINUOUS
10
475.9618850000
20
16.7967450000
11
474.5834370000
21
16.7967450000
0
LINE
8
90000_FRAME
62
7
6
CONTINUOUS
10
463.2231240000
20
16.7967450000
11
464.6491050000
21
16.7967450000
0
LINE
8
90000_FRAME
62
7
6
CONTINUOUS
10
465.7423570000
20
16.7967450000
11
469.3073090000
21
16.7967450000
0
LINE
8
90000_FRAME
62
7
6
CONTINUOUS
10
470.1153640000
20
16.7967450000
11
471.0660180000
21
16.7967450000
0
LINE
8
90000_FRAME
62
7
6
CONTINUOUS
10
477.0551370000
20
16.7967450000
11
480.6200890000
21
16.7967450000
0
LINE
8
90000_FRAME
62
7
6
CONTINUOUS
10
481.4043780000
20
16.7967450000
11
482.3550320000
21
16.7967450000
0
LINE
8
90000_FRAME
62
7
6
CONTINUOUS
10
480.6200890000
20
17.6998660000
11
478.4335850000
21
17.6998660000
0
LINE
8
90000_FRAME
62
7
6
CONTINUOUS
10
469.3073090000
20
17.6998660000
11
467.1208050000
21
17.6998660000
0
LINE
8
91000_TIP
62
7
6
CENTER
10
421.5002710000
20
18.3043440000
11
445.1022600000
21
18.3043440000
0
LINE
8
90000_FRAME
62
7
6
CONTINUOUS
10
480.2873600000
20
18.8168840000
11
478.4335850000
21
18.8168840000
0
LINE
8
90000_FRAME
62
7
6
CONTINUOUS
10
468.9745800000
20
18.8168840000
11
467.1208050000
21
18.8168840000
0
LINE
8
90000_FRAME
62
7
6
CONTINUOUS
10
480.2873600000
20
19.6011730000
11
478.4335850000
21
19.6011730000
0
LINE
8
90000_FRAME
62
7
6
CONTINUOUS
10
468.9745800000
20
19.6011730000
11
467.1208050000
21
19.6011730000
0
LINE
8
90000_FRAME
62
7
6
CONTINUOUS
10
480.5725560000
20
20.6706590000
11
478.4335850000
21
20.6706590000
0
LINE
8
90000_FRAME
62
7
6
CONTINUOUS
10
469.2597760000
20
20.6706590000
11
467.1208050000
21
20.6706590000
0
LINE
8
13000_TOP
62
7
6
CONTINUOUS
10
247.5101720000
20
20.9876420000
11
317.3101740000
21
20.9876420000
0
LINE
8
90000_FRAME
62
7
6
CONTINUOUS
10
485.5872550000
20
21.5500140000
11
484.6366010000
21
21.5500140000
0
LINE
8
90000_FRAME
62
7
6
CONTINUOUS
10
482.9491910000
20
21.5500140000
11
481.4043780000
21
21.5500140000
0
LINE
8
90000_FRAME
62
7
6
CONTINUOUS
10
480.5725560000
20
21.5500140000
11
477.0551370000
21
21.5500140000
0
LINE
8
90000_FRAME
62
7
6
CONTINUOUS
10
475.9618850000
20
21.5500140000
11
474.2507080000
21
21.5500140000
0
LINE
8
90000_FRAME
62
7
6
CONTINUOUS
10
471.8265410000
20
21.5500140000
11
470.1153640000
21
21.5500140000
0
LINE
8
90000_FRAME
62
7
6
CONTINUOUS
10
469.2597760000
20
21.5500140000
11
465.7423570000
21
21.5500140000
0
LINE
8
90000_FRAME
62
7
6
CONTINUOUS
10
463.2231240000
20
21.5500140000
11
464.6491050000
21
21.5500140000
0
LINE
8
20000_FRONT_O
62
7
6
CONTINUOUS
10
127.2148500000
20
217.0303570000
11
127.2148500000
21
364.0303450000
0
LINE
8
20000_FRONT_O
62
7
6
CONTINUOUS
10
128.8657480000
20
233.5702870000
11
128.8657480000
21
349.3482960000
0
LINE
8
20000_FRONT_O
62
7
6
CONTINUOUS
10
128.8657480000
20
349.3483930000
11
128.8657480000
21
349.3993100000
0
LINE
8
20000_FRONT_O
62
7
6
CONTINUOUS
10
128.9726340000
20
232.0303620000
11
128.9726340000
21
217.0303570000
0
LINE
8
20000_FRONT_O
62
7
6
CONTINUOUS
10
130.3648510000
20
314.4802700000
11
130.3648510000
21
344.9803940000
0
LINE
8
20000_FRONT_O
62
7
6
CONTINUOUS
10
133.4157490000
20
232.0303620000
11
133.4157490000
21
235.7916150000
0
LINE
8
20000_FRONT_O
62
7
6
CONTINUOUS
10
172.7394200000
20
331.8561470000
11
172.6367010000
21
331.6585330000
0
LINE
8
20000_FRONT_O
62
7
6
CONTINUOUS
10
175.8909290000
20
329.1703610000
11
175.9374620000
21
329.2511220000
0
LINE
8
20000_FRONT_O
62
7
6
CONTINUOUS
10
176.1661910000
20
330.3020270000
11
176.2255020000
21
330.4015850000
0
LINE
8
20000_FRONT_O
62
7
6
CONTINUOUS
10
172.8567160000
20
332.0416490000
11
172.7394200000
21
331.8561470000
0
LINE
8
20000_FRONT_O
62
7
6
CONTINUOUS
10
173.8596580000
20
333.2052890000
11
173.5824340000
21
332.7856440000
0
LINE
8
20000_FRONT_O
62
7
6
CONTINUOUS
10
175.8540010000
20
329.1153260000
11
175.8909290000
21
329.1703610000
0
LINE
8
20000_FRONT_O
62
7
6
CONTINUOUS
10
176.0351670000
20
326.2397750000
11
176.3159760000
21
326.6501660000
0
LINE
8
20000_FRONT_O
62
7
6
CONTINUOUS
10
176.0937390000
20
330.2009180000
11
176.1661910000
21
330.3020270000
0
LINE
8
20000_FRONT_O
62
7
6
CONTINUOUS
10
172.9871760000
20
332.2141680000
11
172.8567160000
21
332.0416490000
0
LINE
8
20000_FRONT_O
62
7
6
CONTINUOUS
10
176.8457160000
20
327.1566760000
11
177.1100410000
21
327.5031670000
0
LINE
8
20000_FRONT_O
62
7
6
CONTINUOUS
10
175.7755420000
20
329.0172700000
11
175.8540010000
21
329.1153260000
0
LINE
8
20000_FRONT_O
62
7
6
CONTINUOUS
10
176.0133660000
20
330.1073680000
11
176.0937390000
21
330.2009180000
0
LINE
8
20000_FRONT_O
62
7
6
CONTINUOUS
10
173.0573690000
20
332.2958490000
11
172.9871760000
21
332.2141680000
0
LINE
8
20000_FRONT_O
62
7
6
CONTINUOUS
10
174.0668520000
20
332.1878610000
11
173.7335030000
21
331.8320200000
0
LINE
8
20000_FRONT_O
62
7
6
CONTINUOUS
10
173.1728300000
20
332.4164810000
11
173.0573690000
21
332.2958490000
0
LINE
8
20000_FRONT_O
62
7
6
CONTINUOUS
10
175.6875990000
20
328.9297270000
11
175.7755420000
21
329.0172700000
0
LINE
8
20000_FRONT_O
62
7
6
CONTINUOUS
10
175.9034530000
20
330.0026750000
11
176.0133660000
21
330.1073680000
0
LINE
8
20000_FRONT_O
62
7
6
CONTINUOUS
10
173.4234020000
20
332.6315360000
11
173.1728300000
21
332.4164810000
0
LINE
8
20000_FRONT_O
62
7
6
CONTINUOUS
10
176.3523840000
20
326.7354810000
11
176.8457160000
21
327.1566760000
0
LINE
8
20000_FRONT_O
62
7
6
CONTINUOUS
10
175.6381350000
20
328.8882560000
11
175.6875990000
21
328.9297270000
0
LINE
8
20000_FRONT_O
62
7
6
CONTINUOUS
10
175.8328420000
20
329.9462340000
11
175.9034530000
21
330.0026750000
0
LINE
8
20000_FRONT_O
62
7
6
CONTINUOUS
10
174.2553580000
20
333.5072570000
11
173.8596580000
21
333.2052890000
0
LINE
8
20000_FRONT_O
62
7
6
CONTINUOUS
10
175.6478730000
20
325.9500640000
11
176.0351670000
21
326.2397750000
0
LINE
8
20000_FRONT_O
62
7
6
CONTINUOUS
10
175.5621580000
20
328.8332210000
11
175.6381350000
21
328.8882560000
0
LINE
8
20000_FRONT_O
62
7
6
CONTINUOUS
10
173.5573150000
20
332.7252310000
11
173.4234020000
21
332.6315360000
0
LINE
8
20000_FRONT_O
62
7
6
CONTINUOUS
10
175.7062150000
20
329.8614530000
11
175.8328420000
21
329.9462340000
0
LINE
8
20000_FRONT_O
62
7
6
CONTINUOUS
10
174.4934250000
20
332.4089230000
11
174.0668520000
21
332.1878610000
0
LINE
8
90000_FRAME
62
7
6
CONTINUOUS
10
449.0000000000
20
28.0000000000
11
584.0000000000
21
28.0000000000
0
LINE
8
13000_TOP
62
7
6
CONTINUOUS
10
254.7101690000
20
28.4230410000
11
310.1101780000
21
28.4230410000
0
LINE
8
13000_TOP
62
7
6
CONTINUOUS
10
309.9101660000
20
28.4454960000
11
254.9101810000
21
28.4454960000
0
LINE
8
13000_TOP
62
7
6
CONTINUOUS
10
309.9101660000
20
29.7251180000
11
254.9101810000
21
29.7251180000
0
LINE
8
13000_TOP
62
7
6
CONTINUOUS
10
317.3101740000
20
29.7379080000
11
310.1101780000
21
29.7379080000
0
LINE
8
13000_TOP
62
7
6
CONTINUOUS
10
254.7101690000
20
29.7379080000
11
247.5101720000
21
29.7379080000
0
LINE
8
13000_TOP
62
7
6
CONTINUOUS
10
254.7101450000
20
31.1748350000
11
254.9101810000
21
31.1748350000
0
LINE
8
13000_TOP
62
7
6
CONTINUOUS
10
309.9101660000
20
31.1748350000
11
310.1102020000
21
31.1748350000
0
LINE
8
13000_TOP
62
7
6
CONTINUOUS
10
317.3101740000
20
32.1599010000
11
310.1101780000
21
32.1599010000
0
LINE
8
13000_TOP
62
7
6
CONTINUOUS
10
254.7101690000
20
32.1599010000
11
247.5101720000
21
32.1599010000
0
LINE
8
13000_TOP
62
7
6
CONTINUOUS
10
254.9101810000
20
36.0541890000
11
247.5101720000
21
36.0541890000
0
LINE
8
13000_TOP
62
7
6
CONTINUOUS
10
309.9101660000
20
36.0541890000
11
317.3101740000
21
36.0541890000
0
LINE
8
13000_TOP
62
7
6
CONTINUOUS
10
254.9101810000
20
39.3703380000
11
247.5101720000
21
39.3703380000
0
LINE
8
13000_TOP
62
7
6
CONTINUOUS
10
309.9101660000
20
39.3703380000
11
317.3101740000
21
39.3703380000
0
LINE
8
13000_TOP
62
7
6
CONTINUOUS
10
254.9101810000
20
42.7748300000
11
247.5101720000
21
42.7748300000
0
LINE
8
13000_TOP
62
7
6
CONTINUOUS
10
309.9101660000
20
42.7748300000
11
317.3101740000
21
42.7748300000
0
LINE
8
20000_FRONT_O
62
7
6
CONTINUOUS
10
134.6148520000
20
364.0303450000
11
134.6148520000
21
349.3992130000
0
LINE
8
20000_FRONT_O
62
7
6
CONTINUOUS
10
136.7148510000
20
232.0303620000
11
136.7148510000
21
222.8634310000
0
LINE
8
20000_FRONT_O
62
7
6
CONTINUOUS
10
138.0648470000
20
232.0303620000
11
138.0648470000
21
222.8634310000
0
LINE
8
20000_FRONT_O
62
7
6
CONTINUOUS
10
138.2148500000
20
219.0795540000
11
138.2148500000
21
232.0303620000
0
LINE
8
20000_FRONT_O
62
7
6
CONTINUOUS
10
139.2148500000
20
222.0976350000
11
139.2148500000
21
230.8908960000
0
LINE
8
20000_FRONT_O
62
7
6
CONTINUOUS
10
142.3148480000
20
361.0658460000
11
142.3148480000
21
359.0291000000
0
LINE
8
20000_FRONT_O
62
7
6
CONTINUOUS
10
144.3148470000
20
359.0291000000
11
144.3148470000
21
361.0658460000
0
LINE
8
20000_FRONT_O
62
7
6
CONTINUOUS
10
146.3148460000
20
361.0658460000
11
146.3148460000
21
359.0291000000
0
LINE
8
20000_FRONT_O
62
7
6
CONTINUOUS
10
146.5648490000
20
221.6630680000
11
146.5648490000
21
221.4563470000
0
LINE
8
20000_FRONT_O
62
7
6
CONTINUOUS
10
146.5648490000
20
221.3382340000
11
146.5648490000
21
220.3795230000
0
LINE
8
20000_FRONT_O
62
7
6
CONTINUOUS
10
148.0648490000
20
221.6630680000
11
148.0648490000
21
221.4563470000
0
LINE
8
20000_FRONT_O
62
7
6
CONTINUOUS
10
148.0648490000
20
221.3382340000
11
148.0648490000
21
220.3795230000
0
LINE
8
20000_FRONT_O
62
7
6
CONTINUOUS
10
148.3148510000
20
359.0291000000
11
148.3148510000
21
361.0658460000
0
LINE
8
20000_FRONT_O
62
7
6
CONTINUOUS
10
150.3148510000
20
361.0658460000
11
150.3148510000
21
359.0291000000
0
LINE
8
20000_FRONT_O
62
7
6
CONTINUOUS
10
151.9648470000
20
223.8794540000
11
151.9648470000
21
225.3666210000
0
LINE
8
20000_FRONT_O
62
7
6
CONTINUOUS
10
152.2417190000
20
224.8520210000
11
152.2417190000
21
224.8128760000
0
LINE
8
20000_FRONT_O
62
7
6
CONTINUOUS
10
152.3148500000
20
359.0291000000
11
152.3148500000
21
361.0658460000
0
LINE
8
20000_FRONT_O
62
7
6
CONTINUOUS
10
152.4387220000
20
225.0046280000
11
152.4387220000
21
224.9654350000
0
LINE
8
20000_FRONT_O
62
7
6
CONTINUOUS
10
152.5658940000
20
225.5059540000
11
152.5658940000
21
225.4668090000
0
LINE
8
20000_FRONT_O
62
7
6
CONTINUOUS
10
152.7034640000
20
223.4223120000
11
152.7034640000
21
223.3831180000
0
LINE
8
20000_FRONT_O
62
7
6
CONTINUOUS
10
152.8235090000
20
224.5163340000
11
152.8235090000
21
224.4771410000
0
LINE
8
20000_FRONT_O
62
7
6
CONTINUOUS
10
152.9004670000
20
225.2624130000
11
152.9004670000
21
225.2232680000
0
LINE
8
20000_FRONT_O
62
7
6
CONTINUOUS
10
152.9004670000
20
223.5749190000
11
152.9004670000
21
223.5357250000
0
LINE
8
20000_FRONT_O
62
7
6
CONTINUOUS
10
153.0674860000
20
225.4916620000
11
153.0674860000
21
225.4525170000
0
LINE
8
20000_FRONT_O
62
7
6
CONTINUOUS
10
153.2363900000
20
224.8361300000
11
153.2363900000
21
224.7969860000
0
LINE
8
20000_FRONT_O
62
7
6
CONTINUOUS
10
153.2644890000
20
225.6442690000
11
153.2644890000
21
225.6050760000
0
LINE
8
20000_FRONT_O
62
7
6
CONTINUOUS
10
153.3622120000
20
223.8327030000
11
153.3622120000
21
223.7935580000
0
LINE
8
20000_FRONT_O
62
7
6
CONTINUOUS
10
153.7262340000
20
225.9020540000
11
153.7262340000
21
225.8629090000
0
LINE
8
20000_FRONT_O
62
7
6
CONTINUOUS
10
153.7262340000
20
224.2145600000
11
153.7262340000
21
224.1753670000
0
LINE
8
20000_FRONT_O
62
7
6
CONTINUOUS
10
153.8638040000
20
223.7792670000
11
153.8638040000
21
223.8184120000
0
LINE
8
20000_FRONT_O
62
7
6
CONTINUOUS
10
154.1879790000
20
224.4723450000
11
154.1879790000
21
224.4332000000
0
LINE
8
20000_FRONT_O
62
7
6
CONTINUOUS
10
154.4648510000
20
225.3666210000
11
154.4648510000
21
223.8794540000
0
LINE
8
20000_FRONT_O
62
7
6
CONTINUOUS
10
144.8201700000
20
229.5133160000
11
144.7148470000
21
228.7871000000
0
LINE
8
20000_FRONT_O
62
7
6
CONTINUOUS
10
149.8095280000
20
228.0608370000
11
149.9148510000
21
228.7871000000
0
LINE
8
20000_FRONT_O
62
7
6
CONTINUOUS
10
176.3539830000
20
330.7293260000
11
176.3786060000
21
330.8466640000
0
LINE
8
20000_FRONT_O
62
7
6
CONTINUOUS
10
172.4859960000
20
331.2494980000
11
172.4367440000
21
331.0351700000
0
LINE
8
20000_FRONT_O
62
7
6
CONTINUOUS
10
151.9648470000
20
225.3666210000
11
152.0886400000
21
225.9043310000
0
LINE
8
20000_FRONT_O
62
7
6
CONTINUOUS
10
176.1944110000
20
330.1153130000
11
176.3523600000
21
330.7230280000
0
LINE
8
20000_FRONT_O
62
7
6
CONTINUOUS
10
176.0364630000
20
329.5075500000
11
176.1944110000
21
330.1153130000
0
LINE
8
20000_FRONT_O
62
7
6
CONTINUOUS
10
152.6768430000
20
225.8265740000
11
152.5662880000
21
225.4443300000
0
LINE
8
20000_FRONT_O
62
7
6
CONTINUOUS
10
176.3199250000
20
330.6158160000
11
176.3539830000
21
330.7293260000
0
LINE
8
20000_FRONT_O
62
7
6
CONTINUOUS
10
177.3175990000
20
327.9007680000
11
177.4509000000
21
328.3167800000
0
LINE
8
20000_FRONT_O
62
7
6
CONTINUOUS
10
172.5522220000
20
331.4557350000
11
172.4859960000
21
331.2494980000
0
LINE
8
20000_FRONT_O
62
7
6
CONTINUOUS
10
175.9374620000
20
329.2511220000
11
176.0362210000
21
329.5077440000
0
LINE
8
20000_FRONT_O
62
7
6
CONTINUOUS
10
172.5915370000
20
331.5561170000
11
172.5522220000
21
331.4557350000
0
LINE
8
20000_FRONT_O
62
7
6
CONTINUOUS
10
173.5824340000
20
332.7856440000
11
173.5573150000
21
332.7252310000
0
LINE
8
20000_FRONT_O
62
7
6
CONTINUOUS
10
176.3159760000
20
326.6501660000
11
176.3523840000
21
326.7354810000
0
LINE
8
20000_FRONT_O
62
7
6
CONTINUOUS
10
173.7335030000
20
331.8320200000
11
173.5457120000
21
331.4047210000
0
LINE
8
20000_FRONT_O
62
7
6
CONTINUOUS
10
176.2255020000
20
330.4015850000
11
176.3199250000
21
330.6158160000
0
LINE
8
20000_FRONT_O
62
7
6
CONTINUOUS
10
172.6367010000
20
331.6585330000
11
172.5915370000
21
331.5561170000
0
LINE
8
20000_FRONT_O
62
7
6
CONTINUOUS
10
145.1275880000
20
230.1807170000
11
144.8201700000
21
229.5133160000
0
LINE
8
20000_FRONT_O
62
7
6
CONTINUOUS
10
177.1100410000
20
327.5031670000
11
177.3175990000
21
327.9007680000
0
LINE
8
20000_FRONT_O
62
7
6
CONTINUOUS
10
175.3996930000
20
328.7438850000
11
175.5621580000
21
328.8332210000
0
LINE
8
20000_FRONT_O
62
7
6
CONTINUOUS
10
175.5180360000
20
329.7666910000
11
175.7062150000
21
329.8614530000
0
LINE
8
20000_FRONT_O
62
7
6
CONTINUOUS
10
175.3144630000
20
328.7098270000
11
175.3996930000
21
328.7438850000
0
LINE
8
20000_FRONT_O
62
7
6
CONTINUOUS
10
175.4062690000
20
329.7251240000
11
175.5180360000
21
329.7666910000
0
LINE
8
20000_FRONT_O
62
7
6
CONTINUOUS
10
175.1919290000
20
325.7992010000
11
175.6478730000
21
325.9500640000
0
LINE
8
20000_FRONT_O
62
7
6
CONTINUOUS
10
174.7266590000
20
333.6628680000
11
174.2553580000
21
333.5072570000
0
LINE
8
20000_FRONT_O
62
7
6
CONTINUOUS
10
175.2245820000
20
328.6822610000
11
175.3144630000
21
328.7098270000
0
LINE
8
91000_TIP
62
7
6
CONTINUOUS
10
422.7797810000
20
15.8043440000
11
432.7797810000
21
13.3043440000
0
LINE
8
20000_FRONT_O
62
7
6
CONTINUOUS
10
144.7148470000
20
228.7871000000
11
144.8201700000
21
228.0608370000
0
LINE
8
20000_FRONT_O
62
7
6
CONTINUOUS
10
149.9148510000
20
228.7871000000
11
149.8095280000
21
229.5133160000
0
LINE
8
20000_FRONT_O
62
7
6
CONTINUOUS
10
155.4148480000
20
222.0976350000
11
155.4148480000
21
230.8908960000
0
LINE
8
20000_FRONT_O
62
7
6
CONTINUOUS
10
156.4148480000
20
219.0795540000
11
156.4148480000
21
232.0303620000
0
LINE
8
20000_FRONT_O
62
7
6
CONTINUOUS
10
156.5648500000
20
232.0303620000
11
156.5648500000
21
222.8634310000
0
LINE
8
20000_FRONT_O
62
7
6
CONTINUOUS
10
157.9148470000
20
232.0303620000
11
157.9148470000
21
222.8634310000
0
LINE
8
20000_FRONT_O
62
7
6
CONTINUOUS
10
166.5548530000
20
228.2303520000
11
166.5548530000
21
226.4303650000
0
LINE
8
20000_FRONT_O
62
7
6
CONTINUOUS
10
168.4137520000
20
280.6739040000
11
168.4137520000
21
232.0303620000
0
LINE
8
20000_FRONT_O
62
7
6
CONTINUOUS
10
168.5548520000
20
264.6303580000
11
168.5548520000
21
223.6303420000
0
LINE
8
20000_FRONT_O
62
7
6
CONTINUOUS
10
170.5148470000
20
216.0331310000
11
170.5148470000
21
223.6305840000
0
LINE
8
20000_FRONT_O
62
7
6
CONTINUOUS
10
170.8548510000
20
264.6303580000
11
170.8548510000
21
266.1303630000
0
LINE
8
20000_FRONT_O
62
7
6
CONTINUOUS
10
171.6848510000
20
316.7304720000
11
171.6848510000
21
342.7302410000
0
LINE
8
20000_FRONT_O
62
7
6
CONTINUOUS
10
172.3948490000
20
330.5803530000
11
172.3948490000
21
328.8803600000
0
LINE
8
20000_FRONT_O
62
7
6
CONTINUOUS
10
175.0548490000
20
255.4921080000
11
175.0548490000
21
248.4803750000
0
LINE
8
20000_FRONT_O
62
7
6
CONTINUOUS
10
177.5121360000
20
328.7639910000
11
177.5148490000
21
328.8803600000
0
LINE
8
20000_FRONT_O
62
7
6
CONTINUOUS
10
172.3978470000
20
330.7020510000
11
172.3948490000
21
330.5803530000
0
LINE
8
20000_FRONT_O
62
7
6
CONTINUOUS
10
176.3930430000
20
330.9668120000
11
176.3966280000
21
331.0896720000
0
LINE
8
20000_FRONT_O
62
7
6
CONTINUOUS
10
172.4058890000
20
330.8140110000
11
172.3978470000
21
330.7020510000
0
LINE
8
20000_FRONT_O
62
7
6
CONTINUOUS
10
173.5457120000
20
331.4047210000
11
173.5109510000
21
330.9204000000
0
LINE
8
20000_FRONT_O
62
7
6
CONTINUOUS
10
175.0548490000
20
255.4805290000
11
175.1426100000
21
256.2593570000
0
LINE
8
20000_FRONT_O
62
7
6
CONTINUOUS
10
176.3786060000
20
330.8466640000
11
176.3930430000
21
330.9668120000
0
LINE
8
20000_FRONT_O
62
7
6
CONTINUOUS
10
177.4509000000
20
328.3167800000
11
177.5121360000
21
328.7639910000
0
LINE
8
20000_FRONT_O
62
7
6
CONTINUOUS
10
172.4367440000
20
331.0351700000
11
172.4058890000
21
330.8140110000
0
LINE
8
20000_FRONT_O
62
7
6
CONTINUOUS
10
175.0548490000
20
255.4921080000
11
175.2076620000
21
256.5062410000
0
LINE
8
20000_FRONT_O
62
7
6
CONTINUOUS
10
154.4648510000
20
223.9185990000
11
154.3410580000
21
223.3808900000
0
LINE
8
20000_FRONT_O
62
7
6
CONTINUOUS
10
154.4648510000
20
223.8794540000
11
154.3410580000
21
223.3417450000
0
LINE
8
20000_FRONT_O
62
7
6
CONTINUOUS
10
153.7528550000
20
223.4194530000
11
153.8634100000
21
223.8016980000
0
LINE
8
20000_FRONT_O
62
7
6
CONTINUOUS
10
152.6865380000
20
225.8795750000
11
152.5658940000
21
225.5059540000
0
LINE
8
20000_FRONT_O
62
7
6
CONTINUOUS
10
175.1426100000
20
256.2593570000
11
175.4014610000
21
256.9991380000
0
LINE
8
20000_FRONT_O
62
7
6
CONTINUOUS
10
149.5021090000
20
227.3934360000
11
149.8095280000
21
228.0608370000
0
LINE
8
20000_FRONT_O
62
7
6
CONTINUOUS
10
175.2076620000
20
256.5062410000
11
175.6420830000
21
257.4290530000
0
LINE
8
20000_FRONT_O
62
7
6
CONTINUOUS
10
153.6133170000
20
223.7988390000
11
153.4754010000
21
223.5188660000
0
LINE
8
20000_FRONT_O
62
7
6
CONTINUOUS
10
149.3935890000
20
228.9356380000
11
149.7699230000
21
229.6353050000
0
LINE
8
20000_FRONT_O
62
7
6
CONTINUOUS
10
153.6108280000
20
223.7310620000
11
153.4604680000
21
223.4675610000
0
LINE
8
20000_FRONT_O
62
7
6
CONTINUOUS
10
152.8188640000
20
225.5150130000
11
152.9692250000
21
225.7784660000
0
LINE
8
20000_FRONT_O
62
7
6
CONTINUOUS
10
175.4014610000
20
256.9991380000
11
175.8184410000
21
257.6627600000
0
LINE
8
20000_FRONT_O
62
7
6
CONTINUOUS
10
152.0886400000
20
225.9043310000
11
152.4354880000
21
226.3355540000
0
LINE
8
20000_FRONT_O
62
7
6
CONTINUOUS
10
145.6122120000
20
230.7352370000
11
145.1275880000
21
230.1807170000
0
LINE
8
20000_FRONT_O
62
7
6
CONTINUOUS
10
149.0174850000
20
226.8389640000
11
149.5021090000
21
227.3934360000
0
LINE
8
20000_FRONT_O
62
7
6
CONTINUOUS
10
143.3645000000
20
231.2177180000
11
143.0722090000
21
230.8908480000
0
LINE
8
20000_FRONT_O
62
7
6
CONTINUOUS
10
175.6420830000
20
257.4290530000
11
176.3224800000
21
258.1861780000
0
LINE
8
20000_FRONT_O
62
7
6
CONTINUOUS
10
144.8596970000
20
229.6355470000
11
145.2359580000
21
228.9358320000
0
LINE
8
20000_FRONT_O
62
7
6
CONTINUOUS
10
144.8201700000
20
228.0608370000
11
145.1275880000
21
227.3934360000
0
LINE
8
20000_FRONT_O
62
7
6
CONTINUOUS
10
149.8095280000
20
229.5133160000
11
149.5021090000
21
230.1807170000
0
LINE
8
20000_FRONT_O
62
7
6
CONTINUOUS
10
152.5662880000
20
225.4443300000
11
152.7034640000
21
225.0706610000
0
LINE
8
20000_FRONT_O
62
7
6
CONTINUOUS
10
153.8634100000
20
223.8016980000
11
153.7262340000
21
224.1753670000
0
LINE
8
20000_FRONT_O
62
7
6
CONTINUOUS
10
153.5292320000
20
224.0227600000
11
153.6108280000
21
223.7310620000
0
LINE
8
20000_FRONT_O
62
7
6
CONTINUOUS
10
152.9004670000
20
225.2232680000
11
152.8188640000
21
225.5150130000
0
LINE
8
20000_FRONT_O
62
7
6
CONTINUOUS
10
152.0886400000
20
223.3417450000
11
151.9648470000
21
223.8794540000
0
LINE
8
20000_FRONT_O
62
7
6
CONTINUOUS
10
152.0886400000
20
223.3808900000
11
151.9648470000
21
223.9185990000
0
LINE
8
20000_FRONT_O
62
7
6
CONTINUOUS
10
154.3410580000
20
225.9043310000
11
154.4648510000
21
225.3666210000
0
LINE
8
20000_FRONT_O
62
7
6
CONTINUOUS
10
152.8409560000
20
225.3679780000
11
152.8163810000
21
225.4863810000
0
LINE
8
20000_FRONT_O
62
7
6
CONTINUOUS
10
153.8638040000
20
223.8184120000
11
153.8284500000
21
224.0278950000
0
LINE
8
20000_FRONT_O
62
7
6
CONTINUOUS
10
190.5378430000
20
262.8990680000
11
190.5542060000
21
262.7287300000
0
LINE
8
20000_FRONT_O
62
7
6
CONTINUOUS
10
176.3966280000
20
331.0896720000
11
176.3887430000
21
331.2136960000
0
LINE
8
20000_FRONT_O
62
7
6
CONTINUOUS
10
177.5148490000
20
330.5803530000
11
177.5094350000
21
330.7440050000
0
LINE
8
20000_FRONT_O
62
7
6
CONTINUOUS
10
190.5542060000
20
262.7287300000
11
190.5551990000
21
262.5534980000
0
LINE
8
20000_FRONT_O
62
7
6
CONTINUOUS
10
175.4548490000
20
223.6303420000
11
175.4548490000
21
217.1303510000
0
LINE
8
20000_FRONT_O
62
7
6
CONTINUOUS
10
177.5148490000
20
328.8803600000
11
177.5148490000
21
330.5803530000
0
LINE
8
20000_FRONT_O
62
7
6
CONTINUOUS
10
178.2548480000
20
264.6303580000
11
178.2548480000
21
266.1303630000
0
LINE
8
20000_FRONT_O
62
7
6
CONTINUOUS
10
178.4048510000
20
316.7304720000
11
178.4048510000
21
342.7302410000
0
LINE
8
20000_FRONT_O
62
7
6
CONTINUOUS
10
178.8648520000
20
216.0331310000
11
178.8648520000
21
216.0303700000
0
LINE
8
20000_FRONT_O
62
7
6
CONTINUOUS
10
180.3648450000
20
216.0331310000
11
180.3648450000
21
216.0303700000
0
LINE
8
20000_FRONT_O
62
7
6
CONTINUOUS
10
180.4333970000
20
300.5387280000
11
180.4333970000
21
310.4996990000
0
LINE
8
20000_FRONT_O
62
7
6
CONTINUOUS
10
181.9548520000
20
217.1303510000
11
181.9548520000
21
241.7917330000
0
LINE
8
20000_FRONT_O
62
7
6
CONTINUOUS
10
181.9548520000
20
258.9803640000
11
181.9548520000
21
260.5303660000
0
LINE
8
20000_FRONT_O
62
7
6
CONTINUOUS
10
181.9557240000
20
260.6303600000
11
181.9557240000
21
258.9805090000
0
LINE
8
20000_FRONT_O
62
7
6
CONTINUOUS
10
181.9557240000
20
223.6303420000
11
181.9557240000
21
241.7912480000
0
LINE
8
20000_FRONT_O
62
7
6
CONTINUOUS
10
182.8548580000
20
260.5303660000
11
182.8548580000
21
260.6303600000
0
LINE
8
20000_FRONT_O
62
7
6
CONTINUOUS
10
185.0548560000
20
217.1303510000
11
185.0548560000
21
223.6303420000
0
LINE
8
20000_FRONT_O
62
7
6
CONTINUOUS
10
186.5548500000
20
260.6303600000
11
186.5548500000
21
260.5303660000
0
LINE
8
20000_FRONT_O
62
7
6
CONTINUOUS
10
187.5311830000
20
262.8639930000
11
187.5311830000
21
262.3967250000
0
LINE
8
20000_FRONT_O
62
7
6
CONTINUOUS
10
188.7148440000
20
216.0331310000
11
188.7148440000
21
217.1305450000
0
LINE
8
20000_FRONT_O
62
7
6
CONTINUOUS
10
189.6148490000
20
349.3992130000
11
189.6148490000
21
364.0303450000
0
LINE
8
20000_FRONT_O
62
7
6
CONTINUOUS
10
190.4332830000
20
310.4996990000
11
190.4332830000
21
300.5387280000
0
LINE
8
20000_FRONT_O
62
7
6
CONTINUOUS
10
190.6048570000
20
262.5803860000
11
190.6048570000
21
217.1303510000
0
LINE
8
20000_FRONT_O
62
7
6
CONTINUOUS
10
190.8148490000
20
280.6739040000
11
190.8148490000
21
232.0303620000
0
LINE
8
20000_FRONT_O
62
7
6
CONTINUOUS
10
193.8648440000
20
314.4802700000
11
193.8648440000
21
344.9803940000
0
LINE
8
20000_FRONT_O
62
7
6
CONTINUOUS
10
195.2590900000
20
217.0303570000
11
195.2590900000
21
232.0303620000
0
LINE
8
20000_FRONT_O
62
7
6
CONTINUOUS
10
195.3639530000
20
233.5702870000
11
195.3639530000
21
349.3482960000
0
LINE
8
20000_FRONT_O
62
7
6
CONTINUOUS
10
195.3639530000
20
349.3483930000
11
195.3639530000
21
349.3993100000
0
LINE
8
20000_FRONT_O
62
7
6
CONTINUOUS
10
189.5789140000
20
262.4022480000
11
189.5959550000
21
262.7636110000
0
LINE
8
20000_FRONT_O
62
7
6
CONTINUOUS
10
190.5551990000
20
262.5534980000
11
190.5399990000
21
262.3774430000
0
LINE
8
20000_FRONT_O
62
7
6
CONTINUOUS
10
190.5399990000
20
262.3774430000
11
190.5123840000
21
262.2184410000
0
LINE
8
20000_FRONT_O
62
7
6
CONTINUOUS
10
190.5123840000
20
262.2184410000
11
190.4177320000
21
261.9046040000
0
LINE
8
20000_FRONT_O
62
7
6
CONTINUOUS
10
189.4497190000
20
262.0829840000
11
189.5789140000
21
262.4022480000
0
LINE
8
20000_FRONT_O
62
7
6
CONTINUOUS
10
190.4177320000
20
261.9046040000
11
190.3507540000
21
261.7519000000
0
LINE
8
20000_FRONT_O
62
7
6
CONTINUOUS
10
187.7339320000
20
263.2850430000
11
187.5311830000
21
262.8639930000
0
LINE
8
20000_FRONT_O
62
7
6
CONTINUOUS
10
190.3507540000
20
261.7519000000
11
190.2706840000
21
261.6035560000
0
LINE
8
20000_FRONT_O
62
7
6
CONTINUOUS
10
190.2706840000
20
261.6035560000
11
190.1779330000
21
261.4613650000
0
LINE
8
20000_FRONT_O
62
7
6
CONTINUOUS
10
190.1779330000
20
261.4613650000
11
190.0709870000
21
261.3246490000
0
LINE
8
20000_FRONT_O
62
7
6
CONTINUOUS
10
154.3410580000
20
223.3808900000
11
153.9942100000
21
222.9496660000
0
LINE
8
20000_FRONT_O
62
7
6
CONTINUOUS
10
154.3410580000
20
223.3417450000
11
153.9942100000
21
222.9105210000
0
LINE
8
20000_FRONT_O
62
7
6
CONTINUOUS
10
189.2138680000
20
261.8133790000
11
189.4497190000
21
262.0829840000
0
LINE
8
20000_FRONT_O
62
7
6
CONTINUOUS
10
190.0709870000
20
261.3246490000
11
189.9512990000
21
261.1970400000
0
LINE
8
20000_FRONT_O
62
7
6
CONTINUOUS
10
175.8184410000
20
257.6627600000
11
176.3726350000
21
258.2169410000
0
LINE
8
20000_FRONT_O
62
7
6
CONTINUOUS
10
148.8205440000
20
228.3824260000
11
149.3935890000
21
228.9356380000
0
LINE
8
20000_FRONT_O
62
7
6
CONTINUOUS
10
143.6798210000
20
231.5184260000
11
143.3645000000
21
231.2177180000
0
LINE
8
20000_FRONT_O
62
7
6
CONTINUOUS
10
189.9512990000
20
261.1970400000
11
189.8283170000
21
261.0872600000
0
LINE
8
20000_FRONT_O
62
7
6
CONTINUOUS
10
144.0115170000
20
231.7883710000
11
143.6798210000
21
231.5184260000
0
LINE
8
20000_FRONT_O
62
7
6
CONTINUOUS
10
188.0992810000
20
263.5764010000
11
187.7339320000
21
263.2850430000
0
LINE
8
20000_FRONT_O
62
7
6
CONTINUOUS
10
152.9928910000
20
226.0713750000
11
152.6768430000
21
225.8265740000
0
LINE
8
20000_FRONT_O
62
7
6
CONTINUOUS
10
144.3610230000
20
232.0303620000
11
144.0115170000
21
231.7883710000
0
LINE
8
20000_FRONT_O
62
7
6
CONTINUOUS
10
189.8283170000
20
261.0872600000
11
189.5517840000
21
260.8973490000
0
LINE
8
20000_FRONT_O
62
7
6
CONTINUOUS
10
176.3224800000
20
258.1861780000
11
176.9959610000
21
258.6218100000
0
LINE
8
20000_FRONT_O
62
7
6
CONTINUOUS
10
176.3726350000
20
258.2169410000
11
177.0362570000
21
258.6339220000
0
LINE
8
20000_FRONT_O
62
7
6
CONTINUOUS
10
145.1275880000
20
227.3934360000
11
145.6122120000
21
226.8389640000
0
LINE
8
20000_FRONT_O
62
7
6
CONTINUOUS
10
152.4354880000
20
222.9105210000
11
152.0886400000
21
223.3417450000
0
LINE
8
20000_FRONT_O
62
7
6
CONTINUOUS
10
152.4354880000
20
222.9496660000
11
152.0886400000
21
223.3808900000
0
LINE
8
20000_FRONT_O
62
7
6
CONTINUOUS
10
153.9942100000
20
226.3355540000
11
154.3410580000
21
225.9043310000
0
LINE
8
20000_FRONT_O
62
7
6
CONTINUOUS
10
152.2417190000
20
224.8128760000
11
153.1652090000
21
223.6409520000
0
LINE
8
20000_FRONT_O
62
7
6
CONTINUOUS
10
152.8235090000
20
224.4771410000
11
152.4387220000
21
224.9654350000
0
LINE
8
20000_FRONT_O
62
7
6
CONTINUOUS
10
153.3622120000
20
223.7935580000
11
152.9774240000
21
224.2818520000
0
LINE
8
20000_FRONT_O
62
7
6
CONTINUOUS
10
153.3622120000
20
223.8327030000
11
152.9965910000
21
224.2966770000
0
LINE
8
20000_FRONT_O
62
7
6
CONTINUOUS
10
152.8235090000
20
224.5163340000
11
152.4387220000
21
225.0046280000
0
LINE
8
20000_FRONT_O
62
7
6
CONTINUOUS
10
152.7034640000
20
225.0706610000
11
153.0393870000
21
224.6443790000
0
LINE
8
20000_FRONT_O
62
7
6
CONTINUOUS
10
153.7262340000
20
224.1753670000
11
153.3903110000
21
224.6016490000
0
LINE
8
20000_FRONT_O
62
7
6
CONTINUOUS
10
153.2363900000
20
224.7969860000
11
152.9004670000
21
225.2232680000
0
LINE
8
20000_FRONT_O
62
7
6
CONTINUOUS
10
153.2363900000
20
224.8361300000
11
152.9004670000
21
225.2624130000
0
LINE
8
20000_FRONT_O
62
7
6
CONTINUOUS
10
153.7262340000
20
224.2145600000
11
153.4094710000
21
224.6165220000
0
LINE
8
20000_FRONT_O
62
7
6
CONTINUOUS
10
153.6061890000
20
224.7688870000
11
153.9909770000
21
224.2805930000
0
LINE
8
20000_FRONT_O
62
7
6
CONTINUOUS
10
153.0674860000
20
225.4525170000
11
153.4522740000
21
224.9642230000
0
LINE
8
20000_FRONT_O
62
7
6
CONTINUOUS
10
154.1879790000
20
224.4332000000
11
153.2644890000
21
225.6050760000
0
LINE
8
20000_FRONT_O
62
7
6
CONTINUOUS
10
154.1879790000
20
224.4723450000
11
153.2644890000
21
225.6442690000
0
LINE
8
20000_FRONT_O
62
7
6
CONTINUOUS
10
153.1933020000
20
224.4490900000
11
153.5292320000
21
224.0227600000
0
LINE
8
20000_FRONT_O
62
7
6
CONTINUOUS
10
152.9004670000
20
225.2624130000
11
152.8409560000
21
225.3679780000
0
LINE
8
20000_FRONT_O
62
7
6
CONTINUOUS
10
153.8284500000
20
224.0278950000
11
153.7262340000
21
224.2145600000
0
LINE
8
20000_FRONT_O
62
7
6
CONTINUOUS
10
175.4467950000
20
246.8711710000
11
175.1542500000
21
247.6523250000
0
LINE
8
20000_FRONT_O
62
7
6
CONTINUOUS
10
175.1542500000
20
247.6521790000
11
175.4468070000
21
246.8710250000
0
LINE
8
20000_FRONT_O
62
7
6
CONTINUOUS
10
176.3887430000
20
331.2136960000
11
176.3713140000
21
331.3278360000
0
LINE
8
20000_FRONT_O
62
7
6
CONTINUOUS
10
177.5094350000
20
330.7440050000
11
177.4658450000
21
331.0721350000
0
LINE
8
20000_FRONT_O
62
7
6
CONTINUOUS
10
172.3948490000
20
328.8803600000
11
172.4788190000
21
328.2354380000
0
LINE
8
20000_FRONT_O
62
7
6
CONTINUOUS
10
175.1542500000
20
247.6521790000
11
175.0548490000
21
248.4805200000
0
LINE
8
20000_FRONT_O
62
7
6
CONTINUOUS
10
197.0148460000
20
217.0303570000
11
197.0148460000
21
364.0303450000
0
LINE
8
20000_FRONT_O
62
7
6
CONTINUOUS
10
152.4387220000
20
225.0046280000
11
152.2417190000
21
224.8520210000
0
LINE
8
20000_FRONT_O
62
7
6
CONTINUOUS
10
153.2644890000
20
225.6442690000
11
153.0674860000
21
225.4916620000
0
LINE
8
20000_FRONT_O
62
7
6
CONTINUOUS
10
153.5292320000
20
225.7103020000
11
153.7262340000
21
225.8629090000
0
LINE
8
20000_FRONT_O
62
7
6
CONTINUOUS
10
153.4331070000
20
224.9884950000
11
153.2363900000
21
224.8361300000
0
LINE
8
20000_FRONT_O
62
7
6
CONTINUOUS
10
153.0202270000
20
224.6686990000
11
152.8235090000
21
224.5163340000
0
LINE
8
20000_FRONT_O
62
7
6
CONTINUOUS
10
153.0393870000
20
224.6443790000
11
152.8235090000
21
224.4771410000
0
LINE
8
20000_FRONT_O
62
7
6
CONTINUOUS
10
153.4522740000
20
224.9642230000
11
153.2363900000
21
224.7969860000
0
LINE
8
20000_FRONT_O
62
7
6
CONTINUOUS
10
152.9774240000
20
224.2818520000
11
153.1933020000
21
224.4490900000
0
LINE
8
20000_FRONT_O
62
7
6
CONTINUOUS
10
153.3903110000
20
224.6016490000
11
153.6061890000
21
224.7688870000
0
LINE
8
20000_FRONT_O
62
7
6
CONTINUOUS
10
152.9004670000
20
223.5749190000
11
152.7034640000
21
223.4223120000
0
LINE
8
20000_FRONT_O
62
7
6
CONTINUOUS
10
152.9004670000
20
223.5357250000
11
152.7034640000
21
223.3831180000
0
LINE
8
20000_FRONT_O
62
7
6
CONTINUOUS
10
153.9909770000
20
224.2805930000
11
154.1879790000
21
224.4332000000
0
LINE
8
20000_FRONT_O
62
7
6
CONTINUOUS
10
153.1652090000
20
223.6409520000
11
153.3622120000
21
223.7935580000
0
LINE
8
20000_FRONT_O
62
7
6
CONTINUOUS
10
153.4368070000
20
223.1746520000
11
153.7528550000
21
223.4194530000
0
LINE
8
20000_FRONT_O
62
7
6
CONTINUOUS
10
153.2644890000
20
225.6050760000
11
153.0674860000
21
225.4525170000
0
LINE
8
20000_FRONT_O
62
7
6
CONTINUOUS
10
152.4387220000
20
224.9654350000
11
152.2417190000
21
224.8128760000
0
LINE
8
20000_FRONT_O
62
7
6
CONTINUOUS
10
153.0035850000
20
226.1142990000
11
152.6865380000
21
225.8795750000
0
LINE
8
20000_FRONT_O
62
7
6
CONTINUOUS
10
146.2347700000
20
231.1319190000
11
145.6122120000
21
230.7352370000
0
LINE
8
20000_FRONT_O
62
7
6
CONTINUOUS
10
148.3949280000
20
226.4422820000
11
149.0174850000
21
226.8389640000
0
LINE
8
20000_FRONT_O
62
7
6
CONTINUOUS
10
188.9041970000
20
261.6414420000
11
189.2138680000
21
261.8133790000
0
LINE
8
20000_FRONT_O
62
7
6
CONTINUOUS
10
189.5517840000
20
260.8973490000
11
189.3999040000
21
260.8189630000
0
LINE
8
20000_FRONT_O
62
7
6
CONTINUOUS
10
148.1050230000
20
228.0280870000
11
148.8205440000
21
228.3824260000
0
LINE
8
11000_LEFT
62
7
6
CONTINUOUS
10
390.7928180000
20
347.8303170000
11
390.1230430000
21
347.5361000000
0
LINE
8
11000_LEFT
62
7
6
CONTINUOUS
10
388.7481030000
20
345.0303430000
11
381.5480820000
21
342.0303320000
0
LINE
8
20000_FRONT_O
62
7
6
CONTINUOUS
10
189.3999040000
20
260.8189630000
11
189.2475990000
21
260.7556430000
0
LINE
8
20000_FRONT_O
62
7
6
CONTINUOUS
10
176.9959610000
20
258.6218100000
11
177.7523350000
21
258.8959700000
0
LINE
8
20000_FRONT_O
62
7
6
CONTINUOUS
10
177.0362570000
20
258.6339220000
11
177.7760250000
21
258.8927720000
0
LINE
8
20000_FRONT_O
62
7
6
CONTINUOUS
10
151.2745000000
20
231.2080770000
11
150.9659310000
21
231.5042310000
0
LINE
8
20000_FRONT_O
62
7
6
CONTINUOUS
10
145.2359580000
20
228.9358320000
11
145.8089420000
21
228.3825710000
0
LINE
8
20000_FRONT_O
62
7
6
CONTINUOUS
10
151.5574890000
20
230.8908480000
11
151.2745000000
21
231.2080770000
0
LINE
8
20000_FRONT_O
62
7
6
CONTINUOUS
10
149.5021090000
20
230.1807170000
11
149.0174850000
21
230.7352370000
0
LINE
8
20000_FRONT_O
62
7
6
CONTINUOUS
10
189.5959550000
20
262.7636110000
11
189.4964090000
21
263.0921280000
0
LINE
8
20000_FRONT_O
62
7
6
CONTINUOUS
10
173.8633520000
20
329.5075980000
11
173.8915600000
21
329.4142420000
0
LINE
8
20000_FRONT_O
62
7
6
CONTINUOUS
10
177.4276210000
20
331.2351090000
11
177.3976080000
21
331.3380100000
0
LINE
8
20000_FRONT_O
62
7
6
CONTINUOUS
10
173.5109510000
20
330.9204000000
11
173.6387050000
21
330.4715410000
0
LINE
8
20000_FRONT_O
62
7
6
CONTINUOUS
10
176.3713140000
20
331.3278360000
11
176.3174900000
21
331.5252080000
0
LINE
8
20000_FRONT_O
62
7
6
CONTINUOUS
10
190.4630900000
20
263.2277790000
11
190.5070910000
21
263.0660640000
0
LINE
8
20000_FRONT_O
62
7
6
CONTINUOUS
10
173.7052830000
20
330.1153130000
11
173.8632310000
21
329.5075500000
0
LINE
8
20000_FRONT_O
62
7
6
CONTINUOUS
10
173.5473350000
20
330.7230280000
11
173.7052830000
21
330.1153130000
0
LINE
8
20000_FRONT_O
62
7
6
CONTINUOUS
10
177.4658450000
20
331.0721350000
11
177.4276210000
21
331.2351090000
0
LINE
8
20000_FRONT_O
62
7
6
CONTINUOUS
10
190.5070910000
20
263.0660640000
11
190.5378430000
21
262.8990680000
0
LINE
8
11000_LEFT
62
7
6
CONTINUOUS
10
390.1230430000
20
347.5361000000
11
389.5019330000
21
347.1325880000
0
LINE
8
20000_FRONT_O
62
7
6
CONTINUOUS
10
152.4354880000
20
226.3355540000
11
152.9366990000
21
226.5748320000
0
LINE
8
20000_FRONT_O
62
7
6
CONTINUOUS
10
153.9942100000
20
222.9496660000
11
153.4929990000
21
222.7103880000
0
LINE
8
20000_FRONT_O
62
7
6
CONTINUOUS
10
153.9942100000
20
222.9105210000
11
153.4929990000
21
222.6711950000
0
LINE
8
11000_LEFT
62
7
6
CONTINUOUS
10
498.7954300000
20
352.7235740000
11
498.3809690000
21
352.5765870000
0
LINE
8
11000_LEFT
62
7
6
CONTINUOUS
10
499.8889190000
20
364.0303450000
11
499.5786670000
21
363.9212920000
0
LINE
8
20000_FRONT_O
62
7
6
CONTINUOUS
10
146.9448290000
20
231.3385920000
11
146.2347700000
21
231.1319190000
0
LINE
8
13000_TOP
62
7
6
CONTINUOUS
10
307.3101790000
20
144.2748340000
11
287.4101590000
21
144.2748340000
0
LINE
8
13000_TOP
62
7
6
CONTINUOUS
10
257.5101670000
20
144.2748340000
11
277.4101640000
21
144.2748340000
0
LINE
8
13000_TOP
62
7
6
CONTINUOUS
10
315.3101750000
20
146.7748270000
11
313.3101760000
21
146.7748270000
0
LINE
8
13000_TOP
62
7
6
CONTINUOUS
10
307.3039300000
20
146.7748270000
11
287.4105710000
21
146.7748270000
0
LINE
8
13000_TOP
62
7
6
CONTINUOUS
10
255.5101680000
20
146.7748270000
11
253.5101690000
21
146.7748270000
0
LINE
8
13000_TOP
62
7
6
CONTINUOUS
10
251.5101700000
20
146.7748270000
11
249.5101710000
21
146.7748270000
0
LINE
8
13000_TOP
62
7
6
CONTINUOUS
10
309.3101780000
20
146.7748270000
11
311.3101770000
21
146.7748270000
0
LINE
8
13000_TOP
62
7
6
CONTINUOUS
10
307.3096710000
20
147.1748510000
11
287.4097230000
21
147.1748510000
0
LINE
8
13000_TOP
62
7
6
CONTINUOUS
10
277.4106000000
20
147.1748510000
11
257.5106520000
21
147.1748510000
0
LINE
8
13000_TOP
62
7
6
CONTINUOUS
10
250.1913560000
20
147.1748510000
11
249.5107290000
21
147.1748510000
0
LINE
8
13000_TOP
62
7
6
CONTINUOUS
10
285.4101600000
20
147.2748450000
11
283.4101610000
21
147.2748450000
0
LINE
8
13000_TOP
62
7
6
CONTINUOUS
10
281.4101620000
20
147.2748450000
11
279.4101630000
21
147.2748450000
0
LINE
8
13000_TOP
62
7
6
CONTINUOUS
10
317.3101740000
20
147.4748330000
11
315.3101750000
21
147.4748330000
0
LINE
8
13000_TOP
62
7
6
CONTINUOUS
10
313.3101760000
20
147.4748330000
11
311.3101770000
21
147.4748330000
0
LINE
8
13000_TOP
62
7
6
CONTINUOUS
10
309.3101780000
20
147.4748330000
11
307.3101790000
21
147.4748330000
0
LINE
8
13000_TOP
62
7
6
CONTINUOUS
10
287.4101590000
20
147.4748330000
11
285.4101600000
21
147.4748330000
0
LINE
8
13000_TOP
62
7
6
CONTINUOUS
10
283.4101610000
20
147.4748330000
11
281.4101620000
21
147.4748330000
0
LINE
8
13000_TOP
62
7
6
CONTINUOUS
10
279.4101630000
20
147.4748330000
11
277.4101640000
21
147.4748330000
0
LINE
8
13000_TOP
62
7
6
CONTINUOUS
10
257.5101670000
20
147.4748330000
11
255.5101680000
21
147.4748330000
0
LINE
8
13000_TOP
62
7
6
CONTINUOUS
10
253.5101690000
20
147.4748330000
11
251.5101700000
21
147.4748330000
0
LINE
8
13000_TOP
62
7
6
CONTINUOUS
10
249.5101710000
20
147.4748330000
11
247.5101720000
21
147.4748330000
0
LINE
8
13000_TOP
62
7
6
CONTINUOUS
10
317.3101740000
20
149.7748380000
11
315.3101750000
21
149.7748380000
0
LINE
8
13000_TOP
62
7
6
CONTINUOUS
10
313.3101760000
20
149.7748380000
11
311.3101770000
21
149.7748380000
0
LINE
8
13000_TOP
62
7
6
CONTINUOUS
10
309.3101780000
20
149.7748380000
11
307.3101790000
21
149.7748380000
0
LINE
8
13000_TOP
62
7
6
CONTINUOUS
10
287.4101590000
20
149.7748380000
11
285.4101600000
21
149.7748380000
0
LINE
8
13000_TOP
62
7
6
CONTINUOUS
10
283.4101610000
20
149.7748380000
11
281.4101620000
21
149.7748380000
0
LINE
8
13000_TOP
62
7
6
CONTINUOUS
10
279.4101630000
20
149.7748380000
11
277.4101640000
21
149.7748380000
0
LINE
8
13000_TOP
62
7
6
CONTINUOUS
10
257.5101670000
20
149.7748380000
11
255.5101680000
21
149.7748380000
0
LINE
8
13000_TOP
62
7
6
CONTINUOUS
10
253.5101690000
20
149.7748380000
11
251.5101700000
21
149.7748380000
0
LINE
8
13000_TOP
62
7
6
CONTINUOUS
10
249.5101710000
20
149.7748380000
11
247.5101720000
21
149.7748380000
0
LINE
8
13000_TOP
62
7
6
CONTINUOUS
10
250.1908470000
20
149.9748250000
11
255.5809250000
21
149.9748250000
0
LINE
8
13000_TOP
62
7
6
CONTINUOUS
10
308.2394100000
20
149.9748250000
11
315.6294630000
21
149.9748250000
0
LINE
8
20000_FRONT_O
62
7
6
CONTINUOUS
10
145.6122120000
20
226.8389640000
11
146.2347700000
21
226.4422820000
0
LINE
8
20000_FRONT_O
62
7
6
CONTINUOUS
10
149.0174850000
20
230.7352370000
11
148.3949280000
21
231.1319190000
0
LINE
8
20000_FRONT_O
62
7
6
CONTINUOUS
10
152.7034640000
20
223.3831180000
11
153.0359720000
21
223.1607970000
0
LINE
8
20000_FRONT_O
62
7
6
CONTINUOUS
10
153.7262340000
20
225.8629090000
11
153.3937260000
21
226.0852790000
0
LINE
8
20000_FRONT_O
62
7
6
CONTINUOUS
10
153.7262340000
20
225.9020540000
11
153.3991700000
21
226.1228740000
0
LINE
8
20000_FRONT_O
62
7
6
CONTINUOUS
10
150.6288700000
20
231.7803290000
11
150.2686750000
21
232.0303620000
0
LINE
8
20000_FRONT_O
62
7
6
CONTINUOUS
10
150.9659310000
20
231.5042310000
11
150.6288700000
21
231.7803290000
0
LINE
8
20000_FRONT_O
62
7
6
CONTINUOUS
10
175.4468070000
20
246.8710250000
11
175.9158920000
21
246.1812420000
0
LINE
8
20000_FRONT_O
62
7
6
CONTINUOUS
10
175.9158800000
20
246.1814360000
11
175.4467950000
21
246.8711710000
0
LINE
8
20000_FRONT_O
62
7
6
CONTINUOUS
10
190.2600740000
20
263.6747960000
11
190.3387880000
21
263.5328960000
0
LINE
8
20000_FRONT_O
62
7
6
CONTINUOUS
10
187.5311830000
20
262.3967250000
11
187.7339320000
21
261.9756750000
0
LINE
8
20000_FRONT_O
62
7
6
CONTINUOUS
10
176.3174900000
20
331.5252080000
11
176.2609890000
21
331.6625060000
0
LINE
8
20000_FRONT_O
62
7
6
CONTINUOUS
10
190.3387880000
20
263.5328960000
11
190.4630900000
21
263.2277790000
0
LINE
8
20000_FRONT_O
62
7
6
CONTINUOUS
10
173.8915600000
20
329.4142420000
11
173.9290100000
21
329.3196740000
0
LINE
8
13000_TOP
62
7
6
CONTINUOUS
10
255.6577130000
20
149.7747890000
11
255.5809250000
21
149.9748250000
0
LINE
8
20000_FRONT_O
62
7
6
CONTINUOUS
10
177.3976080000
20
331.3380100000
11
177.3245990000
21
331.5404680000
0
LINE
8
20000_FRONT_O
62
7
6
CONTINUOUS
10
172.4788190000
20
328.2354380000
11
172.6245350000
21
327.8262090000
0
LINE
8
13000_TOP
62
7
6
CONTINUOUS
10
247.5101720000
20
20.9876420000
11
247.5101720000
21
32.1478380000
0
LINE
8
13000_TOP
62
7
6
CONTINUOUS
10
247.5101720000
20
32.1607250000
11
247.5101720000
21
149.7748380000
0
LINE
8
10000_FRONT
62
7
6
CONTINUOUS
10
247.5101720000
20
217.0303570000
11
247.5101720000
21
364.0303450000
0
LINE
8
10000_FRONT
62
7
6
CONTINUOUS
10
249.2679620000
20
222.0464270000
11
249.2679620000
21
217.0303570000
0
LINE
8
13000_TOP
62
7
6
CONTINUOUS
10
249.5101710000
20
146.7748270000
11
249.5101710000
21
149.7748380000
0
LINE
8
13000_TOP
62
7
6
CONTINUOUS
10
250.1908470000
20
146.7747780000
11
250.1908470000
21
149.9748250000
0
LINE
8
13000_TOP
62
7
6
CONTINUOUS
10
251.5101700000
20
146.7748270000
11
251.5101700000
21
149.7748380000
0
LINE
8
13000_TOP
62
7
6
CONTINUOUS
10
253.5101690000
20
146.7748270000
11
253.5101690000
21
149.7748380000
0
LINE
8
10000_FRONT
62
7
6
CONTINUOUS
10
254.7101690000
20
364.0303450000
11
254.7101690000
21
353.7495290000
0
LINE
8
13000_TOP
62
7
6
CONTINUOUS
10
254.7101690000
20
32.1598280000
11
254.7101690000
21
28.4230410000
0
LINE
8
10000_FRONT
62
7
6
CONTINUOUS
10
254.9101810000
20
364.0303450000
11
254.9101810000
21
353.7495290000
0
LINE
8
13000_TOP
62
7
6
CONTINUOUS
10
254.9101810000
20
42.7748300000
11
254.9101810000
21
28.4454960000
0
LINE
8
13000_TOP
62
7
6
CONTINUOUS
10
255.5101680000
20
146.7748270000
11
255.5101680000
21
149.7748380000
0
LINE
8
13000_TOP
62
7
6
CONTINUOUS
10
257.5101670000
20
144.2748340000
11
257.5101670000
21
149.7748380000
0
LINE
8
20000_FRONT_O
62
7
6
CONTINUOUS
10
153.4754010000
20
223.5188660000
11
153.1758310000
21
223.4247830000
0
LINE
8
20000_FRONT_O
62
7
6
CONTINUOUS
10
147.6848690000
20
226.2355610000
11
148.3949280000
21
226.4422820000
0
LINE
8
20000_FRONT_O
62
7
6
CONTINUOUS
10
152.9366990000
20
222.7103880000
11
152.4354880000
21
222.9496660000
0
LINE
8
20000_FRONT_O
62
7
6
CONTINUOUS
10
153.4929990000
20
226.5748320000
11
153.9942100000
21
226.3355540000
0
LINE
8
20000_FRONT_O
62
7
6
CONTINUOUS
10
152.9366990000
20
222.6711950000
11
152.4354880000
21
222.9105210000
0
LINE
8
20000_FRONT_O
62
7
6
CONTINUOUS
10
145.8089420000
20
228.3825710000
11
146.5244330000
21
228.0281840000
0
LINE
8
20000_FRONT_O
62
7
6
CONTINUOUS
10
153.1758310000
20
223.4247830000
11
152.9004670000
21
223.5749190000
0
LINE
8
20000_FRONT_O
62
7
6
CONTINUOUS
10
153.1662270000
20
223.3866550000
11
152.9004670000
21
223.5357250000
0
LINE
8
20000_FRONT_O
62
7
6
CONTINUOUS
10
153.2634710000
20
225.8593720000
11
153.5292320000
21
225.7103020000
0
LINE
8
20000_FRONT_O
62
7
6
CONTINUOUS
10
176.5348700000
20
245.6221190000
11
181.9548520000
21
241.7917330000
0
LINE
8
20000_FRONT_O
62
7
6
CONTINUOUS
10
181.9557240000
20
241.7912480000
11
176.5348580000
21
245.6222650000
0
LINE
8
20000_FRONT_O
62
7
6
CONTINUOUS
10
175.9158920000
20
246.1812420000
11
176.5348700000
21
245.6221190000
0
LINE
8
20000_FRONT_O
62
7
6
CONTINUOUS
10
176.5348580000
20
245.6222650000
11
175.9158800000
21
246.1814360000
0
LINE
8
20000_FRONT_O
62
7
6
CONTINUOUS
10
189.9381940000
20
264.0762730000
11
190.0550720000
21
263.9543820000
0
LINE
8
20000_FRONT_O
62
7
6
CONTINUOUS
10
190.0550720000
20
263.9543820000
11
190.1632650000
21
263.8196030000
0
LINE
8
20000_FRONT_O
62
7
6
CONTINUOUS
10
189.4964090000
20
263.0921280000
11
189.2864420000
21
263.3833410000
0
LINE
8
20000_FRONT_O
62
7
6
CONTINUOUS
10
190.1632650000
20
263.8196030000
11
190.2600740000
21
263.6747960000
0
LINE
8
20000_FRONT_O
62
7
6
CONTINUOUS
10
173.9733260000
20
329.2304840000
11
174.0254910000
21
329.1445880000
0
LINE
8
20000_FRONT_O
62
7
6
CONTINUOUS
10
173.5573150000
20
326.7354810000
11
173.8211190000
21
326.2982500000
0
LINE
8
20000_FRONT_O
62
7
6
CONTINUOUS
10
176.3523840000
20
332.7252310000
11
176.0919950000
21
333.1585380000
0
LINE
8
20000_FRONT_O
62
7
6
CONTINUOUS
10
177.2337740000
20
331.7389540000
11
177.1251080000
21
331.9317240000
0
LINE
8
20000_FRONT_O
62
7
6
CONTINUOUS
10
172.6245350000
20
327.8262090000
11
172.8431750000
21
327.4371340000
0
LINE
8
20000_FRONT_O
62
7
6
CONTINUOUS
10
176.2609890000
20
331.6625060000
11
176.2202210000
21
331.7421520000
0
LINE
8
20000_FRONT_O
62
7
6
CONTINUOUS
10
173.9290100000
20
329.3196740000
11
173.9733260000
21
329.2304840000
0
LINE
8
20000_FRONT_O
62
7
6
CONTINUOUS
10
177.3245990000
20
331.5404680000
11
177.2337740000
21
331.7389540000
0
LINE
8
10000_FRONT
62
7
6
CONTINUOUS
10
258.5101790000
20
219.0795540000
11
258.5101790000
21
222.6051620000
0
LINE
8
10000_FRONT
62
7
6
CONTINUOUS
10
259.5101670000
20
222.0976350000
11
259.5101670000
21
222.7141670000
0
LINE
8
10000_FRONT
62
7
6
CONTINUOUS
10
262.6101710000
20
361.0658460000
11
262.6101710000
21
359.0291000000
0
LINE
8
10000_FRONT
62
7
6
CONTINUOUS
10
264.6101700000
20
359.0291000000
11
264.6101700000
21
361.0658460000
0
LINE
8
10000_FRONT
62
7
6
CONTINUOUS
10
266.6101690000
20
361.0658460000
11
266.6101690000
21
359.0291000000
0
LINE
8
10000_FRONT
62
7
6
CONTINUOUS
10
266.8601780000
20
221.6630680000
11
266.8601780000
21
221.4563470000
0
LINE
8
10000_FRONT
62
7
6
CONTINUOUS
10
266.8601780000
20
221.3382340000
11
266.8601780000
21
220.3795230000
0
LINE
8
10000_FRONT
62
7
6
CONTINUOUS
10
268.3601590000
20
221.6630680000
11
268.3601590000
21
221.4563470000
0
LINE
8
10000_FRONT
62
7
6
CONTINUOUS
10
268.3601590000
20
221.3382340000
11
268.3601590000
21
220.3795230000
0
LINE
8
10000_FRONT
62
7
6
CONTINUOUS
10
268.6101680000
20
359.0291000000
11
268.6101680000
21
361.0658460000
0
LINE
8
10000_FRONT
62
7
6
CONTINUOUS
10
270.6101670000
20
361.0658460000
11
270.6101670000
21
359.0291000000
0
LINE
8
10000_FRONT
62
7
6
CONTINUOUS
10
272.2601630000
20
223.8794540000
11
272.2601630000
21
224.9704250000
0
LINE
8
10000_FRONT
62
7
6
CONTINUOUS
10
272.5370360000
20
224.8520210000
11
272.5370360000
21
224.8128760000
0
LINE
8
10000_FRONT
62
7
6
CONTINUOUS
10
272.6101660000
20
359.0291000000
11
272.6101660000
21
361.0658460000
0
LINE
8
10000_FRONT
62
7
6
CONTINUOUS
10
272.7340440000
20
225.0046280000
11
272.7340440000
21
224.9654350000
0
LINE
8
10000_FRONT
62
7
6
CONTINUOUS
10
272.9987810000
20
223.4223120000
11
272.9987810000
21
223.3831180000
0
LINE
8
10000_FRONT
62
7
6
CONTINUOUS
10
273.1188320000
20
224.5163340000
11
273.1188320000
21
224.4771410000
0
LINE
8
10000_FRONT
62
7
6
CONTINUOUS
10
273.1957890000
20
223.5749190000
11
273.1957890000
21
223.5357250000
0
LINE
8
10000_FRONT
62
7
6
CONTINUOUS
10
273.5317180000
20
224.8361300000
11
273.5317180000
21
224.7969860000
0
LINE
8
10000_FRONT
62
7
6
CONTINUOUS
10
273.6575340000
20
223.8327030000
11
273.6575340000
21
223.7935580000
0
LINE
8
10000_FRONT
62
7
6
CONTINUOUS
10
274.0215630000
20
224.2145600000
11
274.0215630000
21
224.1753670000
0
LINE
8
10000_FRONT
62
7
6
CONTINUOUS
10
274.1591270000
20
223.7792670000
11
274.1591270000
21
223.8184120000
0
LINE
8
10000_FRONT
62
7
6
CONTINUOUS
10
274.4833080000
20
224.4723450000
11
274.4833080000
21
224.4332000000
0
LINE
8
10000_FRONT
62
7
6
CONTINUOUS
10
274.7601800000
20
225.0303530000
11
274.7601800000
21
223.8794540000
0
LINE
8
10000_FRONT
62
7
6
CONTINUOUS
10
275.7101710000
20
222.0976350000
11
275.7101710000
21
225.0303530000
0
LINE
8
10000_FRONT
62
7
6
CONTINUOUS
10
276.7101580000
20
219.0795540000
11
276.7101580000
21
225.0303050000
0
LINE
8
10000_FRONT
62
7
6
CONTINUOUS
10
276.8601730000
20
225.0047250000
11
276.8601730000
21
222.8634310000
0
LINE
8
13000_TOP
62
7
6
CONTINUOUS
10
277.4101640000
20
144.2748340000
11
277.4101640000
21
149.7748380000
0
LINE
8
10000_FRONT
62
7
6
CONTINUOUS
10
278.2101630000
20
225.0047250000
11
278.2101630000
21
222.8634310000
0
LINE
8
10000_FRONT
62
7
6
CONTINUOUS
10
274.7601800000
20
223.9185990000
11
274.6363750000
21
223.3808900000
0
LINE
8
10000_FRONT
62
7
6
CONTINUOUS
10
274.7601800000
20
223.8794540000
11
274.6363750000
21
223.3417450000
0
LINE
8
10000_FRONT
62
7
6
CONTINUOUS
10
274.0481840000
20
223.4194530000
11
274.1587390000
21
223.8016980000
0
LINE
8
10000_FRONT
62
7
6
CONTINUOUS
10
273.9086330000
20
223.7988390000
11
273.7707300000
21
223.5188660000
0
LINE
8
10000_FRONT
62
7
6
CONTINUOUS
10
273.9061630000
20
223.7310620000
11
273.7557840000
21
223.4675610000
0
LINE
8
10000_FRONT
62
7
6
CONTINUOUS
10
274.6363750000
20
223.3808900000
11
274.2895210000
21
222.9496660000
0
LINE
8
10000_FRONT
62
7
6
CONTINUOUS
10
274.6363750000
20
223.3417450000
11
274.2895210000
21
222.9105210000
0
LINE
8
10000_FRONT
62
7
6
CONTINUOUS
10
272.7340440000
20
225.0046280000
11
272.5370360000
21
224.8520210000
0
LINE
8
10000_FRONT
62
7
6
CONTINUOUS
10
273.3155490000
20
224.6686990000
11
273.1188320000
21
224.5163340000
0
LINE
8
10000_FRONT
62
7
6
CONTINUOUS
10
273.7284360000
20
224.9884950000
11
273.5317180000
21
224.8361300000
0
LINE
8
10000_FRONT
62
7
6
CONTINUOUS
10
273.3347100000
20
224.6443790000
11
273.1188320000
21
224.4771410000
0
LINE
8
10000_FRONT
62
7
6
CONTINUOUS
10
273.7475970000
20
224.9642230000
11
273.5317180000
21
224.7969860000
0
LINE
8
10000_FRONT
62
7
6
CONTINUOUS
10
273.2727470000
20
224.2818520000
11
273.4886250000
21
224.4490900000
0
LINE
8
10000_FRONT
62
7
6
CONTINUOUS
10
273.6856330000
20
224.6016490000
11
273.9015120000
21
224.7688870000
0
LINE
8
10000_FRONT
62
7
6
CONTINUOUS
10
273.1957890000
20
223.5749190000
11
272.9987810000
21
223.4223120000
0
LINE
8
10000_FRONT
62
7
6
CONTINUOUS
10
273.1957890000
20
223.5357250000
11
272.9987810000
21
223.3831180000
0
LINE
8
10000_FRONT
62
7
6
CONTINUOUS
10
273.4605260000
20
223.6409520000
11
273.6575340000
21
223.7935580000
0
LINE
8
10000_FRONT
62
7
6
CONTINUOUS
10
274.2862990000
20
224.2805930000
11
274.4833080000
21
224.4332000000
0
LINE
8
10000_FRONT
62
7
6
CONTINUOUS
10
273.7321180000
20
223.1746520000
11
274.0481840000
21
223.4194530000
0
LINE
8
10000_FRONT
62
7
6
CONTINUOUS
10
272.7340440000
20
224.9654350000
11
272.5370360000
21
224.8128760000
0
LINE
8
10000_FRONT
62
7
6
CONTINUOUS
10
274.2895210000
20
222.9496660000
11
273.7883160000
21
222.7103880000
0
LINE
8
10000_FRONT
62
7
6
CONTINUOUS
10
274.2895210000
20
222.9105210000
11
273.7883160000
21
222.6711950000
0
LINE
8
10000_FRONT
62
7
6
CONTINUOUS
10
273.7707300000
20
223.5188660000
11
273.4711600000
21
223.4247830000
0
LINE
8
20000_FRONT_O
62
7
6
CONTINUOUS
10
146.2347700000
20
226.4422820000
11
146.9448290000
21
226.2355610000
0
LINE
8
20000_FRONT_O
62
7
6
CONTINUOUS
10
148.3949280000
20
231.1319190000
11
147.6848690000
21
231.3385920000
0
LINE
8
20000_FRONT_O
62
7
6
CONTINUOUS
10
189.6727310000
20
264.2886150000
11
189.8120640000
21
264.1865870000
0
LINE
8
20000_FRONT_O
62
7
6
CONTINUOUS
10
187.7339320000
20
261.9756750000
11
188.0992810000
21
261.6843650000
0
LINE
8
20000_FRONT_O
62
7
6
CONTINUOUS
10
189.8120640000
20
264.1865870000
11
189.9381940000
21
264.0762730000
0
LINE
8
20000_FRONT_O
62
7
6
CONTINUOUS
10
172.8431750000
20
327.4371340000
11
173.1172680000
21
327.0996060000
0
LINE
8
20000_FRONT_O
62
7
6
CONTINUOUS
10
176.1405750000
20
331.8699540000
11
176.0659670000
21
331.9673800000
0
LINE
8
20000_FRONT_O
62
7
6
CONTINUOUS
10
174.0254910000
20
329.1445880000
11
174.0856380000
21
329.0626160000
0
LINE
8
20000_FRONT_O
62
7
6
CONTINUOUS
10
177.0645010000
20
332.0248870000
11
177.0022840000
21
332.1122840000
0
LINE
8
20000_FRONT_O
62
7
6
CONTINUOUS
10
173.6387050000
20
330.4715410000
11
173.9176730000
21
330.0751030000
0
LINE
8
20000_FRONT_O
62
7
6
CONTINUOUS
10
177.1251080000
20
331.9317240000
11
177.0645010000
21
332.0248870000
0
LINE
8
20000_FRONT_O
62
7
6
CONTINUOUS
10
176.2202210000
20
331.7421520000
11
176.1405750000
21
331.8699540000
0
LINE
8
10000_FRONT
62
7
6
CONTINUOUS
10
273.8245540000
20
224.0227600000
11
273.9061630000
21
223.7310620000
0
LINE
8
10000_FRONT
62
7
6
CONTINUOUS
10
272.3839690000
20
223.3417450000
11
272.2601630000
21
223.8794540000
0
LINE
8
10000_FRONT
62
7
6
CONTINUOUS
10
272.3839690000
20
223.3808900000
11
272.2601630000
21
223.9185990000
0
LINE
8
10000_FRONT
62
7
6
CONTINUOUS
10
274.1591270000
20
223.8184120000
11
274.1237850000
21
224.0278950000
0
LINE
8
13000_TOP
62
7
6
CONTINUOUS
10
279.4101630000
20
147.2748450000
11
279.4101630000
21
149.7748380000
0
LINE
8
13000_TOP
62
7
6
CONTINUOUS
10
281.4101620000
20
147.2748450000
11
281.4101620000
21
149.7748380000
0
LINE
8
13000_TOP
62
7
6
CONTINUOUS
10
283.4101610000
20
147.2748450000
11
283.4101610000
21
149.7748380000
0
LINE
8
13000_TOP
62
7
6
CONTINUOUS
10
285.4101600000
20
147.2748450000
11
285.4101600000
21
149.7748380000
0
LINE
8
13000_TOP
62
7
6
CONTINUOUS
10
287.4101590000
20
144.2748340000
11
287.4101590000
21
149.7748380000
0
LINE
8
10000_FRONT
62
7
6
CONTINUOUS
10
288.8501630000
20
225.0309340000
11
288.8501630000
21
223.6303420000
0
LINE
8
10000_FRONT
62
7
6
CONTINUOUS
10
289.3101640000
20
223.5954120000
11
289.3101640000
21
222.8634310000
0
LINE
8
10000_FRONT
62
7
6
CONTINUOUS
10
290.6601780000
20
223.5954120000
11
290.6601780000
21
222.8634310000
0
LINE
8
10000_FRONT
62
7
6
CONTINUOUS
10
290.8101690000
20
216.0331310000
11
290.8101690000
21
223.6305840000
0
LINE
8
10000_FRONT
62
7
6
CONTINUOUS
10
295.7501780000
20
223.6303420000
11
295.7501780000
21
217.1303510000
0
LINE
8
10000_FRONT
62
7
6
CONTINUOUS
10
299.1601680000
20
216.0331310000
11
299.1601680000
21
216.0303700000
0
LINE
8
11000_LEFT
62
7
6
CONTINUOUS
10
389.5019330000
20
347.1325880000
11
389.0407210000
21
346.5534570000
0
LINE
8
11000_LEFT
62
7
6
CONTINUOUS
10
387.3480920000
20
287.2260230000
11
394.2508920000
21
293.0095360000
0
LINE
8
11000_LEFT
62
7
6
CONTINUOUS
10
412.4990750000
20
222.8809200000
11
413.3290150000
21
223.0808110000
0
LINE
8
11000_LEFT
62
7
6
CONTINUOUS
10
421.2227920000
20
225.7127240000
11
425.2757420000
21
226.6617460000
0
LINE
8
11000_LEFT
62
7
6
CONTINUOUS
10
435.0019890000
20
227.9062430000
11
435.8319290000
21
228.0731910000
0
LINE
8
11000_LEFT
62
7
6
CONTINUOUS
10
425.2757420000
20
226.6617460000
11
430.1163860000
21
227.4594680000
0
LINE
8
11000_LEFT
62
7
6
CONTINUOUS
10
472.1400800000
20
224.8516330000
11
471.8180550000
21
224.8291060000
0
LINE
8
20000_FRONT_O
62
7
6
CONTINUOUS
10
146.5244330000
20
228.0281840000
11
147.3147190000
21
227.9061950000
0
LINE
8
10000_FRONT
62
7
6
CONTINUOUS
10
273.2320270000
20
222.7103880000
11
272.7307980000
21
222.9496660000
0
LINE
8
10000_FRONT
62
7
6
CONTINUOUS
10
273.2320270000
20
222.6711950000
11
272.7307980000
21
222.9105210000
0
LINE
8
10000_FRONT
62
7
6
CONTINUOUS
10
273.4711600000
20
223.4247830000
11
273.1957890000
21
223.5749190000
0
LINE
8
20000_FRONT_O
62
7
6
CONTINUOUS
10
189.3760320000
20
264.4526560000
11
189.6727310000
21
264.2886150000
0
LINE
8
10000_FRONT
62
7
6
CONTINUOUS
10
273.4615430000
20
223.3866550000
11
273.1957890000
21
223.5357250000
0
LINE
8
10000_FRONT
62
7
6
CONTINUOUS
10
272.9987810000
20
223.3831180000
11
273.3312950000
21
223.1607970000
0
LINE
8
20000_FRONT_O
62
7
6
CONTINUOUS
10
189.2864420000
20
263.3833410000
11
188.9970820000
21
263.5814880000
0
LINE
8
20000_FRONT_O
62
7
6
CONTINUOUS
10
174.1535960000
20
328.9856830000
11
174.1987000000
21
328.9418380000
0
LINE
8
20000_FRONT_O
62
7
6
CONTINUOUS
10
176.8667060000
20
332.2796680000
11
176.7153700000
21
332.4372640000
0
LINE
8
20000_FRONT_O
62
7
6
CONTINUOUS
10
176.0659670000
20
331.9673800000
11
175.9820210000
21
332.0589450000
0
LINE
8
20000_FRONT_O
62
7
6
CONTINUOUS
10
174.0856380000
20
329.0626160000
11
174.1535960000
21
328.9856830000
0
LINE
8
20000_FRONT_O
62
7
6
CONTINUOUS
10
177.0022840000
20
332.1122840000
11
176.8667060000
21
332.2796680000
0
LINE
8
10000_FRONT
62
7
6
CONTINUOUS
10
272.7307980000
20
222.9105210000
11
272.3839690000
21
223.3417450000
0
LINE
8
10000_FRONT
62
7
6
CONTINUOUS
10
272.7307980000
20
222.9496660000
11
272.3839690000
21
223.3808900000
0
LINE
8
10000_FRONT
62
7
6
CONTINUOUS
10
273.6954440000
20
225.0303530000
11
273.7475970000
21
224.9642230000
0
LINE
8
10000_FRONT
62
7
6
CONTINUOUS
10
272.5370360000
20
224.8128760000
11
273.4605260000
21
223.6409520000
0
LINE
8
10000_FRONT
62
7
6
CONTINUOUS
10
273.6575340000
20
223.7935580000
11
273.2727470000
21
224.2818520000
0
LINE
8
10000_FRONT
62
7
6
CONTINUOUS
10
273.1188320000
20
224.4771410000
11
272.7340440000
21
224.9654350000
0
LINE
8
10000_FRONT
62
7
6
CONTINUOUS
10
273.1188320000
20
224.5163340000
11
272.7340440000
21
225.0046280000
0
LINE
8
10000_FRONT
62
7
6
CONTINUOUS
10
273.6575340000
20
223.8327030000
11
273.2919070000
21
224.2966770000
0
LINE
8
10000_FRONT
62
7
6
CONTINUOUS
10
273.0305620000
20
225.0303530000
11
273.3347100000
21
224.6443790000
0
LINE
8
10000_FRONT
62
7
6
CONTINUOUS
10
273.5317180000
20
224.7969860000
11
273.3478150000
21
225.0303530000
0
LINE
8
10000_FRONT
62
7
6
CONTINUOUS
10
274.0215630000
20
224.1753670000
11
273.6856330000
21
224.6016490000
0
LINE
8
10000_FRONT
62
7
6
CONTINUOUS
10
274.0215630000
20
224.2145600000
11
273.7047940000
21
224.6165220000
0
LINE
8
10000_FRONT
62
7
6
CONTINUOUS
10
273.5317180000
20
224.8361300000
11
273.3786510000
21
225.0303530000
0
LINE
8
10000_FRONT
62
7
6
CONTINUOUS
10
273.9015120000
20
224.7688870000
11
274.2862990000
21
224.2805930000
0
LINE
8
10000_FRONT
62
7
6
CONTINUOUS
10
274.4833080000
20
224.4332000000
11
274.0127210000
21
225.0303530000
0
LINE
8
10000_FRONT
62
7
6
CONTINUOUS
10
274.4833080000
20
224.4723450000
11
274.0435570000
21
225.0303530000
0
LINE
8
10000_FRONT
62
7
6
CONTINUOUS
10
273.4886250000
20
224.4490900000
11
273.8245540000
21
224.0227600000
0
LINE
8
10000_FRONT
62
7
6
CONTINUOUS
10
274.1237850000
20
224.0278950000
11
274.0215630000
21
224.2145600000
0
LINE
8
10000_FRONT
62
7
6
CONTINUOUS
10
274.1587390000
20
223.8016980000
11
274.0215630000
21
224.1753670000
0
LINE
8
10000_FRONT
62
7
6
CONTINUOUS
10
300.6601740000
20
216.0331310000
11
300.6601740000
21
216.0303700000
0
LINE
8
10000_FRONT
62
7
6
CONTINUOUS
10
302.2501680000
20
217.1303510000
11
302.2501680000
21
225.0304980000
0
LINE
8
10000_FRONT
62
7
6
CONTINUOUS
10
302.2510410000
20
223.6303420000
11
302.2510410000
21
225.0304980000
0
LINE
8
10000_FRONT
62
7
6
CONTINUOUS
10
305.3501730000
20
217.1303510000
11
305.3501730000
21
223.6303420000
0
LINE
8
13000_TOP
62
7
6
CONTINUOUS
10
307.3101790000
20
144.2748340000
11
307.3101790000
21
149.7748380000
0
LINE
8
10000_FRONT
62
7
6
CONTINUOUS
10
309.0101720000
20
216.0331310000
11
309.0101720000
21
217.1305450000
0
LINE
8
13000_TOP
62
7
6
CONTINUOUS
10
309.3101780000
20
146.7748270000
11
309.3101780000
21
149.7748380000
0
LINE
8
13000_TOP
62
7
6
CONTINUOUS
10
309.9101660000
20
42.7748300000
11
309.9101660000
21
28.4454960000
0
LINE
8
10000_FRONT
62
7
6
CONTINUOUS
10
309.9101660000
20
353.7495290000
11
309.9101660000
21
364.0303450000
0
LINE
8
10000_FRONT
62
7
6
CONTINUOUS
10
310.1101780000
20
364.0303450000
11
310.1101780000
21
353.7495290000
0
LINE
8
13000_TOP
62
7
6
CONTINUOUS
10
310.1101780000
20
32.1568970000
11
310.1101780000
21
28.4230410000
0
LINE
8
10000_FRONT
62
7
6
CONTINUOUS
10
310.9001730000
20
225.0304020000
11
310.9001730000
21
217.1303510000
0
LINE
8
13000_TOP
62
7
6
CONTINUOUS
10
311.3101770000
20
146.7748270000
11
311.3101770000
21
149.7748380000
0
LINE
8
13000_TOP
62
7
6
CONTINUOUS
10
313.3101760000
20
146.7748270000
11
313.3101760000
21
149.7748380000
0
LINE
8
13000_TOP
62
7
6
CONTINUOUS
10
315.3101750000
20
146.7748270000
11
315.3101750000
21
149.7748380000
0
LINE
8
10000_FRONT
62
7
6
CONTINUOUS
10
315.5543950000
20
217.0303570000
11
315.5543950000
21
225.0311770000
0
LINE
8
13000_TOP
62
7
6
CONTINUOUS
10
315.6294630000
20
149.7747890000
11
315.6294630000
21
149.9748250000
0
LINE
8
13000_TOP
62
7
6
CONTINUOUS
10
317.3101740000
20
20.9876420000
11
317.3101740000
21
32.1478380000
0
LINE
8
13000_TOP
62
7
6
CONTINUOUS
10
317.3101740000
20
32.1607250000
11
317.3101740000
21
39.0592380000
0
LINE
8
13000_TOP
62
7
6
CONTINUOUS
10
317.3101740000
20
39.0817170000
11
317.3101740000
21
149.7748380000
0
LINE
8
10000_FRONT
62
7
6
CONTINUOUS
10
317.3101740000
20
217.0303570000
11
317.3101740000
21
364.0303450000
0
LINE
8
11000_LEFT
62
7
6
CONTINUOUS
10
499.1503010000
20
352.9882870000
11
498.7954300000
21
352.7235740000
0
LINE
8
11000_LEFT
62
7
6
CONTINUOUS
10
417.2354140000
20
224.5174970000
11
421.2227920000
21
225.7127240000
0
LINE
8
10000_FRONT
62
7
6
CONTINUOUS
10
273.7557840000
20
223.4675610000
11
273.4615430000
21
223.3866550000
0
LINE
8
10000_FRONT
62
7
6
CONTINUOUS
10
272.5101720000
20
225.0303530000
11
266.4688990000
21
223.7450630000
0
LINE
8
10000_FRONT
62
7
6
CONTINUOUS
10
266.4688990000
20
223.7450630000
11
260.3410510000
21
222.8122710000
0
LINE
8
10000_FRONT
62
7
6
CONTINUOUS
10
260.3410510000
20
222.8122710000
11
254.1349380000
21
222.2382270000
0
LINE
8
11000_LEFT
62
7
6
CONTINUOUS
10
430.1163860000
20
227.4594680000
11
435.0019890000
21
227.9061950000
0
LINE
8
10000_FRONT
62
7
6
CONTINUOUS
10
254.1349380000
20
222.2382270000
11
251.0109520000
21
222.0883820000
0
LINE
8
10000_FRONT
62
7
6
CONTINUOUS
10
273.3312950000
20
223.1607970000
11
273.7321180000
21
223.1746520000
0
LINE
8
20000_FRONT_O
62
7
6
CONTINUOUS
10
153.0359720000
20
223.1607970000
11
153.4368070000
21
223.1746520000
0
LINE
8
20000_FRONT_O
62
7
6
CONTINUOUS
10
153.3937260000
20
226.0852790000
11
152.9928910000
21
226.0713750000
0
LINE
8
20000_FRONT_O
62
7
6
CONTINUOUS
10
153.3991700000
20
226.1228740000
11
153.0035850000
21
226.1142990000
0
LINE
8
10000_FRONT
62
7
6
CONTINUOUS
10
251.0109520000
20
222.0883820000
11
247.8116070000
21
222.0307790000
0
LINE
8
20000_FRONT_O
62
7
6
CONTINUOUS
10
178.8648520000
20
216.0303700000
11
180.3648450000
21
216.0303700000
0
LINE
8
10000_FRONT
62
7
6
CONTINUOUS
10
299.1601680000
20
216.0303700000
11
300.6601740000
21
216.0303700000
0
LINE
8
10000_FRONT
62
7
6
CONTINUOUS
10
309.0101720000
20
216.0331310000
11
300.6601740000
21
216.0331310000
0
LINE
8
20000_FRONT_O
62
7
6
CONTINUOUS
10
188.7148440000
20
216.0331310000
11
180.3648450000
21
216.0331310000
0
LINE
8
20000_FRONT_O
62
7
6
CONTINUOUS
10
170.5148470000
20
216.0331310000
11
178.8648520000
21
216.0331310000
0
LINE
8
10000_FRONT
62
7
6
CONTINUOUS
10
290.8101690000
20
216.0331310000
11
299.1601680000
21
216.0331310000
0
LINE
8
20000_FRONT_O
62
7
6
CONTINUOUS
10
170.5148470000
20
216.0440320000
11
188.7148440000
21
216.0440320000
0
LINE
8
10000_FRONT
62
7
6
CONTINUOUS
10
290.8101690000
20
216.0440320000
11
309.0101720000
21
216.0440320000
0
LINE
8
11000_LEFT
62
7
6
CONTINUOUS
10
394.7481000000
20
217.0303570000
11
391.2480960000
21
217.0303570000
0
LINE
8
10000_FRONT
62
7
6
CONTINUOUS
10
317.3101740000
20
217.0303570000
11
309.0096640000
21
217.0303570000
0
LINE
8
10000_FRONT
62
7
6
CONTINUOUS
10
290.8098790000
20
217.0303570000
11
247.5101720000
21
217.0303570000
0
LINE
8
20000_FRONT_O
62
7
6
CONTINUOUS
10
197.0148460000
20
217.0303570000
11
188.7143350000
21
217.0303570000
0
LINE
8
20000_FRONT_O
62
7
6
CONTINUOUS
10
170.5145620000
20
217.0303570000
11
127.2148500000
21
217.0303570000
0
LINE
8
20000_FRONT_O
62
7
6
CONTINUOUS
10
175.4548490000
20
217.1303510000
11
190.6048570000
21
217.1303510000
0
LINE
8
10000_FRONT
62
7
6
CONTINUOUS
10
295.7501780000
20
217.1303510000
11
310.9001730000
21
217.1303510000
0
LINE
8
11000_LEFT
62
7
6
CONTINUOUS
10
472.1400800000
20
217.1303510000
11
498.1400920000
21
217.1303510000
0
LINE
8
20000_FRONT_O
62
7
6
CONTINUOUS
10
138.2148500000
20
219.0795540000
11
156.4148480000
21
219.0795540000
0
LINE
8
10000_FRONT
62
7
6
CONTINUOUS
10
258.5101790000
20
219.0795540000
11
276.7101580000
21
219.0795540000
0
LINE
8
11000_LEFT
62
7
6
CONTINUOUS
10
476.2900690000
20
219.1303260000
11
482.4900780000
21
219.1303260000
0
LINE
8
20000_FRONT_O
62
7
6
CONTINUOUS
10
138.2148500000
20
219.3525990000
11
156.4148480000
21
219.3525990000
0
LINE
8
10000_FRONT
62
7
6
CONTINUOUS
10
258.5101790000
20
219.3525990000
11
276.7101580000
21
219.3525990000
0
LINE
8
20000_FRONT_O
62
7
6
CONTINUOUS
10
146.5648490000
20
220.3795230000
11
148.0648490000
21
220.3795230000
0
LINE
8
10000_FRONT
62
7
6
CONTINUOUS
10
266.8601780000
20
220.3795230000
11
268.3601590000
21
220.3795230000
0
LINE
8
10000_FRONT
62
7
6
CONTINUOUS
10
276.7101580000
20
221.3382340000
11
268.3601590000
21
221.3382340000
0
LINE
8
20000_FRONT_O
62
7
6
CONTINUOUS
10
156.4148480000
20
221.3382340000
11
148.0648490000
21
221.3382340000
0
LINE
8
20000_FRONT_O
62
7
6
CONTINUOUS
10
138.2148500000
20
221.3382340000
11
146.5648490000
21
221.3382340000
0
LINE
8
10000_FRONT
62
7
6
CONTINUOUS
10
258.5101790000
20
221.3382340000
11
266.8601780000
21
221.3382340000
0
LINE
8
10000_FRONT
62
7
6
CONTINUOUS
10
266.8601780000
20
221.4563470000
11
258.5101790000
21
221.4563470000
0
LINE
8
20000_FRONT_O
62
7
6
CONTINUOUS
10
146.5648490000
20
221.4563470000
11
138.2148500000
21
221.4563470000
0
LINE
8
20000_FRONT_O
62
7
6
CONTINUOUS
10
148.0648490000
20
221.4563470000
11
156.4148480000
21
221.4563470000
0
LINE
8
10000_FRONT
62
7
6
CONTINUOUS
10
268.3601590000
20
221.4563470000
11
276.7101580000
21
221.4563470000
0
LINE
8
20000_FRONT_O
62
7
6
CONTINUOUS
10
146.5649520000
20
221.6777480000
11
148.0647460000
21
221.6777480000
0
LINE
8
10000_FRONT
62
7
6
CONTINUOUS
10
266.8602750000
20
221.6777480000
11
268.3600620000
21
221.6777480000
0
LINE
8
20000_FRONT_O
62
7
6
CONTINUOUS
10
138.2148500000
20
221.6785710000
11
146.5648980000
21
221.6785710000
0
LINE
8
20000_FRONT_O
62
7
6
CONTINUOUS
10
148.0648000000
20
221.6785710000
11
156.4148480000
21
221.6785710000
0
LINE
8
10000_FRONT
62
7
6
CONTINUOUS
10
258.5101790000
20
221.6785710000
11
266.8602260000
21
221.6785710000
0
LINE
8
10000_FRONT
62
7
6
CONTINUOUS
10
268.3601110000
20
221.6785710000
11
276.7101580000
21
221.6785710000
0
LINE
8
11000_LEFT
62
7
6
CONTINUOUS
10
482.4900780000
20
221.7803580000
11
476.2900690000
21
221.7803580000
0
LINE
8
11000_LEFT
62
7
6
CONTINUOUS
10
508.8353210000
20
222.0307780000
11
510.4853170000
21
222.0307780000
0
LINE
8
10000_FRONT
62
7
6
CONTINUOUS
10
247.8116070000
20
222.0307790000
11
247.5101720000
21
222.0307790000
0
LINE
8
10000_FRONT
62
7
6
CONTINUOUS
10
275.7101710000
20
222.0976350000
11
259.5101670000
21
222.0976350000
0
LINE
8
20000_FRONT_O
62
7
6
CONTINUOUS
10
155.4148480000
20
222.0976350000
11
139.2148500000
21
222.0976350000
0
LINE
8
10000_FRONT
62
7
6
CONTINUOUS
10
273.7883160000
20
222.6711950000
11
273.2320270000
21
222.6711950000
0
LINE
8
20000_FRONT_O
62
7
6
CONTINUOUS
10
153.4929990000
20
222.6711950000
11
152.9366990000
21
222.6711950000
0
LINE
8
10000_FRONT
62
7
6
CONTINUOUS
10
273.7883160000
20
222.7103880000
11
273.2320270000
21
222.7103880000
0
LINE
8
20000_FRONT_O
62
7
6
CONTINUOUS
10
153.4929990000
20
222.7103880000
11
152.9366990000
21
222.7103880000
0
LINE
8
20000_FRONT_O
62
7
6
CONTINUOUS
10
136.7148510000
20
222.8634310000
11
138.0648470000
21
222.8634310000
0
LINE
8
20000_FRONT_O
62
7
6
CONTINUOUS
10
156.5648500000
20
222.8634310000
11
157.9148470000
21
222.8634310000
0
LINE
8
10000_FRONT
62
7
6
CONTINUOUS
10
276.8601730000
20
222.8634310000
11
278.2101630000
21
222.8634310000
0
LINE
8
10000_FRONT
62
7
6
CONTINUOUS
10
289.3101640000
20
222.8634310000
11
290.6601780000
21
222.8634310000
0
LINE
8
20000_FRONT_O
62
7
6
CONTINUOUS
10
138.2148500000
20
222.8971500000
11
139.2148500000
21
222.8971500000
0
LINE
8
20000_FRONT_O
62
7
6
CONTINUOUS
10
155.4148480000
20
222.8971500000
11
156.4148480000
21
222.8971500000
0
LINE
8
10000_FRONT
62
7
6
CONTINUOUS
10
275.7101710000
20
222.8971500000
11
276.7101580000
21
222.8971500000
0
LINE
8
10000_FRONT
62
7
6
CONTINUOUS
10
290.6601780000
20
223.0808110000
11
289.3101640000
21
223.0808110000
0
LINE
8
20000_FRONT_O
62
7
6
CONTINUOUS
10
138.0648470000
20
223.0808110000
11
136.7148510000
21
223.0808110000
0
LINE
8
20000_FRONT_O
62
7
6
CONTINUOUS
10
156.5648500000
20
223.0808110000
11
157.9148470000
21
223.0808110000
0
LINE
8
10000_FRONT
62
7
6
CONTINUOUS
10
276.8601730000
20
223.0808110000
11
278.2101630000
21
223.0808110000
0
LINE
8
11000_LEFT
62
7
6
CONTINUOUS
10
499.5325940000
20
223.6303420000
11
472.1400800000
21
223.6303420000
0
LINE
8
20000_FRONT_O
62
7
6
CONTINUOUS
10
168.5548520000
20
223.6303420000
11
190.6048570000
21
223.6303420000
0
LINE
8
10000_FRONT
62
7
6
CONTINUOUS
10
288.8501630000
20
223.6303420000
11
310.9001730000
21
223.6303420000
0
LINE
8
20000_FRONT_O
62
7
6
CONTINUOUS
10
168.5548520000
20
223.7236500000
11
190.6048570000
21
223.7236500000
0
LINE
8
10000_FRONT
62
7
6
CONTINUOUS
10
288.8501630000
20
223.7236500000
11
310.9001730000
21
223.7236500000
0
LINE
8
20000_FRONT_O
62
7
6
CONTINUOUS
10
168.5548520000
20
224.3825240000
11
190.6048570000
21
224.3825240000
0
LINE
8
10000_FRONT
62
7
6
CONTINUOUS
10
288.8501630000
20
224.3825240000
11
310.9001730000
21
224.3825240000
0
LINE
8
10000_FRONT
62
7
6
CONTINUOUS
10
317.3101740000
20
225.0303530000
11
272.5101720000
21
225.0303530000
0
LINE
8
11000_LEFT
62
7
6
CONTINUOUS
10
421.4813030000
20
225.7803560000
11
424.7281010000
21
225.7803560000
0
LINE
8
11000_LEFT
62
7
6
CONTINUOUS
10
425.8280820000
20
225.7803560000
11
431.2980970000
21
225.7803560000
0
LINE
8
11000_LEFT
62
7
6
CONTINUOUS
10
432.3980780000
20
225.7803560000
11
437.8680930000
21
225.7803560000
0
LINE
8
11000_LEFT
62
7
6
CONTINUOUS
10
438.9680750000
20
225.7803560000
11
444.4380890000
21
225.7803560000
0
LINE
8
11000_LEFT
62
7
6
CONTINUOUS
10
445.5380710000
20
225.7803560000
11
451.0080860000
21
225.7803560000
0
LINE
8
11000_LEFT
62
7
6
CONTINUOUS
10
452.1081150000
20
225.7803560000
11
457.5780820000
21
225.7803560000
0
LINE
8
11000_LEFT
62
7
6
CONTINUOUS
10
458.6781120000
20
225.7803560000
11
464.1480780000
21
225.7803560000
0
LINE
8
11000_LEFT
62
7
6
CONTINUOUS
10
465.2481080000
20
225.7803560000
11
470.7180740000
21
225.7803560000
0
LINE
8
20000_FRONT_O
62
7
6
CONTINUOUS
10
146.9448290000
20
226.2355610000
11
147.6848690000
21
226.2355610000
0
LINE
8
20000_FRONT_O
62
7
6
CONTINUOUS
10
166.5548530000
20
226.4303650000
11
168.5548520000
21
226.4303650000
0
LINE
8
20000_FRONT_O
62
7
6
CONTINUOUS
10
138.2148500000
20
226.4535220000
11
139.2148500000
21
226.4535220000
0
LINE
8
20000_FRONT_O
62
7
6
CONTINUOUS
10
155.4148480000
20
226.4535220000
11
156.4148480000
21
226.4535220000
0
LINE
8
20000_FRONT_O
62
7
6
CONTINUOUS
10
152.9366990000
20
226.5748320000
11
153.4929990000
21
226.5748320000
0
LINE
8
20000_FRONT_O
62
7
6
CONTINUOUS
10
138.0648470000
20
227.9062430000
11
136.7148510000
21
227.9062430000
0
LINE
8
20000_FRONT_O
62
7
6
CONTINUOUS
10
156.5648500000
20
227.9062430000
11
157.9148470000
21
227.9062430000
0
LINE
8
20000_FRONT_O
62
7
6
CONTINUOUS
10
166.5548530000
20
228.2303520000
11
168.5548520000
21
228.2303520000
0
LINE
8
20000_FRONT_O
62
7
6
CONTINUOUS
10
143.0722090000
20
230.8908480000
11
139.2148500000
21
230.8908960000
0
LINE
8
20000_FRONT_O
62
7
6
CONTINUOUS
10
155.4148480000
20
230.8908960000
11
151.5574890000
21
230.8908480000
0
LINE
8
20000_FRONT_O
62
7
6
CONTINUOUS
10
138.0648470000
20
230.9017000000
11
136.7148510000
21
230.9017000000
0
LINE
8
20000_FRONT_O
62
7
6
CONTINUOUS
10
156.5648500000
20
230.9017000000
11
157.9148470000
21
230.9017000000
0
LINE
8
20000_FRONT_O
62
7
6
CONTINUOUS
10
147.6848690000
20
231.3385920000
11
146.9448290000
21
231.3385920000
0
LINE
8
11000_LEFT
62
7
6
CONTINUOUS
10
490.5481130000
20
232.0303130000
11
438.7480780000
21
232.0303130000
0
LINE
8
20000_FRONT_O
62
7
6
CONTINUOUS
10
127.2148500000
20
232.0303620000
11
168.5548770000
21
232.0303620000
0
LINE
8
20000_FRONT_O
62
7
6
CONTINUOUS
10
190.6048330000
20
232.0303620000
11
197.0148460000
21
232.0303620000
0
LINE
8
11000_LEFT
62
7
6
CONTINUOUS
10
490.5479680000
20
232.9303550000
11
490.6851210000
21
232.9303550000
0
LINE
8
11000_LEFT
62
7
6
CONTINUOUS
10
411.6461240000
20
222.9202110000
11
412.4990750000
21
222.8809200000
0
LINE
8
11000_LEFT
62
7
6
CONTINUOUS
10
471.8180550000
20
219.5315610000
11
472.1400800000
21
219.5090330000
0
LINE
8
20000_FRONT_O
62
7
6
CONTINUOUS
10
188.9970820000
20
263.5814880000
11
188.6585730000
21
263.6749900000
0
LINE
8
20000_FRONT_O
62
7
6
CONTINUOUS
10
189.0558960000
20
264.5653420000
11
189.2212440000
21
264.5146190000
0
LINE
8
20000_FRONT_O
62
7
6
CONTINUOUS
10
189.2212440000
20
264.5146190000
11
189.3760320000
21
264.4526560000
0
LINE
8
20000_FRONT_O
62
7
6
CONTINUOUS
10
175.9171390000
20
332.1195510000
11
175.7995230000
21
332.2120360000
0
LINE
8
20000_FRONT_O
62
7
6
CONTINUOUS
10
173.8211190000
20
326.2982500000
11
174.2203680000
21
325.9724940000
0
LINE
8
20000_FRONT_O
62
7
6
CONTINUOUS
10
174.1987000000
20
328.9418380000
11
174.2907000000
21
328.8659710000
0
LINE
8
20000_FRONT_O
62
7
6
CONTINUOUS
10
176.0919950000
20
333.1585380000
11
175.7018060000
21
333.4811450000
0
LINE
8
20000_FRONT_O
62
7
6
CONTINUOUS
10
173.1172680000
20
327.0996060000
11
173.4557280000
21
326.8052920000
0
LINE
8
20000_FRONT_O
62
7
6
CONTINUOUS
10
176.7153700000
20
332.4372640000
11
176.5485200000
21
332.5833310000
0
LINE
8
20000_FRONT_O
62
7
6
CONTINUOUS
10
175.9820210000
20
332.0589450000
11
175.9171390000
21
332.1195510000
0
LINE
8
13000_TOP
62
7
6
CONTINUOUS
10
308.2394100000
20
149.9748250000
11
308.1626220000
21
149.7747890000
0
LINE
8
11000_LEFT
62
7
6
CONTINUOUS
10
389.0407210000
20
346.5534570000
11
388.8234620000
21
346.0125980000
0
LINE
8
11000_LEFT
62
7
6
CONTINUOUS
10
499.4670940000
20
353.2991690000
11
499.1503010000
21
352.9882870000
0
LINE
8
11000_LEFT
62
7
6
CONTINUOUS
10
413.3290390000
20
223.0808110000
11
417.2354140000
21
224.5174970000
0
LINE
8
20000_FRONT_O
62
7
6
CONTINUOUS
10
147.3147190000
20
227.9061950000
11
148.1050230000
21
228.0280870000
0
LINE
8
20000_FRONT_O
62
7
6
CONTINUOUS
10
133.4157490000
20
233.5702870000
11
128.8657480000
21
233.5702870000
0
LINE
8
20000_FRONT_O
62
7
6
CONTINUOUS
10
190.8148490000
20
233.5702870000
11
195.3639530000
21
233.5702870000
0
LINE
8
20000_FRONT_O
62
7
6
CONTINUOUS
10
190.8148490000
20
233.8474990000
11
195.3639530000
21
233.8474990000
0
LINE
8
20000_FRONT_O
62
7
6
CONTINUOUS
10
133.4157490000
20
234.7272900000
11
128.8657480000
21
234.7272900000
0
LINE
8
20000_FRONT_O
62
7
6
CONTINUOUS
10
190.8148490000
20
234.7272900000
11
195.3639530000
21
234.7272900000
0
LINE
8
20000_FRONT_O
62
7
6
CONTINUOUS
10
133.4157490000
20
235.7916150000
11
128.8657480000
21
235.7916150000
0
LINE
8
20000_FRONT_O
62
7
6
CONTINUOUS
10
190.8148490000
20
235.7916150000
11
195.3639530000
21
235.7916150000
0
LINE
8
11000_LEFT
62
7
6
CONTINUOUS
10
506.8246390000
20
236.6419500000
11
490.6853140000
21
236.6419500000
0
LINE
8
11000_LEFT
62
7
6
CONTINUOUS
10
497.6435140000
20
237.0302020000
11
490.5481130000
21
237.0302020000
0
LINE
8
20000_FRONT_O
62
7
6
CONTINUOUS
10
128.8657480000
20
237.0302500000
11
127.2148500000
21
237.0302500000
0
LINE
8
20000_FRONT_O
62
7
6
CONTINUOUS
10
195.3639530000
20
237.0302500000
11
197.0148460000
21
237.0302500000
0
LINE
8
11000_LEFT
62
7
6
CONTINUOUS
10
490.6853140000
20
234.7727330000
11
490.5481130000
21
234.7755910000
0
LINE
8
11000_LEFT
62
7
6
CONTINUOUS
10
490.6853140000
20
232.2790870000
11
502.0828260000
21
231.9806550000
0
LINE
8
11000_LEFT
62
7
6
CONTINUOUS
10
502.0828260000
20
231.9806550000
11
503.4794460000
21
231.8389970000
0
LINE
8
20000_FRONT_O
62
7
6
CONTINUOUS
10
188.7214570000
20
264.6230910000
11
188.8880530000
21
264.6016290000
0
LINE
8
11000_LEFT
62
7
6
CONTINUOUS
10
406.6214550000
20
224.4692920000
11
409.8235600000
21
224.0477580000
0
LINE
8
11000_LEFT
62
7
6
CONTINUOUS
10
457.5780820000
20
218.4760050000
11
452.1081150000
21
219.1961160000
0
LINE
8
11000_LEFT
62
7
6
CONTINUOUS
10
464.1480780000
20
217.6110390000
11
458.6781120000
21
218.3311980000
0
LINE
8
11000_LEFT
62
7
6
CONTINUOUS
10
470.7180740000
20
216.7460720000
11
465.2481080000
21
217.4662320000
0
LINE
8
11000_LEFT
62
7
6
CONTINUOUS
10
425.8280820000
20
224.0219360000
11
431.2980970000
21
223.3018250000
0
LINE
8
11000_LEFT
62
7
6
CONTINUOUS
10
419.2580860000
20
224.8869030000
11
424.7281010000
21
224.1667910000
0
LINE
8
11000_LEFT
62
7
6
CONTINUOUS
10
438.9680750000
20
222.2920510000
11
444.4380890000
21
221.5718920000
0
LINE
8
11000_LEFT
62
7
6
CONTINUOUS
10
432.3980780000
20
223.1570180000
11
437.8680930000
21
222.4368580000
0
LINE
8
11000_LEFT
62
7
6
CONTINUOUS
10
445.5380710000
20
221.4270850000
11
451.0080860000
21
220.7069250000
0
LINE
8
11000_LEFT
62
7
6
CONTINUOUS
10
452.1081150000
20
225.6360820000
11
452.1433850000
21
225.6314310000
0
LINE
8
20000_FRONT_O
62
7
6
CONTINUOUS
10
188.8880530000
20
264.6016290000
11
189.0558960000
21
264.5653420000
0
LINE
8
20000_FRONT_O
62
7
6
CONTINUOUS
10
188.0992810000
20
261.6843650000
11
188.5548490000
21
261.5803500000
0
LINE
8
20000_FRONT_O
62
7
6
CONTINUOUS
10
175.7995230000
20
332.2120360000
11
175.6970460000
21
332.2780200000
0
LINE
8
20000_FRONT_O
62
7
6
CONTINUOUS
10
174.2907000000
20
328.8659710000
11
174.3796850000
21
328.8066240000
0
LINE
8
20000_FRONT_O
62
7
6
CONTINUOUS
10
173.4557280000
20
326.8052920000
11
173.5573150000
21
326.7354810000
0
LINE
8
20000_FRONT_O
62
7
6
CONTINUOUS
10
176.4599840000
20
332.6510110000
11
176.3523840000
21
332.7252310000
0
LINE
8
20000_FRONT_O
62
7
6
CONTINUOUS
10
173.9176730000
20
330.0751030000
11
174.3115320000
21
329.7981330000
0
LINE
8
20000_FRONT_O
62
7
6
CONTINUOUS
10
176.5485200000
20
332.5833310000
11
176.4599840000
21
332.6510110000
0
LINE
8
11000_LEFT
62
7
6
CONTINUOUS
10
435.8319290000
20
228.0731910000
11
436.5832880000
21
228.4628470000
0
LINE
8
11000_LEFT
62
7
6
CONTINUOUS
10
504.6400830000
20
225.3018970000
11
499.5325940000
21
223.6303420000
0
LINE
8
11000_LEFT
62
7
6
CONTINUOUS
10
506.6534770000
20
224.3825240000
11
504.6400830000
21
223.7236010000
0
LINE
8
20000_FRONT_O
62
7
6
CONTINUOUS
10
153.4604680000
20
223.4675610000
11
153.1662270000
21
223.3866550000
0
LINE
8
20000_FRONT_O
62
7
6
CONTINUOUS
10
152.9692250000
20
225.7784660000
11
153.2634710000
21
225.8593720000
0
LINE
8
11000_LEFT
62
7
6
CONTINUOUS
10
391.2480470000
20
292.4818070000
11
384.3481050000
21
291.2651660000
0
LINE
8
20000_FRONT_O
62
7
6
CONTINUOUS
10
177.7523350000
20
258.8959700000
11
178.5548540000
21
258.9912160000
0
LINE
8
20000_FRONT_O
62
7
6
CONTINUOUS
10
177.7760250000
20
258.8927720000
11
178.5548540000
21
258.9805090000
0
LINE
8
20000_FRONT_O
62
7
6
CONTINUOUS
10
188.7557450000
20
260.6408730000
11
188.5548490000
21
260.6304080000
0
LINE
8
20000_FRONT_O
62
7
6
CONTINUOUS
10
190.8148730000
20
255.9803530000
11
190.6048570000
21
255.9803530000
0
LINE
8
20000_FRONT_O
62
7
6
CONTINUOUS
10
190.8148730000
20
257.7803400000
11
190.6048570000
21
257.7803400000
0
LINE
8
20000_FRONT_O
62
7
6
CONTINUOUS
10
178.5548540000
20
258.9803640000
11
181.9548520000
21
258.9803640000
0
LINE
8
20000_FRONT_O
62
7
6
CONTINUOUS
10
178.5548540000
20
258.9805090000
11
181.9557240000
21
258.9805090000
0
LINE
8
20000_FRONT_O
62
7
6
CONTINUOUS
10
168.4137270000
20
259.9803510000
11
168.5548520000
21
259.9803510000
0
LINE
8
20000_FRONT_O
62
7
6
CONTINUOUS
10
190.6048570000
20
260.5303660000
11
181.9548520000
21
260.5303660000
0
LINE
8
20000_FRONT_O
62
7
6
CONTINUOUS
10
181.9557240000
20
260.6303600000
11
188.5548490000
21
260.6303600000
0
LINE
8
20000_FRONT_O
62
7
6
CONTINUOUS
10
168.4137270000
20
261.7803870000
11
168.5548520000
21
261.7803870000
0
LINE
8
20000_FRONT_O
62
7
6
CONTINUOUS
10
190.5560350000
20
262.5803860000
11
190.6048570000
21
262.5803860000
0
LINE
8
20000_FRONT_O
62
7
6
CONTINUOUS
10
188.6399570000
20
264.6303580000
11
188.5761050000
21
264.6303580000
0
LINE
8
20000_FRONT_O
62
7
6
CONTINUOUS
10
168.5548520000
20
264.6303580000
11
188.5548490000
21
264.6303580000
0
LINE
8
20000_FRONT_O
62
7
6
CONTINUOUS
10
168.4137520000
20
264.7303520000
11
170.8551180000
21
264.7303520000
0
LINE
8
20000_FRONT_O
62
7
6
CONTINUOUS
10
178.2547870000
20
264.7303520000
11
190.8148490000
21
264.7303520000
0
LINE
8
20000_FRONT_O
62
7
6
CONTINUOUS
10
178.2548480000
20
266.1303630000
11
170.8548510000
21
266.1303630000
0
LINE
8
11000_LEFT
62
7
6
CONTINUOUS
10
391.2480960000
20
254.2701380000
11
387.3480920000
21
254.3041470000
0
LINE
8
11000_LEFT
62
7
6
CONTINUOUS
10
384.3481050000
20
254.3303570000
11
387.3480920000
21
254.3041470000
0
LINE
8
20000_FRONT_O
62
7
6
CONTINUOUS
10
188.5548490000
20
264.6302610000
11
188.7214570000
21
264.6230910000
0
LINE
8
20000_FRONT_O
62
7
6
CONTINUOUS
10
188.6585730000
20
263.6749900000
11
188.5548490000
21
263.6803190000
0
LINE
8
11000_LEFT
62
7
6
CONTINUOUS
10
498.0734780000
20
239.1927150000
11
506.9114550000
21
237.6343320000
0
LINE
8
11000_LEFT
62
7
6
CONTINUOUS
10
410.8383240000
20
223.1920450000
11
411.6461240000
21
222.9202110000
0
LINE
8
20000_FRONT_O
62
7
6
CONTINUOUS
10
175.5881740000
20
332.3359140000
11
175.4788300000
21
332.3831010000
0
LINE
8
20000_FRONT_O
62
7
6
CONTINUOUS
10
174.4679180000
20
328.7588550000
11
174.5533170000
21
328.7216480000
0
LINE
8
20000_FRONT_O
62
7
6
CONTINUOUS
10
175.6970460000
20
332.2780200000
11
175.5881740000
21
332.3359140000
0
LINE
8
20000_FRONT_O
62
7
6
CONTINUOUS
10
174.3796850000
20
328.8066240000
11
174.4679180000
21
328.7588550000
0
LINE
8
11000_LEFT
62
7
6
CONTINUOUS
10
381.5480820000
20
342.0303320000
11
381.5480820000
21
337.5144250000
0
LINE
8
11000_LEFT
62
7
6
CONTINUOUS
10
381.7480940000
20
357.1303310000
11
381.7480940000
21
361.7303400000
0
LINE
8
11000_LEFT
62
7
6
CONTINUOUS
10
388.8234620000
20
346.0125980000
11
388.7481030000
21
345.4345330000
0
LINE
8
11000_LEFT
62
7
6
CONTINUOUS
10
499.5786670000
20
363.9212920000
11
499.3954900000
21
363.6441770000
0
LINE
8
11000_LEFT
62
7
6
CONTINUOUS
10
500.5430460000
20
360.2026240000
11
500.4488660000
21
360.0784060000
0
LINE
8
11000_LEFT
62
7
6
CONTINUOUS
10
499.8819430000
20
353.8165790000
11
499.4670940000
21
353.2991690000
0
LINE
8
11000_LEFT
62
7
6
CONTINUOUS
10
436.5832880000
20
228.4628470000
11
437.1947330000
21
229.0457090000
0
LINE
8
20000_FRONT_O
62
7
6
CONTINUOUS
10
189.2475990000
20
260.7556430000
11
188.9246300000
21
260.6657260000
0
LINE
8
20000_FRONT_O
62
7
6
CONTINUOUS
10
188.5548490000
20
263.6803670000
11
188.0992810000
21
263.5764010000
0
LINE
8
20000_FRONT_O
62
7
6
CONTINUOUS
10
188.5548490000
20
261.5804470000
11
188.9041970000
21
261.6414420000
0
LINE
8
20000_FRONT_O
62
7
6
CONTINUOUS
10
188.9246300000
20
260.6657260000
11
188.7557450000
21
260.6408730000
0
LINE
8
20000_FRONT_O
62
7
6
CONTINUOUS
10
168.4137520000
20
280.6739040000
11
190.8148490000
21
280.6739040000
0
LINE
8
11000_LEFT
62
7
6
CONTINUOUS
10
503.4794460000
20
231.8389970000
11
504.8884690000
21
231.4651830000
0
LINE
8
20000_FRONT_O
62
7
6
CONTINUOUS
10
174.3115320000
20
329.7981330000
11
174.7736890000
21
329.6625310000
0
LINE
8
20000_FRONT_O
62
7
6
CONTINUOUS
10
174.5533170000
20
328.7216480000
11
174.7339390000
21
328.6685990000
0
LINE
8
20000_FRONT_O
62
7
6
CONTINUOUS
10
175.4788300000
20
332.3831010000
11
175.2769410000
21
332.4449190000
0
LINE
8
20000_FRONT_O
62
7
6
CONTINUOUS
10
174.2203680000
20
325.9724940000
11
174.7004140000
21
325.8021080000
0
LINE
8
20000_FRONT_O
62
7
6
CONTINUOUS
10
175.7018060000
20
333.4811450000
11
175.2270290000
21
333.6554560000
0
LINE
8
11000_LEFT
62
7
6
CONTINUOUS
10
410.1736120000
20
223.6567940000
11
410.8383240000
21
223.1920450000
0
LINE
8
90000_FRAME
62
7
6
CONTINUOUS
10
482.9491910000
20
21.5500140000
11
484.6366010000
21
18.6029870000
0
LINE
8
90000_FRAME
62
7
6
CONTINUOUS
10
484.0662090000
20
16.7967450000
11
482.3550320000
21
19.8388370000
0
LINE
8
90000_FRAME
62
7
6
CONTINUOUS
10
472.3969330000
20
16.7492120000
11
471.0660180000
21
19.8388370000
0
LINE
8
11000_LEFT
62
7
6
CONTINUOUS
10
384.3481050000
20
291.2651660000
11
384.3481050000
21
254.3303570000
0
LINE
8
11000_LEFT
62
7
6
CONTINUOUS
10
384.7481050000
20
312.7303280000
11
384.7481050000
21
333.3303300000
0
LINE
8
11000_LEFT
62
7
6
CONTINUOUS
10
386.2480860000
20
359.0303110000
11
386.2480860000
21
357.1303310000
0
LINE
8
11000_LEFT
62
7
6
CONTINUOUS
10
387.3480920000
20
254.3041470000
11
387.3480920000
21
287.2260230000
0
LINE
8
11000_LEFT
62
7
6
CONTINUOUS
10
388.7481030000
20
345.4345330000
11
388.7481030000
21
345.0303430000
0
LINE
8
11000_LEFT
62
7
6
CONTINUOUS
10
388.8980940000
20
292.0674420000
11
388.8980940000
21
312.2834080000
0
LINE
8
11000_LEFT
62
7
6
CONTINUOUS
10
391.2480960000
20
217.0303570000
11
391.2480960000
21
254.2701380000
0
LINE
8
11000_LEFT
62
7
6
CONTINUOUS
10
391.2480960000
20
292.4818070000
11
391.2480960000
21
356.5303190000
0
LINE
8
11000_LEFT
62
7
6
CONTINUOUS
10
394.2508920000
20
293.0095360000
11
394.2508190000
21
311.7069410000
0
LINE
8
11000_LEFT
62
7
6
CONTINUOUS
10
398.4480920000
20
219.7022380000
11
398.4480920000
21
219.0795050000
0
LINE
8
11000_LEFT
62
7
6
CONTINUOUS
10
399.5480980000
20
219.3525510000
11
399.5480980000
21
220.4301980000
0
LINE
8
11000_LEFT
62
7
6
CONTINUOUS
10
500.4488660000
20
360.0784060000
11
500.3868050000
21
359.9757960000
0
LINE
8
11000_LEFT
62
7
6
CONTINUOUS
10
497.6666230000
20
353.8235070000
11
497.8236870000
21
354.0795960000
0
LINE
8
20000_FRONT_O
62
7
6
CONTINUOUS
10
180.4333970000
20
300.5387280000
11
190.4332830000
21
300.5387280000
0
LINE
8
20000_FRONT_O
62
7
6
CONTINUOUS
10
190.4332830000
20
300.5453160000
11
180.4333970000
21
300.5453160000
0
LINE
8
20000_FRONT_O
62
7
6
CONTINUOUS
10
180.4333970000
20
310.4996990000
11
190.4332830000
21
310.4996990000
0
LINE
8
20000_FRONT_O
62
7
6
CONTINUOUS
10
130.3648510000
20
314.4802700000
11
193.8648440000
21
314.4802700000
0
LINE
8
20000_FRONT_O
62
7
6
CONTINUOUS
10
174.7339390000
20
328.6685990000
11
174.8280830000
21
328.6536290000
0
LINE
8
20000_FRONT_O
62
7
6
CONTINUOUS
10
175.2769410000
20
332.4449190000
11
175.1260170000
21
332.4715160000
0
LINE
8
11000_LEFT
62
7
6
CONTINUOUS
10
409.6595680000
20
224.2876170000
11
410.1736120000
21
223.6567940000
0
LINE
8
90000_FRAME
62
7
6
CONTINUOUS
10
471.8265410000
20
21.5500140000
11
473.0623910000
21
18.6505200000
0
LINE
8
11000_LEFT
62
7
6
CONTINUOUS
10
405.0180880000
20
221.3346480000
11
405.0180880000
21
223.6450690000
0
LINE
8
11000_LEFT
62
7
6
CONTINUOUS
10
406.1180940000
20
221.4534400000
11
406.1180940000
21
224.2160130000
0
LINE
8
11000_LEFT
62
7
6
CONTINUOUS
10
411.5880840000
20
221.7018260000
11
411.5880840000
21
222.9317890000
0
LINE
8
11000_LEFT
62
7
6
CONTINUOUS
10
412.6880900000
20
221.7059440000
11
412.6880900000
21
222.9051920000
0
LINE
8
11000_LEFT
62
7
6
CONTINUOUS
10
418.1581050000
20
221.6032370000
11
418.1581050000
21
224.8177690000
0
LINE
8
11000_LEFT
62
7
6
CONTINUOUS
10
419.2580860000
20
221.5577940000
11
419.2580860000
21
225.1566540000
0
LINE
8
91000_TIP
62
7
6
CONTINUOUS
10
422.7797810000
20
20.8043440000
11
422.7797810000
21
15.8043440000
0
LINE
8
11000_LEFT
62
7
6
CONTINUOUS
10
497.5499630000
20
353.5553070000
11
497.6666230000
21
353.8235070000
0
LINE
8
11000_LEFT
62
7
6
CONTINUOUS
10
497.8236870000
20
354.0795960000
11
498.0766750000
21
354.6139140000
0
LINE
8
11000_LEFT
62
7
6
CONTINUOUS
10
437.1947330000
20
229.0457090000
11
437.6699460000
21
229.9202680000
0
LINE
8
11000_LEFT
62
7
6
CONTINUOUS
10
500.2036290000
20
354.3976000000
11
499.8819430000
21
353.8165790000
0
LINE
8
11000_LEFT
62
7
6
CONTINUOUS
10
494.9938690000
20
362.3301580000
11
494.4673020000
21
362.2612670000
0
LINE
8
11000_LEFT
62
7
6
CONTINUOUS
10
386.8905610000
20
333.5610820000
11
384.7481050000
21
333.3303300000
0
LINE
8
11000_LEFT
62
7
6
CONTINUOUS
10
389.0620370000
20
333.7949340000
11
386.8905610000
21
333.5610820000
0
LINE
8
11000_LEFT
62
7
6
CONTINUOUS
10
391.2480960000
20
334.0303360000
11
389.0620370000
21
333.7949340000
0
LINE
8
20000_FRONT_O
62
7
6
CONTINUOUS
10
174.9498530000
20
328.6466530000
11
175.0415990000
21
328.6505770000
0
LINE
8
20000_FRONT_O
62
7
6
CONTINUOUS
10
174.9498530000
20
329.6516790000
11
175.0643330000
21
329.6562810000
0
LINE
8
20000_FRONT_O
62
7
6
CONTINUOUS
10
171.6848510000
20
316.7304720000
11
178.4048510000
21
316.7304720000
0
LINE
8
11000_LEFT
62
7
6
CONTINUOUS
10
387.2481700000
20
336.5303290000
11
391.2480960000
21
336.5303290000
0
LINE
8
20000_FRONT_O
62
7
6
CONTINUOUS
10
174.7004140000
20
325.8021080000
11
175.1919290000
21
325.7992010000
0
LINE
8
20000_FRONT_O
62
7
6
CONTINUOUS
10
175.2270290000
20
333.6554560000
11
174.7266590000
21
333.6628680000
0
LINE
8
20000_FRONT_O
62
7
6
CONTINUOUS
10
174.8280830000
20
328.6536290000
11
174.9498530000
21
328.6466530000
0
LINE
8
20000_FRONT_O
62
7
6
CONTINUOUS
10
174.7736890000
20
329.6625310000
11
174.9498530000
21
329.6516790000
0
LINE
8
20000_FRONT_O
62
7
6
CONTINUOUS
10
175.1260170000
20
332.4715160000
11
174.9498530000
21
332.4823680000
0
LINE
8
11000_LEFT
62
7
6
CONTINUOUS
10
384.7481050000
20
312.7303280000
11
386.8905610000
21
312.4996250000
0
LINE
8
11000_LEFT
62
7
6
CONTINUOUS
10
386.8905610000
20
312.4996250000
11
389.0620370000
21
312.2657730000
0
LINE
8
11000_LEFT
62
7
6
CONTINUOUS
10
394.2508190000
20
311.7069410000
11
391.2481200000
21
312.0303220000
0
LINE
8
11000_LEFT
62
7
6
CONTINUOUS
10
389.0620370000
20
312.2657730000
11
391.2480960000
21
312.0303220000
0
LINE
8
11000_LEFT
62
7
6
CONTINUOUS
10
504.8884690000
20
231.4651830000
11
506.2042310000
21
230.8511220000
0
LINE
8
11000_LEFT
62
7
6
CONTINUOUS
10
409.3286290000
20
225.0319030000
11
409.6595680000
21
224.2876170000
0
LINE
8
11000_LEFT
62
7
6
CONTINUOUS
10
409.2287570000
20
225.6983360000
11
409.3286290000
21
225.0319030000
0
LINE
8
11000_LEFT
62
7
6
CONTINUOUS
10
424.7281010000
20
221.2082030000
11
424.7281010000
21
225.7803560000
0
LINE
8
11000_LEFT
62
7
6
CONTINUOUS
10
425.8280820000
20
221.1129570000
11
425.8280820000
21
225.7803560000
0
LINE
8
11000_LEFT
62
7
6
CONTINUOUS
10
431.2980970000
20
220.5143500000
11
431.2980970000
21
225.7803560000
0
LINE
8
11000_LEFT
62
7
6
CONTINUOUS
10
432.3980780000
20
220.3663450000
11
432.3980780000
21
225.7803560000
0
LINE
8
91000_TIP
62
7
6
CONTINUOUS
10
432.7797810000
20
23.3043440000
11
432.7797810000
21
13.3043440000
0
LINE
8
11000_LEFT
62
7
6
CONTINUOUS
10
437.8367480000
20
230.9016520000
11
437.8367480000
21
232.0245480000
0
LINE
8
11000_LEFT
62
7
6
CONTINUOUS
10
437.8680930000
20
219.5173180000
11
437.8680930000
21
225.7803560000
0
LINE
8
11000_LEFT
62
7
6
CONTINUOUS
10
438.9680750000
20
219.3236760000
11
438.9680750000
21
225.7803560000
0
LINE
8
91000_TIP
62
7
6
CENTER
10
439.2797810000
20
12.5828630000
11
439.2797810000
21
23.8662490000
0
LINE
8
11000_LEFT
62
7
6
CONTINUOUS
10
444.4380890000
20
218.2453020000
11
444.4380890000
21
225.7803560000
0
LINE
8
11000_LEFT
62
7
6
CONTINUOUS
10
437.6699460000
20
229.9202680000
11
437.8367480000
21
230.9016520000
0
LINE
8
11000_LEFT
62
7
6
CONTINUOUS
10
492.9509710000
20
362.7183610000
11
492.5462960000
21
361.5647500000
0
LINE
8
20000_FRONT_O
62
7
6
CONTINUOUS
10
175.0415990000
20
328.6505770000
11
175.2245820000
21
328.6822610000
0
LINE
8
20000_FRONT_O
62
7
6
CONTINUOUS
10
174.9498530000
20
332.4823680000
11
174.4934250000
21
332.4089230000
0
LINE
8
20000_FRONT_O
62
7
6
CONTINUOUS
10
175.0643330000
20
329.6562810000
11
175.2933160000
21
329.6930520000
0
LINE
8
20000_FRONT_O
62
7
6
CONTINUOUS
10
178.4048510000
20
342.7302410000
11
171.6848510000
21
342.7302410000
0
LINE
8
20000_FRONT_O
62
7
6
CONTINUOUS
10
130.3648510000
20
344.9803940000
11
193.8648440000
21
344.9803940000
0
LINE
8
11000_LEFT
62
7
6
CONTINUOUS
10
391.2480960000
20
347.8303170000
11
390.7928180000
21
347.8303170000
0
LINE
8
20000_FRONT_O
62
7
6
CONTINUOUS
10
195.3639530000
20
349.3483930000
11
128.8657480000
21
349.3483930000
0
LINE
8
20000_FRONT_O
62
7
6
CONTINUOUS
10
189.6148490000
20
349.3992130000
11
134.6148520000
21
349.3992130000
0
LINE
8
20000_FRONT_O
62
7
6
CONTINUOUS
10
128.8657480000
20
349.3993100000
11
127.2148500000
21
349.3993100000
0
LINE
8
20000_FRONT_O
62
7
6
CONTINUOUS
10
195.3639530000
20
349.3993100000
11
197.0148460000
21
349.3993100000
0
LINE
8
20000_FRONT_O
62
7
6
CONTINUOUS
10
134.6148520000
20
349.4434940000
11
127.2148500000
21
349.4434940000
0
LINE
8
20000_FRONT_O
62
7
6
CONTINUOUS
10
189.6148490000
20
349.4434940000
11
197.0148460000
21
349.4434940000
0
LINE
8
20000_FRONT_O
62
7
6
CONTINUOUS
10
189.6148490000
20
352.6887410000
11
134.6148520000
21
352.6887410000
0
LINE
8
10000_FRONT
62
7
6
CONTINUOUS
10
254.7101690000
20
353.7495290000
11
310.1101780000
21
353.7495290000
0
LINE
8
10000_FRONT
62
7
6
CONTINUOUS
10
309.9101660000
20
354.0364790000
11
254.9101810000
21
354.0364790000
0
LINE
8
20000_FRONT_O
62
7
6
CONTINUOUS
10
134.6148520000
20
356.3376950000
11
127.2148500000
21
356.3376950000
0
LINE
8
20000_FRONT_O
62
7
6
CONTINUOUS
10
189.6148490000
20
356.3376950000
11
197.0148460000
21
356.3376950000
0
LINE
8
10000_FRONT
62
7
6
CONTINUOUS
10
309.9101660000
20
356.3376950000
11
310.1102020000
21
356.3376950000
0
LINE
8
11000_LEFT
62
7
6
CONTINUOUS
10
386.2480860000
20
357.1303310000
11
381.7480940000
21
357.1303310000
0
LINE
8
20000_FRONT_O
62
7
6
CONTINUOUS
10
127.2148500000
20
357.5303550000
11
134.6148520000
21
357.5303550000
0
LINE
8
20000_FRONT_O
62
7
6
CONTINUOUS
10
189.6148490000
20
357.5303550000
11
197.0148460000
21
357.5303550000
0
LINE
8
10000_FRONT
62
7
6
CONTINUOUS
10
309.9101660000
20
357.5303550000
11
310.1102020000
21
357.5303550000
0
LINE
8
11000_LEFT
62
7
6
CONTINUOUS
10
497.0224270000
20
349.3935940000
11
496.7030190000
21
349.3991650000
0
LINE
8
11000_LEFT
62
7
6
CONTINUOUS
10
496.6982710000
20
349.3992620000
11
494.1666910000
21
349.4434450000
0
LINE
8
11000_LEFT
62
7
6
CONTINUOUS
10
506.2042310000
20
230.8511220000
11
507.3183100000
21
230.0240400000
0
LINE
8
11000_LEFT
62
7
6
CONTINUOUS
10
445.5380710000
20
218.0561660000
11
445.5380710000
21
225.7803560000
0
LINE
8
90000_FRAME
62
7
6
CONTINUOUS
10
449.0000000000
20
10.0000000000
11
449.0000000000
21
28.0000000000
0
LINE
8
11000_LEFT
62
7
6
CONTINUOUS
10
451.0080860000
20
217.2427960000
11
451.0080860000
21
225.7803560000
0
LINE
8
11000_LEFT
62
7
6
CONTINUOUS
10
452.1081150000
20
217.1046260000
11
452.1081150000
21
225.7803560000
0
LINE
8
11000_LEFT
62
7
6
CONTINUOUS
10
457.5780820000
20
216.5424990000
11
457.5780820000
21
225.7803560000
0
LINE
8
11000_LEFT
62
7
6
CONTINUOUS
10
458.6781120000
20
216.4544720000
11
458.6781120000
21
225.7803560000
0
LINE
8
90000_FRAME
62
7
6
CONTINUOUS
10
458.8025840000
20
16.8918100000
11
458.8025840000
21
17.8424640000
0
LINE
8
90000_FRAME
62
7
6
CONTINUOUS
10
462.1298720000
20
20.5518270000
11
462.1298720000
21
21.5024810000
0
LINE
8
90000_FRAME
62
7
6
CONTINUOUS
10
463.2231240000
20
21.5500140000
11
463.2231240000
21
16.7967450000
0
LINE
8
11000_LEFT
62
7
6
CONTINUOUS
10
464.1480780000
20
216.1401010000
11
464.1480780000
21
225.7803560000
0
LINE
8
90000_FRAME
62
7
6
CONTINUOUS
10
464.6491050000
20
21.5500140000
11
464.6491050000
21
16.7967450000
0
LINE
8
11000_LEFT
62
7
6
CONTINUOUS
10
465.2481080000
20
216.1016350000
11
465.2481080000
21
225.7803560000
0
LINE
8
11000_LEFT
62
7
6
CONTINUOUS
10
452.1081150000
20
225.3634240000
11
452.1359240000
21
225.5748930000
0
LINE
8
11000_LEFT
62
7
6
CONTINUOUS
10
452.1359240000
20
225.5748930000
11
452.1630050000
21
225.7803560000
0
LINE
8
11000_LEFT
62
7
6
CONTINUOUS
10
494.3489960000
20
360.8151830000
11
494.5271340000
21
361.5860660000
0
LINE
8
11000_LEFT
62
7
6
CONTINUOUS
10
500.6365960000
20
360.5181570000
11
500.5430460000
21
360.2026240000
0
LINE
8
11000_LEFT
62
7
6
CONTINUOUS
10
498.0766750000
20
354.6139140000
11
498.2443490000
21
355.1791410000
0
LINE
8
11000_LEFT
62
7
6
CONTINUOUS
10
500.4961490000
20
355.3473970000
11
500.2036290000
21
354.3976000000
0
LINE
8
20000_FRONT_O
62
7
6
CONTINUOUS
10
175.2933160000
20
329.6930520000
11
175.4062690000
21
329.7251240000
0
LINE
8
20000_FRONT_O
62
7
6
CONTINUOUS
10
142.3148480000
20
359.0291000000
11
144.3148470000
21
359.0291000000
0
LINE
8
20000_FRONT_O
62
7
6
CONTINUOUS
10
146.3148460000
20
359.0291000000
11
148.3148510000
21
359.0291000000
0
LINE
8
20000_FRONT_O
62
7
6
CONTINUOUS
10
150.3148510000
20
359.0291000000
11
152.3148500000
21
359.0291000000
0
LINE
8
10000_FRONT
62
7
6
CONTINUOUS
10
262.6101710000
20
359.0291000000
11
264.6101700000
21
359.0291000000
0
LINE
8
10000_FRONT
62
7
6
CONTINUOUS
10
266.6101690000
20
359.0291000000
11
268.6101680000
21
359.0291000000
0
LINE
8
10000_FRONT
62
7
6
CONTINUOUS
10
270.6101670000
20
359.0291000000
11
272.6101660000
21
359.0291000000
0
LINE
8
20000_FRONT_O
62
7
6
CONTINUOUS
10
142.3148480000
20
359.0671790000
11
144.3148470000
21
359.0671790000
0
LINE
8
20000_FRONT_O
62
7
6
CONTINUOUS
10
146.3148460000
20
359.0671790000
11
148.3148510000
21
359.0671790000
0
LINE
8
20000_FRONT_O
62
7
6
CONTINUOUS
10
150.3148510000
20
359.0671790000
11
152.3148500000
21
359.0671790000
0
LINE
8
10000_FRONT
62
7
6
CONTINUOUS
10
262.6101710000
20
359.0671790000
11
264.6101700000
21
359.0671790000
0
LINE
8
10000_FRONT
62
7
6
CONTINUOUS
10
266.6101690000
20
359.0671790000
11
268.6101680000
21
359.0671790000
0
LINE
8
10000_FRONT
62
7
6
CONTINUOUS
10
270.6101670000
20
359.0671790000
11
272.6101660000
21
359.0671790000
0
LINE
8
11000_LEFT
62
7
6
CONTINUOUS
10
387.7480910000
20
360.0303470000
11
387.2480980000
21
360.0303470000
0
LINE
8
10000_FRONT
62
7
6
CONTINUOUS
10
272.6101660000
20
361.0658460000
11
270.6101670000
21
361.0658460000
0
LINE
8
10000_FRONT
62
7
6
CONTINUOUS
10
268.6101680000
20
361.0658460000
11
266.6101690000
21
361.0658460000
0
LINE
8
10000_FRONT
62
7
6
CONTINUOUS
10
264.6101700000
20
361.0658460000
11
262.6101710000
21
361.0658460000
0
LINE
8
20000_FRONT_O
62
7
6
CONTINUOUS
10
152.3148500000
20
361.0658460000
11
150.3148510000
21
361.0658460000
0
LINE
8
20000_FRONT_O
62
7
6
CONTINUOUS
10
148.3148510000
20
361.0658460000
11
146.3148460000
21
361.0658460000
0
LINE
8
20000_FRONT_O
62
7
6
CONTINUOUS
10
144.3148470000
20
361.0658460000
11
142.3148480000
21
361.0658460000
0
LINE
8
10000_FRONT
62
7
6
CONTINUOUS
10
310.1102020000
20
363.5303760000
11
309.9101660000
21
363.5303760000
0
LINE
8
10000_FRONT
62
7
6
CONTINUOUS
10
254.9101810000
20
363.5303760000
11
254.7101450000
21
363.5303760000
0
LINE
8
20000_FRONT_O
62
7
6
CONTINUOUS
10
197.0148460000
20
363.5303760000
11
189.6148490000
21
363.5303760000
0
LINE
8
20000_FRONT_O
62
7
6
CONTINUOUS
10
134.6148520000
20
363.5303760000
11
127.2148500000
21
363.5303760000
0
LINE
8
20000_FRONT_O
62
7
6
CONTINUOUS
10
127.2148500000
20
364.0303450000
11
197.0148460000
21
364.0303450000
0
LINE
8
10000_FRONT
62
7
6
CONTINUOUS
10
247.5101720000
20
364.0303450000
11
317.3101740000
21
364.0303450000
0
LINE
8
11000_LEFT
62
7
6
CONTINUOUS
10
384.0480990000
20
364.0303450000
11
501.7978140000
21
364.0303450000
0
LINE
8
11000_LEFT
62
7
6
CONTINUOUS
10
499.9061180000
20
362.2409680000
11
500.0327090000
21
362.2358810000
0
LINE
8
11000_LEFT
62
7
6
CONTINUOUS
10
497.4236630000
20
357.5168380000
11
496.9809090000
21
357.5510900000
0
LINE
8
11000_LEFT
62
7
6
CONTINUOUS
10
494.5238400000
20
349.9197240000
11
497.0026610000
21
349.7028770000
0
LINE
8
90000_FRAME
62
7
6
CONTINUOUS
10
465.7423570000
20
21.5500140000
11
465.7423570000
21
16.7967450000
0
LINE
8
90000_FRAME
62
7
6
CONTINUOUS
10
467.1208050000
20
20.6706590000
11
467.1208050000
21
19.6011730000
0
LINE
8
90000_FRAME
62
7
6
CONTINUOUS
10
467.1208050000
20
18.8168840000
11
467.1208050000
21
17.6998660000
0
LINE
8
90000_FRAME
62
7
6
CONTINUOUS
10
468.9745800000
20
19.6011730000
11
468.9745800000
21
18.8168840000
0
LINE
8
90000_FRAME
62
7
6
CONTINUOUS
10
469.2597760000
20
21.5500140000
11
469.2597760000
21
20.6706590000
0
LINE
8
90000_FRAME
62
7
6
CONTINUOUS
10
469.3073090000
20
17.6998660000
11
469.3073090000
21
16.7967450000
0
LINE
8
90000_FRAME
62
7
6
CONTINUOUS
10
470.1153640000
20
16.7967450000
11
470.1153640000
21
21.5500140000
0
LINE
8
11000_LEFT
62
7
6
CONTINUOUS
10
470.7180740000
20
216.0330830000
11
470.7180740000
21
225.7803560000
0
LINE
8
90000_FRAME
62
7
6
CONTINUOUS
10
471.0660180000
20
16.7967450000
11
471.0660180000
21
19.8388370000
0
LINE
8
11000_LEFT
62
7
6
CONTINUOUS
10
471.8181040000
20
216.0439830000
11
471.8181040000
21
232.0300710000
0
LINE
8
11000_LEFT
62
7
6
CONTINUOUS
10
472.1400800000
20
217.1303510000
11
472.1400800000
21
232.0308460000
0
LINE
8
90000_FRAME
62
7
6
CONTINUOUS
10
474.5834370000
20
19.8863700000
11
474.5834370000
21
16.7967450000
0
LINE
8
90000_FRAME
62
7
6
CONTINUOUS
10
475.9618850000
20
21.5500140000
11
475.9618850000
21
16.7967450000
0
LINE
8
11000_LEFT
62
7
6
CONTINUOUS
10
476.2900690000
20
221.7803580000
11
476.2900690000
21
219.1303260000
0
LINE
8
90000_FRAME
62
7
6
CONTINUOUS
10
477.0551370000
20
21.5500140000
11
477.0551370000
21
16.7967450000
0
LINE
8
11000_LEFT
62
7
6
CONTINUOUS
10
477.2901050000
20
219.1303260000
11
477.2901050000
21
221.7803090000
0
LINE
8
90000_FRAME
62
7
6
CONTINUOUS
10
478.4335850000
20
20.6706590000
11
478.4335850000
21
19.6011730000
0
LINE
8
90000_FRAME
62
7
6
CONTINUOUS
10
478.4335850000
20
18.8168840000
11
478.4335850000
21
17.6998660000
0
LINE
8
90000_FRAME
62
7
6
CONTINUOUS
10
480.2873600000
20
19.6011730000
11
480.2873600000
21
18.8168840000
0
LINE
8
90000_FRAME
62
7
6
CONTINUOUS
10
480.5725560000
20
21.5500140000
11
480.5725560000
21
20.6706590000
0
LINE
8
90000_FRAME
62
7
6
CONTINUOUS
10
480.6200890000
20
17.6998660000
11
480.6200890000
21
16.7967450000
0
LINE
8
90000_FRAME
62
7
6
CONTINUOUS
10
481.4043780000
20
16.7967450000
11
481.4043780000
21
21.5500140000
0
LINE
8
11000_LEFT
62
7
6
CONTINUOUS
10
481.4900910000
20
221.7803090000
11
481.4900910000
21
219.1303260000
0
LINE
8
90000_FRAME
62
7
6
CONTINUOUS
10
482.3550320000
20
16.7967450000
11
482.3550320000
21
19.8388370000
0
LINE
8
11000_LEFT
62
7
6
CONTINUOUS
10
482.4900780000
20
219.1303260000
11
482.4900780000
21
221.7803580000
0
LINE
8
90000_FRAME
62
7
6
CONTINUOUS
10
484.6366010000
20
21.5500140000
11
484.6366010000
21
18.6029870000
0
LINE
8
90000_FRAME
62
7
6
CONTINUOUS
10
485.5872550000
20
21.5500140000
11
485.5872550000
21
16.7967450000
0
LINE
8
11000_LEFT
62
7
6
CONTINUOUS
10
495.4687430000
20
363.3165810000
11
495.4275150000
21
362.7871070000
0
LINE
8
11000_LEFT
62
7
6
CONTINUOUS
10
492.5462960000
20
361.5647500000
11
492.4464470000
21
360.3452500000
0
LINE
8
11000_LEFT
62
7
6
CONTINUOUS
10
500.6099020000
20
356.3374530000
11
500.4961490000
21
355.3473970000
0
LINE
8
11000_LEFT
62
7
6
CONTINUOUS
10
499.3954900000
20
363.6441770000
11
499.3645330000
21
363.3983100000
0
LINE
8
11000_LEFT
62
7
6
CONTINUOUS
10
496.9809090000
20
357.5510900000
11
496.5488610000
21
357.6352420000
0
LINE
8
11000_LEFT
62
7
6
CONTINUOUS
10
498.3809690000
20
352.5765870000
11
497.9485820000
21
352.6722210000
0
LINE
8
11000_LEFT
62
7
6
CONTINUOUS
10
507.3183100000
20
230.0240400000
11
508.1778510000
21
228.9955660000
0
LINE
8
11000_LEFT
62
7
6
CONTINUOUS
10
494.3663880000
20
351.8364680000
11
494.5238400000
21
349.9197240000
0
LINE
8
11000_LEFT
62
7
6
CONTINUOUS
10
499.7231830000
20
362.7654520000
11
499.7344710000
21
362.5166300000
0
LINE
8
11000_LEFT
62
7
6
CONTINUOUS
10
494.3769490000
20
360.0324300000
11
494.3489960000
21
360.8151830000
0
LINE
8
11000_LEFT
62
7
6
CONTINUOUS
10
500.6256960000
20
360.8511790000
11
500.6365960000
21
360.5181570000
0
LINE
8
11000_LEFT
62
7
6
CONTINUOUS
10
506.5739280000
20
230.6159130000
11
506.6534770000
21
224.3825240000
0
LINE
8
90000_FRAME
62
7
6
CONTINUOUS
10
486.3953110000
20
16.8918100000
11
486.3953110000
21
17.8424640000
0
LINE
8
90000_FRAME
62
7
6
CONTINUOUS
10
489.7225990000
20
20.5518270000
11
489.7225990000
21
21.5024810000
0
LINE
8
11000_LEFT
62
7
6
CONTINUOUS
10
490.5481130000
20
237.0302020000
11
490.5481130000
21
232.0303130000
0
LINE
8
11000_LEFT
62
7
6
CONTINUOUS
10
490.6853140000
20
236.6419500000
11
490.6853140000
21
232.2790870000
0
LINE
8
11000_LEFT
62
7
6
CONTINUOUS
10
498.1400920000
20
223.6303420000
11
498.1400920000
21
217.1303510000
0
LINE
8
90000_FRAME
62
7
6
CONTINUOUS
10
499.0000000000
20
10.0000000000
11
499.0000000000
21
28.0000000000
0
LINE
8
11000_LEFT
62
7
6
CONTINUOUS
10
504.6400830000
20
223.7236010000
11
504.6400830000
21
225.3018970000
0
LINE
8
11000_LEFT
62
7
6
CONTINUOUS
10
499.7344710000
20
362.5166300000
11
499.7335510000
21
362.3914920000
0
LINE
8
11000_LEFT
62
7
6
CONTINUOUS
10
500.7226860000
20
358.3253160000
11
500.6822330000
21
357.3300280000
0
LINE
8
11000_LEFT
62
7
6
CONTINUOUS
10
497.5367860000
20
353.2611380000
11
497.5499630000
21
353.5553070000
0
LINE
8
11000_LEFT
62
7
6
CONTINUOUS
10
498.2443490000
20
355.1791410000
11
498.3297120000
21
356.3533430000
0
LINE
8
11000_LEFT
62
7
6
CONTINUOUS
10
500.6822330000
20
357.3300280000
11
500.6099020000
21
356.3374530000
0
LINE
8
90000_FRAME
62
7
6
CONTINUOUS
10
589.0000000000
20
415.0000000000
11
5.0000000000
21
415.0000000000
0
LINE
8
90000_FRAME
62
7
6
CONTINUOUS
10
594.0000000000
20
420.0000000000
11
0.0000000000
21
420.0000000000
0
LINE
8
11000_LEFT
62
7
6
CONTINUOUS
10
495.9261280000
20
363.1719190000
11
495.4687430000
21
363.3165810000
0
LINE
8
11000_LEFT
62
7
6
CONTINUOUS
10
497.8356530000
20
357.3759550000
11
497.4236630000
21
357.5168380000
0
LINE
8
11000_LEFT
62
7
6
CONTINUOUS
10
496.5488610000
20
357.6352420000
11
496.1329950000
21
357.7821800000
0
LINE
8
11000_LEFT
62
7
6
CONTINUOUS
10
508.1778510000
20
228.9955660000
11
508.6790800000
21
227.8920970000
0
LINE
8
11000_LEFT
62
7
6
CONTINUOUS
10
500.6580580000
20
359.3174550000
11
500.7226860000
21
358.3253160000
0
LINE
8
11000_LEFT
62
7
6
CONTINUOUS
10
508.8353210000
20
226.8038400000
11
508.8353210000
21
222.0307780000
0
LINE
8
11000_LEFT
62
7
6
CONTINUOUS
10
499.7890710000
20
362.2831650000
11
499.9061180000
21
362.2409680000
0
LINE
8
11000_LEFT
62
7
6
CONTINUOUS
10
496.1329950000
20
357.7821800000
11
495.5330800000
21
358.1320140000
0
LINE
8
11000_LEFT
62
7
6
CONTINUOUS
10
493.4039470000
20
356.8120840000
11
493.7441880000
21
355.6369620000
0
LINE
8
11000_LEFT
62
7
6
CONTINUOUS
10
498.3297120000
20
356.3533430000
11
498.2154750000
21
356.9307790000
0
LINE
8
11000_LEFT
62
7
6
CONTINUOUS
10
493.7441880000
20
355.6369620000
11
494.1170820000
21
353.7469130000
0
LINE
8
11000_LEFT
62
7
6
CONTINUOUS
10
500.5712420000
20
361.1786300000
11
500.6256960000
21
360.8511790000
0
LINE
8
11000_LEFT
62
7
6
CONTINUOUS
10
492.4464470000
20
360.3452500000
11
492.6248760000
21
359.1324370000
0
LINE
8
11000_LEFT
62
7
6
CONTINUOUS
10
508.6790800000
20
227.8920970000
11
508.8353210000
21
226.8038400000
0
LINE
8
11000_LEFT
62
7
6
CONTINUOUS
10
494.1170820000
20
353.7469130000
11
494.3663880000
21
351.8364680000
0
LINE
8
90000_FRAME
62
7
6
CONTINUOUS
10
541.5000000000
20
10.0000000000
11
541.5000000000
21
16.0000000000
0
LINE
8
90000_FRAME
62
7
6
CONTINUOUS
10
474.2507080000
20
21.5500140000
11
473.0623910000
21
18.6505200000
0
LINE
8
90000_FRAME
62
7
6
CONTINUOUS
10
474.5834370000
20
19.8863700000
11
473.2525220000
21
16.7492120000
0
LINE
8
90000_FRAME
62
7
6
CONTINUOUS
10
458.9944120000
20
20.9692080000
11
459.2684780000
21
21.2432810000
0
LINE
8
11000_LEFT
62
7
6
CONTINUOUS
10
500.0327090000
20
362.2358810000
11
500.2387520000
21
362.1165090000
0
LINE
8
11000_LEFT
62
7
6
CONTINUOUS
10
494.3579100000
20
362.2939690000
11
493.7361460000
21
362.8637500000
0
LINE
8
11000_LEFT
62
7
6
CONTINUOUS
10
495.5330800000
20
358.1320140000
11
495.0296230000
21
358.6111510000
0
LINE
8
11000_LEFT
62
7
6
CONTINUOUS
10
497.9485820000
20
352.6722210000
11
497.6339210000
21
352.9797600000
0
LINE
8
11000_LEFT
62
7
6
CONTINUOUS
10
498.2154750000
20
356.9307790000
11
497.8356530000
21
357.3759550000
0
LINE
8
11000_LEFT
62
7
6
CONTINUOUS
10
495.0296230000
20
358.6111510000
11
494.6090570000
21
359.2786490000
0
LINE
8
11000_LEFT
62
7
6
CONTINUOUS
10
492.1526180000
20
357.8910400000
11
489.9361350000
21
361.8896810000
0
LINE
8
11000_LEFT
62
7
6
CONTINUOUS
10
499.7335510000
20
362.3914920000
11
499.7890710000
21
362.2831650000
0
LINE
8
11000_LEFT
62
7
6
CONTINUOUS
10
500.3868050000
20
359.9757960000
11
500.4403390000
21
359.8667430000
0
LINE
8
11000_LEFT
62
7
6
CONTINUOUS
10
500.2387520000
20
362.1165090000
11
500.3508100000
21
361.8578520000
0
LINE
8
11000_LEFT
62
7
6
CONTINUOUS
10
500.3508100000
20
361.8578520000
11
500.4573440000
21
361.6021990000
0
LINE
8
11000_LEFT
62
7
6
CONTINUOUS
10
494.4673020000
20
362.2612670000
11
494.6357030000
21
361.8121180000
0
LINE
8
11000_LEFT
62
7
6
CONTINUOUS
10
492.9898250000
20
357.9646790000
11
493.4039470000
21
356.8120840000
0
LINE
8
11000_LEFT
62
7
6
CONTINUOUS
10
500.4949380000
20
359.7872900000
11
500.6580580000
21
359.3174550000
0
LINE
8
11000_LEFT
62
7
6
CONTINUOUS
10
497.6339210000
20
352.9797600000
11
497.5367860000
21
353.2611380000
0
LINE
8
11000_LEFT
62
7
6
CONTINUOUS
10
492.6248760000
20
359.1324370000
11
492.9898250000
21
357.9646790000
0
LINE
8
11000_LEFT
62
7
6
CONTINUOUS
10
494.6090570000
20
359.2786490000
11
494.3769490000
21
360.0324300000
0
LINE
8
11000_LEFT
62
7
6
CONTINUOUS
10
500.4573440000
20
361.6021990000
11
500.5712420000
21
361.1786300000
0
LINE
8
11000_LEFT
62
7
6
CONTINUOUS
10
499.3645330000
20
363.3983100000
11
499.4232010000
21
363.1543330000
0
LINE
8
11000_LEFT
62
7
6
CONTINUOUS
10
499.4232010000
20
363.1543330000
11
499.5817670000
21
362.9620000000
0
LINE
8
11000_LEFT
62
7
6
CONTINUOUS
10
499.5817670000
20
362.9620000000
11
499.7231830000
21
362.7654520000
0
LINE
8
11000_LEFT
62
7
6
CONTINUOUS
10
500.4403390000
20
359.8667430000
11
500.4949380000
21
359.7872900000
0
LINE
8
90000_FRAME
62
7
6
CONTINUOUS
10
584.0000000000
20
10.0000000000
11
584.0000000000
21
28.0000000000
0
LINE
8
90000_FRAME
62
7
6
CONTINUOUS
10
589.0000000000
20
5.0000000000
11
589.0000000000
21
415.0000000000
0
LINE
8
90000_FRAME
62
7
6
CONTINUOUS
10
594.0000000000
20
0.0000000000
11
594.0000000000
21
420.0000000000
0
CIRCLE
8
91000_TIP
62
7
6
CONTINUOUS
10
439.2797810000
20
18.3043440000
40
5.0000000000
0
CIRCLE
8
91000_TIP
62
7
6
CONTINUOUS
10
439.2797810000
20
18.3043440000
40
2.5000000000
0
ARC
8
90000_FRAME
62
7
6
CONTINUOUS
10
488.0999520000
20
18.7539030000
40
1.1116190000
50
277.7099960000
51
295.6884930000
0
ARC
8
90000_FRAME
62
7
6
CONTINUOUS
10
488.3842620000
20
18.0290770000
40
0.3401690000
50
305.5032210000
51
72.4652900000
0
ARC
8
90000_FRAME
62
7
6
CONTINUOUS
10
487.8182680000
20
21.4307840000
40
4.7567950000
50
252.5939200000
51
280.9816600000
0
ARC
8
90000_FRAME
62
7
6
CONTINUOUS
10
488.2731040000
20
18.8127710000
40
2.1007270000
50
282.4058360000
51
311.8644430000
0
ARC
8
90000_FRAME
62
7
6
CONTINUOUS
10
487.9995390000
20
20.4211120000
40
0.3029630000
50
154.4400350000
51
221.8201700000
0
ARC
8
90000_FRAME
62
7
6
CONTINUOUS
10
488.0787600000
20
20.3418910000
40
0.4103090000
50
102.8287830000
51
149.2259640000
0
ARC
8
90000_FRAME
62
7
6
CONTINUOUS
10
488.4957870000
20
18.5995560000
40
2.2018370000
50
84.0400060000
51
103.3427660000
0
ARC
8
90000_FRAME
62
7
6
CONTINUOUS
10
488.1548230000
20
16.1821920000
40
4.6423740000
50
70.2625860000
51
82.9524190000
0
ARC
8
90000_FRAME
62
7
6
CONTINUOUS
10
487.6408050000
20
20.8538150000
40
3.2587560000
50
247.5300210000
51
280.7579520000
0
ARC
8
90000_FRAME
62
7
6
CONTINUOUS
10
481.2558390000
20
2.6022950000
40
17.3316080000
50
65.3414670000
51
67.3997770000
0
ARC
8
90000_FRAME
62
7
6
CONTINUOUS
10
492.0517010000
20
28.3947210000
40
10.6291640000
50
242.8620100000
51
247.1042030000
0
ARC
8
90000_FRAME
62
7
6
CONTINUOUS
10
488.1968000000
20
20.8607900000
40
2.1662920000
50
227.3119280000
51
242.7040320000
0
ARC
8
90000_FRAME
62
7
6
CONTINUOUS
10
487.5927690000
20
20.1551120000
40
1.2385220000
50
194.7952190000
51
225.7176550000
0
ARC
8
90000_FRAME
62
7
6
CONTINUOUS
10
487.6549270000
20
20.1953320000
40
1.3090920000
50
164.1974860000
51
195.8025140000
0
ARC
8
90000_FRAME
62
7
6
CONTINUOUS
10
488.2119510000
20
19.3070650000
40
2.3669250000
50
86.2218020000
51
120.4272600000
0
ARC
8
90000_FRAME
62
7
6
CONTINUOUS
10
487.9430940000
20
12.6108970000
40
9.0679050000
50
78.6827050000
51
87.3147600000
0
ARC
8
90000_FRAME
62
7
6
CONTINUOUS
10
487.4870250000
20
20.3028400000
40
1.1197470000
50
142.8139180000
51
167.1522950000
0
ARC
8
90000_FRAME
62
7
6
CONTINUOUS
10
487.8323340000
20
19.9962580000
40
1.5805470000
50
121.2140950000
51
141.5254770000
0
ARC
8
90000_FRAME
62
7
6
CONTINUOUS
10
488.4095090000
20
20.8073150000
40
0.8661280000
50
222.7760390000
51
239.0362430000
0
ARC
8
90000_FRAME
62
7
6
CONTINUOUS
10
485.9027990000
20
13.4770430000
40
6.8587740000
50
59.9020270000
51
68.2036480000
0
ARC
8
90000_FRAME
62
7
6
CONTINUOUS
10
489.3112940000
20
22.4029300000
40
2.6987410000
50
240.0482000000
51
251.3779670000
0
ARC
8
90000_FRAME
62
7
6
CONTINUOUS
10
488.6458360000
20
18.2460310000
40
1.4334470000
50
315.8904550000
51
333.5229260000
0
ARC
8
90000_FRAME
62
7
6
CONTINUOUS
10
488.6504750000
20
18.1926240000
40
1.4062290000
50
335.3867970000
51
24.3915120000
0
ARC
8
90000_FRAME
62
7
6
CONTINUOUS
10
488.5782700000
20
18.1147670000
40
1.5047030000
50
25.9562920000
51
59.4834830000
0
ARC
8
90000_FRAME
62
7
6
CONTINUOUS
10
460.5072250000
20
18.7539030000
40
1.1116190000
50
277.7099960000
51
295.6884930000
0
ARC
8
90000_FRAME
62
7
6
CONTINUOUS
10
460.7915350000
20
18.0290770000
40
0.3401690000
50
305.5032210000
51
72.4652900000
0
ARC
8
90000_FRAME
62
7
6
CONTINUOUS
10
460.2255410000
20
21.4307840000
40
4.7567950000
50
252.5939200000
51
280.9816600000
0
ARC
8
90000_FRAME
62
7
6
CONTINUOUS
10
460.6803770000
20
18.8127710000
40
2.1007270000
50
282.4058360000
51
311.8644430000
0
ARC
8
90000_FRAME
62
7
6
CONTINUOUS
10
460.4068120000
20
20.4211120000
40
0.3029630000
50
154.4400350000
51
221.8201700000
0
ARC
8
90000_FRAME
62
7
6
CONTINUOUS
10
460.4860330000
20
20.3418910000
40
0.4103090000
50
102.8287830000
51
149.2259640000
0
ARC
8
90000_FRAME
62
7
6
CONTINUOUS
10
460.9030600000
20
18.5995560000
40
2.2018370000
50
84.0400060000
51
103.3427660000
0
ARC
8
90000_FRAME
62
7
6
CONTINUOUS
10
460.5620960000
20
16.1821920000
40
4.6423740000
50
70.2625860000
51
82.9524190000
0
ARC
8
90000_FRAME
62
7
6
CONTINUOUS
10
460.0480780000
20
20.8538150000
40
3.2587560000
50
247.5300210000
51
280.7579520000
0
ARC
8
90000_FRAME
62
7
6
CONTINUOUS
10
453.6631120000
20
2.6022950000
40
17.3316080000
50
65.3414670000
51
67.3997770000
0
ARC
8
90000_FRAME
62
7
6
CONTINUOUS
10
464.4589740000
20
28.3947210000
40
10.6291640000
50
242.8620100000
51
247.1042030000
0
ARC
8
90000_FRAME
62
7
6
CONTINUOUS
10
460.6040730000
20
20.8607900000
40
2.1662920000
50
227.3119280000
51
242.7040320000
0
ARC
8
90000_FRAME
62
7
6
CONTINUOUS
10
460.0000420000
20
20.1551120000
40
1.2385220000
50
194.7952190000
51
225.7176550000
0
ARC
8
90000_FRAME
62
7
6
CONTINUOUS
10
460.6192240000
20
19.3070650000
40
2.3669250000
50
86.2218020000
51
120.4272600000
0
ARC
8
90000_FRAME
62
7
6
CONTINUOUS
10
460.3503670000
20
12.6108970000
40
9.0679050000
50
78.6827050000
51
87.3147600000
0
ARC
8
90000_FRAME
62
7
6
CONTINUOUS
10
460.2396070000
20
19.9962580000
40
1.5805470000
50
121.2140950000
51
141.5254770000
0
ARC
8
90000_FRAME
62
7
6
CONTINUOUS
10
460.8167820000
20
20.8073150000
40
0.8661280000
50
222.7760390000
51
239.0362430000
0
ARC
8
90000_FRAME
62
7
6
CONTINUOUS
10
458.3100720000
20
13.4770430000
40
6.8587740000
50
59.9020270000
51
68.2036480000
0
ARC
8
90000_FRAME
62
7
6
CONTINUOUS
10
461.7185670000
20
22.4029300000
40
2.6987410000
50
240.0482000000
51
251.3779670000
0
ARC
8
90000_FRAME
62
7
6
CONTINUOUS
10
461.0531090000
20
18.2460310000
40
1.4334470000
50
315.8904550000
51
333.5229260000
0
ARC
8
90000_FRAME
62
7
6
CONTINUOUS
10
461.0577480000
20
18.1926240000
40
1.4062290000
50
335.3867970000
51
24.3915120000
0
ARC
8
90000_FRAME
62
7
6
CONTINUOUS
10
460.9855430000
20
18.1147670000
40
1.5047030000
50
25.9562920000
51
59.4834830000
0
ARC
8
90000_FRAME
62
7
6
CONTINUOUS
10
460.0622000000
20
20.1953320000
40
1.3090920000
50
164.1974860000
51
195.8025140000
0
ARC
8
90000_FRAME
62
7
6
CONTINUOUS
10
459.8942980000
20
20.3028400000
40
1.1197470000
50
142.8139180000
51
167.1522950000
0
ARC
8
11000_LEFT
62
7
6
CONTINUOUS
10
-489.4646790000
20
232.0303130000
40
999.9999930000
50
359.4270570000
51
7.5851800000
0
ARC
8
11000_LEFT
62
7
6
CONTINUOUS
10
493.9186440000
20
361.8147830000
40
0.6500810000
50
339.4013520000
51
47.4908130000
0
ARC
8
11000_LEFT
62
7
6
CONTINUOUS
10
493.3983270000
20
362.4951190000
40
0.5000000000
50
47.4999990000
51
153.4782780000
0
ARC
8
11000_LEFT
62
7
6
CONTINUOUS
10
-497.8216300000
20
284.8028180000
40
996.9389390000
50
357.3777930000
51
3.7325540000
0
ARC
8
11000_LEFT
62
7
6
CONTINUOUS
10
506.8246390000
20
237.1419200000
40
0.5000000000
50
270.0000000000
51
80.0000000000
0
ARC
8
11000_LEFT
62
7
6
CONTINUOUS
10
438.7480780000
20
159.9970170000
40
72.0333320000
50
90.0000000000
51
127.6494200000
0
ARC
8
11000_LEFT
62
7
6
CONTINUOUS
10
384.0480990000
20
361.7303400000
40
2.3000000000
50
90.0000000000
51
180.0000000000
0
ARC
8
11000_LEFT
62
7
6
CONTINUOUS
10
387.2480980000
20
359.0303110000
40
1.0000000000
50
90.0000000000
51
180.0000000000
0
ARC
8
11000_LEFT
62
7
6
CONTINUOUS
10
387.7480910000
20
356.5303190000
40
3.5000000000
50
0.0000000000
51
90.0000000000
0
ARC
8
11000_LEFT
62
7
6
CONTINUOUS
10
469.8180810000
20
362.5435170000
40
146.5131960000
50
260.0245190000
51
270.7821490000
0
ARC
8
11000_LEFT
62
7
6
CONTINUOUS
10
409.9613670000
20
57.7711850000
40
164.1359090000
50
77.8747280000
51
82.5307420000
0
ARC
8
11000_LEFT
62
7
6
CONTINUOUS
10
412.6831000000
20
75.7059430000
40
146.0000010000
50
82.6748490000
51
90.9893780000
0
ARC
8
11000_LEFT
62
7
6
CONTINUOUS
10
411.0427200000
20
170.6917620000
40
50.9999990000
50
90.9893780000
51
103.0255140000
0
ARC
8
11000_LEFT
62
7
6
CONTINUOUS
10
411.0427200000
20
170.6917620000
40
50.0000000000
50
103.2907500000
51
104.5895360000
0
ARC
8
11000_LEFT
62
7
6
CONTINUOUS
10
387.2481700000
20
353.5307440000
40
17.0004130000
50
250.4098360000
51
269.9999960000
0
ARC
8
11000_LEFT
62
7
6
CONTINUOUS
10
-501.2084390000
20
284.8027210000
40
999.9936950000
50
357.2617780000
51
3.7037060000
0
ARC
8
11000_LEFT
62
7
6
CONTINUOUS
10
470.1881160000
20
348.4303290000
40
24.0000000000
50
2.4193540000
51
19.2368030000
0
ARC
8
11000_LEFT
62
7
6
CONTINUOUS
10
483.4063980000
20
353.0429350000
40
10.0000000000
50
19.2368030000
51
28.9999990000
0
ARC
8
11000_LEFT
62
7
6
CONTINUOUS
10
488.7480780000
20
362.6303340000
40
1.4000000000
50
328.0592810000
51
90.0000000000
0
ARC
8
11000_LEFT
62
7
6
CONTINUOUS
10
-489.4527130000
20
232.0301680000
40
996.0008180000
50
0.2653880000
51
0.3262650000
0
ARC
8
11000_LEFT
62
7
6
CONTINUOUS
10
497.3480860000
20
360.5303170000
40
8.6600000000
50
311.3191240000
51
311.4210370000
0
ARC
8
11000_LEFT
62
7
6
CONTINUOUS
10
-501.2084390000
20
284.8028180000
40
999.9999930000
50
3.7036770000
51
3.7227270000
0
ARC
8
11000_LEFT
62
7
6
CONTINUOUS
10
497.3480860000
20
360.5303170000
40
3.0000000000
50
154.7065880000
51
118.2934090000
0
ARC
8
11000_LEFT
62
7
6
CONTINUOUS
10
494.9290480000
20
362.8259130000
40
0.5000000000
50
277.4507390000
51
355.5492600000
0
CIRCLE
8
11000_LEFT
62
7
6
CONTINUOUS
10
497.3480860000
20
360.5303170000
40
1.7500000000
0
ARC
8
20000_FRONT_O
62
7
6
CONTINUOUS
10
188.5548490000
20
262.6303830000
40
2.0018100000
50
46.4701240000
51
87.5634050000
0
ARC
8
20000_FRONT_O
62
7
6
CONTINUOUS
10
188.5548490000
20
262.6303830000
40
2.0018100000
50
6.4461680000
51
45.8610670000
0
ARC
8
20000_FRONT_O
62
7
6
CONTINUOUS
10
174.9498530000
20
329.7303560000
40
1.8457790000
50
141.0356250000
51
38.9362500000
0
ENDSEC
0
EOF
