0
SECTION
2
HEADER
9
$EXTMAX
10
594.0000000000
20
420.0000000000
9
$EXTMIN
10
0.0000000000
20
0.0000000000
9
$LIMMIN
10
0.0000000000
20
0.0000000000
9
$LIMMAX
10
594.0000000000
20
420.0000000000
9
$VIEWCTR
10
297.0000000000
20
210.0000000000
9
$VIEWSIZE
40
420.0000000000
9
$CLAYER
8
0
9
$LTSCALE
40
32.6700000000
9
$CELTYPE
6
BYLAYER
9
$DIMSCALE
40
1
9
$DIMASZ
40
3.5000000000
9
$DIMEXO
40
3.7125000000
9
$DIMDLI
40
22.5720000000
9
$DIMEXE
40
10.6920000000
9
$DIMCEN
40
5.3460000000
9
$DIMLFAC
40
1.0000000000
0
ENDSEC
0
SECTION
2
TABLES
0
TABLE
2
LTYPE
70
6
0
LTYPE
2
BYBLOCK
70
0
3

72
65
73
0
40
0.0
0
LTYPE
2
BYLAYER
70
0
3

72
65
73
0
40
0.0
0
LTYPE
2
CONTINUOUS
70
64
3
Solid line
72
65
73
0
40
0
0
LTYPE
2
CENTER
70
64
3
____ _ ____ _ ____ _ ____ _ ____ _ ____ _ ____
72
65
73
4
40
0.6
49
0.375
49
-0.075
49
0.075
49
-0.075
0
LTYPE
2
HIDDEN
70
64
3
- - - - - - - - - - - - - - - - - - - -
72
65
73
2
40
0.2
49
0.1
49
-0.1
0
LTYPE
2
PHANTOM
70
64
3
_____ _ _ _____ _ _ _____ _ _ _____
72
65
73
6
40
0.8
49
0.45
49
-0.05
49
0.1
49
-0.05
49
0.1
49
-0.05
0
LTYPE
2
DOT
70
64
3
. . . . . . . . . . . . . . . . . . . .
72
65
73
2
40
0.2
49
0.1
49
-0.1
0
LTYPE
2
DASHED
70
64
3
- - - - - - - - - - - - - - - - - - - -
72
65
73
2
40
0.2
49
0.1
49
-0.1
0
ENDTAB
0
TABLE
2
LAYER
70
36
0
LAYER
2
0
70
0
62
7
6
CONTINUOUS
0
LAYER
2
DEFAULT_1
70
0
62
7
6
CENTER
0
LAYER
2
DEFAULT_2
70
0
62
8
6
HIDDEN
0
LAYER
2
DEFAULT_3
70
0
62
7
6
PHANTOM
0
LAYER
2
10000_FRONT
70
0
62
7
6
CONTINUOUS
0
LAYER
2
10100_DIM_FRONT
70
0
62
7
6
CONTINUOUS
0
LAYER
2
10300_FRONT_GERMAN_ENGLISH
70
0
62
7
6
CONTINUOUS
0
LAYER
2
10500_FRONT_LABELING
70
0
62
7
6
CONTINUOUS
0
LAYER
2
11000_LEFT
70
0
62
7
6
CONTINUOUS
0
LAYER
2
11100_DIM_LEFT
70
0
62
7
6
CONTINUOUS
0
LAYER
2
11300_LEFT_GERMAN_ENGLISH
70
0
62
7
6
CONTINUOUS
0
LAYER
2
11500_LEFT_LABELING
70
0
62
7
6
CONTINUOUS
0
LAYER
2
12000_RIGHT
70
0
62
7
6
CONTINUOUS
0
LAYER
2
12100_DIM_RIGHT
70
0
62
7
6
CONTINUOUS
0
LAYER
2
12300_RIGHT_GERMAN_ENGLISH
70
0
62
7
6
CONTINUOUS
0
LAYER
2
12500_RIGHT_LABELING
70
0
62
7
6
CONTINUOUS
0
LAYER
2
13000_TOP
70
0
62
7
6
CONTINUOUS
0
LAYER
2
13100_DIM_TOP
70
0
62
7
6
CONTINUOUS
0
LAYER
2
13300_TOP_GERMAN_ENGLISH
70
0
62
7
6
CONTINUOUS
0
LAYER
2
13500_TOP_LABELING
70
0
62
7
6
CONTINUOUS
0
LAYER
2
14000_BOTTOM
70
0
62
7
6
CONTINUOUS
0
LAYER
2
14100_DIM_BOTTOM
70
0
62
7
6
CONTINUOUS
0
LAYER
2
14300_BOTTOM_GERMAN_ENGLISH
70
0
62
7
6
CONTINUOUS
0
LAYER
2
14500_BOTTOM_LABELING
70
0
62
7
6
CONTINUOUS
0
LAYER
2
15000_BACK
70
0
62
7
6
CONTINUOUS
0
LAYER
2
15100_DIM_BACK
70
0
62
7
6
CONTINUOUS
0
LAYER
2
15300_BACK_GERMAN_ENGLISH
70
0
62
7
6
CONTINUOUS
0
LAYER
2
15500_BACK_LABELING
70
0
62
7
6
CONTINUOUS
0
LAYER
2
20000_FRONT_O
70
0
62
7
6
CONTINUOUS
0
LAYER
2
20100_DIM_FRONT_O
70
0
62
7
6
CONTINUOUS
0
LAYER
2
20300_FRONT_O_GERMAN_ENGLISH
70
0
62
7
6
CONTINUOUS
0
LAYER
2
20500_FRONT_O_LABELING
70
0
62
7
6
CONTINUOUS
0
LAYER
2
40000_ISO
70
0
62
7
6
CONTINUOUS
0
LAYER
2
40300_ISO_GERMAN_ENGLISH
70
0
62
7
6
CONTINUOUS
0
LAYER
2
50000_WIRING
70
0
62
7
6
CONTINUOUS
0
LAYER
2
50300_WIRING_GERMAN_ENGLISH
70
0
62
7
6
CONTINUOUS
0
LAYER
2
90000_FRAME
70
0
62
7
6
CONTINUOUS
0
LAYER
2
91000_TIP
70
0
62
7
6
CONTINUOUS
0
ENDTAB
0
ENDSEC
0
SECTION
2
BLOCKS
0
BLOCK
8
10100_DIM_FRONT
62
7
6
CONTINUOUS
2
*D0
70
65
10
0.0000000000
20
0.0000000000
0
TEXT
8
10100_DIM_FRONT
62
7
6
CONTINUOUS
10
284.8144313412
20
201.0661387331
40
3.5000000000
1
34.8
72
5
11
294.8144313412
21
201.0661387331
0
LINE
8
10100_DIM_FRONT
62
7
6
CONTINUOUS
10
270.5101667484
20
217.0303568647
11
270.5101667484
21
198.1911387331
0
LINE
8
10100_DIM_FRONT
62
7
6
CONTINUOUS
10
305.3101737484
20
217.0303568647
11
305.3101737484
21
198.1911387331
0
LINE
8
10100_DIM_FRONT
62
7
6
CONTINUOUS
10
270.5101667484
20
200.1911387331
11
287.9101702484
21
200.1911387331
0
LINE
8
10100_DIM_FRONT
62
7
6
CONTINUOUS
10
305.3101737484
20
200.1911387331
11
287.9101702484
21
200.1911387331
0
SOLID
8
10100_DIM_FRONT
62
7
6
CONTINUOUS
10
274.0101667484
20
200.6911387331
11
270.5101667484
21
200.1911387331
12
274.0101667484
22
199.6911387331
13
274.0101667484
23
199.6911387331
0
SOLID
8
10100_DIM_FRONT
62
7
6
CONTINUOUS
10
301.8101737484
20
199.6911387331
11
305.3101737484
21
200.1911387331
12
301.8101737484
22
200.6911387331
13
301.8101737484
23
200.6911387331
0
ENDBLK
8
0
0
BLOCK
8
10100_DIM_FRONT
62
7
6
CONTINUOUS
2
*D1
70
65
10
0.0000000000
20
0.0000000000
0
TEXT
8
10100_DIM_FRONT
62
7
6
CONTINUOUS
10
320.5716730331
20
287.5773249091
40
3.5000000000
1
147
50
90.0000000000
72
5
11
320.5716730331
21
295.0773249091
0
LINE
8
10100_DIM_FRONT
62
7
6
CONTINUOUS
10
305.3101737484
20
217.0303568647
11
323.4466730331
21
217.0303568647
0
LINE
8
10100_DIM_FRONT
62
7
6
CONTINUOUS
10
305.3101737484
20
364.0303448647
11
323.4466730331
21
364.0303448647
0
LINE
8
10100_DIM_FRONT
62
7
6
CONTINUOUS
10
321.4466730331
20
217.0303568647
11
321.4466730331
21
290.5303508647
0
LINE
8
10100_DIM_FRONT
62
7
6
CONTINUOUS
10
321.4466730331
20
364.0303448647
11
321.4466730331
21
290.5303508647
0
SOLID
8
10100_DIM_FRONT
62
7
6
CONTINUOUS
10
320.9466730331
20
220.5303568647
11
321.4466730331
21
217.0303568647
12
321.9466730331
22
220.5303568647
13
321.9466730331
23
220.5303568647
0
SOLID
8
10100_DIM_FRONT
62
7
6
CONTINUOUS
10
321.9466730331
20
360.5303448647
11
321.4466730331
21
364.0303448647
12
320.9466730331
22
360.5303448647
13
320.9466730331
23
360.5303448647
0
ENDBLK
8
0
0
BLOCK
8
11100_DIM_LEFT
62
7
6
CONTINUOUS
2
*D2
70
65
10
0.0000000000
20
0.0000000000
0
TEXT
8
11100_DIM_LEFT
62
7
6
CONTINUOUS
10
438.8304329808
20
203.0330829602
40
3.5000000000
1
129
72
5
11
446.3304329808
21
203.0330829602
0
LINE
8
11100_DIM_LEFT
62
7
6
CONTINUOUS
10
381.5481041337
20
337.5143997813
11
381.5481041337
21
200.1580829602
0
LINE
8
11100_DIM_LEFT
62
7
6
CONTINUOUS
10
510.4853163585
20
222.0307378152
11
510.4853163585
21
200.1580829602
0
LINE
8
11100_DIM_LEFT
62
7
6
CONTINUOUS
10
381.5481041337
20
202.1580829602
11
446.0167102461
21
202.1580829602
0
LINE
8
11100_DIM_LEFT
62
7
6
CONTINUOUS
10
510.4853163585
20
202.1580829602
11
446.0167102461
21
202.1580829602
0
SOLID
8
11100_DIM_LEFT
62
7
6
CONTINUOUS
10
385.0481041337
20
202.6580829602
11
381.5481041337
21
202.1580829602
12
385.0481041337
22
201.6580829602
13
385.0481041337
23
201.6580829602
0
SOLID
8
11100_DIM_LEFT
62
7
6
CONTINUOUS
10
506.9853163585
20
201.6580829602
11
510.4853163585
21
202.1580829602
12
506.9853163585
22
202.6580829602
13
506.9853163585
23
202.6580829602
0
ENDBLK
8
0
0
ENDSEC
0
SECTION
2
ENTITIES
0
DIMENSION
8
10100_DIM_FRONT
62
7
6
CONTINUOUS
2
*D0
10
305.3101737484
20
200.1911387331
11
289.8144313412
21
202.8161387331
70
128
13
270.5101667484
23
217.0303568647
14
305.3101737484
24
217.0303568647
0
DIMENSION
8
10100_DIM_FRONT
62
7
6
CONTINUOUS
2
*D1
10
321.4466730331
20
364.0303448647
11
318.8216730331
21
291.3273249091
70
128
13
305.3101737484
23
217.0303568647
14
305.3101737484
24
364.0303448647
50
90.000000
0
DIMENSION
8
11100_DIM_LEFT
62
7
6
CONTINUOUS
2
*D2
10
510.4853163585
20
202.1580829602
11
442.5804329808
21
204.7830829602
70
128
13
381.5481041337
23
337.5143997813
14
510.4853163585
24
222.0307378152
0
TEXT
8
90000_FRAME
62
7
6
CONTINUOUS
10
499.6600000000
20
11.9000000000
40
2.2000000000
1
Format / Size: DIN A2
72
5
11
533.2361904762
21
11.9000000000
0
TEXT
8
90000_FRAME
62
7
6
CONTINUOUS
10
542.1600000000
20
11.9000000000
40
2.2000000000
1
Massstab / Scale: 1:1
72
5
11
573.0647619048
21
11.9000000000
0
TEXT
8
90000_FRAME
62
7
6
CONTINUOUS
10
516.5027930000
20
19.8924840000
40
3.5000000000
1
6ES7505-0KA00-0AB0
72
5
11
565.2527930000
21
19.8924840000
0
TEXT
8
20300_FRONT_O_GERMAN_ENGLISH
62
7
6
CONTINUOUS
10
139.0951267930
20
383.3575179303
40
3.5000000000
1
Vorne offen / Front open
72
5
11
198.6784601264
21
383.3575179303
0
TEXT
8
10300_FRONT_GERMAN_ENGLISH
62
7
6
CONTINUOUS
10
270.5811027152
20
381.8169825820
40
3.5000000000
1
Vorne / Front
72
5
11
303.1644360485
21
381.8169825820
0
TEXT
8
13300_TOP_GERMAN_ENGLISH
62
7
6
CONTINUOUS
10
274.6891969775
20
170.0068519467
40
3.5000000000
1
Oben / Top
72
5
11
301.1058636441
21
170.0068519467
0
TEXT
8
91000_TIP
62
7
6
CONTINUOUS
10
11.2756234532
20
15.1898618139
40
3.5000000000
1
Alle Bemassungswerte sind in Millimeter (mm) angegeben.
72
5
11
145.8589567865
21
15.1898618139
0
TEXT
8
91000_TIP
62
7
6
CONTINUOUS
10
11.2756234532
20
9.9398618139
40
3.5000000000
1
All dimensions are in millimeters (mm).
72
5
11
104.4422901199
21
9.9398618139
0
TEXT
8
11300_LEFT_GERMAN_ENGLISH
62
7
6
CONTINUOUS
10
416.9241586319
20
381.1108694584
40
3.5000000000
1
Links / Left
72
5
11
445.4241586319
21
381.1108694584
0
LINE
8
90000_FRAME
62
7
6
CONTINUOUS
10
0.0000000000
20
420.0000000000
11
0.0000000000
21
0.0000000000
0
LINE
8
90000_FRAME
62
7
6
CONTINUOUS
10
5.0000000000
20
415.0000000000
11
5.0000000000
21
5.0000000000
0
LINE
8
91000_TIP
62
7
6
CONTINUOUS
10
422.7797810000
20
20.8043440000
11
432.7797810000
21
23.3043440000
0
LINE
8
90000_FRAME
62
7
6
CONTINUOUS
10
0.0000000000
20
0.0000000000
11
594.0000000000
21
0.0000000000
0
LINE
8
90000_FRAME
62
7
6
CONTINUOUS
10
5.0000000000
20
5.0000000000
11
589.0000000000
21
5.0000000000
0
LINE
8
90000_FRAME
62
7
6
CONTINUOUS
10
449.0000000000
20
10.0000000000
11
584.0000000000
21
10.0000000000
0
LINE
8
90000_FRAME
62
7
6
CONTINUOUS
10
499.0000000000
20
16.0000000000
11
584.0000000000
21
16.0000000000
0
LINE
8
90000_FRAME
62
7
6
CONTINUOUS
10
472.3969330000
20
16.7492120000
11
473.2525220000
21
16.7492120000
0
LINE
8
90000_FRAME
62
7
6
CONTINUOUS
10
485.5872550000
20
16.7967450000
11
484.0662090000
21
16.7967450000
0
LINE
8
90000_FRAME
62
7
6
CONTINUOUS
10
475.9618850000
20
16.7967450000
11
474.5834370000
21
16.7967450000
0
LINE
8
90000_FRAME
62
7
6
CONTINUOUS
10
463.2231240000
20
16.7967450000
11
464.6491050000
21
16.7967450000
0
LINE
8
90000_FRAME
62
7
6
CONTINUOUS
10
465.7423570000
20
16.7967450000
11
469.3073090000
21
16.7967450000
0
LINE
8
90000_FRAME
62
7
6
CONTINUOUS
10
470.1153640000
20
16.7967450000
11
471.0660180000
21
16.7967450000
0
LINE
8
90000_FRAME
62
7
6
CONTINUOUS
10
477.0551370000
20
16.7967450000
11
480.6200890000
21
16.7967450000
0
LINE
8
90000_FRAME
62
7
6
CONTINUOUS
10
481.4043780000
20
16.7967450000
11
482.3550320000
21
16.7967450000
0
LINE
8
90000_FRAME
62
7
6
CONTINUOUS
10
480.6200890000
20
17.6998660000
11
478.4335850000
21
17.6998660000
0
LINE
8
90000_FRAME
62
7
6
CONTINUOUS
10
469.3073090000
20
17.6998660000
11
467.1208050000
21
17.6998660000
0
LINE
8
91000_TIP
62
7
6
CENTER
10
421.5002710000
20
18.3043440000
11
445.1022600000
21
18.3043440000
0
LINE
8
90000_FRAME
62
7
6
CONTINUOUS
10
480.2873600000
20
18.8168840000
11
478.4335850000
21
18.8168840000
0
LINE
8
90000_FRAME
62
7
6
CONTINUOUS
10
468.9745800000
20
18.8168840000
11
467.1208050000
21
18.8168840000
0
LINE
8
90000_FRAME
62
7
6
CONTINUOUS
10
480.2873600000
20
19.6011730000
11
478.4335850000
21
19.6011730000
0
LINE
8
90000_FRAME
62
7
6
CONTINUOUS
10
468.9745800000
20
19.6011730000
11
467.1208050000
21
19.6011730000
0
LINE
8
90000_FRAME
62
7
6
CONTINUOUS
10
480.5725560000
20
20.6706590000
11
478.4335850000
21
20.6706590000
0
LINE
8
90000_FRAME
62
7
6
CONTINUOUS
10
469.2597760000
20
20.6706590000
11
467.1208050000
21
20.6706590000
0
LINE
8
90000_FRAME
62
7
6
CONTINUOUS
10
485.5872550000
20
21.5500140000
11
484.6366010000
21
21.5500140000
0
LINE
8
90000_FRAME
62
7
6
CONTINUOUS
10
482.9491910000
20
21.5500140000
11
481.4043780000
21
21.5500140000
0
LINE
8
90000_FRAME
62
7
6
CONTINUOUS
10
480.5725560000
20
21.5500140000
11
477.0551370000
21
21.5500140000
0
LINE
8
90000_FRAME
62
7
6
CONTINUOUS
10
475.9618850000
20
21.5500140000
11
474.2507080000
21
21.5500140000
0
LINE
8
90000_FRAME
62
7
6
CONTINUOUS
10
471.8265410000
20
21.5500140000
11
470.1153640000
21
21.5500140000
0
LINE
8
90000_FRAME
62
7
6
CONTINUOUS
10
469.2597760000
20
21.5500140000
11
465.7423570000
21
21.5500140000
0
LINE
8
90000_FRAME
62
7
6
CONTINUOUS
10
463.2231240000
20
21.5500140000
11
464.6491050000
21
21.5500140000
0
LINE
8
20000_FRONT_O
62
7
6
CONTINUOUS
10
164.9776147484
20
331.5560678647
11
164.9383007484
21
331.4556868647
0
LINE
8
20000_FRONT_O
62
7
6
CONTINUOUS
10
165.9685187484
20
332.7856438647
11
165.9433987484
21
332.7252308647
0
LINE
8
20000_FRONT_O
62
7
6
CONTINUOUS
10
168.7020607484
20
326.6501178647
11
168.7384687484
21
326.7354808647
0
LINE
8
20000_FRONT_O
62
7
6
CONTINUOUS
10
165.0227797484
20
331.6584838647
11
164.9776147484
21
331.5560678647
0
LINE
8
20000_FRONT_O
62
7
6
CONTINUOUS
10
165.1254987484
20
331.8560978647
11
165.0227797484
21
331.6584838647
0
LINE
8
20000_FRONT_O
62
7
6
CONTINUOUS
10
169.4961257484
20
327.5031178647
11
169.7036827484
21
327.9007678647
0
LINE
8
20000_FRONT_O
62
7
6
CONTINUOUS
10
168.1882597484
20
329.4103658647
11
168.2280097484
21
329.4801778647
0
LINE
8
20000_FRONT_O
62
7
6
CONTINUOUS
10
165.2427997484
20
332.0416008647
11
165.1254987484
21
331.8560978647
0
LINE
8
20000_FRONT_O
62
7
6
CONTINUOUS
10
166.2457427484
20
333.2052408647
11
165.9685187484
21
332.7856438647
0
LINE
8
20000_FRONT_O
62
7
6
CONTINUOUS
10
168.4212397484
20
326.2397748647
11
168.7020607484
21
326.6501178647
0
LINE
8
20000_FRONT_O
62
7
6
CONTINUOUS
10
168.1395827484
20
329.3394878647
11
168.1882597484
21
329.4103658647
0
LINE
8
20000_FRONT_O
62
7
6
CONTINUOUS
10
165.3732547484
20
332.2141188647
11
165.2427997484
21
332.0416008647
0
LINE
8
20000_FRONT_O
62
7
6
CONTINUOUS
10
169.2318007484
20
327.1566278647
11
169.4961257484
21
327.5031178647
0
LINE
8
20000_FRONT_O
62
7
6
CONTINUOUS
10
168.0856257484
20
329.2740368647
11
168.1395827484
21
329.3394878647
0
LINE
8
20000_FRONT_O
62
7
6
CONTINUOUS
10
165.4434537484
20
332.2957998647
11
165.3732547484
21
332.2141188647
0
LINE
8
20000_FRONT_O
62
7
6
CONTINUOUS
10
165.5589147484
20
332.4164318647
11
165.4434537484
21
332.2957998647
0
LINE
8
20000_FRONT_O
62
7
6
CONTINUOUS
10
168.0264717484
20
329.2139628647
11
168.0856257484
21
329.2740368647
0
LINE
8
20000_FRONT_O
62
7
6
CONTINUOUS
10
165.8094807484
20
332.6314868647
11
165.5589147484
21
332.4164318647
0
LINE
8
20000_FRONT_O
62
7
6
CONTINUOUS
10
168.7384687484
20
326.7354808647
11
169.2318007484
21
327.1566278647
0
LINE
8
20000_FRONT_O
62
7
6
CONTINUOUS
10
167.9631527484
20
329.1599938647
11
168.0264717484
21
329.2139628647
0
LINE
8
20000_FRONT_O
62
7
6
CONTINUOUS
10
166.6414427484
20
333.5072088647
11
166.2457427484
21
333.2052408647
0
LINE
8
20000_FRONT_O
62
7
6
CONTINUOUS
10
168.0339567484
20
325.9500638647
11
168.4212397484
21
326.2397748647
0
LINE
8
20000_FRONT_O
62
7
6
CONTINUOUS
10
167.8935947484
20
329.1103358647
11
167.9631527484
21
329.1599938647
0
LINE
8
20000_FRONT_O
62
7
6
CONTINUOUS
10
165.9433987484
20
332.7252308647
11
165.8094807484
21
332.6314868647
0
LINE
8
20000_FRONT_O
62
7
6
CONTINUOUS
10
167.8210097484
20
329.0672668647
11
167.8935947484
21
329.1103358647
0
LINE
8
90000_FRAME
62
7
6
CONTINUOUS
10
449.0000000000
20
28.0000000000
11
584.0000000000
21
28.0000000000
0
LINE
8
13000_TOP
62
7
6
CONTINUOUS
10
270.5101667484
20
28.5311678647
11
305.3101737484
21
28.5311678647
0
LINE
8
13000_TOP
62
7
6
CONTINUOUS
10
275.4101577484
20
35.9665908647
11
300.4101577484
21
35.9665908647
0
LINE
8
13000_TOP
62
7
6
CONTINUOUS
10
300.3101637484
20
35.9890458647
11
275.5101757484
21
35.9890458647
0
LINE
8
13000_TOP
62
7
6
CONTINUOUS
10
300.3101637484
20
37.2686678647
11
275.5101757484
21
37.2686678647
0
LINE
8
13000_TOP
62
7
6
CONTINUOUS
10
305.3101737484
20
37.2814578647
11
300.4101577484
21
37.2814578647
0
LINE
8
13000_TOP
62
7
6
CONTINUOUS
10
275.4101577484
20
37.2814578647
11
270.5101667484
21
37.2814578647
0
LINE
8
13000_TOP
62
7
6
CONTINUOUS
10
275.4101577484
20
38.7183848647
11
275.5101757484
21
38.7183848647
0
LINE
8
13000_TOP
62
7
6
CONTINUOUS
10
300.3101637484
20
38.7183848647
11
300.4101577484
21
38.7183848647
0
LINE
8
13000_TOP
62
7
6
CONTINUOUS
10
305.3101737484
20
39.7033298647
11
300.4101577484
21
39.7033298647
0
LINE
8
13000_TOP
62
7
6
CONTINUOUS
10
275.4101577484
20
39.7033298647
11
270.5101667484
21
39.7033298647
0
LINE
8
13000_TOP
62
7
6
CONTINUOUS
10
275.5101757484
20
43.1403538647
11
270.5101667484
21
43.1403538647
0
LINE
8
13000_TOP
62
7
6
CONTINUOUS
10
300.3101637484
20
43.1403538647
11
305.3101737484
21
43.1403538647
0
LINE
8
13000_TOP
62
7
6
CONTINUOUS
10
275.5101757484
20
46.9138878647
11
270.5101667484
21
46.9138878647
0
LINE
8
13000_TOP
62
7
6
CONTINUOUS
10
300.3101637484
20
46.9138878647
11
305.3101737484
21
46.9138878647
0
LINE
8
20000_FRONT_O
62
7
6
CONTINUOUS
10
154.6009347484
20
349.3991648647
11
154.6009347484
21
217.0303568647
0
LINE
8
20000_FRONT_O
62
7
6
CONTINUOUS
10
154.6009347484
20
349.4096778647
11
154.6009347484
21
364.0303448647
0
LINE
8
20000_FRONT_O
62
7
6
CONTINUOUS
10
164.8228277484
20
331.0351698647
11
164.7919677484
21
330.8139618647
0
LINE
8
20000_FRONT_O
62
7
6
CONTINUOUS
10
164.8720737484
20
331.2494978647
11
164.8228277484
21
331.0351698647
0
LINE
8
20000_FRONT_O
62
7
6
CONTINUOUS
10
168.3066637484
20
329.6853978647
11
168.5623647484
21
330.6692518647
0
LINE
8
20000_FRONT_O
62
7
6
CONTINUOUS
10
169.7036827484
20
327.9007678647
11
169.8369837484
21
328.3167798647
0
LINE
8
20000_FRONT_O
62
7
6
CONTINUOUS
10
164.9383007484
20
331.4556868647
11
164.8720737484
21
331.2494978647
0
LINE
8
20000_FRONT_O
62
7
6
CONTINUOUS
10
168.2280097484
20
329.4801778647
11
168.3059727484
21
329.6855908647
0
LINE
8
20000_FRONT_O
62
7
6
CONTINUOUS
10
167.6683297484
20
329.0002648647
11
167.8210097484
21
329.0672668647
0
LINE
8
20000_FRONT_O
62
7
6
CONTINUOUS
10
167.5780137484
20
325.7992008647
11
168.0339567484
21
325.9500638647
0
LINE
8
20000_FRONT_O
62
7
6
CONTINUOUS
10
167.1127437484
20
333.6628678647
11
166.6414427484
21
333.5072088647
0
LINE
8
20000_FRONT_O
62
7
6
CONTINUOUS
10
167.5858497484
20
328.9755088647
11
167.6683297484
21
329.0002648647
0
LINE
8
13000_TOP
62
7
6
CONTINUOUS
10
275.5101757484
20
50.3183798647
11
270.5101667484
21
50.3183798647
0
LINE
8
13000_TOP
62
7
6
CONTINUOUS
10
300.3101637484
20
50.3183798647
11
305.3101737484
21
50.3183798647
0
LINE
8
91000_TIP
62
7
6
CONTINUOUS
10
422.7797810000
20
15.8043440000
11
432.7797810000
21
13.3043440000
0
LINE
8
20000_FRONT_O
62
7
6
CONTINUOUS
10
169.9009337484
20
330.5803528647
11
169.8955077484
21
330.7440048647
0
LINE
8
20000_FRONT_O
62
7
6
CONTINUOUS
10
156.2518277484
20
233.5702388647
11
156.2518277484
21
349.3482468647
0
LINE
8
20000_FRONT_O
62
7
6
CONTINUOUS
10
156.2518277484
20
349.3580818647
11
156.2518277484
21
349.3991648647
0
LINE
8
20000_FRONT_O
62
7
6
CONTINUOUS
10
157.7009277484
20
314.4802698647
11
157.7009277484
21
344.9803938647
0
LINE
8
20000_FRONT_O
62
7
6
CONTINUOUS
10
158.9409317484
20
228.2303518647
11
158.9409317484
21
226.4303158647
0
LINE
8
20000_FRONT_O
62
7
6
CONTINUOUS
10
159.6009327484
20
364.0303448647
11
159.6009327484
21
349.3991648647
0
LINE
8
20000_FRONT_O
62
7
6
CONTINUOUS
10
160.8109367484
20
280.6738548647
11
160.8109367484
21
232.0303128647
0
LINE
8
20000_FRONT_O
62
7
6
CONTINUOUS
10
160.9409307484
20
264.6303578647
11
160.9409307484
21
223.6303418647
0
LINE
8
20000_FRONT_O
62
7
6
CONTINUOUS
10
162.9009247484
20
216.0330828647
11
162.9009247484
21
223.6305838647
0
LINE
8
20000_FRONT_O
62
7
6
CONTINUOUS
10
163.2409357484
20
264.6303578647
11
163.2409357484
21
266.1303148647
0
LINE
8
20000_FRONT_O
62
7
6
CONTINUOUS
10
164.0709357484
20
316.7304708647
11
164.0709357484
21
342.7301918647
0
LINE
8
20000_FRONT_O
62
7
6
CONTINUOUS
10
164.7809337484
20
330.5803528647
11
164.7809337484
21
328.8803108647
0
LINE
8
20000_FRONT_O
62
7
6
CONTINUOUS
10
167.0009287484
20
361.0658458647
11
167.0009287484
21
359.0290518647
0
LINE
8
20000_FRONT_O
62
7
6
CONTINUOUS
10
167.4409337484
20
255.4921078647
11
167.4409337484
21
248.4803258647
0
LINE
8
20000_FRONT_O
62
7
6
CONTINUOUS
10
167.8409337484
20
223.6303418647
11
167.8409337484
21
217.1303508647
0
LINE
8
20000_FRONT_O
62
7
6
CONTINUOUS
10
169.0009277484
20
359.0290518647
11
169.0009277484
21
361.0658458647
0
LINE
8
20000_FRONT_O
62
7
6
CONTINUOUS
10
169.9009337484
20
328.8803108647
11
169.9009337484
21
330.5803528647
0
LINE
8
20000_FRONT_O
62
7
6
CONTINUOUS
10
170.6409317484
20
264.6303578647
11
170.6409317484
21
266.1303148647
0
LINE
8
20000_FRONT_O
62
7
6
CONTINUOUS
10
170.7909347484
20
316.7304708647
11
170.7909347484
21
342.7301918647
0
LINE
8
20000_FRONT_O
62
7
6
CONTINUOUS
10
171.0009267484
20
361.0658458647
11
171.0009267484
21
359.0290518647
0
LINE
8
20000_FRONT_O
62
7
6
CONTINUOUS
10
171.2509357484
20
216.0330828647
11
171.2509357484
21
216.0303208647
0
LINE
8
20000_FRONT_O
62
7
6
CONTINUOUS
10
172.7509297484
20
216.0330828647
11
172.7509297484
21
216.0303208647
0
LINE
8
20000_FRONT_O
62
7
6
CONTINUOUS
10
173.0009257484
20
359.0290518647
11
173.0009257484
21
361.0658458647
0
LINE
8
20000_FRONT_O
62
7
6
CONTINUOUS
10
173.0326347484
20
300.5448318647
11
173.0326347484
21
310.5058028647
0
LINE
8
20000_FRONT_O
62
7
6
CONTINUOUS
10
174.3409367484
20
217.1303508647
11
174.3409367484
21
241.7916838647
0
LINE
8
20000_FRONT_O
62
7
6
CONTINUOUS
10
174.3409367484
20
258.9803148647
11
174.3409367484
21
260.5303168647
0
LINE
8
20000_FRONT_O
62
7
6
CONTINUOUS
10
174.3418087484
20
260.6303108647
11
174.3418087484
21
258.9805088647
0
LINE
8
20000_FRONT_O
62
7
6
CONTINUOUS
10
174.3418087484
20
223.6303418647
11
174.3418087484
21
241.7911998647
0
LINE
8
20000_FRONT_O
62
7
6
CONTINUOUS
10
175.0009247484
20
361.0658458647
11
175.0009247484
21
359.0290518647
0
LINE
8
20000_FRONT_O
62
7
6
CONTINUOUS
10
175.2409297484
20
260.5303168647
11
175.2409297484
21
260.6303108647
0
LINE
8
20000_FRONT_O
62
7
6
CONTINUOUS
10
156.5431737484
20
219.3530348647
11
156.5423257484
21
217.0303568647
0
LINE
8
20000_FRONT_O
62
7
6
CONTINUOUS
10
156.5458867484
20
225.2283548647
11
156.5449537484
21
223.4582108647
0
LINE
8
20000_FRONT_O
62
7
6
CONTINUOUS
10
156.5449537484
20
223.4582108647
11
156.5440457484
21
221.4978168647
0
LINE
8
20000_FRONT_O
62
7
6
CONTINUOUS
10
156.5440457484
20
221.4978168647
11
156.5431737484
21
219.3530348647
0
LINE
8
20000_FRONT_O
62
7
6
CONTINUOUS
10
156.5478247484
20
228.1773018647
11
156.5468437484
21
226.8029678647
0
LINE
8
20000_FRONT_O
62
7
6
CONTINUOUS
10
156.5468437484
20
226.8029678647
11
156.5458867484
21
225.2283548647
0
LINE
8
20000_FRONT_O
62
7
6
CONTINUOUS
10
156.5488297484
20
229.3472408647
11
156.5478247484
21
228.1773018647
0
LINE
8
20000_FRONT_O
62
7
6
CONTINUOUS
10
156.5498347484
20
230.3092938647
11
156.5488297484
21
229.3472408647
0
LINE
8
20000_FRONT_O
62
7
6
CONTINUOUS
10
156.5508647484
20
231.0605568647
11
156.5498347484
21
230.3092938647
0
LINE
8
20000_FRONT_O
62
7
6
CONTINUOUS
10
156.5519057484
20
231.5987988647
11
156.5508647484
21
231.0605568647
0
LINE
8
20000_FRONT_O
62
7
6
CONTINUOUS
10
156.5529477484
20
231.9223738647
11
156.5519057484
21
231.5987988647
0
LINE
8
20000_FRONT_O
62
7
6
CONTINUOUS
10
156.5539897484
20
232.0303128647
11
156.5529477484
21
231.9223738647
0
LINE
8
20000_FRONT_O
62
7
6
CONTINUOUS
10
169.8982207484
20
328.7639418647
11
169.9009337484
21
328.8803108647
0
LINE
8
20000_FRONT_O
62
7
6
CONTINUOUS
10
164.7839257484
20
330.7020018647
11
164.7809337484
21
330.5803528647
0
LINE
8
20000_FRONT_O
62
7
6
CONTINUOUS
10
168.6242797484
20
331.0436478647
11
168.6250307484
21
331.0675318647
0
LINE
8
20000_FRONT_O
62
7
6
CONTINUOUS
10
164.7919677484
20
330.8139618647
11
164.7839257484
21
330.7020018647
0
LINE
8
20000_FRONT_O
62
7
6
CONTINUOUS
10
167.4409337484
20
255.4804798647
11
167.5286827484
21
256.2593088647
0
LINE
8
20000_FRONT_O
62
7
6
CONTINUOUS
10
169.8369837484
20
328.3167798647
11
169.8982207484
21
328.7639418647
0
LINE
8
20000_FRONT_O
62
7
6
CONTINUOUS
10
167.4409337484
20
255.4921078647
11
167.5937467484
21
256.5062408647
0
LINE
8
20000_FRONT_O
62
7
6
CONTINUOUS
10
182.9260837484
20
262.3773948647
11
182.8579067484
21
262.0611348647
0
LINE
8
20000_FRONT_O
62
7
6
CONTINUOUS
10
167.5286827484
20
256.2593088647
11
167.7875457484
21
256.9990888647
0
LINE
8
20000_FRONT_O
62
7
6
CONTINUOUS
10
182.8579067484
20
262.0611348647
11
182.7368267484
21
261.7518508647
0
LINE
8
20000_FRONT_O
62
7
6
CONTINUOUS
10
181.8358037484
20
262.0829838647
11
181.9649987484
21
262.4021988647
0
LINE
8
20000_FRONT_O
62
7
6
CONTINUOUS
10
167.5937467484
20
256.5062408647
11
168.0281677484
21
257.4290048647
0
LINE
8
20000_FRONT_O
62
7
6
CONTINUOUS
10
180.1200167484
20
263.2849938647
11
179.9172557484
21
262.8639928647
0
LINE
8
20000_FRONT_O
62
7
6
CONTINUOUS
10
182.7368267484
20
261.7518508647
11
182.5640167484
21
261.4613168647
0
LINE
8
20000_FRONT_O
62
7
6
CONTINUOUS
10
167.7875457484
20
256.9990888647
11
168.2045257484
21
257.6627118647
0
LINE
8
20000_FRONT_O
62
7
6
CONTINUOUS
10
168.0281677484
20
257.4290048647
11
168.7085647484
21
258.1861778647
0
LINE
8
20000_FRONT_O
62
7
6
CONTINUOUS
10
168.2045257484
20
257.6627118647
11
168.7587187484
21
258.2168928647
0
LINE
8
20000_FRONT_O
62
7
6
CONTINUOUS
10
167.5403337484
20
247.6521308647
11
167.4409337484
21
248.4805198647
0
LINE
8
20000_FRONT_O
62
7
6
CONTINUOUS
10
187.5032267484
20
231.5987988647
11
187.4707547484
21
231.9223738647
0
LINE
8
20000_FRONT_O
62
7
6
CONTINUOUS
10
187.5355037484
20
231.0605568647
11
187.5032267484
21
231.5987988647
0
LINE
8
20000_FRONT_O
62
7
6
CONTINUOUS
10
187.5674907484
20
230.3092938647
11
187.5355037484
21
231.0605568647
0
LINE
8
20000_FRONT_O
62
7
6
CONTINUOUS
10
187.5990777484
20
229.3472408647
11
187.5674907484
21
230.3092938647
0
LINE
8
20000_FRONT_O
62
7
6
CONTINUOUS
10
187.6301927484
20
228.1773018647
11
187.5990777484
21
229.3472408647
0
LINE
8
20000_FRONT_O
62
7
6
CONTINUOUS
10
187.6607387484
20
226.8029678647
11
187.6301927484
21
228.1773018647
0
LINE
8
20000_FRONT_O
62
7
6
CONTINUOUS
10
187.6906057484
20
225.2283548647
11
187.6607387484
21
226.8029678647
0
LINE
8
20000_FRONT_O
62
7
6
CONTINUOUS
10
187.7197227484
20
223.4582108647
11
187.6906057484
21
225.2283548647
0
LINE
8
20000_FRONT_O
62
7
6
CONTINUOUS
10
187.7479907484
20
221.4978168647
11
187.7197227484
21
223.4582108647
0
LINE
8
20000_FRONT_O
62
7
6
CONTINUOUS
10
187.7753267484
20
219.3530348647
11
187.7479907484
21
221.4978168647
0
LINE
8
20000_FRONT_O
62
7
6
CONTINUOUS
10
187.8016577484
20
217.0303568647
11
187.7753267484
21
219.3530348647
0
LINE
8
20000_FRONT_O
62
7
6
CONTINUOUS
10
177.0009367484
20
359.0290518647
11
177.0009367484
21
361.0658458647
0
LINE
8
20000_FRONT_O
62
7
6
CONTINUOUS
10
177.4409287484
20
217.1303508647
11
177.4409287484
21
223.6303418647
0
LINE
8
20000_FRONT_O
62
7
6
CONTINUOUS
10
178.9409337484
20
260.6303598647
11
178.9409337484
21
260.5303168647
0
LINE
8
20000_FRONT_O
62
7
6
CONTINUOUS
10
179.9172557484
20
262.8639928647
11
179.9172557484
21
262.3966758647
0
LINE
8
20000_FRONT_O
62
7
6
CONTINUOUS
10
181.1009277484
20
216.0330828647
11
181.1009277484
21
217.1304958647
0
LINE
8
20000_FRONT_O
62
7
6
CONTINUOUS
10
182.9909287484
20
262.5803378647
11
182.9909287484
21
217.1303508647
0
LINE
8
20000_FRONT_O
62
7
6
CONTINUOUS
10
183.0325207484
20
310.5058028647
11
183.0325207484
21
300.5448318647
0
LINE
8
20000_FRONT_O
62
7
6
CONTINUOUS
10
183.2009337484
20
280.6738548647
11
183.2009337484
21
232.0303128647
0
LINE
8
20000_FRONT_O
62
7
6
CONTINUOUS
10
184.4009327484
20
349.3991648647
11
184.4009327484
21
364.0303448647
0
LINE
8
20000_FRONT_O
62
7
6
CONTINUOUS
10
186.3009257484
20
314.4802698647
11
186.3009257484
21
344.9803938647
0
LINE
8
20000_FRONT_O
62
7
6
CONTINUOUS
10
187.7500257484
20
233.5702388647
11
187.7500257484
21
349.3482468647
0
LINE
8
20000_FRONT_O
62
7
6
CONTINUOUS
10
187.7500257484
20
349.3580818647
11
187.7500257484
21
349.3991648647
0
LINE
8
20000_FRONT_O
62
7
6
CONTINUOUS
10
189.4009297484
20
349.3991648647
11
189.4009297484
21
217.0303568647
0
LINE
8
20000_FRONT_O
62
7
6
CONTINUOUS
10
189.4009297484
20
349.4096778647
11
189.4009297484
21
364.0303448647
0
LINE
8
20000_FRONT_O
62
7
6
CONTINUOUS
10
182.9402907484
20
262.7287298647
11
182.9260837484
21
262.3773948647
0
LINE
8
20000_FRONT_O
62
7
6
CONTINUOUS
10
181.9649987484
20
262.4021988647
11
181.9820397484
21
262.7636108647
0
LINE
8
20000_FRONT_O
62
7
6
CONTINUOUS
10
182.5640167484
20
261.4613168647
11
182.3373837484
21
261.1970398647
0
LINE
8
20000_FRONT_O
62
7
6
CONTINUOUS
10
181.5999407484
20
261.8133788647
11
181.8358037484
21
262.0829838647
0
LINE
8
10000_FRONT
62
7
6
CONTINUOUS
10
276.3142697484
20
358.5044708647
11
276.4733437484
21
358.6704498647
0
LINE
8
20000_FRONT_O
62
7
6
CONTINUOUS
10
182.3373837484
20
261.1970398647
11
182.0816217484
21
260.9875088647
0
LINE
8
20000_FRONT_O
62
7
6
CONTINUOUS
10
180.4853527484
20
263.5763518647
11
180.1200167484
21
263.2849938647
0
LINE
8
20000_FRONT_O
62
7
6
CONTINUOUS
10
168.7085647484
20
258.1861778647
11
169.3820457484
21
258.6218098647
0
LINE
8
20000_FRONT_O
62
7
6
CONTINUOUS
10
168.7587187484
20
258.2168928647
11
169.4223417484
21
258.6338728647
0
LINE
8
20000_FRONT_O
62
7
6
CONTINUOUS
10
182.0816217484
20
260.9875088647
11
181.7859877484
21
260.8189138647
0
LINE
8
20000_FRONT_O
62
7
6
CONTINUOUS
10
181.2902817484
20
261.6413928647
11
181.5999407484
21
261.8133788647
0
LINE
8
20000_FRONT_O
62
7
6
CONTINUOUS
10
167.8328797484
20
246.8711708647
11
167.5403337484
21
247.6523248647
0
LINE
8
20000_FRONT_O
62
7
6
CONTINUOUS
10
167.5403337484
20
247.6521308647
11
167.8328917484
21
246.8709768647
0
LINE
8
20000_FRONT_O
62
7
6
CONTINUOUS
10
182.8931757484
20
263.0660638647
11
182.9402907484
21
262.7287298647
0
LINE
8
20000_FRONT_O
62
7
6
CONTINUOUS
10
169.8955077484
20
330.7440048647
11
169.8519297484
21
331.0720858647
0
LINE
8
20000_FRONT_O
62
7
6
CONTINUOUS
10
164.7809337484
20
328.8803108647
11
164.8649037484
21
328.2354378647
0
LINE
8
11000_LEFT
62
7
6
CONTINUOUS
10
390.7928177484
20
347.8303168647
11
390.1230427484
21
347.5360998647
0
LINE
8
11000_LEFT
62
7
6
CONTINUOUS
10
388.7481027484
20
345.0303428647
11
381.5480817484
21
342.0303318647
0
LINE
8
20000_FRONT_O
62
7
6
CONTINUOUS
10
181.7859877484
20
260.8189138647
11
181.4757117484
21
260.7044348647
0
LINE
8
20000_FRONT_O
62
7
6
CONTINUOUS
10
169.3820457484
20
258.6218098647
11
170.1384067484
21
258.8959208647
0
LINE
8
20000_FRONT_O
62
7
6
CONTINUOUS
10
169.4223417484
20
258.6338728647
11
170.1621097484
21
258.8927718647
0
LINE
8
20000_FRONT_O
62
7
6
CONTINUOUS
10
168.3019637484
20
246.1813868647
11
167.8328797484
21
246.8711708647
0
LINE
8
20000_FRONT_O
62
7
6
CONTINUOUS
10
167.8328917484
20
246.8709768647
11
168.3019757484
21
246.1812418647
0
LINE
8
20000_FRONT_O
62
7
6
CONTINUOUS
10
179.9172557484
20
262.3966758647
11
180.1200167484
21
261.9756748647
0
LINE
8
20000_FRONT_O
62
7
6
CONTINUOUS
10
164.8649037484
20
328.2354378647
11
165.0106197484
21
327.8261598647
0
LINE
8
20000_FRONT_O
62
7
6
CONTINUOUS
10
182.7925277484
20
263.3843098647
11
182.8931757484
21
263.0660638647
0
LINE
8
20000_FRONT_O
62
7
6
CONTINUOUS
10
166.3675617484
20
329.6860268647
11
166.4032307484
21
329.5692708647
0
LINE
8
20000_FRONT_O
62
7
6
CONTINUOUS
10
181.9820397484
20
262.7636108647
11
181.8824937484
21
263.0920798647
0
LINE
8
20000_FRONT_O
62
7
6
CONTINUOUS
10
187.4707547484
20
231.9223738647
11
187.4381867484
21
232.0303128647
0
LINE
8
20000_FRONT_O
62
7
6
CONTINUOUS
10
169.8137057484
20
331.2351088647
11
169.7836927484
21
331.3380098647
0
LINE
8
20000_FRONT_O
62
7
6
CONTINUOUS
10
166.1111937484
20
330.6627118647
11
166.3651997484
21
329.6853978647
0
LINE
8
20000_FRONT_O
62
7
6
CONTINUOUS
10
169.8519297484
20
331.0720858647
11
169.8137057484
21
331.2351088647
0
LINE
8
11000_LEFT
62
7
6
CONTINUOUS
10
390.1230427484
20
347.5360998647
11
389.5019327484
21
347.1325878647
0
LINE
8
11000_LEFT
62
7
6
CONTINUOUS
10
498.7954297484
20
352.7235738647
11
498.3809687484
21
352.5765868647
0
LINE
8
11000_LEFT
62
7
6
CONTINUOUS
10
499.8889187484
20
364.0303448647
11
499.5786667484
21
363.9212918647
0
LINE
8
20000_FRONT_O
62
7
6
CONTINUOUS
10
168.9209427484
20
245.6222638647
11
168.3019637484
21
246.1813868647
0
LINE
8
20000_FRONT_O
62
7
6
CONTINUOUS
10
168.3019757484
20
246.1812418647
11
168.9209547484
21
245.6220708647
0
LINE
8
20000_FRONT_O
62
7
6
CONTINUOUS
10
182.4411447484
20
263.9543328647
11
182.6461587484
21
263.6747478647
0
LINE
8
20000_FRONT_O
62
7
6
CONTINUOUS
10
181.8824937484
20
263.0920798647
11
181.6725257484
21
263.3833408647
0
LINE
8
20000_FRONT_O
62
7
6
CONTINUOUS
10
182.6461587484
20
263.6747478647
11
182.7925277484
21
263.3843098647
0
LINE
8
20000_FRONT_O
62
7
6
CONTINUOUS
10
169.7106837484
20
331.5404678647
11
169.6198587484
21
331.7389058647
0
LINE
8
20000_FRONT_O
62
7
6
CONTINUOUS
10
166.4032307484
20
329.5692708647
11
166.4368527484
21
329.4939848647
0
LINE
8
20000_FRONT_O
62
7
6
CONTINUOUS
10
169.7836927484
20
331.3380098647
11
169.7106837484
21
331.5404678647
0
LINE
8
10000_FRONT
62
7
6
CONTINUOUS
10
276.2567637484
20
358.2790008647
11
276.3142697484
21
358.5044708647
0
LINE
8
13000_TOP
62
7
6
CONTINUOUS
10
295.3101787484
20
151.8183598647
11
280.5101617484
21
151.8183598647
0
LINE
8
13000_TOP
62
7
6
CONTINUOUS
10
303.3101747484
20
154.3184008647
11
301.3101757484
21
154.3184008647
0
LINE
8
13000_TOP
62
7
6
CONTINUOUS
10
295.3042197484
20
154.3184008647
11
280.5101857484
21
154.3184008647
0
LINE
8
13000_TOP
62
7
6
CONTINUOUS
10
278.5101627484
20
154.3184008647
11
276.5101637484
21
154.3184008647
0
LINE
8
13000_TOP
62
7
6
CONTINUOUS
10
274.5101647484
20
154.3184008647
11
272.5101657484
21
154.3184008647
0
LINE
8
13000_TOP
62
7
6
CONTINUOUS
10
297.3101777484
20
154.3184008647
11
299.3101767484
21
154.3184008647
0
LINE
8
13000_TOP
62
7
6
CONTINUOUS
10
295.3101057484
20
154.7183768647
11
280.5102347484
21
154.7183768647
0
LINE
8
13000_TOP
62
7
6
CONTINUOUS
10
273.1958557484
20
154.7183768647
11
272.5104317484
21
154.7183768647
0
LINE
8
13000_TOP
62
7
6
CONTINUOUS
10
305.3101737484
20
155.0183578647
11
303.3101747484
21
155.0183578647
0
LINE
8
13000_TOP
62
7
6
CONTINUOUS
10
301.3101757484
20
155.0183578647
11
299.3101767484
21
155.0183578647
0
LINE
8
13000_TOP
62
7
6
CONTINUOUS
10
297.3101777484
20
155.0183578647
11
295.3101787484
21
155.0183578647
0
LINE
8
13000_TOP
62
7
6
CONTINUOUS
10
280.5101617484
20
155.0183578647
11
278.5101627484
21
155.0183578647
0
LINE
8
13000_TOP
62
7
6
CONTINUOUS
10
276.5101637484
20
155.0183578647
11
274.5101647484
21
155.0183578647
0
LINE
8
13000_TOP
62
7
6
CONTINUOUS
10
272.5101657484
20
155.0183578647
11
270.5101667484
21
155.0183578647
0
LINE
8
13000_TOP
62
7
6
CONTINUOUS
10
305.3101737484
20
157.3183628647
11
303.3101747484
21
157.3183628647
0
LINE
8
13000_TOP
62
7
6
CONTINUOUS
10
301.3101757484
20
157.3183628647
11
299.3101767484
21
157.3183628647
0
LINE
8
13000_TOP
62
7
6
CONTINUOUS
10
297.3101777484
20
157.3183628647
11
295.3101787484
21
157.3183628647
0
LINE
8
13000_TOP
62
7
6
CONTINUOUS
10
280.5101617484
20
157.3183628647
11
278.5101627484
21
157.3183628647
0
LINE
8
13000_TOP
62
7
6
CONTINUOUS
10
276.5101637484
20
157.3183628647
11
274.5101647484
21
157.3183628647
0
LINE
8
13000_TOP
62
7
6
CONTINUOUS
10
272.5101657484
20
157.3183628647
11
270.5101667484
21
157.3183628647
0
LINE
8
13000_TOP
62
7
6
CONTINUOUS
10
273.1957587484
20
157.5183998647
11
278.5809187484
21
157.5183998647
0
LINE
8
13000_TOP
62
7
6
CONTINUOUS
10
296.2394097484
20
157.5183998647
11
303.6294627484
21
157.5183998647
0
LINE
8
20000_FRONT_O
62
7
6
CONTINUOUS
10
174.3418087484
20
241.7911998647
11
168.9209427484
21
245.6222638647
0
LINE
8
20000_FRONT_O
62
7
6
CONTINUOUS
10
168.9209547484
20
245.6220708647
11
174.3409367484
21
241.7916838647
0
LINE
8
20000_FRONT_O
62
7
6
CONTINUOUS
10
182.1981477484
20
264.1865858647
11
182.4411447484
21
263.9543328647
0
LINE
8
20000_FRONT_O
62
7
6
CONTINUOUS
10
166.4723037484
20
329.4289208647
11
166.5518527484
21
329.3143928647
0
LINE
8
20000_FRONT_O
62
7
6
CONTINUOUS
10
169.5111927484
20
331.9316748647
11
169.4505857484
21
332.0248378647
0
LINE
8
20000_FRONT_O
62
7
6
CONTINUOUS
10
165.9433987484
20
326.7354808647
11
166.2072037484
21
326.2982008647
0
LINE
8
20000_FRONT_O
62
7
6
CONTINUOUS
10
168.7384687484
20
332.7252308647
11
168.4780797484
21
333.1584898647
0
LINE
8
20000_FRONT_O
62
7
6
CONTINUOUS
10
169.6198587484
20
331.7389058647
11
169.5111927484
21
331.9316748647
0
LINE
8
20000_FRONT_O
62
7
6
CONTINUOUS
10
165.0106197484
20
327.8261598647
11
165.2292587484
21
327.4370848647
0
LINE
8
20000_FRONT_O
62
7
6
CONTINUOUS
10
166.4368527484
20
329.4939848647
11
166.4723037484
21
329.4289208647
0
LINE
8
13000_TOP
62
7
6
CONTINUOUS
10
270.5101667484
20
28.5311678647
11
270.5101667484
21
39.6974918647
0
LINE
8
13000_TOP
62
7
6
CONTINUOUS
10
270.5101667484
20
39.7042748647
11
270.5101667484
21
157.3183628647
0
LINE
8
10000_FRONT
62
7
6
CONTINUOUS
10
270.5101667484
20
217.0303568647
11
270.5101667484
21
364.0303448647
0
LINE
8
13000_TOP
62
7
6
CONTINUOUS
10
272.5101657484
20
154.3184008647
11
272.5101657484
21
157.3183628647
0
LINE
8
13000_TOP
62
7
6
CONTINUOUS
10
273.1957587484
20
154.3183038647
11
273.1957587484
21
157.5183998647
0
LINE
8
13000_TOP
62
7
6
CONTINUOUS
10
274.5101647484
20
154.3184008647
11
274.5101647484
21
157.3183628647
0
LINE
8
10000_FRONT
62
7
6
CONTINUOUS
10
275.4101577484
20
364.0303448647
11
275.4101577484
21
353.7494808647
0
LINE
8
13000_TOP
62
7
6
CONTINUOUS
10
275.4101577484
20
39.7029178647
11
275.4101577484
21
35.9665908647
0
LINE
8
10000_FRONT
62
7
6
CONTINUOUS
10
275.5101757484
20
364.0303448647
11
275.5101757484
21
353.7494808647
0
LINE
8
13000_TOP
62
7
6
CONTINUOUS
10
275.5101757484
20
50.3183798647
11
275.5101757484
21
35.9890458647
0
LINE
8
13000_TOP
62
7
6
CONTINUOUS
10
276.5101637484
20
154.3184008647
11
276.5101637484
21
157.3183628647
0
LINE
8
13000_TOP
62
7
6
CONTINUOUS
10
278.5101627484
20
154.3184008647
11
278.5101627484
21
157.3183628647
0
LINE
8
10000_FRONT
62
7
6
CONTINUOUS
10
278.8101687484
20
216.0330828647
11
278.8101687484
21
222.3570668647
0
LINE
8
10000_FRONT
62
7
6
CONTINUOUS
10
272.4525137484
20
219.6552448647
11
272.4515697484
21
217.0303568647
0
LINE
8
10000_FRONT
62
7
6
CONTINUOUS
10
272.4535317484
20
222.0494298647
11
272.4525137484
21
219.6552448647
0
LINE
8
10000_FRONT
62
7
6
CONTINUOUS
10
276.2415757484
20
357.8176918647
11
276.2567637484
21
358.2790008647
0
LINE
8
20000_FRONT_O
62
7
6
CONTINUOUS
10
181.9123247484
20
264.3776598647
11
182.1981477484
21
264.1865858647
0
LINE
8
20000_FRONT_O
62
7
6
CONTINUOUS
10
181.6725257484
20
263.3833408647
11
181.3831537484
21
263.5814388647
0
LINE
8
20000_FRONT_O
62
7
6
CONTINUOUS
10
180.1200167484
20
261.9756748647
11
180.4853527484
21
261.6843168647
0
LINE
8
20000_FRONT_O
62
7
6
CONTINUOUS
10
165.2292587484
20
327.4370848647
11
165.5033457484
21
327.0996058647
0
LINE
8
20000_FRONT_O
62
7
6
CONTINUOUS
10
169.3883677484
20
332.1122358647
11
169.2527777484
21
332.2796188647
0
LINE
8
20000_FRONT_O
62
7
6
CONTINUOUS
10
169.4505857484
20
332.0248378647
11
169.3883677484
21
332.1122358647
0
LINE
8
13000_TOP
62
7
6
CONTINUOUS
10
278.6577067484
20
157.3183628647
11
278.5809187484
21
157.5183998647
0
LINE
8
13000_TOP
62
7
6
CONTINUOUS
10
280.5101617484
20
151.8183598647
11
280.5101617484
21
157.3183628647
0
LINE
8
10000_FRONT
62
7
6
CONTINUOUS
10
282.9101607484
20
361.0658458647
11
282.9101607484
21
359.0290518647
0
LINE
8
10000_FRONT
62
7
6
CONTINUOUS
10
283.7501767484
20
222.8637218647
11
283.7501767484
21
217.1303508647
0
LINE
8
10000_FRONT
62
7
6
CONTINUOUS
10
284.9101597484
20
359.0290518647
11
284.9101597484
21
361.0658458647
0
LINE
8
10000_FRONT
62
7
6
CONTINUOUS
10
286.9101587484
20
361.0658458647
11
286.9101587484
21
359.0290518647
0
LINE
8
10000_FRONT
62
7
6
CONTINUOUS
10
287.1601677484
20
216.0330828647
11
287.1601677484
21
216.0303208647
0
LINE
8
10000_FRONT
62
7
6
CONTINUOUS
10
288.6601727484
20
216.0330828647
11
288.6601727484
21
216.0303208647
0
LINE
8
10000_FRONT
62
7
6
CONTINUOUS
10
288.9101577484
20
359.0290518647
11
288.9101577484
21
361.0658458647
0
LINE
8
10000_FRONT
62
7
6
CONTINUOUS
10
290.2501677484
20
223.6303418647
11
290.2501677484
21
217.1303508647
0
LINE
8
10000_FRONT
62
7
6
CONTINUOUS
10
290.9101807484
20
361.0658458647
11
290.9101807484
21
359.0290518647
0
LINE
8
10000_FRONT
62
7
6
CONTINUOUS
10
292.9101797484
20
359.0290518647
11
292.9101797484
21
361.0658458647
0
LINE
8
10000_FRONT
62
7
6
CONTINUOUS
10
293.3501727484
20
217.1303508647
11
293.3501727484
21
223.6303418647
0
LINE
8
13000_TOP
62
7
6
CONTINUOUS
10
295.3101787484
20
151.8183598647
11
295.3101787484
21
157.3183628647
0
LINE
8
10000_FRONT
62
7
6
CONTINUOUS
10
297.0101717484
20
216.0330828647
11
297.0101717484
21
217.1304958647
0
LINE
8
13000_TOP
62
7
6
CONTINUOUS
10
297.3101777484
20
154.3184008647
11
297.3101777484
21
157.3183628647
0
LINE
8
10000_FRONT
62
7
6
CONTINUOUS
10
298.9001727484
20
225.0303528647
11
298.9001727484
21
217.1303508647
0
LINE
8
13000_TOP
62
7
6
CONTINUOUS
10
299.3101767484
20
154.3184008647
11
299.3101767484
21
157.3183628647
0
LINE
8
11000_LEFT
62
7
6
CONTINUOUS
10
389.5019327484
20
347.1325878647
11
389.0407207484
21
346.5534568647
0
LINE
8
11000_LEFT
62
7
6
CONTINUOUS
10
387.3480917484
20
287.2260228647
11
394.2508917484
21
293.0095358647
0
LINE
8
11000_LEFT
62
7
6
CONTINUOUS
10
412.4990747484
20
222.8809198647
11
413.3290147484
21
223.0808108647
0
LINE
8
11000_LEFT
62
7
6
CONTINUOUS
10
421.2227917484
20
225.7127238647
11
425.2757417484
21
226.6617458647
0
LINE
8
11000_LEFT
62
7
6
CONTINUOUS
10
435.0019887484
20
227.9062428647
11
435.8319287484
21
228.0731908647
0
LINE
8
11000_LEFT
62
7
6
CONTINUOUS
10
425.2757417484
20
226.6617458647
11
430.1163857484
21
227.4594678647
0
LINE
8
11000_LEFT
62
7
6
CONTINUOUS
10
472.1400797484
20
224.8516328647
11
471.8180547484
21
224.8291058647
0
LINE
8
20000_FRONT_O
62
7
6
CONTINUOUS
10
181.6073167484
20
264.5146188647
11
181.9123247484
21
264.3776598647
0
LINE
8
20000_FRONT_O
62
7
6
CONTINUOUS
10
165.5033457484
20
327.0996058647
11
165.8418067484
21
326.8052918647
0
LINE
8
20000_FRONT_O
62
7
6
CONTINUOUS
10
169.2527777484
20
332.2796188647
11
169.1014427484
21
332.4372158647
0
LINE
8
20000_FRONT_O
62
7
6
CONTINUOUS
10
166.5518527484
20
329.3143928647
11
166.6360527484
21
329.2227798647
0
LINE
8
10000_FRONT
62
7
6
CONTINUOUS
10
276.3021097484
20
357.3608398647
11
276.2415757484
21
357.8176918647
0
LINE
8
10000_FRONT
62
7
6
CONTINUOUS
10
303.6314727484
20
223.2936368647
11
303.6033007484
21
225.0311278647
0
LINE
8
10000_FRONT
62
7
6
CONTINUOUS
10
303.6588447484
20
221.3772818647
11
303.6314727484
21
223.2936368647
0
LINE
8
10000_FRONT
62
7
6
CONTINUOUS
10
303.6853457484
20
219.2875348647
11
303.6588447484
21
221.3772818647
0
LINE
8
10000_FRONT
62
7
6
CONTINUOUS
10
303.7109007484
20
217.0303568647
11
303.6853457484
21
219.2875348647
0
LINE
8
13000_TOP
62
7
6
CONTINUOUS
10
300.3101637484
20
50.3183798647
11
300.3101637484
21
35.9890458647
0
LINE
8
10000_FRONT
62
7
6
CONTINUOUS
10
300.3101637484
20
353.7494808647
11
300.3101637484
21
364.0303448647
0
LINE
8
10000_FRONT
62
7
6
CONTINUOUS
10
300.4101577484
20
364.0303448647
11
300.4101577484
21
353.7494808647
0
LINE
8
13000_TOP
62
7
6
CONTINUOUS
10
300.4101577484
20
39.7017308647
11
300.4101577484
21
35.9665908647
0
LINE
8
13000_TOP
62
7
6
CONTINUOUS
10
301.3101757484
20
154.3184008647
11
301.3101757484
21
157.3183628647
0
LINE
8
13000_TOP
62
7
6
CONTINUOUS
10
303.3101747484
20
154.3184008647
11
303.3101747484
21
157.3183628647
0
LINE
8
13000_TOP
62
7
6
CONTINUOUS
10
303.6294627484
20
157.3183628647
11
303.6294627484
21
157.5183998647
0
LINE
8
13000_TOP
62
7
6
CONTINUOUS
10
305.3101737484
20
28.5311678647
11
305.3101737484
21
39.6974918647
0
LINE
8
13000_TOP
62
7
6
CONTINUOUS
10
305.3101737484
20
39.7042748647
11
305.3101737484
21
157.3183628647
0
LINE
8
10000_FRONT
62
7
6
CONTINUOUS
10
305.3101737484
20
217.0303568647
11
305.3101737484
21
364.0303448647
0
LINE
8
13000_TOP
62
7
6
CONTINUOUS
10
296.2394097484
20
157.5183998647
11
296.1626217484
21
157.3183628647
0
LINE
8
11000_LEFT
62
7
6
CONTINUOUS
10
499.1503007484
20
352.9882868647
11
498.7954297484
21
352.7235738647
0
LINE
8
11000_LEFT
62
7
6
CONTINUOUS
10
417.2354137484
20
224.5174968647
11
421.2227917484
21
225.7127238647
0
LINE
8
10000_FRONT
62
7
6
CONTINUOUS
10
295.5101417484
20
225.0303528647
11
289.4688927484
21
223.7450148647
0
LINE
8
10000_FRONT
62
7
6
CONTINUOUS
10
289.4688927484
20
223.7450148647
11
283.3410207484
21
222.8122228647
0
LINE
8
10000_FRONT
62
7
6
CONTINUOUS
10
283.3410207484
20
222.8122228647
11
277.1349317484
21
222.2382268647
0
LINE
8
11000_LEFT
62
7
6
CONTINUOUS
10
430.1163857484
20
227.4594678647
11
435.0019887484
21
227.9061948647
0
LINE
8
10000_FRONT
62
7
6
CONTINUOUS
10
277.1349317484
20
222.2382268647
11
274.0109457484
21
222.0883328647
0
LINE
8
10000_FRONT
62
7
6
CONTINUOUS
10
274.0109457484
20
222.0883328647
11
270.8116017484
21
222.0307778647
0
LINE
8
20000_FRONT_O
62
7
6
CONTINUOUS
10
171.2509357484
20
216.0303208647
11
172.7509297484
21
216.0303208647
0
LINE
8
10000_FRONT
62
7
6
CONTINUOUS
10
287.1601677484
20
216.0303208647
11
288.6601727484
21
216.0303208647
0
LINE
8
10000_FRONT
62
7
6
CONTINUOUS
10
297.0101717484
20
216.0330828647
11
288.6601727484
21
216.0330828647
0
LINE
8
20000_FRONT_O
62
7
6
CONTINUOUS
10
181.1009277484
20
216.0330828647
11
172.7509297484
21
216.0330828647
0
LINE
8
20000_FRONT_O
62
7
6
CONTINUOUS
10
162.9009247484
20
216.0330828647
11
171.2509357484
21
216.0330828647
0
LINE
8
10000_FRONT
62
7
6
CONTINUOUS
10
278.8101687484
20
216.0330828647
11
287.1601677484
21
216.0330828647
0
LINE
8
20000_FRONT_O
62
7
6
CONTINUOUS
10
162.9009247484
20
216.0439828647
11
181.1009277484
21
216.0439828647
0
LINE
8
10000_FRONT
62
7
6
CONTINUOUS
10
278.8101687484
20
216.0439828647
11
297.0101717484
21
216.0439828647
0
LINE
8
11000_LEFT
62
7
6
CONTINUOUS
10
394.7480997484
20
217.0303568647
11
391.2480957484
21
217.0303568647
0
LINE
8
10000_FRONT
62
7
6
CONTINUOUS
10
305.3101737484
20
217.0303568647
11
297.0096867484
21
217.0303568647
0
LINE
8
10000_FRONT
62
7
6
CONTINUOUS
10
278.8103867484
20
217.0303568647
11
270.5101667484
21
217.0303568647
0
LINE
8
20000_FRONT_O
62
7
6
CONTINUOUS
10
189.4009297484
20
217.0303568647
11
181.1004437484
21
217.0303568647
0
LINE
8
20000_FRONT_O
62
7
6
CONTINUOUS
10
162.9011547484
20
217.0303568647
11
154.6009347484
21
217.0303568647
0
LINE
8
20000_FRONT_O
62
7
6
CONTINUOUS
10
167.8409337484
20
217.1303508647
11
182.9909287484
21
217.1303508647
0
LINE
8
10000_FRONT
62
7
6
CONTINUOUS
10
283.7501767484
20
217.1303508647
11
298.9001727484
21
217.1303508647
0
LINE
8
11000_LEFT
62
7
6
CONTINUOUS
10
472.1400797484
20
217.1303508647
11
498.1400917484
21
217.1303508647
0
LINE
8
11000_LEFT
62
7
6
CONTINUOUS
10
476.2900687484
20
219.1303258647
11
482.4900777484
21
219.1303258647
0
LINE
8
11000_LEFT
62
7
6
CONTINUOUS
10
482.4900777484
20
221.7803578647
11
476.2900687484
21
221.7803578647
0
LINE
8
10000_FRONT
62
7
6
CONTINUOUS
10
270.8116017484
20
222.0307778647
11
270.5101667484
21
222.0307778647
0
LINE
8
11000_LEFT
62
7
6
CONTINUOUS
10
508.8353207484
20
222.0307778647
11
510.4853167484
21
222.0307778647
0
LINE
8
11000_LEFT
62
7
6
CONTINUOUS
10
499.5325937484
20
223.6303418647
11
472.1400797484
21
223.6303418647
0
LINE
8
20000_FRONT_O
62
7
6
CONTINUOUS
10
160.9409307484
20
223.6303418647
11
182.9909287484
21
223.6303418647
0
LINE
8
10000_FRONT
62
7
6
CONTINUOUS
10
288.8265627484
20
223.6303418647
11
298.9001727484
21
223.6303418647
0
LINE
8
20000_FRONT_O
62
7
6
CONTINUOUS
10
160.9409307484
20
223.7236008647
11
182.9909287484
21
223.7236008647
0
LINE
8
20000_FRONT_O
62
7
6
CONTINUOUS
10
160.9409307484
20
224.3825238647
11
182.9909287484
21
224.3825238647
0
LINE
8
10000_FRONT
62
7
6
CONTINUOUS
10
305.3101737484
20
225.0303528647
11
295.5101417484
21
225.0303528647
0
LINE
8
11000_LEFT
62
7
6
CONTINUOUS
10
421.4813027484
20
225.7803558647
11
424.7281007484
21
225.7803558647
0
LINE
8
11000_LEFT
62
7
6
CONTINUOUS
10
425.8280817484
20
225.7803558647
11
431.2980967484
21
225.7803558647
0
LINE
8
11000_LEFT
62
7
6
CONTINUOUS
10
432.3980777484
20
225.7803558647
11
437.8680927484
21
225.7803558647
0
LINE
8
11000_LEFT
62
7
6
CONTINUOUS
10
438.9680747484
20
225.7803558647
11
444.4380887484
21
225.7803558647
0
LINE
8
11000_LEFT
62
7
6
CONTINUOUS
10
445.5380707484
20
225.7803558647
11
451.0080857484
21
225.7803558647
0
LINE
8
11000_LEFT
62
7
6
CONTINUOUS
10
452.1081147484
20
225.7803558647
11
457.5780817484
21
225.7803558647
0
LINE
8
11000_LEFT
62
7
6
CONTINUOUS
10
458.6781117484
20
225.7803558647
11
464.1480777484
21
225.7803558647
0
LINE
8
11000_LEFT
62
7
6
CONTINUOUS
10
465.2481077484
20
225.7803558647
11
470.7180737484
21
225.7803558647
0
LINE
8
20000_FRONT_O
62
7
6
CONTINUOUS
10
158.9409317484
20
226.4303158647
11
160.9409307484
21
226.4303158647
0
LINE
8
20000_FRONT_O
62
7
6
CONTINUOUS
10
158.9409317484
20
228.2303518647
11
160.9409307484
21
228.2303518647
0
LINE
8
11000_LEFT
62
7
6
CONTINUOUS
10
490.5481127484
20
232.0303128647
11
438.7480777484
21
232.0303128647
0
LINE
8
20000_FRONT_O
62
7
6
CONTINUOUS
10
154.6009347484
20
232.0303128647
11
160.9409547484
21
232.0303128647
0
LINE
8
20000_FRONT_O
62
7
6
CONTINUOUS
10
182.9909167484
20
232.0303128647
11
189.4009297484
21
232.0303128647
0
LINE
8
11000_LEFT
62
7
6
CONTINUOUS
10
490.5479677484
20
232.9303548647
11
490.6851207484
21
232.9303548647
0
LINE
8
11000_LEFT
62
7
6
CONTINUOUS
10
411.6461237484
20
222.9202108647
11
412.4990747484
21
222.8809198647
0
LINE
8
11000_LEFT
62
7
6
CONTINUOUS
10
471.8180547484
20
219.5315608647
11
472.1400797484
21
219.5090328647
0
LINE
8
20000_FRONT_O
62
7
6
CONTINUOUS
10
181.3831537484
20
263.5814388647
11
181.0446457484
21
263.6749408647
0
LINE
8
20000_FRONT_O
62
7
6
CONTINUOUS
10
165.8418067484
20
326.8052918647
11
165.9433987484
21
326.7354808647
0
LINE
8
20000_FRONT_O
62
7
6
CONTINUOUS
10
166.6976897484
20
329.1687618647
11
166.7642307484
21
329.1196378647
0
LINE
8
20000_FRONT_O
62
7
6
CONTINUOUS
10
168.9346047484
20
332.5832828647
11
168.8460687484
21
332.6509628647
0
LINE
8
20000_FRONT_O
62
7
6
CONTINUOUS
10
166.2072037484
20
326.2982008647
11
166.6064397484
21
325.9724938647
0
LINE
8
20000_FRONT_O
62
7
6
CONTINUOUS
10
168.4780797484
20
333.1584898647
11
168.0878787484
21
333.4810958647
0
LINE
8
20000_FRONT_O
62
7
6
CONTINUOUS
10
169.1014427484
20
332.4372158647
11
168.9346047484
21
332.5832828647
0
LINE
8
20000_FRONT_O
62
7
6
CONTINUOUS
10
166.6360527484
20
329.2227798647
11
166.6976897484
21
329.1687618647
0
LINE
8
11000_LEFT
62
7
6
CONTINUOUS
10
389.0407207484
20
346.5534568647
11
388.8234617484
21
346.0125978647
0
LINE
8
11000_LEFT
62
7
6
CONTINUOUS
10
499.4670937484
20
353.2991688647
11
499.1503007484
21
352.9882868647
0
LINE
8
11000_LEFT
62
7
6
CONTINUOUS
10
413.3290387484
20
223.0808108647
11
417.2354137484
21
224.5174968647
0
LINE
8
20000_FRONT_O
62
7
6
CONTINUOUS
10
187.7500257484
20
233.5702388647
11
183.2009337484
21
233.5702388647
0
LINE
8
20000_FRONT_O
62
7
6
CONTINUOUS
10
160.8109367484
20
233.5702388647
11
156.2518277484
21
233.5702388647
0
LINE
8
20000_FRONT_O
62
7
6
CONTINUOUS
10
187.7500257484
20
233.8474988647
11
183.2009337484
21
233.8474988647
0
LINE
8
20000_FRONT_O
62
7
6
CONTINUOUS
10
160.8109367484
20
233.8474988647
11
156.2518277484
21
233.8474988647
0
LINE
8
20000_FRONT_O
62
7
6
CONTINUOUS
10
187.7500257484
20
234.7272898647
11
183.2009337484
21
234.7272898647
0
LINE
8
20000_FRONT_O
62
7
6
CONTINUOUS
10
160.8109367484
20
234.7272898647
11
156.2518277484
21
234.7272898647
0
LINE
8
20000_FRONT_O
62
7
6
CONTINUOUS
10
187.7500257484
20
235.7916148647
11
183.2009337484
21
235.7916148647
0
LINE
8
20000_FRONT_O
62
7
6
CONTINUOUS
10
160.8109367484
20
235.7916148647
11
156.2518277484
21
235.7916148647
0
LINE
8
11000_LEFT
62
7
6
CONTINUOUS
10
506.8246387484
20
236.6419498647
11
490.6853137484
21
236.6419498647
0
LINE
8
11000_LEFT
62
7
6
CONTINUOUS
10
497.6435137484
20
237.0302018647
11
490.5481127484
21
237.0302018647
0
LINE
8
20000_FRONT_O
62
7
6
CONTINUOUS
10
156.2518277484
20
237.0302018647
11
154.6009347484
21
237.0302018647
0
LINE
8
20000_FRONT_O
62
7
6
CONTINUOUS
10
187.7500257484
20
237.0302018647
11
189.4009297484
21
237.0302018647
0
LINE
8
11000_LEFT
62
7
6
CONTINUOUS
10
490.6853137484
20
234.7727328647
11
490.5481127484
21
234.7755908647
0
LINE
8
11000_LEFT
62
7
6
CONTINUOUS
10
490.6853137484
20
232.2790868647
11
502.0828257484
21
231.9806548647
0
LINE
8
11000_LEFT
62
7
6
CONTINUOUS
10
502.0828257484
20
231.9806548647
11
503.4794457484
21
231.8389968647
0
LINE
8
11000_LEFT
62
7
6
CONTINUOUS
10
406.6214547484
20
224.4692918647
11
409.8235597484
21
224.0477578647
0
LINE
8
11000_LEFT
62
7
6
CONTINUOUS
10
457.5780817484
20
218.4760048647
11
452.1081147484
21
219.1961158647
0
LINE
8
11000_LEFT
62
7
6
CONTINUOUS
10
464.1480777484
20
217.6110388647
11
458.6781117484
21
218.3311978647
0
LINE
8
11000_LEFT
62
7
6
CONTINUOUS
10
470.7180737484
20
216.7460718647
11
465.2481077484
21
217.4662318647
0
LINE
8
11000_LEFT
62
7
6
CONTINUOUS
10
425.8280817484
20
224.0219358647
11
431.2980967484
21
223.3018248647
0
LINE
8
11000_LEFT
62
7
6
CONTINUOUS
10
419.2580857484
20
224.8869028647
11
424.7281007484
21
224.1667908647
0
LINE
8
11000_LEFT
62
7
6
CONTINUOUS
10
438.9680747484
20
222.2920508647
11
444.4380887484
21
221.5718918647
0
LINE
8
11000_LEFT
62
7
6
CONTINUOUS
10
432.3980777484
20
223.1570178647
11
437.8680927484
21
222.4368578647
0
LINE
8
11000_LEFT
62
7
6
CONTINUOUS
10
445.5380707484
20
221.4270848647
11
451.0080857484
21
220.7069248647
0
LINE
8
11000_LEFT
62
7
6
CONTINUOUS
10
452.1081147484
20
225.6360818647
11
452.1433847484
21
225.6314308647
0
LINE
8
20000_FRONT_O
62
7
6
CONTINUOUS
10
180.4853527484
20
261.6843168647
11
180.9409327484
21
261.5803498647
0
LINE
8
20000_FRONT_O
62
7
6
CONTINUOUS
10
181.2741367484
20
264.6015808647
11
181.6073167484
21
264.5146188647
0
LINE
8
20000_FRONT_O
62
7
6
CONTINUOUS
10
166.7642307484
20
329.1196378647
11
166.8354957484
21
329.0756958647
0
LINE
8
20000_FRONT_O
62
7
6
CONTINUOUS
10
168.8460687484
20
332.6509628647
11
168.7384687484
21
332.7252308647
0
LINE
8
11000_LEFT
62
7
6
CONTINUOUS
10
435.8319287484
20
228.0731908647
11
436.5832877484
21
228.4628468647
0
LINE
8
11000_LEFT
62
7
6
CONTINUOUS
10
504.6400827484
20
225.3018968647
11
499.5325937484
21
223.6303418647
0
LINE
8
11000_LEFT
62
7
6
CONTINUOUS
10
506.6534767484
20
224.3825238647
11
504.6400827484
21
223.7236008647
0
LINE
8
11000_LEFT
62
7
6
CONTINUOUS
10
391.2480467484
20
292.4818068647
11
384.3481047484
21
291.2651658647
0
LINE
8
20000_FRONT_O
62
7
6
CONTINUOUS
10
170.1384067484
20
258.8959208647
11
170.9409377484
21
258.9911668647
0
LINE
8
20000_FRONT_O
62
7
6
CONTINUOUS
10
170.1621097484
20
258.8927718647
11
170.9409377484
21
258.9805088647
0
LINE
8
20000_FRONT_O
62
7
6
CONTINUOUS
10
181.1418297484
20
260.6408728647
11
181.0416417484
21
260.6330728647
0
LINE
8
20000_FRONT_O
62
7
6
CONTINUOUS
10
181.0416417484
20
260.6330728647
11
180.9409327484
21
260.6304078647
0
LINE
8
20000_FRONT_O
62
7
6
CONTINUOUS
10
183.2009577484
20
255.9803528647
11
182.9909287484
21
255.9803528647
0
LINE
8
20000_FRONT_O
62
7
6
CONTINUOUS
10
183.2009577484
20
257.7803398647
11
182.9909287484
21
257.7803398647
0
LINE
8
20000_FRONT_O
62
7
6
CONTINUOUS
10
170.9409377484
20
258.9803148647
11
174.3409367484
21
258.9803148647
0
LINE
8
20000_FRONT_O
62
7
6
CONTINUOUS
10
170.9409377484
20
258.9805088647
11
174.3418087484
21
258.9805088647
0
LINE
8
20000_FRONT_O
62
7
6
CONTINUOUS
10
160.8108997484
20
259.9803508647
11
160.9409307484
21
259.9803508647
0
LINE
8
20000_FRONT_O
62
7
6
CONTINUOUS
10
182.9909287484
20
260.5303168647
11
174.3409367484
21
260.5303168647
0
LINE
8
20000_FRONT_O
62
7
6
CONTINUOUS
10
174.3418087484
20
260.6303108647
11
180.9409327484
21
260.6303108647
0
LINE
8
20000_FRONT_O
62
7
6
CONTINUOUS
10
160.8108997484
20
261.7803378647
11
160.9409307484
21
261.7803378647
0
LINE
8
20000_FRONT_O
62
7
6
CONTINUOUS
10
182.9421187484
20
262.5803378647
11
182.9909287484
21
262.5803378647
0
LINE
8
20000_FRONT_O
62
7
6
CONTINUOUS
10
181.0260417484
20
264.6303578647
11
180.9559877484
21
264.6303578647
0
LINE
8
20000_FRONT_O
62
7
6
CONTINUOUS
10
160.9409307484
20
264.6303578647
11
180.9409327484
21
264.6303578647
0
LINE
8
20000_FRONT_O
62
7
6
CONTINUOUS
10
160.8109367484
20
264.7303518647
11
163.2410447484
21
264.7303518647
0
LINE
8
20000_FRONT_O
62
7
6
CONTINUOUS
10
170.6408717484
20
264.7303518647
11
183.2009337484
21
264.7303518647
0
LINE
8
20000_FRONT_O
62
7
6
CONTINUOUS
10
170.6409317484
20
266.1303148647
11
163.2409357484
21
266.1303148647
0
LINE
8
11000_LEFT
62
7
6
CONTINUOUS
10
391.2480957484
20
254.2701378647
11
387.3480917484
21
254.3041468647
0
LINE
8
11000_LEFT
62
7
6
CONTINUOUS
10
384.3481047484
20
254.3303568647
11
387.3480917484
21
254.3041468647
0
LINE
8
20000_FRONT_O
62
7
6
CONTINUOUS
10
181.0446457484
20
263.6749408647
11
180.9409327484
21
263.6802698647
0
LINE
8
20000_FRONT_O
62
7
6
CONTINUOUS
10
180.9409327484
20
264.6302608647
11
181.2741367484
21
264.6015808647
0
LINE
8
11000_LEFT
62
7
6
CONTINUOUS
10
498.0734777484
20
239.1927148647
11
506.9114547484
21
237.6343318647
0
LINE
8
11000_LEFT
62
7
6
CONTINUOUS
10
410.8383237484
20
223.1920448647
11
411.6461237484
21
222.9202108647
0
LINE
8
20000_FRONT_O
62
7
6
CONTINUOUS
10
166.9113267484
20
329.0371808647
11
166.9879207484
21
329.0057878647
0
LINE
8
20000_FRONT_O
62
7
6
CONTINUOUS
10
166.8354957484
20
329.0756958647
11
166.9113267484
21
329.0371808647
0
LINE
8
11000_LEFT
62
7
6
CONTINUOUS
10
381.5480817484
20
342.0303318647
11
381.5480817484
21
337.5144248647
0
LINE
8
11000_LEFT
62
7
6
CONTINUOUS
10
381.7480937484
20
357.1303308647
11
381.7480937484
21
361.7303398647
0
LINE
8
11000_LEFT
62
7
6
CONTINUOUS
10
388.8234617484
20
346.0125978647
11
388.7481027484
21
345.4345328647
0
LINE
8
11000_LEFT
62
7
6
CONTINUOUS
10
499.5786667484
20
363.9212918647
11
499.3954897484
21
363.6441768647
0
LINE
8
11000_LEFT
62
7
6
CONTINUOUS
10
500.5430457484
20
360.2026238647
11
500.4488657484
21
360.0784058647
0
LINE
8
11000_LEFT
62
7
6
CONTINUOUS
10
499.8819427484
20
353.8165788647
11
499.4670937484
21
353.2991688647
0
LINE
8
11000_LEFT
62
7
6
CONTINUOUS
10
436.5832877484
20
228.4628468647
11
437.1947327484
21
229.0457088647
0
LINE
8
20000_FRONT_O
62
7
6
CONTINUOUS
10
180.9409327484
20
263.6803188647
11
180.4853527484
21
263.5763518647
0
LINE
8
20000_FRONT_O
62
7
6
CONTINUOUS
10
181.4757117484
20
260.7044348647
11
181.1418297484
21
260.6408728647
0
LINE
8
20000_FRONT_O
62
7
6
CONTINUOUS
10
180.9409327484
20
261.5803988647
11
181.2902817484
21
261.6413928647
0
LINE
8
20000_FRONT_O
62
7
6
CONTINUOUS
10
160.8109367484
20
280.6738548647
11
183.2009337484
21
280.6738548647
0
LINE
8
11000_LEFT
62
7
6
CONTINUOUS
10
503.4794457484
20
231.8389968647
11
504.8884687484
21
231.4651828647
0
LINE
8
20000_FRONT_O
62
7
6
CONTINUOUS
10
166.9879207484
20
329.0057878647
11
167.0673977484
21
328.9804498647
0
LINE
8
20000_FRONT_O
62
7
6
CONTINUOUS
10
166.6064397484
20
325.9724938647
11
167.0864977484
21
325.8020588647
0
LINE
8
20000_FRONT_O
62
7
6
CONTINUOUS
10
168.0878787484
20
333.4810958647
11
167.6131127484
21
333.6554068647
0
LINE
8
11000_LEFT
62
7
6
CONTINUOUS
10
410.1736117484
20
223.6567938647
11
410.8383237484
21
223.1920448647
0
LINE
8
10000_FRONT
62
7
6
CONTINUOUS
10
276.4362577484
20
357.1714128647
11
276.3021097484
21
357.3608398647
0
LINE
8
90000_FRAME
62
7
6
CONTINUOUS
10
482.9491910000
20
21.5500140000
11
484.6366010000
21
18.6029870000
0
LINE
8
90000_FRAME
62
7
6
CONTINUOUS
10
484.0662090000
20
16.7967450000
11
482.3550320000
21
19.8388370000
0
LINE
8
90000_FRAME
62
7
6
CONTINUOUS
10
472.3969330000
20
16.7492120000
11
471.0660180000
21
19.8388370000
0
LINE
8
11000_LEFT
62
7
6
CONTINUOUS
10
384.3481047484
20
291.2651658647
11
384.3481047484
21
254.3303568647
0
LINE
8
11000_LEFT
62
7
6
CONTINUOUS
10
384.7481047484
20
312.7303278647
11
384.7481047484
21
333.3303298647
0
LINE
8
11000_LEFT
62
7
6
CONTINUOUS
10
386.2480857484
20
359.0303108647
11
386.2480857484
21
357.1303308647
0
LINE
8
11000_LEFT
62
7
6
CONTINUOUS
10
387.3480917484
20
254.3041468647
11
387.3480917484
21
287.2260228647
0
LINE
8
11000_LEFT
62
7
6
CONTINUOUS
10
388.7481027484
20
345.4345328647
11
388.7481027484
21
345.0303428647
0
LINE
8
11000_LEFT
62
7
6
CONTINUOUS
10
388.8980937484
20
292.0674418647
11
388.8980937484
21
312.2834078647
0
LINE
8
11000_LEFT
62
7
6
CONTINUOUS
10
391.2480957484
20
217.0303568647
11
391.2480957484
21
254.2701378647
0
LINE
8
11000_LEFT
62
7
6
CONTINUOUS
10
391.2480957484
20
292.4818068647
11
391.2480957484
21
356.5303188647
0
LINE
8
11000_LEFT
62
7
6
CONTINUOUS
10
394.2508917484
20
293.0095358647
11
394.2508187484
21
311.7069408647
0
LINE
8
11000_LEFT
62
7
6
CONTINUOUS
10
398.4480917484
20
219.7022378647
11
398.4480917484
21
219.0795048647
0
LINE
8
11000_LEFT
62
7
6
CONTINUOUS
10
399.5480977484
20
219.3525508647
11
399.5480977484
21
220.4301978647
0
LINE
8
11000_LEFT
62
7
6
CONTINUOUS
10
500.4488657484
20
360.0784058647
11
500.3868047484
21
359.9757958647
0
LINE
8
11000_LEFT
62
7
6
CONTINUOUS
10
497.6666227484
20
353.8235068647
11
497.8236867484
21
354.0795958647
0
LINE
8
20000_FRONT_O
62
7
6
CONTINUOUS
10
173.0326347484
20
300.5448318647
11
183.0325207484
21
300.5448318647
0
LINE
8
20000_FRONT_O
62
7
6
CONTINUOUS
10
183.0325207484
20
300.5514208647
11
173.0326347484
21
300.5514208647
0
LINE
8
20000_FRONT_O
62
7
6
CONTINUOUS
10
173.0326347484
20
310.5058028647
11
183.0325207484
21
310.5058028647
0
LINE
8
20000_FRONT_O
62
7
6
CONTINUOUS
10
157.7009277484
20
314.4802698647
11
186.3009257484
21
314.4802698647
0
LINE
8
20000_FRONT_O
62
7
6
CONTINUOUS
10
167.1495877484
20
328.9614108647
11
167.2343087484
21
328.9491048647
0
LINE
8
20000_FRONT_O
62
7
6
CONTINUOUS
10
167.0673977484
20
328.9804498647
11
167.1495877484
21
328.9614108647
0
LINE
8
11000_LEFT
62
7
6
CONTINUOUS
10
409.6595677484
20
224.2876168647
11
410.1736117484
21
223.6567938647
0
LINE
8
90000_FRAME
62
7
6
CONTINUOUS
10
471.8265410000
20
21.5500140000
11
473.0623910000
21
18.6505200000
0
LINE
8
11000_LEFT
62
7
6
CONTINUOUS
10
405.0180877484
20
221.3346478647
11
405.0180877484
21
223.6450688647
0
LINE
8
11000_LEFT
62
7
6
CONTINUOUS
10
406.1180937484
20
221.4534398647
11
406.1180937484
21
224.2160128647
0
LINE
8
11000_LEFT
62
7
6
CONTINUOUS
10
411.5880837484
20
221.7018258647
11
411.5880837484
21
222.9317888647
0
LINE
8
11000_LEFT
62
7
6
CONTINUOUS
10
412.6880897484
20
221.7059438647
11
412.6880897484
21
222.9051918647
0
LINE
8
11000_LEFT
62
7
6
CONTINUOUS
10
418.1581047484
20
221.6032368647
11
418.1581047484
21
224.8177688647
0
LINE
8
11000_LEFT
62
7
6
CONTINUOUS
10
419.2580857484
20
221.5577938647
11
419.2580857484
21
225.1566538647
0
LINE
8
91000_TIP
62
7
6
CONTINUOUS
10
422.7797810000
20
20.8043440000
11
422.7797810000
21
15.8043440000
0
LINE
8
11000_LEFT
62
7
6
CONTINUOUS
10
497.5499627484
20
353.5553068647
11
497.6666227484
21
353.8235068647
0
LINE
8
11000_LEFT
62
7
6
CONTINUOUS
10
497.8236867484
20
354.0795958647
11
498.0766747484
21
354.6139138647
0
LINE
8
11000_LEFT
62
7
6
CONTINUOUS
10
437.1947327484
20
229.0457088647
11
437.6699457484
21
229.9202678647
0
LINE
8
11000_LEFT
62
7
6
CONTINUOUS
10
500.2036287484
20
354.3975998647
11
499.8819427484
21
353.8165788647
0
LINE
8
11000_LEFT
62
7
6
CONTINUOUS
10
494.9938687484
20
362.3301578647
11
494.4673017484
21
362.2612668647
0
LINE
8
11000_LEFT
62
7
6
CONTINUOUS
10
386.8905607484
20
333.5610818647
11
384.7481047484
21
333.3303298647
0
LINE
8
11000_LEFT
62
7
6
CONTINUOUS
10
389.0620367484
20
333.7949338647
11
386.8905607484
21
333.5610818647
0
LINE
8
11000_LEFT
62
7
6
CONTINUOUS
10
391.2480957484
20
334.0303358647
11
389.0620367484
21
333.7949338647
0
LINE
8
20000_FRONT_O
62
7
6
CONTINUOUS
10
167.3359257484
20
328.9438728647
11
167.4190357484
21
328.9473608647
0
LINE
8
20000_FRONT_O
62
7
6
CONTINUOUS
10
164.0709357484
20
316.7304708647
11
170.7909347484
21
316.7304708647
0
LINE
8
11000_LEFT
62
7
6
CONTINUOUS
10
387.2481697484
20
336.5303288647
11
391.2480957484
21
336.5303288647
0
LINE
8
20000_FRONT_O
62
7
6
CONTINUOUS
10
167.0864977484
20
325.8020588647
11
167.5780137484
21
325.7992008647
0
LINE
8
20000_FRONT_O
62
7
6
CONTINUOUS
10
167.6131127484
20
333.6554068647
11
167.1127437484
21
333.6628678647
0
LINE
8
20000_FRONT_O
62
7
6
CONTINUOUS
10
167.2343087484
20
328.9491048647
11
167.3359257484
21
328.9438728647
0
LINE
8
11000_LEFT
62
7
6
CONTINUOUS
10
384.7481047484
20
312.7303278647
11
386.8905607484
21
312.4996248647
0
LINE
8
11000_LEFT
62
7
6
CONTINUOUS
10
386.8905607484
20
312.4996248647
11
389.0620367484
21
312.2657728647
0
LINE
8
11000_LEFT
62
7
6
CONTINUOUS
10
394.2508187484
20
311.7069408647
11
391.2481197484
21
312.0303218647
0
LINE
8
11000_LEFT
62
7
6
CONTINUOUS
10
389.0620367484
20
312.2657728647
11
391.2480957484
21
312.0303218647
0
LINE
8
11000_LEFT
62
7
6
CONTINUOUS
10
504.8884687484
20
231.4651828647
11
506.2042307484
21
230.8511218647
0
LINE
8
11000_LEFT
62
7
6
CONTINUOUS
10
409.3286287484
20
225.0319028647
11
409.6595677484
21
224.2876168647
0
LINE
8
11000_LEFT
62
7
6
CONTINUOUS
10
409.2287567484
20
225.6983358647
11
409.3286287484
21
225.0319028647
0
LINE
8
11000_LEFT
62
7
6
CONTINUOUS
10
424.7281007484
20
221.2082028647
11
424.7281007484
21
225.7803558647
0
LINE
8
11000_LEFT
62
7
6
CONTINUOUS
10
425.8280817484
20
221.1129568647
11
425.8280817484
21
225.7803558647
0
LINE
8
11000_LEFT
62
7
6
CONTINUOUS
10
431.2980967484
20
220.5143498647
11
431.2980967484
21
225.7803558647
0
LINE
8
11000_LEFT
62
7
6
CONTINUOUS
10
432.3980777484
20
220.3663448647
11
432.3980777484
21
225.7803558647
0
LINE
8
91000_TIP
62
7
6
CONTINUOUS
10
432.7797810000
20
23.3043440000
11
432.7797810000
21
13.3043440000
0
LINE
8
11000_LEFT
62
7
6
CONTINUOUS
10
437.8367477484
20
230.9016518647
11
437.8367477484
21
232.0245478647
0
LINE
8
11000_LEFT
62
7
6
CONTINUOUS
10
437.8680927484
20
219.5173178647
11
437.8680927484
21
225.7803558647
0
LINE
8
11000_LEFT
62
7
6
CONTINUOUS
10
438.9680747484
20
219.3236758647
11
438.9680747484
21
225.7803558647
0
LINE
8
91000_TIP
62
7
6
CENTER
10
439.2797810000
20
12.5828630000
11
439.2797810000
21
23.8662490000
0
LINE
8
11000_LEFT
62
7
6
CONTINUOUS
10
444.4380887484
20
218.2453018647
11
444.4380887484
21
225.7803558647
0
LINE
8
11000_LEFT
62
7
6
CONTINUOUS
10
437.6699457484
20
229.9202678647
11
437.8367477484
21
230.9016518647
0
LINE
8
11000_LEFT
62
7
6
CONTINUOUS
10
492.9509707484
20
362.7183608647
11
492.5462957484
21
361.5647498647
0
LINE
8
20000_FRONT_O
62
7
6
CONTINUOUS
10
167.5021337484
20
328.9578258647
11
167.5858497484
21
328.9755088647
0
LINE
8
20000_FRONT_O
62
7
6
CONTINUOUS
10
167.4190357484
20
328.9473608647
11
167.5021337484
21
328.9578258647
0
LINE
8
20000_FRONT_O
62
7
6
CONTINUOUS
10
170.7909347484
20
342.7301918647
11
164.0709357484
21
342.7301918647
0
LINE
8
20000_FRONT_O
62
7
6
CONTINUOUS
10
157.7009277484
20
344.9803938647
11
186.3009257484
21
344.9803938647
0
LINE
8
11000_LEFT
62
7
6
CONTINUOUS
10
391.2480957484
20
347.8303168647
11
390.7928177484
21
347.8303168647
0
LINE
8
20000_FRONT_O
62
7
6
CONTINUOUS
10
187.7500257484
20
349.3483438647
11
156.2518277484
21
349.3483438647
0
LINE
8
20000_FRONT_O
62
7
6
CONTINUOUS
10
189.4009297484
20
349.3989708647
11
187.7500257484
21
349.3989708647
0
LINE
8
20000_FRONT_O
62
7
6
CONTINUOUS
10
156.2518277484
20
349.3989708647
11
154.6009347484
21
349.3989708647
0
LINE
8
20000_FRONT_O
62
7
6
CONTINUOUS
10
184.4009327484
20
349.3991648647
11
159.6009327484
21
349.3991648647
0
LINE
8
20000_FRONT_O
62
7
6
CONTINUOUS
10
159.6009327484
20
349.4434448647
11
154.6009347484
21
349.4434448647
0
LINE
8
20000_FRONT_O
62
7
6
CONTINUOUS
10
184.4009327484
20
349.4434448647
11
189.4009297484
21
349.4434448647
0
LINE
8
20000_FRONT_O
62
7
6
CONTINUOUS
10
184.4009327484
20
352.6886928647
11
159.6009327484
21
352.6886928647
0
LINE
8
10000_FRONT
62
7
6
CONTINUOUS
10
275.4101577484
20
353.7494808647
11
300.4101577484
21
353.7494808647
0
LINE
8
10000_FRONT
62
7
6
CONTINUOUS
10
300.3101637484
20
354.0364788647
11
275.5101757484
21
354.0364788647
0
LINE
8
10000_FRONT
62
7
6
CONTINUOUS
10
275.5101757484
20
356.3376948647
11
275.4101577484
21
356.3376948647
0
LINE
8
20000_FRONT_O
62
7
6
CONTINUOUS
10
159.6009327484
20
356.3376948647
11
154.6009347484
21
356.3376948647
0
LINE
8
20000_FRONT_O
62
7
6
CONTINUOUS
10
184.4009327484
20
356.3376948647
11
189.4009297484
21
356.3376948647
0
LINE
8
10000_FRONT
62
7
6
CONTINUOUS
10
300.3101637484
20
356.3376948647
11
300.4102547484
21
356.3376948647
0
LINE
8
11000_LEFT
62
7
6
CONTINUOUS
10
386.2480857484
20
357.1303308647
11
381.7480937484
21
357.1303308647
0
LINE
8
20000_FRONT_O
62
7
6
CONTINUOUS
10
154.6009347484
20
357.5303548647
11
159.6009327484
21
357.5303548647
0
LINE
8
20000_FRONT_O
62
7
6
CONTINUOUS
10
184.4009327484
20
357.5303548647
11
189.4009297484
21
357.5303548647
0
LINE
8
10000_FRONT
62
7
6
CONTINUOUS
10
275.4101577484
20
357.5303548647
11
275.5101757484
21
357.5303548647
0
LINE
8
10000_FRONT
62
7
6
CONTINUOUS
10
300.3101637484
20
357.5303548647
11
300.4102547484
21
357.5303548647
0
LINE
8
11000_LEFT
62
7
6
CONTINUOUS
10
497.0224267484
20
349.3935938647
11
496.7030187484
21
349.3991648647
0
LINE
8
11000_LEFT
62
7
6
CONTINUOUS
10
496.6982707484
20
349.3992618647
11
494.1666907484
21
349.4434448647
0
LINE
8
11000_LEFT
62
7
6
CONTINUOUS
10
506.2042307484
20
230.8511218647
11
507.3183097484
21
230.0240398647
0
LINE
8
11000_LEFT
62
7
6
CONTINUOUS
10
445.5380707484
20
218.0561658647
11
445.5380707484
21
225.7803558647
0
LINE
8
90000_FRAME
62
7
6
CONTINUOUS
10
449.0000000000
20
10.0000000000
11
449.0000000000
21
28.0000000000
0
LINE
8
11000_LEFT
62
7
6
CONTINUOUS
10
451.0080857484
20
217.2427958647
11
451.0080857484
21
225.7803558647
0
LINE
8
11000_LEFT
62
7
6
CONTINUOUS
10
452.1081147484
20
217.1046258647
11
452.1081147484
21
225.7803558647
0
LINE
8
11000_LEFT
62
7
6
CONTINUOUS
10
457.5780817484
20
216.5424988647
11
457.5780817484
21
225.7803558647
0
LINE
8
11000_LEFT
62
7
6
CONTINUOUS
10
458.6781117484
20
216.4544718647
11
458.6781117484
21
225.7803558647
0
LINE
8
90000_FRAME
62
7
6
CONTINUOUS
10
458.8025840000
20
16.8918100000
11
458.8025840000
21
17.8424640000
0
LINE
8
90000_FRAME
62
7
6
CONTINUOUS
10
462.1298720000
20
20.5518270000
11
462.1298720000
21
21.5024810000
0
LINE
8
90000_FRAME
62
7
6
CONTINUOUS
10
463.2231240000
20
21.5500140000
11
463.2231240000
21
16.7967450000
0
LINE
8
11000_LEFT
62
7
6
CONTINUOUS
10
464.1480777484
20
216.1401008647
11
464.1480777484
21
225.7803558647
0
LINE
8
90000_FRAME
62
7
6
CONTINUOUS
10
464.6491050000
20
21.5500140000
11
464.6491050000
21
16.7967450000
0
LINE
8
11000_LEFT
62
7
6
CONTINUOUS
10
465.2481077484
20
216.1016348647
11
465.2481077484
21
225.7803558647
0
LINE
8
11000_LEFT
62
7
6
CONTINUOUS
10
452.1081147484
20
225.3634238647
11
452.1359237484
21
225.5748928647
0
LINE
8
11000_LEFT
62
7
6
CONTINUOUS
10
452.1359237484
20
225.5748928647
11
452.1630047484
21
225.7803558647
0
LINE
8
11000_LEFT
62
7
6
CONTINUOUS
10
494.3489957484
20
360.8151828647
11
494.5271337484
21
361.5860658647
0
LINE
8
11000_LEFT
62
7
6
CONTINUOUS
10
500.6365957484
20
360.5181568647
11
500.5430457484
21
360.2026238647
0
LINE
8
11000_LEFT
62
7
6
CONTINUOUS
10
498.0766747484
20
354.6139138647
11
498.2443487484
21
355.1791408647
0
LINE
8
11000_LEFT
62
7
6
CONTINUOUS
10
500.4961487484
20
355.3473968647
11
500.2036287484
21
354.3975998647
0
LINE
8
20000_FRONT_O
62
7
6
CONTINUOUS
10
167.0009287484
20
359.0290518647
11
169.0009277484
21
359.0290518647
0
LINE
8
20000_FRONT_O
62
7
6
CONTINUOUS
10
171.0009267484
20
359.0290518647
11
173.0009257484
21
359.0290518647
0
LINE
8
20000_FRONT_O
62
7
6
CONTINUOUS
10
175.0009247484
20
359.0290518647
11
177.0009367484
21
359.0290518647
0
LINE
8
10000_FRONT
62
7
6
CONTINUOUS
10
282.9101607484
20
359.0290518647
11
284.9101597484
21
359.0290518647
0
LINE
8
10000_FRONT
62
7
6
CONTINUOUS
10
286.9101587484
20
359.0290518647
11
288.9101577484
21
359.0290518647
0
LINE
8
10000_FRONT
62
7
6
CONTINUOUS
10
290.9101807484
20
359.0290518647
11
292.9101797484
21
359.0290518647
0
LINE
8
20000_FRONT_O
62
7
6
CONTINUOUS
10
167.0009287484
20
359.0671788647
11
169.0009277484
21
359.0671788647
0
LINE
8
20000_FRONT_O
62
7
6
CONTINUOUS
10
171.0009267484
20
359.0671788647
11
173.0009257484
21
359.0671788647
0
LINE
8
20000_FRONT_O
62
7
6
CONTINUOUS
10
175.0009247484
20
359.0671788647
11
177.0009367484
21
359.0671788647
0
LINE
8
10000_FRONT
62
7
6
CONTINUOUS
10
282.9101607484
20
359.0671788647
11
284.9101597484
21
359.0671788647
0
LINE
8
10000_FRONT
62
7
6
CONTINUOUS
10
286.9101587484
20
359.0671788647
11
288.9101577484
21
359.0671788647
0
LINE
8
10000_FRONT
62
7
6
CONTINUOUS
10
290.9101807484
20
359.0671788647
11
292.9101797484
21
359.0671788647
0
LINE
8
11000_LEFT
62
7
6
CONTINUOUS
10
387.7480907484
20
360.0303468647
11
387.2480977484
21
360.0303468647
0
LINE
8
10000_FRONT
62
7
6
CONTINUOUS
10
292.9101797484
20
361.0658458647
11
290.9101807484
21
361.0658458647
0
LINE
8
10000_FRONT
62
7
6
CONTINUOUS
10
288.9101577484
20
361.0658458647
11
286.9101587484
21
361.0658458647
0
LINE
8
10000_FRONT
62
7
6
CONTINUOUS
10
284.9101597484
20
361.0658458647
11
282.9101607484
21
361.0658458647
0
LINE
8
20000_FRONT_O
62
7
6
CONTINUOUS
10
177.0009367484
20
361.0658458647
11
175.0009247484
21
361.0658458647
0
LINE
8
20000_FRONT_O
62
7
6
CONTINUOUS
10
173.0009257484
20
361.0658458647
11
171.0009267484
21
361.0658458647
0
LINE
8
20000_FRONT_O
62
7
6
CONTINUOUS
10
169.0009277484
20
361.0658458647
11
167.0009287484
21
361.0658458647
0
LINE
8
10000_FRONT
62
7
6
CONTINUOUS
10
300.4102547484
20
363.5303268647
11
300.3101637484
21
363.5303268647
0
LINE
8
10000_FRONT
62
7
6
CONTINUOUS
10
275.5101757484
20
363.5303268647
11
275.4100857484
21
363.5303268647
0
LINE
8
20000_FRONT_O
62
7
6
CONTINUOUS
10
189.4009297484
20
363.5303268647
11
184.4009327484
21
363.5303268647
0
LINE
8
20000_FRONT_O
62
7
6
CONTINUOUS
10
159.6009327484
20
363.5303268647
11
154.6009347484
21
363.5303268647
0
LINE
8
20000_FRONT_O
62
7
6
CONTINUOUS
10
154.6009347484
20
364.0303448647
11
189.4009297484
21
364.0303448647
0
LINE
8
10000_FRONT
62
7
6
CONTINUOUS
10
270.5101667484
20
364.0303448647
11
305.3101737484
21
364.0303448647
0
LINE
8
11000_LEFT
62
7
6
CONTINUOUS
10
384.0480987484
20
364.0303448647
11
501.7978137484
21
364.0303448647
0
LINE
8
11000_LEFT
62
7
6
CONTINUOUS
10
499.9061177484
20
362.2409678647
11
500.0327087484
21
362.2358808647
0
LINE
8
11000_LEFT
62
7
6
CONTINUOUS
10
497.4236627484
20
357.5168378647
11
496.9809087484
21
357.5510898647
0
LINE
8
11000_LEFT
62
7
6
CONTINUOUS
10
494.5238397484
20
349.9197238647
11
497.0026607484
21
349.7028768647
0
LINE
8
90000_FRAME
62
7
6
CONTINUOUS
10
465.7423570000
20
21.5500140000
11
465.7423570000
21
16.7967450000
0
LINE
8
90000_FRAME
62
7
6
CONTINUOUS
10
467.1208050000
20
20.6706590000
11
467.1208050000
21
19.6011730000
0
LINE
8
90000_FRAME
62
7
6
CONTINUOUS
10
467.1208050000
20
18.8168840000
11
467.1208050000
21
17.6998660000
0
LINE
8
90000_FRAME
62
7
6
CONTINUOUS
10
468.9745800000
20
19.6011730000
11
468.9745800000
21
18.8168840000
0
LINE
8
90000_FRAME
62
7
6
CONTINUOUS
10
469.2597760000
20
21.5500140000
11
469.2597760000
21
20.6706590000
0
LINE
8
90000_FRAME
62
7
6
CONTINUOUS
10
469.3073090000
20
17.6998660000
11
469.3073090000
21
16.7967450000
0
LINE
8
90000_FRAME
62
7
6
CONTINUOUS
10
470.1153640000
20
16.7967450000
11
470.1153640000
21
21.5500140000
0
LINE
8
11000_LEFT
62
7
6
CONTINUOUS
10
470.7180737484
20
216.0330828647
11
470.7180737484
21
225.7803558647
0
LINE
8
90000_FRAME
62
7
6
CONTINUOUS
10
471.0660180000
20
16.7967450000
11
471.0660180000
21
19.8388370000
0
LINE
8
11000_LEFT
62
7
6
CONTINUOUS
10
471.8181037484
20
216.0439828647
11
471.8181037484
21
232.0300708647
0
LINE
8
11000_LEFT
62
7
6
CONTINUOUS
10
472.1400797484
20
217.1303508647
11
472.1400797484
21
232.0308458647
0
LINE
8
90000_FRAME
62
7
6
CONTINUOUS
10
474.5834370000
20
19.8863700000
11
474.5834370000
21
16.7967450000
0
LINE
8
90000_FRAME
62
7
6
CONTINUOUS
10
475.9618850000
20
21.5500140000
11
475.9618850000
21
16.7967450000
0
LINE
8
11000_LEFT
62
7
6
CONTINUOUS
10
476.2900687484
20
221.7803578647
11
476.2900687484
21
219.1303258647
0
LINE
8
90000_FRAME
62
7
6
CONTINUOUS
10
477.0551370000
20
21.5500140000
11
477.0551370000
21
16.7967450000
0
LINE
8
11000_LEFT
62
7
6
CONTINUOUS
10
477.2901047484
20
219.1303258647
11
477.2901047484
21
221.7803088647
0
LINE
8
90000_FRAME
62
7
6
CONTINUOUS
10
478.4335850000
20
20.6706590000
11
478.4335850000
21
19.6011730000
0
LINE
8
90000_FRAME
62
7
6
CONTINUOUS
10
478.4335850000
20
18.8168840000
11
478.4335850000
21
17.6998660000
0
LINE
8
90000_FRAME
62
7
6
CONTINUOUS
10
480.2873600000
20
19.6011730000
11
480.2873600000
21
18.8168840000
0
LINE
8
90000_FRAME
62
7
6
CONTINUOUS
10
480.5725560000
20
21.5500140000
11
480.5725560000
21
20.6706590000
0
LINE
8
90000_FRAME
62
7
6
CONTINUOUS
10
480.6200890000
20
17.6998660000
11
480.6200890000
21
16.7967450000
0
LINE
8
90000_FRAME
62
7
6
CONTINUOUS
10
481.4043780000
20
16.7967450000
11
481.4043780000
21
21.5500140000
0
LINE
8
11000_LEFT
62
7
6
CONTINUOUS
10
481.4900907484
20
221.7803088647
11
481.4900907484
21
219.1303258647
0
LINE
8
90000_FRAME
62
7
6
CONTINUOUS
10
482.3550320000
20
16.7967450000
11
482.3550320000
21
19.8388370000
0
LINE
8
11000_LEFT
62
7
6
CONTINUOUS
10
482.4900777484
20
219.1303258647
11
482.4900777484
21
221.7803578647
0
LINE
8
90000_FRAME
62
7
6
CONTINUOUS
10
484.6366010000
20
21.5500140000
11
484.6366010000
21
18.6029870000
0
LINE
8
90000_FRAME
62
7
6
CONTINUOUS
10
485.5872550000
20
21.5500140000
11
485.5872550000
21
16.7967450000
0
LINE
8
11000_LEFT
62
7
6
CONTINUOUS
10
495.4687427484
20
363.3165808647
11
495.4275147484
21
362.7871068647
0
LINE
8
11000_LEFT
62
7
6
CONTINUOUS
10
492.5462957484
20
361.5647498647
11
492.4464467484
21
360.3452498647
0
LINE
8
11000_LEFT
62
7
6
CONTINUOUS
10
500.6099017484
20
356.3374528647
11
500.4961487484
21
355.3473968647
0
LINE
8
11000_LEFT
62
7
6
CONTINUOUS
10
499.3954897484
20
363.6441768647
11
499.3645327484
21
363.3983098647
0
LINE
8
11000_LEFT
62
7
6
CONTINUOUS
10
496.9809087484
20
357.5510898647
11
496.5488607484
21
357.6352418647
0
LINE
8
11000_LEFT
62
7
6
CONTINUOUS
10
498.3809687484
20
352.5765868647
11
497.9485817484
21
352.6722208647
0
LINE
8
11000_LEFT
62
7
6
CONTINUOUS
10
507.3183097484
20
230.0240398647
11
508.1778507484
21
228.9955658647
0
LINE
8
11000_LEFT
62
7
6
CONTINUOUS
10
494.3663877484
20
351.8364678647
11
494.5238397484
21
349.9197238647
0
LINE
8
11000_LEFT
62
7
6
CONTINUOUS
10
499.7231827484
20
362.7654518647
11
499.7344707484
21
362.5166298647
0
LINE
8
11000_LEFT
62
7
6
CONTINUOUS
10
494.3769487484
20
360.0324298647
11
494.3489957484
21
360.8151828647
0
LINE
8
11000_LEFT
62
7
6
CONTINUOUS
10
500.6256957484
20
360.8511788647
11
500.6365957484
21
360.5181568647
0
LINE
8
11000_LEFT
62
7
6
CONTINUOUS
10
506.5739277484
20
230.6159128647
11
506.6534767484
21
224.3825238647
0
LINE
8
90000_FRAME
62
7
6
CONTINUOUS
10
486.3953110000
20
16.8918100000
11
486.3953110000
21
17.8424640000
0
LINE
8
90000_FRAME
62
7
6
CONTINUOUS
10
489.7225990000
20
20.5518270000
11
489.7225990000
21
21.5024810000
0
LINE
8
11000_LEFT
62
7
6
CONTINUOUS
10
490.5481127484
20
237.0302018647
11
490.5481127484
21
232.0303128647
0
LINE
8
11000_LEFT
62
7
6
CONTINUOUS
10
490.6853137484
20
236.6419498647
11
490.6853137484
21
232.2790868647
0
LINE
8
11000_LEFT
62
7
6
CONTINUOUS
10
498.1400917484
20
223.6303418647
11
498.1400917484
21
217.1303508647
0
LINE
8
90000_FRAME
62
7
6
CONTINUOUS
10
499.0000000000
20
10.0000000000
11
499.0000000000
21
28.0000000000
0
LINE
8
11000_LEFT
62
7
6
CONTINUOUS
10
504.6400827484
20
223.7236008647
11
504.6400827484
21
225.3018968647
0
LINE
8
11000_LEFT
62
7
6
CONTINUOUS
10
499.7344707484
20
362.5166298647
11
499.7335507484
21
362.3914918647
0
LINE
8
11000_LEFT
62
7
6
CONTINUOUS
10
500.7226857484
20
358.3253158647
11
500.6822327484
21
357.3300278647
0
LINE
8
11000_LEFT
62
7
6
CONTINUOUS
10
497.5367857484
20
353.2611378647
11
497.5499627484
21
353.5553068647
0
LINE
8
11000_LEFT
62
7
6
CONTINUOUS
10
498.2443487484
20
355.1791408647
11
498.3297117484
21
356.3533428647
0
LINE
8
11000_LEFT
62
7
6
CONTINUOUS
10
500.6822327484
20
357.3300278647
11
500.6099017484
21
356.3374528647
0
LINE
8
90000_FRAME
62
7
6
CONTINUOUS
10
589.0000000000
20
415.0000000000
11
5.0000000000
21
415.0000000000
0
LINE
8
90000_FRAME
62
7
6
CONTINUOUS
10
594.0000000000
20
420.0000000000
11
0.0000000000
21
420.0000000000
0
LINE
8
11000_LEFT
62
7
6
CONTINUOUS
10
495.9261277484
20
363.1719188647
11
495.4687427484
21
363.3165808647
0
LINE
8
11000_LEFT
62
7
6
CONTINUOUS
10
497.8356527484
20
357.3759548647
11
497.4236627484
21
357.5168378647
0
LINE
8
11000_LEFT
62
7
6
CONTINUOUS
10
496.5488607484
20
357.6352418647
11
496.1329947484
21
357.7821798647
0
LINE
8
11000_LEFT
62
7
6
CONTINUOUS
10
508.1778507484
20
228.9955658647
11
508.6790797484
21
227.8920968647
0
LINE
8
11000_LEFT
62
7
6
CONTINUOUS
10
500.6580577484
20
359.3174548647
11
500.7226857484
21
358.3253158647
0
LINE
8
11000_LEFT
62
7
6
CONTINUOUS
10
508.8353207484
20
226.8038398647
11
508.8353207484
21
222.0307778647
0
LINE
8
11000_LEFT
62
7
6
CONTINUOUS
10
499.7890707484
20
362.2831648647
11
499.9061177484
21
362.2409678647
0
LINE
8
11000_LEFT
62
7
6
CONTINUOUS
10
496.1329947484
20
357.7821798647
11
495.5330797484
21
358.1320138647
0
LINE
8
11000_LEFT
62
7
6
CONTINUOUS
10
493.4039467484
20
356.8120838647
11
493.7441877484
21
355.6369618647
0
LINE
8
11000_LEFT
62
7
6
CONTINUOUS
10
498.3297117484
20
356.3533428647
11
498.2154747484
21
356.9307788647
0
LINE
8
11000_LEFT
62
7
6
CONTINUOUS
10
493.7441877484
20
355.6369618647
11
494.1170817484
21
353.7469128647
0
LINE
8
11000_LEFT
62
7
6
CONTINUOUS
10
500.5712417484
20
361.1786298647
11
500.6256957484
21
360.8511788647
0
LINE
8
11000_LEFT
62
7
6
CONTINUOUS
10
492.4464467484
20
360.3452498647
11
492.6248757484
21
359.1324368647
0
LINE
8
11000_LEFT
62
7
6
CONTINUOUS
10
508.6790797484
20
227.8920968647
11
508.8353207484
21
226.8038398647
0
LINE
8
11000_LEFT
62
7
6
CONTINUOUS
10
494.1170817484
20
353.7469128647
11
494.3663877484
21
351.8364678647
0
LINE
8
90000_FRAME
62
7
6
CONTINUOUS
10
541.5000000000
20
10.0000000000
11
541.5000000000
21
16.0000000000
0
LINE
8
90000_FRAME
62
7
6
CONTINUOUS
10
474.2507080000
20
21.5500140000
11
473.0623910000
21
18.6505200000
0
LINE
8
90000_FRAME
62
7
6
CONTINUOUS
10
474.5834370000
20
19.8863700000
11
473.2525220000
21
16.7492120000
0
LINE
8
90000_FRAME
62
7
6
CONTINUOUS
10
458.9944120000
20
20.9692080000
11
459.2684780000
21
21.2432810000
0
LINE
8
11000_LEFT
62
7
6
CONTINUOUS
10
500.0327087484
20
362.2358808647
11
500.2387517484
21
362.1165088647
0
LINE
8
11000_LEFT
62
7
6
CONTINUOUS
10
494.3579097484
20
362.2939688647
11
493.7361457484
21
362.8637498647
0
LINE
8
11000_LEFT
62
7
6
CONTINUOUS
10
495.5330797484
20
358.1320138647
11
495.0296227484
21
358.6111508647
0
LINE
8
11000_LEFT
62
7
6
CONTINUOUS
10
497.9485817484
20
352.6722208647
11
497.6339207484
21
352.9797598647
0
LINE
8
11000_LEFT
62
7
6
CONTINUOUS
10
498.2154747484
20
356.9307788647
11
497.8356527484
21
357.3759548647
0
LINE
8
11000_LEFT
62
7
6
CONTINUOUS
10
495.0296227484
20
358.6111508647
11
494.6090567484
21
359.2786488647
0
LINE
8
11000_LEFT
62
7
6
CONTINUOUS
10
492.1526177484
20
357.8910398647
11
489.9361347484
21
361.8896808647
0
LINE
8
11000_LEFT
62
7
6
CONTINUOUS
10
499.7335507484
20
362.3914918647
11
499.7890707484
21
362.2831648647
0
LINE
8
11000_LEFT
62
7
6
CONTINUOUS
10
500.3868047484
20
359.9757958647
11
500.4403387484
21
359.8667428647
0
LINE
8
11000_LEFT
62
7
6
CONTINUOUS
10
500.2387517484
20
362.1165088647
11
500.3508097484
21
361.8578518647
0
LINE
8
11000_LEFT
62
7
6
CONTINUOUS
10
500.3508097484
20
361.8578518647
11
500.4573437484
21
361.6021988647
0
LINE
8
11000_LEFT
62
7
6
CONTINUOUS
10
494.4673017484
20
362.2612668647
11
494.6357027484
21
361.8121178647
0
LINE
8
11000_LEFT
62
7
6
CONTINUOUS
10
492.9898247484
20
357.9646788647
11
493.4039467484
21
356.8120838647
0
LINE
8
11000_LEFT
62
7
6
CONTINUOUS
10
500.4949377484
20
359.7872898647
11
500.6580577484
21
359.3174548647
0
LINE
8
11000_LEFT
62
7
6
CONTINUOUS
10
497.6339207484
20
352.9797598647
11
497.5367857484
21
353.2611378647
0
LINE
8
11000_LEFT
62
7
6
CONTINUOUS
10
492.6248757484
20
359.1324368647
11
492.9898247484
21
357.9646788647
0
LINE
8
11000_LEFT
62
7
6
CONTINUOUS
10
494.6090567484
20
359.2786488647
11
494.3769487484
21
360.0324298647
0
LINE
8
11000_LEFT
62
7
6
CONTINUOUS
10
500.4573437484
20
361.6021988647
11
500.5712417484
21
361.1786298647
0
LINE
8
11000_LEFT
62
7
6
CONTINUOUS
10
499.3645327484
20
363.3983098647
11
499.4232007484
21
363.1543328647
0
LINE
8
11000_LEFT
62
7
6
CONTINUOUS
10
499.4232007484
20
363.1543328647
11
499.5817667484
21
362.9619998647
0
LINE
8
11000_LEFT
62
7
6
CONTINUOUS
10
499.5817667484
20
362.9619998647
11
499.7231827484
21
362.7654518647
0
LINE
8
11000_LEFT
62
7
6
CONTINUOUS
10
500.4403387484
20
359.8667428647
11
500.4949377484
21
359.7872898647
0
LINE
8
90000_FRAME
62
7
6
CONTINUOUS
10
584.0000000000
20
10.0000000000
11
584.0000000000
21
28.0000000000
0
LINE
8
90000_FRAME
62
7
6
CONTINUOUS
10
589.0000000000
20
5.0000000000
11
589.0000000000
21
415.0000000000
0
LINE
8
90000_FRAME
62
7
6
CONTINUOUS
10
594.0000000000
20
0.0000000000
11
594.0000000000
21
420.0000000000
0
CIRCLE
8
91000_TIP
62
7
6
CONTINUOUS
10
439.2797810000
20
18.3043440000
40
5.0000000000
0
CIRCLE
8
91000_TIP
62
7
6
CONTINUOUS
10
439.2797810000
20
18.3043440000
40
2.5000000000
0
ARC
8
90000_FRAME
62
7
6
CONTINUOUS
10
488.0999520000
20
18.7539030000
40
1.1116190000
50
277.7099960000
51
295.6884930000
0
ARC
8
90000_FRAME
62
7
6
CONTINUOUS
10
488.3842620000
20
18.0290770000
40
0.3401690000
50
305.5032210000
51
72.4652900000
0
ARC
8
90000_FRAME
62
7
6
CONTINUOUS
10
487.8182680000
20
21.4307840000
40
4.7567950000
50
252.5939200000
51
280.9816600000
0
ARC
8
90000_FRAME
62
7
6
CONTINUOUS
10
488.2731040000
20
18.8127710000
40
2.1007270000
50
282.4058360000
51
311.8644430000
0
ARC
8
90000_FRAME
62
7
6
CONTINUOUS
10
487.9995390000
20
20.4211120000
40
0.3029630000
50
154.4400350000
51
221.8201700000
0
ARC
8
90000_FRAME
62
7
6
CONTINUOUS
10
488.0787600000
20
20.3418910000
40
0.4103090000
50
102.8287830000
51
149.2259640000
0
ARC
8
90000_FRAME
62
7
6
CONTINUOUS
10
488.4957870000
20
18.5995560000
40
2.2018370000
50
84.0400060000
51
103.3427660000
0
ARC
8
90000_FRAME
62
7
6
CONTINUOUS
10
488.1548230000
20
16.1821920000
40
4.6423740000
50
70.2625860000
51
82.9524190000
0
ARC
8
90000_FRAME
62
7
6
CONTINUOUS
10
487.6408050000
20
20.8538150000
40
3.2587560000
50
247.5300210000
51
280.7579520000
0
ARC
8
90000_FRAME
62
7
6
CONTINUOUS
10
481.2558390000
20
2.6022950000
40
17.3316080000
50
65.3414670000
51
67.3997770000
0
ARC
8
90000_FRAME
62
7
6
CONTINUOUS
10
492.0517010000
20
28.3947210000
40
10.6291640000
50
242.8620100000
51
247.1042030000
0
ARC
8
90000_FRAME
62
7
6
CONTINUOUS
10
488.1968000000
20
20.8607900000
40
2.1662920000
50
227.3119280000
51
242.7040320000
0
ARC
8
90000_FRAME
62
7
6
CONTINUOUS
10
487.5927690000
20
20.1551120000
40
1.2385220000
50
194.7952190000
51
225.7176550000
0
ARC
8
90000_FRAME
62
7
6
CONTINUOUS
10
487.6549270000
20
20.1953320000
40
1.3090920000
50
164.1974860000
51
195.8025140000
0
ARC
8
90000_FRAME
62
7
6
CONTINUOUS
10
488.2119510000
20
19.3070650000
40
2.3669250000
50
86.2218020000
51
120.4272600000
0
ARC
8
90000_FRAME
62
7
6
CONTINUOUS
10
487.9430940000
20
12.6108970000
40
9.0679050000
50
78.6827050000
51
87.3147600000
0
ARC
8
90000_FRAME
62
7
6
CONTINUOUS
10
487.4870250000
20
20.3028400000
40
1.1197470000
50
142.8139180000
51
167.1522950000
0
ARC
8
90000_FRAME
62
7
6
CONTINUOUS
10
487.8323340000
20
19.9962580000
40
1.5805470000
50
121.2140950000
51
141.5254770000
0
ARC
8
90000_FRAME
62
7
6
CONTINUOUS
10
488.4095090000
20
20.8073150000
40
0.8661280000
50
222.7760390000
51
239.0362430000
0
ARC
8
90000_FRAME
62
7
6
CONTINUOUS
10
485.9027990000
20
13.4770430000
40
6.8587740000
50
59.9020270000
51
68.2036480000
0
ARC
8
90000_FRAME
62
7
6
CONTINUOUS
10
489.3112940000
20
22.4029300000
40
2.6987410000
50
240.0482000000
51
251.3779670000
0
ARC
8
90000_FRAME
62
7
6
CONTINUOUS
10
488.6458360000
20
18.2460310000
40
1.4334470000
50
315.8904550000
51
333.5229260000
0
ARC
8
90000_FRAME
62
7
6
CONTINUOUS
10
488.6504750000
20
18.1926240000
40
1.4062290000
50
335.3867970000
51
24.3915120000
0
ARC
8
90000_FRAME
62
7
6
CONTINUOUS
10
488.5782700000
20
18.1147670000
40
1.5047030000
50
25.9562920000
51
59.4834830000
0
ARC
8
90000_FRAME
62
7
6
CONTINUOUS
10
460.5072250000
20
18.7539030000
40
1.1116190000
50
277.7099960000
51
295.6884930000
0
ARC
8
90000_FRAME
62
7
6
CONTINUOUS
10
460.7915350000
20
18.0290770000
40
0.3401690000
50
305.5032210000
51
72.4652900000
0
ARC
8
90000_FRAME
62
7
6
CONTINUOUS
10
460.2255410000
20
21.4307840000
40
4.7567950000
50
252.5939200000
51
280.9816600000
0
ARC
8
90000_FRAME
62
7
6
CONTINUOUS
10
460.6803770000
20
18.8127710000
40
2.1007270000
50
282.4058360000
51
311.8644430000
0
ARC
8
90000_FRAME
62
7
6
CONTINUOUS
10
460.4068120000
20
20.4211120000
40
0.3029630000
50
154.4400350000
51
221.8201700000
0
ARC
8
90000_FRAME
62
7
6
CONTINUOUS
10
460.4860330000
20
20.3418910000
40
0.4103090000
50
102.8287830000
51
149.2259640000
0
ARC
8
90000_FRAME
62
7
6
CONTINUOUS
10
460.9030600000
20
18.5995560000
40
2.2018370000
50
84.0400060000
51
103.3427660000
0
ARC
8
90000_FRAME
62
7
6
CONTINUOUS
10
460.5620960000
20
16.1821920000
40
4.6423740000
50
70.2625860000
51
82.9524190000
0
ARC
8
90000_FRAME
62
7
6
CONTINUOUS
10
460.0480780000
20
20.8538150000
40
3.2587560000
50
247.5300210000
51
280.7579520000
0
ARC
8
90000_FRAME
62
7
6
CONTINUOUS
10
453.6631120000
20
2.6022950000
40
17.3316080000
50
65.3414670000
51
67.3997770000
0
ARC
8
90000_FRAME
62
7
6
CONTINUOUS
10
464.4589740000
20
28.3947210000
40
10.6291640000
50
242.8620100000
51
247.1042030000
0
ARC
8
90000_FRAME
62
7
6
CONTINUOUS
10
460.6040730000
20
20.8607900000
40
2.1662920000
50
227.3119280000
51
242.7040320000
0
ARC
8
90000_FRAME
62
7
6
CONTINUOUS
10
460.0000420000
20
20.1551120000
40
1.2385220000
50
194.7952190000
51
225.7176550000
0
ARC
8
90000_FRAME
62
7
6
CONTINUOUS
10
460.6192240000
20
19.3070650000
40
2.3669250000
50
86.2218020000
51
120.4272600000
0
ARC
8
90000_FRAME
62
7
6
CONTINUOUS
10
460.3503670000
20
12.6108970000
40
9.0679050000
50
78.6827050000
51
87.3147600000
0
ARC
8
90000_FRAME
62
7
6
CONTINUOUS
10
460.2396070000
20
19.9962580000
40
1.5805470000
50
121.2140950000
51
141.5254770000
0
ARC
8
90000_FRAME
62
7
6
CONTINUOUS
10
460.8167820000
20
20.8073150000
40
0.8661280000
50
222.7760390000
51
239.0362430000
0
ARC
8
90000_FRAME
62
7
6
CONTINUOUS
10
458.3100720000
20
13.4770430000
40
6.8587740000
50
59.9020270000
51
68.2036480000
0
ARC
8
90000_FRAME
62
7
6
CONTINUOUS
10
461.7185670000
20
22.4029300000
40
2.6987410000
50
240.0482000000
51
251.3779670000
0
ARC
8
90000_FRAME
62
7
6
CONTINUOUS
10
461.0531090000
20
18.2460310000
40
1.4334470000
50
315.8904550000
51
333.5229260000
0
ARC
8
90000_FRAME
62
7
6
CONTINUOUS
10
461.0577480000
20
18.1926240000
40
1.4062290000
50
335.3867970000
51
24.3915120000
0
ARC
8
90000_FRAME
62
7
6
CONTINUOUS
10
460.9855430000
20
18.1147670000
40
1.5047030000
50
25.9562920000
51
59.4834830000
0
ARC
8
90000_FRAME
62
7
6
CONTINUOUS
10
460.0622000000
20
20.1953320000
40
1.3090920000
50
164.1974860000
51
195.8025140000
0
ARC
8
90000_FRAME
62
7
6
CONTINUOUS
10
459.8942980000
20
20.3028400000
40
1.1197470000
50
142.8139180000
51
167.1522950000
0
ARC
8
11000_LEFT
62
7
6
CONTINUOUS
10
-489.4646792516
20
232.0303128647
40
999.9999926109
50
359.4270570000
51
7.5851800000
0
ARC
8
11000_LEFT
62
7
6
CONTINUOUS
10
493.9186437484
20
361.8147828647
40
0.6500808190
50
339.4013520000
51
47.4908130000
0
ARC
8
11000_LEFT
62
7
6
CONTINUOUS
10
493.3983267484
20
362.4951188647
40
0.4999999906
50
47.4999990000
51
153.4782780000
0
ARC
8
11000_LEFT
62
7
6
CONTINUOUS
10
-497.8216302516
20
284.8028178647
40
996.9389391901
50
357.3777930000
51
3.7325540000
0
ARC
8
11000_LEFT
62
7
6
CONTINUOUS
10
506.8246387484
20
237.1419198647
40
0.4999999906
50
270.0000000000
51
80.0000000000
0
ARC
8
11000_LEFT
62
7
6
CONTINUOUS
10
438.7480777484
20
159.9970168647
40
72.0333322197
50
90.0000000000
51
127.6494200000
0
ARC
8
11000_LEFT
62
7
6
CONTINUOUS
10
384.0480987484
20
361.7303398647
40
2.3000000042
50
90.0000000000
51
180.0000000000
0
ARC
8
11000_LEFT
62
7
6
CONTINUOUS
10
387.2480977484
20
359.0303108647
40
0.9999999813
50
90.0000000000
51
180.0000000000
0
ARC
8
11000_LEFT
62
7
6
CONTINUOUS
10
387.7480907484
20
356.5303188647
40
3.4999997925
50
0.0000000000
51
90.0000000000
0
ARC
8
11000_LEFT
62
7
6
CONTINUOUS
10
469.8180807484
20
362.5435168647
40
146.5131962707
50
260.0245190000
51
270.7821490000
0
ARC
8
11000_LEFT
62
7
6
CONTINUOUS
10
409.9613667484
20
57.7711848647
40
164.1359090950
50
77.8747280000
51
82.5307420000
0
ARC
8
11000_LEFT
62
7
6
CONTINUOUS
10
412.6830997484
20
75.7059428647
40
146.0000008591
50
82.6748490000
51
90.9893780000
0
ARC
8
11000_LEFT
62
7
6
CONTINUOUS
10
411.0427197484
20
170.6917618647
40
50.9999991387
50
90.9893780000
51
103.0255140000
0
ARC
8
11000_LEFT
62
7
6
CONTINUOUS
10
411.0427197484
20
170.6917618647
40
49.9999996305
50
103.2907500000
51
104.5895360000
0
ARC
8
11000_LEFT
62
7
6
CONTINUOUS
10
387.2481697484
20
353.5307438647
40
17.0004125188
50
250.4098360000
51
269.9999960000
0
ARC
8
11000_LEFT
62
7
6
CONTINUOUS
10
-501.2084392516
20
284.8027208647
40
999.9936945458
50
357.2617780000
51
3.7037060000
0
ARC
8
11000_LEFT
62
7
6
CONTINUOUS
10
470.1881157484
20
348.4303288647
40
24.0000003071
50
2.4193540000
51
19.2368030000
0
ARC
8
11000_LEFT
62
7
6
CONTINUOUS
10
483.4063977484
20
353.0429348647
40
9.9999996233
50
19.2368030000
51
28.9999990000
0
ARC
8
11000_LEFT
62
7
6
CONTINUOUS
10
488.7480777484
20
362.6303338647
40
1.3999999738
50
328.0592810000
51
90.0000000000
0
ARC
8
11000_LEFT
62
7
6
CONTINUOUS
10
-489.4527132516
20
232.0301678647
40
996.0008181715
50
0.2653880000
51
0.3262650000
0
ARC
8
11000_LEFT
62
7
6
CONTINUOUS
10
497.3480857484
20
360.5303168647
40
8.6599999796
50
311.3191240000
51
311.4210370000
0
ARC
8
11000_LEFT
62
7
6
CONTINUOUS
10
-501.2084392516
20
284.8028178647
40
999.9999926109
50
3.7036770000
51
3.7227270000
0
ARC
8
11000_LEFT
62
7
6
CONTINUOUS
10
497.3480857484
20
360.5303168647
40
3.0000000384
50
154.7065880000
51
118.2934090000
0
ARC
8
11000_LEFT
62
7
6
CONTINUOUS
10
494.9290477484
20
362.8259128647
40
0.4999999906
50
277.4507390000
51
355.5492600000
0
CIRCLE
8
11000_LEFT
62
7
6
CONTINUOUS
10
497.3480857484
20
360.5303168647
40
1.7499998962
0
CIRCLE
8
20000_FRONT_O
62
7
6
CONTINUOUS
10
167.3359257484
20
331.0670958647
40
1.2899999522
0
ARC
8
20000_FRONT_O
62
7
6
CONTINUOUS
10
180.9409327484
20
262.6303348647
40
2.0018097100
50
6.2028230000
51
87.5634050000
0
CIRCLE
8
20000_FRONT_O
62
7
6
CONTINUOUS
10
180.9409327484
20
262.6303348647
40
0.9999999813
0
ARC
8
20000_FRONT_O
62
7
6
CONTINUOUS
10
167.3359257484
20
329.7303078647
40
1.8457789323
50
134.3306260000
51
45.6581250000
0
ENDSEC
0
EOF
