  0
SECTION
  2
HEADER
  9
$ACADVER
  1
AC1015
  9
$ACADMAINTVER
 70
    20
  9
$DWGCODEPAGE
  3
ANSI_1252
  9
$INSBASE
 10
0.0
 20
0.0
 30
0.0
  9
$EXTMIN
 10
104.6731578380256
 20
155.2315644887255
 30
-0.0000000000000053
  9
$EXTMAX
 10
374.7033700657814
 20
355.2470923632559
 30
0.0000000000000099
  9
$LIMMIN
 10
0.0
 20
0.0
  9
$LIMMAX
 10
420.0
 20
297.0
  9
$ORTHOMODE
 70
     1
  9
$REGENMODE
 70
     1
  9
$FILLMODE
 70
     1
  9
$QTEXTMODE
 70
     0
  9
$MIRRTEXT
 70
     0
  9
$LTSCALE
 40
1.0
  9
$ATTMODE
 70
     1
  9
$TEXTSIZE
 40
2.5
  9
$TRACEWID
 40
1.0
  9
$TEXTSTYLE
  7
Standard
  9
$CLAYER
  8
0
  9
$CELTYPE
  6
ByLayer
  9
$CECOLOR
 62
   256
  9
$CELTSCALE
 40
1.0
  9
$DISPSILH
 70
     0
  9
$DIMSCALE
 40
1.0
  9
$DIMASZ
 40
2.5
  9
$DIMEXO
 40
0.625
  9
$DIMDLI
 40
3.75
  9
$DIMRND
 40
0.0
  9
$DIMDLE
 40
0.0
  9
$DIMEXE
 40
1.25
  9
$DIMTP
 40
0.0
  9
$DIMTM
 40
0.0
  9
$DIMTXT
 40
2.5
  9
$DIMCEN
 40
2.5
  9
$DIMTSZ
 40
0.0
  9
$DIMTOL
 70
     0
  9
$DIMLIM
 70
     0
  9
$DIMTIH
 70
     0
  9
$DIMTOH
 70
     0
  9
$DIMSE1
 70
     0
  9
$DIMSE2
 70
     0
  9
$DIMTAD
 70
     1
  9
$DIMZIN
 70
     8
  9
$DIMBLK
  1

  9
$DIMASO
 70
     1
  9
$DIMSHO
 70
     1
  9
$DIMPOST
  1

  9
$DIMAPOST
  1

  9
$DIMALT
 70
     0
  9
$DIMALTD
 70
     3
  9
$DIMALTF
 40
0.03937007874016
  9
$DIMLFAC
 40
1.0
  9
$DIMTOFL
 70
     1
  9
$DIMTVP
 40
0.0
  9
$DIMTIX
 70
     0
  9
$DIMSOXD
 70
     0
  9
$DIMSAH
 70
     0
  9
$DIMBLK1
  1

  9
$DIMBLK2
  1

  9
$DIMSTYLE
  2
ISO-25
  9
$DIMCLRD
 70
     0
  9
$DIMCLRE
 70
     0
  9
$DIMCLRT
 70
     0
  9
$DIMTFAC
 40
1.0
  9
$DIMGAP
 40
0.625
  9
$DIMJUST
 70
     0
  9
$DIMSD1
 70
     0
  9
$DIMSD2
 70
     0
  9
$DIMTOLJ
 70
     0
  9
$DIMTZIN
 70
     8
  9
$DIMALTZ
 70
     0
  9
$DIMALTTZ
 70
     0
  9
$DIMUPT
 70
     0
  9
$DIMDEC
 70
     2
  9
$DIMTDEC
 70
     2
  9
$DIMALTU
 70
     2
  9
$DIMALTTD
 70
     3
  9
$DIMTXSTY
  7
Standard
  9
$DIMAUNIT
 70
     0
  9
$DIMADEC
 70
     0
  9
$DIMALTRND
 40
0.0
  9
$DIMAZIN
 70
     0
  9
$DIMDSEP
 70
    44
  9
$DIMATFIT
 70
     3
  9
$DIMFRAC
 70
     0
  9
$DIMLDRBLK
  1

  9
$DIMLUNIT
 70
     2
  9
$DIMLWD
 70
    -2
  9
$DIMLWE
 70
    -2
  9
$DIMTMOVE
 70
     0
  9
$LUNITS
 70
     2
  9
$LUPREC
 70
     4
  9
$SKETCHINC
 40
1.0
  9
$FILLETRAD
 40
10.0
  9
$AUNITS
 70
     0
  9
$AUPREC
 70
     0
  9
$MENU
  1
.
  9
$ELEVATION
 40
0.0
  9
$PELEVATION
 40
0.0
  9
$THICKNESS
 40
0.0
  9
$LIMCHECK
 70
     0
  9
$CHAMFERA
 40
10.0
  9
$CHAMFERB
 40
10.0
  9
$CHAMFERC
 40
20.0
  9
$CHAMFERD
 40
0.0
  9
$SKPOLY
 70
     0
  9
$TDCREATE
 40
2453438.354822963
  9
$TDUCREATE
 40
2453438.271489630
  9
$TDUPDATE
 40
2453502.433327246
  9
$TDUUPDATE
 40
2453502.349993912
  9
$TDINDWG
 40
0.5442818634
  9
$TDUSRTIMER
 40
0.5442798843
  9
$USRTIMER
 70
     1
  9
$ANGBASE
 50
0.0
  9
$ANGDIR
 70
     0
  9
$PDMODE
 70
     0
  9
$PDSIZE
 40
0.0
  9
$PLINEWID
 40
0.0
  9
$SPLFRAME
 70
     0
  9
$SPLINETYPE
 70
     6
  9
$SPLINESEGS
 70
     8
  9
$HANDSEED
  5
22FC
  9
$SURFTAB1
 70
     6
  9
$SURFTAB2
 70
     6
  9
$SURFTYPE
 70
     6
  9
$SURFU
 70
     6
  9
$SURFV
 70
     6
  9
$UCSBASE
  2

  9
$UCSNAME
  2

  9
$UCSORG
 10
0.0
 20
0.0
 30
0.0
  9
$UCSXDIR
 10
1.0
 20
0.0
 30
0.0
  9
$UCSYDIR
 10
0.0
 20
1.0
 30
0.0
  9
$UCSORTHOREF
  2

  9
$UCSORTHOVIEW
 70
     0
  9
$UCSORGTOP
 10
0.0
 20
0.0
 30
0.0
  9
$UCSORGBOTTOM
 10
0.0
 20
0.0
 30
0.0
  9
$UCSORGLEFT
 10
0.0
 20
0.0
 30
0.0
  9
$UCSORGRIGHT
 10
0.0
 20
0.0
 30
0.0
  9
$UCSORGFRONT
 10
0.0
 20
0.0
 30
0.0
  9
$UCSORGBACK
 10
0.0
 20
0.0
 30
0.0
  9
$PUCSBASE
  2

  9
$PUCSNAME
  2

  9
$PUCSORG
 10
0.0
 20
0.0
 30
0.0
  9
$PUCSXDIR
 10
1.0
 20
0.0
 30
0.0
  9
$PUCSYDIR
 10
0.0
 20
1.0
 30
0.0
  9
$PUCSORTHOREF
  2

  9
$PUCSORTHOVIEW
 70
     0
  9
$PUCSORGTOP
 10
0.0
 20
0.0
 30
0.0
  9
$PUCSORGBOTTOM
 10
0.0
 20
0.0
 30
0.0
  9
$PUCSORGLEFT
 10
0.0
 20
0.0
 30
0.0
  9
$PUCSORGRIGHT
 10
0.0
 20
0.0
 30
0.0
  9
$PUCSORGFRONT
 10
0.0
 20
0.0
 30
0.0
  9
$PUCSORGBACK
 10
0.0
 20
0.0
 30
0.0
  9
$USERI1
 70
     0
  9
$USERI2
 70
     0
  9
$USERI3
 70
     0
  9
$USERI4
 70
     0
  9
$USERI5
 70
     0
  9
$USERR1
 40
0.0
  9
$USERR2
 40
0.0
  9
$USERR3
 40
0.0
  9
$USERR4
 40
0.0
  9
$USERR5
 40
0.0
  9
$WORLDVIEW
 70
     1
  9
$SHADEDGE
 70
     3
  9
$SHADEDIF
 70
    70
  9
$TILEMODE
 70
     1
  9
$MAXACTVP
 70
    64
  9
$PINSBASE
 10
0.0
 20
0.0
 30
0.0
  9
$PLIMCHECK
 70
     0
  9
$PEXTMIN
 10
0.0
 20
0.0
 30
0.0
  9
$PEXTMAX
 10
0.0
 20
0.0
 30
0.0
  9
$PLIMMIN
 10
0.0
 20
0.0
  9
$PLIMMAX
 10
12.0
 20
9.0
  9
$UNITMODE
 70
     0
  9
$VISRETAIN
 70
     1
  9
$PLINEGEN
 70
     0
  9
$PSLTSCALE
 70
     1
  9
$TREEDEPTH
 70
  3020
  9
$CMLSTYLE
  2
Standard
  9
$CMLJUST
 70
     0
  9
$CMLSCALE
 40
20.0
  9
$PROXYGRAPHICS
 70
     1
  9
$MEASUREMENT
 70
     1
  9
$CELWEIGHT
370
    -1
  9
$ENDCAPS
280
     0
  9
$JOINSTYLE
280
     0
  9
$LWDISPLAY
290
     0
  9
$INSUNITS
 70
     4
  9
$HYPERLINKBASE
  1

  9
$STYLESHEET
  1

  9
$XEDIT
290
     1
  9
$CEPSNTYPE
380
     0
  9
$PSTYLEMODE
290
     1
  9
$FINGERPRINTGUID
  2
{FDEAD578-A652-11D2-9A35-0060089B3A3F}
  9
$VERSIONGUID
  2
{175F6151-586B-4098-A185-F45E6C4506C7}
  9
$EXTNAMES
290
     1
  9
$PSVPSCALE
 40
0.0
  9
$OLESTARTUP
290
     0
  0
ENDSEC
  0
SECTION
  2
CLASSES
  0
CLASS
  1
ACDBDICTIONARYWDFLT
  2
AcDbDictionaryWithDefault
  3
ObjectDBX Classes
 90
        0
280
     0
281
     0
  0
CLASS
  1
DICTIONARYVAR
  2
AcDbDictionaryVar
  3
ObjectDBX Classes
 90
        0
280
     0
281
     0
  0
CLASS
  1
ACDBPLACEHOLDER
  2
AcDbPlaceHolder
  3
ObjectDBX Classes
 90
        0
280
     0
281
     0
  0
CLASS
  1
LAYOUT
  2
AcDbLayout
  3
ObjectDBX Classes
 90
        0
280
     0
281
     0
  0
CLASS
  1
DIMASSOC
  2
AcDbDimAssoc
  3
"AcDbDimAssoc|Product Desc:     AcDim ARX App For Dimension|Company:          Autodesk, Inc.|WEB Address:      www.autodesk.com"
 90
        0
280
     0
281
     0
  0
ENDSEC
  0
SECTION
  2
TABLES
  0
TABLE
  2
VPORT
  5
8
330
0
100
AcDbSymbolTable
 70
     5
  0
VPORT
  5
22F1
330
8
100
AcDbSymbolTableRecord
100
AcDbViewportTableRecord
  2
*Active
 70
     0
 10
0.0
 20
0.0
 11
1.0
 21
1.0
 12
239.6882639519035
 22
255.2393284259907
 13
0.0
 23
0.0
 14
10.0
 24
10.0
 15
10.0
 25
10.0
 16
0.0
 26
0.0
 36
1.0
 17
0.0
 27
0.0
 37
0.0
 40
201.5580640792182
 41
1.571428571428571
 42
50.0
 43
0.0
 44
0.0
 50
0.0
 51
0.0
 71
     0
 72
  1000
 73
     1
 74
     3
 75
     0
 76
     0
 77
     0
 78
     0
281
     0
 65
     1
110
0.0
120
0.0
130
0.0
111
1.0
121
0.0
131
0.0
112
0.0
122
1.0
132
0.0
 79
     0
146
0.0
  0
ENDTAB
  0
TABLE
  2
LTYPE
  5
5
330
0
100
AcDbSymbolTable
 70
     2
  0
LTYPE
  5
14
330
5
100
AcDbSymbolTableRecord
100
AcDbLinetypeTableRecord
  2
ByBlock
 70
     0
  3

 72
    65
 73
     0
 40
0.0
  0
LTYPE
  5
15
330
5
100
AcDbSymbolTableRecord
100
AcDbLinetypeTableRecord
  2
ByLayer
 70
     0
  3

 72
    65
 73
     0
 40
0.0
  0
LTYPE
  5
16
330
5
100
AcDbSymbolTableRecord
100
AcDbLinetypeTableRecord
  2
Continuous
 70
     0
  3
Solid line
 72
    65
 73
     0
 40
0.0
  0
LTYPE
  5
F1
330
5
100
AcDbSymbolTableRecord
100
AcDbLinetypeTableRecord
  2
CENTER
 70
     0
  3
____ _ ____ _ ____ _ ____ _ ____ _ ____ _ ____
 72
    65
 73
     4
 40
2.0
 49
1.25
 74
     0
 49
-0.25
 74
     0
 49
0.25
 74
     0
 49
-0.25
 74
     0
  0
ENDTAB
  0
TABLE
  2
LAYER
  5
2
330
0
100
AcDbSymbolTable
 70
    12
  0
LAYER
  5
10
330
2
100
AcDbSymbolTableRecord
100
AcDbLayerTableRecord
  2
0
 70
     0
 62
     7
  6
Continuous
370
    -3
390
F
  0
LAYER
  5
F2
330
2
100
AcDbSymbolTableRecord
100
AcDbLayerTableRecord
  2
90000_FRAME
 70
     0
 62
     7
  6
Continuous
370
    -3
390
F
  0
LAYER
  5
F3
330
2
100
AcDbSymbolTableRecord
100
AcDbLayerTableRecord
  2
91000_TIP
 70
     0
 62
     7
  6
Continuous
370
    -3
390
F
  0
LAYER
  5
1BE
330
2
100
AcDbSymbolTableRecord
100
AcDbLayerTableRecord
  2
Defpoints
 70
     0
 62
     7
  6
Continuous
290
     0
370
    -3
390
F
  0
LAYER
  5
1BF
330
2
100
AcDbSymbolTableRecord
100
AcDbLayerTableRecord
  2
10000_Front
 70
     0
 62
     7
  6
Continuous
370
    -3
390
F
  0
LAYER
  5
1C0
330
2
100
AcDbSymbolTableRecord
100
AcDbLayerTableRecord
  2
10100_Front_Dim
 70
     0
 62
     7
  6
Continuous
370
    -3
390
F
  0
LAYER
  5
1C1
330
2
100
AcDbSymbolTableRecord
100
AcDbLayerTableRecord
  2
11000_Left
 70
     0
 62
     7
  6
Continuous
370
    -3
390
F
  0
LAYER
  5
1C3
330
2
100
AcDbSymbolTableRecord
100
AcDbLayerTableRecord
  2
11100_Left_Dim
 70
     0
 62
     7
  6
Continuous
370
    -3
390
F
  0
LAYER
  5
195B
330
2
100
AcDbSymbolTableRecord
100
AcDbLayerTableRecord
  2
L31
 70
     0
 62
     4
  6
Continuous
370
    -3
390
F
  0
LAYER
  5
195C
330
2
100
AcDbSymbolTableRecord
100
AcDbLayerTableRecord
  2
204
 70
     0
 62
     7
  6
Continuous
370
    -3
390
F
  0
LAYER
  5
195D
330
2
100
AcDbSymbolTableRecord
100
AcDbLayerTableRecord
  2
214
 70
     0
 62
     7
  6
Continuous
370
    -3
390
F
  0
LAYER
  5
1BEE
330
2
100
AcDbSymbolTableRecord
100
AcDbLayerTableRecord
  2
1
 70
     0
 62
     7
  6
Continuous
370
    -3
390
F
  0
ENDTAB
  0
TABLE
  2
STYLE
  5
3
330
0
100
AcDbSymbolTable
 70
     2
  0
STYLE
  5
11
330
3
100
AcDbSymbolTableRecord
100
AcDbTextStyleTableRecord
  2
Standard
 70
     0
 40
0.0
 41
1.0
 50
0.0
 71
     0
 42
2.5
  3
txt
  4

  0
STYLE
  5
195E
330
3
100
AcDbSymbolTableRecord
100
AcDbTextStyleTableRecord
  2
TAHOMA
 70
     0
 40
0.0
 41
1.0
 50
0.0
 71
     0
 42
2.5
  3
TAHOMA.TTF
  4

1001
ACAD
1000
Tahoma
1071
       34
  0
ENDTAB
  0
TABLE
  2
VIEW
  5
6
330
0
100
AcDbSymbolTable
 70
     0
  0
ENDTAB
  0
TABLE
  2
UCS
  5
7
330
0
100
AcDbSymbolTable
 70
     0
  0
ENDTAB
  0
TABLE
  2
APPID
  5
9
330
0
100
AcDbSymbolTable
 70
     1
  0
APPID
  5
12
330
9
100
AcDbSymbolTableRecord
100
AcDbRegAppTableRecord
  2
ACAD
 70
     0
  0
ENDTAB
  0
TABLE
  2
DIMSTYLE
  5
A
330
0
100
AcDbSymbolTable
 70
     4
100
AcDbDimStyleTable
 71
     2
340
1344
340
27
  0
DIMSTYLE
105
27
330
A
100
AcDbSymbolTableRecord
100
AcDbDimStyleTableRecord
  2
ISO-25
 70
     0
 41
2.5
 42
0.625
 43
3.75
 44
1.25
 73
     0
 74
     0
 77
     1
 78
     8
140
2.5
141
2.5
143
0.03937007874016
147
0.625
171
     3
172
     1
271
     2
272
     2
274
     3
278
    44
283
     0
284
     8
340
11
  0
DIMSTYLE
105
1C5
330
A
100
AcDbSymbolTableRecord
100
AcDbDimStyleTableRecord
  2
STANDARD
 70
     0
340
11
  0
DIMSTYLE
105
1344
102
{ACAD_REACTORS
330
1F2C
330
1F26
330
1F29
102
}
330
A
100
AcDbSymbolTableRecord
100
AcDbDimStyleTableRecord
  2
H035
 70
     0
 40
0.0
 41
2.5
 42
0.0
 43
3.75
 44
2.0
 73
     0
 74
     0
 77
     1
 78
     8
140
5.0
141
2.5
143
0.0394
147
1.0
171
     4
172
     1
176
   256
177
   256
178
     2
271
     0
272
     2
273
     8
274
     4
277
     6
340
11
  0
DIMSTYLE
105
195F
330
A
100
AcDbSymbolTableRecord
100
AcDbDimStyleTableRecord
  2
DSTYLE5
 70
     0
 41
3.0
 42
0.5
 44
1.0
 45
0.1
 73
     0
 74
     0
 78
     7
140
3.0
143
1.0
147
0.69999997
271
     0
272
     0
279
     2
340
11
371
     9
372
     9
  0
ENDTAB
  0
TABLE
  2
BLOCK_RECORD
  5
1
330
0
100
AcDbSymbolTable
 70
    23
  0
BLOCK_RECORD
  5
1F
330
1
100
AcDbSymbolTableRecord
100
AcDbBlockTableRecord
  2
*Model_Space
340
22
  0
BLOCK_RECORD
  5
50
330
1
100
AcDbSymbolTableRecord
100
AcDbBlockTableRecord
  2
*Paper_Space
340
51
  0
BLOCK_RECORD
  5
55
330
1
100
AcDbSymbolTableRecord
100
AcDbBlockTableRecord
  2
*Paper_Space0
340
56
  0
BLOCK_RECORD
  5
86
330
1
100
AcDbSymbolTableRecord
100
AcDbBlockTableRecord
  2
SIEMENS_OUTLINE_BL0
340
0
102
{BLKREFS
331
15C
102
}
  0
BLOCK_RECORD
  5
16A7
330
1
100
AcDbSymbolTableRecord
100
AcDbBlockTableRecord
  2
*D2
340
0
  0
BLOCK_RECORD
  5
16BD
330
1
100
AcDbSymbolTableRecord
100
AcDbBlockTableRecord
  2
*D3
340
0
  0
BLOCK_RECORD
  5
16D5
330
1
100
AcDbSymbolTableRecord
100
AcDbBlockTableRecord
  2
*D4
340
0
  0
BLOCK_RECORD
  5
16F1
330
1
100
AcDbSymbolTableRecord
100
AcDbBlockTableRecord
  2
*D5
340
0
  0
BLOCK_RECORD
  5
1709
330
1
100
AcDbSymbolTableRecord
100
AcDbBlockTableRecord
  2
*D6
340
0
  0
BLOCK_RECORD
  5
1721
330
1
100
AcDbSymbolTableRecord
100
AcDbBlockTableRecord
  2
*D7
340
0
  0
BLOCK_RECORD
  5
1A1E
330
1
100
AcDbSymbolTableRecord
100
AcDbBlockTableRecord
  2
*D8
340
0
  0
BLOCK_RECORD
  5
1A36
330
1
100
AcDbSymbolTableRecord
100
AcDbBlockTableRecord
  2
*D9
340
0
  0
BLOCK_RECORD
  5
1A4C
330
1
100
AcDbSymbolTableRecord
100
AcDbBlockTableRecord
  2
*D10
340
0
  0
BLOCK_RECORD
  5
1A64
330
1
100
AcDbSymbolTableRecord
100
AcDbBlockTableRecord
  2
*D11
340
0
  0
BLOCK_RECORD
  5
1A80
330
1
100
AcDbSymbolTableRecord
100
AcDbBlockTableRecord
  2
*D12
340
0
  0
BLOCK_RECORD
  5
1A98
330
1
100
AcDbSymbolTableRecord
100
AcDbBlockTableRecord
  2
*D13
340
0
  0
BLOCK_RECORD
  5
1AB0
330
1
100
AcDbSymbolTableRecord
100
AcDbBlockTableRecord
  2
*D14
340
0
  0
BLOCK_RECORD
  5
1AC8
330
1
100
AcDbSymbolTableRecord
100
AcDbBlockTableRecord
  2
*D15
340
0
  0
BLOCK_RECORD
  5
1BC7
330
1
100
AcDbSymbolTableRecord
100
AcDbBlockTableRecord
  2
*D16
340
0
  0
BLOCK_RECORD
  5
1BD4
330
1
100
AcDbSymbolTableRecord
100
AcDbBlockTableRecord
  2
*D17
340
0
  0
BLOCK_RECORD
  5
1BE1
330
1
100
AcDbSymbolTableRecord
100
AcDbBlockTableRecord
  2
*D18
340
0
  0
BLOCK_RECORD
  5
2259
330
1
100
AcDbSymbolTableRecord
100
AcDbBlockTableRecord
  2
*D20
340
0
  0
BLOCK_RECORD
  5
2266
330
1
100
AcDbSymbolTableRecord
100
AcDbBlockTableRecord
  2
*D21
340
0
  0
BLOCK_RECORD
  5
2273
330
1
100
AcDbSymbolTableRecord
100
AcDbBlockTableRecord
  2
*D22
340
0
  0
ENDTAB
  0
ENDSEC
  0
SECTION
  2
BLOCKS
  0
BLOCK
  5
20
330
1F
100
AcDbEntity
  8
0
100
AcDbBlockBegin
  2
*Model_Space
 70
     0
 10
0.0
 20
0.0
 30
0.0
  3
*Model_Space
  1

  0
ENDBLK
  5
21
330
1F
100
AcDbEntity
  8
0
100
AcDbBlockEnd
  0
BLOCK
  5
52
330
50
100
AcDbEntity
 67
     1
  8
0
100
AcDbBlockBegin
  2
*Paper_Space
 70
     0
 10
0.0
 20
0.0
 30
0.0
  3
*Paper_Space
  1

  0
ENDBLK
  5
53
330
50
100
AcDbEntity
 67
     1
  8
0
100
AcDbBlockEnd
  0
BLOCK
  5
57
330
55
100
AcDbEntity
  8
0
100
AcDbBlockBegin
  2
*Paper_Space0
 70
     0
 10
0.0
 20
0.0
 30
0.0
  3
*Paper_Space0
  1

  0
ENDBLK
  5
58
330
55
100
AcDbEntity
  8
0
100
AcDbBlockEnd
  0
BLOCK
  5
87
330
86
100
AcDbEntity
  8
0
  6
Continuous
 62
     7
100
AcDbBlockBegin
  2
SIEMENS_OUTLINE_BL0
 70
     0
 10
0.0
 20
0.0
 30
0.0
  3
SIEMENS_OUTLINE_BL0
  1

  0
LINE
  5
88
330
86
100
AcDbEntity
  8
0
  6
Continuous
 62
     7
100
AcDbLine
 10
79.186200508
 20
21.4145478991
 30
0.0
 11
79.186200508
 21
16.6612788158
 31
0.0
  0
LINE
  5
89
330
86
100
AcDbEntity
  8
0
  6
Continuous
 62
     7
100
AcDbLine
 10
80.61218123299999
 20
21.4145478991
 30
0.0
 11
80.61218123299999
 21
16.6612788158
 31
0.0
  0
LINE
  5
8A
330
86
100
AcDbEntity
  8
0
  6
Continuous
 62
     7
100
AcDbLine
 10
79.186200508
 20
16.6612788158
 30
0.0
 11
80.61218123299999
 21
16.6612788158
 31
0.0
  0
LINE
  5
8B
330
86
100
AcDbEntity
  8
0
  6
Continuous
 62
     7
100
AcDbLine
 10
79.186200508
 20
21.4145478991
 30
0.0
 11
80.61218123299999
 21
21.4145478991
 31
0.0
  0
LINE
  5
8C
330
86
100
AcDbEntity
  8
0
  6
Continuous
 62
     7
100
AcDbLine
 10
81.7054331221
 20
21.4145478991
 30
0.0
 11
81.7054331221
 21
16.6612788158
 31
0.0
  0
LINE
  5
8D
330
86
100
AcDbEntity
  8
0
  6
Continuous
 62
     7
100
AcDbLine
 10
81.7054331221
 20
16.6612788158
 30
0.0
 11
85.2703849346
 21
16.6612788158
 31
0.0
  0
LINE
  5
8E
330
86
100
AcDbEntity
  8
0
  6
Continuous
 62
     7
100
AcDbLine
 10
85.2703849346
 20
17.5643999417
 30
0.0
 11
83.0838811563
 21
17.5643999417
 31
0.0
  0
LINE
  5
8F
330
86
100
AcDbEntity
  8
0
  6
Continuous
 62
     7
100
AcDbLine
 10
85.2703849346
 20
17.5643999417
 30
0.0
 11
85.2703849346
 21
16.6612788158
 31
0.0
  0
LINE
  5
90
330
86
100
AcDbEntity
  8
0
  6
Continuous
 62
     7
100
AcDbLine
 10
85.2228522438
 20
21.4145478991
 30
0.0
 11
81.7054331221
 21
21.4145478991
 31
0.0
  0
LINE
  5
91
330
86
100
AcDbEntity
  8
0
  6
Continuous
 62
     7
100
AcDbLine
 10
85.2228522438
 20
20.5351931187
 30
0.0
 11
83.0838811563
 21
20.5351931187
 31
0.0
  0
LINE
  5
92
330
86
100
AcDbEntity
  8
0
  6
Continuous
 62
     7
100
AcDbLine
 10
85.2228522438
 20
21.4145478991
 30
0.0
 11
85.2228522438
 21
20.5351931187
 31
0.0
  0
LINE
  5
93
330
86
100
AcDbEntity
  8
0
  6
Continuous
 62
     7
100
AcDbLine
 10
84.9376560988
 20
18.68141817619999
 30
0.0
 11
83.0838811563
 21
18.68141817619999
 31
0.0
  0
LINE
  5
94
330
86
100
AcDbEntity
  8
0
  6
Continuous
 62
     7
100
AcDbLine
 10
84.9376560988
 20
19.465707575
 30
0.0
 11
84.9376560988
 21
18.68141817619999
 31
0.0
  0
LINE
  5
95
330
86
100
AcDbEntity
  8
0
  6
Continuous
 62
     7
100
AcDbLine
 10
84.9376560988
 20
19.465707575
 30
0.0
 11
83.0838811563
 21
19.465707575
 31
0.0
  0
LINE
  5
96
330
86
100
AcDbEntity
  8
0
  6
Continuous
 62
     7
100
AcDbLine
 10
83.0838811563
 20
20.5351931187
 30
0.0
 11
83.0838811563
 21
19.465707575
 31
0.0
  0
LINE
  5
97
330
86
100
AcDbEntity
  8
0
  6
Continuous
 62
     7
100
AcDbLine
 10
83.0838811563
 20
18.68141817619999
 30
0.0
 11
83.0838811563
 21
17.5643999417
 31
0.0
  0
LINE
  5
98
330
86
100
AcDbEntity
  8
0
  6
Continuous
 62
     7
100
AcDbLine
 10
86.0784406788
 20
16.6612788158
 30
0.0
 11
86.0784406788
 21
21.4145478991
 31
0.0
  0
LINE
  5
99
330
86
100
AcDbEntity
  8
0
  6
Continuous
 62
     7
100
AcDbLine
 10
86.0784406788
 20
16.6612788158
 30
0.0
 11
87.02909449539999
 21
16.6612788158
 31
0.0
  0
LINE
  5
9A
330
86
100
AcDbEntity
  8
0
  6
Continuous
 62
     7
100
AcDbLine
 10
91.92496165120001
 20
21.4145478991
 30
0.0
 11
91.92496165120001
 21
16.6612788158
 31
0.0
  0
LINE
  5
9B
330
86
100
AcDbEntity
  8
0
  6
Continuous
 62
     7
100
AcDbLine
 10
91.92496165120001
 20
16.6612788158
 30
0.0
 11
90.54651361700001
 21
16.6612788158
 31
0.0
  0
LINE
  5
9C
330
86
100
AcDbEntity
  8
0
  6
Continuous
 62
     7
100
AcDbLine
 10
88.3600098387
 20
16.613746125
 30
0.0
 11
89.21559827370002
 21
16.613746125
 31
0.0
  0
LINE
  5
9D
330
86
100
AcDbEntity
  8
0
  6
Continuous
 62
     7
100
AcDbLine
 10
88.3600098387
 20
16.613746125
 30
0.0
 11
87.02909449539999
 21
19.7033710291
 31
0.0
  0
LINE
  5
9E
330
86
100
AcDbEntity
  8
0
  6
Continuous
 62
     7
100
AcDbLine
 10
87.02909449539999
 20
16.6612788158
 30
0.0
 11
87.02909449539999
 21
19.7033710291
 31
0.0
  0
LINE
  5
9F
330
86
100
AcDbEntity
  8
0
  6
Continuous
 62
     7
100
AcDbLine
 10
90.54651361700001
 20
19.75090372
 30
0.0
 11
89.21559827370002
 21
16.613746125
 31
0.0
  0
LINE
  5
A0
330
86
100
AcDbEntity
  8
0
  6
Continuous
 62
     7
100
AcDbLine
 10
87.78961754870001
 20
21.4145478991
 30
0.0
 11
86.0784406788
 21
21.4145478991
 31
0.0
  0
LINE
  5
A1
330
86
100
AcDbEntity
  8
0
  6
Continuous
 62
     7
100
AcDbLine
 10
91.92496165120001
 20
21.4145478991
 30
0.0
 11
90.2137847812
 21
21.4145478991
 31
0.0
  0
LINE
  5
A2
330
86
100
AcDbEntity
  8
0
  6
Continuous
 62
     7
100
AcDbLine
 10
87.78961754870001
 20
21.4145478991
 30
0.0
 11
89.0254675104
 21
18.5150537583
 31
0.0
  0
LINE
  5
A3
330
86
100
AcDbEntity
  8
0
  6
Continuous
 62
     7
100
AcDbLine
 10
90.2137847812
 20
21.4145478991
 30
0.0
 11
89.0254675104
 21
18.5150537583
 31
0.0
  0
LINE
  5
A4
330
86
100
AcDbEntity
  8
0
  6
Continuous
 62
     7
100
AcDbLine
 10
90.54651361700001
 20
19.75090372
 30
0.0
 11
90.54651361700001
 21
16.6612788158
 31
0.0
  0
LINE
  5
A5
330
86
100
AcDbEntity
  8
0
  6
Continuous
 62
     7
100
AcDbLine
 10
93.01821354030002
 20
21.4145478991
 30
0.0
 11
93.01821354030002
 21
16.6612788158
 31
0.0
  0
LINE
  5
A6
330
86
100
AcDbEntity
  8
0
  6
Continuous
 62
     7
100
AcDbLine
 10
93.01821354030002
 20
16.6612788158
 30
0.0
 11
96.5831653528
 21
16.6612788158
 31
0.0
  0
LINE
  5
A7
330
86
100
AcDbEntity
  8
0
  6
Continuous
 62
     7
100
AcDbLine
 10
96.5831653528
 20
17.5643999417
 30
0.0
 11
94.3966615745
 21
17.5643999417
 31
0.0
  0
LINE
  5
A8
330
86
100
AcDbEntity
  8
0
  6
Continuous
 62
     7
100
AcDbLine
 10
96.5831653528
 20
17.5643999417
 30
0.0
 11
96.5831653528
 21
16.6612788158
 31
0.0
  0
LINE
  5
A9
330
86
100
AcDbEntity
  8
0
  6
Continuous
 62
     7
100
AcDbLine
 10
96.53563266200002
 20
21.4145478991
 30
0.0
 11
93.01821354030002
 21
21.4145478991
 31
0.0
  0
LINE
  5
AA
330
86
100
AcDbEntity
  8
0
  6
Continuous
 62
     7
100
AcDbLine
 10
96.53563266200002
 20
20.5351931187
 30
0.0
 11
94.3966615745
 21
20.5351931187
 31
0.0
  0
LINE
  5
AB
330
86
100
AcDbEntity
  8
0
  6
Continuous
 62
     7
100
AcDbLine
 10
96.53563266200002
 20
21.4145478991
 30
0.0
 11
96.53563266200002
 21
20.5351931187
 31
0.0
  0
LINE
  5
AC
330
86
100
AcDbEntity
  8
0
  6
Continuous
 62
     7
100
AcDbLine
 10
96.25043651700002
 20
18.68141817619999
 30
0.0
 11
94.3966615745
 21
18.68141817619999
 31
0.0
  0
LINE
  5
AD
330
86
100
AcDbEntity
  8
0
  6
Continuous
 62
     7
100
AcDbLine
 10
96.25043651700002
 20
19.465707575
 30
0.0
 11
96.25043651700002
 21
18.68141817619999
 31
0.0
  0
LINE
  5
AE
330
86
100
AcDbEntity
  8
0
  6
Continuous
 62
     7
100
AcDbLine
 10
96.25043651700002
 20
19.465707575
 30
0.0
 11
94.3966615745
 21
19.465707575
 31
0.0
  0
LINE
  5
AF
330
86
100
AcDbEntity
  8
0
  6
Continuous
 62
     7
100
AcDbLine
 10
94.3966615745
 20
20.5351931187
 30
0.0
 11
94.3966615745
 21
19.465707575
 31
0.0
  0
LINE
  5
B0
330
86
100
AcDbEntity
  8
0
  6
Continuous
 62
     7
100
AcDbLine
 10
94.3966615745
 20
18.68141817619999
 30
0.0
 11
94.3966615745
 21
17.5643999417
 31
0.0
  0
LINE
  5
B1
330
86
100
AcDbEntity
  8
0
  6
Continuous
 62
     7
100
AcDbLine
 10
97.3674547515
 20
16.6612788158
 30
0.0
 11
97.3674547515
 21
21.4145478991
 31
0.0
  0
LINE
  5
B2
330
86
100
AcDbEntity
  8
0
  6
Continuous
 62
     7
100
AcDbLine
 10
101.5503315448
 20
21.4145478991
 30
0.0
 11
101.5503315448
 21
16.6612788158
 31
0.0
  0
LINE
  5
B3
330
86
100
AcDbEntity
  8
0
  6
Continuous
 62
     7
100
AcDbLine
 10
97.3674547515
 20
16.6612788158
 30
0.0
 11
98.3181085682
 21
16.6612788158
 31
0.0
  0
LINE
  5
B4
330
86
100
AcDbEntity
  8
0
  6
Continuous
 62
     7
100
AcDbLine
 10
101.5503315448
 20
21.4145478991
 30
0.0
 11
100.5996777282
 21
21.4145478991
 31
0.0
  0
LINE
  5
B5
330
86
100
AcDbEntity
  8
0
  6
Continuous
 62
     7
100
AcDbLine
 10
98.91226720360002
 20
21.4145478991
 30
0.0
 11
97.3674547515
 21
21.4145478991
 31
0.0
  0
LINE
  5
B6
330
86
100
AcDbEntity
  8
0
  6
Continuous
 62
     7
100
AcDbLine
 10
101.5503315448
 20
16.6612788158
 30
0.0
 11
100.0292854382
 21
16.6612788158
 31
0.0
  0
LINE
  5
B7
330
86
100
AcDbEntity
  8
0
  6
Continuous
 62
     7
100
AcDbLine
 10
100.0292854382
 20
16.6612788158
 30
0.0
 11
98.3181085682
 21
19.7033710291
 31
0.0
  0
LINE
  5
B8
330
86
100
AcDbEntity
  8
0
  6
Continuous
 62
     7
100
AcDbLine
 10
98.91226720360002
 20
21.4145478991
 30
0.0
 11
100.5996777282
 21
18.4675210675
 31
0.0
  0
LINE
  5
B9
330
86
100
AcDbEntity
  8
0
  6
Continuous
 62
     7
100
AcDbLine
 10
100.5996777282
 20
21.4145478991
 30
0.0
 11
100.5996777282
 21
18.4675210675
 31
0.0
  0
LINE
  5
BA
330
86
100
AcDbEntity
  8
0
  6
Continuous
 62
     7
100
AcDbLine
 10
98.3181085682
 20
16.6612788158
 30
0.0
 11
98.3181085682
 21
19.7033710291
 31
0.0
  0
LINE
  5
BB
330
86
100
AcDbEntity
  8
0
  6
Continuous
 62
     7
100
AcDbLine
 10
102.358387289
 20
16.7563441975
 30
0.0
 11
102.358387289
 21
17.7069980142
 31
0.0
  0
LINE
  5
BC
330
86
100
AcDbEntity
  8
0
  6
Continuous
 62
     7
100
AcDbLine
 10
105.6856756473
 20
20.4163613916
 30
0.0
 11
105.6856756473
 21
21.3670152083
 31
0.0
  0
ARC
  5
BD
330
86
100
AcDbEntity
  8
0
  6
Continuous
 62
     7
100
AcDbCircle
 10
104.063028414
 20
18.6184373609
 30
0.0
 40
1.111619360599997
100
AcDbArc
 50
277.7099956934
 51
295.6884927746
  0
ARC
  5
BE
330
86
100
AcDbEntity
  8
0
  6
Continuous
 62
     7
100
AcDbCircle
 10
104.3473383967
 20
17.8936115972
 30
0.0
 40
0.3401689265
100
AcDbArc
 50
305.503221255
 51
72.46528985229999
  0
ARC
  5
BF
330
86
100
AcDbEntity
  8
0
  6
Continuous
 62
     7
100
AcDbCircle
 10
103.7813445886
 20
21.2953185068
 30
0.0
 40
4.756794641099999
100
AcDbArc
 50
252.5939200548001
 51
280.9816604256
  0
ARC
  5
C0
330
86
100
AcDbEntity
  8
0
  6
Continuous
 62
     7
100
AcDbCircle
 10
104.2361799517
 20
18.6773047703
 30
0.0
 40
2.100726595299998
100
AcDbArc
 50
282.405835852
 51
311.8644433928
  0
ARC
  5
C1
330
86
100
AcDbEntity
  8
0
  6
Continuous
 62
     7
100
AcDbCircle
 10
103.9626156046
 20
20.2856464918
 30
0.0
 40
0.3029626476
100
AcDbArc
 50
154.4400348282
 51
221.8201698801
  0
ARC
  5
C2
330
86
100
AcDbEntity
  8
0
  6
Continuous
 62
     7
100
AcDbCircle
 10
104.0418367559
 20
20.2064253405
 30
0.0
 40
0.4103089737
100
AcDbArc
 50
102.8287828681
 51
149.2259639003
  0
ARC
  5
C3
330
86
100
AcDbEntity
  8
0
  6
Continuous
 62
     7
100
AcDbCircle
 10
104.4588635916
 20
18.4640900106
 30
0.0
 40
2.201836557
100
AcDbArc
 50
84.0400061857
 51
103.3427657870999
  0
ARC
  5
C4
330
86
100
AcDbEntity
  8
0
  6
Continuous
 62
     7
100
AcDbCircle
 10
104.1178997669
 20
16.0467260867
 30
0.0
 40
4.642373736499997
100
AcDbArc
 50
70.2625858546
 51
82.95241863799999
  0
ARC
  5
C5
330
86
100
AcDbEntity
  8
0
  6
Continuous
 62
     7
100
AcDbCircle
 10
103.6038815647
 20
20.7183489764
 30
0.0
 40
3.258755990899997
100
AcDbArc
 50
247.5300206145
 51
280.7579522143
  0
ARC
  5
C6
330
86
100
AcDbEntity
  8
0
  6
Continuous
 62
     7
100
AcDbCircle
 10
97.21891509270001
 20
2.4668290159
 30
0.0
 40
17.3316084133
100
AcDbArc
 50
65.34146746500001
 51
67.39977707359999
  0
ARC
  5
C7
330
86
100
AcDbEntity
  8
0
  6
Continuous
 62
     7
100
AcDbCircle
 10
108.0147774981
 20
28.259255379
 30
0.0
 40
10.6291642039
100
AcDbArc
 50
242.8620101252001
 51
247.1042029186
  0
ARC
  5
C8
330
86
100
AcDbEntity
  8
0
  6
Continuous
 62
     7
100
AcDbCircle
 10
104.1598762715
 20
20.725323882
 30
0.0
 40
2.166291629199998
100
AcDbArc
 50
227.3119280794
 51
242.7040315235
  0
ARC
  5
C9
330
86
100
AcDbEntity
  8
0
  6
Continuous
 62
     7
100
AcDbCircle
 10
103.5558454619
 20
20.0196462412
 30
0.0
 40
1.238521734
100
AcDbArc
 50
194.7952194236
 51
225.7176549047
  0
ARC
  5
CA
330
86
100
AcDbEntity
  8
0
  6
Continuous
 62
     7
100
AcDbCircle
 10
103.6180035961
 20
20.0598662104
 30
0.0
 40
1.309092072899999
100
AcDbArc
 50
164.1974860461
 51
195.8025139539
  0
ARC
  5
CB
330
86
100
AcDbEntity
  8
0
  6
Continuous
 62
     7
100
AcDbCircle
 10
104.1750273167
 20
19.1715990505
 30
0.0
 40
2.366924815299999
100
AcDbArc
 50
86.22180229280001
 51
120.4272602309
  0
ARC
  5
CC
330
86
100
AcDbEntity
  8
0
  6
Continuous
 62
     7
100
AcDbCircle
 10
103.9061705342
 20
12.4754312294
 30
0.0
 40
9.0679051661
100
AcDbArc
 50
78.68270492259998
 51
87.3147599624
  0
ARC
  5
CD
330
86
100
AcDbEntity
  8
0
  6
Continuous
 62
     7
100
AcDbCircle
 10
103.4501013558
 20
20.1673739729
 30
0.0
 40
1.119747444
100
AcDbArc
 50
142.813917903
 51
167.1522951417
  0
ARC
  5
CE
330
86
100
AcDbEntity
  8
0
  6
Continuous
 62
     7
100
AcDbCircle
 10
103.7954106974
 20
19.8607922762
 30
0.0
 40
1.580546684499998
100
AcDbArc
 50
121.2140948535
 51
141.5254768286
  0
ARC
  5
CF
330
86
100
AcDbEntity
  8
0
  6
Continuous
 62
     7
100
AcDbCircle
 10
104.372585063
 20
20.6718496049
 30
0.0
 40
0.8661276051999998
100
AcDbArc
 50
222.7760387596
 51
239.0362434679
  0
ARC
  5
D0
330
86
100
AcDbEntity
  8
0
  6
Continuous
 62
     7
100
AcDbCircle
 10
101.8658754847
 20
13.3415774063
 30
0.0
 40
6.858773576299999
100
AcDbArc
 50
59.90202725600001
 51
68.2036481279
  0
ARC
  5
D1
330
86
100
AcDbEntity
  8
0
  6
Continuous
 62
     7
100
AcDbCircle
 10
105.2743699785
 20
22.2674639135
 30
0.0
 40
2.698741017099999
100
AcDbArc
 50
240.0481997804
 51
251.3779673736999
  0
ARC
  5
D2
330
86
100
AcDbEntity
  8
0
  6
Continuous
 62
     7
100
AcDbCircle
 10
104.6089128117
 20
18.1105652982
 30
0.0
 40
1.4334474881
100
AcDbArc
 50
315.8904553224
 51
333.5229264373
  0
ARC
  5
D3
330
86
100
AcDbEntity
  8
0
  6
Continuous
 62
     7
100
AcDbCircle
 10
104.6135510555
 20
18.057158148
 30
0.0
 40
1.406228711899998
100
AcDbArc
 50
335.3867972702
 51
24.3915119402
  0
ARC
  5
D4
330
86
100
AcDbEntity
  8
0
  6
Continuous
 62
     7
100
AcDbCircle
 10
104.5413461519
 20
17.9793014562
 30
0.0
 40
1.504702514799999
100
AcDbArc
 50
25.95629166050001
 51
59.4834829668
  0
LINE
  5
D5
330
86
100
AcDbEntity
  8
0
  6
Continuous
 62
     7
100
AcDbLine
 10
74.7656602606
 20
16.7563441975
 30
0.0
 11
74.7656602606
 21
17.7069980142
 31
0.0
  0
LINE
  5
D6
330
86
100
AcDbEntity
  8
0
  6
Continuous
 62
     7
100
AcDbLine
 10
78.09294861879997
 20
20.4163613916
 30
0.0
 11
78.09294861879997
 21
21.3670152083
 31
0.0
  0
ARC
  5
D7
330
86
100
AcDbEntity
  8
0
  6
Continuous
 62
     7
100
AcDbCircle
 10
76.4703013855
 20
18.6184373609
 30
0.0
 40
1.111619360599997
100
AcDbArc
 50
277.7099956934
 51
295.6884927746
  0
ARC
  5
D8
330
86
100
AcDbEntity
  8
0
  6
Continuous
 62
     7
100
AcDbCircle
 10
76.7546113683
 20
17.8936115972
 30
0.0
 40
0.3401689265
100
AcDbArc
 50
305.5032212556
 51
72.4652898515
  0
ARC
  5
D9
330
86
100
AcDbEntity
  8
0
  6
Continuous
 62
     7
100
AcDbCircle
 10
76.1886175602
 20
21.2953185068
 30
0.0
 40
4.756794641099999
100
AcDbArc
 50
252.5939200545
 51
280.9816604253
  0
ARC
  5
DA
330
86
100
AcDbEntity
  8
0
  6
Continuous
 62
     7
100
AcDbCircle
 10
76.64345292330001
 20
18.6773047703
 30
0.0
 40
2.100726595299998
100
AcDbArc
 50
282.4058358513
 51
311.8644433923
  0
ARC
  5
DB
330
86
100
AcDbEntity
  8
0
  6
Continuous
 62
     7
100
AcDbCircle
 10
76.3698885762
 20
20.2856464918
 30
0.0
 40
0.3029626476
100
AcDbArc
 50
154.4400348282
 51
221.8201698801
  0
ARC
  5
DC
330
86
100
AcDbEntity
  8
0
  6
Continuous
 62
     7
100
AcDbCircle
 10
76.4491097276
 20
20.2064253405
 30
0.0
 40
0.4103089737
100
AcDbArc
 50
102.8287828727
 51
149.2259639027
  0
ARC
  5
DD
330
86
100
AcDbEntity
  8
0
  6
Continuous
 62
     7
100
AcDbCircle
 10
76.8661365632
 20
18.4640900106
 30
0.0
 40
2.201836557
100
AcDbArc
 50
84.0400061859
 51
103.3427657872
  0
ARC
  5
DE
330
86
100
AcDbEntity
  8
0
  6
Continuous
 62
     7
100
AcDbCircle
 10
76.5251727384
 20
16.0467260867
 30
0.0
 40
4.642373736499997
100
AcDbArc
 50
70.2625858546
 51
82.9524186379
  0
ARC
  5
DF
330
86
100
AcDbEntity
  8
0
  6
Continuous
 62
     7
100
AcDbCircle
 10
76.0111545363
 20
20.7183489764
 30
0.0
 40
3.258755990899997
100
AcDbArc
 50
247.5300206148
 51
280.7579522145
  0
ARC
  5
E0
330
86
100
AcDbEntity
  8
0
  6
Continuous
 62
     7
100
AcDbCircle
 10
69.6261880643
 20
2.4668290159
 30
0.0
 40
17.3316084133
100
AcDbArc
 50
65.34146746500001
 51
67.39977707359999
  0
ARC
  5
E1
330
86
100
AcDbEntity
  8
0
  6
Continuous
 62
     7
100
AcDbCircle
 10
80.4220504697
 20
28.259255379
 30
0.0
 40
10.6291642039
100
AcDbArc
 50
242.8620101252001
 51
247.1042029185
  0
ARC
  5
E2
330
86
100
AcDbEntity
  8
0
  6
Continuous
 62
     7
100
AcDbCircle
 10
76.56714924310001
 20
20.725323882
 30
0.0
 40
2.166291629199998
100
AcDbArc
 50
227.3119280794
 51
242.7040315235
  0
ARC
  5
E3
330
86
100
AcDbEntity
  8
0
  6
Continuous
 62
     7
100
AcDbCircle
 10
75.9631184335
 20
20.0196462412
 30
0.0
 40
1.238521734
100
AcDbArc
 50
194.7952194234
 51
225.7176549042
  0
ARC
  5
E4
330
86
100
AcDbEntity
  8
0
  6
Continuous
 62
     7
100
AcDbCircle
 10
76.58230028830002
 20
19.1715990505
 30
0.0
 40
2.366924815299999
100
AcDbArc
 50
86.22180229280001
 51
120.4272602309
  0
ARC
  5
E5
330
86
100
AcDbEntity
  8
0
  6
Continuous
 62
     7
100
AcDbCircle
 10
76.3134435058
 20
12.4754312294
 30
0.0
 40
9.0679051661
100
AcDbArc
 50
78.68270492259998
 51
87.3147599624
  0
ARC
  5
E6
330
86
100
AcDbEntity
  8
0
  6
Continuous
 62
     7
100
AcDbCircle
 10
76.20268366899998
 20
19.8607922762
 30
0.0
 40
1.580546684599998
100
AcDbArc
 50
121.2140948541
 51
141.525476829
  0
ARC
  5
E7
330
86
100
AcDbEntity
  8
0
  6
Continuous
 62
     7
100
AcDbCircle
 10
76.7798580346
 20
20.6718496049
 30
0.0
 40
0.8661276051999998
100
AcDbArc
 50
222.7760387596
 51
239.0362434679
  0
ARC
  5
E8
330
86
100
AcDbEntity
  8
0
  6
Continuous
 62
     7
100
AcDbCircle
 10
74.2731484563
 20
13.3415774063
 30
0.0
 40
6.858773576299999
100
AcDbArc
 50
59.90202725620001
 51
68.20364812820002
  0
ARC
  5
E9
330
86
100
AcDbEntity
  8
0
  6
Continuous
 62
     7
100
AcDbCircle
 10
77.6816429501
 20
22.2674639135
 30
0.0
 40
2.698741017099999
100
AcDbArc
 50
240.0481997804
 51
251.3779673734
  0
ARC
  5
EA
330
86
100
AcDbEntity
  8
0
  6
Continuous
 62
     7
100
AcDbCircle
 10
77.0161857833
 20
18.1105652982
 30
0.0
 40
1.4334474881
100
AcDbArc
 50
315.8904553226
 51
333.5229264375
  0
ARC
  5
EB
330
86
100
AcDbEntity
  8
0
  6
Continuous
 62
     7
100
AcDbCircle
 10
77.020824027
 20
18.057158148
 30
0.0
 40
1.406228711899998
100
AcDbArc
 50
335.3867972703
 51
24.3915119403
  0
ARC
  5
EC
330
86
100
AcDbEntity
  8
0
  6
Continuous
 62
     7
100
AcDbCircle
 10
76.94861912350001
 20
17.9793014562
 30
0.0
 40
1.504702514699999
100
AcDbArc
 50
25.9562916611
 51
59.4834829676
  0
LINE
  5
ED
330
86
100
AcDbEntity
  8
0
  6
Continuous
 62
     7
100
AcDbLine
 10
74.9574888499
 20
20.8337423583
 30
0.0
 11
75.2315546745
 21
21.1078154358
 31
0.0
  0
ARC
  5
EE
330
86
100
AcDbEntity
  8
0
  6
Continuous
 62
     7
100
AcDbCircle
 10
76.0252765676
 20
20.0598662104
 30
0.0
 40
1.309092072899999
100
AcDbArc
 50
164.1974860461
 51
195.8025139539
  0
ARC
  5
EF
330
86
100
AcDbEntity
  8
0
  6
Continuous
 62
     7
100
AcDbCircle
 10
75.8573743274
 20
20.1673739729
 30
0.0
 40
1.119747444
100
AcDbArc
 50
142.813917903
 51
167.1522951417
  0
ENDBLK
  5
F0
330
86
100
AcDbEntity
  8
0
100
AcDbBlockEnd
  0
BLOCK
  5
16B0
330
16A7
100
AcDbEntity
  8
0
100
AcDbBlockBegin
  2
*D2
 70
     1
 10
0.0
 20
0.0
 30
0.0
  3
*D2
  1

  0
LINE
  5
192C
330
16A7
100
AcDbEntity
  8
11100_Left_Dim
  6
Continuous
370
    -2
100
AcDbLine
 10
260.8008723474283
 20
244.6974711120674
 30
0.0
 11
256.5668484385621
 21
246.0565378265668
 31
0.0
  0
LINE
  5
192D
330
16A7
100
AcDbEntity
  8
11100_Left_Dim
  6
Continuous
370
    -2
100
AcDbLine
 10
247.6166293488435
 20
248.9294419749918
 30
0.0
 11
245.2362519313652
 21
249.6935122272324
 31
0.0
  0
MTEXT
  5
192E
330
16A7
100
AcDbEntity
  8
11100_Left_Dim
  6
Continuous
 62
     7
370
    13
100
AcDbMText
 10
266.1963944937125
 20
242.9655785403218
 30
0.0
 40
5.0
 41
0.0
 71
     5
 72
     1
  1
\A1;\U+22054
 11
0.9521509669913344
 21
-0.3056281008962803
 31
0.0
 73
     1
 44
1.0
1001
ACAD
1000
MTEXTBEGIN
1070
    73
1070
     1
1070
    44
1040
1.0
1070
    74
1070
     0
1000
MTEXTEND
  0
LINE
  5
192F
330
16A7
100
AcDbEntity
  8
11100_Left_Dim
  6
Continuous
370
    -2
100
AcDbLine
 10
249.9970067663218
 20
248.165371722751
 30
0.0
 11
254.1864710210837
 21
246.8206080788074
 31
0.0
  0
SOLID
  5
1930
330
16A7
100
AcDbEntity
  8
11100_Left_Dim
  6
Continuous
100
AcDbTrace
 10
247.7439743908836
 20
249.3261715445715
 30
0.0
 11
247.4892843068034
 21
248.532712405412
 31
0.0
 12
249.9970067663218
 22
248.165371722751
 32
0.0
 13
249.9970067663218
 23
248.165371722751
 33
0.0
  0
SOLID
  5
1931
330
16A7
100
AcDbEntity
  8
11100_Left_Dim
  6
Continuous
100
AcDbTrace
 10
256.6941934806022
 20
246.4532673961464
 30
0.0
 11
256.4395033965219
 21
245.659808256987
 31
0.0
 12
254.1864710210837
 22
246.8206080788074
 32
0.0
 13
254.1864710210837
 23
246.8206080788074
 33
0.0
  0
POINT
  5
1932
330
16A7
100
AcDbEntity
  8
Defpoints
  6
Continuous
 62
     0
100
AcDbPoint
 10
254.1864710210837
 20
246.8206080788074
 30
0.0
  0
POINT
  5
1933
330
16A7
100
AcDbEntity
  8
Defpoints
  6
Continuous
 62
     0
100
AcDbPoint
 10
249.9970067663218
 20
248.165371722751
 30
0.0
  0
ENDBLK
  5
16B1
330
16A7
100
AcDbEntity
  8
0
100
AcDbBlockEnd
  0
BLOCK
  5
16C7
330
16BD
100
AcDbEntity
  8
0
100
AcDbBlockBegin
  2
*D3
 70
     1
 10
0.0
 20
0.0
 30
0.0
  3
*D3
  1

  0
LINE
  5
1920
330
16BD
100
AcDbEntity
  8
11100_Left_Dim
  6
Continuous
370
    -2
100
AcDbLine
 10
244.5917388937027
 20
239.6929899007793
 30
0.0
 11
244.5917388937027
 21
227.2476066690188
 31
0.0
  0
LINE
  5
1921
330
16BD
100
AcDbEntity
  8
11100_Left_Dim
  6
Continuous
370
    -2
100
AcDbLine
 10
259.5917388937027
 20
239.6929899007793
 30
0.0
 11
259.5917388937027
 21
227.2476066690188
 31
0.0
  0
LINE
  5
1922
330
16BD
100
AcDbEntity
  8
11100_Left_Dim
  6
Continuous
370
    -2
100
AcDbLine
 10
242.0917388937027
 20
229.2476066690188
 30
0.0
 11
239.5917388937025
 21
229.2476066690188
 31
0.0
  0
LINE
  5
1923
330
16BD
100
AcDbEntity
  8
11100_Left_Dim
  6
Continuous
370
    -2
100
AcDbLine
 10
262.0917388937026
 20
229.2476066690188
 30
0.0
 11
264.5917388937026
 21
229.2476066690188
 31
0.0
  0
LINE
  5
1924
330
16BD
100
AcDbEntity
  8
11100_Left_Dim
  6
Continuous
370
    -2
100
AcDbLine
 10
244.5917388937027
 20
229.2476066690188
 30
0.0
 11
247.2584055603693
 21
229.2476066690188
 31
0.0
  0
LINE
  5
1925
330
16BD
100
AcDbEntity
  8
11100_Left_Dim
  6
Continuous
370
    -2
100
AcDbLine
 10
259.5917388937027
 20
229.2476066690188
 30
0.0
 11
256.925072227036
 21
229.2476066690188
 31
0.0
  0
SOLID
  5
1926
330
16BD
100
AcDbEntity
  8
11100_Left_Dim
  6
Continuous
100
AcDbTrace
 10
242.0917388937027
 20
229.6642733356854
 30
0.0
 11
242.0917388937027
 21
228.8309400023521
 31
0.0
 12
244.5917388937027
 22
229.2476066690188
 32
0.0
 13
244.5917388937027
 23
229.2476066690188
 33
0.0
  0
SOLID
  5
1927
330
16BD
100
AcDbEntity
  8
11100_Left_Dim
  6
Continuous
100
AcDbTrace
 10
262.0917388937026
 20
229.6642733356854
 30
0.0
 11
262.0917388937026
 21
228.8309400023521
 31
0.0
 12
259.5917388937027
 22
229.2476066690188
 32
0.0
 13
259.5917388937027
 23
229.2476066690188
 33
0.0
  0
MTEXT
  5
1928
330
16BD
100
AcDbEntity
  8
11100_Left_Dim
  6
Continuous
 62
     7
370
    13
100
AcDbMText
 10
252.0917388937025
 20
229.2476066690188
 30
0.0
 40
5.0
 41
0.0
 71
     5
 72
     1
  1
\A1;15
 73
     1
 44
1.0
1001
ACAD
1000
MTEXTBEGIN
1070
    73
1070
     1
1070
    44
1040
1.0
1070
    74
1070
     0
1000
MTEXTEND
  0
POINT
  5
1929
330
16BD
100
AcDbEntity
  8
Defpoints
  6
Continuous
 62
     0
100
AcDbPoint
 10
244.5917388937027
 20
239.6929899007793
 30
0.0
  0
POINT
  5
192A
330
16BD
100
AcDbEntity
  8
Defpoints
  6
Continuous
 62
     0
100
AcDbPoint
 10
259.5917388937027
 20
239.6929899007793
 30
0.0
  0
POINT
  5
192B
330
16BD
100
AcDbEntity
  8
Defpoints
  6
Continuous
 62
     0
100
AcDbPoint
 10
259.5917388937027
 20
229.2476066690188
 30
0.0
  0
ENDBLK
  5
16C8
330
16BD
100
AcDbEntity
  8
0
100
AcDbBlockEnd
  0
BLOCK
  5
16E1
330
16D5
100
AcDbEntity
  8
0
100
AcDbBlockBegin
  2
*D4
 70
     1
 10
0.0
 20
0.0
 30
0.0
  3
*D4
  1

  0
LINE
  5
190D
330
16D5
100
AcDbEntity
  8
10100_Front_Dim
  6
Continuous
370
    -2
100
AcDbLine
 10
178.3435453082078
 20
239.6929899007793
 30
0.0
 11
178.3435453082078
 21
227.2476066690188
 31
0.0
  0
LINE
  5
190E
330
16D5
100
AcDbEntity
  8
10100_Front_Dim
  6
Continuous
370
    -2
100
AcDbLine
 10
181.3435453082078
 20
239.6929899007793
 30
0.0
 11
181.3435453082078
 21
227.2476066690188
 31
0.0
  0
LINE
  5
190F
330
16D5
100
AcDbEntity
  8
10100_Front_Dim
  6
Continuous
370
    -2
100
AcDbLine
 10
175.8435453082078
 20
229.2476066690188
 30
0.0
 11
173.3435453082078
 21
229.2476066690188
 31
0.0
  0
LINE
  5
1910
330
16D5
100
AcDbEntity
  8
10100_Front_Dim
  6
Continuous
370
    -2
100
AcDbLine
 10
183.8435453082078
 20
229.2476066690188
 30
0.0
 11
186.3435453082078
 21
229.2476066690188
 31
0.0
  0
MTEXT
  5
1911
330
16D5
100
AcDbEntity
  8
10100_Front_Dim
  6
Continuous
 62
     7
370
    13
100
AcDbMText
 10
188.7756214090282
 20
229.2476066690188
 30
0.0
 40
5.0
 41
0.0
 71
     5
 72
     1
  1
\A1;3
 73
     1
 44
1.0
1001
ACAD
1000
MTEXTBEGIN
1070
    73
1070
     1
1070
    44
1040
1.0
1070
    74
1070
     0
1000
MTEXTEND
  0
LINE
  5
1912
330
16D5
100
AcDbEntity
  8
10100_Front_Dim
  6
Continuous
370
    -2
100
AcDbLine
 10
178.3435453082078
 20
229.2476066690188
 30
0.0
 11
181.3435453082078
 21
229.2476066690188
 31
0.0
  0
SOLID
  5
1913
330
16D5
100
AcDbEntity
  8
10100_Front_Dim
  6
Continuous
100
AcDbTrace
 10
175.8435453082078
 20
229.6642733356854
 30
0.0
 11
175.8435453082078
 21
228.8309400023521
 31
0.0
 12
178.3435453082078
 22
229.2476066690188
 32
0.0
 13
178.3435453082078
 23
229.2476066690188
 33
0.0
  0
SOLID
  5
1914
330
16D5
100
AcDbEntity
  8
10100_Front_Dim
  6
Continuous
100
AcDbTrace
 10
183.8435453082078
 20
229.6642733356854
 30
0.0
 11
183.8435453082078
 21
228.8309400023521
 31
0.0
 12
181.3435453082078
 22
229.2476066690188
 32
0.0
 13
181.3435453082078
 23
229.2476066690188
 33
0.0
  0
POINT
  5
1915
330
16D5
100
AcDbEntity
  8
Defpoints
  6
Continuous
 62
     0
100
AcDbPoint
 10
178.3435453082078
 20
239.6929899007793
 30
0.0
  0
POINT
  5
1916
330
16D5
100
AcDbEntity
  8
Defpoints
  6
Continuous
 62
     0
100
AcDbPoint
 10
181.3435453082078
 20
239.6929899007793
 30
0.0
  0
POINT
  5
1917
330
16D5
100
AcDbEntity
  8
Defpoints
  6
Continuous
 62
     0
100
AcDbPoint
 10
181.3435453082078
 20
229.2476066690188
 30
0.0
  0
ENDBLK
  5
16E2
330
16D5
100
AcDbEntity
  8
0
100
AcDbBlockEnd
  0
BLOCK
  5
16FB
330
16F1
100
AcDbEntity
  8
0
100
AcDbBlockBegin
  2
*D5
 70
     1
 10
0.0
 20
0.0
 30
0.0
  3
*D5
  1

  0
LINE
  5
1904
330
16F1
100
AcDbEntity
  8
10100_Front_Dim
  6
Continuous
370
    -2
100
AcDbLine
 10
175.3435453082078
 20
241.4929899007792
 30
0.0
 11
175.3435453082078
 21
220.6142916681424
 31
0.0
  0
LINE
  5
1905
330
16F1
100
AcDbEntity
  8
10100_Front_Dim
  6
Continuous
370
    -2
100
AcDbLine
 10
184.3435453082078
 20
241.4929899007792
 30
0.0
 11
184.3435453082078
 21
220.6142916681424
 31
0.0
  0
LINE
  5
1906
330
16F1
100
AcDbEntity
  8
10100_Front_Dim
  6
Continuous
370
    -2
100
AcDbLine
 10
177.8435453082078
 20
222.6142916681424
 30
0.0
 11
181.8435453082078
 21
222.6142916681424
 31
0.0
  0
MTEXT
  5
1907
330
16F1
100
AcDbEntity
  8
10100_Front_Dim
  6
Continuous
 62
     7
370
    13
100
AcDbMText
 10
189.0803565788383
 20
222.6142916681424
 30
0.0
 40
5.0
 41
0.0
 71
     5
 72
     1
  1
\A1;9
 73
     1
 44
1.0
1001
ACAD
1000
MTEXTBEGIN
1070
    73
1070
     1
1070
    44
1040
1.0
1070
    74
1070
     0
1000
MTEXTEND
  0
SOLID
  5
1908
330
16F1
100
AcDbEntity
  8
10100_Front_Dim
  6
Continuous
100
AcDbTrace
 10
177.8435453082078
 20
223.0309583348091
 30
0.0
 11
177.8435453082078
 21
222.1976250014757
 31
0.0
 12
175.3435453082078
 22
222.6142916681424
 32
0.0
 13
175.3435453082078
 23
222.6142916681424
 33
0.0
  0
SOLID
  5
1909
330
16F1
100
AcDbEntity
  8
10100_Front_Dim
  6
Continuous
100
AcDbTrace
 10
181.8435453082078
 20
223.0309583348091
 30
0.0
 11
181.8435453082078
 21
222.1976250014757
 31
0.0
 12
184.3435453082078
 22
222.6142916681424
 32
0.0
 13
184.3435453082078
 23
222.6142916681424
 33
0.0
  0
POINT
  5
190A
330
16F1
100
AcDbEntity
  8
Defpoints
  6
Continuous
 62
     0
100
AcDbPoint
 10
175.3435453082078
 20
241.4929899007792
 30
0.0
  0
POINT
  5
190B
330
16F1
100
AcDbEntity
  8
Defpoints
  6
Continuous
 62
     0
100
AcDbPoint
 10
184.3435453082078
 20
241.4929899007792
 30
0.0
  0
POINT
  5
190C
330
16F1
100
AcDbEntity
  8
Defpoints
  6
Continuous
 62
     0
100
AcDbPoint
 10
184.3435453082078
 20
222.6142916681424
 30
0.0
  0
ENDBLK
  5
16FC
330
16F1
100
AcDbEntity
  8
0
100
AcDbBlockEnd
  0
BLOCK
  5
1713
330
1709
100
AcDbEntity
  8
0
100
AcDbBlockBegin
  2
*D6
 70
     1
 10
0.0
 20
0.0
 30
0.0
  3
*D6
  1

  0
LINE
  5
18FA
330
1709
100
AcDbEntity
  8
10100_Front_Dim
  6
Continuous
370
    -2
100
AcDbLine
 10
181.3435453082078
 20
239.6929899007793
 30
0.0
 11
203.1795313086067
 21
239.6929899007792
 31
0.0
  0
LINE
  5
18FB
330
1709
100
AcDbEntity
  8
10100_Front_Dim
  6
Continuous
370
    -2
100
AcDbLine
 10
180.5935453082078
 20
321.1929899007793
 30
0.0
 11
203.1795313086068
 21
321.1929899007793
 31
0.0
  0
LINE
  5
18FC
330
1709
100
AcDbEntity
  8
10100_Front_Dim
  6
Continuous
370
    -2
100
AcDbLine
 10
201.1795313086067
 20
242.1929899007792
 30
0.0
 11
201.1795313086067
 21
274.7763232341126
 31
0.0
  0
LINE
  5
18FD
330
1709
100
AcDbEntity
  8
10100_Front_Dim
  6
Continuous
370
    -2
100
AcDbLine
 10
201.1795313086067
 20
318.6929899007793
 30
0.0
 11
201.1795313086067
 21
286.109656567446
 31
0.0
  0
SOLID
  5
18FE
330
1709
100
AcDbEntity
  8
10100_Front_Dim
  6
Continuous
100
AcDbTrace
 10
200.7628646419401
 20
242.1929899007792
 30
0.0
 11
201.5961979752734
 21
242.1929899007792
 31
0.0
 12
201.1795313086067
 22
239.6929899007792
 32
0.0
 13
201.1795313086067
 23
239.6929899007792
 33
0.0
  0
SOLID
  5
18FF
330
1709
100
AcDbEntity
  8
10100_Front_Dim
  6
Continuous
100
AcDbTrace
 10
200.7628646419401
 20
318.6929899007793
 30
0.0
 11
201.5961979752734
 21
318.6929899007793
 31
0.0
 12
201.1795313086068
 22
321.1929899007793
 32
0.0
 13
201.1795313086068
 23
321.1929899007793
 33
0.0
  0
MTEXT
  5
1900
330
1709
100
AcDbEntity
  8
10100_Front_Dim
  6
Continuous
 62
     7
370
    13
100
AcDbMText
 10
201.1795313086067
 20
280.4429899007793
 30
0.0
 40
5.0
 41
0.0
 71
     5
 72
     1
  1
\A1;82
 11
0.0000000000000001
 21
1.0
 31
0.0
 73
     1
 44
1.0
1001
ACAD
1000
MTEXTBEGIN
1070
    73
1070
     1
1070
    44
1040
1.0
1070
    74
1070
     0
1000
MTEXTEND
  0
POINT
  5
1901
330
1709
100
AcDbEntity
  8
Defpoints
  6
Continuous
 62
     0
100
AcDbPoint
 10
181.3435453082078
 20
239.6929899007793
 30
0.0
  0
POINT
  5
1902
330
1709
100
AcDbEntity
  8
Defpoints
  6
Continuous
 62
     0
100
AcDbPoint
 10
180.5935453082078
 20
321.1929899007793
 30
0.0
  0
POINT
  5
1903
330
1709
100
AcDbEntity
  8
Defpoints
  6
Continuous
 62
     0
100
AcDbPoint
 10
201.1795313086068
 20
321.1929899007793
 30
0.0
  0
ENDBLK
  5
1714
330
1709
100
AcDbEntity
  8
0
100
AcDbBlockEnd
  0
BLOCK
  5
172B
330
1721
100
AcDbEntity
  8
0
100
AcDbBlockBegin
  2
*D7
 70
     1
 10
0.0
 20
0.0
 30
0.0
  3
*D7
  1

  0
LINE
  5
18F0
330
1721
100
AcDbEntity
  8
10100_Front_Dim
  6
Continuous
370
    -2
100
AcDbLine
 10
181.3435453082078
 20
239.6929899007793
 30
0.0
 11
196.2183065072205
 21
239.6929899007792
 31
0.0
  0
LINE
  5
18F1
330
1721
100
AcDbEntity
  8
10100_Front_Dim
  6
Continuous
370
    -2
100
AcDbLine
 10
181.3435453082078
 20
293.9929899007793
 30
0.0
 11
196.2183065072205
 21
293.9929899007793
 31
0.0
  0
LINE
  5
18F2
330
1721
100
AcDbEntity
  8
10100_Front_Dim
  6
Continuous
370
    -2
100
AcDbLine
 10
194.2183065072205
 20
242.1929899007792
 30
0.0
 11
194.2183065072205
 21
261.1763232341125
 31
0.0
  0
LINE
  5
18F3
330
1721
100
AcDbEntity
  8
10100_Front_Dim
  6
Continuous
370
    -2
100
AcDbLine
 10
194.2183065072205
 20
291.4929899007793
 30
0.0
 11
194.2183065072205
 21
272.5096565674459
 31
0.0
  0
SOLID
  5
18F4
330
1721
100
AcDbEntity
  8
10100_Front_Dim
  6
Continuous
100
AcDbTrace
 10
193.8016398405538
 20
242.1929899007792
 30
0.0
 11
194.6349731738872
 21
242.1929899007792
 31
0.0
 12
194.2183065072205
 22
239.6929899007792
 32
0.0
 13
194.2183065072205
 23
239.6929899007792
 33
0.0
  0
SOLID
  5
18F5
330
1721
100
AcDbEntity
  8
10100_Front_Dim
  6
Continuous
100
AcDbTrace
 10
193.8016398405538
 20
291.4929899007793
 30
0.0
 11
194.6349731738872
 21
291.4929899007793
 31
0.0
 12
194.2183065072205
 22
293.9929899007793
 32
0.0
 13
194.2183065072205
 23
293.9929899007793
 33
0.0
  0
MTEXT
  5
18F6
330
1721
100
AcDbEntity
  8
10100_Front_Dim
  6
Continuous
 62
     7
370
    13
100
AcDbMText
 10
194.2183065072205
 20
266.8429899007793
 30
0.0
 40
5.0
 41
0.0
 71
     5
 72
     1
  1
\A1;54
 11
0.0000000000000001
 21
1.0
 31
0.0
 73
     1
 44
1.0
1001
ACAD
1000
MTEXTBEGIN
1070
    73
1070
     1
1070
    44
1040
1.0
1070
    74
1070
     0
1000
MTEXTEND
  0
POINT
  5
18F7
330
1721
100
AcDbEntity
  8
Defpoints
  6
Continuous
 62
     0
100
AcDbPoint
 10
181.3435453082078
 20
239.6929899007793
 30
0.0
  0
POINT
  5
18F8
330
1721
100
AcDbEntity
  8
Defpoints
  6
Continuous
 62
     0
100
AcDbPoint
 10
181.3435453082078
 20
293.9929899007793
 30
0.0
  0
POINT
  5
18F9
330
1721
100
AcDbEntity
  8
Defpoints
  6
Continuous
 62
     0
100
AcDbPoint
 10
194.2183065072205
 20
293.9929899007793
 30
0.0
  0
ENDBLK
  5
172C
330
1721
100
AcDbEntity
  8
0
100
AcDbBlockEnd
  0
BLOCK
  5
1A28
330
1A1E
100
AcDbEntity
  8
0
100
AcDbBlockBegin
  2
*D8
 70
     1
 10
0.0
 20
0.0
 30
0.0
  3
*D8
  1

  0
LINE
  5
1B98
330
1A1E
100
AcDbEntity
  8
10100_Front_Dim
  6
Continuous
370
    -2
100
AcDbLine
 10
182.2146536999074
 20
252.1278670358102
 30
0.0
 11
182.2146536999074
 21
240.1429496115641
 31
0.0
  0
LINE
  5
1B99
330
1A1E
100
AcDbEntity
  8
10100_Front_Dim
  6
Continuous
370
    -2
100
AcDbLine
 10
197.2146536999074
 20
252.1278670358102
 30
0.0
 11
197.2146536999074
 21
240.1429496115641
 31
0.0
  0
LINE
  5
1B9A
330
1A1E
100
AcDbEntity
  8
10100_Front_Dim
  6
Continuous
370
    -2
100
AcDbLine
 10
179.7146536999074
 20
242.1429496115641
 30
0.0
 11
177.2146536999074
 21
242.1429496115641
 31
0.0
  0
LINE
  5
1B9B
330
1A1E
100
AcDbEntity
  8
10100_Front_Dim
  6
Continuous
370
    -2
100
AcDbLine
 10
199.7146536999074
 20
242.1429496115641
 30
0.0
 11
202.2146536999074
 21
242.1429496115641
 31
0.0
  0
LINE
  5
1B9C
330
1A1E
100
AcDbEntity
  8
10100_Front_Dim
  6
Continuous
370
    -2
100
AcDbLine
 10
182.2146536999074
 20
242.1429496115641
 30
0.0
 11
184.8813203665741
 21
242.1429496115641
 31
0.0
  0
LINE
  5
1B9D
330
1A1E
100
AcDbEntity
  8
10100_Front_Dim
  6
Continuous
370
    -2
100
AcDbLine
 10
197.2146536999074
 20
242.1429496115641
 30
0.0
 11
194.5479870332408
 21
242.1429496115641
 31
0.0
  0
SOLID
  5
1B9E
330
1A1E
100
AcDbEntity
  8
10100_Front_Dim
  6
Continuous
100
AcDbTrace
 10
179.7146536999074
 20
242.5596162782307
 30
0.0
 11
179.7146536999074
 21
241.7262829448974
 31
0.0
 12
182.2146536999074
 22
242.1429496115641
 32
0.0
 13
182.2146536999074
 23
242.1429496115641
 33
0.0
  0
SOLID
  5
1B9F
330
1A1E
100
AcDbEntity
  8
10100_Front_Dim
  6
Continuous
100
AcDbTrace
 10
199.7146536999074
 20
242.5596162782307
 30
0.0
 11
199.7146536999074
 21
241.7262829448974
 31
0.0
 12
197.2146536999074
 22
242.1429496115641
 32
0.0
 13
197.2146536999074
 23
242.1429496115641
 33
0.0
  0
MTEXT
  5
1BA0
330
1A1E
100
AcDbEntity
  8
10100_Front_Dim
  6
Continuous
 62
     7
370
    13
100
AcDbMText
 10
189.7146536999074
 20
242.1429496115641
 30
0.0
 40
5.0
 41
0.0
 71
     5
 72
     1
  1
\A1;15
 73
     1
 44
1.0
1001
ACAD
1000
MTEXTBEGIN
1070
    73
1070
     1
1070
    44
1040
1.0
1070
    74
1070
     0
1000
MTEXTEND
  0
POINT
  5
1BA1
330
1A1E
100
AcDbEntity
  8
Defpoints
  6
Continuous
 62
     0
100
AcDbPoint
 10
182.2146536999074
 20
252.1278670358102
 30
0.0
  0
POINT
  5
1BA2
330
1A1E
100
AcDbEntity
  8
Defpoints
  6
Continuous
 62
     0
100
AcDbPoint
 10
197.2146536999074
 20
252.1278670358102
 30
0.0
  0
POINT
  5
1BA3
330
1A1E
100
AcDbEntity
  8
Defpoints
  6
Continuous
 62
     0
100
AcDbPoint
 10
197.2146536999074
 20
242.1429496115641
 30
0.0
  0
ENDBLK
  5
1A29
330
1A1E
100
AcDbEntity
  8
0
100
AcDbBlockEnd
  0
BLOCK
  5
1A3F
330
1A36
100
AcDbEntity
  8
0
100
AcDbBlockBegin
  2
*D9
 70
     1
 10
0.0
 20
0.0
 30
0.0
  3
*D9
  1

  0
LINE
  5
1BA4
330
1A36
100
AcDbEntity
  8
10100_Front_Dim
  6
Continuous
370
    -2
100
AcDbLine
 10
197.5474626312174
 20
257.1867639170293
 30
0.0
 11
194.15085507759
 21
258.3754117750546
 31
0.0
  0
LINE
  5
1BA5
330
1A36
100
AcDbEntity
  8
10100_Front_Dim
  6
Continuous
370
    -2
100
AcDbLine
 10
185.2784523222249
 20
261.4803222965659
 30
0.0
 11
182.9187707383512
 21
262.3060963714359
 31
0.0
  0
MTEXT
  5
1BA6
330
1A36
100
AcDbEntity
  8
10100_Front_Dim
  6
Continuous
 62
     7
370
    13
100
AcDbMText
 10
202.8960742213311
 20
255.315009347324
 30
0.0
 40
5.0
 41
0.0
 71
     5
 72
     1
  1
\A1;\U+22054
 11
0.9438726335494706
 21
-0.3303096299480037
 31
0.0
 73
     1
 44
1.0
1001
ACAD
1000
MTEXTBEGIN
1070
    73
1070
     1
1070
    44
1040
1.0
1070
    74
1070
     0
1000
MTEXTEND
  0
LINE
  5
1BA7
330
1A36
100
AcDbEntity
  8
10100_Front_Dim
  6
Continuous
370
    -2
100
AcDbLine
 10
187.6381339060986
 20
260.6545482216958
 30
0.0
 11
191.7911734937163
 21
259.2011858499246
 31
0.0
  0
SOLID
  5
1BA8
330
1A36
100
AcDbEntity
  8
10100_Front_Dim
  6
Continuous
100
AcDbTrace
 10
185.4160813347031
 20
261.8736025605449
 30
0.0
 11
185.1408233097466
 21
261.0870420325869
 31
0.0
 12
187.6381339060986
 22
260.6545482216958
 32
0.0
 13
187.6381339060986
 23
260.6545482216958
 33
0.0
  0
SOLID
  5
1BA9
330
1A36
100
AcDbEntity
  8
10100_Front_Dim
  6
Continuous
100
AcDbTrace
 10
194.2884840900683
 20
258.7686920390336
 30
0.0
 11
194.0132260651115
 21
257.9821315110757
 31
0.0
 12
191.7911734937163
 22
259.2011858499246
 32
0.0
 13
191.7911734937163
 23
259.2011858499246
 33
0.0
  0
POINT
  5
1BAA
330
1A36
100
AcDbEntity
  8
Defpoints
  6
Continuous
 62
     0
100
AcDbPoint
 10
191.7911734937163
 20
259.2011858499246
 30
0.0
  0
POINT
  5
1BAB
330
1A36
100
AcDbEntity
  8
Defpoints
  6
Continuous
 62
     0
100
AcDbPoint
 10
187.6381339060986
 20
260.6545482216958
 30
0.0
  0
ENDBLK
  5
1A40
330
1A36
100
AcDbEntity
  8
0
100
AcDbBlockEnd
  0
BLOCK
  5
1A56
330
1A4C
100
AcDbEntity
  8
0
100
AcDbBlockBegin
  2
*D10
 70
     1
 10
0.0
 20
0.0
 30
0.0
  3
*D10
  1

  0
LINE
  5
1B86
330
1A4C
100
AcDbEntity
  8
10100_Front_Dim
  6
Continuous
370
    -2
100
AcDbLine
 10
196.7146536999074
 20
259.9278670358102
 30
0.0
 11
207.6704533273772
 21
259.9278670358102
 31
0.0
  0
LINE
  5
1B87
330
1A4C
100
AcDbEntity
  8
10100_Front_Dim
  6
Continuous
370
    -2
100
AcDbLine
 10
196.7146536999074
 20
279.9278670358102
 30
0.0
 11
207.6704533273772
 21
279.9278670358102
 31
0.0
  0
LINE
  5
1B88
330
1A4C
100
AcDbEntity
  8
10100_Front_Dim
  6
Continuous
370
    -2
100
AcDbLine
 10
205.6704533273773
 20
262.4278670358102
 30
0.0
 11
205.6704533273773
 21
264.6778670358102
 31
0.0
  0
LINE
  5
1B89
330
1A4C
100
AcDbEntity
  8
10100_Front_Dim
  6
Continuous
370
    -2
100
AcDbLine
 10
205.6704533273773
 20
277.4278670358102
 30
0.0
 11
205.6704533273773
 21
275.1778670358102
 31
0.0
  0
SOLID
  5
1B8A
330
1A4C
100
AcDbEntity
  8
10100_Front_Dim
  6
Continuous
100
AcDbTrace
 10
205.2537866607106
 20
262.4278670358102
 30
0.0
 11
206.0871199940439
 21
262.4278670358102
 31
0.0
 12
205.6704533273773
 22
259.9278670358102
 32
0.0
 13
205.6704533273773
 23
259.9278670358102
 33
0.0
  0
SOLID
  5
1B8B
330
1A4C
100
AcDbEntity
  8
10100_Front_Dim
  6
Continuous
100
AcDbTrace
 10
205.2537866607106
 20
277.4278670358102
 30
0.0
 11
206.0871199940439
 21
277.4278670358102
 31
0.0
 12
205.6704533273773
 22
279.9278670358102
 32
0.0
 13
205.6704533273773
 23
279.9278670358102
 33
0.0
  0
MTEXT
  5
1B8C
330
1A4C
100
AcDbEntity
  8
10100_Front_Dim
  6
Continuous
 62
     7
370
    13
100
AcDbMText
 10
205.6704533273772
 20
269.9278670358102
 30
0.0
 40
5.0
 41
0.0
 71
     5
 72
     1
  1
\A1;20
 11
0.0000000000000001
 21
1.0
 31
0.0
 73
     1
 44
1.0
1001
ACAD
1000
MTEXTBEGIN
1070
    73
1070
     1
1070
    44
1040
1.0
1070
    74
1070
     0
1000
MTEXTEND
  0
POINT
  5
1B8D
330
1A4C
100
AcDbEntity
  8
Defpoints
  6
Continuous
 62
     0
100
AcDbPoint
 10
196.7146536999074
 20
259.9278670358102
 30
0.0
  0
POINT
  5
1B8E
330
1A4C
100
AcDbEntity
  8
Defpoints
  6
Continuous
 62
     0
100
AcDbPoint
 10
196.7146536999074
 20
279.9278670358102
 30
0.0
  0
POINT
  5
1B8F
330
1A4C
100
AcDbEntity
  8
Defpoints
  6
Continuous
 62
     0
100
AcDbPoint
 10
205.6704533273773
 20
279.9278670358102
 30
0.0
  0
ENDBLK
  5
1A57
330
1A4C
100
AcDbEntity
  8
0
100
AcDbBlockEnd
  0
BLOCK
  5
1A70
330
1A64
100
AcDbEntity
  8
0
100
AcDbBlockBegin
  2
*D11
 70
     1
 10
0.0
 20
0.0
 30
0.0
  3
*D11
  1

  0
LINE
  5
1B7B
330
1A64
100
AcDbEntity
  8
11100_Left_Dim
  6
Continuous
370
    -2
100
AcDbLine
 10
251.5107578474898
 20
252.1278670358102
 30
0.0
 11
251.5107578474898
 21
241.3601854264576
 31
0.0
  0
LINE
  5
1B7C
330
1A64
100
AcDbEntity
  8
11100_Left_Dim
  6
Continuous
370
    -2
100
AcDbLine
 10
254.5107578474898
 20
252.1278670358102
 30
0.0
 11
254.5107578474898
 21
241.3601854264576
 31
0.0
  0
LINE
  5
1B7D
330
1A64
100
AcDbEntity
  8
11100_Left_Dim
  6
Continuous
370
    -2
100
AcDbLine
 10
249.0107578474898
 20
243.3601854264576
 30
0.0
 11
246.5107578474898
 21
243.3601854264576
 31
0.0
  0
LINE
  5
1B7E
330
1A64
100
AcDbEntity
  8
11100_Left_Dim
  6
Continuous
370
    -2
100
AcDbLine
 10
257.0107578474898
 20
243.3601854264576
 30
0.0
 11
259.5107578474898
 21
243.3601854264576
 31
0.0
  0
MTEXT
  5
1B7F
330
1A64
100
AcDbEntity
  8
11100_Left_Dim
  6
Continuous
 62
     7
370
    13
100
AcDbMText
 10
261.0357578474898
 20
243.3790037306806
 30
0.0
 40
5.0
 41
0.0
 71
     5
 72
     1
  1
\A1;3
 73
     1
 44
1.0
1001
ACAD
1000
MTEXTBEGIN
1070
    73
1070
     1
1070
    44
1040
1.0
1070
    74
1070
     0
1000
MTEXTEND
  0
LINE
  5
1B80
330
1A64
100
AcDbEntity
  8
11100_Left_Dim
  6
Continuous
370
    -2
100
AcDbLine
 10
251.5107578474898
 20
243.3601854264576
 30
0.0
 11
254.5107578474898
 21
243.3601854264576
 31
0.0
  0
SOLID
  5
1B81
330
1A64
100
AcDbEntity
  8
11100_Left_Dim
  6
Continuous
100
AcDbTrace
 10
249.0107578474898
 20
243.7768520931243
 30
0.0
 11
249.0107578474898
 21
242.943518759791
 31
0.0
 12
251.5107578474898
 22
243.3601854264576
 32
0.0
 13
251.5107578474898
 23
243.3601854264576
 33
0.0
  0
SOLID
  5
1B82
330
1A64
100
AcDbEntity
  8
11100_Left_Dim
  6
Continuous
100
AcDbTrace
 10
257.0107578474898
 20
243.7768520931243
 30
0.0
 11
257.0107578474898
 21
242.943518759791
 31
0.0
 12
254.5107578474898
 22
243.3601854264576
 32
0.0
 13
254.5107578474898
 23
243.3601854264576
 33
0.0
  0
POINT
  5
1B83
330
1A64
100
AcDbEntity
  8
Defpoints
  6
Continuous
 62
     0
100
AcDbPoint
 10
251.5107578474898
 20
252.1278670358102
 30
0.0
  0
POINT
  5
1B84
330
1A64
100
AcDbEntity
  8
Defpoints
  6
Continuous
 62
     0
100
AcDbPoint
 10
254.5107578474898
 20
252.1278670358102
 30
0.0
  0
POINT
  5
1B85
330
1A64
100
AcDbEntity
  8
Defpoints
  6
Continuous
 62
     0
100
AcDbPoint
 10
254.5107578474898
 20
243.3601854264576
 30
0.0
  0
ENDBLK
  5
1A71
330
1A64
100
AcDbEntity
  8
0
100
AcDbBlockEnd
  0
BLOCK
  5
1A8A
330
1A80
100
AcDbEntity
  8
0
100
AcDbBlockBegin
  2
*D12
 70
     1
 10
0.0
 20
0.0
 30
0.0
  3
*D12
  1

  0
LINE
  5
1B72
330
1A80
100
AcDbEntity
  8
11100_Left_Dim
  6
Continuous
370
    -2
100
AcDbLine
 10
248.5107578474898
 20
253.9278670358102
 30
0.0
 11
248.5107578474898
 21
233.3253458189075
 31
0.0
  0
LINE
  5
1B73
330
1A80
100
AcDbEntity
  8
11100_Left_Dim
  6
Continuous
370
    -2
100
AcDbLine
 10
257.5107578474898
 20
253.9278670358102
 30
0.0
 11
257.5107578474898
 21
233.3253458189075
 31
0.0
  0
LINE
  5
1B74
330
1A80
100
AcDbEntity
  8
11100_Left_Dim
  6
Continuous
370
    -2
100
AcDbLine
 10
251.0107578474898
 20
235.3253458189075
 30
0.0
 11
255.0107578474898
 21
235.3253458189075
 31
0.0
  0
MTEXT
  5
1B75
330
1A80
100
AcDbEntity
  8
11100_Left_Dim
  6
Continuous
 62
     7
370
    13
100
AcDbMText
 10
261.0357578474898
 20
235.1540902869241
 30
0.0
 40
5.0
 41
0.0
 71
     5
 72
     1
  1
\A1;9
 73
     1
 44
1.0
1001
ACAD
1000
MTEXTBEGIN
1070
    73
1070
     1
1070
    44
1040
1.0
1070
    74
1070
     0
1000
MTEXTEND
  0
SOLID
  5
1B76
330
1A80
100
AcDbEntity
  8
11100_Left_Dim
  6
Continuous
100
AcDbTrace
 10
251.0107578474898
 20
235.7420124855742
 30
0.0
 11
251.0107578474898
 21
234.9086791522409
 31
0.0
 12
248.5107578474898
 22
235.3253458189075
 32
0.0
 13
248.5107578474898
 23
235.3253458189075
 33
0.0
  0
SOLID
  5
1B77
330
1A80
100
AcDbEntity
  8
11100_Left_Dim
  6
Continuous
100
AcDbTrace
 10
255.0107578474898
 20
235.7420124855742
 30
0.0
 11
255.0107578474898
 21
234.9086791522409
 31
0.0
 12
257.5107578474898
 22
235.3253458189075
 32
0.0
 13
257.5107578474898
 23
235.3253458189075
 33
0.0
  0
POINT
  5
1B78
330
1A80
100
AcDbEntity
  8
Defpoints
  6
Continuous
 62
     0
100
AcDbPoint
 10
248.5107578474898
 20
253.9278670358102
 30
0.0
  0
POINT
  5
1B79
330
1A80
100
AcDbEntity
  8
Defpoints
  6
Continuous
 62
     0
100
AcDbPoint
 10
257.5107578474898
 20
253.9278670358102
 30
0.0
  0
POINT
  5
1B7A
330
1A80
100
AcDbEntity
  8
Defpoints
  6
Continuous
 62
     0
100
AcDbPoint
 10
257.5107578474898
 20
235.3253458189075
 30
0.0
  0
ENDBLK
  5
1A8B
330
1A80
100
AcDbEntity
  8
0
100
AcDbBlockEnd
  0
BLOCK
  5
1AA2
330
1A98
100
AcDbEntity
  8
0
100
AcDbBlockBegin
  2
*D13
 70
     1
 10
0.0
 20
0.0
 30
0.0
  3
*D13
  1

  0
LINE
  5
1B68
330
1A98
100
AcDbEntity
  8
11100_Left_Dim
  6
Continuous
370
    -2
100
AcDbLine
 10
257.0107578474898
 20
297.6778670358101
 30
0.0
 11
239.5954970702686
 21
297.6778670358101
 31
0.0
  0
LINE
  5
1B69
330
1A98
100
AcDbEntity
  8
11100_Left_Dim
  6
Continuous
370
    -2
100
AcDbLine
 10
251.5107578474898
 20
252.1278670358102
 30
0.0
 11
239.5954970702686
 21
252.1278670358102
 31
0.0
  0
LINE
  5
1B6A
330
1A98
100
AcDbEntity
  8
11100_Left_Dim
  6
Continuous
370
    -2
100
AcDbLine
 10
241.5954970702686
 20
295.1778670358102
 30
0.0
 11
241.5954970702686
 21
280.5695337024769
 31
0.0
  0
LINE
  5
1B6B
330
1A98
100
AcDbEntity
  8
11100_Left_Dim
  6
Continuous
370
    -2
100
AcDbLine
 10
241.5954970702686
 20
254.6278670358101
 30
0.0
 11
241.5954970702686
 21
269.2362003691435
 31
0.0
  0
SOLID
  5
1B6C
330
1A98
100
AcDbEntity
  8
11100_Left_Dim
  6
Continuous
100
AcDbTrace
 10
241.1788304036019
 20
295.1778670358102
 30
0.0
 11
242.0121637369353
 21
295.1778670358102
 31
0.0
 12
241.5954970702686
 22
297.6778670358101
 32
0.0
 13
241.5954970702686
 23
297.6778670358101
 33
0.0
  0
SOLID
  5
1B6D
330
1A98
100
AcDbEntity
  8
11100_Left_Dim
  6
Continuous
100
AcDbTrace
 10
241.1788304036019
 20
254.6278670358101
 30
0.0
 11
242.0121637369353
 21
254.6278670358101
 31
0.0
 12
241.5954970702686
 22
252.1278670358102
 32
0.0
 13
241.5954970702686
 23
252.1278670358102
 33
0.0
  0
MTEXT
  5
1B6E
330
1A98
100
AcDbEntity
  8
11100_Left_Dim
  6
Continuous
 62
     7
370
    13
100
AcDbMText
 10
241.5954970702686
 20
274.9028670358102
 30
0.0
 40
5.0
 41
0.0
 71
     5
 72
     1
  1
\A1;46
 11
0.0000000000000001
 21
1.0
 31
0.0
 73
     1
 44
1.0
1001
ACAD
1000
MTEXTBEGIN
1070
    73
1070
     1
1070
    44
1040
1.0
1070
    74
1070
     0
1000
MTEXTEND
  0
POINT
  5
1B6F
330
1A98
100
AcDbEntity
  8
Defpoints
  6
Continuous
 62
     0
100
AcDbPoint
 10
257.0107578474898
 20
297.6778670358101
 30
0.0
  0
POINT
  5
1B70
330
1A98
100
AcDbEntity
  8
Defpoints
  6
Continuous
 62
     0
100
AcDbPoint
 10
251.5107578474898
 20
252.1278670358102
 30
0.0
  0
POINT
  5
1B71
330
1A98
100
AcDbEntity
  8
Defpoints
  6
Continuous
 62
     0
100
AcDbPoint
 10
241.5954970702686
 20
252.1278670358102
 30
0.0
  0
ENDBLK
  5
1AA3
330
1A98
100
AcDbEntity
  8
0
100
AcDbBlockEnd
  0
BLOCK
  5
1ABA
330
1AB0
100
AcDbEntity
  8
0
100
AcDbBlockBegin
  2
*D14
 70
     1
 10
0.0
 20
0.0
 30
0.0
  3
*D14
  1

  0
LINE
  5
1B5E
330
1AB0
100
AcDbEntity
  8
11100_Left_Dim
  6
Continuous
370
    -2
100
AcDbLine
 10
251.5107578474898
 20
292.1778670358102
 30
0.0
 11
251.5107578474898
 21
313.3737971578232
 31
0.0
  0
LINE
  5
1B5F
330
1AB0
100
AcDbEntity
  8
11100_Left_Dim
  6
Continuous
370
    -2
100
AcDbLine
 10
292.1607578474897
 20
296.9278670358102
 30
0.0
 11
292.1607578474897
 21
313.3737971578232
 31
0.0
  0
LINE
  5
1B60
330
1AB0
100
AcDbEntity
  8
11100_Left_Dim
  6
Continuous
370
    -2
100
AcDbLine
 10
254.0107578474898
 20
311.3737971578232
 30
0.0
 11
267.0024245141564
 21
311.3737971578232
 31
0.0
  0
LINE
  5
1B61
330
1AB0
100
AcDbEntity
  8
11100_Left_Dim
  6
Continuous
370
    -2
100
AcDbLine
 10
289.6607578474897
 20
311.3737971578232
 30
0.0
 11
276.669091180823
 21
311.3737971578232
 31
0.0
  0
SOLID
  5
1B62
330
1AB0
100
AcDbEntity
  8
11100_Left_Dim
  6
Continuous
100
AcDbTrace
 10
254.0107578474898
 20
311.7904638244898
 30
0.0
 11
254.0107578474898
 21
310.9571304911564
 31
0.0
 12
251.5107578474898
 22
311.3737971578232
 32
0.0
 13
251.5107578474898
 23
311.3737971578232
 33
0.0
  0
SOLID
  5
1B63
330
1AB0
100
AcDbEntity
  8
11100_Left_Dim
  6
Continuous
100
AcDbTrace
 10
289.6607578474897
 20
311.7904638244898
 30
0.0
 11
289.6607578474897
 21
310.9571304911564
 31
0.0
 12
292.1607578474897
 22
311.3737971578232
 32
0.0
 13
292.1607578474897
 23
311.3737971578232
 33
0.0
  0
MTEXT
  5
1B64
330
1AB0
100
AcDbEntity
  8
11100_Left_Dim
  6
Continuous
 62
     7
370
    13
100
AcDbMText
 10
271.8357578474897
 20
311.3737971578232
 30
0.0
 40
5.0
 41
0.0
 71
     5
 72
     1
  1
\A1;41
 73
     1
 44
1.0
1001
ACAD
1000
MTEXTBEGIN
1070
    73
1070
     1
1070
    44
1040
1.0
1070
    74
1070
     0
1000
MTEXTEND
  0
POINT
  5
1B65
330
1AB0
100
AcDbEntity
  8
Defpoints
  6
Continuous
 62
     0
100
AcDbPoint
 10
251.5107578474898
 20
292.1778670358102
 30
0.0
  0
POINT
  5
1B66
330
1AB0
100
AcDbEntity
  8
Defpoints
  6
Continuous
 62
     0
100
AcDbPoint
 10
292.1607578474897
 20
296.9278670358102
 30
0.0
  0
POINT
  5
1B67
330
1AB0
100
AcDbEntity
  8
Defpoints
  6
Continuous
 62
     0
100
AcDbPoint
 10
292.1607578474897
 20
311.3737971578232
 30
0.0
  0
ENDBLK
  5
1ABB
330
1AB0
100
AcDbEntity
  8
0
100
AcDbBlockEnd
  0
BLOCK
  5
1AD2
330
1AC8
100
AcDbEntity
  8
0
100
AcDbBlockBegin
  2
*D15
 70
     1
 10
0.0
 20
0.0
 30
0.0
  3
*D15
  1

  0
LINE
  5
1B54
330
1AC8
100
AcDbEntity
  8
11100_Left_Dim
  6
Continuous
370
    -2
100
AcDbLine
 10
292.1607578474897
 20
296.9278670358102
 30
0.0
 11
292.1607578474897
 21
306.5601410839406
 31
0.0
  0
LINE
  5
1B55
330
1AC8
100
AcDbEntity
  8
11100_Left_Dim
  6
Continuous
370
    -2
100
AcDbLine
 10
264.9607578474896
 20
297.6778670358101
 30
0.0
 11
264.9607578474896
 21
306.5601410839406
 31
0.0
  0
LINE
  5
1B56
330
1AC8
100
AcDbEntity
  8
11100_Left_Dim
  6
Continuous
370
    -2
100
AcDbLine
 10
289.6607578474897
 20
304.5601410839406
 30
0.0
 11
284.2274245141563
 21
304.5601410839406
 31
0.0
  0
LINE
  5
1B57
330
1AC8
100
AcDbEntity
  8
11100_Left_Dim
  6
Continuous
370
    -2
100
AcDbLine
 10
267.4607578474895
 20
304.5601410839406
 30
0.0
 11
272.8940911808229
 21
304.5601410839406
 31
0.0
  0
SOLID
  5
1B58
330
1AC8
100
AcDbEntity
  8
11100_Left_Dim
  6
Continuous
100
AcDbTrace
 10
289.6607578474897
 20
304.9768077506073
 30
0.0
 11
289.6607578474897
 21
304.1434744172739
 31
0.0
 12
292.1607578474897
 22
304.5601410839406
 32
0.0
 13
292.1607578474897
 23
304.5601410839406
 33
0.0
  0
SOLID
  5
1B59
330
1AC8
100
AcDbEntity
  8
11100_Left_Dim
  6
Continuous
100
AcDbTrace
 10
267.4607578474895
 20
304.9768077506073
 30
0.0
 11
267.4607578474895
 21
304.1434744172739
 31
0.0
 12
264.9607578474896
 22
304.5601410839406
 32
0.0
 13
264.9607578474896
 23
304.5601410839406
 33
0.0
  0
MTEXT
  5
1B5A
330
1AC8
100
AcDbEntity
  8
11100_Left_Dim
  6
Continuous
 62
     7
370
    13
100
AcDbMText
 10
278.5607578474897
 20
304.5601410839406
 30
0.0
 40
5.0
 41
0.0
 71
     5
 72
     1
  1
\A1;27
 73
     1
 44
1.0
1001
ACAD
1000
MTEXTBEGIN
1070
    73
1070
     1
1070
    44
1040
1.0
1070
    74
1070
     0
1000
MTEXTEND
  0
POINT
  5
1B5B
330
1AC8
100
AcDbEntity
  8
Defpoints
  6
Continuous
 62
     0
100
AcDbPoint
 10
292.1607578474897
 20
296.9278670358102
 30
0.0
  0
POINT
  5
1B5C
330
1AC8
100
AcDbEntity
  8
Defpoints
  6
Continuous
 62
     0
100
AcDbPoint
 10
264.9607578474896
 20
297.6778670358101
 30
0.0
  0
POINT
  5
1B5D
330
1AC8
100
AcDbEntity
  8
Defpoints
  6
Continuous
 62
     0
100
AcDbPoint
 10
264.9607578474896
 20
304.5601410839406
 30
0.0
  0
ENDBLK
  5
1AD3
330
1AC8
100
AcDbEntity
  8
0
100
AcDbBlockEnd
  0
BLOCK
  5
1BC8
330
1BC7
100
AcDbEntity
  8
0
 62
     1
100
AcDbBlockBegin
  2
*D16
 70
     1
 10
0.0
 20
0.0
 30
0.0
  3
*D16
  1

  0
LINE
  5
1BC9
330
1BC7
100
AcDbEntity
  8
1
  6
Continuous
 62
     0
370
    -2
100
AcDbLine
 10
594.6557399999999
 20
504.0194399999999
 30
0.0
 11
594.6557399999999
 21
492.2927949991503
 31
0.0
  0
LINE
  5
1BCA
330
1BC7
100
AcDbEntity
  8
1
  6
Continuous
 62
     0
370
    -2
100
AcDbLine
 10
694.6557399999999
 20
504.0194399999999
 30
0.0
 11
694.6557399999999
 21
492.2927949991503
 31
0.0
  0
LINE
  5
1BCB
330
1BC7
100
AcDbEntity
  8
1
  6
Continuous
 62
     0
370
    -2
100
AcDbLine
 10
594.7807399999999
 20
492.4177949991503
 30
0.0
 11
634.5932399999999
 21
492.4177949991503
 31
0.0
  0
LINE
  5
1BCC
330
1BC7
100
AcDbEntity
  8
1
  6
Continuous
 62
     0
370
    -2
100
AcDbLine
 10
694.5307399999999
 20
492.4177949991503
 30
0.0
 11
654.7182399999999
 21
492.4177949991503
 31
0.0
  0
SOLID
  5
1BCD
330
1BC7
100
AcDbEntity
  8
1
  6
Continuous
 62
     0
100
AcDbTrace
 10
594.7807399999999
 20
492.4386283324836
 30
0.0
 11
594.7807399999999
 21
492.396961665817
 31
0.0
 12
594.6557399999999
 22
492.4177949991503
 32
0.0
 13
594.6557399999999
 23
492.4177949991503
 33
0.0
  0
SOLID
  5
1BCE
330
1BC7
100
AcDbEntity
  8
1
  6
Continuous
 62
     0
100
AcDbTrace
 10
694.5307399999999
 20
492.4386283324836
 30
0.0
 11
694.5307399999999
 21
492.396961665817
 31
0.0
 12
694.6557399999999
 22
492.4177949991503
 32
0.0
 13
694.6557399999999
 23
492.4177949991503
 33
0.0
  0
MTEXT
  5
1BCF
330
1BC7
100
AcDbEntity
  8
1
  6
Continuous
 62
     0
100
AcDbMText
 10
644.6557399999999
 20
492.4177949991503
 30
0.0
 40
3.0
 41
0.0
 71
     5
 72
     1
  1
\A1;100.000
 73
     1
 44
1.0
1001
ACAD
1000
MTEXTBEGIN
1070
    73
1070
     1
1070
    44
1040
1.0
1070
    74
1070
     0
1000
MTEXTEND
  0
POINT
  5
1BD0
330
1BC7
100
AcDbEntity
  8
Defpoints
  6
Continuous
 62
     0
100
AcDbPoint
 10
594.6557399999999
 20
504.08194
 30
0.0
  0
POINT
  5
1BD1
330
1BC7
100
AcDbEntity
  8
Defpoints
  6
Continuous
 62
     0
100
AcDbPoint
 10
694.6557399999999
 20
504.08194
 30
0.0
  0
POINT
  5
1BD2
330
1BC7
100
AcDbEntity
  8
Defpoints
  6
Continuous
 62
     0
100
AcDbPoint
 10
694.6557399999999
 20
492.4177949991503
 30
0.0
  0
ENDBLK
  5
1BD3
330
1BC7
100
AcDbEntity
  8
0
 62
     1
100
AcDbBlockEnd
  0
BLOCK
  5
1BD5
330
1BD4
100
AcDbEntity
  8
0
 62
     1
100
AcDbBlockBegin
  2
*D17
 70
     1
 10
0.0
 20
0.0
 30
0.0
  3
*D17
  1

  0
LINE
  5
1BD6
330
1BD4
100
AcDbEntity
  8
1
  6
Continuous
 62
     0
370
    -2
100
AcDbLine
 10
713.7216255492582
 20
506.3194399999999
 30
0.0
 11
713.7216255492582
 21
492.1677949991503
 31
0.0
  0
LINE
  5
1BD7
330
1BD4
100
AcDbEntity
  8
1
  6
Continuous
 62
     0
370
    -2
100
AcDbLine
 10
811.6400181056516
 20
508.1013704211647
 30
0.0
 11
811.6400181056516
 21
492.1677949991503
 31
0.0
  0
LINE
  5
1BD8
330
1BD4
100
AcDbEntity
  8
1
  6
Continuous
 62
     0
370
    -2
100
AcDbLine
 10
713.8466255492581
 20
492.2927949991503
 30
0.0
 11
754.1183218274548
 21
492.2927949991503
 31
0.0
  0
LINE
  5
1BD9
330
1BD4
100
AcDbEntity
  8
1
  6
Continuous
 62
     0
370
    -2
100
AcDbLine
 10
811.5150181056517
 20
492.2927949991503
 30
0.0
 11
771.2433218274549
 21
492.2927949991503
 31
0.0
  0
SOLID
  5
1BDA
330
1BD4
100
AcDbEntity
  8
1
  6
Continuous
 62
     0
100
AcDbTrace
 10
713.8466255492581
 20
492.3136283324836
 30
0.0
 11
713.8466255492581
 21
492.271961665817
 31
0.0
 12
713.7216255492582
 22
492.2927949991503
 32
0.0
 13
713.7216255492582
 23
492.2927949991503
 33
0.0
  0
SOLID
  5
1BDB
330
1BD4
100
AcDbEntity
  8
1
  6
Continuous
 62
     0
100
AcDbTrace
 10
811.5150181056517
 20
492.3136283324836
 30
0.0
 11
811.5150181056517
 21
492.271961665817
 31
0.0
 12
811.6400181056516
 22
492.2927949991503
 32
0.0
 13
811.6400181056516
 23
492.2927949991503
 33
0.0
  0
MTEXT
  5
1BDC
330
1BD4
100
AcDbEntity
  8
1
  6
Continuous
 62
     0
100
AcDbMText
 10
762.6808218274549
 20
492.2927949991503
 30
0.0
 40
3.0
 41
0.0
 71
     5
 72
     1
  1
\A1;97.918
 73
     1
 44
1.0
1001
ACAD
1000
MTEXTBEGIN
1070
    73
1070
     1
1070
    44
1040
1.0
1070
    74
1070
     0
1000
MTEXTEND
  0
POINT
  5
1BDD
330
1BD4
100
AcDbEntity
  8
Defpoints
  6
Continuous
 62
     0
100
AcDbPoint
 10
713.7216255492582
 20
506.3819399999999
 30
0.0
  0
POINT
  5
1BDE
330
1BD4
100
AcDbEntity
  8
Defpoints
  6
Continuous
 62
     0
100
AcDbPoint
 10
811.6400181056516
 20
508.1638704211647
 30
0.0
  0
POINT
  5
1BDF
330
1BD4
100
AcDbEntity
  8
Defpoints
  6
Continuous
 62
     0
100
AcDbPoint
 10
811.6400181056516
 20
492.2927949991503
 30
0.0
  0
ENDBLK
  5
1BE0
330
1BD4
100
AcDbEntity
  8
0
 62
     1
100
AcDbBlockEnd
  0
BLOCK
  5
1BE2
330
1BE1
100
AcDbEntity
  8
0
 62
     1
100
AcDbBlockBegin
  2
*D18
 70
     1
 10
0.0
 20
0.0
 30
0.0
  3
*D18
  1

  0
LINE
  5
1BE3
330
1BE1
100
AcDbEntity
  8
1
  6
Continuous
 62
     0
370
    -2
100
AcDbLine
 10
693.9182399999999
 20
503.28194
 30
0.0
 11
704.2457460766627
 21
503.28194
 31
0.0
  0
LINE
  5
1BE4
330
1BE1
100
AcDbEntity
  8
1
  6
Continuous
 62
     0
370
    -2
100
AcDbLine
 10
692.5682399999999
 20
530.2819399999999
 30
0.0
 11
704.2457460766627
 21
530.2819399999999
 31
0.0
  0
LINE
  5
1BE5
330
1BE1
100
AcDbEntity
  8
1
  6
Continuous
 62
     0
370
    -2
100
AcDbLine
 10
704.1207460766627
 20
503.4069399999999
 30
0.0
 11
704.1207460766627
 21
515.2194399999999
 31
0.0
  0
LINE
  5
1BE6
330
1BE1
100
AcDbEntity
  8
1
  6
Continuous
 62
     0
370
    -2
100
AcDbLine
 10
704.1207460766627
 20
530.1569399999999
 30
0.0
 11
704.1207460766627
 21
518.3444399999999
 31
0.0
  0
SOLID
  5
1BE7
330
1BE1
100
AcDbEntity
  8
1
  6
Continuous
 62
     0
100
AcDbTrace
 10
704.0999127433293
 20
503.4069399999999
 30
0.0
 11
704.1415794099961
 21
503.4069399999999
 31
0.0
 12
704.1207460766627
 22
503.28194
 32
0.0
 13
704.1207460766627
 23
503.28194
 33
0.0
  0
SOLID
  5
1BE8
330
1BE1
100
AcDbEntity
  8
1
  6
Continuous
 62
     0
100
AcDbTrace
 10
704.0999127433293
 20
530.1569399999999
 30
0.0
 11
704.1415794099961
 21
530.1569399999999
 31
0.0
 12
704.1207460766627
 22
530.2819399999999
 32
0.0
 13
704.1207460766627
 23
530.2819399999999
 33
0.0
  0
MTEXT
  5
1BE9
330
1BE1
100
AcDbEntity
  8
1
  6
Continuous
 62
     0
100
AcDbMText
 10
704.1207460766626
 20
516.78194
 30
0.0
 40
3.0
 41
0.0
 71
     5
 72
     1
  1
\A1;27.000
 73
     1
 44
1.0
1001
ACAD
1000
MTEXTBEGIN
1070
    73
1070
     1
1070
    44
1040
1.0
1070
    74
1070
     0
1000
MTEXTEND
  0
POINT
  5
1BEA
330
1BE1
100
AcDbEntity
  8
Defpoints
  6
Continuous
 62
     0
100
AcDbPoint
 10
693.8557399999999
 20
503.28194
 30
0.0
  0
POINT
  5
1BEB
330
1BE1
100
AcDbEntity
  8
Defpoints
  6
Continuous
 62
     0
100
AcDbPoint
 10
692.50574
 20
530.2819399999999
 30
0.0
  0
POINT
  5
1BEC
330
1BE1
100
AcDbEntity
  8
Defpoints
  6
Continuous
 62
     0
100
AcDbPoint
 10
704.1207460766627
 20
530.2819399999999
 30
0.0
  0
ENDBLK
  5
1BED
330
1BE1
100
AcDbEntity
  8
0
 62
     1
100
AcDbBlockEnd
  0
BLOCK
  5
2264
330
2259
100
AcDbEntity
  8
0
100
AcDbBlockBegin
  2
*D20
 70
     1
 10
0.0
 20
0.0
 30
0.0
  3
*D20
  1

  0
LINE
  5
22C6
330
2259
100
AcDbEntity
  8
10100_Front_Dim
  6
Continuous
370
    -2
100
AcDbLine
 10
223.4992919371192
 20
271.3093571383551
 30
0.0
 11
235.764298013782
 21
271.3093571383551
 31
0.0
  0
LINE
  5
22C7
330
2259
100
AcDbEntity
  8
10100_Front_Dim
  6
Continuous
370
    -2
100
AcDbLine
 10
222.1492919371192
 20
298.3093571383551
 30
0.0
 11
235.764298013782
 21
298.3093571383551
 31
0.0
  0
LINE
  5
22C8
330
2259
100
AcDbEntity
  8
10100_Front_Dim
  6
Continuous
370
    -2
100
AcDbLine
 10
233.764298013782
 20
273.8093571383551
 30
0.0
 11
233.764298013782
 21
279.1426904716884
 31
0.0
  0
LINE
  5
22C9
330
2259
100
AcDbEntity
  8
10100_Front_Dim
  6
Continuous
370
    -2
100
AcDbLine
 10
233.764298013782
 20
295.8093571383551
 30
0.0
 11
233.764298013782
 21
290.4760238050218
 31
0.0
  0
SOLID
  5
22CA
330
2259
100
AcDbEntity
  8
10100_Front_Dim
  6
Continuous
100
AcDbTrace
 10
233.3476313471153
 20
273.8093571383551
 30
0.0
 11
234.1809646804486
 21
273.8093571383551
 31
0.0
 12
233.764298013782
 22
271.3093571383551
 32
0.0
 13
233.764298013782
 23
271.3093571383551
 33
0.0
  0
SOLID
  5
22CB
330
2259
100
AcDbEntity
  8
10100_Front_Dim
  6
Continuous
100
AcDbTrace
 10
233.3476313471153
 20
295.8093571383551
 30
0.0
 11
234.1809646804486
 21
295.8093571383551
 31
0.0
 12
233.764298013782
 22
298.3093571383551
 32
0.0
 13
233.764298013782
 23
298.3093571383551
 33
0.0
  0
MTEXT
  5
22CC
330
2259
100
AcDbEntity
  8
10100_Front_Dim
  6
Continuous
 62
     7
370
    13
100
AcDbMText
 10
233.764298013782
 20
284.8093571383552
 30
0.0
 40
5.0
 41
0.0
 71
     5
 72
     1
  1
\A1;27
 11
0.0000000000000001
 21
1.0
 31
0.0
 73
     1
 44
1.0
1001
ACAD
1000
MTEXTBEGIN
1070
    73
1070
     1
1070
    44
1040
1.0
1070
    74
1070
     0
1000
MTEXTEND
  0
POINT
  5
22CD
330
2259
100
AcDbEntity
  8
Defpoints
  6
Continuous
 62
     0
100
AcDbPoint
 10
223.4992919371192
 20
271.3093571383551
 30
0.0
  0
POINT
  5
22CE
330
2259
100
AcDbEntity
  8
Defpoints
  6
Continuous
 62
     0
100
AcDbPoint
 10
222.1492919371192
 20
298.3093571383551
 30
0.0
  0
POINT
  5
22CF
330
2259
100
AcDbEntity
  8
Defpoints
  6
Continuous
 62
     0
100
AcDbPoint
 10
233.764298013782
 20
298.3093571383551
 30
0.0
  0
ENDBLK
  5
2265
330
2259
100
AcDbEntity
  8
0
100
AcDbBlockEnd
  0
BLOCK
  5
2271
330
2266
100
AcDbEntity
  8
0
100
AcDbBlockBegin
  2
*D21
 70
     1
 10
0.0
 20
0.0
 30
0.0
  3
*D21
  1

  0
LINE
  5
22B2
330
2266
100
AcDbEntity
  8
11100_Left_Dim
  6
Continuous
370
    -2
100
AcDbLine
 10
243.3651774863774
 20
274.4093571383552
 30
0.0
 11
243.3651774863774
 21
258.3202121375056
 31
0.0
  0
LINE
  5
22B3
330
2266
100
AcDbEntity
  8
11100_Left_Dim
  6
Continuous
370
    -2
100
AcDbLine
 10
341.2835700427709
 20
276.1912875595199
 30
0.0
 11
341.2835700427709
 21
258.3202121375056
 31
0.0
  0
LINE
  5
22B4
330
2266
100
AcDbEntity
  8
11100_Left_Dim
  6
Continuous
370
    -2
100
AcDbLine
 10
245.8651774863774
 20
260.3202121375056
 30
0.0
 11
286.6577070979074
 21
260.3202121375056
 31
0.0
  0
LINE
  5
22B5
330
2266
100
AcDbEntity
  8
11100_Left_Dim
  6
Continuous
370
    -2
100
AcDbLine
 10
338.7835700427709
 20
260.3202121375056
 30
0.0
 11
297.9910404312408
 21
260.3202121375056
 31
0.0
  0
SOLID
  5
22B6
330
2266
100
AcDbEntity
  8
11100_Left_Dim
  6
Continuous
100
AcDbTrace
 10
245.8651774863774
 20
260.7368788041723
 30
0.0
 11
245.8651774863774
 21
259.9035454708389
 31
0.0
 12
243.3651774863774
 22
260.3202121375056
 32
0.0
 13
243.3651774863774
 23
260.3202121375056
 33
0.0
  0
SOLID
  5
22B7
330
2266
100
AcDbEntity
  8
11100_Left_Dim
  6
Continuous
100
AcDbTrace
 10
338.7835700427709
 20
260.7368788041723
 30
0.0
 11
338.7835700427709
 21
259.9035454708389
 31
0.0
 12
341.2835700427709
 22
260.3202121375056
 32
0.0
 13
341.2835700427709
 23
260.3202121375056
 33
0.0
  0
MTEXT
  5
22B8
330
2266
100
AcDbEntity
  8
11100_Left_Dim
  6
Continuous
 62
     7
370
    13
100
AcDbMText
 10
292.3243737645742
 20
260.3202121375056
 30
0.0
 40
5.0
 41
0.0
 71
     5
 72
     1
  1
\A1;98
 73
     1
 44
1.0
1001
ACAD
1000
MTEXTBEGIN
1070
    73
1070
     1
1070
    44
1040
1.0
1070
    74
1070
     0
1000
MTEXTEND
  0
POINT
  5
22B9
330
2266
100
AcDbEntity
  8
Defpoints
  6
Continuous
 62
     0
100
AcDbPoint
 10
243.3651774863774
 20
274.4093571383552
 30
0.0
  0
POINT
  5
22BA
330
2266
100
AcDbEntity
  8
Defpoints
  6
Continuous
 62
     0
100
AcDbPoint
 10
341.2835700427709
 20
276.1912875595199
 30
0.0
  0
POINT
  5
22BB
330
2266
100
AcDbEntity
  8
Defpoints
  6
Continuous
 62
     0
100
AcDbPoint
 10
341.2835700427709
 20
260.3202121375056
 30
0.0
  0
ENDBLK
  5
2272
330
2266
100
AcDbEntity
  8
0
100
AcDbBlockEnd
  0
BLOCK
  5
227E
330
2273
100
AcDbEntity
  8
0
100
AcDbBlockBegin
  2
*D22
 70
     1
 10
0.0
 20
0.0
 30
0.0
  3
*D22
  1

  0
LINE
  5
22A8
330
2273
100
AcDbEntity
  8
10100_Front_Dim
  6
Continuous
370
    -2
100
AcDbLine
 10
124.2992919371193
 20
272.1093571383551
 30
0.0
 11
124.2992919371193
 21
258.4452121375055
 31
0.0
  0
LINE
  5
22A9
330
2273
100
AcDbEntity
  8
10100_Front_Dim
  6
Continuous
370
    -2
100
AcDbLine
 10
224.2992919371193
 20
272.1093571383551
 30
0.0
 11
224.2992919371193
 21
258.4452121375055
 31
0.0
  0
LINE
  5
22AA
330
2273
100
AcDbEntity
  8
10100_Front_Dim
  6
Continuous
370
    -2
100
AcDbLine
 10
126.7992919371192
 20
260.4452121375055
 30
0.0
 11
167.7992919371193
 21
260.4452121375055
 31
0.0
  0
LINE
  5
22AB
330
2273
100
AcDbEntity
  8
10100_Front_Dim
  6
Continuous
370
    -2
100
AcDbLine
 10
221.7992919371193
 20
260.4452121375055
 30
0.0
 11
180.7992919371192
 21
260.4452121375055
 31
0.0
  0
SOLID
  5
22AC
330
2273
100
AcDbEntity
  8
10100_Front_Dim
  6
Continuous
100
AcDbTrace
 10
126.7992919371192
 20
260.8618788041722
 30
0.0
 11
126.7992919371192
 21
260.0285454708389
 31
0.0
 12
124.2992919371193
 22
260.4452121375055
 32
0.0
 13
124.2992919371193
 23
260.4452121375055
 33
0.0
  0
SOLID
  5
22AD
330
2273
100
AcDbEntity
  8
10100_Front_Dim
  6
Continuous
100
AcDbTrace
 10
221.7992919371193
 20
260.8618788041722
 30
0.0
 11
221.7992919371193
 21
260.0285454708389
 31
0.0
 12
224.2992919371193
 22
260.4452121375055
 32
0.0
 13
224.2992919371193
 23
260.4452121375055
 33
0.0
  0
MTEXT
  5
22AE
330
2273
100
AcDbEntity
  8
10100_Front_Dim
  6
Continuous
 62
     7
370
    13
100
AcDbMText
 10
174.2992919371193
 20
260.4452121375055
 30
0.0
 40
5.0
 41
0.0
 71
     5
 72
     1
  1
\A1;100
 73
     1
 44
1.0
1001
ACAD
1000
MTEXTBEGIN
1070
    73
1070
     1
1070
    44
1040
1.0
1070
    74
1070
     0
1000
MTEXTEND
  0
POINT
  5
22AF
330
2273
100
AcDbEntity
  8
Defpoints
  6
Continuous
 62
     0
100
AcDbPoint
 10
124.2992919371193
 20
272.1093571383551
 30
0.0
  0
POINT
  5
22B0
330
2273
100
AcDbEntity
  8
Defpoints
  6
Continuous
 62
     0
100
AcDbPoint
 10
224.2992919371193
 20
272.1093571383551
 30
0.0
  0
POINT
  5
22B1
330
2273
100
AcDbEntity
  8
Defpoints
  6
Continuous
 62
     0
100
AcDbPoint
 10
224.2992919371193
 20
260.4452121375055
 30
0.0
  0
ENDBLK
  5
227F
330
2273
100
AcDbEntity
  8
0
100
AcDbBlockEnd
  0
ENDSEC
  0
SECTION
  2
ENTITIES
  0
LINE
  5
11E
330
1F
100
AcDbEntity
  8
90000_FRAME
  6
Continuous
 62
     7
370
    13
100
AcDbLine
 10
374.6888847755195
 20
155.236247691281
 30
0.0
 11
374.6888847755196
 21
355.236247691281
 31
0.0
  0
LINE
  5
12A
330
1F
100
AcDbEntity
  8
90000_FRAME
  6
Continuous
 62
     7
370
    13
100
AcDbLine
 10
374.6888847755195
 20
155.236247691281
 30
0.0
 11
104.6888847755194
 21
155.236247691281
 31
0.0
  0
LINE
  5
12B
330
1F
100
AcDbEntity
  8
90000_FRAME
  6
Continuous
 62
     7
370
    13
100
AcDbLine
 10
104.6888847755194
 20
155.236247691281
 30
0.0
 11
104.6888847755194
 21
355.236247691281
 31
0.0
  0
CIRCLE
  5
148
330
1F
100
AcDbEntity
  8
91000_TIP
  6
Continuous
 62
     7
370
    13
100
AcDbCircle
 10
226.0035545425455
 20
169.0599852647516
 30
0.0
 40
2.499999948899997
  0
CIRCLE
  5
149
330
1F
100
AcDbEntity
  8
91000_TIP
  6
Continuous
 62
     7
370
    13
100
AcDbCircle
 10
226.0035545425455
 20
169.0599852647516
 30
0.0
 40
4.9999998979
  0
LINE
  5
14A
330
1F
100
AcDbEntity
  8
91000_TIP
  6
CENTER
 62
     7
370
    13
100
AcDbLine
 10
226.0035545425455
 20
163.3385040583516
 30
0.0
 11
226.0035545425455
 21
174.6218900583516
 31
0.0
  0
LINE
  5
14B
330
1F
100
AcDbEntity
  8
91000_TIP
  6
Continuous
 62
     7
370
    13
100
AcDbLine
 10
219.5035546753456
 20
174.0599851626516
 30
0.0
 11
219.5035546753456
 21
164.0599853668515
 31
0.0
  0
LINE
  5
14C
330
1F
100
AcDbEntity
  8
91000_TIP
  6
Continuous
 62
     7
370
    13
100
AcDbLine
 10
209.5035548795455
 20
171.5599852136516
 30
0.0
 11
209.5035548795455
 21
166.5599853158516
 31
0.0
  0
LINE
  5
14D
330
1F
100
AcDbEntity
  8
91000_TIP
  6
Continuous
 62
     7
370
    13
100
AcDbLine
 10
209.5035548795455
 20
166.5599853158516
 30
0.0
 11
219.5035546753456
 21
164.0599853668515
 31
0.0
  0
LINE
  5
14E
330
1F
100
AcDbEntity
  8
91000_TIP
  6
CENTER
 62
     7
370
    13
100
AcDbLine
 10
208.2240444075446
 20
169.0599852647516
 30
0.0
 11
231.8260336716445
 21
169.0599852647516
 31
0.0
  0
LINE
  5
14F
330
1F
100
AcDbEntity
  8
91000_TIP
  6
Continuous
 62
     7
370
    13
100
AcDbLine
 10
209.5035548795455
 20
171.5599852136516
 30
0.0
 11
219.5035546753456
 21
174.0599851626516
 31
0.0
  0
TEXT
  5
150
330
1F
100
AcDbEntity
  8
91000_TIP
  6
Continuous
 62
     7
370
    13
100
AcDbText
 10
110.1891925356511
 20
162.0281958460563
 30
0.0
 40
2.5
  1
All dimensions are in millimeters (mm).
 41
0.7513350295680271
 72
     5
 11
170.2959949010932
 21
162.0281958460563
 31
0.0
100
AcDbText
  0
TEXT
  5
151
330
1F
100
AcDbEntity
  8
91000_TIP
  6
Continuous
 62
     7
370
    13
100
AcDbText
 10
110.1891925356511
 20
167.2781958460564
 30
0.0
 40
2.5
  1
Alle Bemassungswerte sind in Millimeter (mm) angegeben.
 41
0.6056311217924574
 72
     5
 11
183.8743123537334
 21
167.2781958460564
 31
0.0
100
AcDbText
  0
TEXT
  5
152
330
1F
100
AcDbEntity
  8
90000_FRAME
  6
Continuous
 62
     7
370
    13
100
AcDbText
 10
297.9948092994703
 20
170.486247691281
 30
0.0
 40
3.5
  1
3RT1956_00000682_000_ALL
 41
0.7261321223270569
 72
     5
 11
353.9069827186537
 21
170.486247691281
 31
0.0
100
AcDbText
  0
TEXT
  5
153
330
1F
100
AcDbEntity
  8
90000_FRAME
  6
Continuous
 62
     7
370
    13
100
AcDbText
 10
327.8488847755195
 20
162.1362476912809
 30
0.0
 40
2.2
  1
Massstab / Scale: 1:1
 41
0.7732634338148463
 72
     5
 11
358.7536466803195
 21
162.1362476912809
 31
0.0
100
AcDbText
  0
TEXT
  5
154
330
1F
100
AcDbEntity
  8
90000_FRAME
  6
Continuous
 62
     7
370
    13
100
AcDbText
 10
285.3488847755195
 20
162.1362476912809
 30
0.0
 40
2.2
  1
Format / Size: DIN A4
 41
0.7994987468660261
 72
     5
 11
318.7679323945194
 21
162.1362476912809
 31
0.0
100
AcDbText
  0
LINE
  5
155
330
1F
100
AcDbEntity
  8
90000_FRAME
  6
Continuous
 62
     7
370
    13
100
AcDbLine
 10
369.6888847755195
 20
160.236247691281
 30
0.0
 11
369.6888847755195
 21
178.236247691281
 31
0.0
  0
LINE
  5
156
330
1F
100
AcDbEntity
  8
90000_FRAME
  6
Continuous
 62
     7
370
    13
100
AcDbLine
 10
327.1888847755196
 20
160.236247691281
 30
0.0
 11
327.1888847755196
 21
166.236247691281
 31
0.0
  0
LINE
  5
157
330
1F
100
AcDbEntity
  8
90000_FRAME
  6
Continuous
 62
     7
370
    13
100
AcDbLine
 10
284.6888847755195
 20
160.236247691281
 30
0.0
 11
284.6888847755195
 21
178.236247691281
 31
0.0
  0
LINE
  5
158
330
1F
100
AcDbEntity
  8
90000_FRAME
  6
Continuous
 62
     7
370
    13
100
AcDbLine
 10
234.6888847755196
 20
178.236247691281
 30
0.0
 11
369.6888847755195
 21
178.236247691281
 31
0.0
  0
LINE
  5
159
330
1F
100
AcDbEntity
  8
90000_FRAME
  6
Continuous
 62
     7
370
    13
100
AcDbLine
 10
284.6888847755195
 20
166.236247691281
 30
0.0
 11
369.6888847755195
 21
166.236247691281
 31
0.0
  0
LINE
  5
15A
330
1F
100
AcDbEntity
  8
90000_FRAME
  6
Continuous
 62
     7
370
    13
100
AcDbLine
 10
234.6888847755196
 20
160.236247691281
 30
0.0
 11
234.6888847755196
 21
178.236247691281
 31
0.0
  0
LINE
  5
15B
330
1F
100
AcDbEntity
  8
90000_FRAME
  6
Continuous
 62
     7
370
    13
100
AcDbLine
 10
234.6888847755196
 20
160.236247691281
 30
0.0
 11
369.6888847755195
 21
160.236247691281
 31
0.0
  0
INSERT
  5
15C
330
1F
100
AcDbEntity
  8
90000_FRAME
  6
Continuous
 62
     7
370
    13
100
AcDbBlockReference
  2
SIEMENS_OUTLINE_BL0
 10
167.3347821594405
 20
149.8979884636777
 30
0.0
  0
LINE
  5
17D
330
1F
100
AcDbEntity
  8
90000_FRAME
  6
Continuous
 62
     7
370
    13
100
AcDbLine
 10
374.6888847755195
 20
355.236247691281
 30
0.0
 11
104.6888847755194
 21
355.236247691281
 31
0.0
  0
DIMENSION
  5
1F26
102
{ACAD_XDICTIONARY
360
1F27
102
}
102
{ACAD_REACTORS
330
1F28
102
}
330
1F
100
AcDbEntity
  8
10100_Front_Dim
  6
Continuous
 62
     7
370
    13
100
AcDbDimension
  2
*D20
 10
233.764298013782
 20
298.3093571383551
 30
0.0
 11
233.764298013782
 21
284.8093571383552
 31
0.0
 70
    32
 71
     5
 42
27.0
  3
H035
100
AcDbAlignedDimension
 13
223.4992919371192
 23
271.3093571383551
 33
0.0
 14
222.1492919371192
 24
298.3093571383551
 34
0.0
 50
90.0
100
AcDbRotatedDimension
1001
ACAD
1000
DSTYLE
1002
{
1070
    40
1040
1.0
1070
    77
1070
     0
1070
   147
1040
1.5
1070
   178
1070
     7
1070
   272
1070
     0
1070
   279
1070
     1
1070
   288
1070
     1
1002
}
  0
DIMENSION
  5
1F29
102
{ACAD_XDICTIONARY
360
1F2A
102
}
102
{ACAD_REACTORS
330
1F2B
102
}
330
1F
100
AcDbEntity
  8
11100_Left_Dim
  6
Continuous
 62
     7
370
    13
100
AcDbDimension
  2
*D21
 10
341.2835700427709
 20
260.3202121375056
 30
0.0
 11
292.3243737645742
 21
260.3202121375056
 31
0.0
 70
    32
 71
     5
 42
97.91839255639343
  3
H035
100
AcDbAlignedDimension
 13
243.3651774863774
 23
274.4093571383552
 33
0.0
 14
341.2835700427709
 24
276.1912875595199
 34
0.0
100
AcDbRotatedDimension
1001
ACAD
1000
DSTYLE
1002
{
1070
    40
1040
1.0
1070
    77
1070
     0
1070
   147
1040
1.5
1070
   178
1070
     7
1070
   272
1070
     0
1070
   279
1070
     1
1070
   288
1070
     1
1002
}
  0
DIMENSION
  5
1F2C
102
{ACAD_XDICTIONARY
360
1F2D
102
}
102
{ACAD_REACTORS
330
1F2E
102
}
330
1F
100
AcDbEntity
  8
10100_Front_Dim
  6
Continuous
 62
     7
370
    13
100
AcDbDimension
  2
*D22
 10
224.2992919371193
 20
260.4452121375055
 30
0.0
 11
174.2992919371193
 21
260.4452121375055
 31
0.0
 70
    32
 71
     5
 42
100.0
  3
H035
100
AcDbAlignedDimension
 13
124.2992919371193
 23
272.1093571383551
 33
0.0
 14
224.2992919371193
 24
272.1093571383551
 34
0.0
100
AcDbRotatedDimension
1001
ACAD
1000
DSTYLE
1002
{
1070
    40
1040
1.0
1070
    77
1070
     0
1070
   147
1040
1.5
1070
   178
1070
     7
1070
   272
1070
     0
1070
   279
1070
     1
1070
   288
1070
     1
1002
}
  0
LINE
  5
1F2F
330
1F
100
AcDbEntity
  8
10000_Front
  6
Continuous
 62
     7
370
    13
100
AcDbLine
 10
219.5992919371192
 20
271.4093571383552
 30
0.0
 11
219.5992919371192
 21
271.8713571383552
 31
0.0
  0
LINE
  5
1F30
330
1F
100
AcDbEntity
  8
10000_Front
  6
Continuous
 62
     7
370
    13
100
AcDbLine
 10
220.3992919371193
 20
271.0133271383552
 30
0.0
 11
219.9992919371192
 21
271.0133271383552
 31
0.0
  0
LINE
  5
1F31
330
1F
100
AcDbEntity
  8
10000_Front
  6
Continuous
 62
     7
370
    13
100
AcDbLine
 10
220.7992919371193
 20
271.8713571383552
 30
0.0
 11
220.7992919371193
 21
271.4093571383552
 31
0.0
  0
LINE
  5
1F32
330
1F
100
AcDbEntity
  8
10000_Front
  6
Continuous
 62
     7
370
    13
100
AcDbLine
 10
220.7992919371193
 20
273.0093571383552
 30
0.0
 11
220.7992919371193
 21
271.8713571383552
 31
0.0
  0
ARC
  5
1F33
330
1F
100
AcDbEntity
  8
10000_Front
  6
Continuous
 62
     7
370
    13
100
AcDbCircle
 10
219.9953416382444
 20
271.4093571383553
 30
0.0
 40
0.3960497011252073
100
AcDbArc
 50
180.0000000000032
 51
270.5714919256867
  0
ARC
  5
1F34
330
1F
100
AcDbEntity
  8
10000_Front
  6
Continuous
 62
     7
370
    13
100
AcDbCircle
 10
220.4032422359942
 20
271.4093571383552
 30
0.0
 40
0.3960497011250936
100
AcDbArc
 50
269.4285080743004
 51
0.0000000000130276
  0
LINE
  5
1F35
330
1F
100
AcDbEntity
  8
10000_Front
  6
Continuous
 62
     7
370
    13
100
AcDbLine
 10
216.3992919371192
 20
271.4093571383552
 30
0.0
 11
216.3992919371192
 21
271.8713571383552
 31
0.0
  0
LINE
  5
1F36
330
1F
100
AcDbEntity
  8
10000_Front
  6
Continuous
 62
     7
370
    13
100
AcDbLine
 10
217.1992919371192
 20
271.0133271383552
 30
0.0
 11
216.7992919371191
 21
271.0133271383552
 31
0.0
  0
LINE
  5
1F37
330
1F
100
AcDbEntity
  8
10000_Front
  6
Continuous
 62
     7
370
    13
100
AcDbLine
 10
217.5992919371192
 20
271.8713571383552
 30
0.0
 11
217.5992919371192
 21
271.4093571383552
 31
0.0
  0
LINE
  5
1F38
330
1F
100
AcDbEntity
  8
10000_Front
  6
Continuous
 62
     7
370
    13
100
AcDbLine
 10
217.5992919371192
 20
273.0093571383552
 30
0.0
 11
217.5992919371192
 21
271.8713571383552
 31
0.0
  0
ARC
  5
1F39
330
1F
100
AcDbEntity
  8
10000_Front
  6
Continuous
 62
     7
370
    13
100
AcDbCircle
 10
216.7953416382444
 20
271.4093571383553
 30
0.0
 40
0.3960497011252073
100
AcDbArc
 50
180.0000000000032
 51
270.5714919256867
  0
ARC
  5
1F3A
330
1F
100
AcDbEntity
  8
10000_Front
  6
Continuous
 62
     7
370
    13
100
AcDbCircle
 10
217.2032422359941
 20
271.4093571383552
 30
0.0
 40
0.3960497011250936
100
AcDbArc
 50
269.4285080743004
 51
0.0000000000130276
  0
LINE
  5
1F3B
330
1F
100
AcDbEntity
  8
10000_Front
  6
Continuous
 62
     7
370
    13
100
AcDbLine
 10
213.3992919371192
 20
271.4093571383552
 30
0.0
 11
213.3992919371192
 21
271.8713571383552
 31
0.0
  0
LINE
  5
1F3C
330
1F
100
AcDbEntity
  8
10000_Front
  6
Continuous
 62
     7
370
    13
100
AcDbLine
 10
214.1992919371193
 20
271.0133271383552
 30
0.0
 11
213.7992919371192
 21
271.0133271383552
 31
0.0
  0
LINE
  5
1F3D
330
1F
100
AcDbEntity
  8
10000_Front
  6
Continuous
 62
     7
370
    13
100
AcDbLine
 10
214.5992919371192
 20
271.8713571383552
 30
0.0
 11
214.5992919371192
 21
271.4093571383552
 31
0.0
  0
LINE
  5
1F3E
330
1F
100
AcDbEntity
  8
10000_Front
  6
Continuous
 62
     7
370
    13
100
AcDbLine
 10
214.5992919371192
 20
273.0093571383552
 30
0.0
 11
214.5992919371192
 21
271.8713571383552
 31
0.0
  0
ARC
  5
1F3F
330
1F
100
AcDbEntity
  8
10000_Front
  6
Continuous
 62
     7
370
    13
100
AcDbCircle
 10
213.7953416382444
 20
271.4093571383553
 30
0.0
 40
0.3960497011252073
100
AcDbArc
 50
180.0000000000032
 51
270.5714919256867
  0
ARC
  5
1F40
330
1F
100
AcDbEntity
  8
10000_Front
  6
Continuous
 62
     7
370
    13
100
AcDbCircle
 10
214.2032422359942
 20
271.4093571383552
 30
0.0
 40
0.3960497011250936
100
AcDbArc
 50
269.4285080743004
 51
0.0000000000130276
  0
LINE
  5
1F41
330
1F
100
AcDbEntity
  8
10000_Front
  6
Continuous
 62
     7
370
    13
100
AcDbLine
 10
210.1992919371193
 20
271.4093571383552
 30
0.0
 11
210.1992919371193
 21
271.8713571383552
 31
0.0
  0
LINE
  5
1F42
330
1F
100
AcDbEntity
  8
10000_Front
  6
Continuous
 62
     7
370
    13
100
AcDbLine
 10
210.9992919371193
 20
271.0133271383552
 30
0.0
 11
210.5992919371192
 21
271.0133271383552
 31
0.0
  0
LINE
  5
1F43
330
1F
100
AcDbEntity
  8
10000_Front
  6
Continuous
 62
     7
370
    13
100
AcDbLine
 10
211.3992919371193
 20
271.8713571383552
 30
0.0
 11
211.3992919371193
 21
271.4093571383552
 31
0.0
  0
LINE
  5
1F44
330
1F
100
AcDbEntity
  8
10000_Front
  6
Continuous
 62
     7
370
    13
100
AcDbLine
 10
211.3992919371193
 20
273.0093571383552
 30
0.0
 11
211.3992919371193
 21
271.8713571383552
 31
0.0
  0
ARC
  5
1F45
330
1F
100
AcDbEntity
  8
10000_Front
  6
Continuous
 62
     7
370
    13
100
AcDbCircle
 10
210.5953416382444
 20
271.4093571383553
 30
0.0
 40
0.3960497011252073
100
AcDbArc
 50
180.0000000000032
 51
270.5714919256867
  0
ARC
  5
1F46
330
1F
100
AcDbEntity
  8
10000_Front
  6
Continuous
 62
     7
370
    13
100
AcDbCircle
 10
211.0032422359942
 20
271.4093571383552
 30
0.0
 40
0.3960497011250936
100
AcDbArc
 50
269.4285080743004
 51
0.0000000000130276
  0
LINE
  5
1F47
330
1F
100
AcDbEntity
  8
10000_Front
  6
Continuous
 62
     7
370
    13
100
AcDbLine
 10
201.5992919371192
 20
271.0133271383551
 30
0.0
 11
201.1992919371191
 21
271.0133271383551
 31
0.0
  0
ARC
  5
1F48
330
1F
100
AcDbEntity
  8
10000_Front
  6
Continuous
 62
     7
370
    13
100
AcDbCircle
 10
201.1953416382444
 20
271.4093571383552
 30
0.0
 40
0.3960497011252073
100
AcDbArc
 50
180.0000000000032
 51
270.5714919256867
  0
ARC
  5
1F49
330
1F
100
AcDbEntity
  8
10000_Front
  6
Continuous
 62
     7
370
    13
100
AcDbCircle
 10
201.6032422359941
 20
271.4093571383551
 30
0.0
 40
0.3960497011250936
100
AcDbArc
 50
269.4285080743004
 51
0.0000000000130276
  0
LINE
  5
1F4A
330
1F
100
AcDbEntity
  8
10000_Front
  6
Continuous
 62
     7
370
    13
100
AcDbLine
 10
204.7992919371193
 20
271.0133271383551
 30
0.0
 11
204.3992919371192
 21
271.0133271383551
 31
0.0
  0
ARC
  5
1F4B
330
1F
100
AcDbEntity
  8
10000_Front
  6
Continuous
 62
     7
370
    13
100
AcDbCircle
 10
204.3953416382444
 20
271.4093571383552
 30
0.0
 40
0.3960497011252073
100
AcDbArc
 50
180.0000000000032
 51
270.5714919256867
  0
ARC
  5
1F4C
330
1F
100
AcDbEntity
  8
10000_Front
  6
Continuous
 62
     7
370
    13
100
AcDbCircle
 10
204.8032422359942
 20
271.4093571383551
 30
0.0
 40
0.3960497011250936
100
AcDbArc
 50
269.4285080743004
 51
0.0000000000130276
  0
ARC
  5
1F4D
330
1F
100
AcDbEntity
  8
10000_Front
  6
Continuous
 62
     7
370
    13
100
AcDbCircle
 10
207.8032422359942
 20
271.4093571383552
 30
0.0
 40
0.3960497011250936
100
AcDbArc
 50
269.4285080743004
 51
0.0000000000130276
  0
ARC
  5
1F4E
330
1F
100
AcDbEntity
  8
10000_Front
  6
Continuous
 62
     7
370
    13
100
AcDbCircle
 10
207.3953416382444
 20
271.4093571383553
 30
0.0
 40
0.3960497011252073
100
AcDbArc
 50
180.0000000000032
 51
270.5714919256867
  0
LINE
  5
1F4F
330
1F
100
AcDbEntity
  8
10000_Front
  6
Continuous
 62
     7
370
    13
100
AcDbLine
 10
205.1992919371193
 20
271.8713571383552
 30
0.0
 11
205.1992919371193
 21
271.4093571383552
 31
0.0
  0
LINE
  5
1F50
330
1F
100
AcDbEntity
  8
10000_Front
  6
Continuous
 62
     7
370
    13
100
AcDbLine
 10
205.1992919371193
 20
273.0093571383552
 30
0.0
 11
205.1992919371193
 21
271.8713571383552
 31
0.0
  0
LINE
  5
1F51
330
1F
100
AcDbEntity
  8
10000_Front
  6
Continuous
 62
     7
370
    13
100
AcDbLine
 10
203.9992919371192
 20
271.8713571383552
 30
0.0
 11
203.9992919371192
 21
273.0093571383552
 31
0.0
  0
LINE
  5
1F52
330
1F
100
AcDbEntity
  8
10000_Front
  6
Continuous
 62
     7
370
    13
100
AcDbLine
 10
203.9992919371192
 20
271.4093571383552
 30
0.0
 11
203.9992919371192
 21
271.8713571383552
 31
0.0
  0
LINE
  5
1F53
330
1F
100
AcDbEntity
  8
10000_Front
  6
Continuous
 62
     7
370
    13
100
AcDbLine
 10
208.1992919371193
 20
273.0093571383552
 30
0.0
 11
208.1992919371193
 21
271.8713571383552
 31
0.0
  0
LINE
  5
1F54
330
1F
100
AcDbEntity
  8
10000_Front
  6
Continuous
 62
     7
370
    13
100
AcDbLine
 10
208.1992919371193
 20
271.8713571383552
 30
0.0
 11
208.1992919371193
 21
271.4093571383552
 31
0.0
  0
LINE
  5
1F55
330
1F
100
AcDbEntity
  8
10000_Front
  6
Continuous
 62
     7
370
    13
100
AcDbLine
 10
206.9992919371192
 20
271.4093571383552
 30
0.0
 11
206.9992919371192
 21
271.8713571383552
 31
0.0
  0
LINE
  5
1F56
330
1F
100
AcDbEntity
  8
10000_Front
  6
Continuous
 62
     7
370
    13
100
AcDbLine
 10
206.9992919371192
 20
271.8713571383552
 30
0.0
 11
206.9992919371192
 21
273.0093571383552
 31
0.0
  0
LINE
  5
1F57
330
1F
100
AcDbEntity
  8
10000_Front
  6
Continuous
 62
     7
370
    13
100
AcDbLine
 10
213.3992919371192
 20
271.8713571383552
 30
0.0
 11
213.3992919371192
 21
273.0093571383552
 31
0.0
  0
LINE
  5
1F58
330
1F
100
AcDbEntity
  8
10000_Front
  6
Continuous
 62
     7
370
    13
100
AcDbLine
 10
216.3992919371192
 20
271.8713571383552
 30
0.0
 11
216.3992919371192
 21
273.0093571383552
 31
0.0
  0
LINE
  5
1F59
330
1F
100
AcDbEntity
  8
10000_Front
  6
Continuous
 62
     7
370
    13
100
AcDbLine
 10
219.5992919371192
 20
271.8713571383552
 30
0.0
 11
219.5992919371192
 21
273.0093571383552
 31
0.0
  0
LINE
  5
1F5A
330
1F
100
AcDbEntity
  8
10000_Front
  6
Continuous
 62
     7
370
    13
100
AcDbLine
 10
210.1992919371193
 20
271.8713571383552
 30
0.0
 11
210.1992919371193
 21
273.0093571383552
 31
0.0
  0
LINE
  5
1F5B
330
1F
100
AcDbEntity
  8
10000_Front
  6
Continuous
 62
     7
370
    13
100
AcDbLine
 10
201.9992919371192
 20
271.8713571383552
 30
0.0
 11
201.9992919371192
 21
271.4093571383552
 31
0.0
  0
LINE
  5
1F5C
330
1F
100
AcDbEntity
  8
10000_Front
  6
Continuous
 62
     7
370
    13
100
AcDbLine
 10
201.9992919371192
 20
273.0093571383552
 30
0.0
 11
201.9992919371192
 21
271.8713571383552
 31
0.0
  0
LINE
  5
1F5D
330
1F
100
AcDbEntity
  8
10000_Front
  6
Continuous
 62
     7
370
    13
100
AcDbLine
 10
200.7992919371193
 20
271.8713571383552
 30
0.0
 11
200.7992919371193
 21
273.0093571383552
 31
0.0
  0
LINE
  5
1F5E
330
1F
100
AcDbEntity
  8
10000_Front
  6
Continuous
 62
     7
370
    13
100
AcDbLine
 10
200.7992919371193
 20
271.4093571383552
 30
0.0
 11
200.7992919371193
 21
271.8713571383552
 31
0.0
  0
LINE
  5
1F5F
330
1F
100
AcDbEntity
  8
10000_Front
  6
Continuous
 62
     7
370
    13
100
AcDbLine
 10
207.7992919371193
 20
271.0133271383552
 30
0.0
 11
207.3992919371192
 21
271.0133271383552
 31
0.0
  0
LINE
  5
1F60
330
1F
100
AcDbEntity
  8
10000_Front
  6
Continuous
 62
     7
370
    13
100
AcDbLine
 10
170.7992919371193
 20
271.0133271383552
 30
0.0
 11
170.3992919371192
 21
271.0133271383552
 31
0.0
  0
LINE
  5
1F61
330
1F
100
AcDbEntity
  8
10000_Front
  6
Continuous
 62
     7
370
    13
100
AcDbLine
 10
163.7992919371193
 20
271.4093571383552
 30
0.0
 11
163.7992919371193
 21
271.8713571383552
 31
0.0
  0
LINE
  5
1F62
330
1F
100
AcDbEntity
  8
10000_Front
  6
Continuous
 62
     7
370
    13
100
AcDbLine
 10
163.7992919371193
 20
271.8713571383552
 30
0.0
 11
163.7992919371193
 21
273.0093571383552
 31
0.0
  0
LINE
  5
1F63
330
1F
100
AcDbEntity
  8
10000_Front
  6
Continuous
 62
     7
370
    13
100
AcDbLine
 10
164.9992919371192
 20
273.0093571383552
 30
0.0
 11
164.9992919371192
 21
271.8713571383552
 31
0.0
  0
LINE
  5
1F64
330
1F
100
AcDbEntity
  8
10000_Front
  6
Continuous
 62
     7
370
    13
100
AcDbLine
 10
164.9992919371192
 20
271.8713571383552
 30
0.0
 11
164.9992919371192
 21
271.4093571383552
 31
0.0
  0
LINE
  5
1F65
330
1F
100
AcDbEntity
  8
10000_Front
  6
Continuous
 62
     7
370
    13
100
AcDbLine
 10
173.1992919371192
 20
271.8713571383552
 30
0.0
 11
173.1992919371192
 21
273.0093571383552
 31
0.0
  0
LINE
  5
1F66
330
1F
100
AcDbEntity
  8
10000_Front
  6
Continuous
 62
     7
370
    13
100
AcDbLine
 10
182.5992919371192
 20
271.8713571383552
 30
0.0
 11
182.5992919371192
 21
273.0093571383552
 31
0.0
  0
LINE
  5
1F67
330
1F
100
AcDbEntity
  8
10000_Front
  6
Continuous
 62
     7
370
    13
100
AcDbLine
 10
179.3992919371192
 20
271.8713571383552
 30
0.0
 11
179.3992919371192
 21
273.0093571383552
 31
0.0
  0
LINE
  5
1F68
330
1F
100
AcDbEntity
  8
10000_Front
  6
Continuous
 62
     7
370
    13
100
AcDbLine
 10
176.3992919371192
 20
271.8713571383552
 30
0.0
 11
176.3992919371192
 21
273.0093571383552
 31
0.0
  0
LINE
  5
1F69
330
1F
100
AcDbEntity
  8
10000_Front
  6
Continuous
 62
     7
370
    13
100
AcDbLine
 10
169.9992919371192
 20
271.8713571383552
 30
0.0
 11
169.9992919371192
 21
273.0093571383552
 31
0.0
  0
LINE
  5
1F6A
330
1F
100
AcDbEntity
  8
10000_Front
  6
Continuous
 62
     7
370
    13
100
AcDbLine
 10
169.9992919371192
 20
271.4093571383552
 30
0.0
 11
169.9992919371192
 21
271.8713571383552
 31
0.0
  0
LINE
  5
1F6B
330
1F
100
AcDbEntity
  8
10000_Front
  6
Continuous
 62
     7
370
    13
100
AcDbLine
 10
171.1992919371192
 20
271.8713571383552
 30
0.0
 11
171.1992919371192
 21
271.4093571383552
 31
0.0
  0
LINE
  5
1F6C
330
1F
100
AcDbEntity
  8
10000_Front
  6
Continuous
 62
     7
370
    13
100
AcDbLine
 10
171.1992919371192
 20
273.0093571383552
 30
0.0
 11
171.1992919371192
 21
271.8713571383552
 31
0.0
  0
LINE
  5
1F6D
330
1F
100
AcDbEntity
  8
10000_Front
  6
Continuous
 62
     7
370
    13
100
AcDbLine
 10
166.9992919371192
 20
271.4093571383552
 30
0.0
 11
166.9992919371192
 21
271.8713571383552
 31
0.0
  0
LINE
  5
1F6E
330
1F
100
AcDbEntity
  8
10000_Front
  6
Continuous
 62
     7
370
    13
100
AcDbLine
 10
166.9992919371192
 20
271.8713571383552
 30
0.0
 11
166.9992919371192
 21
273.0093571383552
 31
0.0
  0
LINE
  5
1F6F
330
1F
100
AcDbEntity
  8
10000_Front
  6
Continuous
 62
     7
370
    13
100
AcDbLine
 10
168.1992919371192
 20
273.0093571383552
 30
0.0
 11
168.1992919371192
 21
271.8713571383552
 31
0.0
  0
LINE
  5
1F70
330
1F
100
AcDbEntity
  8
10000_Front
  6
Continuous
 62
     7
370
    13
100
AcDbLine
 10
168.1992919371192
 20
271.8713571383552
 30
0.0
 11
168.1992919371192
 21
271.4093571383552
 31
0.0
  0
ARC
  5
1F71
330
1F
100
AcDbEntity
  8
10000_Front
  6
Continuous
 62
     7
370
    13
100
AcDbCircle
 10
170.3953416382444
 20
271.4093571383553
 30
0.0
 40
0.3960497011252073
100
AcDbArc
 50
180.0000000000032
 51
270.5714919256867
  0
ARC
  5
1F72
330
1F
100
AcDbEntity
  8
10000_Front
  6
Continuous
 62
     7
370
    13
100
AcDbCircle
 10
170.8032422359941
 20
271.4093571383552
 30
0.0
 40
0.3960497011250936
100
AcDbArc
 50
269.4285080743004
 51
0.0000000000130276
  0
ARC
  5
1F73
330
1F
100
AcDbEntity
  8
10000_Front
  6
Continuous
 62
     7
370
    13
100
AcDbCircle
 10
167.8032422359941
 20
271.4093571383551
 30
0.0
 40
0.3960497011250936
100
AcDbArc
 50
269.4285080743004
 51
0.0000000000130276
  0
ARC
  5
1F74
330
1F
100
AcDbEntity
  8
10000_Front
  6
Continuous
 62
     7
370
    13
100
AcDbCircle
 10
167.3953416382444
 20
271.4093571383552
 30
0.0
 40
0.3960497011252073
100
AcDbArc
 50
180.0000000000032
 51
270.5714919256867
  0
LINE
  5
1F75
330
1F
100
AcDbEntity
  8
10000_Front
  6
Continuous
 62
     7
370
    13
100
AcDbLine
 10
167.7992919371193
 20
271.0133271383551
 30
0.0
 11
167.3992919371192
 21
271.0133271383551
 31
0.0
  0
ARC
  5
1F76
330
1F
100
AcDbEntity
  8
10000_Front
  6
Continuous
 62
     7
370
    13
100
AcDbCircle
 10
164.6032422359941
 20
271.4093571383551
 30
0.0
 40
0.3960497011250936
100
AcDbArc
 50
269.4285080743004
 51
0.0000000000130276
  0
ARC
  5
1F77
330
1F
100
AcDbEntity
  8
10000_Front
  6
Continuous
 62
     7
370
    13
100
AcDbCircle
 10
164.1953416382444
 20
271.4093571383552
 30
0.0
 40
0.3960497011252073
100
AcDbArc
 50
180.0000000000032
 51
270.5714919256867
  0
LINE
  5
1F78
330
1F
100
AcDbEntity
  8
10000_Front
  6
Continuous
 62
     7
370
    13
100
AcDbLine
 10
164.5992919371192
 20
271.0133271383551
 30
0.0
 11
164.1992919371191
 21
271.0133271383551
 31
0.0
  0
ARC
  5
1F79
330
1F
100
AcDbEntity
  8
10000_Front
  6
Continuous
 62
     7
370
    13
100
AcDbCircle
 10
174.0032422359942
 20
271.4093571383552
 30
0.0
 40
0.3960497011250936
100
AcDbArc
 50
269.4285080743004
 51
0.0000000000130276
  0
ARC
  5
1F7A
330
1F
100
AcDbEntity
  8
10000_Front
  6
Continuous
 62
     7
370
    13
100
AcDbCircle
 10
173.5953416382444
 20
271.4093571383553
 30
0.0
 40
0.3960497011252073
100
AcDbArc
 50
180.0000000000032
 51
270.5714919256867
  0
LINE
  5
1F7B
330
1F
100
AcDbEntity
  8
10000_Front
  6
Continuous
 62
     7
370
    13
100
AcDbLine
 10
174.3992919371193
 20
273.0093571383552
 30
0.0
 11
174.3992919371193
 21
271.8713571383552
 31
0.0
  0
LINE
  5
1F7C
330
1F
100
AcDbEntity
  8
10000_Front
  6
Continuous
 62
     7
370
    13
100
AcDbLine
 10
174.3992919371193
 20
271.8713571383552
 30
0.0
 11
174.3992919371193
 21
271.4093571383552
 31
0.0
  0
LINE
  5
1F7D
330
1F
100
AcDbEntity
  8
10000_Front
  6
Continuous
 62
     7
370
    13
100
AcDbLine
 10
173.9992919371193
 20
271.0133271383552
 30
0.0
 11
173.5992919371192
 21
271.0133271383552
 31
0.0
  0
LINE
  5
1F7E
330
1F
100
AcDbEntity
  8
10000_Front
  6
Continuous
 62
     7
370
    13
100
AcDbLine
 10
173.1992919371192
 20
271.4093571383552
 30
0.0
 11
173.1992919371192
 21
271.8713571383552
 31
0.0
  0
ARC
  5
1F7F
330
1F
100
AcDbEntity
  8
10000_Front
  6
Continuous
 62
     7
370
    13
100
AcDbCircle
 10
177.2032422359941
 20
271.4093571383552
 30
0.0
 40
0.3960497011250936
100
AcDbArc
 50
269.4285080743004
 51
0.0000000000130276
  0
ARC
  5
1F80
330
1F
100
AcDbEntity
  8
10000_Front
  6
Continuous
 62
     7
370
    13
100
AcDbCircle
 10
176.7953416382444
 20
271.4093571383553
 30
0.0
 40
0.3960497011252073
100
AcDbArc
 50
180.0000000000032
 51
270.5714919256867
  0
LINE
  5
1F81
330
1F
100
AcDbEntity
  8
10000_Front
  6
Continuous
 62
     7
370
    13
100
AcDbLine
 10
177.5992919371192
 20
273.0093571383552
 30
0.0
 11
177.5992919371192
 21
271.8713571383552
 31
0.0
  0
LINE
  5
1F82
330
1F
100
AcDbEntity
  8
10000_Front
  6
Continuous
 62
     7
370
    13
100
AcDbLine
 10
177.5992919371192
 20
271.8713571383552
 30
0.0
 11
177.5992919371192
 21
271.4093571383552
 31
0.0
  0
LINE
  5
1F83
330
1F
100
AcDbEntity
  8
10000_Front
  6
Continuous
 62
     7
370
    13
100
AcDbLine
 10
177.1992919371192
 20
271.0133271383552
 30
0.0
 11
176.7992919371191
 21
271.0133271383552
 31
0.0
  0
LINE
  5
1F84
330
1F
100
AcDbEntity
  8
10000_Front
  6
Continuous
 62
     7
370
    13
100
AcDbLine
 10
176.3992919371192
 20
271.4093571383552
 30
0.0
 11
176.3992919371192
 21
271.8713571383552
 31
0.0
  0
ARC
  5
1F85
330
1F
100
AcDbEntity
  8
10000_Front
  6
Continuous
 62
     7
370
    13
100
AcDbCircle
 10
180.2032422359941
 20
271.4093571383552
 30
0.0
 40
0.3960497011250936
100
AcDbArc
 50
269.4285080743004
 51
0.0000000000130276
  0
ARC
  5
1F86
330
1F
100
AcDbEntity
  8
10000_Front
  6
Continuous
 62
     7
370
    13
100
AcDbCircle
 10
179.7953416382444
 20
271.4093571383553
 30
0.0
 40
0.3960497011252073
100
AcDbArc
 50
180.0000000000032
 51
270.5714919256867
  0
LINE
  5
1F87
330
1F
100
AcDbEntity
  8
10000_Front
  6
Continuous
 62
     7
370
    13
100
AcDbLine
 10
180.5992919371192
 20
273.0093571383552
 30
0.0
 11
180.5992919371192
 21
271.8713571383552
 31
0.0
  0
LINE
  5
1F88
330
1F
100
AcDbEntity
  8
10000_Front
  6
Continuous
 62
     7
370
    13
100
AcDbLine
 10
180.5992919371192
 20
271.8713571383552
 30
0.0
 11
180.5992919371192
 21
271.4093571383552
 31
0.0
  0
LINE
  5
1F89
330
1F
100
AcDbEntity
  8
10000_Front
  6
Continuous
 62
     7
370
    13
100
AcDbLine
 10
180.1992919371192
 20
271.0133271383552
 30
0.0
 11
179.7992919371191
 21
271.0133271383552
 31
0.0
  0
LINE
  5
1F8A
330
1F
100
AcDbEntity
  8
10000_Front
  6
Continuous
 62
     7
370
    13
100
AcDbLine
 10
179.3992919371192
 20
271.4093571383552
 30
0.0
 11
179.3992919371192
 21
271.8713571383552
 31
0.0
  0
ARC
  5
1F8B
330
1F
100
AcDbEntity
  8
10000_Front
  6
Continuous
 62
     7
370
    13
100
AcDbCircle
 10
183.4032422359942
 20
271.4093571383552
 30
0.0
 40
0.3960497011250936
100
AcDbArc
 50
269.4285080743004
 51
0.0000000000130276
  0
ARC
  5
1F8C
330
1F
100
AcDbEntity
  8
10000_Front
  6
Continuous
 62
     7
370
    13
100
AcDbCircle
 10
182.9953416382444
 20
271.4093571383553
 30
0.0
 40
0.3960497011252073
100
AcDbArc
 50
180.0000000000032
 51
270.5714919256867
  0
LINE
  5
1F8D
330
1F
100
AcDbEntity
  8
10000_Front
  6
Continuous
 62
     7
370
    13
100
AcDbLine
 10
183.7992919371193
 20
273.0093571383552
 30
0.0
 11
183.7992919371193
 21
271.8713571383552
 31
0.0
  0
LINE
  5
1F8E
330
1F
100
AcDbEntity
  8
10000_Front
  6
Continuous
 62
     7
370
    13
100
AcDbLine
 10
183.7992919371193
 20
271.8713571383552
 30
0.0
 11
183.7992919371193
 21
271.4093571383552
 31
0.0
  0
LINE
  5
1F8F
330
1F
100
AcDbEntity
  8
10000_Front
  6
Continuous
 62
     7
370
    13
100
AcDbLine
 10
183.3992919371193
 20
271.0133271383552
 30
0.0
 11
182.9992919371192
 21
271.0133271383552
 31
0.0
  0
LINE
  5
1F90
330
1F
100
AcDbEntity
  8
10000_Front
  6
Continuous
 62
     7
370
    13
100
AcDbLine
 10
182.5992919371192
 20
271.4093571383552
 30
0.0
 11
182.5992919371192
 21
271.8713571383552
 31
0.0
  0
LINE
  5
1F91
330
1F
100
AcDbEntity
  8
10000_Front
  6
Continuous
 62
     7
370
    13
100
AcDbLine
 10
146.0992919371192
 20
271.4093571383552
 30
0.0
 11
146.0992919371192
 21
271.8713571383552
 31
0.0
  0
LINE
  5
1F92
330
1F
100
AcDbEntity
  8
10000_Front
  6
Continuous
 62
     7
370
    13
100
AcDbLine
 10
146.8992919371193
 20
271.0133271383552
 30
0.0
 11
146.4992919371192
 21
271.0133271383552
 31
0.0
  0
LINE
  5
1F93
330
1F
100
AcDbEntity
  8
10000_Front
  6
Continuous
 62
     7
370
    13
100
AcDbLine
 10
147.2992919371193
 20
271.8713571383552
 30
0.0
 11
147.2992919371193
 21
271.4093571383552
 31
0.0
  0
LINE
  5
1F94
330
1F
100
AcDbEntity
  8
10000_Front
  6
Continuous
 62
     7
370
    13
100
AcDbLine
 10
147.2992919371193
 20
273.0093571383552
 30
0.0
 11
147.2992919371193
 21
271.8713571383552
 31
0.0
  0
ARC
  5
1F95
330
1F
100
AcDbEntity
  8
10000_Front
  6
Continuous
 62
     7
370
    13
100
AcDbCircle
 10
146.4953416382444
 20
271.4093571383553
 30
0.0
 40
0.3960497011252073
100
AcDbArc
 50
180.0000000000032
 51
270.5714919256867
  0
ARC
  5
1F96
330
1F
100
AcDbEntity
  8
10000_Front
  6
Continuous
 62
     7
370
    13
100
AcDbCircle
 10
146.9032422359942
 20
271.4093571383552
 30
0.0
 40
0.3960497011250936
100
AcDbArc
 50
269.4285080743004
 51
0.0000000000130276
  0
LINE
  5
1F97
330
1F
100
AcDbEntity
  8
10000_Front
  6
Continuous
 62
     7
370
    13
100
AcDbLine
 10
142.8992919371192
 20
271.4093571383552
 30
0.0
 11
142.8992919371192
 21
271.8713571383552
 31
0.0
  0
LINE
  5
1F98
330
1F
100
AcDbEntity
  8
10000_Front
  6
Continuous
 62
     7
370
    13
100
AcDbLine
 10
143.6992919371192
 20
271.0133271383552
 30
0.0
 11
143.2992919371191
 21
271.0133271383552
 31
0.0
  0
LINE
  5
1F99
330
1F
100
AcDbEntity
  8
10000_Front
  6
Continuous
 62
     7
370
    13
100
AcDbLine
 10
144.0992919371192
 20
271.8713571383552
 30
0.0
 11
144.0992919371192
 21
271.4093571383552
 31
0.0
  0
LINE
  5
1F9A
330
1F
100
AcDbEntity
  8
10000_Front
  6
Continuous
 62
     7
370
    13
100
AcDbLine
 10
144.0992919371192
 20
273.0093571383552
 30
0.0
 11
144.0992919371192
 21
271.8713571383552
 31
0.0
  0
ARC
  5
1F9B
330
1F
100
AcDbEntity
  8
10000_Front
  6
Continuous
 62
     7
370
    13
100
AcDbCircle
 10
143.2953416382444
 20
271.4093571383553
 30
0.0
 40
0.3960497011252073
100
AcDbArc
 50
180.0000000000032
 51
270.5714919256867
  0
ARC
  5
1F9C
330
1F
100
AcDbEntity
  8
10000_Front
  6
Continuous
 62
     7
370
    13
100
AcDbCircle
 10
143.7032422359941
 20
271.4093571383552
 30
0.0
 40
0.3960497011250936
100
AcDbArc
 50
269.4285080743004
 51
0.0000000000130276
  0
LINE
  5
1F9D
330
1F
100
AcDbEntity
  8
10000_Front
  6
Continuous
 62
     7
370
    13
100
AcDbLine
 10
139.8992919371192
 20
271.4093571383552
 30
0.0
 11
139.8992919371192
 21
271.8713571383552
 31
0.0
  0
LINE
  5
1F9E
330
1F
100
AcDbEntity
  8
10000_Front
  6
Continuous
 62
     7
370
    13
100
AcDbLine
 10
140.6992919371192
 20
271.0133271383552
 30
0.0
 11
140.2992919371191
 21
271.0133271383552
 31
0.0
  0
LINE
  5
1F9F
330
1F
100
AcDbEntity
  8
10000_Front
  6
Continuous
 62
     7
370
    13
100
AcDbLine
 10
141.0992919371192
 20
271.8713571383552
 30
0.0
 11
141.0992919371192
 21
271.4093571383552
 31
0.0
  0
LINE
  5
1FA0
330
1F
100
AcDbEntity
  8
10000_Front
  6
Continuous
 62
     7
370
    13
100
AcDbLine
 10
141.0992919371192
 20
273.0093571383552
 30
0.0
 11
141.0992919371192
 21
271.8713571383552
 31
0.0
  0
ARC
  5
1FA1
330
1F
100
AcDbEntity
  8
10000_Front
  6
Continuous
 62
     7
370
    13
100
AcDbCircle
 10
140.2953416382444
 20
271.4093571383553
 30
0.0
 40
0.3960497011252073
100
AcDbArc
 50
180.0000000000032
 51
270.5714919256867
  0
ARC
  5
1FA2
330
1F
100
AcDbEntity
  8
10000_Front
  6
Continuous
 62
     7
370
    13
100
AcDbCircle
 10
140.7032422359941
 20
271.4093571383552
 30
0.0
 40
0.3960497011250936
100
AcDbArc
 50
269.4285080743004
 51
0.0000000000130276
  0
LINE
  5
1FA3
330
1F
100
AcDbEntity
  8
10000_Front
  6
Continuous
 62
     7
370
    13
100
AcDbLine
 10
136.6992919371192
 20
271.4093571383552
 30
0.0
 11
136.6992919371192
 21
271.8713571383552
 31
0.0
  0
LINE
  5
1FA4
330
1F
100
AcDbEntity
  8
10000_Front
  6
Continuous
 62
     7
370
    13
100
AcDbLine
 10
137.4992919371193
 20
271.0133271383552
 30
0.0
 11
137.0992919371192
 21
271.0133271383552
 31
0.0
  0
LINE
  5
1FA5
330
1F
100
AcDbEntity
  8
10000_Front
  6
Continuous
 62
     7
370
    13
100
AcDbLine
 10
137.8992919371193
 20
271.8713571383552
 30
0.0
 11
137.8992919371193
 21
271.4093571383552
 31
0.0
  0
LINE
  5
1FA6
330
1F
100
AcDbEntity
  8
10000_Front
  6
Continuous
 62
     7
370
    13
100
AcDbLine
 10
137.8992919371193
 20
273.0093571383552
 30
0.0
 11
137.8992919371193
 21
271.8713571383552
 31
0.0
  0
ARC
  5
1FA7
330
1F
100
AcDbEntity
  8
10000_Front
  6
Continuous
 62
     7
370
    13
100
AcDbCircle
 10
137.0953416382444
 20
271.4093571383553
 30
0.0
 40
0.3960497011252073
100
AcDbArc
 50
180.0000000000032
 51
270.5714919256867
  0
ARC
  5
1FA8
330
1F
100
AcDbEntity
  8
10000_Front
  6
Continuous
 62
     7
370
    13
100
AcDbCircle
 10
137.5032422359942
 20
271.4093571383552
 30
0.0
 40
0.3960497011250936
100
AcDbArc
 50
269.4285080743004
 51
0.0000000000130276
  0
LINE
  5
1FA9
330
1F
100
AcDbEntity
  8
10000_Front
  6
Continuous
 62
     7
370
    13
100
AcDbLine
 10
128.0992919371192
 20
271.0133271383551
 30
0.0
 11
127.6992919371191
 21
271.0133271383551
 31
0.0
  0
ARC
  5
1FAA
330
1F
100
AcDbEntity
  8
10000_Front
  6
Continuous
 62
     7
370
    13
100
AcDbCircle
 10
127.6953416382443
 20
271.4093571383552
 30
0.0
 40
0.3960497011252073
100
AcDbArc
 50
180.0000000000032
 51
270.5714919256867
  0
ARC
  5
1FAB
330
1F
100
AcDbEntity
  8
10000_Front
  6
Continuous
 62
     7
370
    13
100
AcDbCircle
 10
128.1032422359941
 20
271.4093571383551
 30
0.0
 40
0.3960497011250936
100
AcDbArc
 50
269.4285080743004
 51
0.0000000000130276
  0
LINE
  5
1FAC
330
1F
100
AcDbEntity
  8
10000_Front
  6
Continuous
 62
     7
370
    13
100
AcDbLine
 10
131.2992919371193
 20
271.0133271383551
 30
0.0
 11
130.8992919371192
 21
271.0133271383551
 31
0.0
  0
ARC
  5
1FAD
330
1F
100
AcDbEntity
  8
10000_Front
  6
Continuous
 62
     7
370
    13
100
AcDbCircle
 10
130.8953416382444
 20
271.4093571383552
 30
0.0
 40
0.3960497011252073
100
AcDbArc
 50
180.0000000000032
 51
270.5714919256867
  0
ARC
  5
1FAE
330
1F
100
AcDbEntity
  8
10000_Front
  6
Continuous
 62
     7
370
    13
100
AcDbCircle
 10
131.3032422359941
 20
271.4093571383551
 30
0.0
 40
0.3960497011250936
100
AcDbArc
 50
269.4285080743004
 51
0.0000000000130276
  0
ARC
  5
1FAF
330
1F
100
AcDbEntity
  8
10000_Front
  6
Continuous
 62
     7
370
    13
100
AcDbCircle
 10
134.3032422359941
 20
271.4093571383552
 30
0.0
 40
0.3960497011250936
100
AcDbArc
 50
269.4285080743004
 51
0.0000000000130276
  0
ARC
  5
1FB0
330
1F
100
AcDbEntity
  8
10000_Front
  6
Continuous
 62
     7
370
    13
100
AcDbCircle
 10
133.8953416382444
 20
271.4093571383553
 30
0.0
 40
0.3960497011252073
100
AcDbArc
 50
180.0000000000032
 51
270.5714919256867
  0
LINE
  5
1FB1
330
1F
100
AcDbEntity
  8
11000_Left
  6
Continuous
 62
     7
370
    50
100
AcDbLine
 10
248.1651774863775
 20
273.6347571383552
 30
0.0
 11
243.9651774863774
 21
273.6347571383552
 31
0.0
  0
ARC
  5
1FB2
330
1F
100
AcDbEntity
  8
11000_Left
  6
Continuous
 62
     7
370
    13
100
AcDbCircle
 10
247.0651774863774
 20
297.9093571383552
 30
0.0
 40
0.4
100
AcDbArc
 50
90.0
 51
180.0
  0
ARC
  5
1FB3
330
1F
100
AcDbEntity
  8
11000_Left
  6
Continuous
 62
     7
370
    13
100
AcDbCircle
 10
292.9651774863775
 20
297.9093571383552
 30
0.0
 40
0.4
100
AcDbArc
 50
45.33862999999914
 51
90.0
  0
ARC
  5
1FB4
330
1F
100
AcDbEntity
  8
11000_Left
  6
Continuous
 62
     7
370
    13
100
AcDbCircle
 10
292.9651774863775
 20
297.9093571383552
 30
0.0
 40
0.4
100
AcDbArc
 50
0.0
 51
45.33862999999914
  0
ARC
  5
1FB5
330
1F
100
AcDbEntity
  8
11000_Left
  6
Continuous
 62
     7
370
    50
100
AcDbCircle
 10
338.1597474863775
 20
295.5093571383552
 30
0.0
 40
0.8
100
AcDbArc
 50
7.809340000001478
 51
90.0
  0
ARC
  5
1FB6
330
1F
100
AcDbEntity
  8
11000_Left
  6
Continuous
 62
     7
370
    50
100
AcDbCircle
 10
244.1651774863775
 20
274.4093571383552
 30
0.0
 40
0.8
100
AcDbArc
 50
211.1257899999985
 51
255.522489999997
  0
ARC
  5
1FB7
330
1F
100
AcDbEntity
  8
11000_Left
  6
Continuous
 62
     7
370
    50
100
AcDbCircle
 10
244.1651774863775
 20
274.4093571383552
 30
0.0
 40
0.8
100
AcDbArc
 50
180.0
 51
211.1257899999985
  0
ARC
  5
1FB8
330
1F
100
AcDbEntity
  8
11000_Left
  6
Continuous
 62
     7
370
    50
100
AcDbCircle
 10
257.1651774863775
 20
272.1093571383551
 30
0.0
 40
0.8
100
AcDbArc
 50
180.0
 51
270.0
  0
LINE
  5
1FB9
330
1F
100
AcDbEntity
  8
11000_Left
  6
Continuous
 62
     7
370
    50
100
AcDbLine
 10
256.3651774863775
 20
273.6093571383551
 30
0.0
 11
248.1651774863775
 21
273.6093571383551
 31
0.0
  0
LINE
  5
1FBA
102
{ACAD_REACTORS
330
1F2B
102
}
330
1F
100
AcDbEntity
  8
11000_Left
  6
Continuous
 62
     7
370
    50
100
AcDbLine
 10
243.3651774863774
 20
294.8093571383552
 30
0.0
 11
243.3651774863774
 21
274.4093571383552
 31
0.0
  0
LINE
  5
1FBB
330
1F
100
AcDbEntity
  8
11000_Left
  6
Continuous
 62
     7
370
    50
100
AcDbLine
 10
243.3651774863774
 20
295.9093571383552
 30
0.0
 11
243.3651774863774
 21
294.8093571383552
 31
0.0
  0
ARC
  5
1FBC
330
1F
100
AcDbEntity
  8
11000_Left
  6
Continuous
 62
     7
370
    50
100
AcDbCircle
 10
328.9651774863775
 20
272.1093571383551
 30
0.0
 40
0.8
100
AcDbArc
 50
269.999989999999
 51
0.0000100000010064
  0
LINE
  5
1FBD
330
1F
100
AcDbEntity
  8
11000_Left
  6
Continuous
 62
     7
370
    50
100
AcDbLine
 10
329.7651774863774
 20
274.5093571383552
 30
0.0
 11
329.7651774863774
 21
272.1093571383551
 31
0.0
  0
ARC
  5
1FBE
330
1F
100
AcDbEntity
  8
11000_Left
  6
Continuous
 62
     7
370
    50
100
AcDbCircle
 10
330.5651774863775
 20
274.5093571383552
 30
0.0
 40
0.8
100
AcDbArc
 50
90.0
 51
180.0
  0
LINE
  5
1FBF
330
1F
100
AcDbEntity
  8
11000_Left
  6
Continuous
 62
     7
370
    50
100
AcDbLine
 10
340.4877774863775
 20
275.3093571383551
 30
0.0
 11
330.5651774863775
 21
275.3093571383551
 31
0.0
  0
ARC
  5
1FC0
330
1F
100
AcDbEntity
  8
11000_Left
  6
Continuous
 62
     7
370
    50
100
AcDbCircle
 10
243.7651774863774
 20
295.9093571383552
 30
0.0
 40
0.4
100
AcDbArc
 50
90.0
 51
180.0
  0
LINE
  5
1FC1
330
1F
100
AcDbEntity
  8
11000_Left
  6
Continuous
 62
     7
370
    13
100
AcDbLine
 10
293.3651774863774
 20
296.3093571383552
 30
0.0
 11
293.3651774863774
 21
297.9093571383552
 31
0.0
  0
LINE
  5
1FC2
330
1F
100
AcDbEntity
  8
11000_Left
  6
Continuous
 62
     7
370
    13
100
AcDbLine
 10
246.6651774863775
 20
297.9093571383552
 30
0.0
 11
246.6651774863775
 21
296.3093571383552
 31
0.0
  0
LINE
  5
1FC3
330
1F
100
AcDbEntity
  8
11000_Left
  6
Continuous
 62
     7
370
    13
100
AcDbLine
 10
292.9651774863775
 20
298.3093571383552
 30
0.0
 11
247.0651774863774
 21
298.3093571383552
 31
0.0
  0
LINE
  5
1FC4
330
1F
100
AcDbEntity
  8
11000_Left
  6
Continuous
 62
     7
370
    13
100
AcDbLine
 10
331.5308674863775
 20
273.5436771383552
 30
0.0
 11
333.0622374863775
 21
275.0750471383552
 31
0.0
  0
LINE
  5
1FC5
330
1F
100
AcDbEntity
  8
11000_Left
  6
Continuous
 62
     7
370
    13
100
AcDbLine
 10
330.9651774863775
 20
273.3093571383552
 30
0.0
 11
329.7651674863774
 21
273.3093571383552
 31
0.0
  0
ARC
  5
1FC6
330
1F
100
AcDbEntity
  8
11000_Left
  6
Continuous
 62
     7
370
    13
100
AcDbCircle
 10
330.9651774863775
 20
274.1093571383551
 30
0.0
 40
0.8
100
AcDbArc
 50
270.0
 51
315.0
  0
ARC
  5
1FC7
330
1F
100
AcDbEntity
  8
11000_Left
  6
Continuous
 62
     7
370
    13
100
AcDbCircle
 10
333.6279174863774
 20
274.5093571383552
 30
0.0
 40
0.8
100
AcDbArc
 50
90.0
 51
135.0
  0
ARC
  5
1FC8
330
1F
100
AcDbEntity
  8
11000_Left
  6
Continuous
 62
     7
370
    50
100
AcDbCircle
 10
340.4877774863775
 20
276.1093571383551
 30
0.0
 40
0.8
100
AcDbArc
 50
270.0
 51
5.876389999998897
  0
ARC
  5
1FC9
330
1F
100
AcDbEntity
  8
11000_Left
  6
Continuous
 62
     7
370
    50
100
AcDbCircle
 10
-235.6685825136226
 20
216.8093571383552
 30
0.0
 40
580.0
100
AcDbArc
 50
7.739450000001053
 51
7.809340000001478
  0
ARC
  5
1FCA
102
{ACAD_REACTORS
330
1F2B
102
}
330
1F
100
AcDbEntity
  8
11000_Left
  6
Continuous
 62
     7
370
    50
100
AcDbCircle
 10
-235.6685825136226
 20
216.8093571383552
 30
0.0
 40
580.0
100
AcDbArc
 50
5.876389999998897
 51
7.739450000001053
  0
LINE
  5
1FCB
330
1F
100
AcDbEntity
  8
11000_Left
  6
Continuous
 62
     7
370
    50
100
AcDbLine
 10
248.1651774863775
 20
273.6093571383551
 30
0.0
 11
248.1651774863775
 21
273.6347571383552
 31
0.0
  0
LINE
  5
1FCC
330
1F
100
AcDbEntity
  8
11000_Left
  6
Continuous
 62
     7
370
    13
100
AcDbLine
 10
256.3651774863775
 20
271.3093571383552
 30
0.0
 11
256.3651774863775
 21
272.1093571383551
 31
0.0
  0
LINE
  5
1FCD
330
1F
100
AcDbEntity
  8
11000_Left
  6
Continuous
 62
     7
370
    50
100
AcDbLine
 10
256.3651774863775
 20
272.1093571383551
 30
0.0
 11
256.3651774863775
 21
273.6093571383551
 31
0.0
  0
LINE
  5
1FCE
330
1F
100
AcDbEntity
  8
11000_Left
  6
Continuous
 62
     7
370
    13
100
AcDbLine
 10
256.3651774863775
 20
271.3093571383552
 30
0.0
 11
257.1651774863775
 21
271.3093571383552
 31
0.0
  0
LINE
  5
1FCF
330
1F
100
AcDbEntity
  8
11000_Left
  6
Continuous
 62
     7
370
    50
100
AcDbLine
 10
257.1651774863775
 20
271.3093571383552
 30
0.0
 11
328.9651774863775
 21
271.3093571383552
 31
0.0
  0
LINE
  5
1FD0
330
1F
100
AcDbEntity
  8
11000_Left
  6
Continuous
 62
     7
370
    50
100
AcDbLine
 10
338.1597474863775
 20
296.3093571383552
 30
0.0
 11
243.7651774863774
 21
296.3093571383552
 31
0.0
  0
LINE
  5
1FD1
330
1F
100
AcDbEntity
  8
10000_Front
  6
Continuous
 62
     7
370
    13
100
AcDbLine
 10
149.1992919371192
 20
273.0093571383552
 30
0.0
 11
125.8992919371192
 21
273.0093571383552
 31
0.0
  0
LINE
  5
1FD2
330
1F
100
AcDbEntity
  8
10000_Front
  6
Continuous
 62
     7
370
    13
100
AcDbLine
 10
222.6992919371193
 20
273.0093571383552
 30
0.0
 11
199.3992919371192
 21
273.0093571383552
 31
0.0
  0
LINE
  5
1FD3
330
1F
100
AcDbEntity
  8
10000_Front
  6
Continuous
 62
     7
370
    13
100
AcDbLine
 10
186.1992919371192
 20
273.0093571383552
 30
0.0
 11
162.3992919371192
 21
273.0093571383552
 31
0.0
  0
LINE
  5
1FD4
330
1F
100
AcDbEntity
  8
10000_Front
  6
Continuous
 62
     7
370
    13
100
AcDbLine
 10
131.6992919371192
 20
271.8713571383552
 30
0.0
 11
131.6992919371192
 21
271.4093571383552
 31
0.0
  0
LINE
  5
1FD5
330
1F
100
AcDbEntity
  8
10000_Front
  6
Continuous
 62
     7
370
    13
100
AcDbLine
 10
131.6992919371192
 20
273.0093571383552
 30
0.0
 11
131.6992919371192
 21
271.8713571383552
 31
0.0
  0
LINE
  5
1FD6
330
1F
100
AcDbEntity
  8
10000_Front
  6
Continuous
 62
     7
370
    13
100
AcDbLine
 10
130.4992919371192
 20
271.8713571383552
 30
0.0
 11
130.4992919371192
 21
273.0093571383552
 31
0.0
  0
LINE
  5
1FD7
330
1F
100
AcDbEntity
  8
10000_Front
  6
Continuous
 62
     7
370
    13
100
AcDbLine
 10
130.4992919371192
 20
271.4093571383552
 30
0.0
 11
130.4992919371192
 21
271.8713571383552
 31
0.0
  0
LINE
  5
1FD8
330
1F
100
AcDbEntity
  8
10000_Front
  6
Continuous
 62
     7
370
    13
100
AcDbLine
 10
134.6992919371192
 20
273.0093571383552
 30
0.0
 11
134.6992919371192
 21
271.8713571383552
 31
0.0
  0
LINE
  5
1FD9
330
1F
100
AcDbEntity
  8
10000_Front
  6
Continuous
 62
     7
370
    13
100
AcDbLine
 10
134.6992919371192
 20
271.8713571383552
 30
0.0
 11
134.6992919371192
 21
271.4093571383552
 31
0.0
  0
LINE
  5
1FDA
330
1F
100
AcDbEntity
  8
10000_Front
  6
Continuous
 62
     7
370
    13
100
AcDbLine
 10
133.4992919371192
 20
271.4093571383552
 30
0.0
 11
133.4992919371192
 21
271.8713571383552
 31
0.0
  0
LINE
  5
1FDB
330
1F
100
AcDbEntity
  8
10000_Front
  6
Continuous
 62
     7
370
    13
100
AcDbLine
 10
133.4992919371192
 20
271.8713571383552
 30
0.0
 11
133.4992919371192
 21
273.0093571383552
 31
0.0
  0
LINE
  5
1FDC
330
1F
100
AcDbEntity
  8
10000_Front
  6
Continuous
 62
     7
370
    13
100
AcDbLine
 10
139.8992919371192
 20
271.8713571383552
 30
0.0
 11
139.8992919371192
 21
273.0093571383552
 31
0.0
  0
LINE
  5
1FDD
330
1F
100
AcDbEntity
  8
10000_Front
  6
Continuous
 62
     7
370
    13
100
AcDbLine
 10
142.8992919371192
 20
271.8713571383552
 30
0.0
 11
142.8992919371192
 21
273.0093571383552
 31
0.0
  0
LINE
  5
1FDE
330
1F
100
AcDbEntity
  8
10000_Front
  6
Continuous
 62
     7
370
    13
100
AcDbLine
 10
146.0992919371192
 20
271.8713571383552
 30
0.0
 11
146.0992919371192
 21
273.0093571383552
 31
0.0
  0
LINE
  5
1FDF
330
1F
100
AcDbEntity
  8
10000_Front
  6
Continuous
 62
     7
370
    13
100
AcDbLine
 10
136.6992919371192
 20
271.8713571383552
 30
0.0
 11
136.6992919371192
 21
273.0093571383552
 31
0.0
  0
LINE
  5
1FE0
330
1F
100
AcDbEntity
  8
10000_Front
  6
Continuous
 62
     7
370
    13
100
AcDbLine
 10
128.4992919371192
 20
271.8713571383552
 30
0.0
 11
128.4992919371192
 21
271.4093571383552
 31
0.0
  0
LINE
  5
1FE1
330
1F
100
AcDbEntity
  8
10000_Front
  6
Continuous
 62
     7
370
    13
100
AcDbLine
 10
128.4992919371192
 20
273.0093571383552
 30
0.0
 11
128.4992919371192
 21
271.8713571383552
 31
0.0
  0
LINE
  5
1FE2
330
1F
100
AcDbEntity
  8
10000_Front
  6
Continuous
 62
     7
370
    13
100
AcDbLine
 10
127.2992919371193
 20
271.8713571383552
 30
0.0
 11
127.2992919371193
 21
273.0093571383552
 31
0.0
  0
LINE
  5
1FE3
330
1F
100
AcDbEntity
  8
10000_Front
  6
Continuous
 62
     7
370
    13
100
AcDbLine
 10
127.2992919371193
 20
271.4093571383552
 30
0.0
 11
127.2992919371193
 21
271.8713571383552
 31
0.0
  0
LINE
  5
1FE4
330
1F
100
AcDbEntity
  8
10000_Front
  6
Continuous
 62
     7
370
    13
100
AcDbLine
 10
134.2992919371193
 20
271.0133271383552
 30
0.0
 11
133.8992919371192
 21
271.0133271383552
 31
0.0
  0
ARC
  5
2222
330
1F
100
AcDbEntity
  8
10000_Front
  6
Continuous
 62
     7
370
    13
100
AcDbCircle
 10
223.0992919371193
 20
271.7093571383551
 30
0.0
 40
0.4
100
AcDbArc
 50
180.0
 51
270.0
  0
ARC
  5
2223
330
1F
100
AcDbEntity
  8
10000_Front
  6
Continuous
 62
     7
370
    13
100
AcDbCircle
 10
125.4992919371192
 20
271.7093571383551
 30
0.0
 40
0.4
100
AcDbArc
 50
270.0
 51
0.0
  0
ARC
  5
2224
330
1F
100
AcDbEntity
  8
10000_Front
  6
Continuous
 62
     7
370
    13
100
AcDbCircle
 10
200.4492919371192
 20
297.9093571383552
 30
0.0
 40
0.4
100
AcDbArc
 50
90.0
 51
134.3060400000009
  0
ARC
  5
2225
330
1F
100
AcDbEntity
  8
10000_Front
  6
Continuous
 62
     7
370
    13
100
AcDbCircle
 10
200.4492919371192
 20
297.9093571383552
 30
0.0
 40
0.4
100
AcDbArc
 50
134.3060400000009
 51
180.0
  0
ARC
  5
2226
330
1F
100
AcDbEntity
  8
10000_Front
  6
Continuous
 62
     7
370
    13
100
AcDbCircle
 10
222.1492919371192
 20
297.9093571383552
 30
0.0
 40
0.4
100
AcDbArc
 50
0.0
 51
45.69395699999968
  0
ARC
  5
2227
102
{ACAD_REACTORS
330
1F28
102
}
330
1F
100
AcDbEntity
  8
10000_Front
  6
Continuous
 62
     7
370
    13
100
AcDbCircle
 10
222.1492919371192
 20
297.9093571383552
 30
0.0
 40
0.4
100
AcDbArc
 50
45.69395699999968
 51
90.0
  0
ARC
  5
2228
330
1F
100
AcDbEntity
  8
10000_Front
  6
Continuous
 62
     7
370
    13
100
AcDbCircle
 10
163.4492919371192
 20
297.9093571383552
 30
0.0
 40
0.4
100
AcDbArc
 50
90.0
 51
134.3060400000009
  0
ARC
  5
2229
330
1F
100
AcDbEntity
  8
10000_Front
  6
Continuous
 62
     7
370
    13
100
AcDbCircle
 10
163.4492919371192
 20
297.9093571383552
 30
0.0
 40
0.4
100
AcDbArc
 50
134.3060400000009
 51
180.0
  0
ARC
  5
222A
330
1F
100
AcDbEntity
  8
10000_Front
  6
Continuous
 62
     7
370
    13
100
AcDbCircle
 10
185.1492919371192
 20
297.9093571383552
 30
0.0
 40
0.4
100
AcDbArc
 50
0.0
 51
45.69395699999968
  0
ARC
  5
222B
330
1F
100
AcDbEntity
  8
10000_Front
  6
Continuous
 62
     7
370
    13
100
AcDbCircle
 10
185.1492919371192
 20
297.9093571383552
 30
0.0
 40
0.4
100
AcDbArc
 50
45.69395699999968
 51
90.0
  0
ARC
  5
222C
330
1F
100
AcDbEntity
  8
10000_Front
  6
Continuous
 62
     7
370
    13
100
AcDbCircle
 10
126.4492919371192
 20
297.9093571383552
 30
0.0
 40
0.4
100
AcDbArc
 50
90.0
 51
135.693959999999
  0
ARC
  5
222D
330
1F
100
AcDbEntity
  8
10000_Front
  6
Continuous
 62
     7
370
    13
100
AcDbCircle
 10
126.4492919371192
 20
297.9093571383552
 30
0.0
 40
0.4
100
AcDbArc
 50
135.693959999999
 51
180.0
  0
ARC
  5
222E
330
1F
100
AcDbEntity
  8
10000_Front
  6
Continuous
 62
     7
370
    13
100
AcDbCircle
 10
148.1492919371192
 20
297.9093571383552
 30
0.0
 40
0.4
100
AcDbArc
 50
0.0
 51
44.30604299999803
  0
ARC
  5
222F
330
1F
100
AcDbEntity
  8
10000_Front
  6
Continuous
 62
     7
370
    13
100
AcDbCircle
 10
148.1492919371192
 20
297.9093571383552
 30
0.0
 40
0.4
100
AcDbArc
 50
44.30604299999803
 51
90.0
  0
ARC
  5
2230
102
{ACAD_REACTORS
330
1F2E
102
}
330
1F
100
AcDbEntity
  8
10000_Front
  6
Continuous
 62
     7
370
    13
100
AcDbCircle
 10
125.0992919371192
 20
272.1093571383551
 30
0.0
 40
0.8
100
AcDbArc
 50
180.0
 51
224.6332200000002
  0
ARC
  5
2231
330
1F
100
AcDbEntity
  8
10000_Front
  6
Continuous
 62
     7
370
    13
100
AcDbCircle
 10
125.0992919371192
 20
272.1093571383551
 30
0.0
 40
0.8
100
AcDbArc
 50
224.6332200000002
 51
270.0
  0
ARC
  5
2232
102
{ACAD_REACTORS
330
1F2E
330
1F28
102
}
330
1F
100
AcDbEntity
  8
10000_Front
  6
Continuous
 62
     7
370
    13
100
AcDbCircle
 10
223.4992919371192
 20
272.1093571383551
 30
0.0
 40
0.8
100
AcDbArc
 50
270.0
 51
0.0
  0
ARC
  5
2233
330
1F
100
AcDbEntity
  8
10000_Front
  6
Continuous
 62
     7
370
    50
100
AcDbCircle
 10
223.4992919371192
 20
276.1093571383551
 30
0.0
 40
0.8
100
AcDbArc
 50
270.0
 51
0.0
  0
ARC
  5
2234
330
1F
100
AcDbEntity
  8
10000_Front
  6
Continuous
 62
     7
370
    50
100
AcDbCircle
 10
125.0992919371192
 20
276.1093571383551
 30
0.0
 40
0.8
100
AcDbArc
 50
180.0
 51
270.0
  0
ARC
  5
2235
330
1F
100
AcDbEntity
  8
10000_Front
  6
Continuous
 62
     7
370
    50
100
AcDbCircle
 10
222.7992919371193
 20
294.8093571383552
 30
0.0
 40
1.5
100
AcDbArc
 50
0.0
 51
90.0
  0
ARC
  5
2236
330
1F
100
AcDbEntity
  8
10000_Front
  6
Continuous
 62
     7
370
    50
100
AcDbCircle
 10
125.7992919371192
 20
294.8093571383552
 30
0.0
 40
1.5
100
AcDbArc
 50
90.0
 51
180.0
  0
LINE
  5
2237
330
1F
100
AcDbEntity
  8
10000_Front
  6
Continuous
 62
     7
370
    50
100
AcDbLine
 10
124.2992919371193
 20
276.1093571383551
 30
0.0
 11
124.2992919371193
 21
294.8093571383552
 31
0.0
  0
LINE
  5
2238
330
1F
100
AcDbEntity
  8
10000_Front
  6
Continuous
 62
     7
370
    13
100
AcDbLine
 10
124.2992919371193
 20
274.5093571383552
 30
0.0
 11
124.2992919371193
 21
276.1093571383551
 31
0.0
  0
LINE
  5
2239
102
{ACAD_REACTORS
330
1F2E
102
}
330
1F
100
AcDbEntity
  8
10000_Front
  6
Continuous
 62
     7
370
    13
100
AcDbLine
 10
124.2992919371193
 20
272.1093571383551
 30
0.0
 11
124.2992919371193
 21
274.5093571383552
 31
0.0
  0
LINE
  5
223A
330
1F
100
AcDbEntity
  8
10000_Front
  6
Continuous
 62
     7
370
    13
100
AcDbLine
 10
224.2992919371193
 20
274.5093571383552
 30
0.0
 11
224.2992919371193
 21
272.1093571383551
 31
0.0
  0
LINE
  5
223B
330
1F
100
AcDbEntity
  8
10000_Front
  6
Continuous
 62
     7
370
    13
100
AcDbLine
 10
224.2992919371193
 20
276.1093571383551
 30
0.0
 11
224.2992919371193
 21
274.5093571383552
 31
0.0
  0
LINE
  5
223C
330
1F
100
AcDbEntity
  8
10000_Front
  6
Continuous
 62
     7
370
    50
100
AcDbLine
 10
224.2992919371193
 20
294.8093571383552
 30
0.0
 11
224.2992919371193
 21
276.1093571383551
 31
0.0
  0
LINE
  5
223D
330
1F
100
AcDbEntity
  8
10000_Front
  6
Continuous
 62
     7
370
    13
100
AcDbLine
 10
222.6992919371193
 20
274.5093571383552
 30
0.0
 11
222.6992919371193
 21
275.3093571383551
 31
0.0
  0
LINE
  5
223E
330
1F
100
AcDbEntity
  8
10000_Front
  6
Continuous
 62
     7
370
    13
100
AcDbLine
 10
222.6992919371193
 20
272.1093571383551
 30
0.0
 11
222.6992919371193
 21
274.5093571383552
 31
0.0
  0
LINE
  5
223F
330
1F
100
AcDbEntity
  8
10000_Front
  6
Continuous
 62
     7
370
    13
100
AcDbLine
 10
222.6992919371193
 20
271.7093571383551
 30
0.0
 11
222.6992919371193
 21
272.1093571383551
 31
0.0
  0
LINE
  5
2240
330
1F
100
AcDbEntity
  8
10000_Front
  6
Continuous
 62
     7
370
    13
100
AcDbLine
 10
125.8992919371192
 20
272.1093571383551
 30
0.0
 11
125.8992919371192
 21
271.7093571383551
 31
0.0
  0
LINE
  5
2241
330
1F
100
AcDbEntity
  8
10000_Front
  6
Continuous
 62
     7
370
    13
100
AcDbLine
 10
125.8992919371192
 20
274.5093571383552
 30
0.0
 11
125.8992919371192
 21
272.1093571383551
 31
0.0
  0
LINE
  5
2242
330
1F
100
AcDbEntity
  8
10000_Front
  6
Continuous
 62
     7
370
    13
100
AcDbLine
 10
125.8992919371192
 20
275.3093571383551
 30
0.0
 11
125.8992919371192
 21
274.5093571383552
 31
0.0
  0
LINE
  5
2243
330
1F
100
AcDbEntity
  8
10000_Front
  6
Continuous
 62
     7
370
    50
100
AcDbLine
 10
223.4992919371192
 20
275.3093571383551
 30
0.0
 11
125.0992919371192
 21
275.3093571383551
 31
0.0
  0
CIRCLE
  5
2244
330
1F
100
AcDbEntity
  8
10000_Front
  6
Continuous
 62
     7
370
    13
100
AcDbCircle
 10
137.2992919371192
 20
285.3093571383551
 30
0.0
 40
3.0
  0
CIRCLE
  5
2245
330
1F
100
AcDbEntity
  8
10000_Front
  6
Continuous
 62
     7
370
    13
100
AcDbCircle
 10
174.2992919371193
 20
285.3093571383551
 30
0.0
 40
3.0
  0
CIRCLE
  5
2246
330
1F
100
AcDbEntity
  8
10000_Front
  6
Continuous
 62
     7
370
    13
100
AcDbCircle
 10
211.2992919371193
 20
285.3093571383551
 30
0.0
 40
3.0
  0
LINE
  5
2247
330
1F
100
AcDbEntity
  8
10000_Front
  6
Continuous
 62
     7
370
    13
100
AcDbLine
 10
222.5492919371193
 20
297.9093571383552
 30
0.0
 11
222.5492919371193
 21
296.3093571383552
 31
0.0
  0
LINE
  5
2248
330
1F
100
AcDbEntity
  8
10000_Front
  6
Continuous
 62
     7
370
    13
100
AcDbLine
 10
200.0492919371193
 20
296.3093571383552
 30
0.0
 11
200.0492919371193
 21
297.9093571383552
 31
0.0
  0
LINE
  5
2249
330
1F
100
AcDbEntity
  8
10000_Front
  6
Continuous
 62
     7
370
    13
100
AcDbLine
 10
163.0492919371192
 20
296.3093571383552
 30
0.0
 11
163.0492919371192
 21
297.9093571383552
 31
0.0
  0
LINE
  5
224A
330
1F
100
AcDbEntity
  8
10000_Front
  6
Continuous
 62
     7
370
    13
100
AcDbLine
 10
185.5492919371193
 20
297.9093571383552
 30
0.0
 11
185.5492919371193
 21
296.3093571383552
 31
0.0
  0
LINE
  5
224B
330
1F
100
AcDbEntity
  8
10000_Front
  6
Continuous
 62
     7
370
    13
100
AcDbLine
 10
148.5492919371193
 20
297.9093571383552
 30
0.0
 11
148.5492919371193
 21
296.3093571383552
 31
0.0
  0
LINE
  5
224C
330
1F
100
AcDbEntity
  8
10000_Front
  6
Continuous
 62
     7
370
    13
100
AcDbLine
 10
126.0492919371193
 20
296.3093571383552
 30
0.0
 11
126.0492919371193
 21
297.9093571383552
 31
0.0
  0
LINE
  5
224D
330
1F
100
AcDbEntity
  8
10000_Front
  6
Continuous
 62
     7
370
    13
100
AcDbLine
 10
200.4492919371192
 20
298.3093571383552
 30
0.0
 11
222.1492919371192
 21
298.3093571383552
 31
0.0
  0
LINE
  5
224E
330
1F
100
AcDbEntity
  8
10000_Front
  6
Continuous
 62
     7
370
    13
100
AcDbLine
 10
163.4492919371192
 20
298.3093571383552
 30
0.0
 11
185.1492919371192
 21
298.3093571383552
 31
0.0
  0
LINE
  5
224F
330
1F
100
AcDbEntity
  8
10000_Front
  6
Continuous
 62
     7
370
    13
100
AcDbLine
 10
126.4492919371192
 20
298.3093571383552
 30
0.0
 11
148.1492919371192
 21
298.3093571383552
 31
0.0
  0
LINE
  5
2250
330
1F
100
AcDbEntity
  8
10000_Front
  6
Continuous
 62
     7
370
    13
100
AcDbLine
 10
186.1992919371192
 20
275.3093571383551
 30
0.0
 11
186.1992919371192
 21
271.3093571383552
 31
0.0
  0
LINE
  5
2251
330
1F
100
AcDbEntity
  8
10000_Front
  6
Continuous
 62
     7
370
    13
100
AcDbLine
 10
199.3992919371192
 20
271.3093571383552
 30
0.0
 11
199.3992919371192
 21
275.3093571383551
 31
0.0
  0
LINE
  5
2252
330
1F
100
AcDbEntity
  8
10000_Front
  6
Continuous
 62
     7
370
    13
100
AcDbLine
 10
149.1992919371192
 20
275.3093571383551
 30
0.0
 11
149.1992919371192
 21
271.3093571383552
 31
0.0
  0
LINE
  5
2253
330
1F
100
AcDbEntity
  8
10000_Front
  6
Continuous
 62
     7
370
    13
100
AcDbLine
 10
162.3992919371192
 20
271.3093571383552
 30
0.0
 11
162.3992919371192
 21
275.3093571383551
 31
0.0
  0
LINE
  5
2254
330
1F
100
AcDbEntity
  8
10000_Front
  6
Continuous
 62
     7
370
    13
100
AcDbLine
 10
162.3992919371192
 20
271.3093571383552
 30
0.0
 11
149.1992919371192
 21
271.3093571383552
 31
0.0
  0
LINE
  5
2255
330
1F
100
AcDbEntity
  8
10000_Front
  6
Continuous
 62
     7
370
    13
100
AcDbLine
 10
199.3992919371192
 20
271.3093571383552
 30
0.0
 11
186.1992919371192
 21
271.3093571383552
 31
0.0
  0
LINE
  5
2256
330
1F
100
AcDbEntity
  8
10000_Front
  6
Continuous
 62
     7
370
    13
100
AcDbLine
 10
223.4992919371192
 20
271.3093571383552
 30
0.0
 11
223.0992919371193
 21
271.3093571383552
 31
0.0
  0
LINE
  5
2257
330
1F
100
AcDbEntity
  8
10000_Front
  6
Continuous
 62
     7
370
    13
100
AcDbLine
 10
125.4992919371192
 20
271.3093571383552
 30
0.0
 11
125.0992919371192
 21
271.3093571383552
 31
0.0
  0
LINE
  5
2258
330
1F
100
AcDbEntity
  8
10000_Front
  6
Continuous
 62
     7
370
    50
100
AcDbLine
 10
125.7992919371192
 20
296.3093571383552
 30
0.0
 11
222.7992919371193
 21
296.3093571383552
 31
0.0
  0
ENDSEC
  0
SECTION
  2
OBJECTS
  0
DICTIONARY
  5
C
330
0
100
AcDbDictionary
281
     1
  3
ACAD_COLOR
350
6B
  3
ACAD_GROUP
350
D
  3
ACAD_LAYOUT
350
1A
  3
ACAD_MATERIAL
350
6A
  3
ACAD_MLINESTYLE
350
17
  3
ACAD_PLOTSETTINGS
350
19
  3
ACAD_PLOTSTYLENAME
350
E
  3
ACDBHEADERROUNDTRIPXREC
350
22F3
  3
AcDbVariableDictionary
350
5E
  3
DWGPROPS
350
22F2
  0
DICTIONARY
  5
1F27
330
1F26
100
AcDbDictionary
280
     1
281
     1
  3
ACAD_DIMASSOC
360
1F28
  0
DICTIONARY
  5
1F2A
330
1F29
100
AcDbDictionary
280
     1
281
     1
  3
ACAD_DIMASSOC
360
1F2B
  0
DICTIONARY
  5
1F2D
330
1F2C
100
AcDbDictionary
280
     1
281
     1
  3
ACAD_DIMASSOC
360
1F2E
  0
DICTIONARY
  5
6B
102
{ACAD_REACTORS
330
C
102
}
330
C
100
AcDbDictionary
281
     1
  0
DICTIONARY
  5
D
102
{ACAD_REACTORS
330
C
102
}
330
C
100
AcDbDictionary
281
     1
  0
DICTIONARY
  5
1A
102
{ACAD_REACTORS
330
C
102
}
330
C
100
AcDbDictionary
281
     1
  3
Layout1
350
51
  3
Layout2
350
56
  3
Model
350
22
  0
DICTIONARY
  5
6A
102
{ACAD_REACTORS
330
C
102
}
330
C
100
AcDbDictionary
281
     1
  0
DICTIONARY
  5
17
102
{ACAD_REACTORS
330
C
102
}
330
C
100
AcDbDictionary
281
     1
  3
Standard
350
18
  0
DICTIONARY
  5
19
102
{ACAD_REACTORS
330
C
102
}
330
C
100
AcDbDictionary
281
     1
  0
ACDBDICTIONARYWDFLT
  5
E
102
{ACAD_REACTORS
330
C
102
}
330
C
100
AcDbDictionary
281
     1
  3
Normal
350
F
100
AcDbDictionaryWithDefault
340
F
  0
DICTIONARY
  5
22F3
102
{ACAD_REACTORS
330
C
102
}
330
C
100
AcDbDictionary
281
     1
  3
COLORDICT
350
22F5
  3
MATERIALDICT
350
22F4
  0
DICTIONARY
  5
5E
102
{ACAD_REACTORS
330
C
102
}
330
C
100
AcDbDictionary
281
     1
  3
DIMASSOC
350
5F
  3
HIDETEXT
350
63
  3
PROJECTNAME
350
16D
  0
XRECORD
  5
22F2
102
{ACAD_REACTORS
330
C
102
}
330
C
100
AcDbXrecord
280
     1
  1
DWGPROPS COOKIE
  2

  3

  4

  6

  7

  8

  9

300
=
301
=
302
=
303
=
304
=
305
=
306
=
307
=
308
=
309
=
 40
0.5442816782407407
 41
2453438.354822963
 42
2453502.433327246
  1

 90
        0
  0
DIMASSOC
  5
1F28
102
{ACAD_REACTORS
330
1F27
102
}
330
1F27
100
AcDbDimAssoc
330
1F26
 90
        3
 70
     0
 71
     0
  1
AcDbOsnapPointRef
 72
    13
331
2232
 73
     2
 91
        0
 40
4.712388980384689
 10
0.0
 20
0.0
 30
2.000000000000000E+50
 75
     0
  1
AcDbOsnapPointRef
 72
     1
331
2227
 73
     2
 91
        0
 40
1.570796326794896
 10
0.0
 20
0.0
 30
2.000000000000000E+50
 75
     0
  0
DIMASSOC
  5
1F2B
102
{ACAD_REACTORS
330
1F2A
102
}
330
1F2A
100
AcDbDimAssoc
330
1F29
 90
        3
 70
     0
 71
     0
  1
AcDbOsnapPointRef
 72
     1
331
1FBA
 73
     2
 91
        0
 40
1.0
 10
0.0
 20
0.0
 30
2.000000000000000E+50
 75
     0
  1
AcDbOsnapPointRef
 72
    13
331
1FCA
 73
     2
 91
        0
 40
0.1025623536312699
 10
0.0
 20
0.0
 30
2.000000000000000E+50
 75
     0
  0
DIMASSOC
  5
1F2E
102
{ACAD_REACTORS
330
1F2D
102
}
330
1F2D
100
AcDbDimAssoc
330
1F2C
 90
        3
 70
     0
 71
     0
  1
AcDbOsnapPointRef
 72
     6
331
2239
 73
     2
 91
        0
 40
0.0
 10
0.0
 20
0.0
 30
0.0
332
2230
 74
     2
 92
        0
 75
     0
  1
AcDbOsnapPointRef
 72
     1
331
2232
 73
     2
 91
        0
 40
6.283185307179586
 10
0.0
 20
0.0
 30
2.000000000000000E+50
 75
     0
  0
LAYOUT
  5
51
102
{ACAD_XDICTIONARY
360
22F8
102
}
102
{ACAD_REACTORS
330
1A
102
}
330
1A
100
AcDbPlotSettings
  1

  2
None
  4

  6

 40
0.0
 41
0.0
 42
0.0
 43
0.0
 44
0.0
 45
0.0
 46
0.0
 47
0.0
 48
0.0
 49
0.0
140
0.0
141
0.0
142
1.0
143
1.0
 70
   688
 72
     0
 73
     0
 74
     5
  7

 75
    16
147
1.0
148
0.0
149
0.0
100
AcDbLayout
  1
Layout1
 70
     1
 71
     1
 10
0.0
 20
0.0
 11
12.0
 21
9.0
 12
0.0
 22
0.0
 32
0.0
 14
0.0
 24
0.0
 34
0.0
 15
0.0
 25
0.0
 35
0.0
146
0.0
 13
0.0
 23
0.0
 33
0.0
 16
1.0
 26
0.0
 36
0.0
 17
0.0
 27
1.0
 37
0.0
 76
     0
330
50
  0
LAYOUT
  5
56
102
{ACAD_XDICTIONARY
360
22FA
102
}
102
{ACAD_REACTORS
330
1A
102
}
330
1A
100
AcDbPlotSettings
  1

  2
None
  4

  6

 40
0.0
 41
0.0
 42
0.0
 43
0.0
 44
0.0
 45
0.0
 46
0.0
 47
0.0
 48
0.0
 49
0.0
140
0.0
141
0.0
142
1.0
143
1.0
 70
   688
 72
     0
 73
     0
 74
     5
  7

 75
    16
147
1.0
148
0.0
149
0.0
100
AcDbLayout
  1
Layout2
 70
     1
 71
     2
 10
0.0
 20
0.0
 11
12.0
 21
9.0
 12
0.0
 22
0.0
 32
0.0
 14
0.0
 24
0.0
 34
0.0
 15
0.0
 25
0.0
 35
0.0
146
0.0
 13
0.0
 23
0.0
 33
0.0
 16
1.0
 26
0.0
 36
0.0
 17
0.0
 27
1.0
 37
0.0
 76
     0
330
55
  0
LAYOUT
  5
22
102
{ACAD_XDICTIONARY
360
22F6
102
}
102
{ACAD_REACTORS
330
1A
102
}
330
1A
100
AcDbPlotSettings
  1

  2
none_device
  4
ANSI_A_(8.50_x_11.00_Inches)
  6

 40
6.349999904632567
 41
19.04999923706055
 42
6.350006103515625
 43
19.04998779296875
 44
215.8999938964844
 45
279.3999938964844
 46
0.0
 47
0.0
 48
0.0
 49
0.0
140
0.0
141
0.0
142
1.0
143
78.436453180766
 70
 11952
 72
     0
 73
     1
 74
     0
  7

 75
     0
147
0.0127491741332998
148
0.0
149
0.0
100
AcDbLayout
  1
Model
 70
     1
 71
     0
 10
0.0
 20
0.0
 11
12.0
 21
9.0
 12
0.0
 22
0.0
 32
0.0
 14
0.0
 24
0.0
 34
0.0
 15
0.0
 25
0.0
 35
0.0
146
0.0
 13
0.0
 23
0.0
 33
0.0
 16
1.0
 26
0.0
 36
0.0
 17
0.0
 27
1.0
 37
0.0
 76
     0
330
1F
  0
MLINESTYLE
  5
18
102
{ACAD_REACTORS
330
17
102
}
330
17
100
AcDbMlineStyle
  2
STANDARD
 70
     0
  3

 62
   256
 51
90.0
 52
90.0
 71
     2
 49
0.5
 62
   256
  6
BYLAYER
 49
-0.5
 62
   256
  6
BYLAYER
  0
ACDBPLACEHOLDER
  5
F
102
{ACAD_REACTORS
330
E
102
}
330
E
  0
XRECORD
  5
22F5
102
{ACAD_REACTORS
330
22F3
102
}
330
22F3
100
AcDbXrecord
280
     1
340
6B
  0
XRECORD
  5
22F4
102
{ACAD_REACTORS
330
22F3
102
}
330
22F3
100
AcDbXrecord
280
     1
340
6A
  0
DICTIONARYVAR
  5
5F
102
{ACAD_REACTORS
330
5E
102
}
330
5E
100
DictionaryVariables
280
     0
  1
2
  0
DICTIONARYVAR
  5
63
102
{ACAD_REACTORS
330
5E
102
}
330
5E
100
DictionaryVariables
280
     0
  1
1
  0
DICTIONARYVAR
  5
16D
102
{ACAD_REACTORS
330
5E
102
}
330
5E
100
DictionaryVariables
280
     0
  1

  0
DICTIONARY
  5
22F8
330
51
100
AcDbDictionary
280
     1
281
     1
  3
ACAD_XREC_ROUNDTRIP
360
22F9
  0
DICTIONARY
  5
22FA
330
56
100
AcDbDictionary
280
     1
281
     1
  3
ACAD_XREC_ROUNDTRIP
360
22FB
  0
DICTIONARY
  5
22F6
330
22
100
AcDbDictionary
280
     1
281
     1
  3
ACAD_XREC_ROUNDTRIP
360
22F7
  0
XRECORD
  5
22F9
102
{ACAD_REACTORS
330
22F8
102
}
330
22F8
100
AcDbXrecord
280
     1
102
SHADEPLOT
 70
     0
102
SHADEPLOTRESLEVEL
 70
     2
102
SHADEPLOTCUSTOMDPI
 70
   300
  0
XRECORD
  5
22FB
102
{ACAD_REACTORS
330
22FA
102
}
330
22FA
100
AcDbXrecord
280
     1
102
SHADEPLOT
 70
     0
102
SHADEPLOTRESLEVEL
 70
     2
102
SHADEPLOTCUSTOMDPI
 70
   300
  0
XRECORD
  5
22F7
102
{ACAD_REACTORS
330
22F6
102
}
330
22F6
100
AcDbXrecord
280
     1
102
SHADEPLOT
 70
     0
102
SHADEPLOTRESLEVEL
 70
     2
102
SHADEPLOTCUSTOMDPI
 70
   300
  0
ENDSEC
  0
EOF
