  0
SECTION
  2
HEADER
  9
$ACADVER
  1
AC1015
  9
$ACADMAINTVER
 70
    20
  9
$DWGCODEPAGE
  3
ANSI_1252
  9
$INSBASE
 10
0.0
 20
0.0
 30
0.0
  9
$EXTMIN
 10
46.41815288739531
 20
83.63666410379005
 30
-0.0000411955873032
  9
$EXTMAX
 10
316.4483651151513
 20
283.6483972261413
 30
0.4500549337361642
  9
$LIMMIN
 10
0.0
 20
0.0
  9
$LIMMAX
 10
420.0
 20
297.0
  9
$ORTHOMODE
 70
     0
  9
$REGENMODE
 70
     1
  9
$FILLMODE
 70
     1
  9
$QTEXTMODE
 70
     0
  9
$MIRRTEXT
 70
     0
  9
$LTSCALE
 40
1.0
  9
$ATTMODE
 70
     1
  9
$TEXTSIZE
 40
4.945867574227346
  9
$TRACEWID
 40
1.0
  9
$TEXTSTYLE
  7
Standard
  9
$CLAYER
  8
0
  9
$CELTYPE
  6
ByLayer
  9
$CECOLOR
 62
   256
  9
$CELTSCALE
 40
1.0
  9
$DISPSILH
 70
     0
  9
$DIMSCALE
 40
1.0
  9
$DIMASZ
 40
2.5
  9
$DIMEXO
 40
0.625
  9
$DIMDLI
 40
3.75
  9
$DIMRND
 40
0.0
  9
$DIMDLE
 40
0.0
  9
$DIMEXE
 40
1.25
  9
$DIMTP
 40
0.0
  9
$DIMTM
 40
0.0
  9
$DIMTXT
 40
2.5
  9
$DIMCEN
 40
2.5
  9
$DIMTSZ
 40
0.0
  9
$DIMTOL
 70
     0
  9
$DIMLIM
 70
     0
  9
$DIMTIH
 70
     0
  9
$DIMTOH
 70
     0
  9
$DIMSE1
 70
     0
  9
$DIMSE2
 70
     0
  9
$DIMTAD
 70
     1
  9
$DIMZIN
 70
     8
  9
$DIMBLK
  1

  9
$DIMASO
 70
     1
  9
$DIMSHO
 70
     1
  9
$DIMPOST
  1

  9
$DIMAPOST
  1

  9
$DIMALT
 70
     0
  9
$DIMALTD
 70
     3
  9
$DIMALTF
 40
0.03937007874016
  9
$DIMLFAC
 40
1.0
  9
$DIMTOFL
 70
     1
  9
$DIMTVP
 40
0.0
  9
$DIMTIX
 70
     0
  9
$DIMSOXD
 70
     0
  9
$DIMSAH
 70
     0
  9
$DIMBLK1
  1

  9
$DIMBLK2
  1

  9
$DIMSTYLE
  2
ISO-25
  9
$DIMCLRD
 70
     0
  9
$DIMCLRE
 70
     0
  9
$DIMCLRT
 70
     0
  9
$DIMTFAC
 40
1.0
  9
$DIMGAP
 40
0.625
  9
$DIMJUST
 70
     0
  9
$DIMSD1
 70
     0
  9
$DIMSD2
 70
     0
  9
$DIMTOLJ
 70
     0
  9
$DIMTZIN
 70
     8
  9
$DIMALTZ
 70
     0
  9
$DIMALTTZ
 70
     0
  9
$DIMUPT
 70
     0
  9
$DIMDEC
 70
     2
  9
$DIMTDEC
 70
     2
  9
$DIMALTU
 70
     2
  9
$DIMALTTD
 70
     3
  9
$DIMTXSTY
  7
Standard
  9
$DIMAUNIT
 70
     0
  9
$DIMADEC
 70
     0
  9
$DIMALTRND
 40
0.0
  9
$DIMAZIN
 70
     0
  9
$DIMDSEP
 70
    44
  9
$DIMATFIT
 70
     3
  9
$DIMFRAC
 70
     0
  9
$DIMLDRBLK
  1

  9
$DIMLUNIT
 70
     2
  9
$DIMLWD
 70
    -2
  9
$DIMLWE
 70
    -2
  9
$DIMTMOVE
 70
     0
  9
$LUNITS
 70
     2
  9
$LUPREC
 70
     4
  9
$SKETCHINC
 40
1.0
  9
$FILLETRAD
 40
10.0
  9
$AUNITS
 70
     0
  9
$AUPREC
 70
     0
  9
$MENU
  1
.
  9
$ELEVATION
 40
0.0
  9
$PELEVATION
 40
0.0
  9
$THICKNESS
 40
0.0
  9
$LIMCHECK
 70
     0
  9
$CHAMFERA
 40
10.0
  9
$CHAMFERB
 40
10.0
  9
$CHAMFERC
 40
20.0
  9
$CHAMFERD
 40
0.0
  9
$SKPOLY
 70
     0
  9
$TDCREATE
 40
2453453.645911123
  9
$TDUCREATE
 40
2453453.604244456
  9
$TDUPDATE
 40
2453801.584511320
  9
$TDUUPDATE
 40
2453801.542844653
  9
$TDINDWG
 40
0.3620601968
  9
$TDUSRTIMER
 40
0.3620596644
  9
$USRTIMER
 70
     1
  9
$ANGBASE
 50
0.0
  9
$ANGDIR
 70
     0
  9
$PDMODE
 70
     0
  9
$PDSIZE
 40
0.0
  9
$PLINEWID
 40
0.0
  9
$SPLFRAME
 70
     0
  9
$SPLINETYPE
 70
     6
  9
$SPLINESEGS
 70
     8
  9
$HANDSEED
  5
6730
  9
$SURFTAB1
 70
     6
  9
$SURFTAB2
 70
     6
  9
$SURFTYPE
 70
     6
  9
$SURFU
 70
     6
  9
$SURFV
 70
     6
  9
$UCSBASE
  2

  9
$UCSNAME
  2

  9
$UCSORG
 10
0.0
 20
0.0
 30
0.0
  9
$UCSXDIR
 10
1.0
 20
0.0
 30
0.0
  9
$UCSYDIR
 10
0.0
 20
1.0
 30
0.0
  9
$UCSORTHOREF
  2

  9
$UCSORTHOVIEW
 70
     0
  9
$UCSORGTOP
 10
0.0
 20
0.0
 30
0.0
  9
$UCSORGBOTTOM
 10
0.0
 20
0.0
 30
0.0
  9
$UCSORGLEFT
 10
0.0
 20
0.0
 30
0.0
  9
$UCSORGRIGHT
 10
0.0
 20
0.0
 30
0.0
  9
$UCSORGFRONT
 10
0.0
 20
0.0
 30
0.0
  9
$UCSORGBACK
 10
0.0
 20
0.0
 30
0.0
  9
$PUCSBASE
  2

  9
$PUCSNAME
  2

  9
$PUCSORG
 10
0.0
 20
0.0
 30
0.0
  9
$PUCSXDIR
 10
1.0
 20
0.0
 30
0.0
  9
$PUCSYDIR
 10
0.0
 20
1.0
 30
0.0
  9
$PUCSORTHOREF
  2

  9
$PUCSORTHOVIEW
 70
     0
  9
$PUCSORGTOP
 10
0.0
 20
0.0
 30
0.0
  9
$PUCSORGBOTTOM
 10
0.0
 20
0.0
 30
0.0
  9
$PUCSORGLEFT
 10
0.0
 20
0.0
 30
0.0
  9
$PUCSORGRIGHT
 10
0.0
 20
0.0
 30
0.0
  9
$PUCSORGFRONT
 10
0.0
 20
0.0
 30
0.0
  9
$PUCSORGBACK
 10
0.0
 20
0.0
 30
0.0
  9
$USERI1
 70
     0
  9
$USERI2
 70
     0
  9
$USERI3
 70
     0
  9
$USERI4
 70
     0
  9
$USERI5
 70
     0
  9
$USERR1
 40
0.0
  9
$USERR2
 40
0.0
  9
$USERR3
 40
0.0
  9
$USERR4
 40
0.0
  9
$USERR5
 40
0.0
  9
$WORLDVIEW
 70
     1
  9
$SHADEDGE
 70
     3
  9
$SHADEDIF
 70
    70
  9
$TILEMODE
 70
     1
  9
$MAXACTVP
 70
    64
  9
$PINSBASE
 10
0.0
 20
0.0
 30
0.0
  9
$PLIMCHECK
 70
     0
  9
$PEXTMIN
 10
0.0
 20
0.0
 30
0.0
  9
$PEXTMAX
 10
0.0
 20
0.0
 30
0.0
  9
$PLIMMIN
 10
0.0
 20
0.0
  9
$PLIMMAX
 10
12.0
 20
9.0
  9
$UNITMODE
 70
     0
  9
$VISRETAIN
 70
     1
  9
$PLINEGEN
 70
     0
  9
$PSLTSCALE
 70
     1
  9
$TREEDEPTH
 70
  3020
  9
$CMLSTYLE
  2
Standard
  9
$CMLJUST
 70
     0
  9
$CMLSCALE
 40
20.0
  9
$PROXYGRAPHICS
 70
     1
  9
$MEASUREMENT
 70
     1
  9
$CELWEIGHT
370
    -1
  9
$ENDCAPS
280
     0
  9
$JOINSTYLE
280
     0
  9
$LWDISPLAY
290
     0
  9
$INSUNITS
 70
     4
  9
$HYPERLINKBASE
  1

  9
$STYLESHEET
  1

  9
$XEDIT
290
     1
  9
$CEPSNTYPE
380
     0
  9
$PSTYLEMODE
290
     1
  9
$FINGERPRINTGUID
  2
{FDEAD578-A652-11D2-9A35-0060089B3A3F}
  9
$VERSIONGUID
  2
{2202A2B6-5774-4C7E-BB8C-E2CB428B3008}
  9
$EXTNAMES
290
     1
  9
$PSVPSCALE
 40
0.0
  9
$OLESTARTUP
290
     0
  0
ENDSEC
  0
SECTION
  2
CLASSES
  0
CLASS
  1
ACDBDICTIONARYWDFLT
  2
AcDbDictionaryWithDefault
  3
ObjectDBX Classes
 90
        0
280
     0
281
     0
  0
CLASS
  1
DICTIONARYVAR
  2
AcDbDictionaryVar
  3
ObjectDBX Classes
 90
        0
280
     0
281
     0
  0
CLASS
  1
DIMASSOC
  2
AcDbDimAssoc
  3
"AcDbDimAssoc|Product Desc:     AcDim ARX App For Dimension|Company:          Autodesk, Inc.|WEB Address:      www.autodesk.com"
 90
        0
280
     0
281
     0
  0
CLASS
  1
ACDBPLACEHOLDER
  2
AcDbPlaceHolder
  3
ObjectDBX Classes
 90
        0
280
     0
281
     0
  0
CLASS
  1
LAYOUT
  2
AcDbLayout
  3
ObjectDBX Classes
 90
        0
280
     0
281
     0
  0
ENDSEC
  0
SECTION
  2
TABLES
  0
TABLE
  2
VPORT
  5
8
330
0
100
AcDbSymbolTable
 70
     3
  0
VPORT
  5
6725
330
8
100
AcDbSymbolTableRecord
100
AcDbViewportTableRecord
  2
*Active
 70
     0
 10
0.0
 20
0.0
 11
1.0
 21
1.0
 12
181.4332590012733
 22
183.6425306649656
 13
0.0
 23
0.0
 14
10.0
 24
10.0
 15
10.0
 25
10.0
 16
0.0
 26
0.0
 36
1.0
 17
0.0
 27
0.0
 37
0.0
 40
201.2514752698038
 41
1.605997931747673
 42
50.0
 43
0.0
 44
0.0
 50
0.0
 51
0.0
 71
     0
 72
  1000
 73
     1
 74
     3
 75
     0
 76
     0
 77
     0
 78
     0
281
     0
 65
     1
110
0.0
120
0.0
130
0.0
111
1.0
121
0.0
131
0.0
112
0.0
122
1.0
132
0.0
 79
     0
146
0.0
  0
ENDTAB
  0
TABLE
  2
LTYPE
  5
5
330
0
100
AcDbSymbolTable
 70
     3
  0
LTYPE
  5
14
330
5
100
AcDbSymbolTableRecord
100
AcDbLinetypeTableRecord
  2
ByBlock
 70
     0
  3

 72
    65
 73
     0
 40
0.0
  0
LTYPE
  5
15
330
5
100
AcDbSymbolTableRecord
100
AcDbLinetypeTableRecord
  2
ByLayer
 70
     0
  3

 72
    65
 73
     0
 40
0.0
  0
LTYPE
  5
16
330
5
100
AcDbSymbolTableRecord
100
AcDbLinetypeTableRecord
  2
Continuous
 70
     0
  3
Solid line
 72
    65
 73
     0
 40
0.0
  0
LTYPE
  5
2BDE
330
5
100
AcDbSymbolTableRecord
100
AcDbLinetypeTableRecord
  2
CENTER
 70
     0
  3
____ _ ____ _ ____ _ ____ _ ____ _ ____ _ ____
 72
    65
 73
     4
 40
2.0
 49
1.25
 74
     0
 49
-0.25
 74
     0
 49
0.25
 74
     0
 49
-0.25
 74
     0
  0
LTYPE
  5
3443
330
5
100
AcDbSymbolTableRecord
100
AcDbLinetypeTableRecord
  2
DASHED
 70
     0
  3
_ _ _ _ _ _ _ _ _ _ _ _ _ _ _ _ _ _ _ _ _ _ _ _
 72
    65
 73
     2
 40
0.375
 49
0.25
 74
     0
 49
-0.125
 74
     0
  0
ENDTAB
  0
TABLE
  2
LAYER
  5
2
330
0
100
AcDbSymbolTable
 70
    10
  0
LAYER
  5
10
330
2
100
AcDbSymbolTableRecord
100
AcDbLayerTableRecord
  2
0
 70
     0
 62
     7
  6
Continuous
370
    -3
390
F
  0
LAYER
  5
171B
330
2
100
AcDbSymbolTableRecord
100
AcDbLayerTableRecord
  2
Defpoints
 70
     0
 62
     7
  6
Continuous
290
     0
370
    -3
390
F
  0
LAYER
  5
2BDF
330
2
100
AcDbSymbolTableRecord
100
AcDbLayerTableRecord
  2
90000_FRAME
 70
     0
 62
     7
  6
Continuous
370
    -3
390
F
  0
LAYER
  5
2BE0
330
2
100
AcDbSymbolTableRecord
100
AcDbLayerTableRecord
  2
91000_TIP
 70
     0
 62
     7
  6
Continuous
370
    -3
390
F
  0
LAYER
  5
2D47
330
2
100
AcDbSymbolTableRecord
100
AcDbLayerTableRecord
  2
10000_Front
 70
     0
 62
     7
  6
Continuous
370
    -3
390
F
  0
LAYER
  5
2D48
330
2
100
AcDbSymbolTableRecord
100
AcDbLayerTableRecord
  2
10100_Front_Dim
 70
     0
 62
     7
  6
Continuous
370
    -3
390
F
  0
LAYER
  5
2F54
330
2
100
AcDbSymbolTableRecord
100
AcDbLayerTableRecord
  2
11000_Left
 70
     0
 62
     7
  6
Continuous
370
    -3
390
F
  0
LAYER
  5
2F55
330
2
100
AcDbSymbolTableRecord
100
AcDbLayerTableRecord
  2
11100_Left_Dim
 70
     0
 62
     7
  6
Continuous
370
    -3
390
F
  0
LAYER
  5
6217
330
2
100
AcDbSymbolTableRecord
100
AcDbLayerTableRecord
  2
V1L1
 70
     0
 62
     7
  6
Continuous
370
    -3
390
F
  0
LAYER
  5
6218
330
2
100
AcDbSymbolTableRecord
100
AcDbLayerTableRecord
  2
V1L204
 70
     0
 62
     7
  6
Continuous
370
    -3
390
F
  0
ENDTAB
  0
TABLE
  2
STYLE
  5
3
330
0
100
AcDbSymbolTable
 70
     1
  0
STYLE
  5
11
330
3
100
AcDbSymbolTableRecord
100
AcDbTextStyleTableRecord
  2
Standard
 70
     0
 40
0.0
 41
1.0
 50
0.0
 71
     0
 42
4.945867574227346
  3
txt
  4

  0
ENDTAB
  0
TABLE
  2
VIEW
  5
6
330
0
100
AcDbSymbolTable
 70
     0
  0
ENDTAB
  0
TABLE
  2
UCS
  5
7
330
0
100
AcDbSymbolTable
 70
     0
  0
ENDTAB
  0
TABLE
  2
APPID
  5
9
330
0
100
AcDbSymbolTable
 70
     3
  0
APPID
  5
12
330
9
100
AcDbSymbolTableRecord
100
AcDbRegAppTableRecord
  2
ACAD
 70
     0
  0
APPID
  5
344C
330
9
100
AcDbSymbolTableRecord
100
AcDbRegAppTableRecord
  2
AUSTER_ANSICHT
 70
     0
  0
APPID
  5
344D
330
9
100
AcDbSymbolTableRecord
100
AcDbRegAppTableRecord
  2
AUSTER_FOLIE
 70
     0
  0
ENDTAB
  0
TABLE
  2
DIMSTYLE
  5
A
330
0
100
AcDbSymbolTable
 70
     4
100
AcDbDimStyleTable
 71
     2
340
2F56
340
27
  0
DIMSTYLE
105
27
330
A
100
AcDbSymbolTableRecord
100
AcDbDimStyleTableRecord
  2
ISO-25
 70
     0
 41
2.5
 42
0.625
 43
3.75
 44
1.25
 73
     0
 74
     0
 77
     1
 78
     8
140
2.5
141
2.5
143
0.03937007874016
147
0.625
171
     3
172
     1
271
     2
272
     2
274
     3
278
    44
283
     0
284
     8
340
11
  0
DIMSTYLE
105
2F56
102
{ACAD_REACTORS
330
65BE
330
65B9
330
65BC
330
65B8
102
}
330
A
100
AcDbSymbolTableRecord
100
AcDbDimStyleTableRecord
  2
H035
 70
     0
 40
0.0
 41
2.5
 42
0.0
 43
3.75
 44
2.0
 73
     0
 74
     0
 77
     1
 78
     8
140
5.0
141
2.5
143
0.0394
147
1.0
171
     4
172
     1
176
   256
177
   256
178
     2
271
     0
272
     2
273
     8
274
     4
277
     6
340
11
  0
DIMSTYLE
105
49B5
330
A
100
AcDbSymbolTableRecord
100
AcDbDimStyleTableRecord
  2
STANDARD
 70
     0
 41
0.125
 43
0.25
 44
0.125
 47
0.005
 48
-0.005
140
3.0
147
0.0625
171
     0
172
     1
271
     3
272
     3
274
     0
279
     2
340
11
  0
DIMSTYLE
105
6219
102
{ACAD_REACTORS
330
63A0
330
639B
330
639E
330
639A
102
}
330
A
100
AcDbSymbolTableRecord
100
AcDbDimStyleTableRecord
  2
DSTYLE1
 70
     0
 41
4.0
 42
0.0
 44
1.0
 73
     0
 74
     0
 78
     3
140
4.5
143
0.039370079
147
1.0
271
     3
272
     3
274
     0
279
     2
340
11
  0
ENDTAB
  0
TABLE
  2
BLOCK_RECORD
  5
1
330
0
100
AcDbSymbolTable
 70
    19
  0
BLOCK_RECORD
  5
1F
330
1
100
AcDbSymbolTableRecord
100
AcDbBlockTableRecord
  2
*Model_Space
340
22
  0
BLOCK_RECORD
  5
50
330
1
100
AcDbSymbolTableRecord
100
AcDbBlockTableRecord
  2
*Paper_Space
340
51
  0
BLOCK_RECORD
  5
55
330
1
100
AcDbSymbolTableRecord
100
AcDbBlockTableRecord
  2
*Paper_Space0
340
56
  0
BLOCK_RECORD
  5
2B73
330
1
100
AcDbSymbolTableRecord
100
AcDbBlockTableRecord
  2
SIEMENS_OUTLINE_BL0
340
0
102
{BLKREFS
331
2BFF
102
}
  0
BLOCK_RECORD
  5
5FAD
330
1
100
AcDbSymbolTableRecord
100
AcDbBlockTableRecord
  2
*D2
340
0
  0
BLOCK_RECORD
  5
5FC5
330
1
100
AcDbSymbolTableRecord
100
AcDbBlockTableRecord
  2
*D3
340
0
  0
BLOCK_RECORD
  5
5FDD
330
1
100
AcDbSymbolTableRecord
100
AcDbBlockTableRecord
  2
*D4
340
0
  0
BLOCK_RECORD
  5
6010
330
1
100
AcDbSymbolTableRecord
100
AcDbBlockTableRecord
  2
*D5
340
0
  0
BLOCK_RECORD
  5
603B
330
1
100
AcDbSymbolTableRecord
100
AcDbBlockTableRecord
  2
*D6
340
0
  0
BLOCK_RECORD
  5
60D6
330
1
100
AcDbSymbolTableRecord
100
AcDbBlockTableRecord
  2
*D7
340
0
  0
BLOCK_RECORD
  5
60EE
330
1
100
AcDbSymbolTableRecord
100
AcDbBlockTableRecord
  2
*D8
340
0
  0
BLOCK_RECORD
  5
610F
330
1
100
AcDbSymbolTableRecord
100
AcDbBlockTableRecord
  2
*D9
340
0
  0
BLOCK_RECORD
  5
61E8
330
1
100
AcDbSymbolTableRecord
100
AcDbBlockTableRecord
  2
*D10
340
0
  0
BLOCK_RECORD
  5
61F2
330
1
100
AcDbSymbolTableRecord
100
AcDbBlockTableRecord
  2
*D11
340
0
  0
BLOCK_RECORD
  5
61FE
330
1
100
AcDbSymbolTableRecord
100
AcDbBlockTableRecord
  2
*D12
340
0
  0
BLOCK_RECORD
  5
620B
330
1
100
AcDbSymbolTableRecord
100
AcDbBlockTableRecord
  2
*D13
340
0
  0
BLOCK_RECORD
  5
6654
330
1
100
AcDbSymbolTableRecord
100
AcDbBlockTableRecord
  2
*D15
340
0
  0
BLOCK_RECORD
  5
6660
330
1
100
AcDbSymbolTableRecord
100
AcDbBlockTableRecord
  2
*D16
340
0
  0
BLOCK_RECORD
  5
666D
330
1
100
AcDbSymbolTableRecord
100
AcDbBlockTableRecord
  2
*D17
340
0
  0
BLOCK_RECORD
  5
6679
330
1
100
AcDbSymbolTableRecord
100
AcDbBlockTableRecord
  2
*D18
340
0
  0
ENDTAB
  0
ENDSEC
  0
SECTION
  2
BLOCKS
  0
BLOCK
  5
20
330
1F
100
AcDbEntity
  8
0
100
AcDbBlockBegin
  2
*Model_Space
 70
     0
 10
0.0
 20
0.0
 30
0.0
  3
*Model_Space
  1

  0
ENDBLK
  5
21
330
1F
100
AcDbEntity
  8
0
100
AcDbBlockEnd
  0
BLOCK
  5
52
330
50
100
AcDbEntity
 67
     1
  8
0
100
AcDbBlockBegin
  2
*Paper_Space
 70
     0
 10
0.0
 20
0.0
 30
0.0
  3
*Paper_Space
  1

  0
ENDBLK
  5
53
330
50
100
AcDbEntity
 67
     1
  8
0
100
AcDbBlockEnd
  0
BLOCK
  5
57
330
55
100
AcDbEntity
  8
0
100
AcDbBlockBegin
  2
*Paper_Space0
 70
     0
 10
0.0
 20
0.0
 30
0.0
  3
*Paper_Space0
  1

  0
ENDBLK
  5
58
330
55
100
AcDbEntity
  8
0
100
AcDbBlockEnd
  0
BLOCK
  5
2B74
330
2B73
100
AcDbEntity
  8
0
  6
Continuous
 62
     7
100
AcDbBlockBegin
  2
SIEMENS_OUTLINE_BL0
 70
     0
 10
0.0
 20
0.0
 30
0.0
  3
SIEMENS_OUTLINE_BL0
  1

  0
LINE
  5
2B75
330
2B73
100
AcDbEntity
  8
0
  6
Continuous
 62
     7
100
AcDbLine
 10
79.186200508
 20
21.4145478991
 30
0.0
 11
79.186200508
 21
16.6612788158
 31
0.0
  0
LINE
  5
2B76
330
2B73
100
AcDbEntity
  8
0
  6
Continuous
 62
     7
100
AcDbLine
 10
80.61218123299999
 20
21.4145478991
 30
0.0
 11
80.61218123299999
 21
16.6612788158
 31
0.0
  0
LINE
  5
2B77
330
2B73
100
AcDbEntity
  8
0
  6
Continuous
 62
     7
100
AcDbLine
 10
79.186200508
 20
16.6612788158
 30
0.0
 11
80.61218123299999
 21
16.6612788158
 31
0.0
  0
LINE
  5
2B78
330
2B73
100
AcDbEntity
  8
0
  6
Continuous
 62
     7
100
AcDbLine
 10
79.186200508
 20
21.4145478991
 30
0.0
 11
80.61218123299999
 21
21.4145478991
 31
0.0
  0
LINE
  5
2B79
330
2B73
100
AcDbEntity
  8
0
  6
Continuous
 62
     7
100
AcDbLine
 10
81.7054331221
 20
21.4145478991
 30
0.0
 11
81.7054331221
 21
16.6612788158
 31
0.0
  0
LINE
  5
2B7A
330
2B73
100
AcDbEntity
  8
0
  6
Continuous
 62
     7
100
AcDbLine
 10
81.7054331221
 20
16.6612788158
 30
0.0
 11
85.2703849346
 21
16.6612788158
 31
0.0
  0
LINE
  5
2B7B
330
2B73
100
AcDbEntity
  8
0
  6
Continuous
 62
     7
100
AcDbLine
 10
85.2703849346
 20
17.5643999417
 30
0.0
 11
83.0838811563
 21
17.5643999417
 31
0.0
  0
LINE
  5
2B7C
330
2B73
100
AcDbEntity
  8
0
  6
Continuous
 62
     7
100
AcDbLine
 10
85.2703849346
 20
17.5643999417
 30
0.0
 11
85.2703849346
 21
16.6612788158
 31
0.0
  0
LINE
  5
2B7D
330
2B73
100
AcDbEntity
  8
0
  6
Continuous
 62
     7
100
AcDbLine
 10
85.2228522438
 20
21.4145478991
 30
0.0
 11
81.7054331221
 21
21.4145478991
 31
0.0
  0
LINE
  5
2B7E
330
2B73
100
AcDbEntity
  8
0
  6
Continuous
 62
     7
100
AcDbLine
 10
85.2228522438
 20
20.5351931187
 30
0.0
 11
83.0838811563
 21
20.5351931187
 31
0.0
  0
LINE
  5
2B7F
330
2B73
100
AcDbEntity
  8
0
  6
Continuous
 62
     7
100
AcDbLine
 10
85.2228522438
 20
21.4145478991
 30
0.0
 11
85.2228522438
 21
20.5351931187
 31
0.0
  0
LINE
  5
2B80
330
2B73
100
AcDbEntity
  8
0
  6
Continuous
 62
     7
100
AcDbLine
 10
84.9376560988
 20
18.68141817619999
 30
0.0
 11
83.0838811563
 21
18.68141817619999
 31
0.0
  0
LINE
  5
2B81
330
2B73
100
AcDbEntity
  8
0
  6
Continuous
 62
     7
100
AcDbLine
 10
84.9376560988
 20
19.465707575
 30
0.0
 11
84.9376560988
 21
18.68141817619999
 31
0.0
  0
LINE
  5
2B82
330
2B73
100
AcDbEntity
  8
0
  6
Continuous
 62
     7
100
AcDbLine
 10
84.9376560988
 20
19.465707575
 30
0.0
 11
83.0838811563
 21
19.465707575
 31
0.0
  0
LINE
  5
2B83
330
2B73
100
AcDbEntity
  8
0
  6
Continuous
 62
     7
100
AcDbLine
 10
83.0838811563
 20
20.5351931187
 30
0.0
 11
83.0838811563
 21
19.465707575
 31
0.0
  0
LINE
  5
2B84
330
2B73
100
AcDbEntity
  8
0
  6
Continuous
 62
     7
100
AcDbLine
 10
83.0838811563
 20
18.68141817619999
 30
0.0
 11
83.0838811563
 21
17.5643999417
 31
0.0
  0
LINE
  5
2B85
330
2B73
100
AcDbEntity
  8
0
  6
Continuous
 62
     7
100
AcDbLine
 10
86.0784406788
 20
16.6612788158
 30
0.0
 11
86.0784406788
 21
21.4145478991
 31
0.0
  0
LINE
  5
2B86
330
2B73
100
AcDbEntity
  8
0
  6
Continuous
 62
     7
100
AcDbLine
 10
86.0784406788
 20
16.6612788158
 30
0.0
 11
87.02909449539999
 21
16.6612788158
 31
0.0
  0
LINE
  5
2B87
330
2B73
100
AcDbEntity
  8
0
  6
Continuous
 62
     7
100
AcDbLine
 10
91.92496165120001
 20
21.4145478991
 30
0.0
 11
91.92496165120001
 21
16.6612788158
 31
0.0
  0
LINE
  5
2B88
330
2B73
100
AcDbEntity
  8
0
  6
Continuous
 62
     7
100
AcDbLine
 10
91.92496165120001
 20
16.6612788158
 30
0.0
 11
90.54651361700001
 21
16.6612788158
 31
0.0
  0
LINE
  5
2B89
330
2B73
100
AcDbEntity
  8
0
  6
Continuous
 62
     7
100
AcDbLine
 10
88.3600098387
 20
16.613746125
 30
0.0
 11
89.21559827370002
 21
16.613746125
 31
0.0
  0
LINE
  5
2B8A
330
2B73
100
AcDbEntity
  8
0
  6
Continuous
 62
     7
100
AcDbLine
 10
88.3600098387
 20
16.613746125
 30
0.0
 11
87.02909449539999
 21
19.7033710291
 31
0.0
  0
LINE
  5
2B8B
330
2B73
100
AcDbEntity
  8
0
  6
Continuous
 62
     7
100
AcDbLine
 10
87.02909449539999
 20
16.6612788158
 30
0.0
 11
87.02909449539999
 21
19.7033710291
 31
0.0
  0
LINE
  5
2B8C
330
2B73
100
AcDbEntity
  8
0
  6
Continuous
 62
     7
100
AcDbLine
 10
90.54651361700001
 20
19.75090372
 30
0.0
 11
89.21559827370002
 21
16.613746125
 31
0.0
  0
LINE
  5
2B8D
330
2B73
100
AcDbEntity
  8
0
  6
Continuous
 62
     7
100
AcDbLine
 10
87.78961754870001
 20
21.4145478991
 30
0.0
 11
86.0784406788
 21
21.4145478991
 31
0.0
  0
LINE
  5
2B8E
330
2B73
100
AcDbEntity
  8
0
  6
Continuous
 62
     7
100
AcDbLine
 10
91.92496165120001
 20
21.4145478991
 30
0.0
 11
90.2137847812
 21
21.4145478991
 31
0.0
  0
LINE
  5
2B8F
330
2B73
100
AcDbEntity
  8
0
  6
Continuous
 62
     7
100
AcDbLine
 10
87.78961754870001
 20
21.4145478991
 30
0.0
 11
89.0254675104
 21
18.5150537583
 31
0.0
  0
LINE
  5
2B90
330
2B73
100
AcDbEntity
  8
0
  6
Continuous
 62
     7
100
AcDbLine
 10
90.2137847812
 20
21.4145478991
 30
0.0
 11
89.0254675104
 21
18.5150537583
 31
0.0
  0
LINE
  5
2B91
330
2B73
100
AcDbEntity
  8
0
  6
Continuous
 62
     7
100
AcDbLine
 10
90.54651361700001
 20
19.75090372
 30
0.0
 11
90.54651361700001
 21
16.6612788158
 31
0.0
  0
LINE
  5
2B92
330
2B73
100
AcDbEntity
  8
0
  6
Continuous
 62
     7
100
AcDbLine
 10
93.01821354030002
 20
21.4145478991
 30
0.0
 11
93.01821354030002
 21
16.6612788158
 31
0.0
  0
LINE
  5
2B93
330
2B73
100
AcDbEntity
  8
0
  6
Continuous
 62
     7
100
AcDbLine
 10
93.01821354030002
 20
16.6612788158
 30
0.0
 11
96.5831653528
 21
16.6612788158
 31
0.0
  0
LINE
  5
2B94
330
2B73
100
AcDbEntity
  8
0
  6
Continuous
 62
     7
100
AcDbLine
 10
96.5831653528
 20
17.5643999417
 30
0.0
 11
94.3966615745
 21
17.5643999417
 31
0.0
  0
LINE
  5
2B95
330
2B73
100
AcDbEntity
  8
0
  6
Continuous
 62
     7
100
AcDbLine
 10
96.5831653528
 20
17.5643999417
 30
0.0
 11
96.5831653528
 21
16.6612788158
 31
0.0
  0
LINE
  5
2B96
330
2B73
100
AcDbEntity
  8
0
  6
Continuous
 62
     7
100
AcDbLine
 10
96.53563266200002
 20
21.4145478991
 30
0.0
 11
93.01821354030002
 21
21.4145478991
 31
0.0
  0
LINE
  5
2B97
330
2B73
100
AcDbEntity
  8
0
  6
Continuous
 62
     7
100
AcDbLine
 10
96.53563266200002
 20
20.5351931187
 30
0.0
 11
94.3966615745
 21
20.5351931187
 31
0.0
  0
LINE
  5
2B98
330
2B73
100
AcDbEntity
  8
0
  6
Continuous
 62
     7
100
AcDbLine
 10
96.53563266200002
 20
21.4145478991
 30
0.0
 11
96.53563266200002
 21
20.5351931187
 31
0.0
  0
LINE
  5
2B99
330
2B73
100
AcDbEntity
  8
0
  6
Continuous
 62
     7
100
AcDbLine
 10
96.25043651700002
 20
18.68141817619999
 30
0.0
 11
94.3966615745
 21
18.68141817619999
 31
0.0
  0
LINE
  5
2B9A
330
2B73
100
AcDbEntity
  8
0
  6
Continuous
 62
     7
100
AcDbLine
 10
96.25043651700002
 20
19.465707575
 30
0.0
 11
96.25043651700002
 21
18.68141817619999
 31
0.0
  0
LINE
  5
2B9B
330
2B73
100
AcDbEntity
  8
0
  6
Continuous
 62
     7
100
AcDbLine
 10
96.25043651700002
 20
19.465707575
 30
0.0
 11
94.3966615745
 21
19.465707575
 31
0.0
  0
LINE
  5
2B9C
330
2B73
100
AcDbEntity
  8
0
  6
Continuous
 62
     7
100
AcDbLine
 10
94.3966615745
 20
20.5351931187
 30
0.0
 11
94.3966615745
 21
19.465707575
 31
0.0
  0
LINE
  5
2B9D
330
2B73
100
AcDbEntity
  8
0
  6
Continuous
 62
     7
100
AcDbLine
 10
94.3966615745
 20
18.68141817619999
 30
0.0
 11
94.3966615745
 21
17.5643999417
 31
0.0
  0
LINE
  5
2B9E
330
2B73
100
AcDbEntity
  8
0
  6
Continuous
 62
     7
100
AcDbLine
 10
97.3674547515
 20
16.6612788158
 30
0.0
 11
97.3674547515
 21
21.4145478991
 31
0.0
  0
LINE
  5
2B9F
330
2B73
100
AcDbEntity
  8
0
  6
Continuous
 62
     7
100
AcDbLine
 10
101.5503315448
 20
21.4145478991
 30
0.0
 11
101.5503315448
 21
16.6612788158
 31
0.0
  0
LINE
  5
2BA0
330
2B73
100
AcDbEntity
  8
0
  6
Continuous
 62
     7
100
AcDbLine
 10
97.3674547515
 20
16.6612788158
 30
0.0
 11
98.3181085682
 21
16.6612788158
 31
0.0
  0
LINE
  5
2BA1
330
2B73
100
AcDbEntity
  8
0
  6
Continuous
 62
     7
100
AcDbLine
 10
101.5503315448
 20
21.4145478991
 30
0.0
 11
100.5996777282
 21
21.4145478991
 31
0.0
  0
LINE
  5
2BA2
330
2B73
100
AcDbEntity
  8
0
  6
Continuous
 62
     7
100
AcDbLine
 10
98.91226720360002
 20
21.4145478991
 30
0.0
 11
97.3674547515
 21
21.4145478991
 31
0.0
  0
LINE
  5
2BA3
330
2B73
100
AcDbEntity
  8
0
  6
Continuous
 62
     7
100
AcDbLine
 10
101.5503315448
 20
16.6612788158
 30
0.0
 11
100.0292854382
 21
16.6612788158
 31
0.0
  0
LINE
  5
2BA4
330
2B73
100
AcDbEntity
  8
0
  6
Continuous
 62
     7
100
AcDbLine
 10
100.0292854382
 20
16.6612788158
 30
0.0
 11
98.3181085682
 21
19.7033710291
 31
0.0
  0
LINE
  5
2BA5
330
2B73
100
AcDbEntity
  8
0
  6
Continuous
 62
     7
100
AcDbLine
 10
98.91226720360002
 20
21.4145478991
 30
0.0
 11
100.5996777282
 21
18.4675210675
 31
0.0
  0
LINE
  5
2BA6
330
2B73
100
AcDbEntity
  8
0
  6
Continuous
 62
     7
100
AcDbLine
 10
100.5996777282
 20
21.4145478991
 30
0.0
 11
100.5996777282
 21
18.4675210675
 31
0.0
  0
LINE
  5
2BA7
330
2B73
100
AcDbEntity
  8
0
  6
Continuous
 62
     7
100
AcDbLine
 10
98.3181085682
 20
16.6612788158
 30
0.0
 11
98.3181085682
 21
19.7033710291
 31
0.0
  0
LINE
  5
2BA8
330
2B73
100
AcDbEntity
  8
0
  6
Continuous
 62
     7
100
AcDbLine
 10
102.358387289
 20
16.7563441975
 30
0.0
 11
102.358387289
 21
17.7069980142
 31
0.0
  0
LINE
  5
2BA9
330
2B73
100
AcDbEntity
  8
0
  6
Continuous
 62
     7
100
AcDbLine
 10
105.6856756473
 20
20.4163613916
 30
0.0
 11
105.6856756473
 21
21.3670152083
 31
0.0
  0
ARC
  5
2BAA
330
2B73
100
AcDbEntity
  8
0
  6
Continuous
 62
     7
100
AcDbCircle
 10
104.063028414
 20
18.6184373609
 30
0.0
 40
1.111619360599997
100
AcDbArc
 50
277.7099956934
 51
295.6884927746
  0
ARC
  5
2BAB
330
2B73
100
AcDbEntity
  8
0
  6
Continuous
 62
     7
100
AcDbCircle
 10
104.3473383967
 20
17.8936115972
 30
0.0
 40
0.3401689265
100
AcDbArc
 50
305.503221255
 51
72.46528985229999
  0
ARC
  5
2BAC
330
2B73
100
AcDbEntity
  8
0
  6
Continuous
 62
     7
100
AcDbCircle
 10
103.7813445886
 20
21.2953185068
 30
0.0
 40
4.756794641099999
100
AcDbArc
 50
252.5939200548001
 51
280.9816604256
  0
ARC
  5
2BAD
330
2B73
100
AcDbEntity
  8
0
  6
Continuous
 62
     7
100
AcDbCircle
 10
104.2361799517
 20
18.6773047703
 30
0.0
 40
2.100726595299998
100
AcDbArc
 50
282.405835852
 51
311.8644433928
  0
ARC
  5
2BAE
330
2B73
100
AcDbEntity
  8
0
  6
Continuous
 62
     7
100
AcDbCircle
 10
103.9626156046
 20
20.2856464918
 30
0.0
 40
0.3029626476
100
AcDbArc
 50
154.4400348282
 51
221.8201698801
  0
ARC
  5
2BAF
330
2B73
100
AcDbEntity
  8
0
  6
Continuous
 62
     7
100
AcDbCircle
 10
104.0418367559
 20
20.2064253405
 30
0.0
 40
0.4103089737
100
AcDbArc
 50
102.8287828681
 51
149.2259639003
  0
ARC
  5
2BB0
330
2B73
100
AcDbEntity
  8
0
  6
Continuous
 62
     7
100
AcDbCircle
 10
104.4588635916
 20
18.4640900106
 30
0.0
 40
2.201836557
100
AcDbArc
 50
84.0400061857
 51
103.3427657870999
  0
ARC
  5
2BB1
330
2B73
100
AcDbEntity
  8
0
  6
Continuous
 62
     7
100
AcDbCircle
 10
104.1178997669
 20
16.0467260867
 30
0.0
 40
4.642373736499997
100
AcDbArc
 50
70.2625858546
 51
82.95241863799999
  0
ARC
  5
2BB2
330
2B73
100
AcDbEntity
  8
0
  6
Continuous
 62
     7
100
AcDbCircle
 10
103.6038815647
 20
20.7183489764
 30
0.0
 40
3.258755990899997
100
AcDbArc
 50
247.5300206145
 51
280.7579522143
  0
ARC
  5
2BB3
330
2B73
100
AcDbEntity
  8
0
  6
Continuous
 62
     7
100
AcDbCircle
 10
97.21891509270001
 20
2.4668290159
 30
0.0
 40
17.3316084133
100
AcDbArc
 50
65.34146746500001
 51
67.39977707359999
  0
ARC
  5
2BB4
330
2B73
100
AcDbEntity
  8
0
  6
Continuous
 62
     7
100
AcDbCircle
 10
108.0147774981
 20
28.259255379
 30
0.0
 40
10.6291642039
100
AcDbArc
 50
242.8620101252001
 51
247.1042029186
  0
ARC
  5
2BB5
330
2B73
100
AcDbEntity
  8
0
  6
Continuous
 62
     7
100
AcDbCircle
 10
104.1598762715
 20
20.725323882
 30
0.0
 40
2.166291629199998
100
AcDbArc
 50
227.3119280794
 51
242.7040315235
  0
ARC
  5
2BB6
330
2B73
100
AcDbEntity
  8
0
  6
Continuous
 62
     7
100
AcDbCircle
 10
103.5558454619
 20
20.0196462412
 30
0.0
 40
1.238521734
100
AcDbArc
 50
194.7952194236
 51
225.7176549047
  0
ARC
  5
2BB7
330
2B73
100
AcDbEntity
  8
0
  6
Continuous
 62
     7
100
AcDbCircle
 10
103.6180035961
 20
20.0598662104
 30
0.0
 40
1.309092072899999
100
AcDbArc
 50
164.1974860461
 51
195.8025139539
  0
ARC
  5
2BB8
330
2B73
100
AcDbEntity
  8
0
  6
Continuous
 62
     7
100
AcDbCircle
 10
104.1750273167
 20
19.1715990505
 30
0.0
 40
2.366924815299999
100
AcDbArc
 50
86.22180229280001
 51
120.4272602309
  0
ARC
  5
2BB9
330
2B73
100
AcDbEntity
  8
0
  6
Continuous
 62
     7
100
AcDbCircle
 10
103.9061705342
 20
12.4754312294
 30
0.0
 40
9.0679051661
100
AcDbArc
 50
78.68270492259998
 51
87.3147599624
  0
ARC
  5
2BBA
330
2B73
100
AcDbEntity
  8
0
  6
Continuous
 62
     7
100
AcDbCircle
 10
103.4501013558
 20
20.1673739729
 30
0.0
 40
1.119747444
100
AcDbArc
 50
142.813917903
 51
167.1522951417
  0
ARC
  5
2BBB
330
2B73
100
AcDbEntity
  8
0
  6
Continuous
 62
     7
100
AcDbCircle
 10
103.7954106974
 20
19.8607922762
 30
0.0
 40
1.580546684499998
100
AcDbArc
 50
121.2140948535
 51
141.5254768286
  0
ARC
  5
2BBC
330
2B73
100
AcDbEntity
  8
0
  6
Continuous
 62
     7
100
AcDbCircle
 10
104.372585063
 20
20.6718496049
 30
0.0
 40
0.8661276051999998
100
AcDbArc
 50
222.7760387596
 51
239.0362434679
  0
ARC
  5
2BBD
330
2B73
100
AcDbEntity
  8
0
  6
Continuous
 62
     7
100
AcDbCircle
 10
101.8658754847
 20
13.3415774063
 30
0.0
 40
6.858773576299999
100
AcDbArc
 50
59.90202725600001
 51
68.2036481279
  0
ARC
  5
2BBE
330
2B73
100
AcDbEntity
  8
0
  6
Continuous
 62
     7
100
AcDbCircle
 10
105.2743699785
 20
22.2674639135
 30
0.0
 40
2.698741017099999
100
AcDbArc
 50
240.0481997804
 51
251.3779673736999
  0
ARC
  5
2BBF
330
2B73
100
AcDbEntity
  8
0
  6
Continuous
 62
     7
100
AcDbCircle
 10
104.6089128117
 20
18.1105652982
 30
0.0
 40
1.4334474881
100
AcDbArc
 50
315.8904553224
 51
333.5229264373
  0
ARC
  5
2BC0
330
2B73
100
AcDbEntity
  8
0
  6
Continuous
 62
     7
100
AcDbCircle
 10
104.6135510555
 20
18.057158148
 30
0.0
 40
1.406228711899998
100
AcDbArc
 50
335.3867972702
 51
24.3915119402
  0
ARC
  5
2BC1
330
2B73
100
AcDbEntity
  8
0
  6
Continuous
 62
     7
100
AcDbCircle
 10
104.5413461519
 20
17.9793014562
 30
0.0
 40
1.504702514799999
100
AcDbArc
 50
25.95629166050001
 51
59.4834829668
  0
LINE
  5
2BC2
330
2B73
100
AcDbEntity
  8
0
  6
Continuous
 62
     7
100
AcDbLine
 10
74.7656602606
 20
16.7563441975
 30
0.0
 11
74.7656602606
 21
17.7069980142
 31
0.0
  0
LINE
  5
2BC3
330
2B73
100
AcDbEntity
  8
0
  6
Continuous
 62
     7
100
AcDbLine
 10
78.09294861879997
 20
20.4163613916
 30
0.0
 11
78.09294861879997
 21
21.3670152083
 31
0.0
  0
ARC
  5
2BC4
330
2B73
100
AcDbEntity
  8
0
  6
Continuous
 62
     7
100
AcDbCircle
 10
76.4703013855
 20
18.6184373609
 30
0.0
 40
1.111619360599997
100
AcDbArc
 50
277.7099956934
 51
295.6884927746
  0
ARC
  5
2BC5
330
2B73
100
AcDbEntity
  8
0
  6
Continuous
 62
     7
100
AcDbCircle
 10
76.7546113683
 20
17.8936115972
 30
0.0
 40
0.3401689265
100
AcDbArc
 50
305.5032212556
 51
72.4652898515
  0
ARC
  5
2BC6
330
2B73
100
AcDbEntity
  8
0
  6
Continuous
 62
     7
100
AcDbCircle
 10
76.1886175602
 20
21.2953185068
 30
0.0
 40
4.756794641099999
100
AcDbArc
 50
252.5939200545
 51
280.9816604253
  0
ARC
  5
2BC7
330
2B73
100
AcDbEntity
  8
0
  6
Continuous
 62
     7
100
AcDbCircle
 10
76.64345292330001
 20
18.6773047703
 30
0.0
 40
2.100726595299998
100
AcDbArc
 50
282.4058358513
 51
311.8644433923
  0
ARC
  5
2BC8
330
2B73
100
AcDbEntity
  8
0
  6
Continuous
 62
     7
100
AcDbCircle
 10
76.3698885762
 20
20.2856464918
 30
0.0
 40
0.3029626476
100
AcDbArc
 50
154.4400348282
 51
221.8201698801
  0
ARC
  5
2BC9
330
2B73
100
AcDbEntity
  8
0
  6
Continuous
 62
     7
100
AcDbCircle
 10
76.4491097276
 20
20.2064253405
 30
0.0
 40
0.4103089737
100
AcDbArc
 50
102.8287828727
 51
149.2259639027
  0
ARC
  5
2BCA
330
2B73
100
AcDbEntity
  8
0
  6
Continuous
 62
     7
100
AcDbCircle
 10
76.8661365632
 20
18.4640900106
 30
0.0
 40
2.201836557
100
AcDbArc
 50
84.0400061859
 51
103.3427657872
  0
ARC
  5
2BCB
330
2B73
100
AcDbEntity
  8
0
  6
Continuous
 62
     7
100
AcDbCircle
 10
76.5251727384
 20
16.0467260867
 30
0.0
 40
4.642373736499997
100
AcDbArc
 50
70.2625858546
 51
82.9524186379
  0
ARC
  5
2BCC
330
2B73
100
AcDbEntity
  8
0
  6
Continuous
 62
     7
100
AcDbCircle
 10
76.0111545363
 20
20.7183489764
 30
0.0
 40
3.258755990899997
100
AcDbArc
 50
247.5300206148
 51
280.7579522145
  0
ARC
  5
2BCD
330
2B73
100
AcDbEntity
  8
0
  6
Continuous
 62
     7
100
AcDbCircle
 10
69.6261880643
 20
2.4668290159
 30
0.0
 40
17.3316084133
100
AcDbArc
 50
65.34146746500001
 51
67.39977707359999
  0
ARC
  5
2BCE
330
2B73
100
AcDbEntity
  8
0
  6
Continuous
 62
     7
100
AcDbCircle
 10
80.4220504697
 20
28.259255379
 30
0.0
 40
10.6291642039
100
AcDbArc
 50
242.8620101252001
 51
247.1042029185
  0
ARC
  5
2BCF
330
2B73
100
AcDbEntity
  8
0
  6
Continuous
 62
     7
100
AcDbCircle
 10
76.56714924310001
 20
20.725323882
 30
0.0
 40
2.166291629199998
100
AcDbArc
 50
227.3119280794
 51
242.7040315235
  0
ARC
  5
2BD0
330
2B73
100
AcDbEntity
  8
0
  6
Continuous
 62
     7
100
AcDbCircle
 10
75.9631184335
 20
20.0196462412
 30
0.0
 40
1.238521734
100
AcDbArc
 50
194.7952194234
 51
225.7176549042
  0
ARC
  5
2BD1
330
2B73
100
AcDbEntity
  8
0
  6
Continuous
 62
     7
100
AcDbCircle
 10
76.58230028830002
 20
19.1715990505
 30
0.0
 40
2.366924815299999
100
AcDbArc
 50
86.22180229280001
 51
120.4272602309
  0
ARC
  5
2BD2
330
2B73
100
AcDbEntity
  8
0
  6
Continuous
 62
     7
100
AcDbCircle
 10
76.3134435058
 20
12.4754312294
 30
0.0
 40
9.0679051661
100
AcDbArc
 50
78.68270492259998
 51
87.3147599624
  0
ARC
  5
2BD3
330
2B73
100
AcDbEntity
  8
0
  6
Continuous
 62
     7
100
AcDbCircle
 10
76.20268366899998
 20
19.8607922762
 30
0.0
 40
1.580546684599998
100
AcDbArc
 50
121.2140948541
 51
141.525476829
  0
ARC
  5
2BD4
330
2B73
100
AcDbEntity
  8
0
  6
Continuous
 62
     7
100
AcDbCircle
 10
76.7798580346
 20
20.6718496049
 30
0.0
 40
0.8661276051999998
100
AcDbArc
 50
222.7760387596
 51
239.0362434679
  0
ARC
  5
2BD5
330
2B73
100
AcDbEntity
  8
0
  6
Continuous
 62
     7
100
AcDbCircle
 10
74.2731484563
 20
13.3415774063
 30
0.0
 40
6.858773576299999
100
AcDbArc
 50
59.90202725620001
 51
68.20364812820002
  0
ARC
  5
2BD6
330
2B73
100
AcDbEntity
  8
0
  6
Continuous
 62
     7
100
AcDbCircle
 10
77.6816429501
 20
22.2674639135
 30
0.0
 40
2.698741017099999
100
AcDbArc
 50
240.0481997804
 51
251.3779673734
  0
ARC
  5
2BD7
330
2B73
100
AcDbEntity
  8
0
  6
Continuous
 62
     7
100
AcDbCircle
 10
77.0161857833
 20
18.1105652982
 30
0.0
 40
1.4334474881
100
AcDbArc
 50
315.8904553226
 51
333.5229264375
  0
ARC
  5
2BD8
330
2B73
100
AcDbEntity
  8
0
  6
Continuous
 62
     7
100
AcDbCircle
 10
77.020824027
 20
18.057158148
 30
0.0
 40
1.406228711899998
100
AcDbArc
 50
335.3867972703
 51
24.3915119403
  0
ARC
  5
2BD9
330
2B73
100
AcDbEntity
  8
0
  6
Continuous
 62
     7
100
AcDbCircle
 10
76.94861912350001
 20
17.9793014562
 30
0.0
 40
1.504702514699999
100
AcDbArc
 50
25.9562916611
 51
59.4834829676
  0
LINE
  5
2BDA
330
2B73
100
AcDbEntity
  8
0
  6
Continuous
 62
     7
100
AcDbLine
 10
74.9574888499
 20
20.8337423583
 30
0.0
 11
75.2315546745
 21
21.1078154358
 31
0.0
  0
ARC
  5
2BDB
330
2B73
100
AcDbEntity
  8
0
  6
Continuous
 62
     7
100
AcDbCircle
 10
76.0252765676
 20
20.0598662104
 30
0.0
 40
1.309092072899999
100
AcDbArc
 50
164.1974860461
 51
195.8025139539
  0
ARC
  5
2BDC
330
2B73
100
AcDbEntity
  8
0
  6
Continuous
 62
     7
100
AcDbCircle
 10
75.8573743274
 20
20.1673739729
 30
0.0
 40
1.119747444
100
AcDbArc
 50
142.813917903
 51
167.1522951417
  0
ENDBLK
  5
2BDD
330
2B73
100
AcDbEntity
  8
0
100
AcDbBlockEnd
  0
BLOCK
  5
5FB7
330
5FAD
100
AcDbEntity
  8
0
100
AcDbBlockBegin
  2
*D2
 70
     1
 10
0.0
 20
0.0
 30
0.0
  3
*D2
  1

  0
LINE
  5
61C3
330
5FAD
100
AcDbEntity
  8
10100_Front_Dim
  6
Continuous
370
    -2
100
AcDbLine
 10
86.60698142104081
 20
162.3840745149763
 30
0.0
 11
86.60698142104081
 21
143.8433962137652
 31
0.0
  0
LINE
  5
61C4
330
5FAD
100
AcDbEntity
  8
10100_Front_Dim
  6
Continuous
370
    -2
100
AcDbLine
 10
131.4069844210409
 20
162.3840745149763
 30
0.0
 11
131.4069844210409
 21
143.8433962137652
 31
0.0
  0
LINE
  5
61C5
330
5FAD
100
AcDbEntity
  8
10100_Front_Dim
  6
Continuous
370
    -2
100
AcDbLine
 10
89.10698142104081
 20
145.8433962137652
 30
0.0
 11
103.8403162543741
 21
145.8433962137652
 31
0.0
  0
LINE
  5
61C6
330
5FAD
100
AcDbEntity
  8
10100_Front_Dim
  6
Continuous
370
    -2
100
AcDbLine
 10
128.9069844210408
 20
145.8433962137652
 30
0.0
 11
114.1736495877075
 21
145.8433962137652
 31
0.0
  0
SOLID
  5
61C7
330
5FAD
100
AcDbEntity
  8
10100_Front_Dim
  6
Continuous
100
AcDbTrace
 10
89.10698142104081
 20
146.2600628804319
 30
0.0
 11
89.10698142104081
 21
145.4267295470986
 31
0.0
 12
86.60698142104081
 22
145.8433962137652
 32
0.0
 13
86.60698142104081
 23
145.8433962137652
 33
0.0
  0
SOLID
  5
61C8
330
5FAD
100
AcDbEntity
  8
10100_Front_Dim
  6
Continuous
100
AcDbTrace
 10
128.9069844210408
 20
146.2600628804319
 30
0.0
 11
128.9069844210408
 21
145.4267295470986
 31
0.0
 12
131.4069844210409
 22
145.8433962137652
 32
0.0
 13
131.4069844210409
 23
145.8433962137652
 33
0.0
  0
MTEXT
  5
61C9
330
5FAD
100
AcDbEntity
  8
10100_Front_Dim
  6
Continuous
 62
     7
370
    13
100
AcDbMText
 10
109.0069829210408
 20
145.8433962137652
 30
0.0
 40
5.0
 41
0.0
 71
     5
 72
     1
  1
\A1;45
 73
     1
 44
1.0
1001
ACAD
1000
MTEXTBEGIN
1070
    73
1070
     1
1070
    44
1040
1.0
1070
    74
1070
     0
1000
MTEXTEND
  0
POINT
  5
61CA
330
5FAD
100
AcDbEntity
  8
Defpoints
  6
Continuous
 62
     0
100
AcDbPoint
 10
86.60698142104081
 20
162.3840745149763
 30
0.0
  0
POINT
  5
61CB
330
5FAD
100
AcDbEntity
  8
Defpoints
  6
Continuous
 62
     0
100
AcDbPoint
 10
131.4069844210409
 20
162.3840745149763
 30
0.0
  0
POINT
  5
61CC
330
5FAD
100
AcDbEntity
  8
Defpoints
  6
Continuous
 62
     0
100
AcDbPoint
 10
131.4069844210409
 20
145.8433962137652
 30
0.0
  0
ENDBLK
  5
5FB8
330
5FAD
100
AcDbEntity
  8
0
100
AcDbBlockEnd
  0
BLOCK
  5
5FCF
330
5FC5
100
AcDbEntity
  8
0
100
AcDbBlockBegin
  2
*D3
 70
     1
 10
0.0
 20
0.0
 30
0.0
  3
*D3
  1

  0
LINE
  5
61B9
330
5FC5
100
AcDbEntity
  8
10100_Front_Dim
  6
Continuous
370
    -2
100
AcDbLine
 10
94.00698142104083
 20
164.2340745149763
 30
0.0
 11
94.00698142104083
 21
151.6907440059918
 31
0.0
  0
LINE
  5
61BA
330
5FC5
100
AcDbEntity
  8
10100_Front_Dim
  6
Continuous
370
    -2
100
AcDbLine
 10
124.0069844210408
 20
164.2340745149763
 30
0.0
 11
124.0069844210408
 21
151.6907440059918
 31
0.0
  0
LINE
  5
61BB
330
5FC5
100
AcDbEntity
  8
10100_Front_Dim
  6
Continuous
370
    -2
100
AcDbLine
 10
96.50698142104083
 20
153.6907440059918
 30
0.0
 11
104.2569829210408
 21
153.6907440059918
 31
0.0
  0
LINE
  5
61BC
330
5FC5
100
AcDbEntity
  8
10100_Front_Dim
  6
Continuous
370
    -2
100
AcDbLine
 10
121.5069844210408
 20
153.6907440059918
 30
0.0
 11
113.7569829210408
 21
153.6907440059918
 31
0.0
  0
SOLID
  5
61BD
330
5FC5
100
AcDbEntity
  8
10100_Front_Dim
  6
Continuous
100
AcDbTrace
 10
96.50698142104083
 20
154.1074106726585
 30
0.0
 11
96.50698142104083
 21
153.2740773393252
 31
0.0
 12
94.00698142104083
 22
153.6907440059918
 32
0.0
 13
94.00698142104083
 23
153.6907440059918
 33
0.0
  0
SOLID
  5
61BE
330
5FC5
100
AcDbEntity
  8
10100_Front_Dim
  6
Continuous
100
AcDbTrace
 10
121.5069844210408
 20
154.1074106726585
 30
0.0
 11
121.5069844210408
 21
153.2740773393252
 31
0.0
 12
124.0069844210408
 22
153.6907440059918
 32
0.0
 13
124.0069844210408
 23
153.6907440059918
 33
0.0
  0
MTEXT
  5
61BF
330
5FC5
100
AcDbEntity
  8
10100_Front_Dim
  6
Continuous
 62
     7
370
    13
100
AcDbMText
 10
109.0069829210408
 20
153.6907440059918
 30
0.0
 40
5.0
 41
0.0
 71
     5
 72
     1
  1
\A1;30
 73
     1
 44
1.0
1001
ACAD
1000
MTEXTBEGIN
1070
    73
1070
     1
1070
    44
1040
1.0
1070
    74
1070
     0
1000
MTEXTEND
  0
POINT
  5
61C0
330
5FC5
100
AcDbEntity
  8
Defpoints
  6
Continuous
 62
     0
100
AcDbPoint
 10
94.00698142104083
 20
164.2340745149763
 30
0.0
  0
POINT
  5
61C1
330
5FC5
100
AcDbEntity
  8
Defpoints
  6
Continuous
 62
     0
100
AcDbPoint
 10
124.0069844210408
 20
164.2340745149763
 30
0.0
  0
POINT
  5
61C2
330
5FC5
100
AcDbEntity
  8
Defpoints
  6
Continuous
 62
     0
100
AcDbPoint
 10
124.0069844210408
 20
153.6907440059918
 30
0.0
  0
ENDBLK
  5
5FD0
330
5FC5
100
AcDbEntity
  8
0
100
AcDbBlockEnd
  0
BLOCK
  5
5FE7
330
5FDD
100
AcDbEntity
  8
0
100
AcDbBlockBegin
  2
*D4
 70
     1
 10
0.0
 20
0.0
 30
0.0
  3
*D4
  1

  0
LINE
  5
61AF
330
5FDD
100
AcDbEntity
  8
10100_Front_Dim
  6
Continuous
370
    -2
100
AcDbLine
 10
128.1499794210409
 20
245.9840845149762
 30
0.0
 11
143.7293411746255
 21
245.9840845149762
 31
0.0
  0
LINE
  5
61B0
330
5FDD
100
AcDbEntity
  8
10100_Front_Dim
  6
Continuous
370
    -2
100
AcDbLine
 10
128.1499894210408
 20
176.9840745149763
 30
0.0
 11
143.7293411746254
 21
176.9840745149763
 31
0.0
  0
LINE
  5
61B1
330
5FDD
100
AcDbEntity
  8
10100_Front_Dim
  6
Continuous
370
    -2
100
AcDbLine
 10
141.7293411746255
 20
243.4840845149762
 30
0.0
 11
141.7293411746255
 21
216.6507461816429
 31
0.0
  0
LINE
  5
61B2
330
5FDD
100
AcDbEntity
  8
10100_Front_Dim
  6
Continuous
370
    -2
100
AcDbLine
 10
141.7293411746254
 20
179.4840745149763
 30
0.0
 11
141.7293411746255
 21
206.3174128483096
 31
0.0
  0
SOLID
  5
61B3
330
5FDD
100
AcDbEntity
  8
10100_Front_Dim
  6
Continuous
100
AcDbTrace
 10
141.3126745079588
 20
243.4840845149762
 30
0.0
 11
142.1460078412921
 21
243.4840845149762
 31
0.0
 12
141.7293411746255
 22
245.9840845149762
 32
0.0
 13
141.7293411746255
 23
245.9840845149762
 33
0.0
  0
SOLID
  5
61B4
330
5FDD
100
AcDbEntity
  8
10100_Front_Dim
  6
Continuous
100
AcDbTrace
 10
141.3126745079588
 20
179.4840745149763
 30
0.0
 11
142.1460078412921
 21
179.4840745149763
 31
0.0
 12
141.7293411746254
 22
176.9840745149763
 32
0.0
 13
141.7293411746254
 23
176.9840745149763
 33
0.0
  0
MTEXT
  5
61B5
330
5FDD
100
AcDbEntity
  8
10100_Front_Dim
  6
Continuous
 62
     7
370
    13
100
AcDbMText
 10
141.7293411746254
 20
211.4840795149763
 30
0.0
 40
5.0
 41
0.0
 71
     5
 72
     1
  1
\A1;69
 11
0.0000000000000001
 21
1.0
 31
0.0
 73
     1
 44
1.0
1001
ACAD
1000
MTEXTBEGIN
1070
    73
1070
     1
1070
    44
1040
1.0
1070
    74
1070
     0
1000
MTEXTEND
  0
POINT
  5
61B6
330
5FDD
100
AcDbEntity
  8
Defpoints
  6
Continuous
 62
     0
100
AcDbPoint
 10
128.1499794210409
 20
245.9840845149762
 30
0.0
  0
POINT
  5
61B7
330
5FDD
100
AcDbEntity
  8
Defpoints
  6
Continuous
 62
     0
100
AcDbPoint
 10
128.1499894210408
 20
176.9840745149763
 30
0.0
  0
POINT
  5
61B8
330
5FDD
100
AcDbEntity
  8
Defpoints
  6
Continuous
 62
     0
100
AcDbPoint
 10
141.7293411746254
 20
176.9840745149763
 30
0.0
  0
ENDBLK
  5
5FE8
330
5FDD
100
AcDbEntity
  8
0
100
AcDbBlockEnd
  0
BLOCK
  5
601A
330
6010
100
AcDbEntity
  8
0
100
AcDbBlockBegin
  2
*D5
 70
     1
 10
0.0
 20
0.0
 30
0.0
  3
*D5
  1

  0
LINE
  5
61A5
330
6010
100
AcDbEntity
  8
10100_Front_Dim
  6
Continuous
370
    -2
100
AcDbLine
 10
130.6069844210409
 20
261.3840745149763
 30
0.0
 11
160.799248244839
 21
261.3840745149763
 31
0.0
  0
LINE
  5
61A6
330
6010
100
AcDbEntity
  8
10100_Front_Dim
  6
Continuous
370
    -2
100
AcDbLine
 10
130.6102167178898
 20
161.5840810448422
 30
0.0
 11
160.7992482448389
 21
161.5840810448422
 31
0.0
  0
LINE
  5
61A7
330
6010
100
AcDbEntity
  8
10100_Front_Dim
  6
Continuous
370
    -2
100
AcDbLine
 10
158.799248244839
 20
258.8840745149763
 30
0.0
 11
158.799248244839
 21
217.4840777799093
 31
0.0
  0
LINE
  5
61A8
330
6010
100
AcDbEntity
  8
10100_Front_Dim
  6
Continuous
370
    -2
100
AcDbLine
 10
158.7992482448389
 20
164.0840810448422
 30
0.0
 11
158.799248244839
 21
205.4840777799093
 31
0.0
  0
SOLID
  5
61A9
330
6010
100
AcDbEntity
  8
10100_Front_Dim
  6
Continuous
100
AcDbTrace
 10
158.3825815781723
 20
258.8840745149763
 30
0.0
 11
159.2159149115056
 21
258.8840745149763
 31
0.0
 12
158.799248244839
 22
261.3840745149763
 32
0.0
 13
158.799248244839
 23
261.3840745149763
 33
0.0
  0
SOLID
  5
61AA
330
6010
100
AcDbEntity
  8
10100_Front_Dim
  6
Continuous
100
AcDbTrace
 10
158.3825815781723
 20
164.0840810448422
 30
0.0
 11
159.2159149115056
 21
164.0840810448422
 31
0.0
 12
158.7992482448389
 22
161.5840810448422
 32
0.0
 13
158.7992482448389
 23
161.5840810448422
 33
0.0
  0
MTEXT
  5
61AB
330
6010
100
AcDbEntity
  8
10100_Front_Dim
  6
Continuous
 62
     7
370
    13
100
AcDbMText
 10
158.7992482448389
 20
211.4840777799094
 30
0.0
 40
5.0
 41
0.0
 71
     5
 72
     1
  1
\A1;100
 11
0.0000000000000001
 21
1.0
 31
0.0
 73
     1
 44
1.0
1001
ACAD
1000
MTEXTBEGIN
1070
    73
1070
     1
1070
    44
1040
1.0
1070
    74
1070
     0
1000
MTEXTEND
  0
POINT
  5
61AC
330
6010
100
AcDbEntity
  8
Defpoints
  6
Continuous
 62
     0
100
AcDbPoint
 10
130.6069844210409
 20
261.3840745149763
 30
0.0
  0
POINT
  5
61AD
330
6010
100
AcDbEntity
  8
Defpoints
  6
Continuous
 62
     0
100
AcDbPoint
 10
130.6102167178898
 20
161.5840810448422
 30
0.0
  0
POINT
  5
61AE
330
6010
100
AcDbEntity
  8
Defpoints
  6
Continuous
 62
     0
100
AcDbPoint
 10
158.7992482448389
 20
161.5840810448422
 30
0.0
  0
ENDBLK
  5
601B
330
6010
100
AcDbEntity
  8
0
100
AcDbBlockEnd
  0
BLOCK
  5
6045
330
603B
100
AcDbEntity
  8
0
100
AcDbBlockBegin
  2
*D6
 70
     1
 10
0.0
 20
0.0
 30
0.0
  3
*D6
  1

  0
LINE
  5
619B
330
603B
100
AcDbEntity
  8
10100_Front_Dim
  6
Continuous
370
    -2
100
AcDbLine
 10
126.2569844210408
 20
166.4840745149763
 30
0.0
 11
151.9329366228096
 21
166.4840745149763
 31
0.0
  0
LINE
  5
619C
330
603B
100
AcDbEntity
  8
10100_Front_Dim
  6
Continuous
370
    -2
100
AcDbLine
 10
126.5069844210409
 20
256.4840745149763
 30
0.0
 11
151.9329366228096
 21
256.4840745149762
 31
0.0
  0
LINE
  5
619D
330
603B
100
AcDbEntity
  8
10100_Front_Dim
  6
Continuous
370
    -2
100
AcDbLine
 10
149.9329366228096
 20
168.9840745149763
 30
0.0
 11
149.9329366228096
 21
206.7340745149763
 31
0.0
  0
LINE
  5
619E
330
603B
100
AcDbEntity
  8
10100_Front_Dim
  6
Continuous
370
    -2
100
AcDbLine
 10
149.9329366228096
 20
253.9840745149763
 30
0.0
 11
149.9329366228096
 21
216.2340745149763
 31
0.0
  0
SOLID
  5
619F
330
603B
100
AcDbEntity
  8
10100_Front_Dim
  6
Continuous
100
AcDbTrace
 10
149.5162699561429
 20
168.9840745149763
 30
0.0
 11
150.3496032894762
 21
168.9840745149763
 31
0.0
 12
149.9329366228096
 22
166.4840745149763
 32
0.0
 13
149.9329366228096
 23
166.4840745149763
 33
0.0
  0
SOLID
  5
61A0
330
603B
100
AcDbEntity
  8
10100_Front_Dim
  6
Continuous
100
AcDbTrace
 10
149.5162699561429
 20
253.9840745149763
 30
0.0
 11
150.3496032894763
 21
253.9840745149763
 31
0.0
 12
149.9329366228096
 22
256.4840745149762
 32
0.0
 13
149.9329366228096
 23
256.4840745149762
 33
0.0
  0
MTEXT
  5
61A1
330
603B
100
AcDbEntity
  8
10100_Front_Dim
  6
Continuous
 62
     7
370
    13
100
AcDbMText
 10
149.9329366228096
 20
211.4840745149763
 30
0.0
 40
5.0
 41
0.0
 71
     5
 72
     1
  1
\A1;90
 11
0.0000000000000001
 21
1.0
 31
0.0
 73
     1
 44
1.0
1001
ACAD
1000
MTEXTBEGIN
1070
    73
1070
     1
1070
    44
1040
1.0
1070
    74
1070
     0
1000
MTEXTEND
  0
POINT
  5
61A2
330
603B
100
AcDbEntity
  8
Defpoints
  6
Continuous
 62
     0
100
AcDbPoint
 10
126.2569844210408
 20
166.4840745149763
 30
0.0
  0
POINT
  5
61A3
330
603B
100
AcDbEntity
  8
Defpoints
  6
Continuous
 62
     0
100
AcDbPoint
 10
126.5069844210409
 20
256.4840745149763
 30
0.0
  0
POINT
  5
61A4
330
603B
100
AcDbEntity
  8
Defpoints
  6
Continuous
 62
     0
100
AcDbPoint
 10
149.9329366228096
 20
256.4840745149762
 30
0.0
  0
ENDBLK
  5
6046
330
603B
100
AcDbEntity
  8
0
100
AcDbBlockEnd
  0
BLOCK
  5
60E0
330
60D6
100
AcDbEntity
  8
0
100
AcDbBlockBegin
  2
*D7
 70
     1
 10
0.0
 20
0.0
 30
0.0
  3
*D7
  1

  0
LINE
  5
6192
330
60D6
100
AcDbEntity
  8
11100_Left_Dim
  6
Continuous
370
    -2
100
AcDbLine
 10
182.5322044761789
 20
190.4840745149763
 30
0.0
 11
182.5322044761789
 21
152.9061801802978
 31
0.0
  0
LINE
  5
6193
330
60D6
100
AcDbEntity
  8
11100_Left_Dim
  6
Continuous
370
    -2
100
AcDbLine
 10
255.2893210807405
 20
164.1840745149763
 30
0.0
 11
255.2893210807405
 21
152.9061801802978
 31
0.0
  0
LINE
  5
6194
330
60D6
100
AcDbEntity
  8
11100_Left_Dim
  6
Continuous
370
    -2
100
AcDbLine
 10
185.0322044761789
 20
154.9061801802978
 30
0.0
 11
252.7893210807405
 21
154.9061801802978
 31
0.0
  0
SOLID
  5
6195
330
60D6
100
AcDbEntity
  8
11100_Left_Dim
  6
Continuous
100
AcDbTrace
 10
185.0322044761789
 20
155.3228468469645
 30
0.0
 11
185.0322044761789
 21
154.4895135136312
 31
0.0
 12
182.5322044761789
 22
154.9061801802978
 32
0.0
 13
182.5322044761789
 23
154.9061801802978
 33
0.0
  0
SOLID
  5
6196
330
60D6
100
AcDbEntity
  8
11100_Left_Dim
  6
Continuous
100
AcDbTrace
 10
252.7893210807405
 20
155.3228468469645
 30
0.0
 11
252.7893210807405
 21
154.4895135136312
 31
0.0
 12
255.2893210807405
 22
154.9061801802978
 32
0.0
 13
255.2893210807405
 23
154.9061801802978
 33
0.0
  0
MTEXT
  5
6197
330
60D6
100
AcDbEntity
  8
11100_Left_Dim
  6
Continuous
 62
     7
370
    13
100
AcDbMText
 10
218.9107627784597
 20
158.4061801802978
 30
0.0
 40
5.0
 41
0.0
 71
     5
 72
     1
  1
\A1;73
 73
     1
 44
1.0
1001
ACAD
1000
MTEXTBEGIN
1070
    73
1070
     1
1070
    44
1040
1.0
1070
    74
1070
     0
1000
MTEXTEND
  0
POINT
  5
6198
330
60D6
100
AcDbEntity
  8
Defpoints
  6
Continuous
 62
     0
100
AcDbPoint
 10
182.5322044761789
 20
190.4840745149763
 30
0.0
  0
POINT
  5
6199
330
60D6
100
AcDbEntity
  8
Defpoints
  6
Continuous
 62
     0
100
AcDbPoint
 10
255.2893210807405
 20
164.1840745149763
 30
0.0
  0
POINT
  5
619A
330
60D6
100
AcDbEntity
  8
Defpoints
  6
Continuous
 62
     0
100
AcDbPoint
 10
255.2893210807405
 20
154.9061801802978
 30
0.0
  0
ENDBLK
  5
60E1
330
60D6
100
AcDbEntity
  8
0
100
AcDbBlockEnd
  0
BLOCK
  5
60F8
330
60EE
100
AcDbEntity
  8
0
100
AcDbBlockBegin
  2
*D8
 70
     1
 10
0.0
 20
0.0
 30
0.0
  3
*D8
  1

  0
LINE
  5
6189
330
60EE
100
AcDbEntity
  8
11100_Left_Dim
  6
Continuous
370
    -2
100
AcDbLine
 10
182.5322044761789
 20
190.4840745149763
 30
0.0
 11
182.5322044761789
 21
145.5953953658426
 31
0.0
  0
LINE
  5
618A
330
60EE
100
AcDbEntity
  8
11100_Left_Dim
  6
Continuous
370
    -2
100
AcDbLine
 10
270.582204476179
 20
178.9182461035563
 30
0.0
 11
270.582204476179
 21
145.5953953658426
 31
0.0
  0
LINE
  5
618B
330
60EE
100
AcDbEntity
  8
11100_Left_Dim
  6
Continuous
370
    -2
100
AcDbLine
 10
185.0322044761789
 20
147.5953953658426
 30
0.0
 11
268.0822044761789
 21
147.5953953658426
 31
0.0
  0
SOLID
  5
618C
330
60EE
100
AcDbEntity
  8
11100_Left_Dim
  6
Continuous
100
AcDbTrace
 10
185.0322044761789
 20
148.0120620325092
 30
0.0
 11
185.0322044761789
 21
147.1787286991759
 31
0.0
 12
182.5322044761789
 22
147.5953953658426
 32
0.0
 13
182.5322044761789
 23
147.5953953658426
 33
0.0
  0
SOLID
  5
618D
330
60EE
100
AcDbEntity
  8
11100_Left_Dim
  6
Continuous
100
AcDbTrace
 10
268.0822044761789
 20
148.0120620325092
 30
0.0
 11
268.0822044761789
 21
147.1787286991759
 31
0.0
 12
270.582204476179
 22
147.5953953658426
 32
0.0
 13
270.582204476179
 23
147.5953953658426
 33
0.0
  0
MTEXT
  5
618E
330
60EE
100
AcDbEntity
  8
11100_Left_Dim
  6
Continuous
 62
     7
370
    13
100
AcDbMText
 10
226.5572044761789
 20
151.0953953658426
 30
0.0
 40
5.0
 41
0.0
 71
     5
 72
     1
  1
\A1;88
 73
     1
 44
1.0
1001
ACAD
1000
MTEXTBEGIN
1070
    73
1070
     1
1070
    44
1040
1.0
1070
    74
1070
     0
1000
MTEXTEND
  0
POINT
  5
618F
330
60EE
100
AcDbEntity
  8
Defpoints
  6
Continuous
 62
     0
100
AcDbPoint
 10
182.5322044761789
 20
190.4840745149763
 30
0.0
  0
POINT
  5
6190
330
60EE
100
AcDbEntity
  8
Defpoints
  6
Continuous
 62
     0
100
AcDbPoint
 10
270.582204476179
 20
178.9182461035563
 30
0.0
  0
POINT
  5
6191
330
60EE
100
AcDbEntity
  8
Defpoints
  6
Continuous
 62
     0
100
AcDbPoint
 10
270.582204476179
 20
147.5953953658426
 30
0.0
  0
ENDBLK
  5
60F9
330
60EE
100
AcDbEntity
  8
0
100
AcDbBlockEnd
  0
BLOCK
  5
6119
330
610F
100
AcDbEntity
  8
0
100
AcDbBlockBegin
  2
*D9
 70
     1
 10
0.0
 20
0.0
 30
0.0
  3
*D9
  1

  0
LINE
  5
6180
330
610F
100
AcDbEntity
  8
11100_Left_Dim
  6
Continuous
370
    -2
100
AcDbLine
 10
182.5322044761789
 20
190.4840745149763
 30
0.0
 11
182.5322044761789
 21
137.5326788806063
 31
0.0
  0
LINE
  5
6181
330
610F
100
AcDbEntity
  8
11100_Left_Dim
  6
Continuous
370
    -2
100
AcDbLine
 10
287.032204476179
 20
218.5790745149764
 30
0.0
 11
287.032204476179
 21
137.5326788806063
 31
0.0
  0
LINE
  5
6182
330
610F
100
AcDbEntity
  8
11100_Left_Dim
  6
Continuous
370
    -2
100
AcDbLine
 10
185.0322044761789
 20
139.5326788806062
 30
0.0
 11
284.532204476179
 21
139.5326788806062
 31
0.0
  0
SOLID
  5
6183
330
610F
100
AcDbEntity
  8
11100_Left_Dim
  6
Continuous
100
AcDbTrace
 10
185.0322044761789
 20
139.949345547273
 30
0.0
 11
185.0322044761789
 21
139.1160122139396
 31
0.0
 12
182.5322044761789
 22
139.5326788806062
 32
0.0
 13
182.5322044761789
 23
139.5326788806062
 33
0.0
  0
SOLID
  5
6184
330
610F
100
AcDbEntity
  8
11100_Left_Dim
  6
Continuous
100
AcDbTrace
 10
284.532204476179
 20
139.949345547273
 30
0.0
 11
284.532204476179
 21
139.1160122139396
 31
0.0
 12
287.032204476179
 22
139.5326788806062
 32
0.0
 13
287.032204476179
 23
139.5326788806062
 33
0.0
  0
MTEXT
  5
6185
330
610F
100
AcDbEntity
  8
11100_Left_Dim
  6
Continuous
 62
     7
370
    13
100
AcDbMText
 10
234.782204476179
 20
143.0326788806063
 30
0.0
 40
5.0
 41
0.0
 71
     5
 72
     1
  1
\A1;105
 73
     1
 44
1.0
1001
ACAD
1000
MTEXTBEGIN
1070
    73
1070
     1
1070
    44
1040
1.0
1070
    74
1070
     0
1000
MTEXTEND
  0
POINT
  5
6186
330
610F
100
AcDbEntity
  8
Defpoints
  6
Continuous
 62
     0
100
AcDbPoint
 10
182.5322044761789
 20
190.4840745149763
 30
0.0
  0
POINT
  5
6187
330
610F
100
AcDbEntity
  8
Defpoints
  6
Continuous
 62
     0
100
AcDbPoint
 10
287.032204476179
 20
218.5790745149764
 30
0.0
  0
POINT
  5
6188
330
610F
100
AcDbEntity
  8
Defpoints
  6
Continuous
 62
     0
100
AcDbPoint
 10
287.032204476179
 20
139.5326788806062
 30
0.0
  0
ENDBLK
  5
611A
330
610F
100
AcDbEntity
  8
0
100
AcDbBlockEnd
  0
BLOCK
  5
61E9
330
61E8
100
AcDbEntity
  8
0
100
AcDbBlockBegin
  2
*D10
 70
     1
 10
0.0
 20
0.0
 30
0.0
  3
*D10
  1

  0
LINE
  5
61EA
330
61E8
100
AcDbEntity
  8
V1L1
  6
Continuous
 62
     7
100
AcDbLine
 10
134.61533
 20
90.033428
 30
0.0
 11
134.61533
 21
73.442661
 31
0.0
  0
LINE
  5
61EB
330
61E8
100
AcDbEntity
  8
V1L1
  6
Continuous
 62
     7
100
AcDbLine
 10
178.36533
 20
99.48916400000001
 30
0.0
 11
178.36533
 21
73.442661
 31
0.0
  0
SOLID
  5
61EC
330
61E8
100
AcDbEntity
  8
V1L1
  6
Continuous
 62
     0
100
AcDbTrace
 10
134.61533
 20
74.442661
 30
0.0
 11
138.6153299999999
 21
73.77598899999998
 31
0.0
 12
138.6153299999999
 22
75.10933299999997
 32
0.0
 13
138.6153299999999
 23
75.10933299999997
 33
0.0
  0
SOLID
  5
61ED
330
61E8
100
AcDbEntity
  8
V1L1
  6
Continuous
 62
     0
100
AcDbTrace
 10
178.36533
 20
74.442661
 30
0.0
 11
174.36533
 21
75.10933299999997
 31
0.0
 12
174.36533
 22
73.77598899999998
 32
0.0
 13
174.36533
 23
73.77598899999998
 33
0.0
  0
LINE
  5
61EE
330
61E8
100
AcDbEntity
  8
V1L1
  6
Continuous
 62
     7
100
AcDbLine
 10
134.61533
 20
74.442661
 30
0.0
 11
153.06468
 21
74.442661
 31
0.0
  0
LINE
  5
61EF
330
61E8
100
AcDbEntity
  8
V1L1
  6
Continuous
 62
     7
100
AcDbLine
 10
178.36533
 20
74.442661
 30
0.0
 11
162.3546799999999
 21
74.442661
 31
0.0
  0
TEXT
  5
61F0
330
61E8
100
AcDbEntity
  8
V1L1
  6
Continuous
 62
     7
100
AcDbText
 10
154.06468
 20
72.192661
 30
0.0
 40
4.5
  1
44
 41
0.8100000000000001
100
AcDbText
  0
ENDBLK
  5
61F1
330
61E8
100
AcDbEntity
  8
0
100
AcDbBlockEnd
  0
BLOCK
  5
61F3
330
61F2
100
AcDbEntity
  8
0
 62
     1
100
AcDbBlockBegin
  2
*D11
 70
     1
 10
0.0
 20
0.0
 30
0.0
  3
*D11
  1

  0
LINE
  5
61F4
330
61F2
100
AcDbEntity
  8
V1L1
  6
Continuous
 62
     0
370
    -2
100
AcDbLine
 10
84.05196419371684
 20
111.90916
 30
0.0
 11
98.99246919371687
 21
111.90916
 31
0.0
  0
LINE
  5
61F5
330
61F2
100
AcDbEntity
  8
V1L1
  6
Continuous
 62
     0
370
    -2
100
AcDbLine
 10
83.88026019371686
 20
93.909164
 30
0.0
 11
98.99246919371686
 21
93.909164
 31
0.0
  0
LINE
  5
61F6
330
61F2
100
AcDbEntity
  8
V1L1
  6
Continuous
 62
     0
370
    -2
100
AcDbLine
 10
97.99246919371688
 20
107.90916
 30
0.0
 11
97.99246919371688
 21
97.909164
 31
0.0
  0
MTEXT
  5
61F7
330
61F2
100
AcDbEntity
  8
V1L1
  6
Continuous
 62
     0
100
AcDbMText
 10
97.99246919371686
 20
102.4333699999999
 30
0.0
 40
4.5
 41
0.0
 71
     5
 72
     1
  1
\A1;18.000
 11
0.0000000000000001
 21
1.0
 31
0.0
 73
     1
 44
1.0
1001
ACAD
1000
MTEXTBEGIN
1070
    73
1070
     1
1070
    44
1040
1.0
1070
    74
1070
     0
1000
MTEXTEND
  0
SOLID
  5
61F8
330
61F2
100
AcDbEntity
  8
V1L1
  6
Continuous
 62
     0
100
AcDbTrace
 10
97.3258025270502
 20
107.90916
 30
0.0
 11
98.65913586038354
 21
107.90916
 31
0.0
 12
97.99246919371688
 22
111.90916
 32
0.0
 13
97.99246919371688
 23
111.90916
 33
0.0
  0
SOLID
  5
61F9
330
61F2
100
AcDbEntity
  8
V1L1
  6
Continuous
 62
     0
100
AcDbTrace
 10
97.3258025270502
 20
97.909164
 30
0.0
 11
98.65913586038354
 21
97.909164
 31
0.0
 12
97.99246919371686
 22
93.909164
 32
0.0
 13
97.99246919371686
 23
93.909164
 33
0.0
  0
POINT
  5
61FA
330
61F2
100
AcDbEntity
  8
Defpoints
  6
Continuous
 62
     0
100
AcDbPoint
 10
84.05196419371684
 20
111.90916
 30
0.0
  0
POINT
  5
61FB
330
61F2
100
AcDbEntity
  8
Defpoints
  6
Continuous
 62
     0
100
AcDbPoint
 10
83.88026019371686
 20
93.909164
 30
0.0
  0
POINT
  5
61FC
330
61F2
100
AcDbEntity
  8
Defpoints
  6
Continuous
 62
     0
100
AcDbPoint
 10
97.99246919371686
 20
93.909164
 30
0.0
  0
ENDBLK
  5
61FD
330
61F2
100
AcDbEntity
  8
0
 62
     1
100
AcDbBlockEnd
  0
BLOCK
  5
61FF
330
61FE
100
AcDbEntity
  8
0
 62
     1
100
AcDbBlockBegin
  2
*D12
 70
     1
 10
0.0
 20
0.0
 30
0.0
  3
*D12
  1

  0
LINE
  5
6200
330
61FE
100
AcDbEntity
  8
V1L1
  6
Continuous
 62
     0
370
    -2
100
AcDbLine
 10
88.44876019371685
 20
121.90916
 30
0.0
 11
105.0221801937168
 21
121.90916
 31
0.0
  0
LINE
  5
6201
330
61FE
100
AcDbEntity
  8
V1L1
  6
Continuous
 62
     0
370
    -2
100
AcDbLine
 10
88.44876019371685
 20
83.909164
 30
0.0
 11
105.0221801937168
 21
83.909164
 31
0.0
  0
LINE
  5
6202
330
61FE
100
AcDbEntity
  8
V1L1
  6
Continuous
 62
     0
370
    -2
100
AcDbLine
 10
104.0221801937168
 20
117.90916
 30
0.0
 11
104.0221801937168
 21
116.2202199999998
 31
0.0
  0
LINE
  5
6203
330
61FE
100
AcDbEntity
  8
V1L1
  6
Continuous
 62
     0
370
    -2
100
AcDbLine
 10
104.0221801937168
 20
87.90916399999998
 30
0.0
 11
104.0221801937168
 21
88.72021999999986
 31
0.0
  0
MTEXT
  5
6204
330
61FE
100
AcDbEntity
  8
V1L1
  6
Continuous
 62
     0
100
AcDbMText
 10
104.0221801937168
 20
102.4702199999999
 30
0.0
 40
4.5
 41
0.0
 71
     5
 72
     1
  1
\A1;38.000
 11
0.0000000000000001
 21
1.0
 31
0.0
 73
     1
 44
1.0
1001
ACAD
1000
MTEXTBEGIN
1070
    73
1070
     1
1070
    44
1040
1.0
1070
    74
1070
     0
1000
MTEXTEND
  0
SOLID
  5
6205
330
61FE
100
AcDbEntity
  8
V1L1
  6
Continuous
 62
     0
100
AcDbTrace
 10
103.3555135270501
 20
117.90916
 30
0.0
 11
104.6888468603835
 21
117.90916
 31
0.0
 12
104.0221801937168
 22
121.90916
 32
0.0
 13
104.0221801937168
 23
121.90916
 33
0.0
  0
SOLID
  5
6206
330
61FE
100
AcDbEntity
  8
V1L1
  6
Continuous
 62
     0
100
AcDbTrace
 10
103.3555135270501
 20
87.90916399999998
 30
0.0
 11
104.6888468603835
 21
87.90916399999998
 31
0.0
 12
104.0221801937168
 22
83.909164
 32
0.0
 13
104.0221801937168
 23
83.909164
 33
0.0
  0
POINT
  5
6207
330
61FE
100
AcDbEntity
  8
Defpoints
  6
Continuous
 62
     0
100
AcDbPoint
 10
88.44876019371685
 20
121.90916
 30
0.0
  0
POINT
  5
6208
330
61FE
100
AcDbEntity
  8
Defpoints
  6
Continuous
 62
     0
100
AcDbPoint
 10
88.44876019371685
 20
83.909164
 30
0.0
  0
POINT
  5
6209
330
61FE
100
AcDbEntity
  8
Defpoints
  6
Continuous
 62
     0
100
AcDbPoint
 10
104.0221801937168
 20
83.909164
 30
0.0
  0
ENDBLK
  5
620A
330
61FE
100
AcDbEntity
  8
0
 62
     1
100
AcDbBlockEnd
  0
BLOCK
  5
620C
330
620B
100
AcDbEntity
  8
0
 62
     1
100
AcDbBlockBegin
  2
*D13
 70
     1
 10
0.0
 20
0.0
 30
0.0
  3
*D13
  1

  0
LINE
  5
620D
330
620B
100
AcDbEntity
  8
V1L1
  6
Continuous
 62
     0
370
    -2
100
AcDbLine
 10
78.34876019371687
 20
84.709164
 30
0.0
 11
78.34876019371687
 21
73.442661
 31
0.0
  0
LINE
  5
620E
330
620B
100
AcDbEntity
  8
V1L1
  6
Continuous
 62
     0
370
    -2
100
AcDbLine
 10
89.24876019371685
 20
84.709164
 30
0.0
 11
89.24876019371685
 21
73.442661
 31
0.0
  0
LINE
  5
620F
330
620B
100
AcDbEntity
  8
V1L1
  6
Continuous
 62
     0
370
    -2
100
AcDbLine
 10
82.34876019371688
 20
74.442661
 30
0.0
 11
85.24876019371685
 21
74.442661
 31
0.0
  0
MTEXT
  5
6210
330
620B
100
AcDbEntity
  8
V1L1
  6
Continuous
 62
     0
100
AcDbMText
 10
83.82585019371687
 20
74.442661
 30
0.0
 40
4.5
 41
0.0
 71
     5
 72
     1
  1
\A1;10.900
 73
     1
 44
1.0
1001
ACAD
1000
MTEXTBEGIN
1070
    73
1070
     1
1070
    44
1040
1.0
1070
    74
1070
     0
1000
MTEXTEND
  0
SOLID
  5
6211
330
620B
100
AcDbEntity
  8
V1L1
  6
Continuous
 62
     0
100
AcDbTrace
 10
82.34876019371688
 20
75.10932766666667
 30
0.0
 11
82.34876019371688
 21
73.77599433333333
 31
0.0
 12
78.34876019371687
 22
74.442661
 32
0.0
 13
78.34876019371687
 23
74.442661
 33
0.0
  0
SOLID
  5
6212
330
620B
100
AcDbEntity
  8
V1L1
  6
Continuous
 62
     0
100
AcDbTrace
 10
85.24876019371685
 20
75.10932766666667
 30
0.0
 11
85.24876019371685
 21
73.77599433333333
 31
0.0
 12
89.24876019371685
 22
74.442661
 32
0.0
 13
89.24876019371685
 23
74.442661
 33
0.0
  0
POINT
  5
6213
330
620B
100
AcDbEntity
  8
Defpoints
  6
Continuous
 62
     0
100
AcDbPoint
 10
78.34876019371687
 20
84.709164
 30
0.0
  0
POINT
  5
6214
330
620B
100
AcDbEntity
  8
Defpoints
  6
Continuous
 62
     0
100
AcDbPoint
 10
89.24876019371685
 20
84.709164
 30
0.0
  0
POINT
  5
6215
330
620B
100
AcDbEntity
  8
Defpoints
  6
Continuous
 62
     0
100
AcDbPoint
 10
89.24876019371685
 20
74.442661
 30
0.0
  0
ENDBLK
  5
6216
330
620B
100
AcDbEntity
  8
0
 62
     1
100
AcDbBlockEnd
  0
BLOCK
  5
665E
330
6654
100
AcDbEntity
  8
0
100
AcDbBlockBegin
  2
*D15
 70
     1
 10
0.0
 20
0.0
 30
0.0
  3
*D15
  1

  0
LINE
  5
671C
330
6654
100
AcDbEntity
  8
10100_Front_Dim
  6
Continuous
370
    -2
100
AcDbLine
 10
137.8531476319323
 20
177.8723272616873
 30
0.0
 11
137.8531476319323
 21
165.6058242616873
 31
0.0
  0
LINE
  5
671D
330
6654
100
AcDbEntity
  8
10100_Front_Dim
  6
Continuous
370
    -2
100
AcDbLine
 10
148.7531476319323
 20
177.8723272616873
 30
0.0
 11
148.7531476319323
 21
165.6058242616873
 31
0.0
  0
LINE
  5
671E
330
6654
100
AcDbEntity
  8
10100_Front_Dim
  6
Continuous
370
    -2
100
AcDbLine
 10
140.3531476319323
 20
167.6058242616873
 30
0.0
 11
146.2531476319323
 21
167.6058242616873
 31
0.0
  0
MTEXT
  5
671F
330
6654
100
AcDbEntity
  8
10100_Front_Dim
  6
Continuous
 62
     7
370
    13
100
AcDbMText
 10
155.0792452881033
 20
167.6249572032802
 30
0.0
 40
5.0
 41
0.0
 71
     5
 72
     1
  1
\A1;11
 73
     1
 44
1.0
1001
ACAD
1000
MTEXTBEGIN
1070
    73
1070
     1
1070
    44
1040
1.0
1070
    74
1070
     0
1000
MTEXTEND
  0
SOLID
  5
6720
330
6654
100
AcDbEntity
  8
10100_Front_Dim
  6
Continuous
100
AcDbTrace
 10
140.3531476319323
 20
168.022490928354
 30
0.0
 11
140.3531476319323
 21
167.1891575950207
 31
0.0
 12
137.8531476319323
 22
167.6058242616873
 32
0.0
 13
137.8531476319323
 23
167.6058242616873
 33
0.0
  0
SOLID
  5
6721
330
6654
100
AcDbEntity
  8
10100_Front_Dim
  6
Continuous
100
AcDbTrace
 10
146.2531476319323
 20
168.022490928354
 30
0.0
 11
146.2531476319323
 21
167.1891575950207
 31
0.0
 12
148.7531476319323
 22
167.6058242616873
 32
0.0
 13
148.7531476319323
 23
167.6058242616873
 33
0.0
  0
POINT
  5
6722
330
6654
100
AcDbEntity
  8
Defpoints
  6
Continuous
 62
     0
100
AcDbPoint
 10
137.8531476319323
 20
177.8723272616873
 30
0.0
  0
POINT
  5
6723
330
6654
100
AcDbEntity
  8
Defpoints
  6
Continuous
 62
     0
100
AcDbPoint
 10
148.7531476319323
 20
177.8723272616873
 30
0.0
  0
POINT
  5
6724
330
6654
100
AcDbEntity
  8
Defpoints
  6
Continuous
 62
     0
100
AcDbPoint
 10
148.7531476319323
 20
167.6058242616873
 30
0.0
  0
ENDBLK
  5
665F
330
6654
100
AcDbEntity
  8
0
100
AcDbBlockEnd
  0
BLOCK
  5
666B
330
6660
100
AcDbEntity
  8
0
100
AcDbBlockBegin
  2
*D16
 70
     1
 10
0.0
 20
0.0
 30
0.0
  3
*D16
  1

  0
LINE
  5
6712
330
6660
100
AcDbEntity
  8
10100_Front_Dim
  6
Continuous
370
    -2
100
AcDbLine
 10
147.9531476319323
 20
215.0723232616874
 30
0.0
 11
165.5265676319323
 21
215.0723232616874
 31
0.0
  0
LINE
  5
6713
330
6660
100
AcDbEntity
  8
10100_Front_Dim
  6
Continuous
370
    -2
100
AcDbLine
 10
147.9531476319323
 20
177.0723272616874
 30
0.0
 11
165.5265676319323
 21
177.0723272616874
 31
0.0
  0
LINE
  5
6714
330
6660
100
AcDbEntity
  8
10100_Front_Dim
  6
Continuous
370
    -2
100
AcDbLine
 10
163.5265676319323
 20
212.5723232616874
 30
0.0
 11
163.5265676319323
 21
200.8000499283539
 31
0.0
  0
LINE
  5
6715
330
6660
100
AcDbEntity
  8
10100_Front_Dim
  6
Continuous
370
    -2
100
AcDbLine
 10
163.5265676319322
 20
179.5723272616874
 30
0.0
 11
163.5265676319322
 21
190.4667165950206
 31
0.0
  0
MTEXT
  5
6716
330
6660
100
AcDbEntity
  8
10100_Front_Dim
  6
Continuous
 62
     7
370
    13
100
AcDbMText
 10
163.5265676319322
 20
195.6333832616873
 30
0.0
 40
5.0
 41
0.0
 71
     5
 72
     1
  1
\A1;38
 11
0.0000000000000001
 21
1.0
 31
0.0
 73
     1
 44
1.0
1001
ACAD
1000
MTEXTBEGIN
1070
    73
1070
     1
1070
    44
1040
1.0
1070
    74
1070
     0
1000
MTEXTEND
  0
SOLID
  5
6717
330
6660
100
AcDbEntity
  8
10100_Front_Dim
  6
Continuous
100
AcDbTrace
 10
163.1099009652656
 20
212.5723232616874
 30
0.0
 11
163.9432342985989
 21
212.5723232616874
 31
0.0
 12
163.5265676319323
 22
215.0723232616874
 32
0.0
 13
163.5265676319323
 23
215.0723232616874
 33
0.0
  0
SOLID
  5
6718
330
6660
100
AcDbEntity
  8
10100_Front_Dim
  6
Continuous
100
AcDbTrace
 10
163.1099009652656
 20
179.5723272616874
 30
0.0
 11
163.9432342985989
 21
179.5723272616874
 31
0.0
 12
163.5265676319322
 22
177.0723272616874
 32
0.0
 13
163.5265676319322
 23
177.0723272616874
 33
0.0
  0
POINT
  5
6719
330
6660
100
AcDbEntity
  8
Defpoints
  6
Continuous
 62
     0
100
AcDbPoint
 10
147.9531476319323
 20
215.0723232616874
 30
0.0
  0
POINT
  5
671A
330
6660
100
AcDbEntity
  8
Defpoints
  6
Continuous
 62
     0
100
AcDbPoint
 10
147.9531476319323
 20
177.0723272616874
 30
0.0
  0
POINT
  5
671B
330
6660
100
AcDbEntity
  8
Defpoints
  6
Continuous
 62
     0
100
AcDbPoint
 10
163.5265676319322
 20
177.0723272616874
 30
0.0
  0
ENDBLK
  5
666C
330
6660
100
AcDbEntity
  8
0
100
AcDbBlockEnd
  0
BLOCK
  5
6677
330
666D
100
AcDbEntity
  8
0
100
AcDbBlockBegin
  2
*D17
 70
     1
 10
0.0
 20
0.0
 30
0.0
  3
*D17
  1

  0
LINE
  5
6708
330
666D
100
AcDbEntity
  8
10100_Front_Dim
  6
Continuous
370
    -2
100
AcDbLine
 10
143.5563516319322
 20
205.0723232616874
 30
0.0
 11
159.4968566319323
 21
205.0723232616874
 31
0.0
  0
LINE
  5
6709
330
666D
100
AcDbEntity
  8
10100_Front_Dim
  6
Continuous
370
    -2
100
AcDbLine
 10
143.3846476319323
 20
187.0723272616874
 30
0.0
 11
159.4968566319322
 21
187.0723272616874
 31
0.0
  0
LINE
  5
670A
330
666D
100
AcDbEntity
  8
10100_Front_Dim
  6
Continuous
370
    -2
100
AcDbLine
 10
157.4968566319323
 20
202.5723232616874
 30
0.0
 11
157.4968566319323
 21
199.9298665950206
 31
0.0
  0
LINE
  5
670B
330
666D
100
AcDbEntity
  8
10100_Front_Dim
  6
Continuous
370
    -2
100
AcDbLine
 10
157.4968566319322
 20
189.5723272616874
 30
0.0
 11
157.4968566319322
 21
191.2631999283539
 31
0.0
  0
MTEXT
  5
670C
330
666D
100
AcDbEntity
  8
10100_Front_Dim
  6
Continuous
 62
     7
370
    13
100
AcDbMText
 10
157.4968566319322
 20
195.5965332616873
 30
0.0
 40
5.0
 41
0.0
 71
     5
 72
     1
  1
\A1;18
 11
0.0000000000000001
 21
1.0
 31
0.0
 73
     1
 44
1.0
1001
ACAD
1000
MTEXTBEGIN
1070
    73
1070
     1
1070
    44
1040
1.0
1070
    74
1070
     0
1000
MTEXTEND
  0
SOLID
  5
670D
330
666D
100
AcDbEntity
  8
10100_Front_Dim
  6
Continuous
100
AcDbTrace
 10
157.0801899652656
 20
202.5723232616874
 30
0.0
 11
157.9135232985989
 21
202.5723232616874
 31
0.0
 12
157.4968566319323
 22
205.0723232616874
 32
0.0
 13
157.4968566319323
 23
205.0723232616874
 33
0.0
  0
SOLID
  5
670E
330
666D
100
AcDbEntity
  8
10100_Front_Dim
  6
Continuous
100
AcDbTrace
 10
157.0801899652656
 20
189.5723272616874
 30
0.0
 11
157.9135232985989
 21
189.5723272616874
 31
0.0
 12
157.4968566319322
 22
187.0723272616874
 32
0.0
 13
157.4968566319322
 23
187.0723272616874
 33
0.0
  0
POINT
  5
670F
330
666D
100
AcDbEntity
  8
Defpoints
  6
Continuous
 62
     0
100
AcDbPoint
 10
143.5563516319322
 20
205.0723232616874
 30
0.0
  0
POINT
  5
6710
330
666D
100
AcDbEntity
  8
Defpoints
  6
Continuous
 62
     0
100
AcDbPoint
 10
143.3846476319323
 20
187.0723272616874
 30
0.0
  0
POINT
  5
6711
330
666D
100
AcDbEntity
  8
Defpoints
  6
Continuous
 62
     0
100
AcDbPoint
 10
157.4968566319322
 20
187.0723272616874
 30
0.0
  0
ENDBLK
  5
6678
330
666D
100
AcDbEntity
  8
0
100
AcDbBlockEnd
  0
BLOCK
  5
6684
330
6679
100
AcDbEntity
  8
0
100
AcDbBlockBegin
  2
*D18
 70
     1
 10
0.0
 20
0.0
 30
0.0
  3
*D18
  1

  0
LINE
  5
66FE
330
6679
100
AcDbEntity
  8
11100_Left_Dim
  6
Continuous
370
    -2
100
AcDbLine
 10
194.1197174382154
 20
183.1965912616874
 30
0.0
 11
194.1197174382154
 21
165.6058242616873
 31
0.0
  0
LINE
  5
66FF
330
6679
100
AcDbEntity
  8
11100_Left_Dim
  6
Continuous
370
    -2
100
AcDbLine
 10
237.8697174382154
 20
192.6523272616874
 30
0.0
 11
237.8697174382154
 21
165.6058242616873
 31
0.0
  0
LINE
  5
6700
330
6679
100
AcDbEntity
  8
11100_Left_Dim
  6
Continuous
370
    -2
100
AcDbLine
 10
196.6197174382154
 20
167.6058242616873
 30
0.0
 11
212.0474007715487
 21
167.6058242616873
 31
0.0
  0
LINE
  5
6701
330
6679
100
AcDbEntity
  8
11100_Left_Dim
  6
Continuous
370
    -2
100
AcDbLine
 10
235.3697174382154
 20
167.6058242616873
 30
0.0
 11
222.380734104882
 21
167.6058242616873
 31
0.0
  0
MTEXT
  5
6702
330
6679
100
AcDbEntity
  8
11100_Left_Dim
  6
Continuous
 62
     7
370
    13
100
AcDbMText
 10
217.2140674382153
 20
167.6058242616873
 30
0.0
 40
5.0
 41
0.0
 71
     5
 72
     1
  1
\A1;44
 73
     1
 44
1.0
1001
ACAD
1000
MTEXTBEGIN
1070
    73
1070
     1
1070
    44
1040
1.0
1070
    74
1070
     0
1000
MTEXTEND
  0
SOLID
  5
6703
330
6679
100
AcDbEntity
  8
11100_Left_Dim
  6
Continuous
100
AcDbTrace
 10
196.6197174382154
 20
168.022490928354
 30
0.0
 11
196.6197174382154
 21
167.1891575950207
 31
0.0
 12
194.1197174382154
 22
167.6058242616873
 32
0.0
 13
194.1197174382154
 23
167.6058242616873
 33
0.0
  0
SOLID
  5
6704
330
6679
100
AcDbEntity
  8
11100_Left_Dim
  6
Continuous
100
AcDbTrace
 10
235.3697174382154
 20
168.022490928354
 30
0.0
 11
235.3697174382154
 21
167.1891575950207
 31
0.0
 12
237.8697174382154
 22
167.6058242616873
 32
0.0
 13
237.8697174382154
 23
167.6058242616873
 33
0.0
  0
POINT
  5
6705
330
6679
100
AcDbEntity
  8
Defpoints
  6
Continuous
 62
     0
100
AcDbPoint
 10
194.1197174382154
 20
183.1965912616874
 30
0.0
  0
POINT
  5
6706
330
6679
100
AcDbEntity
  8
Defpoints
  6
Continuous
 62
     0
100
AcDbPoint
 10
237.8697174382154
 20
192.6523272616874
 30
0.0
  0
POINT
  5
6707
330
6679
100
AcDbEntity
  8
Defpoints
  6
Continuous
 62
     0
100
AcDbPoint
 10
237.8697174382154
 20
167.6058242616873
 30
0.0
  0
ENDBLK
  5
6685
330
6679
100
AcDbEntity
  8
0
100
AcDbBlockEnd
  0
ENDSEC
  0
SECTION
  2
ENTITIES
  0
LINE
  5
2BFE
330
1F
100
AcDbEntity
  8
90000_FRAME
  6
Continuous
 62
     7
100
AcDbLine
 10
316.4444837220524
 20
283.6397225845828
 30
0.0
 11
46.44448372205238
 21
283.6397225845828
 31
0.0
  0
INSERT
  5
2BFF
330
1F
100
AcDbEntity
  8
90000_FRAME
  6
Continuous
 62
     7
100
AcDbBlockReference
  2
SIEMENS_OUTLINE_BL0
 10
109.0903811059734
 20
78.3014633569795
 30
0.0
  0
LINE
  5
2C00
330
1F
100
AcDbEntity
  8
90000_FRAME
  6
Continuous
 62
     7
100
AcDbLine
 10
176.4444837220525
 20
88.6397225845828
 30
0.0
 11
311.4444837220524
 21
88.6397225845828
 31
0.0
  0
LINE
  5
2C01
330
1F
100
AcDbEntity
  8
90000_FRAME
  6
Continuous
 62
     7
100
AcDbLine
 10
176.4444837220525
 20
88.6397225845828
 30
0.0
 11
176.4444837220525
 21
106.6397225845828
 31
0.0
  0
LINE
  5
2C02
330
1F
100
AcDbEntity
  8
90000_FRAME
  6
Continuous
 62
     7
100
AcDbLine
 10
226.4444837220524
 20
94.63972258458278
 30
0.0
 11
311.4444837220524
 21
94.63972258458278
 31
0.0
  0
LINE
  5
2C03
330
1F
100
AcDbEntity
  8
90000_FRAME
  6
Continuous
 62
     7
100
AcDbLine
 10
176.4444837220525
 20
106.6397225845828
 30
0.0
 11
311.4444837220524
 21
106.6397225845828
 31
0.0
  0
LINE
  5
2C04
330
1F
100
AcDbEntity
  8
90000_FRAME
  6
Continuous
 62
     7
100
AcDbLine
 10
226.4444837220524
 20
88.6397225845828
 30
0.0
 11
226.4444837220524
 21
106.6397225845828
 31
0.0
  0
LINE
  5
2C05
330
1F
100
AcDbEntity
  8
90000_FRAME
  6
Continuous
 62
     7
100
AcDbLine
 10
268.9444837220526
 20
88.6397225845828
 30
0.0
 11
268.9444837220526
 21
94.63972258458278
 31
0.0
  0
LINE
  5
2C06
330
1F
100
AcDbEntity
  8
90000_FRAME
  6
Continuous
 62
     7
100
AcDbLine
 10
311.4444837220524
 20
88.6397225845828
 30
0.0
 11
311.4444837220524
 21
106.6397225845828
 31
0.0
  0
TEXT
  5
2C07
330
1F
100
AcDbEntity
  8
90000_FRAME
  6
Continuous
 62
     7
100
AcDbText
 10
227.1044837220525
 20
90.53972258458269
 30
0.0
 40
2.2
  1
Format / Size: DIN A4
 41
0.7994987468660258
 72
     5
 11
260.5235313410524
 21
90.53972258458269
 31
0.0
100
AcDbText
  0
TEXT
  5
2C08
330
1F
100
AcDbEntity
  8
90000_FRAME
  6
Continuous
 62
     7
100
AcDbText
 10
269.6044837220525
 20
90.53972258458269
 30
0.0
 40
2.2
  1
Massstab / Scale: 1:1
 41
0.7732634338148415
 72
     5
 11
300.5092456268524
 21
90.53972258458269
 31
0.0
100
AcDbText
  0
TEXT
  5
2C09
330
1F
100
AcDbEntity
  8
90000_FRAME
  6
Continuous
 62
     7
100
AcDbText
 10
239.7504082460032
 20
101.514045083679
 30
0.0
 40
3.5
  1
3RH1921_00000852_000_ALL
 41
0.7373033857474722
 72
     5
 11
295.6625816651865
 21
101.514045083679
 31
0.0
100
AcDbText
  0
TEXT
  5
2C0A
330
1F
100
AcDbEntity
  8
91000_TIP
  6
Continuous
 62
     7
100
AcDbText
 10
51.94479148218397
 20
95.68167073935819
 30
0.0
 40
2.5
  1
Alle Bemassungswerte sind in Millimeter (mm) angegeben.
 41
0.6056311217924572
 72
     5
 11
125.6299113002663
 21
95.68167073935819
 31
0.0
100
AcDbText
  0
TEXT
  5
2C0B
330
1F
100
AcDbEntity
  8
91000_TIP
  6
Continuous
 62
     7
100
AcDbText
 10
51.94479148218397
 20
90.4316707393581
 30
0.0
 40
2.5
  1
All dimensions are in millimeters (mm).
 41
0.7513350295680277
 72
     5
 11
112.0515938476261
 21
90.4316707393581
 31
0.0
100
AcDbText
  0
LINE
  5
2C0C
330
1F
100
AcDbEntity
  8
91000_TIP
  6
Continuous
 62
     7
100
AcDbLine
 10
151.2591538260784
 20
99.9634601069534
 30
0.0
 11
161.2591536218785
 21
102.4634600559534
 31
0.0
  0
LINE
  5
2C0D
330
1F
100
AcDbEntity
  8
91000_TIP
  6
CENTER
 62
     7
100
AcDbLine
 10
149.9796433540775
 20
97.46346015805338
 30
0.0
 11
173.5816326181774
 21
97.46346015805338
 31
0.0
  0
LINE
  5
2C0E
330
1F
100
AcDbEntity
  8
91000_TIP
  6
Continuous
 62
     7
100
AcDbLine
 10
151.2591538260784
 20
94.96346020915341
 30
0.0
 11
161.2591536218785
 21
92.46346026015327
 31
0.0
  0
LINE
  5
2C0F
330
1F
100
AcDbEntity
  8
91000_TIP
  6
Continuous
 62
     7
100
AcDbLine
 10
151.2591538260784
 20
99.9634601069534
 30
0.0
 11
151.2591538260784
 21
94.96346020915341
 31
0.0
  0
LINE
  5
2C10
330
1F
100
AcDbEntity
  8
91000_TIP
  6
Continuous
 62
     7
100
AcDbLine
 10
161.2591536218785
 20
102.4634600559534
 30
0.0
 11
161.2591536218785
 21
92.46346026015327
 31
0.0
  0
LINE
  5
2C11
330
1F
100
AcDbEntity
  8
91000_TIP
  6
CENTER
 62
     7
100
AcDbLine
 10
167.7591534890785
 20
91.74197895165336
 30
0.0
 11
167.7591534890785
 21
103.0253649516534
 31
0.0
  0
CIRCLE
  5
2C12
330
1F
100
AcDbEntity
  8
91000_TIP
  6
Continuous
 62
     7
100
AcDbCircle
 10
167.7591534890785
 20
97.46346015805338
 30
0.0
 40
4.9999998979
  0
CIRCLE
  5
2C13
330
1F
100
AcDbEntity
  8
91000_TIP
  6
Continuous
 62
     7
100
AcDbCircle
 10
167.7591534890785
 20
97.46346015805338
 30
0.0
 40
2.499999948899997
  0
LINE
  5
2C14
330
1F
100
AcDbEntity
  8
90000_FRAME
  6
Continuous
 62
     7
100
AcDbLine
 10
46.44448372205238
 20
83.6397225845828
 30
0.0
 11
46.44448372205238
 21
283.6397225845828
 31
0.0
  0
LINE
  5
2C15
330
1F
100
AcDbEntity
  8
90000_FRAME
  6
Continuous
 62
     7
100
AcDbLine
 10
316.4444837220524
 20
83.6397225845828
 30
0.0
 11
46.44448372205238
 21
83.6397225845828
 31
0.0
  0
LINE
  5
2C16
330
1F
100
AcDbEntity
  8
90000_FRAME
  6
Continuous
 62
     7
100
AcDbLine
 10
316.4444837220524
 20
83.6397225845828
 30
0.0
 11
316.4444837220526
 21
283.6397225845828
 31
0.0
  0
TEXT
  5
32DD
330
1F
100
AcDbEntity
  8
90000_FRAME
  6
Continuous
 62
     7
100
AcDbText
 10
239.7504082460032
 20
95.93736000806606
 30
0.0
 40
3.5
  1
HALBLEITERSCHUETZ 3p RK
 41
0.7152943294565027
 72
     5
 11
295.6625816651865
 21
95.93736000806606
 31
0.0
100
AcDbText
  0
LINE
  5
643A
330
1F
100
AcDbEntity
  8
10000_Front
  6
Continuous
 62
     7
370
    13
100
AcDbLine
 10
148.753147625957
 20
192.5223272616874
 30
0.0
 11
137.8531476438828
 21
192.5223272616874
 31
0.0
  0
LINE
  5
643E
330
1F
100
AcDbEntity
  8
10000_Front
  6
Continuous
 62
     7
370
    50
100
AcDbLine
 39
0.45
 10
137.8531476519322
 20
177.8723272616873
 30
0.0
 11
137.8531476319323
 21
214.2723232616873
 31
0.0
  0
ARC
  5
643F
330
1F
100
AcDbEntity
  8
10000_Front
  6
Continuous
 62
     7
370
    50
100
AcDbCircle
 39
0.45
 10
138.6531476319322
 20
177.8723272616873
 30
0.0
 40
0.7999999800000001
100
AcDbArc
 50
180.0
 51
270.0
  0
LINE
  5
6440
330
1F
100
AcDbEntity
  8
10000_Front
  6
Continuous
 62
     7
370
    50
100
AcDbLine
 39
0.45
 10
148.7531476319323
 20
214.2723232616873
 30
0.0
 11
148.7531476219323
 21
177.8723272616873
 31
0.0
  0
LINE
  5
6447
330
1F
100
AcDbEntity
  8
10000_Front
  6
Continuous
 62
     7
370
    50
100
AcDbLine
 39
0.45
 10
147.9531476319323
 20
177.0723272616874
 30
0.0
 11
138.6531476319322
 21
177.0723272616874
 31
0.0
  0
ARC
  5
6448
330
1F
100
AcDbEntity
  8
10000_Front
  6
Continuous
 62
     7
370
    50
100
AcDbCircle
 39
0.45
 10
147.9531476319323
 20
177.8723272616873
 30
0.0
 40
0.79999999
100
AcDbArc
 50
270.0
 51
0.0
  0
LINE
  5
644A
330
1F
100
AcDbEntity
  8
10000_Front
  6
Continuous
 62
     7
370
    13
100
AcDbLine
 10
148.7531476279075
 20
199.6223232616874
 30
0.0
 11
137.8531476399817
 21
199.6223232616874
 31
0.0
  0
ARC
  5
644C
330
1F
100
AcDbEntity
  8
10000_Front
  6
Continuous
 62
     7
370
    50
100
AcDbCircle
 39
0.45
 10
138.6531476319322
 20
214.2723232616873
 30
0.0
 40
0.8
100
AcDbArc
 50
90.0
 51
180.0
  0
LINE
  5
644D
330
1F
100
AcDbEntity
  8
10000_Front
  6
Continuous
 62
     7
370
    50
100
AcDbLine
 39
0.45
 10
138.6531476319322
 20
215.0723232616874
 30
0.0
 11
147.9531476319323
 21
215.0723232616874
 31
0.0
  0
ARC
  5
644E
330
1F
100
AcDbEntity
  8
10000_Front
  6
Continuous
 62
     7
370
    50
100
AcDbCircle
 39
0.45
 10
147.9531476319323
 20
214.2723232616873
 30
0.0
 40
0.8000000099999999
100
AcDbArc
 50
0.0000007991002675
 51
89.9999989999994
  0
LINE
  5
644F
330
1F
100
AcDbEntity
  8
10000_Front
  6
Continuous
 62
     7
370
    13
100
AcDbLine
 10
139.8031476319323
 20
216.5723232616874
 30
0.0
 11
146.8031476319323
 21
216.5723232616874
 31
0.0
  0
LINE
  5
6450
330
1F
100
AcDbEntity
  8
10000_Front
  6
Continuous
 62
     7
370
    13
100
AcDbLine
 10
139.8031476319323
 20
215.0723232616874
 30
0.0
 11
139.8031476319323
 21
216.0723232616874
 31
0.0
  0
LINE
  5
6451
330
1F
100
AcDbEntity
  8
10000_Front
  6
Continuous
 62
     7
370
    13
100
AcDbLine
 10
139.8031476319323
 20
216.0723232616874
 30
0.0
 11
139.8031476319323
 21
216.5723232616874
 31
0.0
  0
LINE
  5
6452
330
1F
100
AcDbEntity
  8
10000_Front
  6
Continuous
 62
     7
370
    13
100
AcDbLine
 10
146.8031476319323
 20
216.5723232616874
 30
0.0
 11
146.8031476319323
 21
216.0723232616874
 31
0.0
  0
LINE
  5
6453
330
1F
100
AcDbEntity
  8
10000_Front
  6
Continuous
 62
     7
370
    13
100
AcDbLine
 10
146.8031476319323
 20
216.0723232616874
 30
0.0
 11
146.8031476319323
 21
215.0723232616874
 31
0.0
  0
CIRCLE
  5
6456
330
1F
100
AcDbEntity
  8
10000_Front
  6
Continuous
 62
     7
370
    13
100
AcDbCircle
 10
143.3031476319323
 20
205.0723232616874
 30
0.0
 40
3.2
  0
LINE
  5
6457
330
1F
100
AcDbEntity
  8
10000_Front
  6
Continuous
 62
     7
370
    13
100
AcDbLine
 10
143.8181486319322
 20
204.3027532616873
 30
0.0
 11
143.8181486319322
 21
204.4835532616874
 31
0.0
  0
LINE
  5
6458
330
1F
100
AcDbEntity
  8
10000_Front
  6
Continuous
 62
     7
370
    13
100
AcDbLine
 10
143.8181486319322
 20
204.3027532616873
 30
0.0
 11
143.8181486319322
 21
203.3104532616873
 31
0.0
  0
LINE
  5
6459
330
1F
100
AcDbEntity
  8
10000_Front
  6
Continuous
 62
     7
370
    13
100
AcDbLine
 10
143.8181486319322
 20
206.8642032616873
 30
0.0
 11
143.8181486319322
 21
205.8719032616873
 31
0.0
  0
LINE
  5
645A
330
1F
100
AcDbEntity
  8
10000_Front
  6
Continuous
 62
     7
370
    13
100
AcDbLine
 10
143.8181486319322
 20
205.8719032616873
 30
0.0
 11
143.8181486319322
 21
205.6911032616873
 31
0.0
  0
LINE
  5
645B
330
1F
100
AcDbEntity
  8
10000_Front
  6
Continuous
 62
     7
370
    13
100
AcDbLine
 10
142.7881486319322
 20
203.3104532616873
 30
0.0
 11
142.7881486319322
 21
204.3027532616873
 31
0.0
  0
LINE
  5
645C
330
1F
100
AcDbEntity
  8
10000_Front
  6
Continuous
 62
     7
370
    13
100
AcDbLine
 10
142.7881486319322
 20
204.3027532616873
 30
0.0
 11
142.7881486319322
 21
204.4835532616874
 31
0.0
  0
LINE
  5
645D
330
1F
100
AcDbEntity
  8
10000_Front
  6
Continuous
 62
     7
370
    13
100
AcDbLine
 10
142.7881486319322
 20
205.8719032616873
 30
0.0
 11
142.7881486319322
 21
205.6911032616873
 31
0.0
  0
LINE
  5
645E
330
1F
100
AcDbEntity
  8
10000_Front
  6
Continuous
 62
     7
370
    13
100
AcDbLine
 10
142.7881486319322
 20
205.8719032616873
 30
0.0
 11
142.7881486319322
 21
206.8642032616873
 31
0.0
  0
ARC
  5
645F
330
1F
100
AcDbEntity
  8
10000_Front
  6
Continuous
 62
     7
370
    13
100
AcDbCircle
 10
143.3031486319323
 20
205.0873232616874
 30
0.0
 40
1.85
100
AcDbArc
 50
253.8365500000006
 51
286.1634499999994
  0
ARC
  5
6460
330
1F
100
AcDbEntity
  8
10000_Front
  6
Continuous
 62
     7
370
    13
100
AcDbCircle
 10
143.3031486319323
 20
205.0873232616874
 30
0.0
 40
1.85
100
AcDbArc
 50
73.83655500000052
 51
106.1634499999994
  0
LINE
  5
6461
330
1F
100
AcDbEntity
  8
10000_Front
  6
Continuous
 62
     7
370
    13
100
AcDbLine
 10
144.1525846319322
 20
204.4796832616873
 30
0.0
 11
143.9057736319323
 21
204.4847332616874
 31
0.0
  0
LINE
  5
6462
330
1F
100
AcDbEntity
  8
10000_Front
  6
Continuous
 62
     7
370
    13
100
AcDbLine
 10
143.8181486319322
 20
204.4835432616872
 30
0.0
 11
143.9057736319323
 21
204.4847332616874
 31
0.0
  0
LINE
  5
6463
330
1F
100
AcDbEntity
  8
10000_Front
  6
Continuous
 62
     7
370
    13
100
AcDbLine
 10
142.4536956319322
 20
205.6949632616873
 30
0.0
 11
142.7005436319322
 21
205.6899232616874
 31
0.0
  0
LINE
  5
6464
330
1F
100
AcDbEntity
  8
10000_Front
  6
Continuous
 62
     7
370
    13
100
AcDbLine
 10
142.7881316319323
 20
205.6911132616873
 30
0.0
 11
142.7005436319322
 21
205.6899232616874
 31
0.0
  0
LINE
  5
6465
330
1F
100
AcDbEntity
  8
10000_Front
  6
Continuous
 62
     7
370
    13
100
AcDbLine
 10
142.7881316319323
 20
204.4835432616872
 30
0.0
 11
142.7005436319322
 21
204.4847332616874
 31
0.0
  0
LINE
  5
6466
330
1F
100
AcDbEntity
  8
10000_Front
  6
Continuous
 62
     7
370
    13
100
AcDbLine
 10
142.4536956319322
 20
204.4796832616873
 30
0.0
 11
142.7005436319322
 21
204.4847332616874
 31
0.0
  0
LINE
  5
6467
330
1F
100
AcDbEntity
  8
10000_Front
  6
Continuous
 62
     7
370
    13
100
AcDbLine
 10
144.1525846319322
 20
205.6949632616873
 30
0.0
 11
143.9057736319323
 21
205.6899232616874
 31
0.0
  0
LINE
  5
6468
330
1F
100
AcDbEntity
  8
10000_Front
  6
Continuous
 62
     7
370
    13
100
AcDbLine
 10
143.8181486319322
 20
205.6911132616873
 30
0.0
 11
143.9057736319323
 21
205.6899232616874
 31
0.0
  0
POLYLINE
  5
6469
330
1F
100
AcDbEntity
  8
10000_Front
  6
Continuous
 62
     7
370
    13
100
AcDb2dPolyline
 66
     1
 10
0.0
 20
0.0
 30
0.0
 70
     2
  0
VERTEX
  5
646A
330
6469
100
AcDbEntity
  8
10000_Front
  6
Continuous
 62
     7
370
    13
100
AcDbVertex
100
AcDb2dVertex
 10
145.7985356319323
 20
205.6949632616873
 30
0.0
  0
VERTEX
  5
646B
330
6469
100
AcDbEntity
  8
10000_Front
  6
Continuous
 62
     7
370
    13
100
AcDbVertex
100
AcDb2dVertex
 10
145.8030426319322
 20
205.6948532616874
 30
0.0
 42
0.0038508766
 70
     1
  0
VERTEX
  5
646C
330
6469
100
AcDbEntity
  8
10000_Front
  6
Continuous
 62
     7
370
    13
100
AcDbVertex
100
AcDb2dVertex
 10
145.8124676319322
 20
205.6946832616873
 30
0.0
 42
0.0011606738
  0
VERTEX
  5
646D
330
6469
100
AcDbEntity
  8
10000_Front
  6
Continuous
 62
     7
370
    13
100
AcDbVertex
100
AcDb2dVertex
 10
145.8274946319322
 20
205.6944632616874
 30
0.0
 42
0.0003189443
 70
     1
  0
VERTEX
  5
646E
330
6469
100
AcDbEntity
  8
10000_Front
  6
Continuous
 62
     7
370
    13
100
AcDbVertex
100
AcDb2dVertex
 10
145.8446246319323
 20
205.6942132616873
 30
0.0
 42
-0.0000971196
  0
VERTEX
  5
646F
330
6469
100
AcDbEntity
  8
10000_Front
  6
Continuous
 62
     7
370
    13
100
AcDbVertex
100
AcDb2dVertex
 10
145.8603476319322
 20
205.6939732616874
 30
0.0
 42
-0.0004008447
 70
     1
  0
VERTEX
  5
6470
330
6469
100
AcDbEntity
  8
10000_Front
  6
Continuous
 62
     7
370
    13
100
AcDbVertex
100
AcDb2dVertex
 10
145.8741776319322
 20
205.6937232616874
 30
0.0
 42
-0.0007659097
  0
VERTEX
  5
6471
330
6469
100
AcDbEntity
  8
10000_Front
  6
Continuous
 62
     7
370
    13
100
AcDbVertex
100
AcDb2dVertex
 10
145.8862576319322
 20
205.6934632616873
 30
0.0
 42
-0.0010613539
 70
     1
  0
VERTEX
  5
6472
330
6469
100
AcDbEntity
  8
10000_Front
  6
Continuous
 62
     7
370
    13
100
AcDbVertex
100
AcDb2dVertex
 10
145.8974016319323
 20
205.6931732616874
 30
0.0
 42
-0.0010059337
  0
VERTEX
  5
6473
330
6469
100
AcDbEntity
  8
10000_Front
  6
Continuous
 62
     7
370
    13
100
AcDbVertex
100
AcDb2dVertex
 10
145.9082896319323
 20
205.6928532616873
 30
0.0
 42
-0.0009403206
 70
     1
  0
VERTEX
  5
6474
330
6469
100
AcDbEntity
  8
10000_Front
  6
Continuous
 62
     7
370
    13
100
AcDbVertex
100
AcDb2dVertex
 10
145.9188556319323
 20
205.6924932616874
 30
0.0
 42
-0.001079229
  0
VERTEX
  5
6475
330
6469
100
AcDbEntity
  8
10000_Front
  6
Continuous
 62
     7
370
    13
100
AcDbVertex
100
AcDb2dVertex
 10
145.9288776319322
 20
205.6921132616874
 30
0.0
 42
-0.0012382303
 70
     1
  0
VERTEX
  5
6476
330
6469
100
AcDbEntity
  8
10000_Front
  6
Continuous
 62
     7
370
    13
100
AcDbVertex
100
AcDb2dVertex
 10
145.9383716319323
 20
205.6917032616873
 30
0.0
 42
-0.0013491626
  0
VERTEX
  5
6477
330
6469
100
AcDbEntity
  8
10000_Front
  6
Continuous
 62
     7
370
    13
100
AcDbVertex
100
AcDb2dVertex
 10
145.9473436319322
 20
205.6912532616873
 30
0.0
 42
-0.001445731
 70
     1
  0
VERTEX
  5
6478
330
6469
100
AcDbEntity
  8
10000_Front
  6
Continuous
 62
     7
370
    13
100
AcDbVertex
100
AcDb2dVertex
 10
145.9557786319322
 20
205.6907932616874
 30
0.0
 42
-0.0015268871
  0
VERTEX
  5
6479
330
6469
100
AcDbEntity
  8
10000_Front
  6
Continuous
 62
     7
370
    13
100
AcDbVertex
100
AcDb2dVertex
 10
145.9636166319322
 20
205.6903032616873
 30
0.0
 42
-0.0019313456
 70
     1
  0
VERTEX
  5
647A
330
6469
100
AcDbEntity
  8
10000_Front
  6
Continuous
 62
     7
370
    13
100
AcDbVertex
100
AcDb2dVertex
 10
145.9709076319323
 20
205.6897832616873
 30
0.0
 42
-0.0027402026
  0
VERTEX
  5
647B
330
6469
100
AcDbEntity
  8
10000_Front
  6
Continuous
 62
     7
370
    13
100
AcDbVertex
100
AcDb2dVertex
 10
145.9776256319322
 20
205.6892332616873
 30
0.0
 42
-0.0025582299
 70
     1
  0
VERTEX
  5
647C
330
6469
100
AcDbEntity
  8
10000_Front
  6
Continuous
 62
     7
370
    13
100
AcDbVertex
100
AcDb2dVertex
 10
145.9835886319322
 20
205.6886932616874
 30
0.0
 42
-0.0009446601
  0
VERTEX
  5
647D
330
6469
100
AcDbEntity
  8
10000_Front
  6
Continuous
 62
     7
370
    13
100
AcDbVertex
100
AcDb2dVertex
 10
145.9886846319323
 20
205.6881932616874
 30
0.0
 42
-0.004630336
 70
     1
  0
VERTEX
  5
647E
330
6469
100
AcDbEntity
  8
10000_Front
  6
Continuous
 62
     7
370
    13
100
AcDbVertex
100
AcDb2dVertex
 10
145.9936516319323
 20
205.6875232616874
 30
0.0
 42
-0.013827015
  0
VERTEX
  5
647F
330
6469
100
AcDbEntity
  8
10000_Front
  6
Continuous
 62
     7
370
    13
100
AcDbVertex
100
AcDb2dVertex
 10
145.9992116319322
 20
205.6864332616873
 30
0.0
 42
-0.012651874
 70
     1
  0
VERTEX
  5
6480
330
6469
100
AcDbEntity
  8
10000_Front
  6
Continuous
 62
     7
370
    13
100
AcDbVertex
100
AcDb2dVertex
 10
146.0052436319323
 20
205.6849932616874
 30
0.0
 42
-0.0095604393
  0
SEQEND
  5
6481
330
6469
100
AcDbEntity
  8
10000_Front
  6
Continuous
 62
     7
370
    13
  0
POLYLINE
  5
6482
330
1F
100
AcDbEntity
  8
10000_Front
  6
Continuous
 62
     7
370
    13
100
AcDb2dPolyline
 66
     1
 10
0.0
 20
0.0
 30
0.0
 70
     2
  0
VERTEX
  5
6483
330
6482
100
AcDbEntity
  8
10000_Front
  6
Continuous
 62
     7
370
    13
100
AcDbVertex
100
AcDb2dVertex
 10
140.6010736319322
 20
205.6849932616874
 30
0.0
  0
VERTEX
  5
6484
330
6482
100
AcDbEntity
  8
10000_Front
  6
Continuous
 62
     7
370
    13
100
AcDbVertex
100
AcDb2dVertex
 10
140.6029096319322
 20
205.6856532616873
 30
0.0
 42
-0.036487136
 70
     1
  0
VERTEX
  5
6485
330
6482
100
AcDbEntity
  8
10000_Front
  6
Continuous
 62
     7
370
    13
100
AcDbVertex
100
AcDb2dVertex
 10
140.6055426319323
 20
205.6863032616873
 30
0.0
 42
-0.018832206
  0
VERTEX
  5
6486
330
6482
100
AcDbEntity
  8
10000_Front
  6
Continuous
 62
     7
370
    13
100
AcDbVertex
100
AcDb2dVertex
 10
140.6090066319323
 20
205.6869532616873
 30
0.0
 42
-0.011147392
 70
     1
  0
VERTEX
  5
6487
330
6482
100
AcDbEntity
  8
10000_Front
  6
Continuous
 62
     7
370
    13
100
AcDbVertex
100
AcDb2dVertex
 10
140.6132576319322
 20
205.6875832616873
 30
0.0
 42
-0.007533884
  0
VERTEX
  5
6488
330
6482
100
AcDbEntity
  8
10000_Front
  6
Continuous
 62
     7
370
    13
100
AcDbVertex
100
AcDb2dVertex
 10
140.6183086319322
 20
205.6882032616873
 30
0.0
 42
-0.0053542054
 70
     1
  0
VERTEX
  5
6489
330
6482
100
AcDbEntity
  8
10000_Front
  6
Continuous
 62
     7
370
    13
100
AcDbVertex
100
AcDb2dVertex
 10
140.6240876319323
 20
205.6888032616874
 30
0.0
 42
-0.0040565491
  0
VERTEX
  5
648A
330
6482
100
AcDbEntity
  8
10000_Front
  6
Continuous
 62
     7
370
    13
100
AcDbVertex
100
AcDb2dVertex
 10
140.6305786319323
 20
205.6893932616873
 30
0.0
 42
-0.003162099
 70
     1
  0
VERTEX
  5
648B
330
6482
100
AcDbEntity
  8
10000_Front
  6
Continuous
 62
     7
370
    13
100
AcDbVertex
100
AcDb2dVertex
 10
140.6377116319323
 20
205.6899432616874
 30
0.0
 42
-0.0025293618
  0
VERTEX
  5
648C
330
6482
100
AcDbEntity
  8
10000_Front
  6
Continuous
 62
     7
370
    13
100
AcDbVertex
100
AcDb2dVertex
 10
140.6454696319322
 20
205.6904832616873
 30
0.0
 42
-0.0020755614
 70
     1
  0
VERTEX
  5
648D
330
6482
100
AcDbEntity
  8
10000_Front
  6
Continuous
 62
     7
370
    13
100
AcDbVertex
100
AcDb2dVertex
 10
140.6537856319323
 20
205.6909932616874
 30
0.0
 42
-0.001750612
  0
VERTEX
  5
648E
330
6482
100
AcDbEntity
  8
10000_Front
  6
Continuous
 62
     7
370
    13
100
AcDbVertex
100
AcDb2dVertex
 10
140.6626396319323
 20
205.6914732616874
 30
0.0
 42
-0.0015212936
 70
     1
  0
VERTEX
  5
648F
330
6482
100
AcDbEntity
  8
10000_Front
  6
Continuous
 62
     7
370
    13
100
AcDbVertex
100
AcDb2dVertex
 10
140.6719876319322
 20
205.6919332616873
 30
0.0
 42
-0.0013605832
  0
VERTEX
  5
6490
330
6482
100
AcDbEntity
  8
10000_Front
  6
Continuous
 62
     7
370
    13
100
AcDbVertex
100
AcDb2dVertex
 10
140.6818136319323
 20
205.6923532616873
 30
0.0
 42
-0.0011828707
 70
     1
  0
VERTEX
  5
6491
330
6482
100
AcDbEntity
  8
10000_Front
  6
Continuous
 62
     7
370
    13
100
AcDbVertex
100
AcDb2dVertex
 10
140.6919926319322
 20
205.6927632616874
 30
0.0
 42
-0.0010103744
  0
VERTEX
  5
6492
330
6482
100
AcDbEntity
  8
10000_Front
  6
Continuous
 62
     7
370
    13
100
AcDbVertex
100
AcDb2dVertex
 10
140.7024776319322
 20
205.6931232616873
 30
0.0
 42
-0.0010215276
 70
     1
  0
VERTEX
  5
6493
330
6482
100
AcDbEntity
  8
10000_Front
  6
Continuous
 62
     7
370
    13
100
AcDbVertex
100
AcDb2dVertex
 10
140.7134786319323
 20
205.6934732616873
 30
0.0
 42
-0.0011249024
  0
VERTEX
  5
6494
330
6482
100
AcDbEntity
  8
10000_Front
  6
Continuous
 62
     7
370
    13
100
AcDbVertex
100
AcDb2dVertex
 10
140.7250576319322
 20
205.6937832616874
 30
0.0
 42
-0.0008062262
 70
     1
  0
VERTEX
  5
6495
330
6482
100
AcDbEntity
  8
10000_Front
  6
Continuous
 62
     7
370
    13
100
AcDbVertex
100
AcDb2dVertex
 10
140.7361196319322
 20
205.6940532616873
 30
0.0
 42
-0.0002692056
  0
VERTEX
  5
6496
330
6482
100
AcDbEntity
  8
10000_Front
  6
Continuous
 62
     7
370
    13
100
AcDbVertex
100
AcDb2dVertex
 10
140.7462756319323
 20
205.6942832616873
 30
0.0
 42
-0.0010732602
 70
     1
  0
VERTEX
  5
6497
330
6482
100
AcDbEntity
  8
10000_Front
  6
Continuous
 62
     7
370
    13
100
AcDbVertex
100
AcDb2dVertex
 10
140.7595946319322
 20
205.6945032616873
 30
0.0
 42
-0.0017845229
  0
VERTEX
  5
6498
330
6482
100
AcDbEntity
  8
10000_Front
  6
Continuous
 62
     7
370
    13
100
AcDbVertex
100
AcDb2dVertex
 10
140.7803706319322
 20
205.6947332616874
 30
0.0
 42
-0.0008521871
 70
     1
  0
VERTEX
  5
6499
330
6482
100
AcDbEntity
  8
10000_Front
  6
Continuous
 62
     7
370
    13
100
AcDbVertex
100
AcDb2dVertex
 10
140.8077456319323
 20
205.6949632616873
 30
0.0
 42
-0.0004433138
  0
SEQEND
  5
649A
330
6482
100
AcDbEntity
  8
10000_Front
  6
Continuous
 62
     7
370
    13
  0
POLYLINE
  5
649B
330
1F
100
AcDbEntity
  8
10000_Front
  6
Continuous
 62
     7
370
    13
100
AcDb2dPolyline
 66
     1
 10
0.0
 20
0.0
 30
0.0
 70
     2
  0
VERTEX
  5
649C
330
649B
100
AcDbEntity
  8
10000_Front
  6
Continuous
 62
     7
370
    13
100
AcDbVertex
100
AcDb2dVertex
 10
146.0052436319323
 20
204.4896632616873
 30
0.0
  0
VERTEX
  5
649D
330
649B
100
AcDbEntity
  8
10000_Front
  6
Continuous
 62
     7
370
    13
100
AcDbVertex
100
AcDb2dVertex
 10
146.0033986319323
 20
204.4890032616873
 30
0.0
 42
-0.036011386
 70
     1
  0
VERTEX
  5
649E
330
649B
100
AcDbEntity
  8
10000_Front
  6
Continuous
 62
     7
370
    13
100
AcDbVertex
100
AcDb2dVertex
 10
146.0007596319323
 20
204.4883532616873
 30
0.0
 42
-0.018652249
  0
VERTEX
  5
649F
330
649B
100
AcDbEntity
  8
10000_Front
  6
Continuous
 62
     7
370
    13
100
AcDbVertex
100
AcDb2dVertex
 10
145.9972926319323
 20
204.4877032616873
 30
0.0
 42
-0.011077222
 70
     1
  0
VERTEX
  5
64A0
330
649B
100
AcDbEntity
  8
10000_Front
  6
Continuous
 62
     7
370
    13
100
AcDbVertex
100
AcDb2dVertex
 10
145.9930396319323
 20
204.4870732616874
 30
0.0
 42
-0.0075115637
  0
VERTEX
  5
64A1
330
649B
100
AcDbEntity
  8
10000_Front
  6
Continuous
 62
     7
370
    13
100
AcDbVertex
100
AcDb2dVertex
 10
145.9879886319323
 20
204.4864532616873
 30
0.0
 42
-0.0053477907
 70
     1
  0
VERTEX
  5
64A2
330
649B
100
AcDbEntity
  8
10000_Front
  6
Continuous
 62
     7
370
    13
100
AcDbVertex
100
AcDb2dVertex
 10
145.9822096319323
 20
204.4858432616873
 30
0.0
 42
-0.0040557149
  0
VERTEX
  5
64A3
330
649B
100
AcDbEntity
  8
10000_Front
  6
Continuous
 62
     7
370
    13
100
AcDbVertex
100
AcDb2dVertex
 10
145.9757186319322
 20
204.4852632616874
 30
0.0
 42
-0.0031625092
 70
     1
  0
VERTEX
  5
64A4
330
649B
100
AcDbEntity
  8
10000_Front
  6
Continuous
 62
     7
370
    13
100
AcDbVertex
100
AcDb2dVertex
 10
145.9685856319323
 20
204.4847032616873
 30
0.0
 42
-0.002529305
  0
VERTEX
  5
64A5
330
649B
100
AcDbEntity
  8
10000_Front
  6
Continuous
 62
     7
370
    13
100
AcDbVertex
100
AcDb2dVertex
 10
145.9608266319322
 20
204.4841732616874
 30
0.0
 42
-0.0020753971
 70
     1
  0
VERTEX
  5
64A6
330
649B
100
AcDbEntity
  8
10000_Front
  6
Continuous
 62
     7
370
    13
100
AcDbVertex
100
AcDb2dVertex
 10
145.9525106319323
 20
204.4836632616874
 30
0.0
 42
-0.0017505102
  0
VERTEX
  5
64A7
330
649B
100
AcDbEntity
  8
10000_Front
  6
Continuous
 62
     7
370
    13
100
AcDbVertex
100
AcDb2dVertex
 10
145.9436566319322
 20
204.4831832616874
 30
0.0
 42
-0.0015211886
 70
     1
  0
VERTEX
  5
64A8
330
649B
100
AcDbEntity
  8
10000_Front
  6
Continuous
 62
     7
370
    13
100
AcDbVertex
100
AcDb2dVertex
 10
145.9343086319322
 20
204.4827232616874
 30
0.0
 42
-0.0013604341
  0
VERTEX
  5
64A9
330
649B
100
AcDbEntity
  8
10000_Front
  6
Continuous
 62
     7
370
    13
100
AcDbVertex
100
AcDb2dVertex
 10
145.9244816319323
 20
204.4822932616873
 30
0.0
 42
-0.001182703
 70
     1
  0
VERTEX
  5
64AA
330
649B
100
AcDbEntity
  8
10000_Front
  6
Continuous
 62
     7
370
    13
100
AcDbVertex
100
AcDb2dVertex
 10
145.9143016319322
 20
204.4818932616874
 30
0.0
 42
-0.0010102052
  0
VERTEX
  5
64AB
330
649B
100
AcDbEntity
  8
10000_Front
  6
Continuous
 62
     7
370
    13
100
AcDbVertex
100
AcDb2dVertex
 10
145.9038166319323
 20
204.4815232616874
 30
0.0
 42
-0.001021308
 70
     1
  0
VERTEX
  5
64AC
330
649B
100
AcDbEntity
  8
10000_Front
  6
Continuous
 62
     7
370
    13
100
AcDbVertex
100
AcDb2dVertex
 10
145.8928146319322
 20
204.4811832616873
 30
0.0
 42
-0.0011245849
  0
VERTEX
  5
64AD
330
649B
100
AcDbEntity
  8
10000_Front
  6
Continuous
 62
     7
370
    13
100
AcDbVertex
100
AcDb2dVertex
 10
145.8812346319322
 20
204.4808732616874
 30
0.0
 42
-0.000805977
 70
     1
  0
VERTEX
  5
64AE
330
649B
100
AcDbEntity
  8
10000_Front
  6
Continuous
 62
     7
370
    13
100
AcDbVertex
100
AcDb2dVertex
 10
145.8701716319323
 20
204.4806032616873
 30
0.0
 42
-0.0002691632
  0
VERTEX
  5
64AF
330
649B
100
AcDbEntity
  8
10000_Front
  6
Continuous
 62
     7
370
    13
100
AcDbVertex
100
AcDb2dVertex
 10
145.8600146319322
 20
204.4803732616874
 30
0.0
 42
-0.0010728189
 70
     1
  0
VERTEX
  5
64B0
330
649B
100
AcDbEntity
  8
10000_Front
  6
Continuous
 62
     7
370
    13
100
AcDbVertex
100
AcDb2dVertex
 10
145.8466946319322
 20
204.4801532616873
 30
0.0
 42
-0.0017835729
  0
VERTEX
  5
64B1
330
649B
100
AcDbEntity
  8
10000_Front
  6
Continuous
 62
     7
370
    13
100
AcDbVertex
100
AcDb2dVertex
 10
145.8259146319323
 20
204.4799232616874
 30
0.0
 42
-0.0008516812
 70
     1
  0
VERTEX
  5
64B2
330
649B
100
AcDbEntity
  8
10000_Front
  6
Continuous
 62
     7
370
    13
100
AcDbVertex
100
AcDb2dVertex
 10
145.7985356319323
 20
204.4796832616873
 30
0.0
 42
-0.000443047
  0
SEQEND
  5
64B3
330
649B
100
AcDbEntity
  8
10000_Front
  6
Continuous
 62
     7
370
    13
  0
POLYLINE
  5
64B4
330
1F
100
AcDbEntity
  8
10000_Front
  6
Continuous
 62
     7
370
    13
100
AcDb2dPolyline
 66
     1
 10
0.0
 20
0.0
 30
0.0
 70
     2
  0
VERTEX
  5
64B5
330
64B4
100
AcDbEntity
  8
10000_Front
  6
Continuous
 62
     7
370
    13
100
AcDbVertex
100
AcDb2dVertex
 10
140.8077456319323
 20
204.4796832616873
 30
0.0
  0
VERTEX
  5
64B6
330
64B4
100
AcDbEntity
  8
10000_Front
  6
Continuous
 62
     7
370
    13
100
AcDbVertex
100
AcDb2dVertex
 10
140.8032426319323
 20
204.4798032616873
 30
0.0
 42
0.0039134466
 70
     1
  0
VERTEX
  5
64B7
330
64B4
100
AcDbEntity
  8
10000_Front
  6
Continuous
 62
     7
370
    13
100
AcDbVertex
100
AcDb2dVertex
 10
140.7938206319322
 20
204.4799632616872
 30
0.0
 42
0.0011760871
  0
VERTEX
  5
64B8
330
64B4
100
AcDbEntity
  8
10000_Front
  6
Continuous
 62
     7
370
    13
100
AcDbVertex
100
AcDb2dVertex
 10
140.7787946319323
 20
204.4801932616873
 30
0.0
 42
0.0003236504
 70
     1
  0
VERTEX
  5
64B9
330
64B4
100
AcDbEntity
  8
10000_Front
  6
Continuous
 62
     7
370
    13
100
AcDbVertex
100
AcDb2dVertex
 10
140.7616646319322
 20
204.4804432616873
 30
0.0
 42
-0.0000956408
  0
VERTEX
  5
64BA
330
64B4
100
AcDbEntity
  8
10000_Front
  6
Continuous
 62
     7
370
    13
100
AcDbVertex
100
AcDb2dVertex
 10
140.7459426319323
 20
204.4806832616874
 30
0.0
 42
-0.00040037
 70
     1
  0
VERTEX
  5
64BB
330
64B4
100
AcDbEntity
  8
10000_Front
  6
Continuous
 62
     7
370
    13
100
AcDbVertex
100
AcDb2dVertex
 10
140.7321136319323
 20
204.4809332616874
 30
0.0
 42
-0.0007660016
  0
VERTEX
  5
64BC
330
64B4
100
AcDbEntity
  8
10000_Front
  6
Continuous
 62
     7
370
    13
100
AcDbVertex
100
AcDb2dVertex
 10
140.7200346319323
 20
204.4811932616874
 30
0.0
 42
-0.0010615138
 70
     1
  0
VERTEX
  5
64BD
330
64B4
100
AcDbEntity
  8
10000_Front
  6
Continuous
 62
     7
370
    13
100
AcDbVertex
100
AcDb2dVertex
 10
140.7088906319322
 20
204.4814832616873
 30
0.0
 42
-0.0010059452
  0
VERTEX
  5
64BE
330
64B4
100
AcDbEntity
  8
10000_Front
  6
Continuous
 62
     7
370
    13
100
AcDbVertex
100
AcDb2dVertex
 10
140.6980036319323
 20
204.4818032616873
 30
0.0
 42
-0.0009403787
 70
     1
  0
VERTEX
  5
64BF
330
64B4
100
AcDbEntity
  8
10000_Front
  6
Continuous
 62
     7
370
    13
100
AcDbVertex
100
AcDb2dVertex
 10
140.6874376319322
 20
204.4821532616873
 30
0.0
 42
-0.001079265
  0
VERTEX
  5
64C0
330
64B4
100
AcDbEntity
  8
10000_Front
  6
Continuous
 62
     7
370
    13
100
AcDbVertex
100
AcDb2dVertex
 10
140.6774166319322
 20
204.4825432616874
 30
0.0
 42
-0.0012382332
 70
     1
  0
VERTEX
  5
64C1
330
64B4
100
AcDbEntity
  8
10000_Front
  6
Continuous
 62
     7
370
    13
100
AcDbVertex
100
AcDb2dVertex
 10
140.6679226319322
 20
204.4829532616874
 30
0.0
 42
-0.0013491863
  0
VERTEX
  5
64C2
330
64B4
100
AcDbEntity
  8
10000_Front
  6
Continuous
 62
     7
370
    13
100
AcDbVertex
100
AcDb2dVertex
 10
140.6589516319322
 20
204.4833932616874
 30
0.0
 42
-0.0014458064
 70
     1
  0
VERTEX
  5
64C3
330
64B4
100
AcDbEntity
  8
10000_Front
  6
Continuous
 62
     7
370
    13
100
AcDbVertex
100
AcDb2dVertex
 10
140.6505176319322
 20
204.4838632616873
 30
0.0
 42
-0.0015270018
  0
VERTEX
  5
64C4
330
64B4
100
AcDbEntity
  8
10000_Front
  6
Continuous
 62
     7
370
    13
100
AcDbVertex
100
AcDb2dVertex
 10
140.6426806319322
 20
204.4843532616873
 30
0.0
 42
-0.0019315386
 70
     1
  0
VERTEX
  5
64C5
330
64B4
100
AcDbEntity
  8
10000_Front
  6
Continuous
 62
     7
370
    13
100
AcDbVertex
100
AcDb2dVertex
 10
140.6353906319322
 20
204.4848732616874
 30
0.0
 42
-0.0027406301
  0
VERTEX
  5
64C6
330
64B4
100
AcDbEntity
  8
10000_Front
  6
Continuous
 62
     7
370
    13
100
AcDbVertex
100
AcDb2dVertex
 10
140.6286746319322
 20
204.4854232616874
 30
0.0
 42
-0.0025589119
 70
     1
  0
VERTEX
  5
64C7
330
64B4
100
AcDbEntity
  8
10000_Front
  6
Continuous
 62
     7
370
    13
100
AcDbVertex
100
AcDb2dVertex
 10
140.6227136319323
 20
204.4859632616874
 30
0.0
 42
-0.0009450227
  0
VERTEX
  5
64C8
330
64B4
100
AcDbEntity
  8
10000_Front
  6
Continuous
 62
     7
370
    13
100
AcDbVertex
100
AcDb2dVertex
 10
140.6176186319322
 20
204.4864632616874
 30
0.0
 42
-0.0046320996
 70
     1
  0
VERTEX
  5
64C9
330
64B4
100
AcDbEntity
  8
10000_Front
  6
Continuous
 62
     7
370
    13
100
AcDbVertex
100
AcDb2dVertex
 10
140.6126546319323
 20
204.4871332616873
 30
0.0
 42
-0.013837656
  0
VERTEX
  5
64CA
330
64B4
100
AcDbEntity
  8
10000_Front
  6
Continuous
 62
     7
370
    13
100
AcDbVertex
100
AcDb2dVertex
 10
140.6070996319322
 20
204.4882132616874
 30
0.0
 42
-0.012669365
 70
     1
  0
VERTEX
  5
64CB
330
64B4
100
AcDbEntity
  8
10000_Front
  6
Continuous
 62
     7
370
    13
100
AcDbVertex
100
AcDb2dVertex
 10
140.6010736319322
 20
204.4896632616873
 30
0.0
 42
-0.0095779182
  0
SEQEND
  5
64CC
330
64B4
100
AcDbEntity
  8
10000_Front
  6
Continuous
 62
     7
370
    13
  0
ARC
  5
64CD
330
1F
100
AcDbEntity
  8
10000_Front
  6
Continuous
 62
     7
370
    13
100
AcDbCircle
 10
143.3031486319323
 20
205.0873232616874
 30
0.0
 40
2.8548252
100
AcDbArc
 50
168.8921600000005
 51
191.1078399999994
  0
POLYLINE
  5
64CE
330
1F
100
AcDbEntity
  8
10000_Front
  6
Continuous
 62
     7
370
    13
100
AcDb2dPolyline
 66
     1
 10
0.0
 20
0.0
 30
0.0
 70
     2
  0
VERTEX
  5
64CF
330
64CE
100
AcDbEntity
  8
10000_Front
  6
Continuous
 62
     7
370
    13
100
AcDbVertex
100
AcDb2dVertex
 10
140.5018006319322
 20
205.6373232616873
 30
0.0
  0
VERTEX
  5
64D0
330
64CE
100
AcDbEntity
  8
10000_Front
  6
Continuous
 62
     7
370
    13
100
AcDbVertex
100
AcDb2dVertex
 10
140.5101616319322
 20
205.6413632616873
 30
0.0
 42
-0.0001311091
 70
     1
  0
VERTEX
  5
64D1
330
64CE
100
AcDbEntity
  8
10000_Front
  6
Continuous
 62
     7
370
    13
100
AcDbVertex
100
AcDb2dVertex
 10
140.5184846319322
 20
205.6453832616873
 30
0.0
 42
-0.0001203841
  0
VERTEX
  5
64D2
330
64CE
100
AcDbEntity
  8
10000_Front
  6
Continuous
 62
     7
370
    13
100
AcDbVertex
100
AcDb2dVertex
 10
140.5267406319323
 20
205.6493632616874
 30
0.0
 42
-0.00013268
 70
     1
  0
VERTEX
  5
64D3
330
64CE
100
AcDbEntity
  8
10000_Front
  6
Continuous
 62
     7
370
    13
100
AcDbVertex
100
AcDb2dVertex
 10
140.5351126319323
 20
205.6534032616873
 30
0.0
 42
-0.0001595094
  0
VERTEX
  5
64D4
330
64CE
100
AcDbEntity
  8
10000_Front
  6
Continuous
 62
     7
370
    13
100
AcDbVertex
100
AcDb2dVertex
 10
140.5436646319322
 20
205.6575132616873
 30
0.0
 42
-0.000121734
 70
     1
  0
VERTEX
  5
64D5
330
64CE
100
AcDbEntity
  8
10000_Front
  6
Continuous
 62
     7
370
    13
100
AcDbVertex
100
AcDb2dVertex
 10
140.5516856319323
 20
205.6613732616874
 30
0.0
 42
-0.000041874
  0
VERTEX
  5
64D6
330
64CE
100
AcDbEntity
  8
10000_Front
  6
Continuous
 62
     7
370
    13
100
AcDbVertex
100
AcDb2dVertex
 10
140.5589306319322
 20
205.6648532616874
 30
0.0
 42
-0.000172283
 70
     1
  0
VERTEX
  5
64D7
330
64CE
100
AcDbEntity
  8
10000_Front
  6
Continuous
 62
     7
370
    13
100
AcDbVertex
100
AcDb2dVertex
 10
140.5682036319322
 20
205.6692932616873
 30
0.0
 42
-0.0002987277
  0
VERTEX
  5
64D8
330
64CE
100
AcDbEntity
  8
10000_Front
  6
Continuous
 62
     7
370
    13
100
AcDbVertex
100
AcDb2dVertex
 10
140.5824466319322
 20
205.6760932616874
 30
0.0
 42
-0.0001470408
 70
     1
  0
VERTEX
  5
64D9
330
64CE
100
AcDbEntity
  8
10000_Front
  6
Continuous
 62
     7
370
    13
100
AcDbVertex
100
AcDb2dVertex
 10
140.6010736319322
 20
205.6849932616874
 30
0.0
 42
-0.0000781619
  0
SEQEND
  5
64DA
330
64CE
100
AcDbEntity
  8
10000_Front
  6
Continuous
 62
     7
370
    13
  0
POLYLINE
  5
64DB
330
1F
100
AcDbEntity
  8
10000_Front
  6
Continuous
 62
     7
370
    13
100
AcDb2dPolyline
 66
     1
 10
0.0
 20
0.0
 30
0.0
 70
     2
  0
VERTEX
  5
64DC
330
64DB
100
AcDbEntity
  8
10000_Front
  6
Continuous
 62
     7
370
    13
100
AcDbVertex
100
AcDb2dVertex
 10
146.0052436319323
 20
205.6849932616874
 30
0.0
  0
VERTEX
  5
64DD
330
64DB
100
AcDbEntity
  8
10000_Front
  6
Continuous
 62
     7
370
    13
100
AcDbVertex
100
AcDb2dVertex
 10
146.0134496319323
 20
205.6810732616874
 30
0.0
 42
-0.00013637
 70
     1
  0
VERTEX
  5
64DE
330
64DB
100
AcDbEntity
  8
10000_Front
  6
Continuous
 62
     7
370
    13
100
AcDbVertex
100
AcDb2dVertex
 10
146.0216446319322
 20
205.6771632616874
 30
0.0
 42
-0.0001243022
  0
VERTEX
  5
64DF
330
64DB
100
AcDbEntity
  8
10000_Front
  6
Continuous
 62
     7
370
    13
100
AcDbVertex
100
AcDb2dVertex
 10
146.0298006319323
 20
205.6732632616873
 30
0.0
 42
-0.000135982
 70
     1
  0
VERTEX
  5
64E0
330
64DB
100
AcDbEntity
  8
10000_Front
  6
Continuous
 62
     7
370
    13
100
AcDbVertex
100
AcDb2dVertex
 10
146.0381006319322
 20
205.6692932616873
 30
0.0
 42
-0.0001620967
  0
VERTEX
  5
64E1
330
64DB
100
AcDbEntity
  8
10000_Front
  6
Continuous
 62
     7
370
    13
100
AcDbVertex
100
AcDb2dVertex
 10
146.0466126319323
 20
205.6652132616873
 30
0.0
 42
-0.000122606
 70
     1
  0
VERTEX
  5
64E2
330
64DB
100
AcDbEntity
  8
10000_Front
  6
Continuous
 62
     7
370
    13
100
AcDbVertex
100
AcDb2dVertex
 10
146.0546126319323
 20
205.6613732616874
 30
0.0
 42
-0.0000419782
  0
VERTEX
  5
64E3
330
64DB
100
AcDbEntity
  8
10000_Front
  6
Continuous
 62
     7
370
    13
100
AcDbVertex
100
AcDb2dVertex
 10
146.0618516319322
 20
205.6578932616874
 30
0.0
 42
-0.0001719739
 70
     1
  0
VERTEX
  5
64E4
330
64DB
100
AcDbEntity
  8
10000_Front
  6
Continuous
 62
     7
370
    13
100
AcDbVertex
100
AcDb2dVertex
 10
146.0711796319322
 20
205.6534032616873
 30
0.0
 42
-0.0002937497
  0
VERTEX
  5
64E5
330
64DB
100
AcDbEntity
  8
10000_Front
  6
Continuous
 62
     7
370
    13
100
AcDbVertex
100
AcDb2dVertex
 10
146.0855876319323
 20
205.6464432616874
 30
0.0
 42
-0.0001426894
 70
     1
  0
VERTEX
  5
64E6
330
64DB
100
AcDbEntity
  8
10000_Front
  6
Continuous
 62
     7
370
    13
100
AcDbVertex
100
AcDb2dVertex
 10
146.1044796319322
 20
205.6373232616873
 30
0.0
 42
-0.0000753899
  0
SEQEND
  5
64E7
330
64DB
100
AcDbEntity
  8
10000_Front
  6
Continuous
 62
     7
370
    13
  0
ARC
  5
64E8
330
1F
100
AcDbEntity
  8
10000_Front
  6
Continuous
 62
     7
370
    13
100
AcDbCircle
 10
143.3031486319323
 20
205.0873232616874
 30
0.0
 40
2.8548252
100
AcDbArc
 50
348.8921600000006
 51
11.10783999999942
  0
POLYLINE
  5
64E9
330
1F
100
AcDbEntity
  8
10000_Front
  6
Continuous
 62
     7
370
    13
100
AcDb2dPolyline
 66
     1
 10
0.0
 20
0.0
 30
0.0
 70
     2
  0
VERTEX
  5
64EA
330
64E9
100
AcDbEntity
  8
10000_Front
  6
Continuous
 62
     7
370
    13
100
AcDbVertex
100
AcDb2dVertex
 10
146.1044796319322
 20
204.5373332616874
 30
0.0
  0
VERTEX
  5
64EB
330
64E9
100
AcDbEntity
  8
10000_Front
  6
Continuous
 62
     7
370
    13
100
AcDbVertex
100
AcDb2dVertex
 10
146.0961216319322
 20
204.5332932616874
 30
0.0
 42
-0.0001297967
 70
     1
  0
VERTEX
  5
64EC
330
64E9
100
AcDbEntity
  8
10000_Front
  6
Continuous
 62
     7
370
    13
100
AcDbVertex
100
AcDb2dVertex
 10
146.0878026319323
 20
204.5292732616874
 30
0.0
 42
-0.0001191794
  0
VERTEX
  5
64ED
330
64E9
100
AcDbEntity
  8
10000_Front
  6
Continuous
 62
     7
370
    13
100
AcDbVertex
100
AcDb2dVertex
 10
146.0795486319322
 20
204.5252832616873
 30
0.0
 42
-0.0001313526
 70
     1
  0
VERTEX
  5
64EE
330
64E9
100
AcDbEntity
  8
10000_Front
  6
Continuous
 62
     7
370
    13
100
AcDbVertex
100
AcDb2dVertex
 10
146.0711796319322
 20
204.5212532616873
 30
0.0
 42
-0.0001579142
  0
VERTEX
  5
64EF
330
64E9
100
AcDbEntity
  8
10000_Front
  6
Continuous
 62
     7
370
    13
100
AcDbVertex
100
AcDb2dVertex
 10
146.0626316319322
 20
204.5171432616874
 30
0.0
 42
-0.000120517
 70
     1
  0
VERTEX
  5
64F0
330
64E9
100
AcDbEntity
  8
10000_Front
  6
Continuous
 62
     7
370
    13
100
AcDbVertex
100
AcDb2dVertex
 10
146.0546126319323
 20
204.5132832616872
 30
0.0
 42
-0.0000414554
  0
VERTEX
  5
64F1
330
64E9
100
AcDbEntity
  8
10000_Front
  6
Continuous
 62
     7
370
    13
100
AcDbVertex
100
AcDb2dVertex
 10
146.0473706319322
 20
204.5098032616873
 30
0.0
 42
-0.0001705612
 70
     1
  0
VERTEX
  5
64F2
330
64E9
100
AcDbEntity
  8
10000_Front
  6
Continuous
 62
     7
370
    13
100
AcDbVertex
100
AcDb2dVertex
 10
146.0381006319322
 20
204.5053632616874
 30
0.0
 42
-0.0002957442
  0
VERTEX
  5
64F3
330
64E9
100
AcDbEntity
  8
10000_Front
  6
Continuous
 62
     7
370
    13
100
AcDbVertex
100
AcDb2dVertex
 10
146.0238636319322
 20
204.4985532616873
 30
0.0
 42
-0.0001455731
 70
     1
  0
VERTEX
  5
64F4
330
64E9
100
AcDbEntity
  8
10000_Front
  6
Continuous
 62
     7
370
    13
100
AcDbVertex
100
AcDb2dVertex
 10
146.0052436319323
 20
204.4896632616873
 30
0.0
 42
-0.000077382
  0
SEQEND
  5
64F5
330
64E9
100
AcDbEntity
  8
10000_Front
  6
Continuous
 62
     7
370
    13
  0
POLYLINE
  5
64F6
330
1F
100
AcDbEntity
  8
10000_Front
  6
Continuous
 62
     7
370
    13
100
AcDb2dPolyline
 66
     1
 10
0.0
 20
0.0
 30
0.0
 70
     2
  0
VERTEX
  5
64F7
330
64F6
100
AcDbEntity
  8
10000_Front
  6
Continuous
 62
     7
370
    13
100
AcDbVertex
100
AcDb2dVertex
 10
140.6010736319322
 20
204.4896632616873
 30
0.0
  0
VERTEX
  5
64F8
330
64F6
100
AcDbEntity
  8
10000_Front
  6
Continuous
 62
     7
370
    13
100
AcDbVertex
100
AcDb2dVertex
 10
140.5928646319322
 20
204.4935732616874
 30
0.0
 42
-0.0001357609
 70
     1
  0
VERTEX
  5
64F9
330
64F6
100
AcDbEntity
  8
10000_Front
  6
Continuous
 62
     7
370
    13
100
AcDbVertex
100
AcDb2dVertex
 10
140.5846666319322
 20
204.4974932616874
 30
0.0
 42
-0.0001237482
  0
VERTEX
  5
64FA
330
64F6
100
AcDbEntity
  8
10000_Front
  6
Continuous
 62
     7
370
    13
100
AcDbVertex
100
AcDb2dVertex
 10
140.5765076319322
 20
204.5013932616874
 30
0.0
 42
-0.0001353774
 70
     1
  0
VERTEX
  5
64FB
330
64F6
100
AcDbEntity
  8
10000_Front
  6
Continuous
 62
     7
370
    13
100
AcDbVertex
100
AcDb2dVertex
 10
140.5682036319322
 20
204.5053632616874
 30
0.0
 42
-0.0001613779
  0
VERTEX
  5
64FC
330
64F6
100
AcDbEntity
  8
10000_Front
  6
Continuous
 62
     7
370
    13
100
AcDbVertex
100
AcDb2dVertex
 10
140.5596886319322
 20
204.5094432616874
 30
0.0
 42
-0.0001220639
 70
     1
  0
VERTEX
  5
64FD
330
64F6
100
AcDbEntity
  8
10000_Front
  6
Continuous
 62
     7
370
    13
100
AcDbVertex
100
AcDb2dVertex
 10
140.5516856319323
 20
204.5132832616872
 30
0.0
 42
-0.0000417929
  0
VERTEX
  5
64FE
330
64F6
100
AcDbEntity
  8
10000_Front
  6
Continuous
 62
     7
370
    13
100
AcDbVertex
100
AcDb2dVertex
 10
140.5444436319323
 20
204.5167632616874
 30
0.0
 42
-0.0001712154
 70
     1
  0
VERTEX
  5
64FF
330
64F6
100
AcDbEntity
  8
10000_Front
  6
Continuous
 62
     7
370
    13
100
AcDbVertex
100
AcDb2dVertex
 10
140.5351126319323
 20
204.5212532616873
 30
0.0
 42
-0.0002924603
  0
VERTEX
  5
6500
330
64F6
100
AcDbEntity
  8
10000_Front
  6
Continuous
 62
     7
370
    13
100
AcDbVertex
100
AcDb2dVertex
 10
140.5206996319322
 20
204.5282032616874
 30
0.0
 42
-0.0001420658
 70
     1
  0
VERTEX
  5
6501
330
64F6
100
AcDbEntity
  8
10000_Front
  6
Continuous
 62
     7
370
    13
100
AcDbVertex
100
AcDb2dVertex
 10
140.5018006319322
 20
204.5373332616874
 30
0.0
 42
-0.000075061
  0
SEQEND
  5
6502
330
64F6
100
AcDbEntity
  8
10000_Front
  6
Continuous
 62
     7
370
    13
  0
LINE
  5
6503
330
1F
100
AcDbEntity
  8
10000_Front
  6
Continuous
 62
     7
370
    13
100
AcDbLine
 10
144.1525846319322
 20
205.6949632616873
 30
0.0
 11
145.7985356319323
 21
205.6949632616873
 31
0.0
  0
LINE
  5
6504
330
1F
100
AcDbEntity
  8
10000_Front
  6
Continuous
 62
     7
370
    13
100
AcDbLine
 10
140.8077456319323
 20
205.6949632616873
 30
0.0
 11
142.4536956319322
 21
205.6949632616873
 31
0.0
  0
LINE
  5
6505
330
1F
100
AcDbEntity
  8
10000_Front
  6
Continuous
 62
     7
370
    13
100
AcDbLine
 10
145.7985356319323
 20
204.4796832616873
 30
0.0
 11
144.1525846319322
 21
204.4796832616873
 31
0.0
  0
LINE
  5
6506
330
1F
100
AcDbEntity
  8
10000_Front
  6
Continuous
 62
     7
370
    13
100
AcDbLine
 10
142.4536956319322
 20
204.4796832616873
 30
0.0
 11
140.8077456319323
 21
204.4796832616873
 31
0.0
  0
CIRCLE
  5
6507
330
1F
100
AcDbEntity
  8
10000_Front
  6
Continuous
 62
     7
370
    13
100
AcDbCircle
 10
143.3031476319323
 20
187.0723272616874
 30
0.0
 40
3.2
  0
LINE
  5
6508
330
1F
100
AcDbEntity
  8
10000_Front
  6
Continuous
 62
     7
370
    13
100
AcDbLine
 10
143.8181486319322
 20
186.3027532616873
 30
0.0
 11
143.8181486319322
 21
186.4835552616873
 31
0.0
  0
LINE
  5
6509
330
1F
100
AcDbEntity
  8
10000_Front
  6
Continuous
 62
     7
370
    13
100
AcDbLine
 10
143.8181486319322
 20
186.3027532616873
 30
0.0
 11
143.8181486319322
 21
185.3104552616873
 31
0.0
  0
LINE
  5
650A
330
1F
100
AcDbEntity
  8
10000_Front
  6
Continuous
 62
     7
370
    13
100
AcDbLine
 10
143.8181486319322
 20
188.8641992616873
 30
0.0
 11
143.8181486319322
 21
187.8719012616873
 31
0.0
  0
LINE
  5
650B
330
1F
100
AcDbEntity
  8
10000_Front
  6
Continuous
 62
     7
370
    13
100
AcDbLine
 10
143.8181486319322
 20
187.8719012616873
 30
0.0
 11
143.8181486319322
 21
187.6910992616874
 31
0.0
  0
LINE
  5
650C
330
1F
100
AcDbEntity
  8
10000_Front
  6
Continuous
 62
     7
370
    13
100
AcDbLine
 10
142.7881486319322
 20
185.3104552616873
 30
0.0
 11
142.7881486319322
 21
186.3027532616873
 31
0.0
  0
LINE
  5
650D
330
1F
100
AcDbEntity
  8
10000_Front
  6
Continuous
 62
     7
370
    13
100
AcDbLine
 10
142.7881486319322
 20
186.3027532616873
 30
0.0
 11
142.7881486319322
 21
186.4835552616873
 31
0.0
  0
LINE
  5
650E
330
1F
100
AcDbEntity
  8
10000_Front
  6
Continuous
 62
     7
370
    13
100
AcDbLine
 10
142.7881486319322
 20
187.8719012616873
 30
0.0
 11
142.7881486319322
 21
187.6910992616874
 31
0.0
  0
LINE
  5
650F
330
1F
100
AcDbEntity
  8
10000_Front
  6
Continuous
 62
     7
370
    13
100
AcDbLine
 10
142.7881486319322
 20
187.8719012616873
 30
0.0
 11
142.7881486319322
 21
188.8641992616873
 31
0.0
  0
ARC
  5
6510
330
1F
100
AcDbEntity
  8
10000_Front
  6
Continuous
 62
     7
370
    13
100
AcDbCircle
 10
143.3031486319323
 20
187.0873272616874
 30
0.0
 40
1.85
100
AcDbArc
 50
253.8365500000006
 51
286.1634499999994
  0
ARC
  5
6511
330
1F
100
AcDbEntity
  8
10000_Front
  6
Continuous
 62
     7
370
    13
100
AcDbCircle
 10
143.3031486319323
 20
187.0873272616874
 30
0.0
 40
1.85
100
AcDbArc
 50
73.83655500000052
 51
106.1634499999994
  0
LINE
  5
6512
330
1F
100
AcDbEntity
  8
10000_Front
  6
Continuous
 62
     7
370
    13
100
AcDbLine
 10
144.1525846319322
 20
186.4796852616873
 30
0.0
 11
143.9057736319323
 21
186.4847302616874
 31
0.0
  0
LINE
  5
6513
330
1F
100
AcDbEntity
  8
10000_Front
  6
Continuous
 62
     7
370
    13
100
AcDbLine
 10
143.8181486319322
 20
186.4835432616873
 30
0.0
 11
143.9057736319323
 21
186.4847302616874
 31
0.0
  0
LINE
  5
6514
330
1F
100
AcDbEntity
  8
10000_Front
  6
Continuous
 62
     7
370
    13
100
AcDbLine
 10
142.4536956319322
 20
187.6949682616874
 30
0.0
 11
142.7005436319322
 21
187.6899232616873
 31
0.0
  0
LINE
  5
6515
330
1F
100
AcDbEntity
  8
10000_Front
  6
Continuous
 62
     7
370
    13
100
AcDbLine
 10
142.7881316319323
 20
187.6911102616873
 30
0.0
 11
142.7005436319322
 21
187.6899232616873
 31
0.0
  0
LINE
  5
6516
330
1F
100
AcDbEntity
  8
10000_Front
  6
Continuous
 62
     7
370
    13
100
AcDbLine
 10
142.7881316319323
 20
186.4835432616873
 30
0.0
 11
142.7005436319322
 21
186.4847302616874
 31
0.0
  0
LINE
  5
6517
330
1F
100
AcDbEntity
  8
10000_Front
  6
Continuous
 62
     7
370
    13
100
AcDbLine
 10
142.4536956319322
 20
186.4796852616873
 30
0.0
 11
142.7005436319322
 21
186.4847302616874
 31
0.0
  0
LINE
  5
6518
330
1F
100
AcDbEntity
  8
10000_Front
  6
Continuous
 62
     7
370
    13
100
AcDbLine
 10
144.1525846319322
 20
187.6949682616874
 30
0.0
 11
143.9057736319323
 21
187.6899232616873
 31
0.0
  0
LINE
  5
6519
330
1F
100
AcDbEntity
  8
10000_Front
  6
Continuous
 62
     7
370
    13
100
AcDbLine
 10
143.8181486319322
 20
187.6911102616873
 30
0.0
 11
143.9057736319323
 21
187.6899232616873
 31
0.0
  0
POLYLINE
  5
651A
330
1F
100
AcDbEntity
  8
10000_Front
  6
Continuous
 62
     7
370
    13
100
AcDb2dPolyline
 66
     1
 10
0.0
 20
0.0
 30
0.0
 70
     2
  0
VERTEX
  5
651B
330
651A
100
AcDbEntity
  8
10000_Front
  6
Continuous
 62
     7
370
    13
100
AcDbVertex
100
AcDb2dVertex
 10
145.7985356319323
 20
187.6949682616874
 30
0.0
  0
VERTEX
  5
651C
330
651A
100
AcDbEntity
  8
10000_Front
  6
Continuous
 62
     7
370
    13
100
AcDbVertex
100
AcDb2dVertex
 10
145.8030426319322
 20
187.6948522616874
 30
0.0
 42
0.0038508766
 70
     1
  0
VERTEX
  5
651D
330
651A
100
AcDbEntity
  8
10000_Front
  6
Continuous
 62
     7
370
    13
100
AcDbVertex
100
AcDb2dVertex
 10
145.8124676319322
 20
187.6946862616873
 30
0.0
 42
0.0011606738
  0
VERTEX
  5
651E
330
651A
100
AcDbEntity
  8
10000_Front
  6
Continuous
 62
     7
370
    13
100
AcDbVertex
100
AcDb2dVertex
 10
145.8274946319322
 20
187.6944632616874
 30
0.0
 42
0.0003189443
 70
     1
  0
VERTEX
  5
651F
330
651A
100
AcDbEntity
  8
10000_Front
  6
Continuous
 62
     7
370
    13
100
AcDbVertex
100
AcDb2dVertex
 10
145.8446246319323
 20
187.6942152616873
 30
0.0
 42
-0.0000971196
  0
VERTEX
  5
6520
330
651A
100
AcDbEntity
  8
10000_Front
  6
Continuous
 62
     7
370
    13
100
AcDbVertex
100
AcDb2dVertex
 10
145.8603476319322
 20
187.6939712616873
 30
0.0
 42
-0.0004008447
 70
     1
  0
VERTEX
  5
6521
330
651A
100
AcDbEntity
  8
10000_Front
  6
Continuous
 62
     7
370
    13
100
AcDbVertex
100
AcDb2dVertex
 10
145.8741776319322
 20
187.6937252616874
 30
0.0
 42
-0.0007659097
  0
VERTEX
  5
6522
330
651A
100
AcDbEntity
  8
10000_Front
  6
Continuous
 62
     7
370
    13
100
AcDbVertex
100
AcDb2dVertex
 10
145.8862576319322
 20
187.6934632616874
 30
0.0
 42
-0.0010613539
 70
     1
  0
VERTEX
  5
6523
330
651A
100
AcDbEntity
  8
10000_Front
  6
Continuous
 62
     7
370
    13
100
AcDbVertex
100
AcDb2dVertex
 10
145.8974016319323
 20
187.6931762616873
 30
0.0
 42
-0.0010059337
  0
VERTEX
  5
6524
330
651A
100
AcDbEntity
  8
10000_Front
  6
Continuous
 62
     7
370
    13
100
AcDbVertex
100
AcDb2dVertex
 10
145.9082896319323
 20
187.6928532616874
 30
0.0
 42
-0.0009403206
 70
     1
  0
VERTEX
  5
6525
330
651A
100
AcDbEntity
  8
10000_Front
  6
Continuous
 62
     7
370
    13
100
AcDbVertex
100
AcDb2dVertex
 10
145.9188556319323
 20
187.6924972616873
 30
0.0
 42
-0.001079229
  0
VERTEX
  5
6526
330
651A
100
AcDbEntity
  8
10000_Front
  6
Continuous
 62
     7
370
    13
100
AcDbVertex
100
AcDb2dVertex
 10
145.9288776319322
 20
187.6921122616874
 30
0.0
 42
-0.0012382303
 70
     1
  0
VERTEX
  5
6527
330
651A
100
AcDbEntity
  8
10000_Front
  6
Continuous
 62
     7
370
    13
100
AcDbVertex
100
AcDb2dVertex
 10
145.9383716319323
 20
187.6916992616874
 30
0.0
 42
-0.0013491626
  0
VERTEX
  5
6528
330
651A
100
AcDbEntity
  8
10000_Front
  6
Continuous
 62
     7
370
    13
100
AcDbVertex
100
AcDb2dVertex
 10
145.9473436319322
 20
187.6912562616874
 30
0.0
 42
-0.001445731
 70
     1
  0
VERTEX
  5
6529
330
651A
100
AcDbEntity
  8
10000_Front
  6
Continuous
 62
     7
370
    13
100
AcDbVertex
100
AcDb2dVertex
 10
145.9557786319322
 20
187.6907912616873
 30
0.0
 42
-0.0015268871
  0
VERTEX
  5
652A
330
651A
100
AcDbEntity
  8
10000_Front
  6
Continuous
 62
     7
370
    13
100
AcDbVertex
100
AcDb2dVertex
 10
145.9636166319322
 20
187.6903052616874
 30
0.0
 42
-0.0019313456
 70
     1
  0
VERTEX
  5
652B
330
651A
100
AcDbEntity
  8
10000_Front
  6
Continuous
 62
     7
370
    13
100
AcDbVertex
100
AcDb2dVertex
 10
145.9709076319323
 20
187.6897852616873
 30
0.0
 42
-0.0027402026
  0
VERTEX
  5
652C
330
651A
100
AcDbEntity
  8
10000_Front
  6
Continuous
 62
     7
370
    13
100
AcDbVertex
100
AcDb2dVertex
 10
145.9776256319322
 20
187.6892282616874
 30
0.0
 42
-0.0025582299
 70
     1
  0
VERTEX
  5
652D
330
651A
100
AcDbEntity
  8
10000_Front
  6
Continuous
 62
     7
370
    13
100
AcDbVertex
100
AcDb2dVertex
 10
145.9835886319322
 20
187.6886922616874
 30
0.0
 42
-0.0009446601
  0
VERTEX
  5
652E
330
651A
100
AcDbEntity
  8
10000_Front
  6
Continuous
 62
     7
370
    13
100
AcDbVertex
100
AcDb2dVertex
 10
145.9886846319323
 20
187.6881952616874
 30
0.0
 42
-0.004630336
 70
     1
  0
VERTEX
  5
652F
330
651A
100
AcDbEntity
  8
10000_Front
  6
Continuous
 62
     7
370
    13
100
AcDbVertex
100
AcDb2dVertex
 10
145.9936516319323
 20
187.6875212616873
 30
0.0
 42
-0.013827015
  0
VERTEX
  5
6530
330
651A
100
AcDbEntity
  8
10000_Front
  6
Continuous
 62
     7
370
    13
100
AcDbVertex
100
AcDb2dVertex
 10
145.9992116319322
 20
187.6864362616874
 30
0.0
 42
-0.012651874
 70
     1
  0
VERTEX
  5
6531
330
651A
100
AcDbEntity
  8
10000_Front
  6
Continuous
 62
     7
370
    13
100
AcDbVertex
100
AcDb2dVertex
 10
146.0052436319323
 20
187.6849892616874
 30
0.0
 42
-0.0095604393
  0
SEQEND
  5
6532
330
651A
100
AcDbEntity
  8
10000_Front
  6
Continuous
 62
     7
370
    13
  0
POLYLINE
  5
6533
330
1F
100
AcDbEntity
  8
10000_Front
  6
Continuous
 62
     7
370
    13
100
AcDb2dPolyline
 66
     1
 10
0.0
 20
0.0
 30
0.0
 70
     2
  0
VERTEX
  5
6534
330
6533
100
AcDbEntity
  8
10000_Front
  6
Continuous
 62
     7
370
    13
100
AcDbVertex
100
AcDb2dVertex
 10
140.6010736319322
 20
187.6849892616874
 30
0.0
  0
VERTEX
  5
6535
330
6533
100
AcDbEntity
  8
10000_Front
  6
Continuous
 62
     7
370
    13
100
AcDbVertex
100
AcDb2dVertex
 10
140.6029096319322
 20
187.6856512616874
 30
0.0
 42
-0.036487136
 70
     1
  0
VERTEX
  5
6536
330
6533
100
AcDbEntity
  8
10000_Front
  6
Continuous
 62
     7
370
    13
100
AcDbVertex
100
AcDb2dVertex
 10
140.6055426319323
 20
187.6863052616874
 30
0.0
 42
-0.018832206
  0
VERTEX
  5
6537
330
6533
100
AcDbEntity
  8
10000_Front
  6
Continuous
 62
     7
370
    13
100
AcDbVertex
100
AcDb2dVertex
 10
140.6090066319323
 20
187.6869502616873
 30
0.0
 42
-0.011147392
 70
     1
  0
VERTEX
  5
6538
330
6533
100
AcDbEntity
  8
10000_Front
  6
Continuous
 62
     7
370
    13
100
AcDbVertex
100
AcDb2dVertex
 10
140.6132576319322
 20
187.6875852616874
 30
0.0
 42
-0.007533884
  0
VERTEX
  5
6539
330
6533
100
AcDbEntity
  8
10000_Front
  6
Continuous
 62
     7
370
    13
100
AcDbVertex
100
AcDb2dVertex
 10
140.6183086319322
 20
187.6882052616873
 30
0.0
 42
-0.0053542054
 70
     1
  0
VERTEX
  5
653A
330
6533
100
AcDbEntity
  8
10000_Front
  6
Continuous
 62
     7
370
    13
100
AcDbVertex
100
AcDb2dVertex
 10
140.6240876319323
 20
187.6888082616873
 30
0.0
 42
-0.0040565491
  0
VERTEX
  5
653B
330
6533
100
AcDbEntity
  8
10000_Front
  6
Continuous
 62
     7
370
    13
100
AcDbVertex
100
AcDb2dVertex
 10
140.6305786319323
 20
187.6893882616874
 30
0.0
 42
-0.003162099
 70
     1
  0
VERTEX
  5
653C
330
6533
100
AcDbEntity
  8
10000_Front
  6
Continuous
 62
     7
370
    13
100
AcDbVertex
100
AcDb2dVertex
 10
140.6377116319323
 20
187.6899462616874
 30
0.0
 42
-0.0025293618
  0
VERTEX
  5
653D
330
6533
100
AcDbEntity
  8
10000_Front
  6
Continuous
 62
     7
370
    13
100
AcDbVertex
100
AcDb2dVertex
 10
140.6454696319322
 20
187.6904802616873
 30
0.0
 42
-0.0020755614
 70
     1
  0
VERTEX
  5
653E
330
6533
100
AcDbEntity
  8
10000_Front
  6
Continuous
 62
     7
370
    13
100
AcDbVertex
100
AcDb2dVertex
 10
140.6537856319323
 20
187.6909892616874
 30
0.0
 42
-0.001750612
  0
VERTEX
  5
653F
330
6533
100
AcDbEntity
  8
10000_Front
  6
Continuous
 62
     7
370
    13
100
AcDbVertex
100
AcDb2dVertex
 10
140.6626396319323
 20
187.6914722616873
 30
0.0
 42
-0.0015212936
 70
     1
  0
VERTEX
  5
6540
330
6533
100
AcDbEntity
  8
10000_Front
  6
Continuous
 62
     7
370
    13
100
AcDbVertex
100
AcDb2dVertex
 10
140.6719876319322
 20
187.6919292616874
 30
0.0
 42
-0.0013605832
  0
VERTEX
  5
6541
330
6533
100
AcDbEntity
  8
10000_Front
  6
Continuous
 62
     7
370
    13
100
AcDbVertex
100
AcDb2dVertex
 10
140.6818136319323
 20
187.6923582616874
 30
0.0
 42
-0.0011828707
 70
     1
  0
VERTEX
  5
6542
330
6533
100
AcDbEntity
  8
10000_Front
  6
Continuous
 62
     7
370
    13
100
AcDbVertex
100
AcDb2dVertex
 10
140.6919926319322
 20
187.6927582616873
 30
0.0
 42
-0.0010103744
  0
VERTEX
  5
6543
330
6533
100
AcDbEntity
  8
10000_Front
  6
Continuous
 62
     7
370
    13
100
AcDbVertex
100
AcDb2dVertex
 10
140.7024776319322
 20
187.6931282616873
 30
0.0
 42
-0.0010215276
 70
     1
  0
VERTEX
  5
6544
330
6533
100
AcDbEntity
  8
10000_Front
  6
Continuous
 62
     7
370
    13
100
AcDbVertex
100
AcDb2dVertex
 10
140.7134786319323
 20
187.6934692616874
 30
0.0
 42
-0.0011249024
  0
VERTEX
  5
6545
330
6533
100
AcDbEntity
  8
10000_Front
  6
Continuous
 62
     7
370
    13
100
AcDbVertex
100
AcDb2dVertex
 10
140.7250576319322
 20
187.6937792616874
 30
0.0
 42
-0.0008062262
 70
     1
  0
VERTEX
  5
6546
330
6533
100
AcDbEntity
  8
10000_Front
  6
Continuous
 62
     7
370
    13
100
AcDbVertex
100
AcDb2dVertex
 10
140.7361196319322
 20
187.6940522616873
 30
0.0
 42
-0.0002692056
  0
VERTEX
  5
6547
330
6533
100
AcDbEntity
  8
10000_Front
  6
Continuous
 62
     7
370
    13
100
AcDbVertex
100
AcDb2dVertex
 10
140.7462756319323
 20
187.6942842616873
 30
0.0
 42
-0.0010732602
 70
     1
  0
VERTEX
  5
6548
330
6533
100
AcDbEntity
  8
10000_Front
  6
Continuous
 62
     7
370
    13
100
AcDbVertex
100
AcDb2dVertex
 10
140.7595946319322
 20
187.6945022616873
 30
0.0
 42
-0.0017845229
  0
VERTEX
  5
6549
330
6533
100
AcDbEntity
  8
10000_Front
  6
Continuous
 62
     7
370
    13
100
AcDbVertex
100
AcDb2dVertex
 10
140.7803706319322
 20
187.6947312616873
 30
0.0
 42
-0.0008521871
 70
     1
  0
VERTEX
  5
654A
330
6533
100
AcDbEntity
  8
10000_Front
  6
Continuous
 62
     7
370
    13
100
AcDbVertex
100
AcDb2dVertex
 10
140.8077456319323
 20
187.6949682616874
 30
0.0
 42
-0.0004433138
  0
SEQEND
  5
654B
330
6533
100
AcDbEntity
  8
10000_Front
  6
Continuous
 62
     7
370
    13
  0
POLYLINE
  5
654C
330
1F
100
AcDbEntity
  8
10000_Front
  6
Continuous
 62
     7
370
    13
100
AcDb2dPolyline
 66
     1
 10
0.0
 20
0.0
 30
0.0
 70
     2
  0
VERTEX
  5
654D
330
654C
100
AcDbEntity
  8
10000_Front
  6
Continuous
 62
     7
370
    13
100
AcDbVertex
100
AcDb2dVertex
 10
146.0052436319323
 20
186.4896642616874
 30
0.0
  0
VERTEX
  5
654E
330
654C
100
AcDbEntity
  8
10000_Front
  6
Continuous
 62
     7
370
    13
100
AcDbVertex
100
AcDb2dVertex
 10
146.0033986319323
 20
186.4890022616873
 30
0.0
 42
-0.036011386
 70
     1
  0
VERTEX
  5
654F
330
654C
100
AcDbEntity
  8
10000_Front
  6
Continuous
 62
     7
370
    13
100
AcDbVertex
100
AcDb2dVertex
 10
146.0007596319323
 20
186.4883492616874
 30
0.0
 42
-0.018652249
  0
VERTEX
  5
6550
330
654C
100
AcDbEntity
  8
10000_Front
  6
Continuous
 62
     7
370
    13
100
AcDbVertex
100
AcDb2dVertex
 10
145.9972926319323
 20
186.4877042616874
 30
0.0
 42
-0.011077222
 70
     1
  0
VERTEX
  5
6551
330
654C
100
AcDbEntity
  8
10000_Front
  6
Continuous
 62
     7
370
    13
100
AcDbVertex
100
AcDb2dVertex
 10
145.9930396319323
 20
186.4870692616873
 30
0.0
 42
-0.0075115637
  0
VERTEX
  5
6552
330
654C
100
AcDbEntity
  8
10000_Front
  6
Continuous
 62
     7
370
    13
100
AcDbVertex
100
AcDb2dVertex
 10
145.9879886319323
 20
186.4864492616874
 30
0.0
 42
-0.0053477907
 70
     1
  0
VERTEX
  5
6553
330
654C
100
AcDbEntity
  8
10000_Front
  6
Continuous
 62
     7
370
    13
100
AcDbVertex
100
AcDb2dVertex
 10
145.9822096319323
 20
186.4858462616873
 30
0.0
 42
-0.0040557149
  0
VERTEX
  5
6554
330
654C
100
AcDbEntity
  8
10000_Front
  6
Continuous
 62
     7
370
    13
100
AcDbVertex
100
AcDb2dVertex
 10
145.9757186319322
 20
186.4852662616873
 30
0.0
 42
-0.0031625092
 70
     1
  0
VERTEX
  5
6555
330
654C
100
AcDbEntity
  8
10000_Front
  6
Continuous
 62
     7
370
    13
100
AcDbVertex
100
AcDb2dVertex
 10
145.9685856319323
 20
186.4847082616874
 30
0.0
 42
-0.002529305
  0
VERTEX
  5
6556
330
654C
100
AcDbEntity
  8
10000_Front
  6
Continuous
 62
     7
370
    13
100
AcDbVertex
100
AcDb2dVertex
 10
145.9608266319322
 20
186.4841742616873
 30
0.0
 42
-0.0020753971
 70
     1
  0
VERTEX
  5
6557
330
654C
100
AcDbEntity
  8
10000_Front
  6
Continuous
 62
     7
370
    13
100
AcDbVertex
100
AcDb2dVertex
 10
145.9525106319323
 20
186.4836652616874
 30
0.0
 42
-0.0017505102
  0
VERTEX
  5
6558
330
654C
100
AcDbEntity
  8
10000_Front
  6
Continuous
 62
     7
370
    13
100
AcDbVertex
100
AcDb2dVertex
 10
145.9436566319322
 20
186.4831822616874
 30
0.0
 42
-0.0015211886
 70
     1
  0
VERTEX
  5
6559
330
654C
100
AcDbEntity
  8
10000_Front
  6
Continuous
 62
     7
370
    13
100
AcDbVertex
100
AcDb2dVertex
 10
145.9343086319322
 20
186.4827252616874
 30
0.0
 42
-0.0013604341
  0
VERTEX
  5
655A
330
654C
100
AcDbEntity
  8
10000_Front
  6
Continuous
 62
     7
370
    13
100
AcDbVertex
100
AcDb2dVertex
 10
145.9244816319323
 20
186.4822962616873
 30
0.0
 42
-0.001182703
 70
     1
  0
VERTEX
  5
655B
330
654C
100
AcDbEntity
  8
10000_Front
  6
Continuous
 62
     7
370
    13
100
AcDbVertex
100
AcDb2dVertex
 10
145.9143016319322
 20
186.4818962616874
 30
0.0
 42
-0.0010102052
  0
VERTEX
  5
655C
330
654C
100
AcDbEntity
  8
10000_Front
  6
Continuous
 62
     7
370
    13
100
AcDbVertex
100
AcDb2dVertex
 10
145.9038166319323
 20
186.4815262616873
 30
0.0
 42
-0.001021308
 70
     1
  0
VERTEX
  5
655D
330
654C
100
AcDbEntity
  8
10000_Front
  6
Continuous
 62
     7
370
    13
100
AcDbVertex
100
AcDb2dVertex
 10
145.8928146319322
 20
186.4811852616873
 30
0.0
 42
-0.0011245849
  0
VERTEX
  5
655E
330
654C
100
AcDbEntity
  8
10000_Front
  6
Continuous
 62
     7
370
    13
100
AcDbVertex
100
AcDb2dVertex
 10
145.8812346319322
 20
186.4808752616874
 30
0.0
 42
-0.000805977
 70
     1
  0
VERTEX
  5
655F
330
654C
100
AcDbEntity
  8
10000_Front
  6
Continuous
 62
     7
370
    13
100
AcDbVertex
100
AcDb2dVertex
 10
145.8701716319323
 20
186.4806012616873
 30
0.0
 42
-0.0002691632
  0
VERTEX
  5
6560
330
654C
100
AcDbEntity
  8
10000_Front
  6
Continuous
 62
     7
370
    13
100
AcDbVertex
100
AcDb2dVertex
 10
145.8600146319322
 20
186.4803692616874
 30
0.0
 42
-0.0010728189
 70
     1
  0
VERTEX
  5
6561
330
654C
100
AcDbEntity
  8
10000_Front
  6
Continuous
 62
     7
370
    13
100
AcDbVertex
100
AcDb2dVertex
 10
145.8466946319322
 20
186.4801512616873
 30
0.0
 42
-0.0017835729
  0
VERTEX
  5
6562
330
654C
100
AcDbEntity
  8
10000_Front
  6
Continuous
 62
     7
370
    13
100
AcDbVertex
100
AcDb2dVertex
 10
145.8259146319323
 20
186.4799222616873
 30
0.0
 42
-0.0008516812
 70
     1
  0
VERTEX
  5
6563
330
654C
100
AcDbEntity
  8
10000_Front
  6
Continuous
 62
     7
370
    13
100
AcDbVertex
100
AcDb2dVertex
 10
145.7985356319323
 20
186.4796852616873
 30
0.0
 42
-0.000443047
  0
SEQEND
  5
6564
330
654C
100
AcDbEntity
  8
10000_Front
  6
Continuous
 62
     7
370
    13
  0
POLYLINE
  5
6565
330
1F
100
AcDbEntity
  8
10000_Front
  6
Continuous
 62
     7
370
    13
100
AcDb2dPolyline
 66
     1
 10
0.0
 20
0.0
 30
0.0
 70
     2
  0
VERTEX
  5
6566
330
6565
100
AcDbEntity
  8
10000_Front
  6
Continuous
 62
     7
370
    13
100
AcDbVertex
100
AcDb2dVertex
 10
140.8077456319323
 20
186.4796852616873
 30
0.0
  0
VERTEX
  5
6567
330
6565
100
AcDbEntity
  8
10000_Front
  6
Continuous
 62
     7
370
    13
100
AcDbVertex
100
AcDb2dVertex
 10
140.8032426319323
 20
186.4798012616874
 30
0.0
 42
0.0039134466
 70
     1
  0
VERTEX
  5
6568
330
6565
100
AcDbEntity
  8
10000_Front
  6
Continuous
 62
     7
370
    13
100
AcDbVertex
100
AcDb2dVertex
 10
140.7938206319322
 20
186.4799682616873
 30
0.0
 42
0.0011760871
  0
VERTEX
  5
6569
330
6565
100
AcDbEntity
  8
10000_Front
  6
Continuous
 62
     7
370
    13
100
AcDbVertex
100
AcDb2dVertex
 10
140.7787946319323
 20
186.4801912616874
 30
0.0
 42
0.0003236504
 70
     1
  0
VERTEX
  5
656A
330
6565
100
AcDbEntity
  8
10000_Front
  6
Continuous
 62
     7
370
    13
100
AcDbVertex
100
AcDb2dVertex
 10
140.7616646319322
 20
186.4804392616873
 30
0.0
 42
-0.0000956408
  0
VERTEX
  5
656B
330
6565
100
AcDbEntity
  8
10000_Front
  6
Continuous
 62
     7
370
    13
100
AcDbVertex
100
AcDb2dVertex
 10
140.7459426319323
 20
186.4806832616874
 30
0.0
 42
-0.00040037
 70
     1
  0
VERTEX
  5
656C
330
6565
100
AcDbEntity
  8
10000_Front
  6
Continuous
 62
     7
370
    13
100
AcDbVertex
100
AcDb2dVertex
 10
140.7321136319323
 20
186.4809292616874
 30
0.0
 42
-0.0007660016
  0
VERTEX
  5
656D
330
6565
100
AcDbEntity
  8
10000_Front
  6
Continuous
 62
     7
370
    13
100
AcDbVertex
100
AcDb2dVertex
 10
140.7200346319323
 20
186.4811912616874
 30
0.0
 42
-0.0010615138
 70
     1
  0
VERTEX
  5
656E
330
6565
100
AcDbEntity
  8
10000_Front
  6
Continuous
 62
     7
370
    13
100
AcDbVertex
100
AcDb2dVertex
 10
140.7088906319322
 20
186.4814782616873
 30
0.0
 42
-0.0010059452
  0
VERTEX
  5
656F
330
6565
100
AcDbEntity
  8
10000_Front
  6
Continuous
 62
     7
370
    13
100
AcDbVertex
100
AcDb2dVertex
 10
140.6980036319323
 20
186.4818012616874
 30
0.0
 42
-0.0009403787
 70
     1
  0
VERTEX
  5
6570
330
6565
100
AcDbEntity
  8
10000_Front
  6
Continuous
 62
     7
370
    13
100
AcDbVertex
100
AcDb2dVertex
 10
140.6874376319322
 20
186.4821572616873
 30
0.0
 42
-0.001079265
  0
VERTEX
  5
6571
330
6565
100
AcDbEntity
  8
10000_Front
  6
Continuous
 62
     7
370
    13
100
AcDbVertex
100
AcDb2dVertex
 10
140.6774166319322
 20
186.4825422616874
 30
0.0
 42
-0.0012382332
 70
     1
  0
VERTEX
  5
6572
330
6565
100
AcDbEntity
  8
10000_Front
  6
Continuous
 62
     7
370
    13
100
AcDbVertex
100
AcDb2dVertex
 10
140.6679226319322
 20
186.4829552616874
 30
0.0
 42
-0.0013491863
  0
VERTEX
  5
6573
330
6565
100
AcDbEntity
  8
10000_Front
  6
Continuous
 62
     7
370
    13
100
AcDbVertex
100
AcDb2dVertex
 10
140.6589516319322
 20
186.4833982616874
 30
0.0
 42
-0.0014458064
 70
     1
  0
VERTEX
  5
6574
330
6565
100
AcDbEntity
  8
10000_Front
  6
Continuous
 62
     7
370
    13
100
AcDbVertex
100
AcDb2dVertex
 10
140.6505176319322
 20
186.4838632616873
 30
0.0
 42
-0.0015270018
  0
VERTEX
  5
6575
330
6565
100
AcDbEntity
  8
10000_Front
  6
Continuous
 62
     7
370
    13
100
AcDbVertex
100
AcDb2dVertex
 10
140.6426806319322
 20
186.4843492616874
 30
0.0
 42
-0.0019315386
 70
     1
  0
VERTEX
  5
6576
330
6565
100
AcDbEntity
  8
10000_Front
  6
Continuous
 62
     7
370
    13
100
AcDbVertex
100
AcDb2dVertex
 10
140.6353906319322
 20
186.4848692616874
 30
0.0
 42
-0.0027406301
  0
VERTEX
  5
6577
330
6565
100
AcDbEntity
  8
10000_Front
  6
Continuous
 62
     7
370
    13
100
AcDbVertex
100
AcDb2dVertex
 10
140.6286746319322
 20
186.4854262616874
 30
0.0
 42
-0.0025589119
 70
     1
  0
VERTEX
  5
6578
330
6565
100
AcDbEntity
  8
10000_Front
  6
Continuous
 62
     7
370
    13
100
AcDbVertex
100
AcDb2dVertex
 10
140.6227136319323
 20
186.4859622616874
 30
0.0
 42
-0.0009450227
  0
VERTEX
  5
6579
330
6565
100
AcDbEntity
  8
10000_Front
  6
Continuous
 62
     7
370
    13
100
AcDbVertex
100
AcDb2dVertex
 10
140.6176186319322
 20
186.4864582616874
 30
0.0
 42
-0.0046320996
 70
     1
  0
VERTEX
  5
657A
330
6565
100
AcDbEntity
  8
10000_Front
  6
Continuous
 62
     7
370
    13
100
AcDbVertex
100
AcDb2dVertex
 10
140.6126546319323
 20
186.4871332616873
 30
0.0
 42
-0.013837656
  0
VERTEX
  5
657B
330
6565
100
AcDbEntity
  8
10000_Front
  6
Continuous
 62
     7
370
    13
100
AcDbVertex
100
AcDb2dVertex
 10
140.6070996319322
 20
186.4882172616874
 30
0.0
 42
-0.012669365
 70
     1
  0
VERTEX
  5
657C
330
6565
100
AcDbEntity
  8
10000_Front
  6
Continuous
 62
     7
370
    13
100
AcDbVertex
100
AcDb2dVertex
 10
140.6010736319322
 20
186.4896642616874
 30
0.0
 42
-0.0095779182
  0
SEQEND
  5
657D
330
6565
100
AcDbEntity
  8
10000_Front
  6
Continuous
 62
     7
370
    13
  0
ARC
  5
657E
330
1F
100
AcDbEntity
  8
10000_Front
  6
Continuous
 62
     7
370
    13
100
AcDbCircle
 10
143.3031486319323
 20
187.0873272616874
 30
0.0
 40
2.8548252
100
AcDbArc
 50
168.8921600000005
 51
191.1078399999994
  0
POLYLINE
  5
657F
330
1F
100
AcDbEntity
  8
10000_Front
  6
Continuous
 62
     7
370
    13
100
AcDb2dPolyline
 66
     1
 10
0.0
 20
0.0
 30
0.0
 70
     2
  0
VERTEX
  5
6580
330
657F
100
AcDbEntity
  8
10000_Front
  6
Continuous
 62
     7
370
    13
100
AcDbVertex
100
AcDb2dVertex
 10
140.5018006319322
 20
187.6373182616873
 30
0.0
  0
VERTEX
  5
6581
330
657F
100
AcDbEntity
  8
10000_Front
  6
Continuous
 62
     7
370
    13
100
AcDbVertex
100
AcDb2dVertex
 10
140.5101616319322
 20
187.6413632616874
 30
0.0
 42
-0.0001311091
 70
     1
  0
VERTEX
  5
6582
330
657F
100
AcDbEntity
  8
10000_Front
  6
Continuous
 62
     7
370
    13
100
AcDbVertex
100
AcDb2dVertex
 10
140.5184846319322
 20
187.6453842616873
 30
0.0
 42
-0.0001203841
  0
VERTEX
  5
6583
330
657F
100
AcDbEntity
  8
10000_Front
  6
Continuous
 62
     7
370
    13
100
AcDbVertex
100
AcDb2dVertex
 10
140.5267406319323
 20
187.6493672616873
 30
0.0
 42
-0.00013268
 70
     1
  0
VERTEX
  5
6584
330
657F
100
AcDbEntity
  8
10000_Front
  6
Continuous
 62
     7
370
    13
100
AcDbVertex
100
AcDb2dVertex
 10
140.5351126319323
 20
187.6534012616873
 30
0.0
 42
-0.0001595094
  0
VERTEX
  5
6585
330
657F
100
AcDbEntity
  8
10000_Front
  6
Continuous
 62
     7
370
    13
100
AcDbVertex
100
AcDb2dVertex
 10
140.5436646319322
 20
187.6575152616873
 30
0.0
 42
-0.000121734
 70
     1
  0
VERTEX
  5
6586
330
657F
100
AcDbEntity
  8
10000_Front
  6
Continuous
 62
     7
370
    13
100
AcDbVertex
100
AcDb2dVertex
 10
140.5516856319323
 20
187.6613702616873
 30
0.0
 42
-0.000041874
  0
VERTEX
  5
6587
330
657F
100
AcDbEntity
  8
10000_Front
  6
Continuous
 62
     7
370
    13
100
AcDbVertex
100
AcDb2dVertex
 10
140.5589306319322
 20
187.6648492616874
 30
0.0
 42
-0.000172283
 70
     1
  0
VERTEX
  5
6588
330
657F
100
AcDbEntity
  8
10000_Front
  6
Continuous
 62
     7
370
    13
100
AcDbVertex
100
AcDb2dVertex
 10
140.5682036319322
 20
187.6692912616873
 30
0.0
 42
-0.0002987277
  0
VERTEX
  5
6589
330
657F
100
AcDbEntity
  8
10000_Front
  6
Continuous
 62
     7
370
    13
100
AcDbVertex
100
AcDb2dVertex
 10
140.5824466319322
 20
187.6760972616873
 30
0.0
 42
-0.0001470408
 70
     1
  0
VERTEX
  5
658A
330
657F
100
AcDbEntity
  8
10000_Front
  6
Continuous
 62
     7
370
    13
100
AcDbVertex
100
AcDb2dVertex
 10
140.6010736319322
 20
187.6849892616874
 30
0.0
 42
-0.0000781619
  0
SEQEND
  5
658B
330
657F
100
AcDbEntity
  8
10000_Front
  6
Continuous
 62
     7
370
    13
  0
POLYLINE
  5
658C
330
1F
100
AcDbEntity
  8
10000_Front
  6
Continuous
 62
     7
370
    13
100
AcDb2dPolyline
 66
     1
 10
0.0
 20
0.0
 30
0.0
 70
     2
  0
VERTEX
  5
658D
330
658C
100
AcDbEntity
  8
10000_Front
  6
Continuous
 62
     7
370
    13
100
AcDbVertex
100
AcDb2dVertex
 10
146.0052436319323
 20
187.6849892616874
 30
0.0
  0
VERTEX
  5
658E
330
658C
100
AcDbEntity
  8
10000_Front
  6
Continuous
 62
     7
370
    13
100
AcDbVertex
100
AcDb2dVertex
 10
146.0134496319323
 20
187.6810762616874
 30
0.0
 42
-0.00013637
 70
     1
  0
VERTEX
  5
658F
330
658C
100
AcDbEntity
  8
10000_Front
  6
Continuous
 62
     7
370
    13
100
AcDbVertex
100
AcDb2dVertex
 10
146.0216446319322
 20
187.6771642616874
 30
0.0
 42
-0.0001243022
  0
VERTEX
  5
6590
330
658C
100
AcDbEntity
  8
10000_Front
  6
Continuous
 62
     7
370
    13
100
AcDbVertex
100
AcDb2dVertex
 10
146.0298006319323
 20
187.6732652616874
 30
0.0
 42
-0.000135982
 70
     1
  0
VERTEX
  5
6591
330
658C
100
AcDbEntity
  8
10000_Front
  6
Continuous
 62
     7
370
    13
100
AcDbVertex
100
AcDb2dVertex
 10
146.0381006319322
 20
187.6692912616873
 30
0.0
 42
-0.0001620967
  0
VERTEX
  5
6592
330
658C
100
AcDbEntity
  8
10000_Front
  6
Continuous
 62
     7
370
    13
100
AcDbVertex
100
AcDb2dVertex
 10
146.0466126319323
 20
187.6652092616874
 30
0.0
 42
-0.000122606
 70
     1
  0
VERTEX
  5
6593
330
658C
100
AcDbEntity
  8
10000_Front
  6
Continuous
 62
     7
370
    13
100
AcDbVertex
100
AcDb2dVertex
 10
146.0546126319323
 20
187.6613702616873
 30
0.0
 42
-0.0000419782
  0
VERTEX
  5
6594
330
658C
100
AcDbEntity
  8
10000_Front
  6
Continuous
 62
     7
370
    13
100
AcDbVertex
100
AcDb2dVertex
 10
146.0618516319322
 20
187.6578932616873
 30
0.0
 42
-0.0001719739
 70
     1
  0
VERTEX
  5
6595
330
658C
100
AcDbEntity
  8
10000_Front
  6
Continuous
 62
     7
370
    13
100
AcDbVertex
100
AcDb2dVertex
 10
146.0711796319322
 20
187.6534012616873
 30
0.0
 42
-0.0002937497
  0
VERTEX
  5
6596
330
658C
100
AcDbEntity
  8
10000_Front
  6
Continuous
 62
     7
370
    13
100
AcDbVertex
100
AcDb2dVertex
 10
146.0855876319323
 20
187.6464472616874
 30
0.0
 42
-0.0001426894
 70
     1
  0
VERTEX
  5
6597
330
658C
100
AcDbEntity
  8
10000_Front
  6
Continuous
 62
     7
370
    13
100
AcDbVertex
100
AcDb2dVertex
 10
146.1044796319322
 20
187.6373182616873
 30
0.0
 42
-0.0000753899
  0
SEQEND
  5
6598
330
658C
100
AcDbEntity
  8
10000_Front
  6
Continuous
 62
     7
370
    13
  0
ARC
  5
6599
330
1F
100
AcDbEntity
  8
10000_Front
  6
Continuous
 62
     7
370
    13
100
AcDbCircle
 10
143.3031486319323
 20
187.0873272616874
 30
0.0
 40
2.8548252
100
AcDbArc
 50
348.8921600000006
 51
11.10783999999942
  0
POLYLINE
  5
659A
330
1F
100
AcDbEntity
  8
10000_Front
  6
Continuous
 62
     7
370
    13
100
AcDb2dPolyline
 66
     1
 10
0.0
 20
0.0
 30
0.0
 70
     2
  0
VERTEX
  5
659B
330
659A
100
AcDbEntity
  8
10000_Front
  6
Continuous
 62
     7
370
    13
100
AcDbVertex
100
AcDb2dVertex
 10
146.1044796319322
 20
186.5373342616873
 30
0.0
  0
VERTEX
  5
659C
330
659A
100
AcDbEntity
  8
10000_Front
  6
Continuous
 62
     7
370
    13
100
AcDbVertex
100
AcDb2dVertex
 10
146.0961216319322
 20
186.5332902616874
 30
0.0
 42
-0.0001297967
 70
     1
  0
VERTEX
  5
659D
330
659A
100
AcDbEntity
  8
10000_Front
  6
Continuous
 62
     7
370
    13
100
AcDbVertex
100
AcDb2dVertex
 10
146.0878026319323
 20
186.5292692616874
 30
0.0
 42
-0.0001191794
  0
VERTEX
  5
659E
330
659A
100
AcDbEntity
  8
10000_Front
  6
Continuous
 62
     7
370
    13
100
AcDbVertex
100
AcDb2dVertex
 10
146.0795486319322
 20
186.5252862616874
 30
0.0
 42
-0.0001313526
 70
     1
  0
VERTEX
  5
659F
330
659A
100
AcDbEntity
  8
10000_Front
  6
Continuous
 62
     7
370
    13
100
AcDbVertex
100
AcDb2dVertex
 10
146.0711796319322
 20
186.5212522616874
 30
0.0
 42
-0.0001579142
  0
VERTEX
  5
65A0
330
659A
100
AcDbEntity
  8
10000_Front
  6
Continuous
 62
     7
370
    13
100
AcDbVertex
100
AcDb2dVertex
 10
146.0626316319322
 20
186.5171392616873
 30
0.0
 42
-0.000120517
 70
     1
  0
VERTEX
  5
65A1
330
659A
100
AcDbEntity
  8
10000_Front
  6
Continuous
 62
     7
370
    13
100
AcDbVertex
100
AcDb2dVertex
 10
146.0546126319323
 20
186.5132832616873
 30
0.0
 42
-0.0000414554
  0
VERTEX
  5
65A2
330
659A
100
AcDbEntity
  8
10000_Front
  6
Continuous
 62
     7
370
    13
100
AcDbVertex
100
AcDb2dVertex
 10
146.0473706319322
 20
186.5098042616873
 30
0.0
 42
-0.0001705612
 70
     1
  0
VERTEX
  5
65A3
330
659A
100
AcDbEntity
  8
10000_Front
  6
Continuous
 62
     7
370
    13
100
AcDbVertex
100
AcDb2dVertex
 10
146.0381006319322
 20
186.5053622616873
 30
0.0
 42
-0.0002957442
  0
VERTEX
  5
65A4
330
659A
100
AcDbEntity
  8
10000_Front
  6
Continuous
 62
     7
370
    13
100
AcDbVertex
100
AcDb2dVertex
 10
146.0238636319322
 20
186.4985562616874
 30
0.0
 42
-0.0001455731
 70
     1
  0
VERTEX
  5
65A5
330
659A
100
AcDbEntity
  8
10000_Front
  6
Continuous
 62
     7
370
    13
100
AcDbVertex
100
AcDb2dVertex
 10
146.0052436319323
 20
186.4896642616874
 30
0.0
 42
-0.000077382
  0
SEQEND
  5
65A6
330
659A
100
AcDbEntity
  8
10000_Front
  6
Continuous
 62
     7
370
    13
  0
POLYLINE
  5
65A7
330
1F
100
AcDbEntity
  8
10000_Front
  6
Continuous
 62
     7
370
    13
100
AcDb2dPolyline
 66
     1
 10
0.0
 20
0.0
 30
0.0
 70
     2
  0
VERTEX
  5
65A8
330
65A7
100
AcDbEntity
  8
10000_Front
  6
Continuous
 62
     7
370
    13
100
AcDbVertex
100
AcDb2dVertex
 10
140.6010736319322
 20
186.4896642616874
 30
0.0
  0
VERTEX
  5
65A9
330
65A7
100
AcDbEntity
  8
10000_Front
  6
Continuous
 62
     7
370
    13
100
AcDbVertex
100
AcDb2dVertex
 10
140.5928646319322
 20
186.4935772616874
 30
0.0
 42
-0.0001357609
 70
     1
  0
VERTEX
  5
65AA
330
65A7
100
AcDbEntity
  8
10000_Front
  6
Continuous
 62
     7
370
    13
100
AcDbVertex
100
AcDb2dVertex
 10
140.5846666319322
 20
186.4974892616874
 30
0.0
 42
-0.0001237482
  0
VERTEX
  5
65AB
330
65A7
100
AcDbEntity
  8
10000_Front
  6
Continuous
 62
     7
370
    13
100
AcDbVertex
100
AcDb2dVertex
 10
140.5765076319322
 20
186.5013882616873
 30
0.0
 42
-0.0001353774
 70
     1
  0
VERTEX
  5
65AC
330
65A7
100
AcDbEntity
  8
10000_Front
  6
Continuous
 62
     7
370
    13
100
AcDbVertex
100
AcDb2dVertex
 10
140.5682036319322
 20
186.5053622616873
 30
0.0
 42
-0.0001613779
  0
VERTEX
  5
65AD
330
65A7
100
AcDbEntity
  8
10000_Front
  6
Continuous
 62
     7
370
    13
100
AcDbVertex
100
AcDb2dVertex
 10
140.5596886319322
 20
186.5094442616873
 30
0.0
 42
-0.0001220639
 70
     1
  0
VERTEX
  5
65AE
330
65A7
100
AcDbEntity
  8
10000_Front
  6
Continuous
 62
     7
370
    13
100
AcDbVertex
100
AcDb2dVertex
 10
140.5516856319323
 20
186.5132832616873
 30
0.0
 42
-0.0000417929
  0
VERTEX
  5
65AF
330
65A7
100
AcDbEntity
  8
10000_Front
  6
Continuous
 62
     7
370
    13
100
AcDbVertex
100
AcDb2dVertex
 10
140.5444436319323
 20
186.5167602616873
 30
0.0
 42
-0.0001712154
 70
     1
  0
VERTEX
  5
65B0
330
65A7
100
AcDbEntity
  8
10000_Front
  6
Continuous
 62
     7
370
    13
100
AcDbVertex
100
AcDb2dVertex
 10
140.5351126319323
 20
186.5212522616874
 30
0.0
 42
-0.0002924603
  0
VERTEX
  5
65B1
330
65A7
100
AcDbEntity
  8
10000_Front
  6
Continuous
 62
     7
370
    13
100
AcDbVertex
100
AcDb2dVertex
 10
140.5206996319322
 20
186.5282062616874
 30
0.0
 42
-0.0001420658
 70
     1
  0
VERTEX
  5
65B2
330
65A7
100
AcDbEntity
  8
10000_Front
  6
Continuous
 62
     7
370
    13
100
AcDbVertex
100
AcDb2dVertex
 10
140.5018006319322
 20
186.5373342616873
 30
0.0
 42
-0.000075061
  0
SEQEND
  5
65B3
330
65A7
100
AcDbEntity
  8
10000_Front
  6
Continuous
 62
     7
370
    13
  0
LINE
  5
65B4
330
1F
100
AcDbEntity
  8
10000_Front
  6
Continuous
 62
     7
370
    13
100
AcDbLine
 10
144.1525846319322
 20
187.6949682616874
 30
0.0
 11
145.7985356319323
 21
187.6949682616874
 31
0.0
  0
LINE
  5
65B5
330
1F
100
AcDbEntity
  8
10000_Front
  6
Continuous
 62
     7
370
    13
100
AcDbLine
 10
140.8077456319323
 20
187.6949682616874
 30
0.0
 11
142.4536956319322
 21
187.6949682616874
 31
0.0
  0
LINE
  5
65B6
330
1F
100
AcDbEntity
  8
10000_Front
  6
Continuous
 62
     7
370
    13
100
AcDbLine
 10
145.7985356319323
 20
186.4796852616873
 30
0.0
 11
144.1525846319322
 21
186.4796852616873
 31
0.0
  0
LINE
  5
65B7
330
1F
100
AcDbEntity
  8
10000_Front
  6
Continuous
 62
     7
370
    13
100
AcDbLine
 10
142.4536956319322
 20
186.4796852616873
 30
0.0
 11
140.8077456319323
 21
186.4796852616873
 31
0.0
  0
DIMENSION
  5
65B8
330
1F
100
AcDbEntity
  8
10100_Front_Dim
  6
Continuous
 62
     7
370
    13
100
AcDbDimension
  2
*D15
 10
148.7531476319323
 20
167.6058242616873
 30
0.0
 11
155.0792452881033
 21
167.6249572032802
 31
0.0
 70
   160
 71
     5
 42
10.89999999999998
  3
H035
100
AcDbAlignedDimension
 13
137.8531476319323
 23
177.8723272616873
 33
0.0
 14
148.7531476319323
 24
177.8723272616873
 34
0.0
100
AcDbRotatedDimension
1001
ACAD
1000
DSTYLE
1002
{
1070
    40
1040
1.0
1070
    77
1070
     0
1070
   178
1070
     7
1070
   279
1070
     2
1002
}
  0
DIMENSION
  5
65B9
330
1F
100
AcDbEntity
  8
10100_Front_Dim
  6
Continuous
 62
     7
370
    13
100
AcDbDimension
  2
*D16
 10
163.5265676319322
 20
177.0723272616874
 30
0.0
 11
163.5265676319322
 21
195.6333832616873
 31
0.0
 70
   160
 71
     5
 42
37.99999600000001
  3
H035
100
AcDbAlignedDimension
 13
147.9531476319323
 23
215.0723232616874
 33
0.0
 14
147.9531476319323
 24
177.0723272616874
 34
0.0
 50
270.0
100
AcDbRotatedDimension
1001
ACAD
1000
DSTYLE
1002
{
1070
    40
1040
1.0
1070
    77
1070
     0
1070
   178
1070
     7
1070
   279
1070
     2
1002
}
  0
DIMENSION
  5
65BC
330
1F
100
AcDbEntity
  8
10100_Front_Dim
  6
Continuous
 62
     7
370
    13
100
AcDbDimension
  2
*D17
 10
157.4968566319322
 20
187.0723272616874
 30
0.0
 11
157.4968566319322
 21
195.5965332616873
 31
0.0
 70
   160
 71
     5
 42
17.99999600000001
  3
H035
100
AcDbAlignedDimension
 13
143.5563516319322
 23
205.0723232616874
 33
0.0
 14
143.3846476319323
 24
187.0723272616874
 34
0.0
 50
90.0
100
AcDbRotatedDimension
1001
ACAD
1000
DSTYLE
1002
{
1070
    40
1040
1.0
1070
    77
1070
     0
1070
   178
1070
     7
1070
   279
1070
     2
1002
}
  0
TEXT
  5
65BD
330
1F
100
AcDbEntity
  8
11000_Left
  6
Continuous
 62
     7
370
     5
100
AcDbText
 10
217.4202774382153
 20
217.0294832616873
 30
0.0
 40
2.5
  1
NSB01207
100
AcDbText
  0
DIMENSION
  5
65BE
330
1F
100
AcDbEntity
  8
11100_Left_Dim
  6
Continuous
 62
     7
370
    13
100
AcDbDimension
  2
*D18
 10
237.8697174382154
 20
167.6058242616873
 30
0.0
 11
217.2140674382153
 21
167.6058242616873
 31
0.0
 70
   160
 71
     5
 42
43.75
  3
H035
100
AcDbAlignedDimension
 13
194.1197174382154
 23
183.1965912616874
 33
0.0
 14
237.8697174382154
 24
192.6523272616874
 34
0.0
100
AcDbRotatedDimension
1001
ACAD
1000
DSTYLE
1002
{
1070
    40
1040
1.0
1070
   178
1070
     7
1070
   279
1070
     2
1002
}
  0
LINE
  5
65BF
330
1F
100
AcDbEntity
  8
11000_Left
  6
Continuous
 62
     7
370
    40
100
AcDbLine
 10
237.8697174382154
 20
192.6523272616874
 30
0.0
 11
237.9697174382154
 21
192.4357242616873
 31
0.0
  0
LINE
  5
65C0
330
1F
100
AcDbEntity
  8
11000_Left
  6
Continuous
 62
     7
370
    40
100
AcDbLine
 10
237.9697174382154
 20
199.7089332616872
 30
0.0
 11
237.8697174382154
 21
199.4923232616874
 31
0.0
  0
LINE
  5
65C1
330
1F
100
AcDbEntity
  8
11000_Left
  6
Continuous
 62
     7
370
    13
100
AcDbLine
 10
194.1197174382154
 20
212.5723232616874
 30
0.0
 11
194.1197174382154
 21
212.2223232616874
 31
0.0
  0
LINE
  5
65C2
330
1F
100
AcDbEntity
  8
11000_Left
  6
Continuous
 62
     7
370
    40
100
AcDbLine
 10
195.1197174382154
 20
182.0723272616874
 30
0.0
 11
197.6197174382154
 21
182.0723272616874
 31
0.0
  0
LINE
  5
65C3
330
1F
100
AcDbEntity
  8
11000_Left
  6
Continuous
 62
     7
370
    13
100
AcDbLine
 10
194.1197174382154
 20
198.3223232616874
 30
0.0
 11
191.3405274382154
 21
198.3223232616874
 31
0.0
  0
LINE
  5
65C4
330
1F
100
AcDbEntity
  8
11000_Left
  6
Continuous
 62
     7
370
    13
100
AcDbLine
 10
190.8048074382153
 20
198.3223232616874
 30
0.0
 11
189.0697174382154
 21
198.3223232616874
 31
0.0
  0
LINE
  5
65C5
330
1F
100
AcDbEntity
  8
11000_Left
  6
Continuous
 62
     7
370
    13
100
AcDbLine
 10
191.3405274382154
 20
198.3223232616874
 30
0.0
 11
190.8048074382153
 21
198.3223232616874
 31
0.0
  0
LINE
  5
65C6
330
1F
100
AcDbEntity
  8
11000_Left
  6
Continuous
 62
     7
370
    13
100
AcDbLine
 10
188.6697174382154
 20
193.8223232616873
 30
0.0
 11
190.8048074382153
 21
193.8223232616873
 31
0.0
  0
LINE
  5
65C7
330
1F
100
AcDbEntity
  8
11000_Left
  6
Continuous
 62
     7
370
    13
100
AcDbLine
 10
191.3405274382154
 20
193.8223232616873
 30
0.0
 11
194.1197174382154
 21
193.8223232616873
 31
0.0
  0
LINE
  5
65C8
330
1F
100
AcDbEntity
  8
11000_Left
  6
Continuous
 62
     7
370
    13
100
AcDbLine
 10
190.8048074382153
 20
193.8223232616873
 30
0.0
 11
191.3405274382154
 21
193.8223232616873
 31
0.0
  0
LINE
  5
65C9
330
1F
100
AcDbEntity
  8
11000_Left
  6
Continuous
 62
     7
370
    13
100
AcDbLine
 10
189.0697174382154
 20
198.3223232616874
 30
0.0
 11
188.0697174382154
 21
197.3223232616873
 31
0.0
  0
LINE
  5
65CA
330
1F
100
AcDbEntity
  8
11000_Left
  6
Continuous
 62
     7
370
    13
100
AcDbLine
 10
188.0697174382154
 20
194.4223232616872
 30
0.0
 11
188.0697174382154
 21
197.3223232616873
 31
0.0
  0
LINE
  5
65CB
330
1F
100
AcDbEntity
  8
11000_Left
  6
Continuous
 62
     7
370
    13
100
AcDbLine
 10
188.0697174382154
 20
194.4223232616872
 30
0.0
 11
188.6697174382154
 21
193.8223232616873
 31
0.0
  0
LINE
  5
65CC
330
1F
100
AcDbEntity
  8
11000_Left
  6
Continuous
 62
     7
370
    13
100
AcDbLine
 10
193.1197174382154
 20
211.4723232616874
 30
0.0
 11
192.0371374382153
 21
211.4723232616874
 31
0.0
  0
LINE
  5
65CD
330
1F
100
AcDbEntity
  8
11000_Left
  6
Continuous
 62
     7
370
    13
100
AcDbLine
 10
194.1197174382154
 20
212.2223232616874
 30
0.0
 11
193.1197174382154
 21
211.4723232616874
 31
0.0
  0
ARC
  5
65CE
330
1F
100
AcDbEntity
  8
11000_Left
  6
Continuous
 62
     7
370
    13
100
AcDbCircle
 10
192.0371374382153
 20
211.1723232616874
 30
0.0
 40
0.3
100
AcDbArc
 50
90.0
 51
184.5622600000004
  0
LINE
  5
65CF
330
1F
100
AcDbEntity
  8
11000_Left
  6
Continuous
 62
     7
370
    13
100
AcDbLine
 10
191.7380874382154
 20
211.1484632616874
 30
0.0
 11
191.9197174382154
 21
208.8723232616874
 31
0.0
  0
LINE
  5
65D0
330
1F
100
AcDbEntity
  8
11000_Left
  6
Continuous
 62
     7
370
    13
100
AcDbLine
 10
204.1197174382153
 20
213.1022132616874
 30
0.0
 11
204.1197174382153
 21
216.0723232616874
 31
0.0
  0
LINE
  5
65D1
330
1F
100
AcDbEntity
  8
11000_Left
  6
Continuous
 62
     7
370
    13
100
AcDbLine
 10
204.1197174382153
 20
216.0723232616874
 30
0.0
 11
203.6197174382154
 21
216.5723232616874
 31
0.0
  0
LINE
  5
65D2
330
1F
100
AcDbEntity
  8
11000_Left
  6
Continuous
 62
     7
370
    13
100
AcDbLine
 10
203.6197174382154
 20
216.5723232616874
 30
0.0
 11
202.6197174382154
 21
216.5723232616874
 31
0.0
  0
LINE
  5
65D3
330
1F
100
AcDbEntity
  8
11000_Left
  6
Continuous
 62
     7
370
    13
100
AcDbLine
 10
202.6197174382154
 20
216.5723232616874
 30
0.0
 11
202.1197174382154
 21
216.0723232616874
 31
0.0
  0
LINE
  5
65D4
330
1F
100
AcDbEntity
  8
11000_Left
  6
Continuous
 62
     7
370
    13
100
AcDbLine
 10
202.1197174382154
 20
216.0723232616874
 30
0.0
 11
202.1197174382154
 21
213.5723232616874
 31
0.0
  0
ARC
  5
65D5
330
1F
100
AcDbEntity
  8
11000_Left
  6
Continuous
 62
     7
370
    13
100
AcDbCircle
 10
201.6197174382154
 20
213.5723232616874
 30
0.0
 40
0.5
100
AcDbArc
 50
270.0
 51
0.0
  0
LINE
  5
65D6
330
1F
100
AcDbEntity
  8
11000_Left
  6
Continuous
 62
     7
370
    13
100
AcDbLine
 10
198.4197174382154
 20
213.0723232616874
 30
0.0
 11
194.6197174382154
 21
213.0723232616874
 31
0.0
  0
ARC
  5
65D7
330
1F
100
AcDbEntity
  8
11000_Left
  6
Continuous
 62
     7
370
    13
100
AcDbCircle
 10
194.6197174382154
 20
212.5723232616874
 30
0.0
 40
0.5
100
AcDbArc
 50
90.0
 51
180.0
  0
LINE
  5
65D8
330
1F
100
AcDbEntity
  8
11000_Left
  6
Continuous
 62
     7
370
    13
100
AcDbLine
 10
191.9197174382154
 20
208.8723232616874
 30
0.0
 11
191.9197174382154
 21
206.9723232616874
 31
0.0
  0
ARC
  5
65D9
330
1F
100
AcDbEntity
  8
11000_Left
  6
Continuous
 62
     7
370
    13
100
AcDbCircle
 10
192.2197174382153
 20
206.9723232616874
 30
0.0
 40
0.3
100
AcDbArc
 50
180.0
 51
270.0
  0
LINE
  5
65DA
330
1F
100
AcDbEntity
  8
11000_Left
  6
Continuous
 62
     7
370
    13
100
AcDbLine
 10
191.5124274382153
 20
185.5723272616874
 30
0.0
 11
191.2624274382153
 21
185.5732392616874
 31
0.0
  0
LINE
  5
65DB
330
1F
100
AcDbEntity
  8
11000_Left
  6
Continuous
 62
     7
370
    13
100
AcDbLine
 10
235.4697174382154
 20
177.8723272616873
 30
0.0
 11
235.4697174382154
 21
177.0723272616874
 31
0.0
  0
LINE
  5
65DC
330
1F
100
AcDbEntity
  8
11000_Left
  6
Continuous
 62
     7
370
    13
100
AcDbLine
 10
235.4697174382154
 20
177.8723272616873
 30
0.0
 11
235.4697174382154
 21
214.2723232616873
 31
0.0
  0
LINE
  5
65DD
330
1F
100
AcDbEntity
  8
11000_Left
  6
Continuous
 62
     7
370
    13
100
AcDbLine
 10
235.4697174382154
 20
215.0723232616874
 30
0.0
 11
235.4697174382154
 21
214.2723232616873
 31
0.0
  0
ARC
  5
65DE
330
1F
100
AcDbEntity
  8
11000_Left
  6
Continuous
 62
     7
370
    40
100
AcDbCircle
 10
194.4197174382154
 20
184.4723272616874
 30
0.0
 40
0.29999999
100
AcDbArc
 50
90.00000099999978
 51
180.0
  0
LINE
  5
65DF
330
1F
100
AcDbEntity
  8
11000_Left
  6
Continuous
 62
     7
370
    40
100
AcDbLine
 10
197.6197174382154
 20
182.0723272616874
 30
0.0
 11
197.6197174382154
 21
180.0723272616874
 31
0.0
  0
ARC
  5
65E0
330
1F
100
AcDbEntity
  8
11000_Left
  6
Continuous
 62
     7
370
    40
100
AcDbCircle
 10
194.5197174382154
 20
185.1723272616873
 30
0.0
 40
0.4000000100000002
100
AcDbArc
 50
270.0
 51
90.0
  0
ARC
  5
65E1
330
1F
100
AcDbEntity
  8
11000_Left
  6
Continuous
 62
     7
370
    13
100
AcDbCircle
 10
190.8197174382154
 20
182.2455322616873
 30
0.0
 40
0.49999997
100
AcDbArc
 50
329.9999999999999
 51
11.99999999999961
  0
LINE
  5
65E2
330
1F
100
AcDbEntity
  8
11000_Left
  6
Continuous
 62
     7
370
    13
100
AcDbLine
 10
191.2527274382153
 20
181.9955322616873
 30
0.0
 11
190.7197174382154
 21
181.0723272616874
 31
0.0
  0
LINE
  5
65E3
330
1F
100
AcDbEntity
  8
11000_Left
  6
Continuous
 62
     7
370
    13
100
AcDbLine
 10
190.7197174382154
 20
181.0723272616874
 30
0.0
 11
189.5197174382154
 21
181.0723272616874
 31
0.0
  0
LINE
  5
65E4
330
1F
100
AcDbEntity
  8
11000_Left
  6
Continuous
 62
     7
370
    13
100
AcDbLine
 10
189.2472474382154
 20
185.5723272616874
 30
0.0
 11
189.2224574382153
 21
185.9816682616873
 31
0.0
  0
LINE
  5
65E5
330
1F
100
AcDbEntity
  8
11000_Left
  6
Continuous
 62
     7
370
    13
100
AcDbLine
 10
189.4365374382154
 20
182.4460662616874
 30
0.0
 11
189.2472474382154
 21
185.5723272616874
 31
0.0
  0
LINE
  5
65E6
330
1F
100
AcDbEntity
  8
11000_Left
  6
Continuous
 62
     7
370
    13
100
AcDbLine
 10
189.5197174382154
 20
181.0723272616874
 30
0.0
 11
189.4365374382154
 21
182.4460662616874
 31
0.0
  0
LINE
  5
65E7
330
1F
100
AcDbEntity
  8
11000_Left
  6
Continuous
 62
     7
370
    13
100
AcDbLine
 10
191.2882574382154
 20
182.4460662616874
 30
0.0
 11
190.7521274382153
 21
184.9683712616873
 31
0.0
  0
LINE
  5
65E8
330
1F
100
AcDbEntity
  8
11000_Left
  6
Continuous
 62
     7
370
    13
100
AcDbLine
 10
191.2882574382154
 20
182.4460662616874
 30
0.0
 11
191.3087874382153
 21
182.3494882616874
 31
0.0
  0
ARC
  5
65E9
330
1F
100
AcDbEntity
  8
11000_Left
  6
Continuous
 62
     7
370
    13
100
AcDbCircle
 10
191.2461774382153
 20
185.0722332616873
 30
0.0
 40
0.50484412
100
AcDbArc
 50
130.2664999999999
 51
191.8722799999999
  0
ARC
  5
65EA
330
1F
100
AcDbEntity
  8
11000_Left
  6
Continuous
 62
     7
370
    13
100
AcDbCircle
 10
191.2473074382154
 20
185.0722702616874
 30
0.0
 40
0.5055489000000001
100
AcDbArc
 50
98.82990300000033
 51
130.3211799999994
  0
ARC
  5
65EB
330
1F
100
AcDbEntity
  8
11000_Left
  6
Continuous
 62
     7
370
    13
100
AcDbCircle
 10
191.2463574382154
 20
185.0773012616873
 30
0.0
 40
0.5004314600000001
100
AcDbArc
 50
81.57067300000004
 51
98.81098899999987
  0
ARC
  5
65EC
330
1F
100
AcDbEntity
  8
11000_Left
  6
Continuous
 62
     7
370
    13
100
AcDbCircle
 10
190.7197174382154
 20
186.0723272616874
 30
0.0
 40
1.5
100
AcDbArc
 50
90.0
 51
119.92643
  0
ARC
  5
65ED
330
1F
100
AcDbEntity
  8
11000_Left
  6
Continuous
 62
     7
370
    13
100
AcDbCircle
 10
190.7197174382154
 20
186.0723272616874
 30
0.0
 40
1.5
100
AcDbArc
 50
119.92643
 51
183.4650099999988
  0
LINE
  5
65EE
330
1F
100
AcDbEntity
  8
11000_Left
  6
Continuous
 62
     7
370
    13
100
AcDbLine
 10
190.9197174382154
 20
187.5723272616874
 30
0.0
 11
190.7197174382154
 21
187.5723272616874
 31
0.0
  0
LINE
  5
65EF
330
1F
100
AcDbEntity
  8
11000_Left
  6
Continuous
 62
     7
370
    13
100
AcDbLine
 10
191.1697174382154
 20
187.5723272616874
 30
0.0
 11
190.9197174382154
 21
187.5723272616874
 31
0.0
  0
LINE
  5
65F0
330
1F
100
AcDbEntity
  8
11000_Left
  6
Continuous
 62
     7
370
    13
100
AcDbLine
 10
191.2697174382154
 20
187.5723272616874
 30
0.0
 11
191.1697174382154
 21
187.5723272616874
 31
0.0
  0
LINE
  5
65F1
330
1F
100
AcDbEntity
  8
11000_Left
  6
Continuous
 62
     7
370
    13
100
AcDbLine
 10
191.5197174382154
 20
187.5723272616874
 30
0.0
 11
191.2697174382154
 21
187.5723272616874
 31
0.0
  0
LINE
  5
65F2
330
1F
100
AcDbEntity
  8
11000_Left
  6
Continuous
 62
     7
370
    13
100
AcDbLine
 10
194.1197174382154
 20
187.5723302616874
 30
0.0
 11
191.5197174382154
 21
187.5723272616874
 31
0.0
  0
LINE
  5
65F3
330
1F
100
AcDbEntity
  8
11000_Left
  6
Continuous
 62
     7
370
    13
100
AcDbLine
 10
194.1197174382154
 20
185.5723272616874
 30
0.0
 11
191.5124274382153
 21
185.5723272616874
 31
0.0
  0
LINE
  5
65F4
330
1F
100
AcDbEntity
  8
11000_Left
  6
Continuous
 62
     7
370
    40
100
AcDbLine
 10
194.1197174382154
 20
185.5723272616874
 30
0.0
 11
194.5197174382154
 21
185.5723272616874
 31
0.0
  0
LINE
  5
65F5
330
1F
100
AcDbEntity
  8
11000_Left
  6
Continuous
 62
     7
370
    40
100
AcDbLine
 10
195.1197174382154
 20
211.7723232616874
 30
0.0
 11
194.1197174382154
 21
210.7723232616873
 31
0.0
  0
LINE
  5
65F6
330
1F
100
AcDbEntity
  8
11000_Left
  6
Continuous
 62
     7
370
    40
100
AcDbLine
 10
197.6197174382154
 20
211.7723232616874
 30
0.0
 11
195.1197174382154
 21
211.7723232616874
 31
0.0
  0
ARC
  5
65F7
330
1F
100
AcDbEntity
  8
11000_Left
  6
Continuous
 62
     7
370
    40
100
AcDbCircle
 10
198.6197174382154
 20
180.0723272616874
 30
0.0
 40
1.0
100
AcDbArc
 50
180.0
 51
270.0
  0
LINE
  5
65F8
330
1F
100
AcDbEntity
  8
11000_Left
  6
Continuous
 62
     7
370
    40
100
AcDbLine
 10
204.5841874382153
 20
178.7794342616873
 30
0.0
 11
205.7055074382154
 21
177.6581132616874
 31
0.0
  0
ARC
  5
65F9
330
1F
100
AcDbEntity
  8
11000_Left
  6
Continuous
 62
     7
370
    40
100
AcDbCircle
 10
207.1197174382154
 20
179.0723272616874
 30
0.0
 40
2.0
100
AcDbArc
 50
225.0
 51
270.0
  0
LINE
  5
65FA
330
1F
100
AcDbEntity
  8
11000_Left
  6
Continuous
 62
     7
370
    40
100
AcDbLine
 10
194.2075874382154
 20
182.9844592616873
 30
0.0
 11
195.1197174382154
 21
182.0723272616874
 31
0.0
  0
ARC
  5
65FB
330
1F
100
AcDbEntity
  8
11000_Left
  6
Continuous
 62
     7
370
    40
100
AcDbCircle
 10
194.4197174382154
 20
183.1965912616874
 30
0.0
 40
0.30000002
100
AcDbArc
 50
180.0
 51
225.0
  0
LINE
  5
65FC
330
1F
100
AcDbEntity
  8
11000_Left
  6
Continuous
 62
     7
370
    40
100
AcDbLine
 10
194.1197174382154
 20
184.4723272616874
 30
0.0
 11
194.1197174382154
 21
183.1965912616874
 31
0.0
  0
LINE
  5
65FD
330
1F
100
AcDbEntity
  8
11000_Left
  6
Continuous
 62
     7
370
    13
100
AcDbLine
 10
194.5197174382154
 20
184.7723272616874
 30
0.0
 11
194.4197174382154
 21
184.7723272616874
 31
0.0
  0
LINE
  5
65FE
330
1F
100
AcDbEntity
  8
11000_Left
  6
Continuous
 62
     7
370
    40
100
AcDbLine
 10
197.6197174382154
 20
212.2723232616873
 30
0.0
 11
197.6197174382154
 21
211.7723232616874
 31
0.0
  0
ARC
  5
65FF
330
1F
100
AcDbEntity
  8
11000_Left
  6
Continuous
 62
     7
370
    40
100
AcDbCircle
 10
198.4197174382154
 20
212.2723232616873
 30
0.0
 40
0.8
100
AcDbArc
 50
89.99999799999963
 51
180.0
  0
ARC
  5
6600
330
1F
100
AcDbEntity
  8
11000_Left
  6
Continuous
 62
     7
370
    40
100
AcDbCircle
 10
207.1197174382154
 20
213.0723232616874
 30
0.0
 40
2.0
100
AcDbArc
 50
89.99999900000023
 51
135.0
  0
LINE
  5
6601
330
1F
100
AcDbEntity
  8
11000_Left
  6
Continuous
 62
     7
370
    40
100
AcDbLine
 10
205.7055074382154
 20
214.4865432616874
 30
0.0
 11
204.5841874382153
 21
213.3652232616873
 31
0.0
  0
LINE
  5
6602
330
1F
100
AcDbEntity
  8
11000_Left
  6
Continuous
 62
     7
370
    40
100
AcDbLine
 10
207.1197174382154
 20
215.0723232616874
 30
0.0
 11
235.4697174382154
 21
215.0723232616874
 31
0.0
  0
ARC
  5
6603
330
1F
100
AcDbEntity
  8
11000_Left
  6
Continuous
 62
     7
370
    40
100
AcDbCircle
 10
203.8770774382153
 20
214.0723232616874
 30
0.0
 40
1.0
100
AcDbArc
 50
270.0
 51
315.0
  0
LINE
  5
6604
330
1F
100
AcDbEntity
  8
11000_Left
  6
Continuous
 62
     7
370
    40
100
AcDbLine
 10
203.8770774382153
 20
213.0723232616874
 30
0.0
 11
198.4197174382154
 21
213.0723232616874
 31
0.0
  0
LINE
  5
6605
330
1F
100
AcDbEntity
  8
11000_Left
  6
Continuous
 62
     7
370
    40
100
AcDbLine
 10
198.6197174382154
 20
179.0723272616874
 30
0.0
 11
203.8770774382153
 21
179.0723272616874
 31
0.0
  0
ARC
  5
6606
330
1F
100
AcDbEntity
  8
11000_Left
  6
Continuous
 62
     7
370
    40
100
AcDbCircle
 10
203.8770774382153
 20
178.0723272616874
 30
0.0
 40
1.0
100
AcDbArc
 50
45.0
 51
90.0
  0
LINE
  5
6607
330
1F
100
AcDbEntity
  8
11000_Left
  6
Continuous
 62
     7
370
    40
100
AcDbLine
 10
235.4697174382154
 20
177.0723272616874
 30
0.0
 11
207.1197174382154
 21
177.0723272616874
 31
0.0
  0
LINE
  5
6608
330
1F
100
AcDbEntity
  8
11000_Left
  6
Continuous
 62
     7
370
    13
100
AcDbLine
 10
190.1197174382154
 20
203.8723232616874
 30
0.0
 11
194.1197174382154
 21
203.8723232616874
 31
0.0
  0
LINE
  5
6609
330
1F
100
AcDbEntity
  8
11000_Left
  6
Continuous
 62
     7
370
    13
100
AcDbLine
 10
187.2197174382154
 20
203.8723232616874
 30
0.0
 11
190.1197174382154
 21
203.8723232616874
 31
0.0
  0
LINE
  5
660A
330
1F
100
AcDbEntity
  8
11000_Left
  6
Continuous
 62
     7
370
    13
100
AcDbLine
 10
186.9197174382154
 20
203.8723232616874
 30
0.0
 11
187.2197174382154
 21
203.8723232616874
 31
0.0
  0
LINE
  5
660B
330
1F
100
AcDbEntity
  8
11000_Left
  6
Continuous
 62
     7
370
    40
100
AcDbLine
 10
194.1197174382154
 20
210.7723232616873
 30
0.0
 11
194.1197174382154
 21
185.5723272616874
 31
0.0
  0
LINE
  5
660C
330
1F
100
AcDbEntity
  8
11000_Left
  6
Continuous
 62
     7
370
    13
100
AcDbLine
 10
190.4197174382154
 20
206.6723232616874
 30
0.0
 11
190.1197174382154
 21
206.6723232616874
 31
0.0
  0
LINE
  5
660D
330
1F
100
AcDbEntity
  8
11000_Left
  6
Continuous
 62
     7
370
    13
100
AcDbLine
 10
190.4197174382154
 20
206.6723232616874
 30
0.0
 11
191.0197174382154
 21
206.6723232616874
 31
0.0
  0
LINE
  5
660E
330
1F
100
AcDbEntity
  8
11000_Left
  6
Continuous
 62
     7
370
    13
100
AcDbLine
 10
194.1197174382154
 20
206.6723232616874
 30
0.0
 11
191.0197174382154
 21
206.6723232616874
 31
0.0
  0
LINE
  5
660F
330
1F
100
AcDbEntity
  8
11000_Left
  6
Continuous
 62
     7
370
    13
100
AcDbLine
 10
190.1197174382154
 20
206.6723232616874
 30
0.0
 11
187.4197174382154
 21
206.6723232616874
 31
0.0
  0
LINE
  5
6610
330
1F
100
AcDbEntity
  8
11000_Left
  6
Continuous
 62
     7
370
    13
100
AcDbLine
 10
186.9197174382154
 20
203.8723232616874
 30
0.0
 11
186.9197174382154
 21
206.1723232616874
 31
0.0
  0
LINE
  5
6611
330
1F
100
AcDbEntity
  8
11000_Left
  6
Continuous
 62
     7
370
    13
100
AcDbLine
 10
187.4197174382154
 20
206.6723232616874
 30
0.0
 11
187.2197174382154
 21
206.4723232616873
 31
0.0
  0
LINE
  5
6612
330
1F
100
AcDbEntity
  8
11000_Left
  6
Continuous
 62
     7
370
    13
100
AcDbLine
 10
187.2197174382154
 20
206.4723232616873
 30
0.0
 11
186.9197174382154
 21
206.1723232616874
 31
0.0
  0
ARC
  5
6649
330
1F
100
AcDbEntity
  8
11000_Left
  6
Continuous
 62
     7
370
    40
100
AcDbCircle
 10
236.3871774382154
 20
214.2723232616873
 30
0.0
 40
0.8
100
AcDbArc
 50
5.242269999998967
 51
89.99999900000023
  0
LINE
  5
664A
330
1F
100
AcDbEntity
  8
11000_Left
  6
Continuous
 62
     7
370
    40
100
AcDbLine
 10
235.4697174382154
 20
215.0723232616874
 30
0.0
 11
236.3871774382154
 21
215.0723232616874
 31
0.0
  0
ARC
  5
664B
330
1F
100
AcDbEntity
  8
11000_Left
  6
Continuous
 62
     7
370
    40
100
AcDbCircle
 10
38.02034843821542
 20
196.0723232616873
 30
0.0
 40
200.0
100
AcDbArc
 50
1.289263799999124
 51
5.242166400000222
  0
LINE
  5
664C
330
1F
100
AcDbEntity
  8
11000_Left
  6
Continuous
 62
     7
370
    40
100
AcDbLine
 10
237.9697174382154
 20
200.5723232616874
 30
0.0
 11
237.9697174382154
 21
199.7089332616872
 31
0.0
  0
LINE
  5
664D
330
1F
100
AcDbEntity
  8
11000_Left
  6
Continuous
 62
     7
370
    40
100
AcDbLine
 10
237.9697174382154
 20
192.4357242616873
 30
0.0
 11
237.9697174382154
 21
191.5723272616874
 31
0.0
  0
LINE
  5
664E
330
1F
100
AcDbEntity
  8
11000_Left
  6
Continuous
 62
     7
370
    40
100
AcDbLine
 10
237.7947274382154
 20
187.1723332616873
 30
0.0
 11
237.8222274382153
 21
187.1723272616874
 31
0.0
  0
LINE
  5
664F
330
1F
100
AcDbEntity
  8
11000_Left
  6
Continuous
 62
     7
370
    40
100
AcDbLine
 10
237.9527374382154
 20
190.8723272616873
 30
0.0
 11
237.9418774382153
 21
190.8723312616873
 31
0.0
  0
ARC
  5
6650
330
1F
100
AcDbEntity
  8
11000_Left
  6
Continuous
 62
     7
370
    40
100
AcDbCircle
 10
38.02034843821542
 20
196.0723232616873
 30
0.0
 40
200.0
100
AcDbArc
 50
354.7578299999979
 51
358.7107399999989
  0
ARC
  5
6651
330
1F
100
AcDbEntity
  8
11000_Left
  6
Continuous
 62
     7
370
    40
100
AcDbCircle
 10
236.3871774382154
 20
177.8723272616873
 30
0.0
 40
0.79999999
100
AcDbArc
 50
270.0
 51
354.7578299999979
  0
LINE
  5
6652
330
1F
100
AcDbEntity
  8
11000_Left
  6
Continuous
 62
     7
370
    40
100
AcDbLine
 10
236.3871774382154
 20
177.0723272616874
 30
0.0
 11
235.4697174382154
 21
177.0723272616874
 31
0.0
  0
LINE
  5
6653
330
1F
100
AcDbEntity
  8
11000_Left
  6
Continuous
 62
     7
370
    40
100
AcDbLine
 10
237.8697174382154
 20
199.4923232616874
 30
0.0
 11
237.8697174382154
 21
192.6523272616874
 31
0.0
  0
ENDSEC
  0
SECTION
  2
OBJECTS
  0
DICTIONARY
  5
C
330
0
100
AcDbDictionary
281
     1
  3
ACAD_COLOR
350
6B
  3
ACAD_GROUP
350
D
  3
ACAD_LAYOUT
350
1A
  3
ACAD_MATERIAL
350
6A
  3
ACAD_MLINESTYLE
350
17
  3
ACAD_PLOTSETTINGS
350
19
  3
ACAD_PLOTSTYLENAME
350
E
  3
ACDBHEADERROUNDTRIPXREC
350
6727
  3
AcDbVariableDictionary
350
5E
  3
DWGPROPS
350
6726
  0
DICTIONARY
  5
6B
102
{ACAD_REACTORS
330
C
102
}
330
C
100
AcDbDictionary
281
     1
  0
DICTIONARY
  5
D
102
{ACAD_REACTORS
330
C
102
}
330
C
100
AcDbDictionary
281
     1
  0
DICTIONARY
  5
1A
102
{ACAD_REACTORS
330
C
102
}
330
C
100
AcDbDictionary
281
     1
  3
Layout1
350
51
  3
Layout2
350
56
  3
Model
350
22
  0
DICTIONARY
  5
6A
102
{ACAD_REACTORS
330
C
102
}
330
C
100
AcDbDictionary
281
     1
  0
DICTIONARY
  5
17
102
{ACAD_REACTORS
330
C
102
}
330
C
100
AcDbDictionary
281
     1
  3
Standard
350
18
  0
DICTIONARY
  5
19
102
{ACAD_REACTORS
330
C
102
}
330
C
100
AcDbDictionary
281
     1
  0
ACDBDICTIONARYWDFLT
  5
E
102
{ACAD_REACTORS
330
C
102
}
330
C
100
AcDbDictionary
281
     1
  3
Normal
350
F
100
AcDbDictionaryWithDefault
340
F
  0
DICTIONARY
  5
6727
102
{ACAD_REACTORS
330
C
102
}
330
C
100
AcDbDictionary
281
     1
  3
COLORDICT
350
6729
  3
MATERIALDICT
350
6728
  0
DICTIONARY
  5
5E
102
{ACAD_REACTORS
330
C
102
}
330
C
100
AcDbDictionary
281
     1
  3
DIMASSOC
350
5F
  3
HIDETEXT
350
63
  3
PROJECTNAME
350
2C50
  0
XRECORD
  5
6726
102
{ACAD_REACTORS
330
C
102
}
330
C
100
AcDbXrecord
280
     1
  1
DWGPROPS COOKIE
  2

  3

  4

  6

  7

  8

  9

300
=
301
=
302
=
303
=
304
=
305
=
306
=
307
=
308
=
309
=
 40
0.3620600115740741
 41
2453453.645911123
 42
2453801.58451132
  1

 90
        0
  0
LAYOUT
  5
51
102
{ACAD_XDICTIONARY
360
672C
102
}
102
{ACAD_REACTORS
330
1A
102
}
330
1A
100
AcDbPlotSettings
  1

  2
None
  4

  6

 40
0.0
 41
0.0
 42
0.0
 43
0.0
 44
0.0
 45
0.0
 46
0.0
 47
0.0
 48
0.0
 49
0.0
140
0.0
141
0.0
142
1.0
143
1.0
 70
   688
 72
     0
 73
     0
 74
     5
  7

 75
    16
147
1.0
148
0.0
149
0.0
100
AcDbLayout
  1
Layout1
 70
     1
 71
     1
 10
0.0
 20
0.0
 11
12.0
 21
9.0
 12
0.0
 22
0.0
 32
0.0
 14
0.0
 24
0.0
 34
0.0
 15
0.0
 25
0.0
 35
0.0
146
0.0
 13
0.0
 23
0.0
 33
0.0
 16
1.0
 26
0.0
 36
0.0
 17
0.0
 27
1.0
 37
0.0
 76
     0
330
50
  0
LAYOUT
  5
56
102
{ACAD_XDICTIONARY
360
672E
102
}
102
{ACAD_REACTORS
330
1A
102
}
330
1A
100
AcDbPlotSettings
  1

  2
None
  4

  6

 40
0.0
 41
0.0
 42
0.0
 43
0.0
 44
0.0
 45
0.0
 46
0.0
 47
0.0
 48
0.0
 49
0.0
140
0.0
141
0.0
142
1.0
143
1.0
 70
   688
 72
     0
 73
     0
 74
     5
  7

 75
    16
147
1.0
148
0.0
149
0.0
100
AcDbLayout
  1
Layout2
 70
     1
 71
     2
 10
0.0
 20
0.0
 11
12.0
 21
9.0
 12
0.0
 22
0.0
 32
0.0
 14
0.0
 24
0.0
 34
0.0
 15
0.0
 25
0.0
 35
0.0
146
0.0
 13
0.0
 23
0.0
 33
0.0
 16
1.0
 26
0.0
 36
0.0
 17
0.0
 27
1.0
 37
0.0
 76
     0
330
55
  0
LAYOUT
  5
22
102
{ACAD_XDICTIONARY
360
672A
102
}
102
{ACAD_REACTORS
330
1A
102
}
330
1A
100
AcDbPlotSettings
  1

  2
\\ambw779a\A_P00390 (HP LaserJet 5000 Series PCL 6)
  4
A4
  6

 40
4.233333110809326
 41
4.233341693878172
 42
7.789321899414062
 43
4.23333740234375
 44
209.9733276367186
 45
296.9259948730469
 46
0.0
 47
0.0
 48
0.0
 49
0.0
140
0.0
141
0.0
142
1.0
143
1.010503556944119
 70
 11952
 72
     1
 73
     1
 74
     1
  7

 75
     0
147
0.9896056210075258
148
-46.43197498426172
149
-83.62346176038114
100
AcDbLayout
  1
Model
 70
     1
 71
     0
 10
0.0
 20
0.0
 11
12.0
 21
9.0
 12
0.0
 22
0.0
 32
0.0
 14
0.0
 24
0.0
 34
0.0
 15
0.0
 25
0.0
 35
0.0
146
0.0
 13
0.0
 23
0.0
 33
0.0
 16
1.0
 26
0.0
 36
0.0
 17
0.0
 27
1.0
 37
0.0
 76
     0
330
1F
  0
MLINESTYLE
  5
18
102
{ACAD_REACTORS
330
17
102
}
330
17
100
AcDbMlineStyle
  2
STANDARD
 70
     0
  3

 62
   256
 51
90.0
 52
90.0
 71
     2
 49
0.5
 62
   256
  6
BYLAYER
 49
-0.5
 62
   256
  6
BYLAYER
  0
ACDBPLACEHOLDER
  5
F
102
{ACAD_REACTORS
330
E
102
}
330
E
  0
XRECORD
  5
6729
102
{ACAD_REACTORS
330
6727
102
}
330
6727
100
AcDbXrecord
280
     1
340
6B
  0
XRECORD
  5
6728
102
{ACAD_REACTORS
330
6727
102
}
330
6727
100
AcDbXrecord
280
     1
340
6A
  0
DICTIONARYVAR
  5
5F
102
{ACAD_REACTORS
330
5E
102
}
330
5E
100
DictionaryVariables
280
     0
  1
2
  0
DICTIONARYVAR
  5
63
102
{ACAD_REACTORS
330
5E
102
}
330
5E
100
DictionaryVariables
280
     0
  1
1
  0
DICTIONARYVAR
  5
2C50
102
{ACAD_REACTORS
330
5E
102
}
330
5E
100
DictionaryVariables
280
     0
  1

  0
DICTIONARY
  5
672C
330
51
100
AcDbDictionary
280
     1
281
     1
  3
ACAD_XREC_ROUNDTRIP
360
672D
  0
DICTIONARY
  5
672E
330
56
100
AcDbDictionary
280
     1
281
     1
  3
ACAD_XREC_ROUNDTRIP
360
672F
  0
DICTIONARY
  5
672A
330
22
100
AcDbDictionary
280
     1
281
     1
  3
ACAD_XREC_ROUNDTRIP
360
672B
  0
XRECORD
  5
672D
102
{ACAD_REACTORS
330
672C
102
}
330
672C
100
AcDbXrecord
280
     1
102
SHADEPLOT
 70
     0
102
SHADEPLOTRESLEVEL
 70
     2
102
SHADEPLOTCUSTOMDPI
 70
   300
  0
XRECORD
  5
672F
102
{ACAD_REACTORS
330
672E
102
}
330
672E
100
AcDbXrecord
280
     1
102
SHADEPLOT
 70
     0
102
SHADEPLOTRESLEVEL
 70
     2
102
SHADEPLOTCUSTOMDPI
 70
   300
  0
XRECORD
  5
672B
102
{ACAD_REACTORS
330
672A
102
}
330
672A
100
AcDbXrecord
280
     1
102
SHADEPLOT
 70
     0
102
SHADEPLOTRESLEVEL
 70
     2
102
SHADEPLOTCUSTOMDPI
 70
   300
  0
ENDSEC
  0
EOF
