  0
SECTION
  2
HEADER
  9
$ACADVER
  1
AC1015
  9
$ACADMAINTVER
 70
    20
  9
$DWGCODEPAGE
  3
ANSI_1252
  9
$INSBASE
 10
0.0
 20
0.0
 30
0.0
  9
$EXTMIN
 10
46.48223980153239
 20
275.9132547968921
 30
-0.0015258207003583
  9
$EXTMAX
 10
316.5124520292884
 20
475.926911300196
 30
0.0000000349246037
  9
$LIMMIN
 10
0.0
 20
0.0
  9
$LIMMAX
 10
0.0
 20
0.0
  9
$ORTHOMODE
 70
     1
  9
$REGENMODE
 70
     1
  9
$FILLMODE
 70
     1
  9
$QTEXTMODE
 70
     0
  9
$MIRRTEXT
 70
     1
  9
$LTSCALE
 40
1.0
  9
$ATTMODE
 70
     1
  9
$TEXTSIZE
 40
1.0
  9
$TRACEWID
 40
0.05
  9
$TEXTSTYLE
  7
STANDARD
  9
$CLAYER
  8
0
  9
$CELTYPE
  6
CONTINUOUS
  9
$CECOLOR
 62
     1
  9
$CELTSCALE
 40
1.0
  9
$DISPSILH
 70
     0
  9
$DIMSCALE
 40
1.0
  9
$DIMASZ
 40
0.125
  9
$DIMEXO
 40
0.0625
  9
$DIMDLI
 40
0.25
  9
$DIMRND
 40
0.0
  9
$DIMDLE
 40
0.0
  9
$DIMEXE
 40
0.125
  9
$DIMTP
 40
0.005
  9
$DIMTM
 40
-0.005
  9
$DIMTXT
 40
3.0
  9
$DIMCEN
 40
0.09
  9
$DIMTSZ
 40
0.0
  9
$DIMTOL
 70
     0
  9
$DIMLIM
 70
     0
  9
$DIMTIH
 70
     1
  9
$DIMTOH
 70
     1
  9
$DIMSE1
 70
     0
  9
$DIMSE2
 70
     0
  9
$DIMTAD
 70
     0
  9
$DIMZIN
 70
     0
  9
$DIMBLK
  1

  9
$DIMASO
 70
     1
  9
$DIMSHO
 70
     1
  9
$DIMPOST
  1

  9
$DIMAPOST
  1

  9
$DIMALT
 70
     0
  9
$DIMALTD
 70
     0
  9
$DIMALTF
 40
25.4
  9
$DIMLFAC
 40
1.0
  9
$DIMTOFL
 70
     1
  9
$DIMTVP
 40
0.0
  9
$DIMTIX
 70
     0
  9
$DIMSOXD
 70
     0
  9
$DIMSAH
 70
     0
  9
$DIMBLK1
  1

  9
$DIMBLK2
  1

  9
$DIMSTYLE
  2
STANDARD
  9
$DIMCLRD
 70
     0
  9
$DIMCLRE
 70
     0
  9
$DIMCLRT
 70
     0
  9
$DIMTFAC
 40
1.0
  9
$DIMGAP
 40
0.0625
  9
$DIMJUST
 70
     0
  9
$DIMSD1
 70
     0
  9
$DIMSD2
 70
     0
  9
$DIMTOLJ
 70
     1
  9
$DIMTZIN
 70
     0
  9
$DIMALTZ
 70
     0
  9
$DIMALTTZ
 70
     0
  9
$DIMUPT
 70
     0
  9
$DIMDEC
 70
     3
  9
$DIMTDEC
 70
     3
  9
$DIMALTU
 70
     2
  9
$DIMALTTD
 70
     0
  9
$DIMTXSTY
  7
STANDARD
  9
$DIMAUNIT
 70
     0
  9
$DIMADEC
 70
     1
  9
$DIMALTRND
 40
0.0
  9
$DIMAZIN
 70
     0
  9
$DIMDSEP
 70
    46
  9
$DIMATFIT
 70
     3
  9
$DIMFRAC
 70
     0
  9
$DIMLDRBLK
  1

  9
$DIMLUNIT
 70
     2
  9
$DIMLWD
 70
    -2
  9
$DIMLWE
 70
    -2
  9
$DIMTMOVE
 70
     2
  9
$LUNITS
 70
     2
  9
$LUPREC
 70
     3
  9
$SKETCHINC
 40
0.1
  9
$FILLETRAD
 40
10.0
  9
$AUNITS
 70
     0
  9
$AUPREC
 70
     1
  9
$MENU
  1
acad
  9
$ELEVATION
 40
0.0
  9
$PELEVATION
 40
0.0
  9
$THICKNESS
 40
0.0
  9
$LIMCHECK
 70
     0
  9
$CHAMFERA
 40
6.0
  9
$CHAMFERB
 40
6.0
  9
$CHAMFERC
 40
0.0
  9
$CHAMFERD
 40
0.0
  9
$SKPOLY
 70
     0
  9
$TDCREATE
 40
2444975.041666666
  9
$TDUCREATE
 40
2444975.000000000
  9
$TDUPDATE
 40
2454088.650027639
  9
$TDUUPDATE
 40
2454088.608360972
  9
$TDINDWG
 40
0.0817432060
  9
$TDUSRTIMER
 40
0.0817432060
  9
$USRTIMER
 70
     1
  9
$ANGBASE
 50
0.0
  9
$ANGDIR
 70
     0
  9
$PDMODE
 70
     2
  9
$PDSIZE
 40
-0.01
  9
$PLINEWID
 40
0.0
  9
$SPLFRAME
 70
     0
  9
$SPLINETYPE
 70
     6
  9
$SPLINESEGS
 70
     8
  9
$HANDSEED
  5
6AAD
  9
$SURFTAB1
 70
     6
  9
$SURFTAB2
 70
     6
  9
$SURFTYPE
 70
     6
  9
$SURFU
 70
     6
  9
$SURFV
 70
     6
  9
$UCSBASE
  2

  9
$UCSNAME
  2

  9
$UCSORG
 10
0.0
 20
0.0
 30
0.0
  9
$UCSXDIR
 10
1.0
 20
0.0
 30
0.0
  9
$UCSYDIR
 10
0.0
 20
1.0
 30
0.0
  9
$UCSORTHOREF
  2

  9
$UCSORTHOVIEW
 70
     0
  9
$UCSORGTOP
 10
0.0
 20
0.0
 30
0.0
  9
$UCSORGBOTTOM
 10
0.0
 20
0.0
 30
0.0
  9
$UCSORGLEFT
 10
0.0
 20
0.0
 30
0.0
  9
$UCSORGRIGHT
 10
0.0
 20
0.0
 30
0.0
  9
$UCSORGFRONT
 10
0.0
 20
0.0
 30
0.0
  9
$UCSORGBACK
 10
0.0
 20
0.0
 30
0.0
  9
$PUCSBASE
  2

  9
$PUCSNAME
  2

  9
$PUCSORG
 10
0.0
 20
0.0
 30
0.0
  9
$PUCSXDIR
 10
1.0
 20
0.0
 30
0.0
  9
$PUCSYDIR
 10
0.0
 20
1.0
 30
0.0
  9
$PUCSORTHOREF
  2

  9
$PUCSORTHOVIEW
 70
     0
  9
$PUCSORGTOP
 10
0.0
 20
0.0
 30
0.0
  9
$PUCSORGBOTTOM
 10
0.0
 20
0.0
 30
0.0
  9
$PUCSORGLEFT
 10
0.0
 20
0.0
 30
0.0
  9
$PUCSORGRIGHT
 10
0.0
 20
0.0
 30
0.0
  9
$PUCSORGFRONT
 10
0.0
 20
0.0
 30
0.0
  9
$PUCSORGBACK
 10
0.0
 20
0.0
 30
0.0
  9
$USERI1
 70
     0
  9
$USERI2
 70
     0
  9
$USERI3
 70
     0
  9
$USERI4
 70
     0
  9
$USERI5
 70
     0
  9
$USERR1
 40
0.0
  9
$USERR2
 40
0.0
  9
$USERR3
 40
0.0
  9
$USERR4
 40
0.0
  9
$USERR5
 40
0.0
  9
$WORLDVIEW
 70
     1
  9
$SHADEDGE
 70
     3
  9
$SHADEDIF
 70
    70
  9
$TILEMODE
 70
     1
  9
$MAXACTVP
 70
    16
  9
$PINSBASE
 10
0.0
 20
0.0
 30
0.0
  9
$PLIMCHECK
 70
     0
  9
$PEXTMIN
 10
0.0
 20
0.0
 30
0.0
  9
$PEXTMAX
 10
420.0
 20
297.0
 30
0.0
  9
$PLIMMIN
 10
0.0
 20
0.0
  9
$PLIMMAX
 10
420.0
 20
297.0
  9
$UNITMODE
 70
     0
  9
$VISRETAIN
 70
     0
  9
$PLINEGEN
 70
     1
  9
$PSLTSCALE
 70
     0
  9
$TREEDEPTH
 70
  3020
  9
$CMLSTYLE
  2
Standard
  9
$CMLJUST
 70
     0
  9
$CMLSCALE
 40
1.0
  9
$PROXYGRAPHICS
 70
     1
  9
$MEASUREMENT
 70
     0
  9
$CELWEIGHT
370
    -1
  9
$ENDCAPS
280
     0
  9
$JOINSTYLE
280
     0
  9
$LWDISPLAY
290
     0
  9
$INSUNITS
 70
     0
  9
$HYPERLINKBASE
  1

  9
$STYLESHEET
  1

  9
$XEDIT
290
     1
  9
$CEPSNTYPE
380
     0
  9
$PSTYLEMODE
290
     1
  9
$FINGERPRINTGUID
  2
{AC14AC55-D7A2-4E38-B53F-FD65484B6D6C}
  9
$VERSIONGUID
  2
{744E26B9-0BC4-40B9-AF51-69175F3B46D9}
  9
$EXTNAMES
290
     1
  9
$PSVPSCALE
 40
0.0
  9
$OLESTARTUP
290
     0
  0
ENDSEC
  0
SECTION
  2
CLASSES
  0
CLASS
  1
ACDBDICTIONARYWDFLT
  2
AcDbDictionaryWithDefault
  3
ObjectDBX Classes
 90
        0
280
     0
281
     0
  0
CLASS
  1
MATERIAL
  2
AcDbMaterial
  3
ObjectDBX Classes
 90
     1024
280
     0
281
     0
  0
CLASS
  1
VISUALSTYLE
  2
AcDbVisualStyle
  3
ObjectDBX Classes
 90
     4095
280
     0
281
     0
  0
CLASS
  1
TABLESTYLE
  2
AcDbTableStyle
  3
ObjectDBX Classes
 90
     4095
280
     0
281
     0
  0
CLASS
  1
DICTIONARYVAR
  2
AcDbDictionaryVar
  3
ObjectDBX Classes
 90
        0
280
     0
281
     0
  0
CLASS
  1
SORTENTSTABLE
  2
AcDbSortentsTable
  3
ObjectDBX Classes
 90
        0
280
     0
281
     0
  0
CLASS
  1
DIMASSOC
  2
AcDbDimAssoc
  3
"AcDbDimAssoc|Product Desc:     AcDim ARX App For Dimension|Company:          Autodesk, Inc.|WEB Address:      www.autodesk.com"
 90
        0
280
     0
281
     0
  0
CLASS
  1
SOLID_BACKGROUND
  2
AcDbSolidBackground
  3
SCENEOE
 90
     4095
280
     0
281
     0
  0
CLASS
  1
NPOCOLLECTION
  2
AcDbImpNonPersistentObjectsCollection
  3
ObjectDBX Classes
 90
     1153
280
     0
281
     0
  0
CLASS
  1
ACDBPLACEHOLDER
  2
AcDbPlaceHolder
  3
ObjectDBX Classes
 90
        0
280
     0
281
     0
  0
CLASS
  1
LAYOUT
  2
AcDbLayout
  3
ObjectDBX Classes
 90
        0
280
     0
281
     0
  0
ENDSEC
  0
SECTION
  2
TABLES
  0
TABLE
  2
VPORT
  5
5A6B
330
0
100
AcDbSymbolTable
 70
     1
  0
VPORT
  5
5ADC
330
5A6B
100
AcDbSymbolTableRecord
100
AcDbViewportTableRecord
  2
*ACTIVE
 70
     0
 10
0.0
 20
0.0
 11
1.0
 21
1.0
 12
70.5255785874317
 22
-129.9875872656307
 13
0.0
 23
0.0
 14
1.0
 24
1.0
 15
0.0
 25
0.0
 16
-0.057071099075344
 26
-14.11150105850595
 36
808.4539657858409
 17
111.4981130292582
 27
506.2078661694218
 37
0.2149775178900413
 40
202.3146860750165
 41
1.708547888774459
 42
50.0
 43
0.0
 44
0.0
 50
0.0
 51
0.0000000000000002
 71
     0
 72
   100
 73
     1
 74
     3
 75
     0
 76
     0
 77
     0
 78
     0
281
     0
 65
     1
110
0.0
120
0.0
130
0.0
111
1.0
121
0.0
131
0.0
112
0.0
122
1.0
132
0.0
 79
     0
146
0.0
  0
ENDTAB
  0
TABLE
  2
LTYPE
  5
5A68
330
0
100
AcDbSymbolTable
 70
    11
  0
LTYPE
  5
5A8B
330
5A68
100
AcDbSymbolTableRecord
100
AcDbLinetypeTableRecord
  2
ByBlock
 70
     0
  3

 72
    65
 73
     0
 40
0.0
  0
LTYPE
  5
5A8C
330
5A68
100
AcDbSymbolTableRecord
100
AcDbLinetypeTableRecord
  2
ByLayer
 70
     0
  3

 72
    65
 73
     0
 40
0.0
  0
LTYPE
  5
5A8D
330
5A68
100
AcDbSymbolTableRecord
100
AcDbLinetypeTableRecord
  2
CONTINUOUS
 70
     0
  3
Solid line
 72
    65
 73
     0
 40
0.0
  0
LTYPE
  5
5CF2
330
5A68
100
AcDbSymbolTableRecord
100
AcDbLinetypeTableRecord
  2
CENTER
 70
     0
  3
____ _ ____ _ ____ _ ____ _ ____ _ ____ _ ____
 72
    65
 73
     4
 40
0.6
 49
0.375
 74
     0
 49
-0.075
 74
     0
 49
0.075
 74
     0
 49
-0.075
 74
     0
  0
ENDTAB
  0
TABLE
  2
LAYER
  5
5A65
330
0
100
AcDbSymbolTable
 70
   223
  0
LAYER
  5
5A88
330
5A65
100
AcDbSymbolTableRecord
100
AcDbLayerTableRecord
  2
0
 70
     0
 62
     7
  6
CONTINUOUS
370
    -3
390
5A72
  0
LAYER
  5
5CF4
330
5A65
100
AcDbSymbolTableRecord
100
AcDbLayerTableRecord
  2
Defpoints
 70
     0
 62
     7
  6
CONTINUOUS
290
     0
370
    -3
390
5A72
  0
LAYER
  5
5CF5
330
5A65
100
AcDbSymbolTableRecord
100
AcDbLayerTableRecord
  2
91000_TIP
 70
     0
 62
     7
  6
CONTINUOUS
370
    -3
390
5A72
  0
LAYER
  5
5CF6
330
5A65
100
AcDbSymbolTableRecord
100
AcDbLayerTableRecord
  2
11000_Left
 70
     0
 62
     7
  6
CONTINUOUS
370
    -3
390
5A72
  0
LAYER
  5
5CF7
330
5A65
100
AcDbSymbolTableRecord
100
AcDbLayerTableRecord
  2
10000_FRONT
 70
     0
 62
     7
  6
CONTINUOUS
370
    -3
390
5A72
  0
LAYER
  5
5CF8
330
5A65
100
AcDbSymbolTableRecord
100
AcDbLayerTableRecord
  2
10100_FRONT_DIM
 70
     0
 62
     7
  6
CONTINUOUS
370
    -3
390
5A72
  0
LAYER
  5
5CF9
330
5A65
100
AcDbSymbolTableRecord
100
AcDbLayerTableRecord
  2
90000_FRAME
 70
     0
 62
     7
  6
CONTINUOUS
370
    -3
390
5A72
  0
LAYER
  5
5CFA
330
5A65
100
AcDbSymbolTableRecord
100
AcDbLayerTableRecord
  2
11100_LEFT_DIM
 70
     0
 62
     7
  6
CONTINUOUS
370
    -3
390
5A72
  0
ENDTAB
  0
TABLE
  2
STYLE
  5
5A66
330
0
100
AcDbSymbolTable
 70
     4
  0
STYLE
  5
5A89
330
5A66
100
AcDbSymbolTableRecord
100
AcDbTextStyleTableRecord
  2
STANDARD
 70
     0
 40
0.0
 41
1.0
 50
0.0
 71
     0
 42
1.0
  3
monotxt.shx
  4

  0
ENDTAB
  0
TABLE
  2
VIEW
  5
5A69
330
0
100
AcDbSymbolTable
 70
     0
  0
ENDTAB
  0
TABLE
  2
UCS
  5
5A6A
330
0
100
AcDbSymbolTable
 70
     0
  0
ENDTAB
  0
TABLE
  2
APPID
  5
5A6C
330
0
100
AcDbSymbolTable
 70
     5
  0
APPID
  5
5A8A
330
5A6C
100
AcDbSymbolTableRecord
100
AcDbRegAppTableRecord
  2
ACAD
 70
     0
  0
APPID
  5
5BBD
330
5A6C
100
AcDbSymbolTableRecord
100
AcDbRegAppTableRecord
  2
ACAD_EXEMPT_FROM_CAD_STANDARDS
 70
     0
  0
APPID
  5
5CFE
330
5A6C
100
AcDbSymbolTableRecord
100
AcDbRegAppTableRecord
  2
AUSTER_ANSICHT
 70
     0
  0
APPID
  5
5CFF
330
5A6C
100
AcDbSymbolTableRecord
100
AcDbRegAppTableRecord
  2
AUSTER_FOLIE
 70
     0
  0
APPID
  5
6A2F
330
5A6C
100
AcDbSymbolTableRecord
100
AcDbRegAppTableRecord
  2
ACAD_PSEXT
 70
     0
  0
ENDTAB
  0
TABLE
  2
DIMSTYLE
  5
5A6D
330
0
100
AcDbSymbolTable
 70
     8
100
AcDbDimStyleTable
 71
     3
340
5ADD
340
5CFD
340
5CFC
  0
DIMSTYLE
105
5ADD
330
5A6D
100
AcDbSymbolTableRecord
100
AcDbDimStyleTableRecord
  2
STANDARD
 70
     0
 41
0.125
 43
0.25
 44
0.125
 47
0.005
 48
-0.005
140
3.0
147
0.0625
171
     0
172
     1
271
     3
272
     3
274
     0
279
     2
340
5A89
  0
DIMSTYLE
105
5CFC
102
{ACAD_REACTORS
330
5DF5
330
5DF6
330
5DF7
330
5DF8
330
5E5E
330
5F9E
330
5F9F
330
5FA0
330
5FA1
330
5FD4
330
6457
330
6471
330
643D
102
}
330
5A6D
100
AcDbSymbolTableRecord
100
AcDbDimStyleTableRecord
  2
H035
 70
     0
 40
0.0
 41
2.5
 42
2.0
 43
4.0
 44
1.0
 73
     0
 74
     0
 78
     8
140
3.5
141
2.5
143
0.0394
147
2.0
171
     4
172
     1
176
     7
177
     7
178
     7
271
     0
272
     0
273
     8
274
     4
277
     6
340
5A89
  0
DIMSTYLE
105
5CFD
102
{ACAD_REACTORS
330
5D2E
330
63CD
330
63F1
330
6423
330
640B
330
63B5
330
6503
102
}
330
5A6D
100
AcDbSymbolTableRecord
100
AcDbDimStyleTableRecord
  2
DSTYLE2
 70
     0
 41
3.0
 42
1.0
 43
0.5
 44
1.0
 73
     0
 74
     0
 78
     3
140
4.0
143
0.039370079
147
1.0
271
     0
340
5A89
  0
ENDTAB
  0
TABLE
  2
BLOCK_RECORD
  5
5A64
330
0
100
AcDbSymbolTable
 70
   106
  0
BLOCK_RECORD
  5
5A99
102
{ACAD_XDICTIONARY
360
5BD5
102
}
330
5A64
100
AcDbSymbolTableRecord
100
AcDbBlockTableRecord
  2
*Model_Space
340
5A9C
  0
BLOCK_RECORD
  5
5A95
330
5A64
100
AcDbSymbolTableRecord
100
AcDbBlockTableRecord
  2
*Paper_Space
340
5A98
  0
BLOCK_RECORD
  5
5BF5
330
5A64
100
AcDbSymbolTableRecord
100
AcDbBlockTableRecord
  2
SIEMENS_OUTLINE_BL0
340
0
102
{BLKREFS
331
5D19
331
5FF3
102
}
  0
BLOCK_RECORD
  5
63B6
330
5A64
100
AcDbSymbolTableRecord
100
AcDbBlockTableRecord
  2
*D81
340
0
  0
BLOCK_RECORD
  5
63CE
330
5A64
100
AcDbSymbolTableRecord
100
AcDbBlockTableRecord
  2
*D82
340
0
  0
BLOCK_RECORD
  5
63F2
330
5A64
100
AcDbSymbolTableRecord
100
AcDbBlockTableRecord
  2
*D83
340
0
  0
BLOCK_RECORD
  5
640C
330
5A64
100
AcDbSymbolTableRecord
100
AcDbBlockTableRecord
  2
*D84
340
0
  0
BLOCK_RECORD
  5
6424
330
5A64
100
AcDbSymbolTableRecord
100
AcDbBlockTableRecord
  2
*D85
340
0
  0
BLOCK_RECORD
  5
643E
330
5A64
100
AcDbSymbolTableRecord
100
AcDbBlockTableRecord
  2
*D86
340
0
  0
BLOCK_RECORD
  5
6458
330
5A64
100
AcDbSymbolTableRecord
100
AcDbBlockTableRecord
  2
*D87
340
0
  0
BLOCK_RECORD
  5
6472
330
5A64
100
AcDbSymbolTableRecord
100
AcDbBlockTableRecord
  2
*D88
340
0
  0
BLOCK_RECORD
  5
6504
330
5A64
100
AcDbSymbolTableRecord
100
AcDbBlockTableRecord
  2
*D89
340
0
  0
ENDTAB
  0
ENDSEC
  0
SECTION
  2
BLOCKS
  0
BLOCK
  5
5BB7
330
5A99
100
AcDbEntity
  8
0
 62
     1
100
AcDbBlockBegin
  2
*Model_Space
 70
     0
 10
0.0
 20
0.0
 30
0.0
  3
*Model_Space
  1

  0
ENDBLK
  5
5BB8
330
5A99
100
AcDbEntity
  8
0
 62
     1
100
AcDbBlockEnd
  0
BLOCK
  5
5BB5
330
5A95
100
AcDbEntity
 67
     1
  8
0
 62
     1
100
AcDbBlockBegin
  2
*Paper_Space
 70
     0
 10
0.0
 20
0.0
 30
0.0
  3
*Paper_Space
  1

  0
ENDBLK
  5
5BB6
330
5A95
100
AcDbEntity
 67
     1
  8
0
 62
     1
100
AcDbBlockEnd
  0
BLOCK
  5
5BF6
330
5BF5
100
AcDbEntity
  8
0
  6
Continuous
 62
     7
100
AcDbBlockBegin
  2
SIEMENS_OUTLINE_BL0
 70
     0
 10
0.0
 20
0.0
 30
0.0
  3
SIEMENS_OUTLINE_BL0
  1

  0
LINE
  5
5BF7
330
5BF5
100
AcDbEntity
  8
0
  6
Continuous
 62
     7
100
AcDbLine
 10
79.186200508
 20
21.4145478991
 30
0.0
 11
79.186200508
 21
16.6612788158
 31
0.0
  0
LINE
  5
5BF8
330
5BF5
100
AcDbEntity
  8
0
  6
Continuous
 62
     7
100
AcDbLine
 10
80.61218123299999
 20
21.4145478991
 30
0.0
 11
80.61218123299999
 21
16.6612788158
 31
0.0
  0
LINE
  5
5BF9
330
5BF5
100
AcDbEntity
  8
0
  6
Continuous
 62
     7
100
AcDbLine
 10
79.186200508
 20
16.6612788158
 30
0.0
 11
80.61218123299999
 21
16.6612788158
 31
0.0
  0
LINE
  5
5BFA
330
5BF5
100
AcDbEntity
  8
0
  6
Continuous
 62
     7
100
AcDbLine
 10
79.186200508
 20
21.4145478991
 30
0.0
 11
80.61218123299999
 21
21.4145478991
 31
0.0
  0
LINE
  5
5BFB
330
5BF5
100
AcDbEntity
  8
0
  6
Continuous
 62
     7
100
AcDbLine
 10
81.7054331221
 20
21.4145478991
 30
0.0
 11
81.7054331221
 21
16.6612788158
 31
0.0
  0
LINE
  5
5BFC
330
5BF5
100
AcDbEntity
  8
0
  6
Continuous
 62
     7
100
AcDbLine
 10
81.7054331221
 20
16.6612788158
 30
0.0
 11
85.2703849346
 21
16.6612788158
 31
0.0
  0
LINE
  5
5BFD
330
5BF5
100
AcDbEntity
  8
0
  6
Continuous
 62
     7
100
AcDbLine
 10
85.2703849346
 20
17.56439994169999
 30
0.0
 11
83.0838811563
 21
17.56439994169999
 31
0.0
  0
LINE
  5
5BFE
330
5BF5
100
AcDbEntity
  8
0
  6
Continuous
 62
     7
100
AcDbLine
 10
85.2703849346
 20
17.56439994169999
 30
0.0
 11
85.2703849346
 21
16.6612788158
 31
0.0
  0
LINE
  5
5BFF
330
5BF5
100
AcDbEntity
  8
0
  6
Continuous
 62
     7
100
AcDbLine
 10
85.2228522438
 20
21.4145478991
 30
0.0
 11
81.7054331221
 21
21.4145478991
 31
0.0
  0
LINE
  5
5C00
330
5BF5
100
AcDbEntity
  8
0
  6
Continuous
 62
     7
100
AcDbLine
 10
85.2228522438
 20
20.5351931187
 30
0.0
 11
83.0838811563
 21
20.5351931187
 31
0.0
  0
LINE
  5
5C01
330
5BF5
100
AcDbEntity
  8
0
  6
Continuous
 62
     7
100
AcDbLine
 10
85.2228522438
 20
21.4145478991
 30
0.0
 11
85.2228522438
 21
20.5351931187
 31
0.0
  0
LINE
  5
5C02
330
5BF5
100
AcDbEntity
  8
0
  6
Continuous
 62
     7
100
AcDbLine
 10
84.9376560988
 20
18.68141817619999
 30
0.0
 11
83.0838811563
 21
18.68141817619999
 31
0.0
  0
LINE
  5
5C03
330
5BF5
100
AcDbEntity
  8
0
  6
Continuous
 62
     7
100
AcDbLine
 10
84.9376560988
 20
19.46570757499999
 30
0.0
 11
84.9376560988
 21
18.68141817619999
 31
0.0
  0
LINE
  5
5C04
330
5BF5
100
AcDbEntity
  8
0
  6
Continuous
 62
     7
100
AcDbLine
 10
84.9376560988
 20
19.46570757499999
 30
0.0
 11
83.0838811563
 21
19.46570757499999
 31
0.0
  0
LINE
  5
5C05
330
5BF5
100
AcDbEntity
  8
0
  6
Continuous
 62
     7
100
AcDbLine
 10
83.0838811563
 20
20.5351931187
 30
0.0
 11
83.0838811563
 21
19.46570757499999
 31
0.0
  0
LINE
  5
5C06
330
5BF5
100
AcDbEntity
  8
0
  6
Continuous
 62
     7
100
AcDbLine
 10
83.0838811563
 20
18.68141817619999
 30
0.0
 11
83.0838811563
 21
17.56439994169999
 31
0.0
  0
LINE
  5
5C07
330
5BF5
100
AcDbEntity
  8
0
  6
Continuous
 62
     7
100
AcDbLine
 10
86.0784406788
 20
16.6612788158
 30
0.0
 11
86.0784406788
 21
21.4145478991
 31
0.0
  0
LINE
  5
5C08
330
5BF5
100
AcDbEntity
  8
0
  6
Continuous
 62
     7
100
AcDbLine
 10
86.0784406788
 20
16.6612788158
 30
0.0
 11
87.02909449539999
 21
16.6612788158
 31
0.0
  0
LINE
  5
5C09
330
5BF5
100
AcDbEntity
  8
0
  6
Continuous
 62
     7
100
AcDbLine
 10
91.92496165120001
 20
21.4145478991
 30
0.0
 11
91.92496165120001
 21
16.6612788158
 31
0.0
  0
LINE
  5
5C0A
330
5BF5
100
AcDbEntity
  8
0
  6
Continuous
 62
     7
100
AcDbLine
 10
91.92496165120001
 20
16.6612788158
 30
0.0
 11
90.54651361700001
 21
16.6612788158
 31
0.0
  0
LINE
  5
5C0B
330
5BF5
100
AcDbEntity
  8
0
  6
Continuous
 62
     7
100
AcDbLine
 10
88.3600098387
 20
16.61374612499999
 30
0.0
 11
89.21559827370002
 21
16.61374612499999
 31
0.0
  0
LINE
  5
5C0C
330
5BF5
100
AcDbEntity
  8
0
  6
Continuous
 62
     7
100
AcDbLine
 10
88.3600098387
 20
16.61374612499999
 30
0.0
 11
87.02909449539999
 21
19.7033710291
 31
0.0
  0
LINE
  5
5C0D
330
5BF5
100
AcDbEntity
  8
0
  6
Continuous
 62
     7
100
AcDbLine
 10
87.02909449539999
 20
16.6612788158
 30
0.0
 11
87.02909449539999
 21
19.7033710291
 31
0.0
  0
LINE
  5
5C0E
330
5BF5
100
AcDbEntity
  8
0
  6
Continuous
 62
     7
100
AcDbLine
 10
90.54651361700001
 20
19.75090372
 30
0.0
 11
89.21559827370002
 21
16.61374612499999
 31
0.0
  0
LINE
  5
5C0F
330
5BF5
100
AcDbEntity
  8
0
  6
Continuous
 62
     7
100
AcDbLine
 10
87.78961754870001
 20
21.4145478991
 30
0.0
 11
86.0784406788
 21
21.4145478991
 31
0.0
  0
LINE
  5
5C10
330
5BF5
100
AcDbEntity
  8
0
  6
Continuous
 62
     7
100
AcDbLine
 10
91.92496165120001
 20
21.4145478991
 30
0.0
 11
90.2137847812
 21
21.4145478991
 31
0.0
  0
LINE
  5
5C11
330
5BF5
100
AcDbEntity
  8
0
  6
Continuous
 62
     7
100
AcDbLine
 10
87.78961754870001
 20
21.4145478991
 30
0.0
 11
89.0254675104
 21
18.51505375829999
 31
0.0
  0
LINE
  5
5C12
330
5BF5
100
AcDbEntity
  8
0
  6
Continuous
 62
     7
100
AcDbLine
 10
90.2137847812
 20
21.4145478991
 30
0.0
 11
89.0254675104
 21
18.51505375829999
 31
0.0
  0
LINE
  5
5C13
330
5BF5
100
AcDbEntity
  8
0
  6
Continuous
 62
     7
100
AcDbLine
 10
90.54651361700001
 20
19.75090372
 30
0.0
 11
90.54651361700001
 21
16.6612788158
 31
0.0
  0
LINE
  5
5C14
330
5BF5
100
AcDbEntity
  8
0
  6
Continuous
 62
     7
100
AcDbLine
 10
93.01821354030002
 20
21.4145478991
 30
0.0
 11
93.01821354030002
 21
16.6612788158
 31
0.0
  0
LINE
  5
5C15
330
5BF5
100
AcDbEntity
  8
0
  6
Continuous
 62
     7
100
AcDbLine
 10
93.01821354030002
 20
16.6612788158
 30
0.0
 11
96.5831653528
 21
16.6612788158
 31
0.0
  0
LINE
  5
5C16
330
5BF5
100
AcDbEntity
  8
0
  6
Continuous
 62
     7
100
AcDbLine
 10
96.5831653528
 20
17.56439994169999
 30
0.0
 11
94.3966615745
 21
17.56439994169999
 31
0.0
  0
LINE
  5
5C17
330
5BF5
100
AcDbEntity
  8
0
  6
Continuous
 62
     7
100
AcDbLine
 10
96.5831653528
 20
17.56439994169999
 30
0.0
 11
96.5831653528
 21
16.6612788158
 31
0.0
  0
LINE
  5
5C18
330
5BF5
100
AcDbEntity
  8
0
  6
Continuous
 62
     7
100
AcDbLine
 10
96.53563266200002
 20
21.4145478991
 30
0.0
 11
93.01821354030002
 21
21.4145478991
 31
0.0
  0
LINE
  5
5C19
330
5BF5
100
AcDbEntity
  8
0
  6
Continuous
 62
     7
100
AcDbLine
 10
96.53563266200002
 20
20.5351931187
 30
0.0
 11
94.3966615745
 21
20.5351931187
 31
0.0
  0
LINE
  5
5C1A
330
5BF5
100
AcDbEntity
  8
0
  6
Continuous
 62
     7
100
AcDbLine
 10
96.53563266200002
 20
21.4145478991
 30
0.0
 11
96.53563266200002
 21
20.5351931187
 31
0.0
  0
LINE
  5
5C1B
330
5BF5
100
AcDbEntity
  8
0
  6
Continuous
 62
     7
100
AcDbLine
 10
96.25043651700002
 20
18.68141817619999
 30
0.0
 11
94.3966615745
 21
18.68141817619999
 31
0.0
  0
LINE
  5
5C1C
330
5BF5
100
AcDbEntity
  8
0
  6
Continuous
 62
     7
100
AcDbLine
 10
96.25043651700002
 20
19.46570757499999
 30
0.0
 11
96.25043651700002
 21
18.68141817619999
 31
0.0
  0
LINE
  5
5C1D
330
5BF5
100
AcDbEntity
  8
0
  6
Continuous
 62
     7
100
AcDbLine
 10
96.25043651700002
 20
19.46570757499999
 30
0.0
 11
94.3966615745
 21
19.46570757499999
 31
0.0
  0
LINE
  5
5C1E
330
5BF5
100
AcDbEntity
  8
0
  6
Continuous
 62
     7
100
AcDbLine
 10
94.3966615745
 20
20.5351931187
 30
0.0
 11
94.3966615745
 21
19.46570757499999
 31
0.0
  0
LINE
  5
5C1F
330
5BF5
100
AcDbEntity
  8
0
  6
Continuous
 62
     7
100
AcDbLine
 10
94.3966615745
 20
18.68141817619999
 30
0.0
 11
94.3966615745
 21
17.56439994169999
 31
0.0
  0
LINE
  5
5C20
330
5BF5
100
AcDbEntity
  8
0
  6
Continuous
 62
     7
100
AcDbLine
 10
97.3674547515
 20
16.6612788158
 30
0.0
 11
97.3674547515
 21
21.4145478991
 31
0.0
  0
LINE
  5
5C21
330
5BF5
100
AcDbEntity
  8
0
  6
Continuous
 62
     7
100
AcDbLine
 10
101.5503315447999
 20
21.4145478991
 30
0.0
 11
101.5503315447999
 21
16.6612788158
 31
0.0
  0
LINE
  5
5C22
330
5BF5
100
AcDbEntity
  8
0
  6
Continuous
 62
     7
100
AcDbLine
 10
97.3674547515
 20
16.6612788158
 30
0.0
 11
98.3181085682
 21
16.6612788158
 31
0.0
  0
LINE
  5
5C23
330
5BF5
100
AcDbEntity
  8
0
  6
Continuous
 62
     7
100
AcDbLine
 10
101.5503315447999
 20
21.4145478991
 30
0.0
 11
100.5996777281999
 21
21.4145478991
 31
0.0
  0
LINE
  5
5C24
330
5BF5
100
AcDbEntity
  8
0
  6
Continuous
 62
     7
100
AcDbLine
 10
98.91226720360002
 20
21.4145478991
 30
0.0
 11
97.3674547515
 21
21.4145478991
 31
0.0
  0
LINE
  5
5C25
330
5BF5
100
AcDbEntity
  8
0
  6
Continuous
 62
     7
100
AcDbLine
 10
101.5503315447999
 20
16.6612788158
 30
0.0
 11
100.0292854381999
 21
16.6612788158
 31
0.0
  0
LINE
  5
5C26
330
5BF5
100
AcDbEntity
  8
0
  6
Continuous
 62
     7
100
AcDbLine
 10
100.0292854381999
 20
16.6612788158
 30
0.0
 11
98.3181085682
 21
19.7033710291
 31
0.0
  0
LINE
  5
5C27
330
5BF5
100
AcDbEntity
  8
0
  6
Continuous
 62
     7
100
AcDbLine
 10
98.91226720360002
 20
21.4145478991
 30
0.0
 11
100.5996777281999
 21
18.4675210675
 31
0.0
  0
LINE
  5
5C28
330
5BF5
100
AcDbEntity
  8
0
  6
Continuous
 62
     7
100
AcDbLine
 10
100.5996777281999
 20
21.4145478991
 30
0.0
 11
100.5996777281999
 21
18.4675210675
 31
0.0
  0
LINE
  5
5C29
330
5BF5
100
AcDbEntity
  8
0
  6
Continuous
 62
     7
100
AcDbLine
 10
98.3181085682
 20
16.6612788158
 30
0.0
 11
98.3181085682
 21
19.7033710291
 31
0.0
  0
LINE
  5
5C2A
330
5BF5
100
AcDbEntity
  8
0
  6
Continuous
 62
     7
100
AcDbLine
 10
102.3583872889999
 20
16.75634419749999
 30
0.0
 11
102.3583872889999
 21
17.7069980142
 31
0.0
  0
LINE
  5
5C2B
330
5BF5
100
AcDbEntity
  8
0
  6
Continuous
 62
     7
100
AcDbLine
 10
105.6856756473
 20
20.4163613916
 30
0.0
 11
105.6856756473
 21
21.36701520829999
 31
0.0
  0
ARC
  5
5C2C
330
5BF5
100
AcDbEntity
  8
0
  6
Continuous
 62
     7
100
AcDbCircle
 10
104.063028414
 20
18.61843736089998
 30
0.0
 40
1.111619360599997
100
AcDbArc
 50
277.7099956934
 51
295.6884927745999
  0
ARC
  5
5C2D
330
5BF5
100
AcDbEntity
  8
0
  6
Continuous
 62
     7
100
AcDbCircle
 10
104.3473383967
 20
17.8936115972
 30
0.0
 40
0.3401689265
100
AcDbArc
 50
305.503221255
 51
72.46528985229999
  0
ARC
  5
5C2E
330
5BF5
100
AcDbEntity
  8
0
  6
Continuous
 62
     7
100
AcDbCircle
 10
103.7813445885999
 20
21.2953185068
 30
0.0
 40
4.756794641099999
100
AcDbArc
 50
252.5939200548001
 51
280.9816604255999
  0
ARC
  5
5C2F
330
5BF5
100
AcDbEntity
  8
0
  6
Continuous
 62
     7
100
AcDbCircle
 10
104.2361799517
 20
18.6773047703
 30
0.0
 40
2.100726595299998
100
AcDbArc
 50
282.4058358519999
 51
311.8644433928
  0
ARC
  5
5C30
330
5BF5
100
AcDbEntity
  8
0
  6
Continuous
 62
     7
100
AcDbCircle
 10
103.9626156045999
 20
20.2856464918
 30
0.0
 40
0.3029626476
100
AcDbArc
 50
154.4400348282
 51
221.8201698800999
  0
ARC
  5
5C31
330
5BF5
100
AcDbEntity
  8
0
  6
Continuous
 62
     7
100
AcDbCircle
 10
104.0418367559
 20
20.2064253405
 30
0.0
 40
0.4103089737
100
AcDbArc
 50
102.8287828680999
 51
149.2259639003
  0
ARC
  5
5C32
330
5BF5
100
AcDbEntity
  8
0
  6
Continuous
 62
     7
100
AcDbCircle
 10
104.4588635915999
 20
18.46409001059999
 30
0.0
 40
2.201836557
100
AcDbArc
 50
84.0400061857
 51
103.3427657870999
  0
ARC
  5
5C33
330
5BF5
100
AcDbEntity
  8
0
  6
Continuous
 62
     7
100
AcDbCircle
 10
104.1178997669
 20
16.0467260867
 30
0.0
 40
4.642373736499997
100
AcDbArc
 50
70.2625858546
 51
82.95241863799999
  0
ARC
  5
5C34
330
5BF5
100
AcDbEntity
  8
0
  6
Continuous
 62
     7
100
AcDbCircle
 10
103.6038815646999
 20
20.7183489764
 30
0.0
 40
3.258755990899997
100
AcDbArc
 50
247.5300206145
 51
280.7579522143
  0
ARC
  5
5C35
330
5BF5
100
AcDbEntity
  8
0
  6
Continuous
 62
     7
100
AcDbCircle
 10
97.21891509270001
 20
2.4668290159
 30
0.0
 40
17.3316084133
100
AcDbArc
 50
65.34146746500001
 51
67.39977707359999
  0
ARC
  5
5C36
330
5BF5
100
AcDbEntity
  8
0
  6
Continuous
 62
     7
100
AcDbCircle
 10
108.0147774981
 20
28.259255379
 30
0.0
 40
10.6291642039
100
AcDbArc
 50
242.8620101252001
 51
247.1042029186
  0
ARC
  5
5C37
330
5BF5
100
AcDbEntity
  8
0
  6
Continuous
 62
     7
100
AcDbCircle
 10
104.1598762715
 20
20.725323882
 30
0.0
 40
2.166291629199998
100
AcDbArc
 50
227.3119280793999
 51
242.7040315235
  0
ARC
  5
5C38
330
5BF5
100
AcDbEntity
  8
0
  6
Continuous
 62
     7
100
AcDbCircle
 10
103.5558454618999
 20
20.0196462412
 30
0.0
 40
1.238521734
100
AcDbArc
 50
194.7952194236
 51
225.7176549047
  0
ARC
  5
5C39
330
5BF5
100
AcDbEntity
  8
0
  6
Continuous
 62
     7
100
AcDbCircle
 10
103.6180035961
 20
20.05986621039999
 30
0.0
 40
1.309092072899999
100
AcDbArc
 50
164.1974860461
 51
195.8025139539
  0
ARC
  5
5C3A
330
5BF5
100
AcDbEntity
  8
0
  6
Continuous
 62
     7
100
AcDbCircle
 10
104.1750273167
 20
19.1715990505
 30
0.0
 40
2.366924815299999
100
AcDbArc
 50
86.22180229280001
 51
120.4272602309
  0
ARC
  5
5C3B
330
5BF5
100
AcDbEntity
  8
0
  6
Continuous
 62
     7
100
AcDbCircle
 10
103.9061705341999
 20
12.4754312294
 30
0.0
 40
9.0679051661
100
AcDbArc
 50
78.68270492259998
 51
87.3147599624
  0
ARC
  5
5C3C
330
5BF5
100
AcDbEntity
  8
0
  6
Continuous
 62
     7
100
AcDbCircle
 10
103.4501013557999
 20
20.1673739729
 30
0.0
 40
1.119747444
100
AcDbArc
 50
142.8139179029999
 51
167.1522951416999
  0
ARC
  5
5C3D
330
5BF5
100
AcDbEntity
  8
0
  6
Continuous
 62
     7
100
AcDbCircle
 10
103.7954106973999
 20
19.86079227619999
 30
0.0
 40
1.580546684499998
100
AcDbArc
 50
121.2140948535
 51
141.5254768286
  0
ARC
  5
5C3E
330
5BF5
100
AcDbEntity
  8
0
  6
Continuous
 62
     7
100
AcDbCircle
 10
104.372585063
 20
20.6718496049
 30
0.0
 40
0.8661276051999998
100
AcDbArc
 50
222.7760387596
 51
239.0362434679
  0
ARC
  5
5C3F
330
5BF5
100
AcDbEntity
  8
0
  6
Continuous
 62
     7
100
AcDbCircle
 10
101.8658754847
 20
13.3415774063
 30
0.0
 40
6.858773576299999
100
AcDbArc
 50
59.90202725599999
 51
68.2036481279
  0
ARC
  5
5C40
330
5BF5
100
AcDbEntity
  8
0
  6
Continuous
 62
     7
100
AcDbCircle
 10
105.2743699785
 20
22.26746391349999
 30
0.0
 40
2.698741017099999
100
AcDbArc
 50
240.0481997804
 51
251.3779673736999
  0
ARC
  5
5C41
330
5BF5
100
AcDbEntity
  8
0
  6
Continuous
 62
     7
100
AcDbCircle
 10
104.6089128116999
 20
18.1105652982
 30
0.0
 40
1.4334474881
100
AcDbArc
 50
315.8904553224
 51
333.5229264372999
  0
ARC
  5
5C42
330
5BF5
100
AcDbEntity
  8
0
  6
Continuous
 62
     7
100
AcDbCircle
 10
104.6135510555
 20
18.057158148
 30
0.0
 40
1.406228711899998
100
AcDbArc
 50
335.3867972702
 51
24.39151194019999
  0
ARC
  5
5C43
330
5BF5
100
AcDbEntity
  8
0
  6
Continuous
 62
     7
100
AcDbCircle
 10
104.5413461519
 20
17.97930145619999
 30
0.0
 40
1.504702514799999
100
AcDbArc
 50
25.95629166050001
 51
59.4834829668
  0
LINE
  5
5C44
330
5BF5
100
AcDbEntity
  8
0
  6
Continuous
 62
     7
100
AcDbLine
 10
74.7656602606
 20
16.75634419749999
 30
0.0
 11
74.7656602606
 21
17.7069980142
 31
0.0
  0
LINE
  5
5C45
330
5BF5
100
AcDbEntity
  8
0
  6
Continuous
 62
     7
100
AcDbLine
 10
78.09294861879997
 20
20.4163613916
 30
0.0
 11
78.09294861879997
 21
21.36701520829999
 31
0.0
  0
ARC
  5
5C46
330
5BF5
100
AcDbEntity
  8
0
  6
Continuous
 62
     7
100
AcDbCircle
 10
76.4703013855
 20
18.61843736089998
 30
0.0
 40
1.111619360599997
100
AcDbArc
 50
277.7099956934
 51
295.6884927745999
  0
ARC
  5
5C47
330
5BF5
100
AcDbEntity
  8
0
  6
Continuous
 62
     7
100
AcDbCircle
 10
76.7546113683
 20
17.8936115972
 30
0.0
 40
0.3401689265
100
AcDbArc
 50
305.5032212556
 51
72.4652898515
  0
ARC
  5
5C48
330
5BF5
100
AcDbEntity
  8
0
  6
Continuous
 62
     7
100
AcDbCircle
 10
76.1886175602
 20
21.2953185068
 30
0.0
 40
4.756794641099999
100
AcDbArc
 50
252.5939200545
 51
280.9816604253
  0
ARC
  5
5C49
330
5BF5
100
AcDbEntity
  8
0
  6
Continuous
 62
     7
100
AcDbCircle
 10
76.64345292330001
 20
18.6773047703
 30
0.0
 40
2.100726595299998
100
AcDbArc
 50
282.4058358513
 51
311.8644433923
  0
ARC
  5
5C4A
330
5BF5
100
AcDbEntity
  8
0
  6
Continuous
 62
     7
100
AcDbCircle
 10
76.3698885762
 20
20.2856464918
 30
0.0
 40
0.3029626476
100
AcDbArc
 50
154.4400348282
 51
221.8201698800999
  0
ARC
  5
5C4B
330
5BF5
100
AcDbEntity
  8
0
  6
Continuous
 62
     7
100
AcDbCircle
 10
76.4491097276
 20
20.2064253405
 30
0.0
 40
0.4103089737
100
AcDbArc
 50
102.8287828727
 51
149.2259639027
  0
ARC
  5
5C4C
330
5BF5
100
AcDbEntity
  8
0
  6
Continuous
 62
     7
100
AcDbCircle
 10
76.8661365632
 20
18.46409001059999
 30
0.0
 40
2.201836557
100
AcDbArc
 50
84.0400061859
 51
103.3427657871999
  0
ARC
  5
5C4D
330
5BF5
100
AcDbEntity
  8
0
  6
Continuous
 62
     7
100
AcDbCircle
 10
76.5251727384
 20
16.0467260867
 30
0.0
 40
4.642373736499997
100
AcDbArc
 50
70.2625858546
 51
82.9524186379
  0
ARC
  5
5C4E
330
5BF5
100
AcDbEntity
  8
0
  6
Continuous
 62
     7
100
AcDbCircle
 10
76.0111545363
 20
20.7183489764
 30
0.0
 40
3.258755990899997
100
AcDbArc
 50
247.5300206148
 51
280.7579522145
  0
ARC
  5
5C4F
330
5BF5
100
AcDbEntity
  8
0
  6
Continuous
 62
     7
100
AcDbCircle
 10
69.6261880643
 20
2.4668290159
 30
0.0
 40
17.3316084133
100
AcDbArc
 50
65.34146746500001
 51
67.39977707359999
  0
ARC
  5
5C50
330
5BF5
100
AcDbEntity
  8
0
  6
Continuous
 62
     7
100
AcDbCircle
 10
80.4220504697
 20
28.259255379
 30
0.0
 40
10.6291642039
100
AcDbArc
 50
242.8620101252001
 51
247.1042029184999
  0
ARC
  5
5C51
330
5BF5
100
AcDbEntity
  8
0
  6
Continuous
 62
     7
100
AcDbCircle
 10
76.56714924310001
 20
20.725323882
 30
0.0
 40
2.166291629199998
100
AcDbArc
 50
227.3119280793999
 51
242.7040315235
  0
ARC
  5
5C52
330
5BF5
100
AcDbEntity
  8
0
  6
Continuous
 62
     7
100
AcDbCircle
 10
75.9631184335
 20
20.0196462412
 30
0.0
 40
1.238521734
100
AcDbArc
 50
194.7952194234
 51
225.7176549041999
  0
ARC
  5
5C53
330
5BF5
100
AcDbEntity
  8
0
  6
Continuous
 62
     7
100
AcDbCircle
 10
76.58230028830002
 20
19.1715990505
 30
0.0
 40
2.366924815299999
100
AcDbArc
 50
86.22180229280001
 51
120.4272602309
  0
ARC
  5
5C54
330
5BF5
100
AcDbEntity
  8
0
  6
Continuous
 62
     7
100
AcDbCircle
 10
76.3134435058
 20
12.4754312294
 30
0.0
 40
9.0679051661
100
AcDbArc
 50
78.68270492259998
 51
87.3147599624
  0
ARC
  5
5C55
330
5BF5
100
AcDbEntity
  8
0
  6
Continuous
 62
     7
100
AcDbCircle
 10
76.20268366899998
 20
19.86079227619999
 30
0.0
 40
1.580546684599998
100
AcDbArc
 50
121.2140948540999
 51
141.5254768289999
  0
ARC
  5
5C56
330
5BF5
100
AcDbEntity
  8
0
  6
Continuous
 62
     7
100
AcDbCircle
 10
76.7798580346
 20
20.6718496049
 30
0.0
 40
0.8661276051999998
100
AcDbArc
 50
222.7760387596
 51
239.0362434679
  0
ARC
  5
5C57
330
5BF5
100
AcDbEntity
  8
0
  6
Continuous
 62
     7
100
AcDbCircle
 10
74.2731484563
 20
13.3415774063
 30
0.0
 40
6.858773576299999
100
AcDbArc
 50
59.90202725620001
 51
68.20364812820002
  0
ARC
  5
5C58
330
5BF5
100
AcDbEntity
  8
0
  6
Continuous
 62
     7
100
AcDbCircle
 10
77.6816429501
 20
22.26746391349999
 30
0.0
 40
2.698741017099999
100
AcDbArc
 50
240.0481997804
 51
251.3779673734
  0
ARC
  5
5C59
330
5BF5
100
AcDbEntity
  8
0
  6
Continuous
 62
     7
100
AcDbCircle
 10
77.0161857833
 20
18.1105652982
 30
0.0
 40
1.4334474881
100
AcDbArc
 50
315.8904553225998
 51
333.5229264375
  0
ARC
  5
5C5A
330
5BF5
100
AcDbEntity
  8
0
  6
Continuous
 62
     7
100
AcDbCircle
 10
77.020824027
 20
18.057158148
 30
0.0
 40
1.406228711899998
100
AcDbArc
 50
335.3867972703
 51
24.3915119403
  0
ARC
  5
5C5B
330
5BF5
100
AcDbEntity
  8
0
  6
Continuous
 62
     7
100
AcDbCircle
 10
76.94861912350001
 20
17.97930145619999
 30
0.0
 40
1.504702514699999
100
AcDbArc
 50
25.9562916611
 51
59.4834829676
  0
LINE
  5
5C5C
330
5BF5
100
AcDbEntity
  8
0
  6
Continuous
 62
     7
100
AcDbLine
 10
74.9574888499
 20
20.8337423583
 30
0.0
 11
75.2315546745
 21
21.10781543579999
 31
0.0
  0
ARC
  5
5C5D
330
5BF5
100
AcDbEntity
  8
0
  6
Continuous
 62
     7
100
AcDbCircle
 10
76.0252765676
 20
20.05986621039999
 30
0.0
 40
1.309092072899999
100
AcDbArc
 50
164.1974860461
 51
195.8025139539
  0
ARC
  5
5C5E
330
5BF5
100
AcDbEntity
  8
0
  6
Continuous
 62
     7
100
AcDbCircle
 10
75.8573743274
 20
20.1673739729
 30
0.0
 40
1.119747444
100
AcDbArc
 50
142.8139179029999
 51
167.1522951416999
  0
ENDBLK
  5
5C5F
330
5BF5
100
AcDbEntity
  8
0
100
AcDbBlockEnd
  0
BLOCK
  5
63C0
330
63B6
100
AcDbEntity
  8
0
 62
     1
100
AcDbBlockBegin
  2
*D81
 70
     1
 10
0.0
 20
0.0
 30
0.0
  3
*D81
  1

  0
LINE
  5
6A4B
330
63B6
100
AcDbEntity
  8
10100_FRONT_DIM
  6
Continuous
 62
     0
370
    -2
100
AcDbLine
 10
93.07756734429109
 20
357.636670758686
 30
0.0
 11
93.07756734429109
 21
346.3499292943442
 31
0.0
  0
LINE
  5
6A4C
330
63B6
100
AcDbEntity
  8
10100_FRONT_DIM
  6
Continuous
 62
     0
370
    -2
100
AcDbLine
 10
103.077567344291
 20
357.636670758686
 30
0.0
 11
103.077567344291
 21
346.3499292943442
 31
0.0
  0
LINE
  5
6A4D
330
63B6
100
AcDbEntity
  8
10100_FRONT_DIM
  6
Continuous
 62
     0
370
    -2
100
AcDbLine
 10
90.07756734429108
 20
347.3499292943442
 30
0.0
 11
87.07756734429109
 21
347.3499292943442
 31
0.0
  0
LINE
  5
6A4E
330
63B6
100
AcDbEntity
  8
10100_FRONT_DIM
  6
Continuous
 62
     0
370
    -2
100
AcDbLine
 10
106.0775673442911
 20
347.3499292943442
 30
0.0
 11
109.0775673442911
 21
347.3499292943442
 31
0.0
  0
SOLID
  5
6A4F
330
63B6
100
AcDbEntity
  8
10100_FRONT_DIM
  6
Continuous
 62
     0
100
AcDbTrace
 10
90.07756734429108
 20
347.8499292943443
 30
0.0
 11
90.07756734429108
 21
346.8499292943442
 31
0.0
 12
93.07756734429109
 22
347.3499292943442
 32
0.0
 13
93.07756734429109
 23
347.3499292943442
 33
0.0
  0
SOLID
  5
6A50
330
63B6
100
AcDbEntity
  8
10100_FRONT_DIM
  6
Continuous
 62
     0
100
AcDbTrace
 10
106.0775673442911
 20
347.8499292943443
 30
0.0
 11
106.0775673442911
 21
346.8499292943442
 31
0.0
 12
103.077567344291
 22
347.3499292943442
 32
0.0
 13
103.077567344291
 23
347.3499292943442
 33
0.0
  0
MTEXT
  5
6A51
330
63B6
100
AcDbEntity
  8
10100_FRONT_DIM
  6
Continuous
 62
     0
370
    13
100
AcDbMText
 10
98.07756734429109
 20
347.3499292943442
 30
0.0
 40
4.0
 41
0.0
 71
     5
 72
     1
  1
\A1;10
 73
     1
 44
1.0
1001
ACAD
1000
MTEXTBEGIN
1070
    73
1070
     1
1070
    44
1040
1.0
1070
    74
1070
     0
1000
MTEXTEND
  0
POINT
  5
6A52
330
63B6
100
AcDbEntity
  8
Defpoints
  6
Continuous
 62
     0
100
AcDbPoint
 10
93.07756734429109
 20
358.636670758686
 30
0.0
  0
POINT
  5
6A53
330
63B6
100
AcDbEntity
  8
Defpoints
  6
Continuous
 62
     0
100
AcDbPoint
 10
103.077567344291
 20
358.636670758686
 30
0.0
  0
POINT
  5
6A54
330
63B6
100
AcDbEntity
  8
Defpoints
  6
Continuous
 62
     0
100
AcDbPoint
 10
103.077567344291
 20
347.3499292943442
 30
0.0
  0
ENDBLK
  5
63C1
330
63B6
100
AcDbEntity
  8
0
 62
     1
100
AcDbBlockEnd
  0
BLOCK
  5
63D9
330
63CE
100
AcDbEntity
  8
0
 62
     1
100
AcDbBlockBegin
  2
*D82
 70
     1
 10
0.0
 20
0.0
 30
0.0
  3
*D82
  1

  0
LINE
  5
6A39
330
63CE
100
AcDbEntity
  8
10100_FRONT_DIM
  6
Continuous
 62
     0
370
    -2
100
AcDbLine
 10
99.07756734429108
 20
427.236670758686
 30
0.0
 11
136.9013089255842
 21
427.236670758686
 31
0.0
  0
LINE
  5
6A3A
330
63CE
100
AcDbEntity
  8
10100_FRONT_DIM
  6
Continuous
 62
     0
370
    -2
100
AcDbLine
 10
99.07756734429108
 20
369.236670758686
 30
0.0
 11
136.9013089255842
 21
369.236670758686
 31
0.0
  0
LINE
  5
6A3B
330
63CE
100
AcDbEntity
  8
10100_FRONT_DIM
  6
Continuous
 62
     0
370
    -2
100
AcDbLine
 10
135.9013089255842
 20
424.2366707586859
 30
0.0
 11
135.9013089255842
 21
402.5700040920193
 31
0.0
  0
LINE
  5
6A3C
330
63CE
100
AcDbEntity
  8
10100_FRONT_DIM
  6
Continuous
 62
     0
370
    -2
100
AcDbLine
 10
135.9013089255842
 20
372.236670758686
 30
0.0
 11
135.9013089255842
 21
393.9033374253527
 31
0.0
  0
SOLID
  5
6A3D
330
63CE
100
AcDbEntity
  8
10100_FRONT_DIM
  6
Continuous
 62
     0
100
AcDbTrace
 10
135.4013089255841
 20
424.2366707586859
 30
0.0
 11
136.4013089255841
 21
424.2366707586859
 31
0.0
 12
135.9013089255842
 22
427.236670758686
 32
0.0
 13
135.9013089255842
 23
427.236670758686
 33
0.0
  0
SOLID
  5
6A3E
330
63CE
100
AcDbEntity
  8
10100_FRONT_DIM
  6
Continuous
 62
     0
100
AcDbTrace
 10
135.4013089255841
 20
372.236670758686
 30
0.0
 11
136.4013089255841
 21
372.236670758686
 31
0.0
 12
135.9013089255842
 22
369.236670758686
 32
0.0
 13
135.9013089255842
 23
369.236670758686
 33
0.0
  0
MTEXT
  5
6A3F
330
63CE
100
AcDbEntity
  8
10100_FRONT_DIM
  6
Continuous
 62
     0
370
    15
100
AcDbMText
 10
135.9013089255841
 20
398.236670758686
 30
0.0
 40
4.0
 41
0.0
 71
     5
 72
     1
  1
\A1;58
 11
0.0000000000000001
 21
1.0
 31
0.0
 73
     1
 44
1.0
1001
ACAD
1000
MTEXTBEGIN
1070
    73
1070
     1
1070
    44
1040
1.0
1070
    74
1070
     0
1000
MTEXTEND
  0
POINT
  5
6A40
330
63CE
100
AcDbEntity
  8
Defpoints
  6
Continuous
 62
     0
100
AcDbPoint
 10
98.07756734429109
 20
427.236670758686
 30
0.0
  0
POINT
  5
6A41
330
63CE
100
AcDbEntity
  8
Defpoints
  6
Continuous
 62
     0
100
AcDbPoint
 10
98.07756734429109
 20
369.236670758686
 30
0.0
  0
POINT
  5
6A42
330
63CE
100
AcDbEntity
  8
Defpoints
  6
Continuous
 62
     0
100
AcDbPoint
 10
135.9013089255842
 20
369.236670758686
 30
0.0
  0
ENDBLK
  5
63DA
330
63CE
100
AcDbEntity
  8
0
 62
     1
100
AcDbBlockEnd
  0
BLOCK
  5
63FD
330
63F2
100
AcDbEntity
  8
0
 62
     1
100
AcDbBlockBegin
  2
*D83
 70
     1
 10
0.0
 20
0.0
 30
0.0
  3
*D83
  1

  0
LINE
  5
6563
330
63F2
100
AcDbEntity
  8
10100_FRONT_DIM
  6
Continuous
 62
     0
370
    -2
100
AcDbLine
 10
99.07756734429108
 20
383.236670758686
 30
0.0
 11
126.8736975538489
 21
383.236670758686
 31
0.0
  0
LINE
  5
6564
330
63F2
100
AcDbEntity
  8
10100_FRONT_DIM
  6
Continuous
 62
     0
370
    -2
100
AcDbLine
 10
99.07756734429108
 20
413.236670758686
 30
0.0
 11
126.8736975538489
 21
413.236670758686
 31
0.0
  0
LINE
  5
6565
330
63F2
100
AcDbEntity
  8
10100_FRONT_DIM
  6
Continuous
 62
     0
370
    -2
100
AcDbLine
 10
125.8736975538489
 20
386.236670758686
 30
0.0
 11
125.8736975538489
 21
393.9033374253527
 31
0.0
  0
LINE
  5
6566
330
63F2
100
AcDbEntity
  8
10100_FRONT_DIM
  6
Continuous
 62
     0
370
    -2
100
AcDbLine
 10
125.8736975538489
 20
410.236670758686
 30
0.0
 11
125.8736975538489
 21
402.5700040920193
 31
0.0
  0
SOLID
  5
6567
330
63F2
100
AcDbEntity
  8
10100_FRONT_DIM
  6
Continuous
 62
     0
100
AcDbTrace
 10
125.3736975538489
 20
386.236670758686
 30
0.0
 11
126.3736975538489
 21
386.236670758686
 31
0.0
 12
125.8736975538489
 22
383.236670758686
 32
0.0
 13
125.8736975538489
 23
383.236670758686
 33
0.0
  0
SOLID
  5
6568
330
63F2
100
AcDbEntity
  8
10100_FRONT_DIM
  6
Continuous
 62
     0
100
AcDbTrace
 10
125.3736975538489
 20
410.236670758686
 30
0.0
 11
126.3736975538489
 21
410.236670758686
 31
0.0
 12
125.8736975538489
 22
413.236670758686
 32
0.0
 13
125.8736975538489
 23
413.236670758686
 33
0.0
  0
MTEXT
  5
6569
330
63F2
100
AcDbEntity
  8
10100_FRONT_DIM
  6
Continuous
 62
     0
370
    13
100
AcDbMText
 10
125.8736975538489
 20
398.236670758686
 30
0.0
 40
4.0
 41
0.0
 71
     5
 72
     1
  1
\A1;30
 11
0.0000000000000001
 21
1.0
 31
0.0
 73
     1
 44
1.0
1001
ACAD
1000
MTEXTBEGIN
1070
    73
1070
     1
1070
    44
1040
1.0
1070
    74
1070
     0
1000
MTEXTEND
  0
POINT
  5
656A
330
63F2
100
AcDbEntity
  8
Defpoints
  6
Continuous
 62
     0
100
AcDbPoint
 10
98.07756734429109
 20
383.236670758686
 30
0.0
  0
POINT
  5
656B
330
63F2
100
AcDbEntity
  8
Defpoints
  6
Continuous
 62
     0
100
AcDbPoint
 10
98.07756734429109
 20
413.236670758686
 30
0.0
  0
POINT
  5
656C
330
63F2
100
AcDbEntity
  8
Defpoints
  6
Continuous
 62
     0
100
AcDbPoint
 10
125.8736975538489
 20
413.236670758686
 30
0.0
  0
ENDBLK
  5
63FE
330
63F2
100
AcDbEntity
  8
0
 62
     1
100
AcDbBlockEnd
  0
BLOCK
  5
6416
330
640C
100
AcDbEntity
  8
0
 62
     1
100
AcDbBlockBegin
  2
*D84
 70
     1
 10
0.0
 20
0.0
 30
0.0
  3
*D84
  1

  0
LINE
  5
6A55
330
640C
100
AcDbEntity
  8
10100_FRONT_DIM
  6
Continuous
 62
     0
370
    -2
100
AcDbLine
 10
93.07756734429109
 20
357.636670758686
 30
0.0
 11
93.07756734429109
 21
335.6776691430759
 31
0.0
  0
LINE
  5
6A56
330
640C
100
AcDbEntity
  8
10100_FRONT_DIM
  6
Continuous
 62
     0
370
    -2
100
AcDbLine
 10
105.5775673442911
 20
366.036670758686
 30
0.0
 11
105.5775673442911
 21
335.6776691430759
 31
0.0
  0
LINE
  5
6A57
330
640C
100
AcDbEntity
  8
10100_FRONT_DIM
  6
Continuous
 62
     0
370
    -2
100
AcDbLine
 10
96.07756734429109
 20
336.6776691430759
 30
0.0
 11
102.5775673442911
 21
336.6776691430759
 31
0.0
  0
LINE
  5
6A58
330
640C
100
AcDbEntity
  8
10100_FRONT_DIM
  6
Continuous
 62
     0
370
    -2
100
AcDbLine
 10
105.5775673442911
 20
336.6776691430759
 30
0.0
 11
108.5775673442911
 21
336.6776691430759
 31
0.0
  0
SOLID
  5
6A59
330
640C
100
AcDbEntity
  8
10100_FRONT_DIM
  6
Continuous
 62
     0
100
AcDbTrace
 10
96.07756734429109
 20
337.1776691430759
 30
0.0
 11
96.07756734429109
 21
336.1776691430759
 31
0.0
 12
93.07756734429109
 22
336.6776691430759
 32
0.0
 13
93.07756734429109
 23
336.6776691430759
 33
0.0
  0
SOLID
  5
6A5A
330
640C
100
AcDbEntity
  8
10100_FRONT_DIM
  6
Continuous
 62
     0
100
AcDbTrace
 10
102.5775673442911
 20
337.1776691430759
 30
0.0
 11
102.5775673442911
 21
336.1776691430759
 31
0.0
 12
105.5775673442911
 22
336.6776691430759
 32
0.0
 13
105.5775673442911
 23
336.6776691430759
 33
0.0
  0
MTEXT
  5
6A5B
330
640C
100
AcDbEntity
  8
10100_FRONT_DIM
  6
Continuous
 62
     0
370
    13
100
AcDbMText
 10
116.9109006776244
 20
336.6776691430759
 30
0.0
 40
4.0
 41
0.0
 71
     5
 72
     1
  1
\A1;12.5
 73
     1
 44
1.0
1001
ACAD
1000
MTEXTBEGIN
1070
    73
1070
     1
1070
    44
1040
1.0
1070
    74
1070
     0
1000
MTEXTEND
  0
POINT
  5
6A5C
330
640C
100
AcDbEntity
  8
Defpoints
  6
Continuous
 62
     0
100
AcDbPoint
 10
93.07756734429109
 20
358.636670758686
 30
0.0
  0
POINT
  5
6A5D
330
640C
100
AcDbEntity
  8
Defpoints
  6
Continuous
 62
     0
100
AcDbPoint
 10
105.5775673442911
 20
367.036670758686
 30
0.0
  0
POINT
  5
6A5E
330
640C
100
AcDbEntity
  8
Defpoints
  6
Continuous
 62
     0
100
AcDbPoint
 10
105.5775673442911
 20
336.6776691430759
 30
0.0
  0
ENDBLK
  5
6417
330
640C
100
AcDbEntity
  8
0
 62
     1
100
AcDbBlockEnd
  0
BLOCK
  5
642F
330
6424
100
AcDbEntity
  8
0
 62
     1
100
AcDbBlockBegin
  2
*D85
 70
     1
 10
0.0
 20
0.0
 30
0.0
  3
*D85
  1

  0
LINE
  5
6A96
330
6424
100
AcDbEntity
  8
10100_FRONT_DIM
  6
Continuous
 62
     0
370
    -2
100
AcDbLine
 10
93.07756734429109
 20
357.574170758686
 30
0.0
 11
93.07756734429109
 21
324.0928464647716
 31
0.0
  0
LINE
  5
6A97
330
6424
100
AcDbEntity
  8
10100_FRONT_DIM
  6
Continuous
 62
     0
370
    -2
100
AcDbLine
 10
111.3275673442911
 20
366.036670758686
 30
0.0
 11
111.3275673442911
 21
324.0928464647716
 31
0.0
  0
LINE
  5
6A98
330
6424
100
AcDbEntity
  8
10100_FRONT_DIM
  6
Continuous
 62
     0
370
    -2
100
AcDbLine
 10
96.07756734429109
 20
325.0928464647716
 30
0.0
 11
97.86923401095776
 21
325.0928464647716
 31
0.0
  0
LINE
  5
6A99
330
6424
100
AcDbEntity
  8
10100_FRONT_DIM
  6
Continuous
 62
     0
370
    -2
100
AcDbLine
 10
108.3275673442911
 20
325.0928464647716
 30
0.0
 11
106.5359006776244
 21
325.0928464647716
 31
0.0
  0
SOLID
  5
6A9A
330
6424
100
AcDbEntity
  8
10100_FRONT_DIM
  6
Continuous
 62
     0
100
AcDbTrace
 10
96.07756734429109
 20
325.5928464647716
 30
0.0
 11
96.07756734429109
 21
324.5928464647716
 31
0.0
 12
93.07756734429109
 22
325.0928464647716
 32
0.0
 13
93.07756734429109
 23
325.0928464647716
 33
0.0
  0
SOLID
  5
6A9B
330
6424
100
AcDbEntity
  8
10100_FRONT_DIM
  6
Continuous
 62
     0
100
AcDbTrace
 10
108.3275673442911
 20
325.5928464647716
 30
0.0
 11
108.3275673442911
 21
324.5928464647716
 31
0.0
 12
111.3275673442911
 22
325.0928464647716
 32
0.0
 13
111.3275673442911
 23
325.0928464647716
 33
0.0
  0
MTEXT
  5
6A9C
330
6424
100
AcDbEntity
  8
10100_FRONT_DIM
  6
Continuous
 62
     0
370
    13
100
AcDbMText
 10
102.2025673442911
 20
325.0928464647716
 30
0.0
 40
4.0
 41
0.0
 71
     5
 72
     1
  1
\A1;18
 73
     1
 44
1.0
1001
ACAD
1000
MTEXTBEGIN
1070
    73
1070
     1
1070
    44
1040
1.0
1070
    74
1070
     0
1000
MTEXTEND
  0
POINT
  5
6A9D
330
6424
100
AcDbEntity
  8
Defpoints
  6
Continuous
 62
     0
100
AcDbPoint
 10
93.07756734429109
 20
358.574170758686
 30
0.0
  0
POINT
  5
6A9E
330
6424
100
AcDbEntity
  8
Defpoints
  6
Continuous
 62
     0
100
AcDbPoint
 10
111.3275673442911
 20
367.036670758686
 30
0.0
  0
POINT
  5
6A9F
330
6424
100
AcDbEntity
  8
Defpoints
  6
Continuous
 62
     0
100
AcDbPoint
 10
111.3275673442911
 20
325.0928464647716
 30
0.0
  0
ENDBLK
  5
6430
330
6424
100
AcDbEntity
  8
0
 62
     1
100
AcDbBlockEnd
  0
BLOCK
  5
6449
330
643E
100
AcDbEntity
  8
0
 62
     1
100
AcDbBlockBegin
  2
*D86
 70
     1
 10
0.0
 20
0.0
 30
0.0
  3
*D86
  1

  0
LINE
  5
6A10
330
643E
100
AcDbEntity
  8
11100_LEFT_DIM
  6
Continuous
 62
     7
370
    -2
100
AcDbLine
 10
195.4518370618354
 20
365.4571314202351
 30
0.0
 11
195.4518370618354
 21
335.6776691430759
 31
0.0
  0
LINE
  5
6A11
330
643E
100
AcDbEntity
  8
11100_LEFT_DIM
  6
Continuous
 62
     7
370
    -2
100
AcDbLine
 10
266.0663036066415
 20
370.4179104467019
 30
0.0
 11
266.0663036066415
 21
335.6776691430759
 31
0.0
  0
LINE
  5
6A12
330
643E
100
AcDbEntity
  8
11100_LEFT_DIM
  6
Continuous
 62
     7
370
    -2
100
AcDbLine
 10
197.9518370618354
 20
336.6776691430759
 30
0.0
 11
226.6340703342385
 21
336.6776691430759
 31
0.0
  0
LINE
  5
6A13
330
643E
100
AcDbEntity
  8
11100_LEFT_DIM
  6
Continuous
 62
     7
370
    -2
100
AcDbLine
 10
263.5663036066415
 20
336.6776691430759
 30
0.0
 11
234.8840703342385
 21
336.6776691430759
 31
0.0
  0
SOLID
  5
6A14
330
643E
100
AcDbEntity
  8
11100_LEFT_DIM
  6
Continuous
 62
     7
100
AcDbTrace
 10
197.9518370618354
 20
337.0943358097426
 30
0.0
 11
197.9518370618354
 21
336.2610024764092
 31
0.0
 12
195.4518370618354
 22
336.6776691430759
 32
0.0
 13
195.4518370618354
 23
336.6776691430759
 33
0.0
  0
SOLID
  5
6A15
330
643E
100
AcDbEntity
  8
11100_LEFT_DIM
  6
Continuous
 62
     7
100
AcDbTrace
 10
263.5663036066415
 20
337.0943358097426
 30
0.0
 11
263.5663036066415
 21
336.2610024764092
 31
0.0
 12
266.0663036066415
 22
336.6776691430759
 32
0.0
 13
266.0663036066415
 23
336.6776691430759
 33
0.0
  0
MTEXT
  5
6A16
330
643E
100
AcDbEntity
  8
11100_LEFT_DIM
  6
Continuous
 62
     7
370
    13
100
AcDbMText
 10
230.7590703342385
 20
336.6776691430759
 30
0.0
 40
3.5
 41
0.0
 71
     5
 72
     1
  1
\A1;71
 73
     1
 44
1.0
1001
ACAD
1000
MTEXTBEGIN
1070
    73
1070
     1
1070
    44
1040
1.0
1070
    74
1070
     0
1000
MTEXTEND
  0
POINT
  5
6A17
330
643E
100
AcDbEntity
  8
Defpoints
  6
Continuous
 62
     0
100
AcDbPoint
 10
195.4518370618354
 20
367.4571314202351
 30
0.0
  0
POINT
  5
6A18
330
643E
100
AcDbEntity
  8
Defpoints
  6
Continuous
 62
     0
100
AcDbPoint
 10
266.0663036066415
 20
372.4179104467019
 30
0.0
  0
POINT
  5
6A19
330
643E
100
AcDbEntity
  8
Defpoints
  6
Continuous
 62
     0
100
AcDbPoint
 10
266.0663036066415
 20
336.6776691430759
 30
0.0
  0
ENDBLK
  5
644A
330
643E
100
AcDbEntity
  8
0
 62
     1
100
AcDbBlockEnd
  0
BLOCK
  5
6463
330
6458
100
AcDbEntity
  8
0
 62
     1
100
AcDbBlockBegin
  2
*D87
 70
     1
 10
0.0
 20
0.0
 30
0.0
  3
*D87
  1

  0
LINE
  5
6A1A
330
6458
100
AcDbEntity
  8
11100_LEFT_DIM
  6
Continuous
 62
     7
370
    -2
100
AcDbLine
 10
225.9018370618354
 20
438.457131420235
 30
0.0
 11
280.9975007918514
 21
438.457131420235
 31
0.0
  0
LINE
  5
6A1B
330
6458
100
AcDbEntity
  8
11100_LEFT_DIM
  6
Continuous
 62
     7
370
    -2
100
AcDbLine
 10
268.0663036066415
 20
358.457131420235
 30
0.0
 11
280.9975007918513
 21
358.457131420235
 31
0.0
  0
LINE
  5
6A1C
330
6458
100
AcDbEntity
  8
11100_LEFT_DIM
  6
Continuous
 62
     7
370
    -2
100
AcDbLine
 10
279.9975007918514
 20
435.957131420235
 30
0.0
 11
279.9975007918514
 21
402.8737980869017
 31
0.0
  0
LINE
  5
6A1D
330
6458
100
AcDbEntity
  8
11100_LEFT_DIM
  6
Continuous
 62
     7
370
    -2
100
AcDbLine
 10
279.9975007918513
 20
360.9571314202351
 30
0.0
 11
279.9975007918514
 21
394.0404647535684
 31
0.0
  0
SOLID
  5
6A1E
330
6458
100
AcDbEntity
  8
11100_LEFT_DIM
  6
Continuous
 62
     7
100
AcDbTrace
 10
279.5808341251847
 20
435.957131420235
 30
0.0
 11
280.4141674585181
 21
435.957131420235
 31
0.0
 12
279.9975007918514
 22
438.457131420235
 32
0.0
 13
279.9975007918514
 23
438.457131420235
 33
0.0
  0
SOLID
  5
6A1F
330
6458
100
AcDbEntity
  8
11100_LEFT_DIM
  6
Continuous
 62
     7
100
AcDbTrace
 10
279.5808341251846
 20
360.9571314202351
 30
0.0
 11
280.414167458518
 21
360.9571314202351
 31
0.0
 12
279.9975007918513
 22
358.457131420235
 32
0.0
 13
279.9975007918513
 23
358.457131420235
 33
0.0
  0
MTEXT
  5
6A20
330
6458
100
AcDbEntity
  8
11100_LEFT_DIM
  6
Continuous
 62
     7
370
    13
100
AcDbMText
 10
279.9975007918513
 20
398.4571314202351
 30
0.0
 40
3.5
 41
0.0
 71
     5
 72
     1
  1
\A1;80
 11
0.0000000000000001
 21
1.0
 31
0.0
 73
     1
 44
1.0
1001
ACAD
1000
MTEXTBEGIN
1070
    73
1070
     1
1070
    44
1040
1.0
1070
    74
1070
     0
1000
MTEXTEND
  0
POINT
  5
6A21
330
6458
100
AcDbEntity
  8
Defpoints
  6
Continuous
 62
     0
100
AcDbPoint
 10
223.9018370618354
 20
438.457131420235
 30
0.0
  0
POINT
  5
6A22
330
6458
100
AcDbEntity
  8
Defpoints
  6
Continuous
 62
     0
100
AcDbPoint
 10
266.0663036066415
 20
358.457131420235
 30
0.0
  0
POINT
  5
6A23
330
6458
100
AcDbEntity
  8
Defpoints
  6
Continuous
 62
     0
100
AcDbPoint
 10
279.9975007918513
 20
358.457131420235
 30
0.0
  0
ENDBLK
  5
6464
330
6458
100
AcDbEntity
  8
0
 62
     1
100
AcDbBlockEnd
  0
BLOCK
  5
647D
330
6472
100
AcDbEntity
  8
0
 62
     1
100
AcDbBlockBegin
  2
*D88
 70
     1
 10
0.0
 20
0.0
 30
0.0
  3
*D88
  1

  0
LINE
  5
6A24
330
6472
100
AcDbEntity
  8
11100_LEFT_DIM
  6
Continuous
 62
     7
370
    -2
100
AcDbLine
 10
266.1516351992733
 20
369.0549424201011
 30
0.0
 11
266.1516351992733
 21
346.3499292943442
 31
0.0
  0
LINE
  5
6A25
330
6472
100
AcDbEntity
  8
11100_LEFT_DIM
  6
Continuous
 62
     7
370
    -2
100
AcDbLine
 10
239.6518370618355
 20
364.6571314202351
 30
0.0
 11
239.6518370618355
 21
346.3499292943442
 31
0.0
  0
LINE
  5
6A26
330
6472
100
AcDbEntity
  8
11100_LEFT_DIM
  6
Continuous
 62
     7
370
    -2
100
AcDbLine
 10
263.6516351992733
 20
347.3499292943442
 30
0.0
 11
257.318402797221
 21
347.3499292943442
 31
0.0
  0
LINE
  5
6A27
330
6472
100
AcDbEntity
  8
11100_LEFT_DIM
  6
Continuous
 62
     7
370
    -2
100
AcDbLine
 10
242.1518370618354
 20
347.3499292943442
 30
0.0
 11
248.4850694638877
 21
347.3499292943442
 31
0.0
  0
SOLID
  5
6A28
330
6472
100
AcDbEntity
  8
11100_LEFT_DIM
  6
Continuous
 62
     7
100
AcDbTrace
 10
263.6516351992733
 20
347.7665959610109
 30
0.0
 11
263.6516351992733
 21
346.9332626276775
 31
0.0
 12
266.1516351992733
 22
347.3499292943442
 32
0.0
 13
266.1516351992733
 23
347.3499292943442
 33
0.0
  0
SOLID
  5
6A29
330
6472
100
AcDbEntity
  8
11100_LEFT_DIM
  6
Continuous
 62
     7
100
AcDbTrace
 10
242.1518370618354
 20
347.7665959610109
 30
0.0
 11
242.1518370618354
 21
346.9332626276775
 31
0.0
 12
239.6518370618355
 22
347.3499292943442
 32
0.0
 13
239.6518370618355
 23
347.3499292943442
 33
0.0
  0
MTEXT
  5
6A2A
330
6472
100
AcDbEntity
  8
11100_LEFT_DIM
  6
Continuous
 62
     7
370
    13
100
AcDbMText
 10
252.9017361305544
 20
347.3499292943442
 30
0.0
 40
3.5
 41
0.0
 71
     5
 72
     1
  1
\A1;26
 73
     1
 44
1.0
1001
ACAD
1000
MTEXTBEGIN
1070
    73
1070
     1
1070
    44
1040
1.0
1070
    74
1070
     0
1000
MTEXTEND
  0
POINT
  5
6A2B
330
6472
100
AcDbEntity
  8
Defpoints
  6
Continuous
 62
     0
100
AcDbPoint
 10
266.1516351992733
 20
371.0549424201011
 30
0.0
  0
POINT
  5
6A2C
330
6472
100
AcDbEntity
  8
Defpoints
  6
Continuous
 62
     0
100
AcDbPoint
 10
239.6518370618355
 20
366.6571314202351
 30
0.0
  0
POINT
  5
6A2D
330
6472
100
AcDbEntity
  8
Defpoints
  6
Continuous
 62
     0
100
AcDbPoint
 10
239.6518370618355
 20
347.3499292943442
 30
0.0
  0
ENDBLK
  5
647E
330
6472
100
AcDbEntity
  8
0
 62
     1
100
AcDbBlockEnd
  0
BLOCK
  5
650F
330
6504
100
AcDbEntity
  8
0
 62
     1
100
AcDbBlockBegin
  2
*D89
 70
     1
 10
0.0
 20
0.0
 30
0.0
  3
*D89
  1

  0
LINE
  5
6992
330
6504
100
AcDbEntity
  8
10100_FRONT_DIM
  6
Continuous
 62
     0
370
    -2
100
AcDbLine
 10
106.5775673442911
 20
429.436670758686
 30
0.0
 11
146.6061739804107
 21
429.4366707586859
 31
0.0
  0
LINE
  5
6993
330
6504
100
AcDbEntity
  8
10100_FRONT_DIM
  6
Continuous
 62
     0
370
    -2
100
AcDbLine
 10
106.5775673442911
 20
367.036670758686
 30
0.0
 11
146.6061739804107
 21
367.0366707586859
 31
0.0
  0
LINE
  5
6994
330
6504
100
AcDbEntity
  8
10100_FRONT_DIM
  6
Continuous
 62
     0
370
    -2
100
AcDbLine
 10
145.6061739804107
 20
426.436670758686
 30
0.0
 11
145.6061739804107
 21
402.5700040920193
 31
0.0
  0
LINE
  5
6995
330
6504
100
AcDbEntity
  8
10100_FRONT_DIM
  6
Continuous
 62
     0
370
    -2
100
AcDbLine
 10
145.6061739804107
 20
370.036670758686
 30
0.0
 11
145.6061739804107
 21
393.9033374253527
 31
0.0
  0
SOLID
  5
6996
330
6504
100
AcDbEntity
  8
10100_FRONT_DIM
  6
Continuous
 62
     0
100
AcDbTrace
 10
145.1061739804107
 20
426.436670758686
 30
0.0
 11
146.1061739804106
 21
426.436670758686
 31
0.0
 12
145.6061739804107
 22
429.4366707586859
 32
0.0
 13
145.6061739804107
 23
429.4366707586859
 33
0.0
  0
SOLID
  5
6997
330
6504
100
AcDbEntity
  8
10100_FRONT_DIM
  6
Continuous
 62
     0
100
AcDbTrace
 10
145.1061739804107
 20
370.036670758686
 30
0.0
 11
146.1061739804106
 21
370.036670758686
 31
0.0
 12
145.6061739804107
 22
367.0366707586859
 32
0.0
 13
145.6061739804107
 23
367.0366707586859
 33
0.0
  0
MTEXT
  5
6998
330
6504
100
AcDbEntity
  8
10100_FRONT_DIM
  6
Continuous
 62
     0
370
    13
100
AcDbMText
 10
145.6061739804106
 20
398.236670758686
 30
0.0
 40
4.0
 41
0.0
 71
     5
 72
     1
  1
\A1;62
 11
0.0000000000000001
 21
1.0
 31
0.0
 73
     1
 44
1.0
1001
ACAD
1000
MTEXTBEGIN
1070
    73
1070
     1
1070
    44
1040
1.0
1070
    74
1070
     0
1000
MTEXTEND
  0
POINT
  5
6999
330
6504
100
AcDbEntity
  8
Defpoints
  6
Continuous
 62
     0
100
AcDbPoint
 10
105.5775673442911
 20
429.436670758686
 30
0.0
  0
POINT
  5
699A
330
6504
100
AcDbEntity
  8
Defpoints
  6
Continuous
 62
     0
100
AcDbPoint
 10
105.5775673442911
 20
367.036670758686
 30
0.0
  0
POINT
  5
699B
330
6504
100
AcDbEntity
  8
Defpoints
  6
Continuous
 62
     0
100
AcDbPoint
 10
145.6061739804107
 20
367.0366707586859
 30
0.0
  0
ENDBLK
  5
6510
330
6504
100
AcDbEntity
  8
0
 62
     1
100
AcDbBlockEnd
  0
ENDSEC
  0
SECTION
  2
ENTITIES
  0
LINE
  5
2E7
330
5A99
100
AcDbEntity
  8
10000_FRONT
  6
Continuous
 62
     7
370
    15
100
AcDbLine
 10
98.59256734429109
 20
426.686670758686
 30
0.0
 11
98.59256734429109
 21
425.459790758686
 31
0.0
  0
LINE
  5
2E9
330
5A99
100
AcDbEntity
  8
10000_FRONT
  6
Continuous
 62
     7
370
    15
100
AcDbLine
 10
98.59256734429109
 20
429.013540758686
 30
0.0
 11
98.59256734429109
 21
427.7866707586859
 31
0.0
  0
LINE
  5
2ED
330
5A99
100
AcDbEntity
  8
10000_FRONT
  6
Continuous
 62
     7
370
    15
100
AcDbLine
 10
97.5625673442911
 20
425.459790758686
 30
0.0
 11
97.5625673442911
 21
426.686670758686
 31
0.0
  0
LINE
  5
2F3
330
5A99
100
AcDbEntity
  8
10000_FRONT
  6
Continuous
 62
     7
370
    15
100
AcDbLine
 10
97.5625673442911
 20
427.7866707586859
 30
0.0
 11
97.5625673442911
 21
429.013540758686
 31
0.0
  0
ARC
  5
2F4
330
5A99
100
AcDbEntity
  8
10000_FRONT
  6
Continuous
 62
     7
370
    15
100
AcDbCircle
 10
98.07756734429109
 20
427.236670758686
 30
0.0
 40
1.85
100
AcDbArc
 50
253.8365500000002
 51
286.1634499999998
  0
ARC
  5
2F7
330
5A99
100
AcDbEntity
  8
10000_FRONT
  6
Continuous
 62
     7
370
    15
100
AcDbCircle
 10
98.07756734429109
 20
427.236670758686
 30
0.0
 40
1.85
100
AcDbArc
 50
73.83655500000006
 51
106.1634499999998
  0
ARC
  5
409
330
5A99
100
AcDbEntity
  8
10000_FRONT
  6
Continuous
 62
     7
370
    15
100
AcDbCircle
 10
98.07756734429109
 20
427.236670758686
 30
0.0
 40
2.8548252
100
AcDbArc
 50
168.8921600000005
 51
191.1078399999994
  0
ARC
  5
448
330
5A99
100
AcDbEntity
  8
10000_FRONT
  6
Continuous
 62
     7
370
    15
100
AcDbCircle
 10
98.07756734429109
 20
427.236670758686
 30
0.0
 40
2.8548252
100
AcDbArc
 50
348.8921600000006
 51
11.10783999999942
  0
LINE
  5
487
330
5A99
100
AcDbEntity
  8
10000_FRONT
  6
Continuous
 62
     7
370
    15
100
AcDbLine
 10
95.27622334429109
 20
426.686670758686
 30
0.0
 11
97.5625673442911
 21
426.686670758686
 31
0.0
  0
LINE
  5
488
330
5A99
100
AcDbEntity
  8
10000_FRONT
  6
Continuous
 62
     7
370
    15
100
AcDbLine
 10
97.5625673442911
 20
427.7866707586859
 30
0.0
 11
95.27622334429109
 21
427.7866707586859
 31
0.0
  0
LINE
  5
489
330
5A99
100
AcDbEntity
  8
10000_FRONT
  6
Continuous
 62
     7
370
    15
100
AcDbLine
 10
100.8789113442911
 20
427.7866707586859
 30
0.0
 11
98.59256734429109
 21
427.7866707586859
 31
0.0
  0
LINE
  5
48A
330
5A99
100
AcDbEntity
  8
10000_FRONT
  6
Continuous
 62
     7
370
    15
100
AcDbLine
 10
98.59256734429109
 20
426.686670758686
 30
0.0
 11
100.8789113442911
 21
426.686670758686
 31
0.0
  0
LINE
  5
AED
330
5A99
100
AcDbEntity
  8
10000_FRONT
  6
Continuous
 62
     7
370
    50
100
AcDbLine
 10
101.9775673442911
 20
361.186670758686
 30
0.0
 11
101.9775673442911
 21
359.7366707586861
 31
0.0
  0
LINE
  5
AEE
330
5A99
100
AcDbEntity
  8
10000_FRONT
  6
Continuous
 62
     7
370
    50
100
AcDbLine
 10
101.9775673442911
 20
359.7366707586861
 30
0.0
 11
101.9775673442911
 21
358.2366707586861
 31
0.0
  0
LINE
  5
AEF
330
5A99
100
AcDbEntity
  8
10000_FRONT
  6
Continuous
 62
     7
370
    50
100
AcDbLine
 10
101.9775673442911
 20
438.236670758686
 30
0.0
 11
101.9775673442911
 21
435.2866707586859
 31
0.0
  0
LINE
  5
AF1
330
5A99
100
AcDbEntity
  8
10000_FRONT
  6
Continuous
 62
     7
370
    50
100
AcDbLine
 10
102.6775673442911
 20
438.236670758686
 30
0.0
 11
101.9775673442911
 21
438.236670758686
 31
0.0
  0
LINE
  5
AF2
330
5A99
100
AcDbEntity
  8
10000_FRONT
  6
Continuous
 62
     7
370
    50
100
AcDbLine
 10
102.6775673442911
 20
358.2366707586861
 30
0.0
 11
101.9775673442911
 21
358.2366707586861
 31
0.0
  0
LINE
  5
AF3
330
5A99
100
AcDbEntity
  8
10000_FRONT
  6
Continuous
 62
     7
370
    15
100
AcDbLine
 10
101.9775673442911
 20
425.736670758686
 30
0.0
 11
101.9775673442911
 21
422.736670758686
 31
0.0
  0
LINE
  5
AF6
330
5A99
100
AcDbEntity
  8
10000_FRONT
  6
Continuous
 62
     7
370
    15
100
AcDbLine
 10
101.9775673442911
 20
422.736670758686
 30
0.0
 11
98.07756734429109
 21
422.736670758686
 31
0.0
  0
ARC
  5
AF8
102
{ACAD_REACTORS
330
640A
102
}
330
5A99
100
AcDbEntity
  8
10000_FRONT
  6
Continuous
 62
     7
370
    15
100
AcDbCircle
 10
98.07756734429109
 20
413.236670758686
 30
0.0
 40
4.0
100
AcDbArc
 50
269.99996
 51
90.0
  0
ARC
  5
AF9
102
{ACAD_REACTORS
330
640A
102
}
330
5A99
100
AcDbEntity
  8
10000_FRONT
  6
Continuous
 62
     7
370
    15
100
AcDbCircle
 10
98.07756734429109
 20
383.236670758686
 30
0.0
 40
4.0
100
AcDbArc
 50
269.99996
 51
90.0
  0
LINE
  5
AFA
330
5A99
100
AcDbEntity
  8
10000_FRONT
  6
Continuous
 62
     7
370
    15
100
AcDbLine
 10
101.9775673442911
 20
372.197430758686
 30
0.0
 11
101.9775673442911
 21
370.7366707586861
 31
0.0
  0
LINE
  5
AFB
330
5A99
100
AcDbEntity
  8
10000_FRONT
  6
Continuous
 62
     7
370
    15
100
AcDbLine
 10
101.9775673442911
 20
373.736670758686
 30
0.0
 11
101.9775673442911
 21
372.197430758686
 31
0.0
  0
LINE
  5
AFD
330
5A99
100
AcDbEntity
  8
10000_FRONT
  6
Continuous
 62
     7
370
    15
100
AcDbLine
 10
101.9775673442911
 20
370.7366707586861
 30
0.0
 11
102.6775673442911
 21
370.7366707586861
 31
0.0
  0
LINE
  5
AFE
330
5A99
100
AcDbEntity
  8
10000_FRONT
  6
Continuous
 62
     7
370
    15
100
AcDbLine
 10
106.0775673442911
 20
419.736670758686
 30
0.0
 11
103.0775583442911
 21
419.736670758686
 31
0.0
  0
LINE
  5
AFF
330
5A99
100
AcDbEntity
  8
10000_FRONT
  6
Continuous
 62
     7
370
    15
100
AcDbLine
 10
103.0775583442911
 20
416.736670758686
 30
0.0
 11
105.6775673442911
 21
416.736670758686
 31
0.0
  0
LINE
  5
B01
330
5A99
100
AcDbEntity
  8
10000_FRONT
  6
Continuous
 62
     7
370
    15
100
AcDbLine
 10
105.6775673442911
 20
416.736670758686
 30
0.0
 11
106.4775673442911
 21
418.236670758686
 31
0.0
  0
LINE
  5
B03
330
5A99
100
AcDbEntity
  8
10000_FRONT
  6
Continuous
 62
     7
370
    15
100
AcDbLine
 10
106.4775673442911
 20
419.336670758686
 30
0.0
 11
106.4775673442911
 21
418.236670758686
 31
0.0
  0
LINE
  5
B04
330
5A99
100
AcDbEntity
  8
10000_FRONT
  6
Continuous
 62
     7
370
    15
100
AcDbLine
 10
106.4775673442911
 20
419.336670758686
 30
0.0
 11
106.0775673442911
 21
419.736670758686
 31
0.0
  0
LINE
  5
B05
330
5A99
100
AcDbEntity
  8
10000_FRONT
  6
Continuous
 62
     7
370
    15
100
AcDbLine
 10
105.5775673442911
 20
367.036670758686
 30
0.0
 11
103.077567344291
 21
367.036670758686
 31
0.0
  0
LINE
  5
B08
330
5A99
100
AcDbEntity
  8
10000_FRONT
  6
Continuous
 62
     7
370
    15
100
AcDbLine
 10
105.5775673442911
 20
370.536670758686
 30
0.0
 11
103.1693193442911
 21
370.536670758686
 31
0.0
  0
LINE
  5
B0D
330
5A99
100
AcDbEntity
  8
10000_FRONT
  6
Continuous
 62
     7
370
    15
100
AcDbLine
 10
105.5775673442911
 20
429.436670758686
 30
0.0
 11
103.077567344291
 21
429.436670758686
 31
0.0
  0
LINE
  5
B10
330
5A99
100
AcDbEntity
  8
10000_FRONT
  6
Continuous
 62
     7
370
    15
100
AcDbLine
 10
103.1693233442911
 20
425.9366607586859
 30
0.0
 11
105.5775673442911
 21
425.936670758686
 31
0.0
  0
LINE
  5
B12
330
5A99
100
AcDbEntity
  8
10000_FRONT
  6
Continuous
 62
     7
370
    15
100
AcDbLine
 10
103.0775583442911
 20
376.7366707586861
 30
0.0
 11
106.0775673442911
 21
376.7366707586861
 31
0.0
  0
LINE
  5
B13
330
5A99
100
AcDbEntity
  8
10000_FRONT
  6
Continuous
 62
     7
370
    15
100
AcDbLine
 10
105.6775673442911
 20
379.736670758686
 30
0.0
 11
103.0775583442911
 21
379.736670758686
 31
0.0
  0
LINE
  5
B14
330
5A99
100
AcDbEntity
  8
10000_FRONT
  6
Continuous
 62
     7
370
    15
100
AcDbLine
 10
106.0775673442911
 20
376.7366707586861
 30
0.0
 11
106.4775673442911
 21
377.136670758686
 31
0.0
  0
LINE
  5
B15
330
5A99
100
AcDbEntity
  8
10000_FRONT
  6
Continuous
 62
     7
370
    15
100
AcDbLine
 10
105.9180093442911
 20
379.285840758686
 30
0.0
 11
106.4775673442911
 21
378.236670758686
 31
0.0
  0
LINE
  5
B16
330
5A99
100
AcDbEntity
  8
10000_FRONT
  6
Continuous
 62
     7
370
    15
100
AcDbLine
 10
105.9180093442911
 20
379.285840758686
 30
0.0
 11
105.6775673442911
 21
379.736670758686
 31
0.0
  0
LINE
  5
B17
330
5A99
100
AcDbEntity
  8
10000_FRONT
  6
Continuous
 62
     7
370
    15
100
AcDbLine
 10
106.4775673442911
 20
378.236670758686
 30
0.0
 11
106.4775673442911
 21
377.996910758686
 31
0.0
  0
LINE
  5
B18
330
5A99
100
AcDbEntity
  8
10000_FRONT
  6
Continuous
 62
     7
370
    15
100
AcDbLine
 10
106.4775673442911
 20
377.996910758686
 30
0.0
 11
106.4775673442911
 21
377.136670758686
 31
0.0
  0
LINE
  5
B1A
330
5A99
100
AcDbEntity
  8
10000_FRONT
  6
Continuous
 62
     7
370
    50
100
AcDbLine
 10
94.1775673442911
 20
361.186670758686
 30
0.0
 11
101.9775673442911
 21
361.186670758686
 31
0.0
  0
ARC
  5
B1B
102
{ACAD_REACTORS
330
63E6
102
}
330
5A99
100
AcDbEntity
  8
10000_FRONT
  6
Continuous
 62
     7
370
    15
100
AcDbCircle
 10
98.07756734429109
 20
427.236670758686
 30
0.0
 40
3.25
100
AcDbArc
 50
269.99996
 51
90.0
  0
LINE
  5
B1D
330
5A99
100
AcDbEntity
  8
10000_FRONT
  6
Continuous
 62
     7
370
    15
100
AcDbLine
 10
94.1775673442911
 20
373.736670758686
 30
0.0
 11
101.9775673442911
 21
373.736670758686
 31
0.0
  0
LINE
  5
B1E
330
5A99
100
AcDbEntity
  8
10000_FRONT
  6
Continuous
 62
     7
370
    15
100
AcDbLine
 10
102.6775673442911
 20
425.736670758686
 30
0.0
 11
101.9775673442911
 21
425.736670758686
 31
0.0
  0
ARC
  5
B1F
330
5A99
100
AcDbEntity
  8
10000_FRONT
  6
Continuous
 62
     7
370
    15
100
AcDbCircle
 10
102.6775673442911
 20
425.336670758686
 30
0.0
 40
0.4
100
AcDbArc
 50
0.0
 51
90.0
  0
ARC
  5
B20
330
5A99
100
AcDbEntity
  8
10000_FRONT
  6
Continuous
 62
     7
370
    15
100
AcDbCircle
 10
102.6775673442911
 20
371.136670758686
 30
0.0
 40
0.4
100
AcDbArc
 50
270.0
 51
0.0
  0
LINE
  5
B21
330
5A99
100
AcDbEntity
  8
10000_FRONT
  6
Continuous
 62
     7
370
    50
100
AcDbLine
 10
103.077567344291
 20
437.836670758686
 30
0.0
 11
103.077567344291
 21
417.736670758686
 31
0.0
  0
LINE
  5
B29
330
5A99
100
AcDbEntity
  8
10000_FRONT
  6
Continuous
 62
     7
370
    50
100
AcDbLine
 10
103.077567344291
 20
417.736670758686
 30
0.0
 11
103.0775673442911
 21
358.636670758686
 31
0.0
  0
ARC
  5
B33
102
{ACAD_REACTORS
330
63CC
102
}
330
5A99
100
AcDbEntity
  8
10000_FRONT
  6
Continuous
 62
     7
370
    50
100
AcDbCircle
 10
102.6775673442911
 20
358.636670758686
 30
0.0
 40
0.4
100
AcDbArc
 50
270.0
 51
0.0
  0
ARC
  5
B34
330
5A99
100
AcDbEntity
  8
10000_FRONT
  6
Continuous
 62
     7
370
    50
100
AcDbCircle
 10
102.6775673442911
 20
437.836670758686
 30
0.0
 40
0.4
100
AcDbArc
 50
0.0
 51
90.0
  0
LINE
  5
B38
330
5A99
100
AcDbEntity
  8
10000_FRONT
  6
Continuous
 62
     7
370
    15
100
AcDbLine
 10
103.077567344291
 20
417.736670758686
 30
0.0
 11
93.07756734429109
 21
417.736670758686
 31
0.0
  0
LINE
  5
B3A
330
5A99
100
AcDbEntity
  8
10000_FRONT
  6
Continuous
 62
     7
370
    15
100
AcDbLine
 10
102.6775673442911
 20
378.7366707586861
 30
0.0
 11
98.07756734429109
 21
378.7366707586861
 31
0.0
  0
LINE
  5
B9B
102
{ACAD_REACTORS
330
6422
330
651C
102
}
330
5A99
100
AcDbEntity
  8
10000_FRONT
  6
Continuous
 62
     7
370
    15
100
AcDbLine
 10
105.5775673442911
 20
367.036670758686
 30
0.0
 11
105.5775673442911
 21
370.536680758686
 31
0.0
  0
LINE
  5
B9C
330
5A99
100
AcDbEntity
  8
10000_FRONT
  6
Continuous
 62
     7
370
    15
100
AcDbLine
 10
104.8275673442911
 20
367.036670758686
 30
0.0
 11
104.8275673442911
 21
370.536670758686
 31
0.0
  0
LINE
  5
BDD
330
5A99
100
AcDbEntity
  8
10000_FRONT
  6
Continuous
 62
     7
370
    15
100
AcDbLine
 10
104.8275673442911
 20
429.436670758686
 30
0.0
 11
104.8275673442911
 21
425.936670758686
 31
0.0
  0
LINE
  5
BDE
102
{ACAD_REACTORS
330
651C
102
}
330
5A99
100
AcDbEntity
  8
10000_FRONT
  6
Continuous
 62
     7
370
    15
100
AcDbLine
 10
105.5775673442911
 20
425.9366607586859
 30
0.0
 11
105.5775673442911
 21
429.436670758686
 31
0.0
  0
LINE
  5
C67
330
5A99
100
AcDbEntity
  8
10000_FRONT
  6
Continuous
 62
     7
370
    15
100
AcDbLine
 10
102.6775673442911
 20
378.7366707586861
 30
0.0
 11
103.077567344291
 21
378.7366707586861
 31
0.0
  0
LINE
  5
C8B
330
5A99
100
AcDbEntity
  8
10000_FRONT
  6
Continuous
 62
     7
370
    15
100
AcDbLine
 10
110.0775673442911
 20
400.236670758686
 30
0.0
 11
103.077567344291
 21
400.236670758686
 31
0.0
  0
LINE
  5
C8C
330
5A99
100
AcDbEntity
  8
10000_FRONT
  6
Continuous
 62
     7
370
    13
100
AcDbLine
 10
103.077567344291
 20
396.2366707586861
 30
0.0
 11
110.0775673442911
 21
396.2366707586861
 31
0.0
  0
LINE
  5
C8D
330
5A99
100
AcDbEntity
  8
10000_FRONT
  6
Continuous
 62
     7
370
    15
100
AcDbLine
 10
110.0775673442911
 20
400.236670758686
 30
0.0
 11
111.3275673442911
 21
398.736670758686
 31
0.0
  0
LINE
  5
C8E
330
5A99
100
AcDbEntity
  8
10000_FRONT
  6
Continuous
 62
     7
370
    15
100
AcDbLine
 10
111.3275673442911
 20
397.7366707586861
 30
0.0
 11
110.0775673442911
 21
396.2366707586861
 31
0.0
  0
LINE
  5
C8F
330
5A99
100
AcDbEntity
  8
10000_FRONT
  6
Continuous
 62
     7
370
    15
100
AcDbLine
 10
110.0775673442911
 20
396.2366707586861
 30
0.0
 11
110.0775673442911
 21
400.236670758686
 31
0.0
  0
LINE
  5
C90
330
5A99
100
AcDbEntity
  8
10000_FRONT
  6
Continuous
 62
     7
370
    15
100
AcDbLine
 10
111.3275673442911
 20
397.7366707586861
 30
0.0
 11
111.3275673442911
 21
398.736670758686
 31
0.0
  0
LINE
  5
C91
330
5A99
100
AcDbEntity
  8
10000_FRONT
  6
Continuous
 62
     7
370
    15
100
AcDbLine
 10
98.07756734429109
 20
422.736670758686
 30
0.0
 11
98.07756734429109
 21
417.736670758686
 31
0.0
  0
LINE
  5
C92
330
5A99
100
AcDbEntity
  8
10000_FRONT
  6
Continuous
 62
     7
370
    15
100
AcDbLine
 10
98.07756734429109
 20
417.736670758686
 30
0.0
 11
98.07756734429109
 21
417.236670758686
 31
0.0
  0
LINE
  5
C94
330
5A99
100
AcDbEntity
  8
10000_FRONT
  6
Continuous
 62
     7
370
    15
100
AcDbLine
 10
98.07756734429109
 20
379.986670758686
 30
0.0
 11
98.07756734429109
 21
379.2366607586861
 31
0.0
  0
LINE
  5
C95
330
5A99
100
AcDbEntity
  8
10000_FRONT
  6
Continuous
 62
     7
370
    15
100
AcDbLine
 10
98.07756734429109
 20
379.2366707586861
 30
0.0
 11
98.07756734429109
 21
378.7366707586861
 31
0.0
  0
LINE
  5
C96
330
5A99
100
AcDbEntity
  8
10000_FRONT
  6
Continuous
 62
     7
370
    15
100
AcDbLine
 10
98.07756734429109
 20
378.7366707586861
 30
0.0
 11
98.07756734429109
 21
373.736670758686
 31
0.0
  0
LINE
  5
C98
330
5A99
100
AcDbEntity
  8
10000_FRONT
  6
Continuous
 62
     7
370
    15
100
AcDbLine
 10
98.07756734429109
 20
409.236670758686
 30
0.0
 11
98.07756734429109
 21
387.2366707586861
 31
0.0
  0
LINE
  5
C99
330
5A99
100
AcDbEntity
  8
10000_FRONT
  6
Continuous
 62
     7
370
    15
100
AcDbLine
 10
98.07756734429109
 20
387.2366607586861
 30
0.0
 11
98.07756734429109
 21
386.486670758686
 31
0.0
  0
LINE
  5
CA8
330
5A99
100
AcDbEntity
  8
10000_FRONT
  6
Continuous
 62
     7
370
    15
100
AcDbLine
 10
93.2775673442911
 20
432.3366707586861
 30
0.0
 11
93.2775673442911
 21
430.783080758686
 31
0.0
  0
LINE
  5
CAA
330
5A99
100
AcDbEntity
  8
10000_FRONT
  6
Continuous
 62
     7
370
    15
100
AcDbLine
 10
93.2775673442911
 20
364.136670758686
 30
0.0
 11
93.2775673442911
 21
365.690260758686
 31
0.0
  0
ARC
  5
CAB
330
5A99
100
AcDbEntity
  8
10000_FRONT
  6
Continuous
 62
     7
370
    15
100
AcDbCircle
 10
102.6057943442911
 20
364.136670758686
 30
0.0
 40
0.5
100
AcDbArc
 50
270.0
 51
3.144960000000227
  0
ARC
  5
CAC
330
5A99
100
AcDbEntity
  8
10000_FRONT
  6
Continuous
 62
     7
370
    15
100
AcDbCircle
 10
93.77756734429111
 20
364.136670758686
 30
0.0
 40
0.5
100
AcDbArc
 50
180.0
 51
270.0
  0
ARC
  5
CAD
330
5A99
100
AcDbEntity
  8
10000_FRONT
  6
Continuous
 62
     7
370
    15
100
AcDbCircle
 10
93.77756734429111
 20
432.3366707586861
 30
0.0
 40
0.5
100
AcDbArc
 50
90.0
 51
180.0
  0
ARC
  5
CAE
330
5A99
100
AcDbEntity
  8
10000_FRONT
  6
Continuous
 62
     7
370
    15
100
AcDbCircle
 10
102.6057943442911
 20
432.336670758686
 30
0.0
 40
0.500000000000019
100
AcDbArc
 50
19.3441481478404
 51
89.9999999999992
  0
LINE
  5
CB2
330
5A99
100
AcDbEntity
  8
10000_FRONT
  6
Continuous
 62
     7
370
    15
100
AcDbLine
 10
102.6057943442911
 20
363.636670758686
 30
0.0
 11
101.8045873442911
 21
363.636670758686
 31
0.0
  0
LINE
  5
CB3
330
5A99
100
AcDbEntity
  8
10000_FRONT
  6
Continuous
 62
     7
370
    15
100
AcDbLine
 10
101.8045873442911
 20
363.636670758686
 30
0.0
 11
94.57756734429109
 21
363.636670758686
 31
0.0
  0
LINE
  5
CB4
330
5A99
100
AcDbEntity
  8
10000_FRONT
  6
Continuous
 62
     7
370
    15
100
AcDbLine
 10
94.57756734429109
 20
363.636670758686
 30
0.0
 11
93.77756734429111
 21
363.636670758686
 31
0.0
  0
LINE
  5
CB9
330
5A99
100
AcDbEntity
  8
10000_FRONT
  6
Continuous
 62
     7
370
    15
100
AcDbLine
 10
102.6057943442911
 20
432.836670758686
 30
0.0
 11
93.77756734429111
 21
432.8366707586861
 31
0.0
  0
LINE
  5
CBC
330
5A99
100
AcDbEntity
  8
10000_FRONT
  6
Continuous
 62
     7
370
    15
100
AcDbLine
 10
98.07756734429109
 20
363.636670758686
 30
0.0
 11
98.07756734429109
 21
361.186670758686
 31
0.0
  0
LINE
  5
CBD
330
5A99
100
AcDbEntity
  8
10000_FRONT
  6
Continuous
 62
     7
370
    15
100
AcDbLine
 10
98.07756734429109
 20
435.2866707586859
 30
0.0
 11
98.07756734429109
 21
432.8366707586861
 31
0.0
  0
LINE
  5
CBF
330
5A99
100
AcDbEntity
  8
10000_FRONT
  6
Continuous
 62
     7
370
    15
100
AcDbLine
 10
98.07756734429109
 20
423.986670758686
 30
0.0
 11
98.07756734429109
 21
422.736670758686
 31
0.0
  0
LINE
  5
CC0
330
5A99
100
AcDbEntity
  8
10000_FRONT
  6
Continuous
 62
     7
370
    15
100
AcDbLine
 10
98.07756734429109
 20
373.7366607586861
 30
0.0
 11
98.07756734429109
 21
372.4866707586861
 31
0.0
  0
LINE
  5
CC4
330
5A99
100
AcDbEntity
  8
10000_FRONT
  6
Continuous
 62
     7
370
    15
100
AcDbLine
 10
94.1775673442911
 20
370.7366707586861
 30
0.0
 11
94.1775673442911
 21
372.197430758686
 31
0.0
  0
LINE
  5
CC5
330
5A99
100
AcDbEntity
  8
10000_FRONT
  6
Continuous
 62
     7
370
    15
100
AcDbLine
 10
94.1775673442911
 20
372.197430758686
 30
0.0
 11
94.1775673442911
 21
373.736670758686
 31
0.0
  0
LINE
  5
CC6
330
5A99
100
AcDbEntity
  8
10000_FRONT
  6
Continuous
 62
     7
370
    15
100
AcDbLine
 10
93.47756734429109
 20
370.7366707586861
 30
0.0
 11
94.1775673442911
 21
370.7366707586861
 31
0.0
  0
LINE
  5
CC7
330
5A99
100
AcDbEntity
  8
10000_FRONT
  6
Continuous
 62
     7
370
    15
100
AcDbLine
 10
98.07756734429109
 20
422.736670758686
 30
0.0
 11
94.1775673442911
 21
422.736670758686
 31
0.0
  0
LINE
  5
CC8
330
5A99
100
AcDbEntity
  8
10000_FRONT
  6
Continuous
 62
     7
370
    15
100
AcDbLine
 10
94.1775673442911
 20
422.736670758686
 30
0.0
 11
94.1775673442911
 21
425.736670758686
 31
0.0
  0
LINE
  5
D3C
330
5A99
100
AcDbEntity
  8
10000_FRONT
  6
Continuous
 62
     7
370
    15
100
AcDbLine
 10
106.5775673442911
 20
421.936670758686
 30
0.0
 11
106.5775673442911
 21
422.336670758686
 31
0.0
  0
LINE
  5
D3D
330
5A99
100
AcDbEntity
  8
10000_FRONT
  6
Continuous
 62
     7
370
    15
100
AcDbLine
 10
103.077567344291
 20
421.490830758686
 30
0.0
 11
106.5775673442911
 21
421.936670758686
 31
0.0
  0
LINE
  5
D3E
330
5A99
100
AcDbEntity
  8
10000_FRONT
  6
Continuous
 62
     7
370
    15
100
AcDbLine
 10
106.5775673442911
 20
422.336670758686
 30
0.0
 11
104.9275673442911
 21
423.8366707586861
 31
0.0
  0
LINE
  5
D3F
330
5A99
100
AcDbEntity
  8
10000_FRONT
  6
Continuous
 62
     7
370
    15
100
AcDbLine
 10
104.9275673442911
 20
423.8366707586861
 30
0.0
 11
104.6275673442911
 21
423.8366707586861
 31
0.0
  0
LINE
  5
D40
330
5A99
100
AcDbEntity
  8
10000_FRONT
  6
Continuous
 62
     7
370
    15
100
AcDbLine
 10
104.6275673442911
 20
423.8366707586861
 30
0.0
 11
104.6275673442911
 21
422.736670758686
 31
0.0
  0
LINE
  5
D41
330
5A99
100
AcDbEntity
  8
10000_FRONT
  6
Continuous
 62
     7
370
    15
100
AcDbLine
 10
104.6275673442911
 20
422.736670758686
 30
0.0
 11
103.077567344291
 21
422.736670758686
 31
0.0
  0
LINE
  5
D43
330
5A99
100
AcDbEntity
  8
10000_FRONT
  6
Continuous
 62
     7
370
    50
100
AcDbLine
 10
101.9775673442911
 20
435.2866707586859
 30
0.0
 11
94.1775673442911
 21
435.2866707586859
 31
0.0
  0
LINE
  5
D47
330
5A99
100
AcDbEntity
  8
10000_FRONT
  6
Continuous
 62
     7
370
    15
100
AcDbLine
 10
104.6275673442911
 20
373.736670758686
 30
0.0
 11
103.077567344291
 21
373.736670758686
 31
0.0
  0
LINE
  5
D8B
330
5A99
100
AcDbEntity
  8
10000_FRONT
  6
Continuous
 62
     7
370
    15
100
AcDbLine
 10
103.077567344291
 20
374.982500758686
 30
0.0
 11
106.5775673442911
 21
374.536670758686
 31
0.0
  0
LINE
  5
D8C
330
5A99
100
AcDbEntity
  8
10000_FRONT
  6
Continuous
 62
     7
370
    15
100
AcDbLine
 10
106.5775673442911
 20
374.536670758686
 30
0.0
 11
106.5775673442911
 21
374.136670758686
 31
0.0
  0
LINE
  5
D8D
330
5A99
100
AcDbEntity
  8
10000_FRONT
  6
Continuous
 62
     7
370
    15
100
AcDbLine
 10
106.5775673442911
 20
374.136670758686
 30
0.0
 11
104.9275673442911
 21
372.636670758686
 31
0.0
  0
LINE
  5
D8E
330
5A99
100
AcDbEntity
  8
10000_FRONT
  6
Continuous
 62
     7
370
    15
100
AcDbLine
 10
104.6275673442911
 20
372.636670758686
 30
0.0
 11
104.6275673442911
 21
373.736670758686
 31
0.0
  0
LINE
  5
D8F
330
5A99
100
AcDbEntity
  8
10000_FRONT
  6
Continuous
 62
     7
370
    15
100
AcDbLine
 10
104.9275673442911
 20
372.636670758686
 30
0.0
 11
104.6275673442911
 21
372.636670758686
 31
0.0
  0
ARC
  5
DBC
330
5A99
100
AcDbEntity
  8
10000_FRONT
  6
Continuous
 62
     7
370
    15
100
AcDbCircle
 10
98.07756734429109
 20
427.236670758686
 30
0.0
 40
3.25
100
AcDbArc
 50
89.99996000000004
 51
270.0
  0
LINE
  5
DBD
330
5A99
100
AcDbEntity
  8
10000_FRONT
  6
Continuous
 62
     7
370
    15
100
AcDbLine
 10
94.1775673442911
 20
425.736670758686
 30
0.0
 11
93.47756734429109
 21
425.736670758686
 31
0.0
  0
ARC
  5
DBE
330
5A99
100
AcDbEntity
  8
10000_FRONT
  6
Continuous
 62
     7
370
    15
100
AcDbCircle
 10
98.07756734429109
 20
413.236670758686
 30
0.0
 40
4.0
100
AcDbArc
 50
89.99996000000004
 51
270.0
  0
ARC
  5
DC2
330
5A99
100
AcDbEntity
  8
10000_FRONT
  6
Continuous
 62
     7
370
    15
100
AcDbCircle
 10
98.07756734429109
 20
383.236670758686
 30
0.0
 40
4.0
100
AcDbArc
 50
89.99996000000004
 51
270.0
  0
LINE
  5
DC3
330
5A99
100
AcDbEntity
  8
10000_FRONT
  6
Continuous
 62
     7
370
    50
100
AcDbLine
 10
93.47756734429109
 20
358.2366707586861
 30
0.0
 11
94.1775673442911
 21
358.2366707586861
 31
0.0
  0
LINE
  5
DC4
330
5A99
100
AcDbEntity
  8
10000_FRONT
  6
Continuous
 62
     7
370
    50
100
AcDbLine
 10
93.47756734429109
 20
438.236670758686
 30
0.0
 11
94.1775673442911
 21
438.236670758686
 31
0.0
  0
LINE
  5
DC5
330
5A99
100
AcDbEntity
  8
10000_FRONT
  6
Continuous
 62
     7
370
    50
100
AcDbLine
 10
94.1775673442911
 20
358.2366707586861
 30
0.0
 11
94.1775673442911
 21
359.7366707586861
 31
0.0
  0
LINE
  5
DC6
330
5A99
100
AcDbEntity
  8
10000_FRONT
  6
Continuous
 62
     7
370
    50
100
AcDbLine
 10
94.1775673442911
 20
359.7366707586861
 30
0.0
 11
94.1775673442911
 21
361.186670758686
 31
0.0
  0
LINE
  5
DC8
330
5A99
100
AcDbEntity
  8
10000_FRONT
  6
Continuous
 62
     7
370
    50
100
AcDbLine
 10
94.1775673442911
 20
435.2866707586859
 30
0.0
 11
94.1775673442911
 21
438.236670758686
 31
0.0
  0
LINE
  5
DD2
330
5A99
100
AcDbEntity
  8
10000_FRONT
  6
Continuous
 62
     7
370
    50
100
AcDbLine
 10
93.07756734429109
 20
358.636670758686
 30
0.0
 11
93.07756734429109
 21
437.836670758686
 31
0.0
  0
ARC
  5
DDA
102
{ACAD_REACTORS
330
63CC
330
6422
102
}
330
5A99
100
AcDbEntity
  8
10000_FRONT
  6
Continuous
 62
     7
370
    50
100
AcDbCircle
 10
93.47756734429109
 20
358.636670758686
 30
0.0
 40
0.4
100
AcDbArc
 50
180.0
 51
270.0
  0
ARC
  5
DDB
330
5A99
100
AcDbEntity
  8
10000_FRONT
  6
Continuous
 62
     7
370
    15
100
AcDbCircle
 10
93.47756734429092
 20
366.0366707586859
 30
0.0
 40
0.399999999999828
100
AcDbArc
 50
179.9999999999788
 51
240.0000000000112
  0
ARC
  5
DDC
330
5A99
100
AcDbEntity
  8
10000_FRONT
  6
Continuous
 62
     7
370
    15
100
AcDbCircle
 10
93.47756734429109
 20
371.136670758686
 30
0.0
 40
0.4
100
AcDbArc
 50
180.0
 51
270.0
  0
ARC
  5
DDD
330
5A99
100
AcDbEntity
  8
10000_FRONT
  6
Continuous
 62
     7
370
    15
100
AcDbCircle
 10
93.47756734429109
 20
425.336670758686
 30
0.0
 40
0.4
100
AcDbArc
 50
90.0
 51
180.0
  0
ARC
  5
DDF
330
5A99
100
AcDbEntity
  8
10000_FRONT
  6
Continuous
 62
     7
370
    50
100
AcDbCircle
 10
93.47756734429109
 20
437.836670758686
 30
0.0
 40
0.4
100
AcDbArc
 50
90.0
 51
180.0
  0
LINE
  5
DF2
330
5A99
100
AcDbEntity
  8
10000_FRONT
  6
Continuous
 62
     7
370
    15
100
AcDbLine
 10
93.47756734429109
 20
378.7366707586861
 30
0.0
 11
98.07756734429109
 21
378.7366707586861
 31
0.0
  0
LINE
  5
E31
330
5A99
100
AcDbEntity
  8
10000_FRONT
  6
Continuous
 62
     7
370
    15
100
AcDbLine
 10
93.47756734429109
 20
378.7366707586861
 30
0.0
 11
93.07756734429109
 21
378.7366707586861
 31
0.0
  0
LINE
  5
139A
330
5A99
100
AcDbEntity
  8
11000_Left
  6
Continuous
 62
     7
370
    15
100
AcDbLine
 10
240.2518370618354
 20
396.2071314202351
 30
0.0
 11
240.2518370618354
 21
400.707131420235
 31
0.0
  0
LINE
  5
139B
330
5A99
100
AcDbEntity
  8
11000_Left
  6
Continuous
 62
     7
370
    15
100
AcDbLine
 10
245.0518370618354
 20
400.707131420235
 30
0.0
 11
245.0518370618354
 21
396.2071314202351
 31
0.0
  0
ARC
  5
1478
330
5A99
100
AcDbEntity
  8
11000_Left
  6
Continuous
 62
     7
370
    50
100
AcDbCircle
 10
207.0518370618354
 20
431.757131420235
 30
0.0
 40
0.8
100
AcDbArc
 50
270.0
 51
0.0
  0
ARC
  5
1479
330
5A99
100
AcDbEntity
  8
11000_Left
  6
Continuous
 62
     7
370
    50
100
AcDbCircle
 10
207.0518370618354
 20
365.157131420235
 30
0.0
 40
0.8
100
AcDbArc
 50
0.0
 51
90.0
  0
LINE
  5
147A
330
5A99
100
AcDbEntity
  8
11000_Left
  6
Continuous
 62
     7
370
    50
100
AcDbLine
 10
207.0518370618354
 20
365.957131420235
 30
0.0
 11
196.9518370618354
 21
365.957131420235
 31
0.0
  0
LINE
  5
147B
330
5A99
100
AcDbEntity
  8
11000_Left
  6
Continuous
 62
     7
370
    50
100
AcDbLine
 10
196.9518370618354
 20
430.957131420235
 30
0.0
 11
207.0518370618354
 21
430.957131420235
 31
0.0
  0
LINE
  5
147C
330
5A99
100
AcDbEntity
  8
11000_Left
  6
Continuous
 62
     7
370
    50
100
AcDbLine
 10
232.8518370618354
 20
365.857131420235
 30
0.0
 11
226.2018370618354
 21
365.857131420235
 31
0.0
  0
LINE
  5
147D
330
5A99
100
AcDbEntity
  8
11000_Left
  6
Continuous
 62
     7
370
    15
100
AcDbLine
 10
238.3518370618354
 20
364.857131420235
 30
0.0
 11
234.4518370618354
 21
364.857131420235
 31
0.0
  0
LINE
  5
147E
330
5A99
100
AcDbEntity
  8
11000_Left
  6
Continuous
 62
     7
370
    15
100
AcDbLine
 10
238.3518370618354
 20
364.857131420235
 30
0.0
 11
239.6518370618355
 21
364.857131420235
 31
0.0
  0
LINE
  5
147F
330
5A99
100
AcDbEntity
  8
11000_Left
  6
Continuous
 62
     7
370
    15
100
AcDbLine
 10
227.6518370618354
 20
364.857131420235
 30
0.0
 11
228.9518370618354
 21
364.857131420235
 31
0.0
  0
LINE
  5
1480
330
5A99
100
AcDbEntity
  8
11000_Left
  6
Continuous
 62
     7
370
    15
100
AcDbLine
 10
232.8518370618354
 20
364.857131420235
 30
0.0
 11
228.9518370618354
 21
364.857131420235
 31
0.0
  0
LINE
  5
1481
330
5A99
100
AcDbEntity
  8
11000_Left
  6
Continuous
 62
     7
370
    15
100
AcDbLine
 10
238.3518370618354
 20
432.057131420235
 30
0.0
 11
234.4518370618354
 21
432.057131420235
 31
0.0
  0
LINE
  5
1482
330
5A99
100
AcDbEntity
  8
11000_Left
  6
Continuous
 62
     7
370
    15
100
AcDbLine
 10
238.3518370618354
 20
432.057131420235
 30
0.0
 11
239.6518370618355
 21
432.057131420235
 31
0.0
  0
LINE
  5
1483
330
5A99
100
AcDbEntity
  8
11000_Left
  6
Continuous
 62
     7
370
    15
100
AcDbLine
 10
227.6518370618354
 20
432.057131420235
 30
0.0
 11
228.9518370618354
 21
432.057131420235
 31
0.0
  0
LINE
  5
1484
330
5A99
100
AcDbEntity
  8
11000_Left
  6
Continuous
 62
     7
370
    15
100
AcDbLine
 10
232.8518370618354
 20
432.057131420235
 30
0.0
 11
228.9518370618354
 21
432.057131420235
 31
0.0
  0
LINE
  5
1485
330
5A99
100
AcDbEntity
  8
11000_Left
  6
Continuous
 62
     7
370
    50
100
AcDbLine
 10
234.4518370618354
 20
431.057131420235
 30
0.0
 11
238.8518370618354
 21
431.057131420235
 31
0.0
  0
LINE
  5
1486
330
5A99
100
AcDbEntity
  8
11000_Left
  6
Continuous
 62
     7
370
    15
100
AcDbLine
 10
234.4518370618354
 20
364.857131420235
 30
0.0
 11
234.4518370618354
 21
365.910721420235
 31
0.0
  0
LINE
  5
1487
330
5A99
100
AcDbEntity
  8
11000_Left
  6
Continuous
 62
     7
370
    15
100
AcDbLine
 10
232.8518370618354
 20
365.910721420235
 30
0.0
 11
232.8518370618354
 21
364.857131420235
 31
0.0
  0
LINE
  5
1488
330
5A99
100
AcDbEntity
  8
11000_Left
  6
Continuous
 62
     7
370
    15
100
AcDbLine
 10
234.4518370618354
 20
432.057131420235
 30
0.0
 11
234.4518370618354
 21
431.003541420235
 31
0.0
  0
LINE
  5
1489
330
5A99
100
AcDbEntity
  8
11000_Left
  6
Continuous
 62
     7
370
    15
100
AcDbLine
 10
232.8518370618354
 20
431.003541420235
 30
0.0
 11
232.8518370618354
 21
432.057131420235
 31
0.0
  0
ARC
  5
148A
330
5A99
100
AcDbEntity
  8
11000_Left
  6
Continuous
 62
     7
370
    15
100
AcDbCircle
 10
228.1518370618354
 20
364.357131420235
 30
0.0
 40
0.5
100
AcDbArc
 50
180.0
 51
270.0
  0
ARC
  5
148B
330
5A99
100
AcDbEntity
  8
11000_Left
  6
Continuous
 62
     7
370
    15
100
AcDbCircle
 10
239.1518370618354
 20
364.357131420235
 30
0.0
 40
0.5
100
AcDbArc
 50
270.0
 51
0.0
  0
ARC
  5
148C
330
5A99
100
AcDbEntity
  8
11000_Left
  6
Continuous
 62
     7
370
    15
100
AcDbCircle
 10
228.1518370618354
 20
432.557131420235
 30
0.0
 40
0.5
100
AcDbArc
 50
90.0
 51
180.0
  0
ARC
  5
148D
330
5A99
100
AcDbEntity
  8
11000_Left
  6
Continuous
 62
     7
370
    15
100
AcDbCircle
 10
239.1518370618354
 20
432.557131420235
 30
0.0
 40
0.5
100
AcDbArc
 50
0.0
 51
90.0
  0
LINE
  5
148E
330
5A99
100
AcDbEntity
  8
11000_Left
  6
Continuous
 62
     7
370
    15
100
AcDbLine
 10
227.6518370618354
 20
364.357131420235
 30
0.0
 11
227.6518370618354
 21
364.857131420235
 31
0.0
  0
LINE
  5
148F
330
5A99
100
AcDbEntity
  8
11000_Left
  6
Continuous
 62
     7
370
    15
100
AcDbLine
 10
239.6518370618355
 20
364.857131420235
 30
0.0
 11
239.6518370618355
 21
364.357131420235
 31
0.0
  0
LINE
  5
1490
330
5A99
100
AcDbEntity
  8
11000_Left
  6
Continuous
 62
     7
370
    15
100
AcDbLine
 10
238.3518370618354
 20
363.857131420235
 30
0.0
 11
228.9518370618354
 21
363.857131420235
 31
0.0
  0
LINE
  5
1491
330
5A99
100
AcDbEntity
  8
11000_Left
  6
Continuous
 62
     7
370
    15
100
AcDbLine
 10
228.9518370618354
 20
363.857131420235
 30
0.0
 11
228.1518370618354
 21
363.857131420235
 31
0.0
  0
LINE
  5
1492
330
5A99
100
AcDbEntity
  8
11000_Left
  6
Continuous
 62
     7
370
    15
100
AcDbLine
 10
239.1518370618354
 20
363.857131420235
 30
0.0
 11
238.3518370618354
 21
363.857131420235
 31
0.0
  0
LINE
  5
1493
330
5A99
100
AcDbEntity
  8
11000_Left
  6
Continuous
 62
     7
370
    15
100
AcDbLine
 10
227.6518370618354
 20
432.557131420235
 30
0.0
 11
227.6518370618354
 21
432.057131420235
 31
0.0
  0
LINE
  5
1494
330
5A99
100
AcDbEntity
  8
11000_Left
  6
Continuous
 62
     7
370
    15
100
AcDbLine
 10
239.6518370618355
 20
432.057131420235
 30
0.0
 11
239.6518370618355
 21
432.557131420235
 31
0.0
  0
LINE
  5
1495
330
5A99
100
AcDbEntity
  8
11000_Left
  6
Continuous
 62
     7
370
    15
100
AcDbLine
 10
239.1518370618354
 20
433.0571314202351
 30
0.0
 11
238.3518370618354
 21
433.0571314202351
 31
0.0
  0
LINE
  5
1496
330
5A99
100
AcDbEntity
  8
11000_Left
  6
Continuous
 62
     7
370
    15
100
AcDbLine
 10
238.3518370618354
 20
433.0571314202351
 30
0.0
 11
228.9518370618354
 21
433.0571314202351
 31
0.0
  0
LINE
  5
1497
330
5A99
100
AcDbEntity
  8
11000_Left
  6
Continuous
 62
     7
370
    15
100
AcDbLine
 10
228.9518370618354
 20
433.0571314202351
 30
0.0
 11
228.1518370618354
 21
433.0571314202351
 31
0.0
  0
LINE
  5
1499
330
5A99
100
AcDbEntity
  8
11000_Left
  6
Continuous
 62
     7
370
    15
100
AcDbLine
 10
207.2809670618354
 20
367.0571314202351
 30
0.0
 11
201.1518370618354
 21
367.0571314202351
 31
0.0
  0
LINE
  5
149A
330
5A99
100
AcDbEntity
  8
11000_Left
  6
Continuous
 62
     7
370
    15
100
AcDbLine
 10
237.3518370618354
 20
379.9571314202351
 30
0.0
 11
237.3518370618354
 21
377.4571314202351
 31
0.0
  0
LINE
  5
149C
330
5A99
100
AcDbEntity
  8
11000_Left
  6
Continuous
 62
     7
370
    15
100
AcDbLine
 10
230.4848470618354
 20
376.957131420235
 30
0.0
 11
230.8518370618354
 21
376.957131420235
 31
0.0
  0
LINE
  5
149D
330
5A99
100
AcDbEntity
  8
11000_Left
  6
Continuous
 62
     7
370
    50
100
AcDbLine
 10
240.1518370618354
 20
370.957131420235
 30
0.0
 11
264.5668170618354
 21
370.957131420235
 31
0.0
  0
ARC
  5
149E
330
5A99
100
AcDbEntity
  8
11000_Left
  6
Continuous
 62
     7
370
    50
100
AcDbCircle
 10
264.5668170618354
 20
372.457131420235
 30
0.0
 40
1.5
100
AcDbArc
 50
270.0
 51
358.5011499999993
  0
ARC
  5
149F
102
{ACAD_REACTORS
330
6456
102
}
330
5A99
100
AcDbEntity
  8
11000_Left
  6
Continuous
 62
     7
370
    50
100
AcDbCircle
 10
16.15184106183541
 20
378.957131420235
 30
0.0
 40
250.0
100
AcDbArc
 50
358.5011499999993
 51
0.0
  0
LINE
  5
14A0
330
5A99
100
AcDbEntity
  8
11000_Left
  6
Continuous
 62
     7
370
    50
100
AcDbLine
 10
266.1518370618355
 20
417.957131420235
 30
0.0
 11
266.1518370618355
 21
378.957131420235
 31
0.0
  0
ARC
  5
14A1
330
5A99
100
AcDbEntity
  8
11000_Left
  6
Continuous
 62
     7
370
    15
100
AcDbCircle
 10
249.3518370618354
 20
400.407131420235
 30
0.0
 40
0.3
100
AcDbArc
 50
0.0
 51
90.0
  0
LINE
  5
14A2
330
5A99
100
AcDbEntity
  8
11000_Left
  6
Continuous
 62
     7
370
    15
100
AcDbLine
 10
249.6518370618355
 20
400.407131420235
 30
0.0
 11
249.6518370618355
 21
396.507131420235
 31
0.0
  0
ARC
  5
14A3
330
5A99
100
AcDbEntity
  8
11000_Left
  6
Continuous
 62
     7
370
    15
100
AcDbCircle
 10
249.3518370618354
 20
396.507131420235
 30
0.0
 40
0.3
100
AcDbArc
 50
270.0
 51
0.0
  0
LINE
  5
14A4
330
5A99
100
AcDbEntity
  8
11000_Left
  6
Continuous
 62
     7
370
    15
100
AcDbLine
 10
249.3518370618354
 20
396.2071314202351
 30
0.0
 11
228.9518370618354
 21
396.2071314202351
 31
0.0
  0
ARC
  5
14A5
330
5A99
100
AcDbEntity
  8
11000_Left
  6
Continuous
 62
     7
370
    15
100
AcDbCircle
 10
228.9518370618354
 20
396.507131420235
 30
0.0
 40
0.3
100
AcDbArc
 50
180.0
 51
270.0
  0
LINE
  5
14A6
330
5A99
100
AcDbEntity
  8
11000_Left
  6
Continuous
 62
     7
370
    15
100
AcDbLine
 10
228.6518370618354
 20
396.507131420235
 30
0.0
 11
228.6518370618354
 21
400.407131420235
 31
0.0
  0
ARC
  5
14A7
330
5A99
100
AcDbEntity
  8
11000_Left
  6
Continuous
 62
     7
370
    15
100
AcDbCircle
 10
228.9518370618354
 20
400.407131420235
 30
0.0
 40
0.3
100
AcDbArc
 50
90.0
 51
180.0
  0
LINE
  5
14A8
330
5A99
100
AcDbEntity
  8
11000_Left
  6
Continuous
 62
     7
370
    15
100
AcDbLine
 10
228.9518370618354
 20
400.707131420235
 30
0.0
 11
249.3518370618354
 21
400.707131420235
 31
0.0
  0
ARC
  5
14AA
330
5A99
100
AcDbEntity
  8
11000_Left
  6
Continuous
 62
     7
370
    50
100
AcDbCircle
 10
16.15184106183541
 20
417.957131420235
 30
0.0
 40
250.0
100
AcDbArc
 50
0.0
 51
1.498853599999286
  0
LINE
  5
14AB
330
5A99
100
AcDbEntity
  8
11000_Left
  6
Continuous
 62
     7
370
    50
100
AcDbLine
 10
239.6518370618355
 20
426.457131420235
 30
0.0
 11
239.6518370618355
 21
430.2571314202349
 31
0.0
  0
ARC
  5
14AC
330
5A99
100
AcDbEntity
  8
11000_Left
  6
Continuous
 62
     7
370
    50
100
AcDbCircle
 10
226.2018370618354
 20
431.857131420235
 30
0.0
 40
0.8
100
AcDbArc
 50
180.0
 51
270.0
  0
LINE
  5
14AD
330
5A99
100
AcDbEntity
  8
11000_Left
  6
Continuous
 62
     7
370
    50
100
AcDbLine
 10
225.4018370618354
 20
436.957131420235
 30
0.0
 11
225.4018370618354
 21
431.857131420235
 31
0.0
  0
LINE
  5
14AE
330
5A99
100
AcDbEntity
  8
11000_Left
  6
Continuous
 62
     7
370
    15
100
AcDbLine
 10
230.8518370618354
 20
419.957131420235
 30
0.0
 11
230.4848470618354
 21
419.957131420235
 31
0.0
  0
LINE
  5
14B0
330
5A99
100
AcDbEntity
  8
11000_Left
  6
Continuous
 62
     7
370
    15
100
AcDbLine
 10
230.4848470618354
 20
419.957131420235
 30
0.0
 11
230.4848470618354
 21
423.457131420235
 31
0.0
  0
LINE
  5
14B3
330
5A99
100
AcDbEntity
  8
11000_Left
  6
Continuous
 62
     7
370
    15
100
AcDbLine
 10
237.2591370618354
 20
419.457131420235
 30
0.0
 11
237.3518370618354
 21
419.457131420235
 31
0.0
  0
ARC
  5
14B4
330
5A99
100
AcDbEntity
  8
11000_Left
  6
Continuous
 62
     7
370
    15
100
AcDbCircle
 10
238.1518370618354
 20
433.023211420235
 30
0.0
 40
0.3
100
AcDbArc
 50
90.0
 51
173.5092999999993
  0
ARC
  5
14B5
330
5A99
100
AcDbEntity
  8
11000_Left
  6
Continuous
 62
     7
370
    15
100
AcDbCircle
 10
238.2518370618354
 20
433.023211420235
 30
0.0
 40
0.3
100
AcDbArc
 50
6.490700700000829
 51
90.0
  0
LINE
  5
14B6
330
5A99
100
AcDbEntity
  8
11000_Left
  6
Continuous
 62
     7
370
    15
100
AcDbLine
 10
238.2518370618354
 20
433.323211420235
 30
0.0
 11
238.1518370618354
 21
433.323211420235
 31
0.0
  0
ARC
  5
14B7
330
5A99
100
AcDbEntity
  8
11000_Left
  6
Continuous
 62
     7
370
    15
100
AcDbCircle
 10
236.8518370618354
 20
433.023211420235
 30
0.0
 40
0.3
100
AcDbArc
 50
90.0
 51
173.5092999999993
  0
ARC
  5
14B8
330
5A99
100
AcDbEntity
  8
11000_Left
  6
Continuous
 62
     7
370
    15
100
AcDbCircle
 10
236.9518370618354
 20
433.023211420235
 30
0.0
 40
0.3
100
AcDbArc
 50
6.490700700000829
 51
90.0
  0
LINE
  5
14B9
330
5A99
100
AcDbEntity
  8
11000_Left
  6
Continuous
 62
     7
370
    15
100
AcDbLine
 10
236.9518370618354
 20
433.323211420235
 30
0.0
 11
236.8518370618354
 21
433.323211420235
 31
0.0
  0
ARC
  5
14BA
330
5A99
100
AcDbEntity
  8
11000_Left
  6
Continuous
 62
     7
370
    15
100
AcDbCircle
 10
235.5518370618354
 20
433.023211420235
 30
0.0
 40
0.3
100
AcDbArc
 50
90.0
 51
173.5092999999993
  0
ARC
  5
14BB
330
5A99
100
AcDbEntity
  8
11000_Left
  6
Continuous
 62
     7
370
    15
100
AcDbCircle
 10
235.6518370618355
 20
433.023211420235
 30
0.0
 40
0.3
100
AcDbArc
 50
6.490700700000829
 51
90.0
  0
LINE
  5
14BC
330
5A99
100
AcDbEntity
  8
11000_Left
  6
Continuous
 62
     7
370
    15
100
AcDbLine
 10
235.6518370618355
 20
433.323211420235
 30
0.0
 11
235.5518370618354
 21
433.323211420235
 31
0.0
  0
ARC
  5
14BD
330
5A99
100
AcDbEntity
  8
11000_Left
  6
Continuous
 62
     7
370
    15
100
AcDbCircle
 10
234.2518370618354
 20
433.023211420235
 30
0.0
 40
0.3
100
AcDbArc
 50
90.0
 51
173.5092999999993
  0
ARC
  5
14BE
330
5A99
100
AcDbEntity
  8
11000_Left
  6
Continuous
 62
     7
370
    15
100
AcDbCircle
 10
234.3518370618354
 20
433.023211420235
 30
0.0
 40
0.3
100
AcDbArc
 50
6.490700700000829
 51
90.0
  0
LINE
  5
14BF
330
5A99
100
AcDbEntity
  8
11000_Left
  6
Continuous
 62
     7
370
    15
100
AcDbLine
 10
234.3518370618354
 20
433.323211420235
 30
0.0
 11
234.2518370618354
 21
433.323211420235
 31
0.0
  0
ARC
  5
14C0
330
5A99
100
AcDbEntity
  8
11000_Left
  6
Continuous
 62
     7
370
    15
100
AcDbCircle
 10
232.9518370618354
 20
433.023211420235
 30
0.0
 40
0.3
100
AcDbArc
 50
90.0
 51
173.5092999999993
  0
ARC
  5
14C1
330
5A99
100
AcDbEntity
  8
11000_Left
  6
Continuous
 62
     7
370
    15
100
AcDbCircle
 10
233.0518370618354
 20
433.023211420235
 30
0.0
 40
0.3
100
AcDbArc
 50
6.490700700000829
 51
90.0
  0
LINE
  5
14C2
330
5A99
100
AcDbEntity
  8
11000_Left
  6
Continuous
 62
     7
370
    15
100
AcDbLine
 10
233.0518370618354
 20
433.323211420235
 30
0.0
 11
232.9518370618354
 21
433.323211420235
 31
0.0
  0
ARC
  5
14C3
330
5A99
100
AcDbEntity
  8
11000_Left
  6
Continuous
 62
     7
370
    15
100
AcDbCircle
 10
231.6518370618354
 20
433.023211420235
 30
0.0
 40
0.3
100
AcDbArc
 50
90.0
 51
173.5092999999993
  0
ARC
  5
14C4
330
5A99
100
AcDbEntity
  8
11000_Left
  6
Continuous
 62
     7
370
    15
100
AcDbCircle
 10
231.7518370618354
 20
433.023211420235
 30
0.0
 40
0.3
100
AcDbArc
 50
6.490700700000829
 51
90.0
  0
LINE
  5
14C5
330
5A99
100
AcDbEntity
  8
11000_Left
  6
Continuous
 62
     7
370
    15
100
AcDbLine
 10
231.7518370618354
 20
433.323211420235
 30
0.0
 11
231.6518370618354
 21
433.323211420235
 31
0.0
  0
ARC
  5
14C6
330
5A99
100
AcDbEntity
  8
11000_Left
  6
Continuous
 62
     7
370
    15
100
AcDbCircle
 10
230.3518370618354
 20
433.023211420235
 30
0.0
 40
0.3
100
AcDbArc
 50
90.0
 51
173.5092999999993
  0
ARC
  5
14C7
330
5A99
100
AcDbEntity
  8
11000_Left
  6
Continuous
 62
     7
370
    15
100
AcDbCircle
 10
230.4518370618354
 20
433.023211420235
 30
0.0
 40
0.3
100
AcDbArc
 50
6.490700700000829
 51
90.0
  0
LINE
  5
14C8
330
5A99
100
AcDbEntity
  8
11000_Left
  6
Continuous
 62
     7
370
    15
100
AcDbLine
 10
230.4518370618354
 20
433.323211420235
 30
0.0
 11
230.3518370618354
 21
433.323211420235
 31
0.0
  0
ARC
  5
14C9
330
5A99
100
AcDbEntity
  8
11000_Left
  6
Continuous
 62
     7
370
    15
100
AcDbCircle
 10
229.0518370618354
 20
433.023211420235
 30
0.0
 40
0.3
100
AcDbArc
 50
90.0
 51
173.5092999999993
  0
ARC
  5
14CA
330
5A99
100
AcDbEntity
  8
11000_Left
  6
Continuous
 62
     7
370
    15
100
AcDbCircle
 10
229.1518370618355
 20
433.023211420235
 30
0.0
 40
0.3
100
AcDbArc
 50
6.490700700000829
 51
90.0
  0
LINE
  5
14CB
330
5A99
100
AcDbEntity
  8
11000_Left
  6
Continuous
 62
     7
370
    15
100
AcDbLine
 10
229.1518370618355
 20
433.323211420235
 30
0.0
 11
229.0518370618354
 21
433.323211420235
 31
0.0
  0
LINE
  5
14CC
330
5A99
100
AcDbEntity
  8
11000_Left
  6
Continuous
 62
     7
370
    15
100
AcDbLine
 10
237.3518370618354
 20
419.457131420235
 30
0.0
 11
237.3518370618354
 21
416.957131420235
 31
0.0
  0
LINE
  5
14CD
330
5A99
100
AcDbEntity
  8
11000_Left
  6
Continuous
 62
     7
370
    15
100
AcDbLine
 10
237.3518370618354
 20
416.957131420235
 30
0.0
 11
230.8518370618354
 21
416.957131420235
 31
0.0
  0
LINE
  5
14CE
330
5A99
100
AcDbEntity
  8
11000_Left
  6
Continuous
 62
     7
370
    15
100
AcDbLine
 10
230.8518370618354
 20
416.957131420235
 30
0.0
 11
230.8518370618354
 21
419.957131420235
 31
0.0
  0
ARC
  5
14CF
330
5A99
100
AcDbEntity
  8
11000_Left
  6
Continuous
 62
     7
370
    50
100
AcDbCircle
 10
223.9018370618354
 20
436.957131420235
 30
0.0
 40
1.5
100
AcDbArc
 50
0.0
 51
90.0
  0
ARC
  5
14D0
330
5A99
100
AcDbEntity
  8
11000_Left
  6
Continuous
 62
     7
370
    50
100
AcDbCircle
 10
196.9518370618354
 20
429.457131420235
 30
0.0
 40
1.5
100
AcDbArc
 50
90.0
 51
180.0
  0
LINE
  5
14D1
330
5A99
100
AcDbEntity
  8
11000_Left
  6
Continuous
 62
     7
370
    50
100
AcDbLine
 10
195.4518370618354
 20
367.4571314202351
 30
0.0
 11
195.4518370618354
 21
429.457131420235
 31
0.0
  0
ARC
  5
14D2
102
{ACAD_REACTORS
330
6456
102
}
330
5A99
100
AcDbEntity
  8
11000_Left
  6
Continuous
 62
     7
370
    50
100
AcDbCircle
 10
196.9518370618354
 20
367.4571314202351
 30
0.0
 40
1.5
100
AcDbArc
 50
180.0
 51
270.0
  0
ARC
  5
14D3
330
5A99
100
AcDbEntity
  8
11000_Left
  6
Continuous
 62
     7
370
    50
100
AcDbCircle
 10
223.9018370618354
 20
359.957131420235
 30
0.0
 40
1.5
100
AcDbArc
 50
270.0
 51
0.0
  0
LINE
  5
14D4
330
5A99
100
AcDbEntity
  8
11000_Left
  6
Continuous
 62
     7
370
    50
100
AcDbLine
 10
225.4018370618354
 20
365.0571314202351
 30
0.0
 11
225.4018370618354
 21
359.957131420235
 31
0.0
  0
LINE
  5
14D5
330
5A99
100
AcDbEntity
  8
11000_Left
  6
Continuous
 62
     7
370
    15
100
AcDbLine
 10
230.8518370618354
 20
376.957131420235
 30
0.0
 11
230.8518370618354
 21
379.9571314202351
 31
0.0
  0
LINE
  5
14D6
330
5A99
100
AcDbEntity
  8
11000_Left
  6
Continuous
 62
     7
370
    15
100
AcDbLine
 10
230.8518370618354
 20
379.9571314202351
 30
0.0
 11
237.3518370618354
 21
379.9571314202351
 31
0.0
  0
ARC
  5
14D9
330
5A99
100
AcDbEntity
  8
11000_Left
  6
Continuous
 62
     7
370
    15
100
AcDbCircle
 10
238.1518370618354
 20
363.891041420235
 30
0.0
 40
0.3
100
AcDbArc
 50
186.4907000000006
 51
270.0
  0
ARC
  5
14DA
330
5A99
100
AcDbEntity
  8
11000_Left
  6
Continuous
 62
     7
370
    15
100
AcDbCircle
 10
238.2518370618354
 20
363.891041420235
 30
0.0
 40
0.3
100
AcDbArc
 50
270.0
 51
353.5092999999993
  0
LINE
  5
14DB
330
5A99
100
AcDbEntity
  8
11000_Left
  6
Continuous
 62
     7
370
    15
100
AcDbLine
 10
238.2518370618354
 20
363.5910414202351
 30
0.0
 11
238.1518370618354
 21
363.5910414202351
 31
0.0
  0
ARC
  5
14DC
330
5A99
100
AcDbEntity
  8
11000_Left
  6
Continuous
 62
     7
370
    15
100
AcDbCircle
 10
236.8518370618354
 20
363.891041420235
 30
0.0
 40
0.3
100
AcDbArc
 50
186.4907000000006
 51
270.0
  0
ARC
  5
14DD
330
5A99
100
AcDbEntity
  8
11000_Left
  6
Continuous
 62
     7
370
    15
100
AcDbCircle
 10
236.9518370618354
 20
363.891041420235
 30
0.0
 40
0.3
100
AcDbArc
 50
270.0
 51
353.5092999999993
  0
LINE
  5
14DE
330
5A99
100
AcDbEntity
  8
11000_Left
  6
Continuous
 62
     7
370
    15
100
AcDbLine
 10
236.9518370618354
 20
363.5910414202351
 30
0.0
 11
236.8518370618354
 21
363.5910414202351
 31
0.0
  0
ARC
  5
14DF
330
5A99
100
AcDbEntity
  8
11000_Left
  6
Continuous
 62
     7
370
    15
100
AcDbCircle
 10
235.5518370618354
 20
363.891041420235
 30
0.0
 40
0.3
100
AcDbArc
 50
186.4907000000006
 51
270.0
  0
ARC
  5
14E0
330
5A99
100
AcDbEntity
  8
11000_Left
  6
Continuous
 62
     7
370
    15
100
AcDbCircle
 10
235.6518370618355
 20
363.891041420235
 30
0.0
 40
0.3
100
AcDbArc
 50
270.0
 51
353.5092999999993
  0
LINE
  5
14E1
330
5A99
100
AcDbEntity
  8
11000_Left
  6
Continuous
 62
     7
370
    15
100
AcDbLine
 10
235.6518370618355
 20
363.5910414202351
 30
0.0
 11
235.5518370618354
 21
363.5910414202351
 31
0.0
  0
ARC
  5
14E2
330
5A99
100
AcDbEntity
  8
11000_Left
  6
Continuous
 62
     7
370
    15
100
AcDbCircle
 10
234.2518370618354
 20
363.891041420235
 30
0.0
 40
0.3
100
AcDbArc
 50
186.4907000000006
 51
270.0
  0
ARC
  5
14E3
330
5A99
100
AcDbEntity
  8
11000_Left
  6
Continuous
 62
     7
370
    15
100
AcDbCircle
 10
234.3518370618354
 20
363.891041420235
 30
0.0
 40
0.3
100
AcDbArc
 50
270.0
 51
353.5092999999993
  0
LINE
  5
14E4
330
5A99
100
AcDbEntity
  8
11000_Left
  6
Continuous
 62
     7
370
    15
100
AcDbLine
 10
234.3518370618354
 20
363.5910414202351
 30
0.0
 11
234.2518370618354
 21
363.5910414202351
 31
0.0
  0
ARC
  5
14E5
330
5A99
100
AcDbEntity
  8
11000_Left
  6
Continuous
 62
     7
370
    15
100
AcDbCircle
 10
232.9518370618354
 20
363.891041420235
 30
0.0
 40
0.3
100
AcDbArc
 50
186.4907000000006
 51
270.0
  0
ARC
  5
14E6
330
5A99
100
AcDbEntity
  8
11000_Left
  6
Continuous
 62
     7
370
    15
100
AcDbCircle
 10
233.0518370618354
 20
363.891041420235
 30
0.0
 40
0.3
100
AcDbArc
 50
270.0
 51
353.5092999999993
  0
LINE
  5
14E7
330
5A99
100
AcDbEntity
  8
11000_Left
  6
Continuous
 62
     7
370
    15
100
AcDbLine
 10
233.0518370618354
 20
363.5910414202351
 30
0.0
 11
232.9518370618354
 21
363.5910414202351
 31
0.0
  0
ARC
  5
14E8
330
5A99
100
AcDbEntity
  8
11000_Left
  6
Continuous
 62
     7
370
    15
100
AcDbCircle
 10
231.6518370618354
 20
363.891041420235
 30
0.0
 40
0.3
100
AcDbArc
 50
186.4907000000006
 51
270.0
  0
ARC
  5
14E9
330
5A99
100
AcDbEntity
  8
11000_Left
  6
Continuous
 62
     7
370
    15
100
AcDbCircle
 10
231.7518370618354
 20
363.891041420235
 30
0.0
 40
0.3
100
AcDbArc
 50
270.0
 51
353.5092999999993
  0
LINE
  5
14EA
330
5A99
100
AcDbEntity
  8
11000_Left
  6
Continuous
 62
     7
370
    15
100
AcDbLine
 10
231.7518370618354
 20
363.5910414202351
 30
0.0
 11
231.6518370618354
 21
363.5910414202351
 31
0.0
  0
ARC
  5
14EB
330
5A99
100
AcDbEntity
  8
11000_Left
  6
Continuous
 62
     7
370
    15
100
AcDbCircle
 10
230.3518370618354
 20
363.891041420235
 30
0.0
 40
0.3
100
AcDbArc
 50
186.4907000000006
 51
270.0
  0
ARC
  5
14EC
330
5A99
100
AcDbEntity
  8
11000_Left
  6
Continuous
 62
     7
370
    15
100
AcDbCircle
 10
230.4518370618354
 20
363.891041420235
 30
0.0
 40
0.3
100
AcDbArc
 50
270.0
 51
353.5092999999993
  0
LINE
  5
14ED
330
5A99
100
AcDbEntity
  8
11000_Left
  6
Continuous
 62
     7
370
    15
100
AcDbLine
 10
230.4518370618354
 20
363.5910414202351
 30
0.0
 11
230.3518370618354
 21
363.5910414202351
 31
0.0
  0
ARC
  5
14EE
330
5A99
100
AcDbEntity
  8
11000_Left
  6
Continuous
 62
     7
370
    15
100
AcDbCircle
 10
229.0518370618354
 20
363.891041420235
 30
0.0
 40
0.3
100
AcDbArc
 50
186.4907000000006
 51
270.0
  0
ARC
  5
14EF
330
5A99
100
AcDbEntity
  8
11000_Left
  6
Continuous
 62
     7
370
    15
100
AcDbCircle
 10
229.1518370618355
 20
363.891041420235
 30
0.0
 40
0.3
100
AcDbArc
 50
270.0
 51
353.5092999999993
  0
LINE
  5
14F0
330
5A99
100
AcDbEntity
  8
11000_Left
  6
Continuous
 62
     7
370
    15
100
AcDbLine
 10
229.1518370618355
 20
363.5910414202351
 30
0.0
 11
229.0518370618354
 21
363.5910414202351
 31
0.0
  0
LINE
  5
14F2
330
5A99
100
AcDbEntity
  8
11000_Left
  6
Continuous
 62
     7
370
    15
100
AcDbLine
 10
237.3518370618354
 20
377.4571314202351
 30
0.0
 11
237.2591370618354
 21
377.4571314202351
 31
0.0
  0
LINE
  5
14F3
330
5A99
100
AcDbEntity
  8
11000_Left
  6
Continuous
 62
     7
370
    15
100
AcDbLine
 10
230.4848470618354
 20
373.4571314202351
 30
0.0
 11
230.4848470618354
 21
376.957131420235
 31
0.0
  0
ARC
  5
14F4
330
5A99
100
AcDbEntity
  8
11000_Left
  6
Continuous
 62
     7
370
    50
100
AcDbCircle
 10
226.2018370618354
 20
365.0571314202351
 30
0.0
 40
0.8
100
AcDbArc
 50
90.0
 51
180.0
  0
LINE
  5
14F5
330
5A99
100
AcDbEntity
  8
11000_Left
  6
Continuous
 62
     7
370
    50
100
AcDbLine
 10
239.6518370618355
 20
370.457131420235
 30
0.0
 11
239.6518370618355
 21
366.6571314202351
 31
0.0
  0
ARC
  5
14F6
330
5A99
100
AcDbEntity
  8
11000_Left
  6
Continuous
 62
     7
370
    50
100
AcDbCircle
 10
240.1518370618354
 20
370.457131420235
 30
0.0
 40
0.5
100
AcDbArc
 50
90.0
 51
180.0
  0
ARC
  5
14F7
102
{ACAD_REACTORS
330
648A
102
}
330
5A99
100
AcDbEntity
  8
11000_Left
  6
Continuous
 62
     7
370
    50
100
AcDbCircle
 10
238.8518370618354
 20
366.6571314202351
 30
0.0
 40
0.8
100
AcDbArc
 50
270.0
 51
0.0
  0
LINE
  5
14F8
330
5A99
100
AcDbEntity
  8
11000_Left
  6
Continuous
 62
     7
370
    15
100
AcDbLine
 10
201.1518370618354
 20
429.857131420235
 30
0.0
 11
207.2809670618354
 21
429.857131420235
 31
0.0
  0
LINE
  5
14F9
330
5A99
100
AcDbEntity
  8
11000_Left
  6
Continuous
 62
     7
370
    15
100
AcDbLine
 10
207.2809670618354
 20
425.957131420235
 30
0.0
 11
201.1518370618354
 21
425.957131420235
 31
0.0
  0
LINE
  5
14FA
330
5A99
100
AcDbEntity
  8
11000_Left
  6
Continuous
 62
     7
370
    15
100
AcDbLine
 10
201.1518370618354
 20
425.957131420235
 30
0.0
 11
201.1518370618354
 21
429.857131420235
 31
0.0
  0
ARC
  5
14FD
330
5A99
100
AcDbEntity
  8
11000_Left
  6
Continuous
 62
     7
370
    50
100
AcDbCircle
 10
238.8518370618354
 20
430.2571314202349
 30
0.0
 40
0.8
100
AcDbArc
 50
0.0
 51
90.0
  0
ARC
  5
14FE
330
5A99
100
AcDbEntity
  8
11000_Left
  6
Continuous
 62
     7
370
    50
100
AcDbCircle
 10
240.1518370618354
 20
426.457131420235
 30
0.0
 40
0.5
100
AcDbArc
 50
180.0
 51
270.0
  0
LINE
  5
14FF
330
5A99
100
AcDbEntity
  8
11000_Left
  6
Continuous
 62
     7
370
    50
100
AcDbLine
 10
264.5668170618354
 20
425.957131420235
 30
0.0
 11
240.1518370618354
 21
425.957131420235
 31
0.0
  0
ARC
  5
1500
330
5A99
100
AcDbEntity
  8
11000_Left
  6
Continuous
 62
     7
370
    50
100
AcDbCircle
 10
264.5668170618354
 20
424.457131420235
 30
0.0
 40
1.5
100
AcDbArc
 50
1.498853300000767
 51
90.0
  0
LINE
  5
1501
330
5A99
100
AcDbEntity
  8
11000_Left
  6
Continuous
 62
     7
370
    15
100
AcDbLine
 10
201.1518370618354
 20
367.0571314202351
 30
0.0
 11
201.1518370618354
 21
370.957131420235
 31
0.0
  0
LINE
  5
1502
330
5A99
100
AcDbEntity
  8
11000_Left
  6
Continuous
 62
     7
370
    15
100
AcDbLine
 10
201.1518370618354
 20
370.957131420235
 30
0.0
 11
207.2809670618354
 21
370.957131420235
 31
0.0
  0
LINE
  5
1504
330
5A99
100
AcDbEntity
  8
11000_Left
  6
Continuous
 62
     7
370
    15
100
AcDbLine
 10
227.6018370618354
 20
408.057131420235
 30
0.0
 11
227.6018370618354
 21
416.057131420235
 31
0.0
  0
LINE
  5
1505
330
5A99
100
AcDbEntity
  8
11000_Left
  6
Continuous
 62
     7
370
    15
100
AcDbLine
 10
227.6018370618354
 20
416.057131420235
 30
0.0
 11
228.6018370618354
 21
416.057131420235
 31
0.0
  0
LINE
  5
1506
330
5A99
100
AcDbEntity
  8
11000_Left
  6
Continuous
 62
     7
370
    15
100
AcDbLine
 10
228.6018370618354
 20
416.057131420235
 30
0.0
 11
228.6018370618354
 21
408.057131420235
 31
0.0
  0
LINE
  5
1507
330
5A99
100
AcDbEntity
  8
11000_Left
  6
Continuous
 62
     7
370
    15
100
AcDbLine
 10
228.6018370618354
 20
408.057131420235
 30
0.0
 11
227.6018370618354
 21
408.057131420235
 31
0.0
  0
LINE
  5
1508
330
5A99
100
AcDbEntity
  8
11000_Left
  6
Continuous
 62
     7
370
    15
100
AcDbLine
 10
227.6018370618354
 20
380.857131420235
 30
0.0
 11
227.6018370618354
 21
388.857131420235
 31
0.0
  0
LINE
  5
1509
330
5A99
100
AcDbEntity
  8
11000_Left
  6
Continuous
 62
     7
370
    15
100
AcDbLine
 10
227.6018370618354
 20
388.857131420235
 30
0.0
 11
228.6018370618354
 21
388.857131420235
 31
0.0
  0
LINE
  5
150A
330
5A99
100
AcDbEntity
  8
11000_Left
  6
Continuous
 62
     7
370
    15
100
AcDbLine
 10
228.6018370618354
 20
388.857131420235
 30
0.0
 11
228.6018370618354
 21
380.857131420235
 31
0.0
  0
LINE
  5
150B
330
5A99
100
AcDbEntity
  8
11000_Left
  6
Continuous
 62
     7
370
    15
100
AcDbLine
 10
228.6018370618354
 20
380.857131420235
 30
0.0
 11
227.6018370618354
 21
380.857131420235
 31
0.0
  0
ARC
  5
150C
330
5A99
100
AcDbEntity
  8
11000_Left
  6
Continuous
 62
     7
370
    50
100
AcDbCircle
 10
209.3518370618354
 20
359.957131420235
 30
0.0
 40
1.5
100
AcDbArc
 50
180.0
 51
270.0
  0
ARC
  5
150D
330
5A99
100
AcDbEntity
  8
11000_Left
  6
Continuous
 62
     7
370
    50
100
AcDbCircle
 10
209.3518370618354
 20
436.957131420235
 30
0.0
 40
1.5
100
AcDbArc
 50
90.0
 51
180.0
  0
LINE
  5
150E
330
5A99
100
AcDbEntity
  8
11000_Left
  6
Continuous
 62
     7
370
    50
100
AcDbLine
 10
223.9018370618354
 20
358.457131420235
 30
0.0
 11
209.3518370618354
 21
358.457131420235
 31
0.0
  0
LINE
  5
150F
102
{ACAD_REACTORS
330
6470
102
}
330
5A99
100
AcDbEntity
  8
11000_Left
  6
Continuous
 62
     7
370
    50
100
AcDbLine
 10
209.3518370618354
 20
438.457131420235
 30
0.0
 11
223.9018370618354
 21
438.457131420235
 31
0.0
  0
LINE
  5
1510
330
5A99
100
AcDbEntity
  8
11000_Left
  6
Continuous
 62
     7
370
    50
100
AcDbLine
 10
207.8518370618354
 20
359.957131420235
 30
0.0
 11
207.8518370618354
 21
365.157131420235
 31
0.0
  0
LINE
  5
1511
330
5A99
100
AcDbEntity
  8
11000_Left
  6
Continuous
 62
     7
370
    50
100
AcDbLine
 10
207.8518370618354
 20
431.757131420235
 30
0.0
 11
207.8518370618354
 21
436.957131420235
 31
0.0
  0
LINE
  5
1512
330
5A99
100
AcDbEntity
  8
11000_Left
  6
Continuous
 62
     7
370
    50
100
AcDbLine
 10
238.8518370618354
 20
365.857131420235
 30
0.0
 11
234.4518370618354
 21
365.857131420235
 31
0.0
  0
LINE
  5
1513
330
5A99
100
AcDbEntity
  8
11000_Left
  6
Continuous
 62
     7
370
    50
100
AcDbLine
 10
226.2018370618354
 20
431.057131420235
 30
0.0
 11
232.8518370618354
 21
431.057131420235
 31
0.0
  0
LINE
  5
1514
330
5A99
100
AcDbEntity
  8
11000_Left
  6
Continuous
 62
     7
370
    50
100
AcDbLine
 10
234.4518370618354
 20
431.003541420235
 30
0.0
 11
232.8518370618354
 21
431.003541420235
 31
0.0
  0
LINE
  5
1518
330
5A99
100
AcDbEntity
  8
11000_Left
  6
Continuous
 62
     7
370
    50
100
AcDbLine
 10
234.4518370618354
 20
365.910721420235
 30
0.0
 11
232.8518370618354
 21
365.910721420235
 31
0.0
  0
LINE
  5
1526
330
5A99
100
AcDbEntity
  8
11000_Left
  6
Continuous
 62
     7
370
    15
100
AcDbLine
 10
230.4848470618354
 20
423.457131420235
 30
0.0
 11
237.2591370618354
 21
423.457131420235
 31
0.0
  0
LINE
  5
1553
330
5A99
100
AcDbEntity
  8
11000_Left
  6
Continuous
 62
     7
370
    15
100
AcDbLine
 10
237.2591370618354
 20
423.457131420235
 30
0.0
 11
237.2591370618354
 21
419.457131420235
 31
0.0
  0
LINE
  5
15C0
330
5A99
100
AcDbEntity
  8
11000_Left
  6
Continuous
 62
     7
370
    15
100
AcDbLine
 10
237.2837070618354
 20
431.557131420235
 30
0.0
 11
237.2905770618354
 21
431.057131420235
 31
0.0
  0
LINE
  5
15FA
330
5A99
100
AcDbEntity
  8
11000_Left
  6
Continuous
 62
     7
370
    15
100
AcDbLine
 10
230.7795070618354
 20
431.057131420235
 30
0.0
 11
230.7988970618354
 21
432.057131420235
 31
0.0
  0
LINE
  5
1626
330
5A99
100
AcDbEntity
  8
11000_Left
  6
Continuous
 62
     7
370
    15
100
AcDbLine
 10
230.7795070618354
 20
365.857131420235
 30
0.0
 11
230.7988970618354
 21
364.857131420235
 31
0.0
  0
LINE
  5
1627
330
5A99
100
AcDbEntity
  8
11000_Left
  6
Continuous
 62
     7
370
    15
100
AcDbLine
 10
237.2837070618354
 20
365.357131420235
 30
0.0
 11
237.2905770618354
 21
365.857131420235
 31
0.0
  0
LINE
  5
16CD
330
5A99
100
AcDbEntity
  8
11000_Left
  6
Continuous
 62
     7
370
    15
100
AcDbLine
 10
237.2591370618354
 20
377.4571314202351
 30
0.0
 11
237.2591370618354
 21
373.4571314202351
 31
0.0
  0
LINE
  5
16CF
330
5A99
100
AcDbEntity
  8
11000_Left
  6
Continuous
 62
     7
370
    15
100
AcDbLine
 10
237.2591370618354
 20
373.4571314202351
 30
0.0
 11
230.4848470618354
 21
373.4571314202351
 31
0.0
  0
LINE
  5
16D0
330
5A99
100
AcDbEntity
  8
11000_Left
  6
Continuous
 62
     7
370
    15
100
AcDbLine
 10
207.2809670618354
 20
429.857131420235
 30
0.0
 11
207.2809670618354
 21
425.957131420235
 31
0.0
  0
LINE
  5
16D1
330
5A99
100
AcDbEntity
  8
11000_Left
  6
Continuous
 62
     7
370
    15
100
AcDbLine
 10
207.2809670618354
 20
370.957131420235
 30
0.0
 11
207.2809670618354
 21
367.0571314202351
 31
0.0
  0
ARC
  5
5BBB
330
5A99
100
AcDbEntity
  8
11000_Left
  6
Continuous
 62
     7
370
    15
100
AcDbCircle
 10
237.7748295370134
 20
431.5657571764254
 30
0.0
 40
0.4911982179271165
100
AcDbArc
 50
89.23332545332348
 51
181.0062024071306
  0
ARC
  5
5BC3
330
5A99
100
AcDbEntity
  8
11000_Left
  6
Continuous
 62
     7
370
    15
100
AcDbCircle
 10
237.774636058061
 20
365.3482933455332
 30
0.0
 40
0.4910085446298293
100
AcDbArc
 50
178.9686295009857
 51
270.7895498646367
  0
LINE
  5
5BC6
330
5A99
100
AcDbEntity
  8
10000_FRONT
  6
Continuous
 62
     7
370
    15
100
AcDbLine
 10
98.59256734429109
 20
412.686670758686
 30
0.0
 11
98.59256734429109
 21
411.459790758686
 31
0.0
  0
LINE
  5
5BC7
330
5A99
100
AcDbEntity
  8
10000_FRONT
  6
Continuous
 62
     7
370
    15
100
AcDbLine
 10
98.59256734429109
 20
415.013540758686
 30
0.0
 11
98.59256734429109
 21
413.786670758686
 31
0.0
  0
LINE
  5
5BC8
330
5A99
100
AcDbEntity
  8
10000_FRONT
  6
Continuous
 62
     7
370
    15
100
AcDbLine
 10
97.5625673442911
 20
411.459790758686
 30
0.0
 11
97.5625673442911
 21
412.686670758686
 31
0.0
  0
LINE
  5
5BC9
330
5A99
100
AcDbEntity
  8
10000_FRONT
  6
Continuous
 62
     7
370
    15
100
AcDbLine
 10
97.5625673442911
 20
413.786670758686
 30
0.0
 11
97.5625673442911
 21
415.013540758686
 31
0.0
  0
ARC
  5
5BCA
330
5A99
100
AcDbEntity
  8
10000_FRONT
  6
Continuous
 62
     7
370
    15
100
AcDbCircle
 10
98.07756734429109
 20
413.236670758686
 30
0.0
 40
1.85
100
AcDbArc
 50
253.8365500000002
 51
286.1634499999998
  0
ARC
  5
5BCB
330
5A99
100
AcDbEntity
  8
10000_FRONT
  6
Continuous
 62
     7
370
    15
100
AcDbCircle
 10
98.07756734429109
 20
413.236670758686
 30
0.0
 40
1.85
100
AcDbArc
 50
73.83655500000006
 51
106.1634499999998
  0
ARC
  5
5BCC
330
5A99
100
AcDbEntity
  8
10000_FRONT
  6
Continuous
 62
     7
370
    15
100
AcDbCircle
 10
98.07756734429109
 20
413.236670758686
 30
0.0
 40
2.8548252
100
AcDbArc
 50
168.8921600000005
 51
191.1078399999994
  0
ARC
  5
5BCD
330
5A99
100
AcDbEntity
  8
10000_FRONT
  6
Continuous
 62
     7
370
    15
100
AcDbCircle
 10
98.07756734429109
 20
413.236670758686
 30
0.0
 40
2.8548252
100
AcDbArc
 50
348.8921600000006
 51
11.10783999999942
  0
LINE
  5
5BCE
330
5A99
100
AcDbEntity
  8
10000_FRONT
  6
Continuous
 62
     7
370
    15
100
AcDbLine
 10
95.27622334429109
 20
412.686670758686
 30
0.0
 11
97.5625673442911
 21
412.686670758686
 31
0.0
  0
LINE
  5
5BCF
330
5A99
100
AcDbEntity
  8
10000_FRONT
  6
Continuous
 62
     7
370
    15
100
AcDbLine
 10
97.5625673442911
 20
413.786670758686
 30
0.0
 11
95.27622334429109
 21
413.786670758686
 31
0.0
  0
LINE
  5
5BD0
330
5A99
100
AcDbEntity
  8
10000_FRONT
  6
Continuous
 62
     7
370
    15
100
AcDbLine
 10
100.8789113442911
 20
413.786670758686
 30
0.0
 11
98.59256734429109
 21
413.786670758686
 31
0.0
  0
LINE
  5
5BD1
330
5A99
100
AcDbEntity
  8
10000_FRONT
  6
Continuous
 62
     7
370
    15
100
AcDbLine
 10
98.59256734429109
 20
412.686670758686
 30
0.0
 11
100.8789113442911
 21
412.686670758686
 31
0.0
  0
ARC
  5
5BD2
330
5A99
100
AcDbEntity
  8
10000_FRONT
  6
Continuous
 62
     7
370
    15
100
AcDbCircle
 10
98.07756734429109
 20
413.236670758686
 30
0.0
 40
3.25
100
AcDbArc
 50
269.99996
 51
90.0
  0
ARC
  5
5BD3
330
5A99
100
AcDbEntity
  8
10000_FRONT
  6
Continuous
 62
     7
370
    15
100
AcDbCircle
 10
98.07756734429109
 20
413.236670758686
 30
0.0
 40
3.25
100
AcDbArc
 50
89.99996000000004
 51
270.0
  0
ARC
  5
5BD4
330
5A99
100
AcDbEntity
  8
10000_FRONT
  6
Continuous
 62
     7
370
    15
100
AcDbCircle
 10
93.47756734429109
 20
430.436670758686
 30
0.0
 40
0.4
100
AcDbArc
 50
120.0000115675763
 51
180.0
  0
ARC
  5
5BD7
330
5A99
100
AcDbEntity
  8
10000_FRONT
  6
Continuous
 62
     7
370
    15
100
AcDbCircle
 10
103.2651918329413
 20
425.7723727529866
 30
0.0
 40
0.1902138689285355
100
AcDbArc
 50
120.2652362873376
 51
169.7589761973672
  0
LINE
  5
5BD8
330
5A99
100
AcDbEntity
  8
10000_FRONT
  6
Continuous
 62
     7
370
    15
100
AcDbLine
 10
98.59256734429109
 20
382.686670758686
 30
0.0
 11
98.59256734429109
 21
381.459790758686
 31
0.0
  0
LINE
  5
5BD9
330
5A99
100
AcDbEntity
  8
10000_FRONT
  6
Continuous
 62
     7
370
    15
100
AcDbLine
 10
98.59256734429109
 20
385.0135407586861
 30
0.0
 11
98.59256734429109
 21
383.786670758686
 31
0.0
  0
LINE
  5
5BDA
330
5A99
100
AcDbEntity
  8
10000_FRONT
  6
Continuous
 62
     7
370
    15
100
AcDbLine
 10
97.5625673442911
 20
381.459790758686
 30
0.0
 11
97.5625673442911
 21
382.686670758686
 31
0.0
  0
LINE
  5
5BDB
330
5A99
100
AcDbEntity
  8
10000_FRONT
  6
Continuous
 62
     7
370
    15
100
AcDbLine
 10
97.5625673442911
 20
383.786670758686
 30
0.0
 11
97.5625673442911
 21
385.0135407586861
 31
0.0
  0
ARC
  5
5BDC
330
5A99
100
AcDbEntity
  8
10000_FRONT
  6
Continuous
 62
     7
370
    15
100
AcDbCircle
 10
98.07756734429109
 20
383.236670758686
 30
0.0
 40
1.85
100
AcDbArc
 50
253.8365500000002
 51
286.1634499999998
  0
ARC
  5
5BDD
330
5A99
100
AcDbEntity
  8
10000_FRONT
  6
Continuous
 62
     7
370
    15
100
AcDbCircle
 10
98.07756734429109
 20
383.236670758686
 30
0.0
 40
1.85
100
AcDbArc
 50
73.83655499999967
 51
106.1634499999998
  0
ARC
  5
5BDE
330
5A99
100
AcDbEntity
  8
10000_FRONT
  6
Continuous
 62
     7
370
    15
100
AcDbCircle
 10
98.07756734429109
 20
383.236670758686
 30
0.0
 40
2.8548252
100
AcDbArc
 50
168.8921600000005
 51
191.1078399999994
  0
ARC
  5
5BDF
330
5A99
100
AcDbEntity
  8
10000_FRONT
  6
Continuous
 62
     7
370
    15
100
AcDbCircle
 10
98.07756734429109
 20
383.236670758686
 30
0.0
 40
2.8548252
100
AcDbArc
 50
348.8921600000006
 51
11.10783999999942
  0
LINE
  5
5BE0
330
5A99
100
AcDbEntity
  8
10000_FRONT
  6
Continuous
 62
     7
370
    15
100
AcDbLine
 10
95.27622334429109
 20
382.686670758686
 30
0.0
 11
97.5625673442911
 21
382.686670758686
 31
0.0
  0
LINE
  5
5BE1
330
5A99
100
AcDbEntity
  8
10000_FRONT
  6
Continuous
 62
     7
370
    15
100
AcDbLine
 10
97.5625673442911
 20
383.786670758686
 30
0.0
 11
95.27622334429109
 21
383.786670758686
 31
0.0
  0
LINE
  5
5BE2
330
5A99
100
AcDbEntity
  8
10000_FRONT
  6
Continuous
 62
     7
370
    15
100
AcDbLine
 10
100.8789113442911
 20
383.786670758686
 30
0.0
 11
98.59256734429109
 21
383.786670758686
 31
0.0
  0
LINE
  5
5BE3
330
5A99
100
AcDbEntity
  8
10000_FRONT
  6
Continuous
 62
     7
370
    15
100
AcDbLine
 10
98.59256734429109
 20
382.686670758686
 30
0.0
 11
100.8789113442911
 21
382.686670758686
 31
0.0
  0
ARC
  5
5BE4
330
5A99
100
AcDbEntity
  8
10000_FRONT
  6
Continuous
 62
     7
370
    15
100
AcDbCircle
 10
98.07756734429109
 20
383.236670758686
 30
0.0
 40
3.25
100
AcDbArc
 50
269.99996
 51
90.0
  0
ARC
  5
5BE5
330
5A99
100
AcDbEntity
  8
10000_FRONT
  6
Continuous
 62
     7
370
    15
100
AcDbCircle
 10
98.07756734429109
 20
383.236670758686
 30
0.0
 40
3.25
100
AcDbArc
 50
89.99996000000004
 51
270.0
  0
LINE
  5
5BE6
330
5A99
100
AcDbEntity
  8
10000_FRONT
  6
Continuous
 62
     7
370
    15
100
AcDbLine
 10
98.59256734429109
 20
368.686670758686
 30
0.0
 11
98.59256734429109
 21
367.4597907586861
 31
0.0
  0
LINE
  5
5BE7
330
5A99
100
AcDbEntity
  8
10000_FRONT
  6
Continuous
 62
     7
370
    15
100
AcDbLine
 10
98.59256734429109
 20
371.0135407586861
 30
0.0
 11
98.59256734429109
 21
369.786670758686
 31
0.0
  0
LINE
  5
5BE8
330
5A99
100
AcDbEntity
  8
10000_FRONT
  6
Continuous
 62
     7
370
    15
100
AcDbLine
 10
97.5625673442911
 20
367.4597907586861
 30
0.0
 11
97.5625673442911
 21
368.686670758686
 31
0.0
  0
LINE
  5
5BE9
330
5A99
100
AcDbEntity
  8
10000_FRONT
  6
Continuous
 62
     7
370
    15
100
AcDbLine
 10
97.5625673442911
 20
369.786670758686
 30
0.0
 11
97.5625673442911
 21
371.0135407586861
 31
0.0
  0
ARC
  5
5BEA
330
5A99
100
AcDbEntity
  8
10000_FRONT
  6
Continuous
 62
     7
370
    15
100
AcDbCircle
 10
98.07756734429109
 20
369.236670758686
 30
0.0
 40
1.85
100
AcDbArc
 50
253.8365500000002
 51
286.1634499999998
  0
ARC
  5
5BEB
330
5A99
100
AcDbEntity
  8
10000_FRONT
  6
Continuous
 62
     7
370
    15
100
AcDbCircle
 10
98.07756734429109
 20
369.236670758686
 30
0.0
 40
1.85
100
AcDbArc
 50
73.83655499999967
 51
106.1634499999998
  0
ARC
  5
5BEC
330
5A99
100
AcDbEntity
  8
10000_FRONT
  6
Continuous
 62
     7
370
    15
100
AcDbCircle
 10
98.07756734429109
 20
369.236670758686
 30
0.0
 40
2.8548252
100
AcDbArc
 50
168.8921600000005
 51
191.1078399999994
  0
ARC
  5
5BED
330
5A99
100
AcDbEntity
  8
10000_FRONT
  6
Continuous
 62
     7
370
    15
100
AcDbCircle
 10
98.07756734429109
 20
369.236670758686
 30
0.0
 40
2.8548252
100
AcDbArc
 50
348.8921600000006
 51
11.10783999999942
  0
LINE
  5
5BEE
330
5A99
100
AcDbEntity
  8
10000_FRONT
  6
Continuous
 62
     7
370
    15
100
AcDbLine
 10
95.27622334429109
 20
368.686670758686
 30
0.0
 11
97.5625673442911
 21
368.686670758686
 31
0.0
  0
LINE
  5
5BEF
330
5A99
100
AcDbEntity
  8
10000_FRONT
  6
Continuous
 62
     7
370
    15
100
AcDbLine
 10
97.5625673442911
 20
369.786670758686
 30
0.0
 11
95.27622334429109
 21
369.786670758686
 31
0.0
  0
LINE
  5
5BF0
330
5A99
100
AcDbEntity
  8
10000_FRONT
  6
Continuous
 62
     7
370
    15
100
AcDbLine
 10
100.8789113442911
 20
369.786670758686
 30
0.0
 11
98.59256734429109
 21
369.786670758686
 31
0.0
  0
LINE
  5
5BF1
330
5A99
100
AcDbEntity
  8
10000_FRONT
  6
Continuous
 62
     7
370
    15
100
AcDbLine
 10
98.59256734429109
 20
368.686670758686
 30
0.0
 11
100.8789113442911
 21
368.686670758686
 31
0.0
  0
ARC
  5
5BF2
330
5A99
100
AcDbEntity
  8
10000_FRONT
  6
Continuous
 62
     7
370
    15
100
AcDbCircle
 10
98.07756734429109
 20
369.236670758686
 30
0.0
 40
3.25
100
AcDbArc
 50
269.99996
 51
90.0
  0
ARC
  5
5BF3
330
5A99
100
AcDbEntity
  8
10000_FRONT
  6
Continuous
 62
     7
370
    15
100
AcDbCircle
 10
98.07756734429109
 20
369.236670758686
 30
0.0
 40
3.25
100
AcDbArc
 50
89.99996000000004
 51
270.0
  0
ARC
  5
5BF4
330
5A99
100
AcDbEntity
  8
10000_FRONT
  6
Continuous
 62
     7
370
    15
100
AcDbCircle
 10
103.2566563649411
 20
370.6939064331981
 30
0.0
 40
0.1798633162023247
100
AcDbArc
 50
185.3183343566193
 51
240.9498880480169
  0
LINE
  5
5FDB
330
5A99
100
AcDbEntity
  8
90000_FRAME
  6
Continuous
 62
     7
370
    13
100
AcDbLine
 10
46.48773192738258
 20
475.915293362425
 30
0.0
 11
316.4877319273826
 21
475.915293362425
 31
0.0
  0
LINE
  5
5FDC
330
5A99
100
AcDbEntity
  8
90000_FRAME
  6
Continuous
 62
     7
370
    13
100
AcDbLine
 10
316.4877319273826
 20
275.9152933624251
 30
0.0
 11
316.4877319273826
 21
475.915293362425
 31
0.0
  0
TEXT
  5
5FDD
330
5A99
100
AcDbEntity
  8
90000_FRAME
  6
Continuous
 62
     7
370
    13
100
AcDbText
 10
264.6477319273815
 20
287.8152933624251
 30
0.0
 40
2.2
  1
Massstab / Scale: 1:1
 41
0.6852497096407976
 72
     5
 11
295.5524938321815
 21
287.8152933624251
 31
0.0
100
AcDbText
  0
LINE
  5
5FDE
330
5A99
100
AcDbEntity
  8
90000_FRAME
  6
Continuous
 62
     7
370
    13
100
AcDbLine
 10
306.4877319273815
 20
285.9152933624251
 30
0.0
 11
306.4877319273815
 21
303.9152933624251
 31
0.0
  0
LINE
  5
5FDF
330
5A99
100
AcDbEntity
  8
90000_FRAME
  6
Continuous
 62
     7
370
    13
100
AcDbLine
 10
171.4877319273816
 20
303.9152933624251
 30
0.0
 11
306.4877319273815
 21
303.9152933624251
 31
0.0
  0
LINE
  5
5FE0
330
5A99
100
AcDbEntity
  8
90000_FRAME
  6
Continuous
 62
     7
370
    13
100
AcDbLine
 10
221.4877319273815
 20
291.9152933624251
 30
0.0
 11
306.4877319273815
 21
291.9152933624251
 31
0.0
  0
LINE
  5
5FE1
330
5A99
100
AcDbEntity
  8
90000_FRAME
  6
Continuous
 62
     7
370
    13
100
AcDbLine
 10
171.4877319273816
 20
285.9152933624251
 30
0.0
 11
306.4877319273815
 21
285.9152933624251
 31
0.0
  0
LINE
  5
5FE2
330
5A99
100
AcDbEntity
  8
90000_FRAME
  6
Continuous
 62
     7
370
    13
100
AcDbLine
 10
46.48773192738258
 20
275.9152933624251
 30
0.0
 11
46.48773192738258
 21
475.915293362425
 31
0.0
  0
CIRCLE
  5
5FE3
330
5A99
100
AcDbEntity
  8
91000_TIP
  6
Continuous
 62
     7
370
    13
100
AcDbCircle
 10
162.8024016944075
 20
294.7390309358957
 30
0.0
 40
2.499999948899997
  0
CIRCLE
  5
5FE4
330
5A99
100
AcDbEntity
  8
91000_TIP
  6
Continuous
 62
     7
370
    13
100
AcDbCircle
 10
162.8024016944075
 20
294.7390309358957
 30
0.0
 40
4.9999998979
  0
LINE
  5
5FE5
330
5A99
100
AcDbEntity
  8
91000_TIP
  6
CENTER
 62
     7
370
     9
100
AcDbLine
 10
162.8024016944075
 20
289.0175497294957
 30
0.0
 11
162.8024016944075
 21
300.3009357294956
 31
0.0
  0
LINE
  5
5FE6
330
5A99
100
AcDbEntity
  8
91000_TIP
  6
Continuous
 62
     7
370
    13
100
AcDbLine
 10
156.3024018272076
 20
299.7390308337957
 30
0.0
 11
156.3024018272076
 21
289.7390310379956
 31
0.0
  0
LINE
  5
5FE7
330
5A99
100
AcDbEntity
  8
91000_TIP
  6
Continuous
 62
     7
370
    13
100
AcDbLine
 10
146.3024020314076
 20
297.2390308847957
 30
0.0
 11
146.3024020314076
 21
292.2390309869957
 31
0.0
  0
LINE
  5
5FE8
330
5A99
100
AcDbEntity
  8
91000_TIP
  6
Continuous
 62
     7
370
    13
100
AcDbLine
 10
146.3024020314076
 20
292.2390309869957
 30
0.0
 11
156.3024018272076
 21
289.7390310379956
 31
0.0
  0
LINE
  5
5FE9
330
5A99
100
AcDbEntity
  8
91000_TIP
  6
CENTER
 62
     7
370
     9
100
AcDbLine
 10
145.0228915594066
 20
294.7390309358957
 30
0.0
 11
168.6248808235066
 21
294.7390309358957
 31
0.0
  0
LINE
  5
5FEA
330
5A99
100
AcDbEntity
  8
91000_TIP
  6
Continuous
 62
     7
370
    13
100
AcDbLine
 10
146.3024020314076
 20
297.2390308847957
 30
0.0
 11
156.3024018272076
 21
299.7390308337957
 31
0.0
  0
TEXT
  5
5FEB
330
5A99
100
AcDbEntity
  8
91000_TIP
  6
Continuous
 62
     7
370
    13
100
AcDbText
 10
50.54108171004646
 20
279.3975299841017
 30
0.0
 40
2.5
  1
All dimensions are in millimeters (mm).
 41
0.6327031827941271
 72
     5
 11
110.6478840754885
 21
279.3975299841017
 31
0.0
100
AcDbText
  0
TEXT
  5
5FEC
330
5A99
100
AcDbEntity
  8
91000_TIP
  6
Continuous
 62
     7
370
    13
100
AcDbText
 10
50.54108171004646
 20
284.6475299841017
 30
0.0
 40
2.5
  1
Alle Bemassungswerte sind in Millimeter (mm) angegeben.
 41
0.5458157023561646
 72
     5
 11
124.2262015281287
 21
284.6475299841017
 31
0.0
100
AcDbText
  0
LINE
  5
5FED
330
5A99
100
AcDbEntity
  8
90000_FRAME
  6
Continuous
 62
     7
370
    13
100
AcDbLine
 10
46.48773192738258
 20
275.9152933624251
 30
0.0
 11
316.4877319273826
 21
275.9152933624251
 31
0.0
  0
TEXT
  5
5FEE
330
5A99
100
AcDbEntity
  8
90000_FRAME
  6
Continuous
 62
     7
370
    13
100
AcDbText
 10
234.7835551036957
 20
293.6672207684011
 30
0.0
 40
3.5
  1
Hilfsschalterblock, 1S+1Ö
 41
0.6476313523457503
 72
     5
 11
290.6957285228788
 21
293.6672207684011
 31
0.0
100
AcDbText
  0
TEXT
  5
5FEF
330
5A99
100
AcDbEntity
  8
90000_FRAME
  6
Continuous
 62
     7
370
    13
100
AcDbText
 10
222.1477319273815
 20
287.8152933624251
 30
0.0
 40
2.2
  1
Format / Size: DIN A4
 41
0.7350230414736054
 72
     5
 11
255.5667795463814
 21
287.8152933624251
 31
0.0
100
AcDbText
  0
LINE
  5
5FF0
330
5A99
100
AcDbEntity
  8
90000_FRAME
  6
Continuous
 62
     7
370
    13
100
AcDbLine
 10
263.9877319273817
 20
285.9152933624251
 30
0.0
 11
263.9877319273817
 21
291.9152933624251
 31
0.0
  0
LINE
  5
5FF1
330
5A99
100
AcDbEntity
  8
90000_FRAME
  6
Continuous
 62
     7
370
    13
100
AcDbLine
 10
221.4877319273815
 20
285.9152933624251
 30
0.0
 11
221.4877319273815
 21
303.9152933624251
 31
0.0
  0
LINE
  5
5FF2
330
5A99
100
AcDbEntity
  8
90000_FRAME
  6
Continuous
 62
     7
370
    13
100
AcDbLine
 10
171.4877319273816
 20
285.9152933624251
 30
0.0
 11
171.4877319273816
 21
303.9152933624251
 31
0.0
  0
INSERT
  5
5FF3
330
5A99
100
AcDbEntity
  8
90000_FRAME
  6
Continuous
 62
     7
370
    13
100
AcDbBlockReference
  2
SIEMENS_OUTLINE_BL0
 10
104.1336293113027
 20
275.5770341348218
 30
0.0
  0
DIMENSION
  5
63B5
102
{ACAD_XDICTIONARY
360
63C2
102
}
102
{ACAD_REACTORS
330
63CC
102
}
330
5A99
100
AcDbEntity
  8
10100_FRONT_DIM
  6
Continuous
 62
     7
370
    13
100
AcDbDimension
  2
*D81
 10
103.077567344291
 20
347.3499292943442
 30
0.0
 11
98.07756734429109
 21
347.3499292943442
 31
0.0
 70
    32
 71
     5
 42
10.0
  3
DSTYLE2
100
AcDbAlignedDimension
 13
93.07756734429109
 23
358.636670758686
 33
0.0
 14
103.077567344291
 24
358.636670758686
 34
0.0
100
AcDbRotatedDimension
  0
DIMENSION
  5
63CD
102
{ACAD_XDICTIONARY
360
63DB
102
}
102
{ACAD_REACTORS
330
63E6
102
}
330
5A99
100
AcDbEntity
  8
10100_FRONT_DIM
  6
Continuous
 62
     7
370
    15
100
AcDbDimension
  2
*D82
 10
135.9013089255842
 20
369.236670758686
 30
0.0
 11
135.9013089255841
 21
398.236670758686
 31
0.0
 70
    32
 71
     5
 42
58.0
  3
DSTYLE2
100
AcDbAlignedDimension
 13
98.07756734429109
 23
427.236670758686
 33
0.0
 14
98.07756734429109
 24
369.236670758686
 34
0.0
 50
90.0
100
AcDbRotatedDimension
  0
DIMENSION
  5
63F1
102
{ACAD_XDICTIONARY
360
63FF
102
}
102
{ACAD_REACTORS
330
640A
102
}
330
5A99
100
AcDbEntity
  8
10100_FRONT_DIM
  6
Continuous
 62
     7
370
    13
100
AcDbDimension
  2
*D83
 10
125.8736975538489
 20
413.236670758686
 30
0.0
 11
125.8736975538489
 21
398.236670758686
 31
0.0
 70
    32
 71
     5
 42
30.0
  3
DSTYLE2
100
AcDbAlignedDimension
 13
98.07756734429109
 23
383.236670758686
 33
0.0
 14
98.07756734429109
 24
413.236670758686
 34
0.0
 50
90.0
100
AcDbRotatedDimension
  0
DIMENSION
  5
640B
102
{ACAD_XDICTIONARY
360
6418
102
}
102
{ACAD_REACTORS
330
6422
102
}
330
5A99
100
AcDbEntity
  8
10100_FRONT_DIM
  6
Continuous
 62
     7
370
    13
100
AcDbDimension
  2
*D84
 10
105.5775673442911
 20
336.6776691430759
 30
0.0
 11
116.9109006776244
 21
336.6776691430759
 31
0.0
 70
    32
 71
     5
 42
12.5
  3
DSTYLE2
100
AcDbAlignedDimension
 13
93.07756734429109
 23
358.636670758686
 33
0.0
 14
105.5775673442911
 24
367.036670758686
 34
0.0
100
AcDbRotatedDimension
1001
ACAD
1000
DSTYLE
1002
{
1070
   271
1070
     1
1002
}
  0
DIMENSION
  5
6423
330
5A99
100
AcDbEntity
  8
10100_FRONT_DIM
  6
Continuous
 62
     7
370
    13
100
AcDbDimension
  2
*D85
 10
111.3275673442911
 20
325.0928464647716
 30
0.0
 11
102.2025673442911
 21
325.0928464647716
 31
0.0
 70
    32
 71
     5
 42
18.25000000000001
  3
DSTYLE2
100
AcDbAlignedDimension
 13
93.07756734429109
 23
358.574170758686
 33
0.0
 14
111.3275673442911
 24
367.036670758686
 34
0.0
100
AcDbRotatedDimension
  0
DIMENSION
  5
643D
102
{ACAD_XDICTIONARY
360
644B
102
}
102
{ACAD_REACTORS
330
6456
102
}
330
5A99
100
AcDbEntity
  8
11100_LEFT_DIM
  6
Continuous
 62
     7
370
    13
100
AcDbDimension
  2
*D86
 10
266.0663036066415
 20
336.6776691430759
 30
0.0
 11
230.7590703342385
 21
336.6776691430759
 31
0.0
 70
    32
 71
     5
 42
70.61446654480608
  3
H035
100
AcDbAlignedDimension
 13
195.4518370618354
 23
367.4571314202351
 33
0.0
 14
266.0663036066415
 24
372.4179104467019
 34
0.0
100
AcDbRotatedDimension
1001
ACAD
1000
DSTYLE
1002
{
1070
    40
1040
1.0
1070
   147
1040
1.5
1070
   279
1070
     1
1070
   288
1070
     1
1002
}
  0
DIMENSION
  5
6457
102
{ACAD_XDICTIONARY
360
6465
102
}
102
{ACAD_REACTORS
330
6470
102
}
330
5A99
100
AcDbEntity
  8
11100_LEFT_DIM
  6
Continuous
 62
     7
370
    13
100
AcDbDimension
  2
*D87
 10
279.9975007918513
 20
358.457131420235
 30
0.0
 11
279.9975007918513
 21
398.4571314202351
 31
0.0
 70
    32
 71
     5
 42
80.0
  3
H035
100
AcDbAlignedDimension
 13
223.9018370618354
 23
438.457131420235
 33
0.0
 14
266.0663036066415
 24
358.457131420235
 34
0.0
 50
90.0
100
AcDbRotatedDimension
1001
ACAD
1000
DSTYLE
1002
{
1070
    40
1040
1.0
1070
   147
1040
1.5
1070
   279
1070
     1
1070
   288
1070
     1
1002
}
  0
DIMENSION
  5
6471
102
{ACAD_XDICTIONARY
360
647F
102
}
102
{ACAD_REACTORS
330
648A
102
}
330
5A99
100
AcDbEntity
  8
11100_LEFT_DIM
  6
Continuous
 62
     7
370
    13
100
AcDbDimension
  2
*D88
 10
239.6518370618355
 20
347.3499292943442
 30
0.0
 11
252.9017361305544
 21
347.3499292943442
 31
0.0
 70
    32
 71
     5
 42
26.49979813743787
  3
H035
100
AcDbAlignedDimension
 13
266.1516351992733
 23
371.0549424201011
 33
0.0
 14
239.6518370618355
 24
366.6571314202351
 34
0.0
100
AcDbRotatedDimension
1001
ACAD
1000
DSTYLE
1002
{
1070
    40
1040
1.0
1070
   147
1040
1.5
1070
   279
1070
     1
1070
   288
1070
     1
1002
}
  0
DIMENSION
  5
6503
102
{ACAD_XDICTIONARY
360
6511
102
}
102
{ACAD_REACTORS
330
651C
102
}
330
5A99
100
AcDbEntity
  8
10100_FRONT_DIM
  6
Continuous
 62
     7
370
    13
100
AcDbDimension
  2
*D89
 10
145.6061739804107
 20
367.0366707586859
 30
0.0
 11
145.6061739804106
 21
398.236670758686
 31
0.0
 70
    32
 71
     5
 42
62.40000000000003
  3
DSTYLE2
100
AcDbAlignedDimension
 13
105.5775673442911
 23
429.436670758686
 33
0.0
 14
105.5775673442911
 24
367.036670758686
 34
0.0
 50
90.0
100
AcDbRotatedDimension
  0
TEXT
  5
6A2E
330
5A99
100
AcDbEntity
  8
90000_FRAME
  6
Continuous
 62
     7
370
    13
100
AcDbText
 10
234.8054432203789
 20
299.0797107570577
 30
0.0
 40
3.5
  1
3RH1921_00001985_000_ALL
 41
0.6749960573744433
 72
     5
 11
290.7176166395619
 21
299.0797107570577
 31
0.0
100
AcDbText
  0
ENDSEC
  0
SECTION
  2
OBJECTS
  0
DICTIONARY
  5
5A6F
330
0
100
AcDbDictionary
281
     1
  3
ACAD_BACKGROUND
350
6932
  3
ACAD_COLOR
350
5A92
  3
ACAD_GROUP
350
5A70
  3
ACAD_LAYOUT
350
5A91
  3
ACAD_MATERIAL
350
5A73
  3
ACAD_MLINESTYLE
350
5A8E
  3
ACAD_PLOTSETTINGS
350
5A90
  3
ACAD_PLOTSTYLENAME
350
5A71
  3
ACAD_TABLESTYLE
350
5A93
  3
ACAD_VISUALSTYLE
350
5A77
  3
AcDbVariableDictionary
350
5BC4
  3
DWGPROPS
350
6AA0
  0
DICTIONARY
  5
5BD5
330
5A99
100
AcDbDictionary
280
     1
281
     1
  3
ACAD_SORTENTS
360
5BD6
  0
DICTIONARY
  5
63C2
330
63B5
100
AcDbDictionary
280
     1
281
     1
  3
ACAD_DIMASSOC
360
63CC
  0
DICTIONARY
  5
63DB
330
63CD
100
AcDbDictionary
280
     1
281
     1
  3
ACAD_DIMASSOC
360
63E6
  0
DICTIONARY
  5
63FF
330
63F1
100
AcDbDictionary
280
     1
281
     1
  3
ACAD_DIMASSOC
360
640A
  0
DICTIONARY
  5
6418
330
640B
100
AcDbDictionary
280
     1
281
     1
  3
ACAD_DIMASSOC
360
6422
  0
DICTIONARY
  5
644B
330
643D
100
AcDbDictionary
280
     1
281
     1
  3
ACAD_DIMASSOC
360
6456
  0
DICTIONARY
  5
6465
330
6457
100
AcDbDictionary
280
     1
281
     1
  3
ACAD_DIMASSOC
360
6470
  0
DICTIONARY
  5
647F
330
6471
100
AcDbDictionary
280
     1
281
     1
  3
ACAD_DIMASSOC
360
648A
  0
DICTIONARY
  5
6511
330
6503
100
AcDbDictionary
280
     1
281
     1
  3
ACAD_DIMASSOC
360
651C
  0
DICTIONARY
  5
6932
102
{ACAD_REACTORS
330
5A6F
102
}
330
5A6F
100
AcDbDictionary
281
     1
  0
DICTIONARY
  5
5A92
102
{ACAD_REACTORS
330
5A6F
102
}
330
5A6F
100
AcDbDictionary
281
     1
  0
DICTIONARY
  5
5A70
102
{ACAD_REACTORS
330
5A6F
102
}
330
5A6F
100
AcDbDictionary
281
     1
  0
DICTIONARY
  5
5A91
102
{ACAD_REACTORS
330
5A6F
102
}
330
5A6F
100
AcDbDictionary
281
     1
  3
Layout1
350
5A98
  3
Model
350
5A9C
  0
DICTIONARY
  5
5A73
102
{ACAD_REACTORS
330
5A6F
102
}
330
5A6F
100
AcDbDictionary
281
     1
  3
ByBlock
350
5A75
  3
ByLayer
350
5A74
  3
Global
350
5A76
  0
DICTIONARY
  5
5A8E
102
{ACAD_REACTORS
330
5A6F
102
}
330
5A6F
100
AcDbDictionary
281
     1
  3
Standard
350
5A8F
  0
DICTIONARY
  5
5A90
102
{ACAD_REACTORS
330
5A6F
102
}
330
5A6F
100
AcDbDictionary
281
     1
  0
ACDBDICTIONARYWDFLT
  5
5A71
102
{ACAD_REACTORS
330
5A6F
102
}
330
5A6F
100
AcDbDictionary
281
     1
  3
Normal
350
5A72
100
AcDbDictionaryWithDefault
340
5A72
  0
DICTIONARY
  5
5A93
102
{ACAD_REACTORS
330
5A6F
102
}
330
5A6F
100
AcDbDictionary
281
     1
  3
Standard
350
5A94
  0
DICTIONARY
  5
5A77
102
{ACAD_REACTORS
330
5A6F
102
}
330
5A6F
100
AcDbDictionary
281
     1
  3
2dWireframe
350
5A7D
  3
Basic
350
5A7C
  3
Brighten
350
5A83
  3
ColorChange
350
5A87
  3
Dim
350
5A82
  3
Facepattern
350
5A86
  3
Flat
350
5A78
  3
FlatWithEdges
350
5A79
  3
Gouraud
350
5A7A
  3
GouraudWithEdges
350
5A7B
  3
Linepattern
350
5A85
  3
Thicken
350
5A84
  0
DICTIONARY
  5
5BC4
102
{ACAD_REACTORS
330
5A6F
102
}
330
5A6F
100
AcDbDictionary
281
     1
  3
CTABLESTYLE
350
5BC5
  3
DIMASSOC
350
6A7E
  3
HIDETEXT
350
6A7D
  3
INDEXCTL
350
6A7C
  3
SORTENTS
350
6A7B
  0
XRECORD
  5
6AA0
102
{ACAD_REACTORS
330
5A6F
102
}
330
5A6F
100
AcDbXrecord
280
     1
  1
DWGPROPS COOKIE
  2

  3

  4

  6

  7

  8
adgsan0
  9

300
=
301
=
302
=
303
=
304
=
305
=
306
=
307
=
308
=
309
=
 40
0.0817410416666667
 41
2444975.041666666
 42
2454088.650027639
  1

 90
        0
  0
SORTENTSTABLE
  5
5BD6
102
{ACAD_REACTORS
330
5BD5
102
}
330
5BD5
100
AcDbSortentsTable
330
5A99
331
14C9
  5
14D5
331
5BD3
  5
5BE8
331
14E3
  5
14F5
331
1505
  5
1526
331
5BEB
  5
5FE3
331
5FEC
  5
65AA
331
DC8
  5
DDF
331
C95
  5
CAA
331
14B8
  5
14C4
331
14DA
  5
14EB
331
1496
  5
149F
331
B0D
  5
B0D
331
5BE4
  5
5FDC
331
14F4
  5
1508
331
14A7
  5
14B7
331
1485
  5
148C
331
CC8
  5
D3D
331
B1E
  5
B1E
331
B04
  5
B04
331
AF3
  5
AF3
331
5BD1
  5
5BE6
331
14E1
  5
14F3
331
5BE9
  5
5FE1
331
5FEA
  5
6503
331
15FA
  5
5BD0
331
DC6
  5
DDD
331
14B6
  5
14C2
331
5BE2
  5
5BF4
331
14F2
  5
1506
331
1514
  5
5BCB
331
1494
  5
149D
331
1483
  5
148A
331
CC6
  5
CD2
331
14A5
  5
14B5
331
14C7
  5
14D3
331
B9C
  5
BDD
331
AF1
  5
AF1
331
1501
  5
1513
331
C91
  5
C98
331
5FE8
  5
6457
331
DC4
  5
DDB
331
CB3
  5
CBC
331
14B4
  5
14C0
331
14D6
  5
14E9
331
5BE0
  5
5BF2
331
14F0
  5
1505
331
1492
  5
149A
331
1512
  5
5BC9
331
CC4
  5
CD0
331
B1A
  5
B1A
331
5FDF
  5
5FF1
331
14A3
  5
14B3
331
14C5
  5
14D1
331
1481
  5
1488
331
BDE
  5
C66
331
5BCF
  5
5BE4
331
AEF
  5
AEF
331
2ED
  5
2ED
331
5FE6
  5
6423
331
DDC
  5
E32
331
DC2
  5
DC8
331
14D4
  5
14E7
331
1490
  5
1497
331
B29
  5
B29
331
5BDE
  5
5BF0
331
14EE
  5
1502
331
D8F
  5
DC2
331
1510
  5
5BC7
331
63B5
  5
65B2
331
5FDD
  5
5FEF
331
14A1
  5
14AE
331
147F
  5
1486
331
14C3
  5
14CF
331
E31
  5
147B
331
B3A
  5
B9B
331
B18
  5
B18
331
AFE
  5
AFE
331
6457
  5
65B8
331
5BCD
  5
5BE2
331
14FF
  5
1511
331
C8F
  5
C90
331
AED
  5
AED
331
5FE4
  5
63F1
331
139B
  5
147E
331
DDA
  5
DF3
331
14B0
  5
14BE
331
14D2
  5
14E5
331
5BDC
  5
5BEE
331
14EC
  5
1500
331
148E
  5
1495
331
D8D
  5
DBE
331
150E
  5
16D1
331
CC0
  5
CC8
331
B38
  5
B3A
331
B16
  5
B16
331
5FDB
  5
5FED
331
5BF4
  5
5FEC
331
1627
  5
5BD2
331
147D
  5
1484
331
149F
  5
14A9
331
14C1
  5
14CD
331
5BCB
  5
5BE0
331
14FD
  5
150F
331
D40
  5
D4B
331
C8D
  5
C8E
331
2E9
  5
2E9
331
5FE2
  5
63B5
331
14AE
  5
14BD
331
14D0
  5
14DE
331
148C
  5
1493
331
5BDA
  5
5BEC
331
14EA
  5
14FE
331
D8B
  5
DBC
331
150C
  5
16CF
331
B14
  5
B14
331
AFA
  5
AFA
331
409
  5
409
331
16D0
  5
5BD7
331
5BF2
  5
5FEA
331
5FF3
  5
65B1
331
149D
  5
14A7
331
147B
  5
1482
331
14BF
  5
14CB
331
5BC9
  5
5BDE
331
D3E
  5
D47
331
DBE
  5
DC5
331
CAD
  5
CB8
331
C8B
  5
C8C
331
489
  5
489
331
2E7
  5
2E7
331
5FE0
  5
5FF2
331
14AC
  5
14BB
331
14CE
  5
14DC
331
148A
  5
1491
331
5BD8
  5
5BEA
331
14E8
  5
14FA
331
150A
  5
1627
331
CBC
  5
CC5
331
B34
  5
B38
331
C67
  5
C8B
331
B12
  5
B12
331
AF8
  5
AF8
331
5BF0
  5
5FE8
331
5FF1
  5
65AF
331
1479
  5
1480
331
14BD
  5
14C9
331
5BC7
  5
5BDC
331
14F9
  5
150D
331
14DF
  5
14F0
331
D3C
  5
D41
331
DBC
  5
DC3
331
CAB
  5
CB3
331
487
  5
487
331
14AA
  5
14B9
331
1488
  5
148F
331
14CC
  5
14DA
331
14E6
  5
14F8
331
1508
  5
15FA
331
5BEE
  5
5FE6
331
5FEF
  5
65AD
331
63F1
  5
65B4
331
C98
  5
CAC
331
14BB
  5
14C7
331
14DD
  5
14EE
331
5BE7
  5
5FDF
331
14F7
  5
150B
331
1499
  5
14A1
331
B10
  5
B10
331
6471
  5
65B9
331
B21
  5
B21
331
AF6
  5
AF6
331
2F4
  5
2F4
331
14A8
  5
14B8
331
14CA
  5
14D6
331
14E4
  5
14F6
331
1506
  5
1553
331
5BD4
  5
139B
331
5BEC
  5
5FE4
331
63CD
  5
65B3
331
5FED
  5
65AB
331
C96
  5
CAB
331
14B9
  5
14C5
331
5BC3
  5
5BDA
331
14DB
  5
14EC
331
1497
  5
14A0
331
5BE5
  5
5FDD
331
14F5
  5
1509
331
1486
  5
148D
331
B1F
  5
B1F
331
B05
  5
B05
331
14C8
  5
14D4
331
5BD2
  5
5BE7
331
14E2
  5
14F4
331
1504
  5
1518
331
1526
  5
5BCD
331
5BEA
  5
5FE2
331
5FEB
  5
65A9
331
C94
  5
CA8
331
14B7
  5
14C3
331
14D9
  5
14EA
331
1495
  5
149E
331
5BE3
  5
5FDB
331
14F3
  5
1507
331
14A6
  5
14B6
331
1484
  5
148B
331
DF2
  5
1479
331
CC7
  5
D3C
331
D47
  5
D8C
331
B1D
  5
B1D
331
B03
  5
B03
331
AF2
  5
AF2
331
5BD0
  5
5BE5
331
14E0
  5
14F2
331
1502
  5
1514
331
5BE8
  5
5FE0
331
5FE9
  5
6471
331
5BBB
  5
5BD9
331
DDF
  5
1478
331
DC5
  5
DDC
331
CB4
  5
CBD
331
C92
  5
C99
331
14B5
  5
14C1
331
1493
  5
149C
331
5BE1
  5
5BF3
331
1513
  5
5BCA
331
1482
  5
1489
331
CC5
  5
CD1
331
14A4
  5
14B4
331
14C6
  5
14D2
331
B9B
  5
B9C
331
B1B
  5
B1B
331
B01
  5
B01
331
1500
  5
1512
331
C90
  5
C96
331
5FE7
  5
643D
331
DDD
  5
E56
331
DC3
  5
DD2
331
CB2
  5
CBA
331
640B
  5
65B5
331
14B3
  5
14BF
331
14D5
  5
14E8
331
1491
  5
1499
331
B08
  5
B08
331
5BDF
  5
5BF1
331
14EF
  5
1504
331
1511
  5
5BC8
331
5FDE
  5
5FF0
331
14A2
  5
14B0
331
1480
  5
1487
331
14C4
  5
14D0
331
D43
  5
D8B
331
BDD
  5
BDE
331
AFF
  5
AFF
331
5BCE
  5
5BE3
331
AEE
  5
AEE
331
5FE5
  5
640B
331
DDB
  5
E00
331
6423
  5
65B6
331
14D3
  5
14E6
331
148F
  5
1496
331
5BDD
  5
5BEF
331
14ED
  5
1501
331
D8E
  5
DC1
331
150F
  5
5BC6
331
5FDC
  5
5FEE
331
1553
  5
5BCE
331
DD2
  5
DE0
331
14A0
  5
14AD
331
147E
  5
1485
331
14C2
  5
14CE
331
5BCC
  5
5BE1
331
14FE
  5
1510
331
D41
  5
D4C
331
C8E
  5
C8F
331
B17
  5
B17
331
AFD
  5
AFD
331
5FE3
  5
63CD
331
139A
  5
147D
331
15C0
  5
5BCF
331
14D1
  5
14DF
331
148D
  5
1494
331
5BDB
  5
5BED
331
14EB
  5
14FF
331
D8C
  5
DBD
331
150D
  5
16D0
331
16D1
  5
5BD8
331
CBF
  5
CC7
331
B15
  5
B15
331
AFB
  5
AFB
331
5BF3
  5
5FEB
331
1626
  5
5BD1
331
147C
  5
1483
331
149E
  5
14A8
331
14C0
  5
14CC
331
5BCA
  5
5BDF
331
D3F
  5
D4A
331
CAE
  5
CB9
331
C8C
  5
C8D
331
48A
  5
48A
331
5FE1
  5
5FF3
331
14AD
  5
14BC
331
14CF
  5
14DD
331
148B
  5
1492
331
5BD9
  5
5BEB
331
14E9
  5
14FD
331
150B
  5
16CD
331
16CF
  5
5BD4
331
CBD
  5
CC6
331
B13
  5
B13
331
AF9
  5
AF9
331
5BF1
  5
5FE9
331
5FF2
  5
65B0
331
149C
  5
14A6
331
147A
  5
1481
331
14BE
  5
14CA
331
5BC8
  5
5BDD
331
14FA
  5
150E
331
D3D
  5
D43
331
DBD
  5
DC4
331
CAC
  5
CB4
331
488
  5
488
331
2F7
  5
2F7
331
14AB
  5
14BA
331
1489
  5
1490
331
14CD
  5
14DB
331
5BD7
  5
5BE9
331
14E7
  5
14F9
331
1509
  5
1626
331
C99
  5
CAD
331
16CD
  5
5BD3
331
5BEF
  5
5FE7
331
5FF0
  5
65AE
331
6503
  5
65BA
331
14BC
  5
14C8
331
5BC6
  5
5BDB
331
14F8
  5
150C
331
14DE
  5
14EF
331
149A
  5
14A5
331
1478
  5
147F
331
CAA
  5
CB2
331
B33
  5
B34
331
643D
  5
65B7
331
14CB
  5
14D9
331
14E5
  5
14F7
331
1507
  5
15C0
331
5BED
  5
5FE5
331
5FEE
  5
65AC
331
14BA
  5
14C6
331
14DC
  5
14ED
331
5BE6
  5
5FDE
331
14F6
  5
150A
331
CB9
  5
CC0
331
1518
  5
5BCC
331
CA8
  5
CAE
331
B20
  5
B20
331
448
  5
448
331
1487
  5
148E
331
2F3
  5
2F3
  0
DIMASSOC
  5
63CC
102
{ACAD_REACTORS
330
63C2
102
}
330
63C2
100
AcDbDimAssoc
330
63B5
 90
        3
 70
     0
 71
     0
  1
AcDbOsnapPointRef
 72
    13
331
DDA
 73
     2
 91
        0
 40
3.141592653589793
 10
0.0
 20
0.0
 30
2.000000000000000E+50
 75
     0
  1
AcDbOsnapPointRef
 72
     1
331
B33
 73
     2
 91
        0
 40
6.283185307179586
 10
0.0
 20
0.0
 30
2.000000000000000E+50
 75
     0
  0
DIMASSOC
  5
63E6
102
{ACAD_REACTORS
330
63DB
102
}
330
63DB
100
AcDbDimAssoc
330
63CD
 90
        1
 70
     0
 71
     0
  1
AcDbOsnapPointRef
 72
     3
331
B1B
 73
     2
 91
        0
 40
4.712388282252988
 10
0.0
 20
0.0
 30
0.0
 75
     0
  0
DIMASSOC
  5
640A
102
{ACAD_REACTORS
330
63FF
102
}
330
63FF
100
AcDbDimAssoc
330
63F1
 90
        3
 70
     0
 71
     0
  1
AcDbOsnapPointRef
 72
     3
331
AF9
 73
     2
 91
        0
 40
4.712388282252988
 10
0.0
 20
0.0
 30
0.0
 75
     0
  1
AcDbOsnapPointRef
 72
     3
331
AF8
 73
     2
 91
        0
 40
4.712388282252988
 10
0.0
 20
0.0
 30
0.0
 75
     0
  0
DIMASSOC
  5
6422
102
{ACAD_REACTORS
330
6418
102
}
330
6418
100
AcDbDimAssoc
330
640B
 90
        3
 70
     0
 71
     0
  1
AcDbOsnapPointRef
 72
    13
331
DDA
 73
     2
 91
        0
 40
3.141592653589793
 10
0.0
 20
0.0
 30
2.000000000000000E+50
 75
     0
  1
AcDbOsnapPointRef
 72
    13
331
B9B
 73
     2
 91
        0
 40
0.0
 10
0.0
 20
0.0
 30
2.000000000000000E+50
 75
     0
  0
DIMASSOC
  5
6456
102
{ACAD_REACTORS
330
644B
102
}
330
644B
100
AcDbDimAssoc
330
643D
 90
        3
 70
     0
 71
     0
  1
AcDbOsnapPointRef
 72
    13
331
14D2
 73
     2
 91
        0
 40
3.141592653589793
 10
0.0
 20
0.0
 30
2.000000000000000E+50
 75
     0
  1
AcDbOsnapPointRef
 72
    13
331
149F
 73
     2
 91
        0
 40
6.257025439686069
 10
0.0
 20
0.0
 30
2.000000000000000E+50
 75
     0
  0
DIMASSOC
  5
6470
102
{ACAD_REACTORS
330
6465
102
}
330
6465
100
AcDbDimAssoc
330
6457
 90
        1
 70
     0
 71
     0
  1
AcDbOsnapPointRef
 72
     1
331
150F
 73
     2
 91
        0
 40
1.0
 10
0.0
 20
0.0
 30
2.000000000000000E+50
 75
     0
  0
DIMASSOC
  5
648A
102
{ACAD_REACTORS
330
647F
102
}
330
647F
100
AcDbDimAssoc
330
6471
 90
        2
 70
     0
 71
     0
  1
AcDbOsnapPointRef
 72
     1
331
14F7
 73
     2
 91
        0
 40
6.283185307179586
 10
0.0
 20
0.0
 30
2.000000000000000E+50
 75
     0
  0
DIMASSOC
  5
651C
102
{ACAD_REACTORS
330
6511
102
}
330
6511
100
AcDbDimAssoc
330
6503
 90
        3
 70
     0
 71
     0
  1
AcDbOsnapPointRef
 72
     1
331
BDE
 73
     2
 91
        0
 40
1.0
 10
0.0
 20
0.0
 30
2.000000000000000E+50
 75
     0
  1
AcDbOsnapPointRef
 72
    13
331
B9B
 73
     2
 91
        0
 40
0.0
 10
0.0
 20
0.0
 30
2.000000000000000E+50
 75
     0
  0
LAYOUT
  5
5A98
102
{ACAD_XDICTIONARY
360
6AA9
102
}
102
{ACAD_REACTORS
330
5A91
102
}
330
5A91
100
AcDbPlotSettings
  1

  2
Microsoft Office Document Image Writer
  4

  6

 40
0.0
 41
0.0
 42
0.0
 43
0.0
 44
0.0
 45
0.0
 46
0.0
 47
0.0
 48
0.0
 49
0.0
140
0.0
141
0.0
142
1.0
143
1.0
 70
   688
 72
     0
 73
     0
 74
     5
  7

 75
    16
147
1.0
148
0.0
149
0.0
100
AcDbLayout
  1
Layout1
 70
     0
 71
     1
 10
0.0
 20
0.0
 11
420.0
 21
297.0
 12
0.0
 22
0.0
 32
0.0
 14
0.0
 24
0.0
 34
0.0
 15
420.0
 25
297.0
 35
0.0
146
0.0
 13
0.0
 23
0.0
 33
0.0
 16
1.0
 26
0.0
 36
0.0
 17
0.0
 27
1.0
 37
0.0
 76
     0
330
5A95
  0
LAYOUT
  5
5A9C
102
{ACAD_XDICTIONARY
360
6AAB
102
}
102
{ACAD_REACTORS
330
5A91
102
}
330
5A91
100
AcDbPlotSettings
  1

  2
Microsoft Office Document Image Writer
  4
A4
  6

 40
3.174999952316284
 41
3.174999952316284
 42
3.17498779296875
 43
3.175003051757812
 44
297.0106506347656
 45
209.9733276367187
 46
0.0
 47
0.0
 48
0.0
 49
0.0
140
0.0
141
0.0
142
1.0
143
30.20661237286677
 70
 11952
 72
     0
 73
     0
 74
     0
  7

 75
     0
147
0.0331053342776781
148
2598.587291850755
149
5871.08122969973
100
AcDbLayout
  1
Model
 70
     1
 71
     0
 10
0.0
 20
0.0
 11
12.0
 21
9.0
 12
0.0
 22
0.0
 32
0.0
 14
0.0
 24
0.0
 34
0.0
 15
0.0
 25
0.0
 35
0.0
146
0.0
 13
0.0
 23
0.0
 33
0.0
 16
1.0
 26
0.0
 36
0.0
 17
0.0
 27
1.0
 37
0.0
 76
     0
330
5A99
331
5ADC
1001
ACAD_PSEXT
1000
Microsoft Office Document Image Writer
1000
Microsoft Office Document Image Writer Driver
1000
Microsoft Document Imaging Writer Port:
1000

1070
     0
  0
MATERIAL
  5
5A75
102
{ACAD_XDICTIONARY
360
6AA3
102
}
102
{ACAD_REACTORS
330
5A73
102
}
330
5A73
100
AcDbMaterial
  1
ByBlock
  0
MATERIAL
  5
5A74
102
{ACAD_XDICTIONARY
360
6AA1
102
}
102
{ACAD_REACTORS
330
5A73
102
}
330
5A73
100
AcDbMaterial
  1
ByLayer
  0
MATERIAL
  5
5A76
102
{ACAD_XDICTIONARY
360
6AA5
102
}
102
{ACAD_REACTORS
330
5A73
102
}
330
5A73
100
AcDbMaterial
  1
Global
  0
MLINESTYLE
  5
5A8F
102
{ACAD_REACTORS
330
5A8E
102
}
330
5A8E
100
AcDbMlineStyle
  2
STANDARD
 70
     0
  3

 62
   256
 51
90.0
 52
90.0
 71
     2
 49
0.5
 62
   256
  6
BYLAYER
 49
-0.5
 62
   256
  6
BYLAYER
  0
ACDBPLACEHOLDER
  5
5A72
102
{ACAD_REACTORS
330
5A71
102
}
330
5A71
  0
TABLESTYLE
  5
5A94
102
{ACAD_XDICTIONARY
360
6AA7
102
}
102
{ACAD_REACTORS
330
5A93
102
}
330
5A93
100
AcDbTableStyle
  3
Standard
 70
     0
 71
     0
 40
0.06
 41
0.06
280
     0
281
     0
  7
STANDARD
140
0.18
170
     2
 62
     0
 63
     7
283
     0
274
    -2
284
     1
 64
     0
275
    -2
285
     1
 65
     0
276
    -2
286
     1
 66
     0
277
    -2
287
     1
 67
     0
278
    -2
288
     1
 68
     0
279
    -2
289
     1
 69
     0
  7
STANDARD
140
0.25
170
     5
 62
     0
 63
     7
283
     0
274
    -2
284
     1
 64
     0
275
    -2
285
     1
 65
     0
276
    -2
286
     1
 66
     0
277
    -2
287
     1
 67
     0
278
    -2
288
     1
 68
     0
279
    -2
289
     1
 69
     0
  7
STANDARD
140
0.18
170
     5
 62
     0
 63
     7
283
     0
274
    -2
284
     1
 64
     0
275
    -2
285
     1
 65
     0
276
    -2
286
     1
 66
     0
277
    -2
287
     1
 67
     0
278
    -2
288
     1
 68
     0
279
    -2
289
     1
 69
     0
  0
VISUALSTYLE
  5
5A7D
102
{ACAD_REACTORS
330
5A77
102
}
330
5A77
100
AcDbVisualStyle
  2
2dWireframe
 70
     4
 71
     0
 72
     2
 73
     0
 90
        0
 40
-0.6
 41
-30.0
 62
     5
 63
     7
 74
     1
 91
        4
 64
     7
 65
   257
 75
     1
175
     1
 42
1.0
 92
        0
 66
   257
 43
1.0
 76
     1
 77
     6
 78
     2
 67
     7
 79
     5
170
     0
171
     0
290
     0
174
     0
 93
        1
 44
0.0
173
     0
291
     0
 45
0.0
1001
ACAD
1000
AcDbSavedByObjectVersion
1070
     0
  0
VISUALSTYLE
  5
5A7C
102
{ACAD_REACTORS
330
5A77
102
}
330
5A77
100
AcDbVisualStyle
  2
Basic
 70
     7
 71
     1
 72
     0
 73
     1
 90
        0
 40
-0.6
 41
-30.0
 62
     5
 63
     7
 74
     0
 91
        4
 64
     7
 65
   257
 75
     1
175
     1
 42
1.0
 92
        8
 66
     7
 43
1.0
 76
     1
 77
     6
 78
     2
 67
     7
 79
     5
170
     0
171
     0
290
     0
174
     0
 93
        1
 44
0.0
173
     0
291
     1
 45
0.0
1001
ACAD
1000
AcDbSavedByObjectVersion
1070
     0
  0
VISUALSTYLE
  5
5A83
102
{ACAD_REACTORS
330
5A77
102
}
330
5A77
100
AcDbVisualStyle
  2
Brighten
 70
    12
 71
     2
 72
     2
 73
     0
 90
        0
 40
-0.6
 41
-30.0
 62
     5
 63
     7
 74
     1
 91
        4
 64
     7
 65
   257
 75
     1
175
     1
 42
1.0
 92
        8
 66
     7
 43
1.0
 76
     1
 77
     6
 78
     2
 67
     7
 79
     5
170
     0
171
     0
290
     0
174
     0
 93
        1
 44
50.0
173
     0
291
     1
 45
0.0
1001
ACAD
1000
AcDbSavedByObjectVersion
1070
     0
  0
VISUALSTYLE
  5
5A87
102
{ACAD_REACTORS
330
5A77
102
}
330
5A77
100
AcDbVisualStyle
  2
ColorChange
 70
    16
 71
     2
 72
     2
 73
     3
 90
        0
 40
-0.6
 41
-30.0
 62
     5
 63
     8
 74
     1
 91
        4
 64
     7
 65
   257
 75
     1
175
     1
 42
1.0
 92
        8
 66
     8
 43
1.0
 76
     1
 77
     6
 78
     2
 67
     7
 79
     5
170
     0
171
     0
290
     0
174
     0
 93
        1
 44
0.0
173
     0
291
     1
 45
0.0
1001
ACAD
1000
AcDbSavedByObjectVersion
1070
     0
  0
VISUALSTYLE
  5
5A82
102
{ACAD_REACTORS
330
5A77
102
}
330
5A77
100
AcDbVisualStyle
  2
Dim
 70
    11
 71
     2
 72
     2
 73
     0
 90
        0
 40
-0.6
 41
-30.0
 62
     5
 63
     7
 74
     1
 91
        4
 64
     7
 65
   257
 75
     1
175
     1
 42
1.0
 92
        8
 66
     7
 43
1.0
 76
     1
 77
     6
 78
     2
 67
     7
 79
     5
170
     0
171
     0
290
     0
174
     0
 93
        1
 44
-50.0
173
     0
291
     1
 45
0.0
1001
ACAD
1000
AcDbSavedByObjectVersion
1070
     0
  0
VISUALSTYLE
  5
5A86
102
{ACAD_REACTORS
330
5A77
102
}
330
5A77
100
AcDbVisualStyle
  2
Facepattern
 70
    15
 71
     2
 72
     2
 73
     0
 90
        0
 40
-0.6
 41
-30.0
 62
     5
 63
     7
 74
     1
 91
        4
 64
     7
 65
   257
 75
     1
175
     1
 42
1.0
 92
        8
 66
     7
 43
1.0
 76
     1
 77
     6
 78
     2
 67
     7
 79
     5
170
     0
171
     0
290
     0
174
     0
 93
        1
 44
0.0
173
     0
291
     1
 45
0.0
1001
ACAD
1000
AcDbSavedByObjectVersion
1070
     0
  0
VISUALSTYLE
  5
5A78
102
{ACAD_REACTORS
330
5A77
102
}
330
5A77
100
AcDbVisualStyle
  2
Flat
 70
     0
 71
     2
 72
     1
 73
     1
 90
        2
 40
-0.6
 41
30.0
 62
     5
 63
     7
 74
     0
 91
        4
 64
     7
 65
   257
 75
     1
175
     1
 42
1.0
 92
        8
 66
     7
 43
1.0
 76
     1
 77
     6
 78
     2
 67
     7
 79
     5
170
     0
171
     0
290
     0
174
     0
 93
       13
 44
0.0
173
     0
291
     1
 45
0.0
1001
ACAD
1000
AcDbSavedByObjectVersion
1070
     0
  0
VISUALSTYLE
  5
5A79
102
{ACAD_REACTORS
330
5A77
102
}
330
5A77
100
AcDbVisualStyle
  2
FlatWithEdges
 70
     1
 71
     2
 72
     1
 73
     1
 90
        2
 40
-0.6
 41
30.0
 62
     5
 63
     7
 74
     1
 91
        4
 64
     7
 65
   257
 75
     1
175
     1
 42
1.0
 92
        0
 66
   257
 43
1.0
 76
     1
 77
     6
 78
     2
 67
     7
 79
     5
170
     0
171
     0
290
     0
174
     0
 93
       13
 44
0.0
173
     0
291
     1
 45
0.0
1001
ACAD
1000
AcDbSavedByObjectVersion
1070
     0
  0
VISUALSTYLE
  5
5A7A
102
{ACAD_REACTORS
330
5A77
102
}
330
5A77
100
AcDbVisualStyle
  2
Gouraud
 70
     2
 71
     2
 72
     2
 73
     1
 90
        2
 40
-0.6
 41
30.0
 62
     5
 63
     7
 74
     0
 91
        4
 64
     7
 65
   257
 75
     1
175
     1
 42
1.0
 92
        0
 66
     7
 43
1.0
 76
     1
 77
     6
 78
     2
 67
     7
 79
     5
170
     0
171
     0
290
     0
174
     0
 93
       13
 44
0.0
173
     0
291
     1
 45
0.0
1001
ACAD
1000
AcDbSavedByObjectVersion
1070
     0
  0
VISUALSTYLE
  5
5A7B
102
{ACAD_REACTORS
330
5A77
102
}
330
5A77
100
AcDbVisualStyle
  2
GouraudWithEdges
 70
     3
 71
     2
 72
     2
 73
     1
 90
        2
 40
-0.6
 41
30.0
 62
     5
 63
     7
 74
     1
 91
        4
 64
     7
 65
   257
 75
     1
175
     1
 42
1.0
 92
        0
 66
   257
 43
1.0
 76
     1
 77
     6
 78
     2
 67
     7
 79
     5
170
     0
171
     0
290
     0
174
     0
 93
       13
 44
0.0
173
     0
291
     1
 45
0.0
1001
ACAD
1000
AcDbSavedByObjectVersion
1070
     0
  0
VISUALSTYLE
  5
5A85
102
{ACAD_REACTORS
330
5A77
102
}
330
5A77
100
AcDbVisualStyle
  2
Linepattern
 70
    14
 71
     2
 72
     2
 73
     0
 90
        0
 40
-0.6
 41
-30.0
 62
     5
 63
     7
 74
     1
 91
        4
 64
     7
 65
   257
 75
     7
175
     7
 42
1.0
 92
        8
 66
     7
 43
1.0
 76
     1
 77
     6
 78
     2
 67
     7
 79
     5
170
     0
171
     0
290
     0
174
     0
 93
        1
 44
0.0
173
     0
291
     1
 45
0.0
1001
ACAD
1000
AcDbSavedByObjectVersion
1070
     0
  0
VISUALSTYLE
  5
5A84
102
{ACAD_REACTORS
330
5A77
102
}
330
5A77
100
AcDbVisualStyle
  2
Thicken
 70
    13
 71
     2
 72
     2
 73
     0
 90
        0
 40
-0.6
 41
-30.0
 62
     5
 63
     7
 74
     1
 91
        4
 64
     7
 65
   257
 75
     1
175
     1
 42
1.0
 92
       12
 66
     7
 43
1.0
 76
     1
 77
     6
 78
     2
 67
     7
 79
     5
170
     0
171
     0
290
     0
174
     0
 93
        1
 44
0.0
173
     0
291
     1
 45
0.0
1001
ACAD
1000
AcDbSavedByObjectVersion
1070
     0
  0
DICTIONARYVAR
  5
5BC5
102
{ACAD_REACTORS
330
5BC4
102
}
330
5BC4
100
DictionaryVariables
280
     0
  1
STANDARD
  0
DICTIONARYVAR
  5
6A7E
102
{ACAD_REACTORS
330
5BC4
102
}
330
5BC4
100
DictionaryVariables
280
     0
  1
2
  0
DICTIONARYVAR
  5
6A7D
102
{ACAD_REACTORS
330
5BC4
102
}
330
5BC4
100
DictionaryVariables
280
     0
  1
1
  0
DICTIONARYVAR
  5
6A7C
102
{ACAD_REACTORS
330
5BC4
102
}
330
5BC4
100
DictionaryVariables
280
     0
  1
0
  0
DICTIONARYVAR
  5
6A7B
102
{ACAD_REACTORS
330
5BC4
102
}
330
5BC4
100
DictionaryVariables
280
     0
  1
127
  0
DICTIONARY
  5
6AA9
330
5A98
100
AcDbDictionary
280
     1
281
     1
  3
ACAD_XREC_ROUNDTRIP
360
6AAA
  0
DICTIONARY
  5
6AAB
330
5A9C
100
AcDbDictionary
280
     1
281
     1
  3
ACAD_XREC_ROUNDTRIP
360
6AAC
  0
DICTIONARY
  5
6AA3
330
5A75
100
AcDbDictionary
280
     1
281
     1
  3
ACAD_XREC_ROUNDTRIP
360
6AA4
  0
DICTIONARY
  5
6AA1
330
5A74
100
AcDbDictionary
280
     1
281
     1
  3
ACAD_XREC_ROUNDTRIP
360
6AA2
  0
DICTIONARY
  5
6AA5
330
5A76
100
AcDbDictionary
280
     1
281
     1
  3
ACAD_XREC_ROUNDTRIP
360
6AA6
  0
DICTIONARY
  5
6AA7
330
5A94
100
AcDbDictionary
280
     1
281
     1
  3
ACAD_XREC_ROUNDTRIP
360
6AA8
  0
XRECORD
  5
6AAA
102
{ACAD_REACTORS
330
6AA9
102
}
330
6AA9
100
AcDbXrecord
280
     1
102
SHADEPLOT
 70
     0
102
SHADEPLOTRESLEVEL
 70
     2
102
SHADEPLOTCUSTOMDPI
 70
   300
  0
XRECORD
  5
6AAC
102
{ACAD_REACTORS
330
6AAB
102
}
330
6AAB
100
AcDbXrecord
280
     1
102
SHADEPLOT
 70
     0
102
SHADEPLOTRESLEVEL
 70
     2
102
SHADEPLOTCUSTOMDPI
 70
   300
  0
XRECORD
  5
6AA4
102
{ACAD_REACTORS
330
6AA3
102
}
330
6AA3
100
AcDbXrecord
280
     1
102
MATERIAL
148
0.0
149
0.0
149
0.0
 93
        0
 94
       63
282
     0
 72
     1
 77
     1
171
     1
175
     1
179
     1
273
     0
  0
XRECORD
  5
6AA2
102
{ACAD_REACTORS
330
6AA1
102
}
330
6AA1
100
AcDbXrecord
280
     1
102
MATERIAL
148
0.0
149
0.0
149
0.0
 93
        0
 94
       63
282
     0
 72
     1
 77
     1
171
     1
175
     1
179
     1
273
     0
  0
XRECORD
  5
6AA6
102
{ACAD_REACTORS
330
6AA5
102
}
330
6AA5
100
AcDbXrecord
280
     1
102
MATERIAL
148
0.0
149
0.0
149
0.0
 93
        0
 94
       63
282
     0
 72
     1
 77
     1
171
     1
175
     1
179
     1
273
     0
  0
XRECORD
  5
6AA8
102
{ACAD_REACTORS
330
6AA7
102
}
330
6AA7
100
AcDbXrecord
280
     1
102
ACAD_ROUNDTRIP_PRE2007_TABLESTYLE
 90
      512
 91
        0
  1

 92
      512
 93
        0
  2

 94
      512
 95
        0
  3

  0
ENDSEC
  0
EOF
