  0
SECTION
  2
HEADER
  9
$ACADVER
  1
AC1015
  9
$ACADMAINTVER
 70
     6
  9
$DWGCODEPAGE
  3
ANSI_1252
  9
$INSBASE
 10
0.0
 20
0.0
 30
0.0
  9
$EXTMIN
 10
0.2957790742527569
 20
1.070139344049179
 30
-0.00000001
  9
$EXTMAX
 10
7.046549245847879
 20
8.29362442015682
 30
0.00000001
  9
$LIMMIN
 10
0.0
 20
0.0
  9
$LIMMAX
 10
8.4375
 20
10.9375
  9
$ORTHOMODE
 70
     0
  9
$REGENMODE
 70
     1
  9
$FILLMODE
 70
     1
  9
$QTEXTMODE
 70
     0
  9
$MIRRTEXT
 70
     1
  9
$LTSCALE
 40
1.0
  9
$ATTMODE
 70
     1
  9
$TEXTSIZE
 40
0.07
  9
$TRACEWID
 40
0.05
  9
$TEXTSTYLE
  7
Standard
  9
$CLAYER
  8
DIM
  9
$CELTYPE
  6
ByLayer
  9
$CECOLOR
 62
   256
  9
$CELTSCALE
 40
1.0
  9
$DISPSILH
 70
     0
  9
$DIMSCALE
 40
1.0
  9
$DIMASZ
 40
0.12
  9
$DIMEXO
 40
0.06
  9
$DIMDLI
 40
0.38
  9
$DIMRND
 40
0.0
  9
$DIMDLE
 40
0.0
  9
$DIMEXE
 40
0.07
  9
$DIMTP
 40
0.0
  9
$DIMTM
 40
0.0
  9
$DIMTXT
 40
0.1
  9
$DIMCEN
 40
0.09
  9
$DIMTSZ
 40
0.0
  9
$DIMTOL
 70
     0
  9
$DIMLIM
 70
     0
  9
$DIMTIH
 70
     1
  9
$DIMTOH
 70
     1
  9
$DIMSE1
 70
     0
  9
$DIMSE2
 70
     0
  9
$DIMTAD
 70
     0
  9
$DIMZIN
 70
     0
  9
$DIMBLK
  1

  9
$DIMASO
 70
     1
  9
$DIMSHO
 70
     1
  9
$DIMPOST
  1

  9
$DIMAPOST
  1

  9
$DIMALT
 70
     0
  9
$DIMALTD
 70
     2
  9
$DIMALTF
 40
25.4
  9
$DIMLFAC
 40
1.0
  9
$DIMTOFL
 70
     0
  9
$DIMTVP
 40
0.0
  9
$DIMTIX
 70
     0
  9
$DIMSOXD
 70
     0
  9
$DIMSAH
 70
     0
  9
$DIMBLK1
  1

  9
$DIMBLK2
  1

  9
$DIMSTYLE
  2
Standard
  9
$DIMCLRD
 70
     0
  9
$DIMCLRE
 70
     0
  9
$DIMCLRT
 70
     0
  9
$DIMTFAC
 40
1.0
  9
$DIMGAP
 40
0.02
  9
$DIMJUST
 70
     0
  9
$DIMSD1
 70
     0
  9
$DIMSD2
 70
     0
  9
$DIMTOLJ
 70
     1
  9
$DIMTZIN
 70
     0
  9
$DIMALTZ
 70
     0
  9
$DIMALTTZ
 70
     0
  9
$DIMUPT
 70
     0
  9
$DIMDEC
 70
     2
  9
$DIMTDEC
 70
     2
  9
$DIMALTU
 70
     2
  9
$DIMALTTD
 70
     2
  9
$DIMTXSTY
  7
Standard
  9
$DIMAUNIT
 70
     0
  9
$DIMADEC
 70
     0
  9
$DIMALTRND
 40
0.0
  9
$DIMAZIN
 70
     0
  9
$DIMDSEP
 70
    46
  9
$DIMATFIT
 70
     3
  9
$DIMFRAC
 70
     0
  9
$DIMLDRBLK
  1

  9
$DIMLUNIT
 70
     2
  9
$DIMLWD
 70
    -2
  9
$DIMLWE
 70
    -2
  9
$DIMTMOVE
 70
     0
  9
$LUNITS
 70
     2
  9
$LUPREC
 70
     4
  9
$SKETCHINC
 40
0.1
  9
$FILLETRAD
 40
0.0
  9
$AUNITS
 70
     0
  9
$AUPREC
 70
     2
  9
$MENU
  1
.
  9
$ELEVATION
 40
0.0
  9
$PELEVATION
 40
0.0
  9
$THICKNESS
 40
0.0
  9
$LIMCHECK
 70
     0
  9
$CHAMFERA
 40
0.5
  9
$CHAMFERB
 40
0.5
  9
$CHAMFERC
 40
1.0
  9
$CHAMFERD
 40
0.0
  9
$SKPOLY
 70
     0
  9
$TDCREATE
 40
2452222.563186817
  9
$TDUCREATE
 40
2452222.771520150
  9
$TDUPDATE
 40
2452415.438759884
  9
$TDUUPDATE
 40
2452415.647093217
  9
$TDINDWG
 40
2.1406534028
  9
$TDUSRTIMER
 40
2.1406532176
  9
$USRTIMER
 70
     1
  9
$ANGBASE
 50
0.0
  9
$ANGDIR
 70
     0
  9
$PDMODE
 70
     0
  9
$PDSIZE
 40
0.0
  9
$PLINEWID
 40
0.0
  9
$SPLFRAME
 70
     0
  9
$SPLINETYPE
 70
     6
  9
$SPLINESEGS
 70
     8
  9
$HANDSEED
  5
418
  9
$SURFTAB1
 70
     6
  9
$SURFTAB2
 70
     6
  9
$SURFTYPE
 70
     6
  9
$SURFU
 70
     6
  9
$SURFV
 70
     6
  9
$UCSBASE
  2

  9
$UCSNAME
  2

  9
$UCSORG
 10
0.0
 20
0.0
 30
0.0
  9
$UCSXDIR
 10
1.0
 20
0.0
 30
0.0
  9
$UCSYDIR
 10
0.0
 20
1.0
 30
0.0
  9
$UCSORTHOREF
  2

  9
$UCSORTHOVIEW
 70
     0
  9
$UCSORGTOP
 10
0.0
 20
0.0
 30
0.0
  9
$UCSORGBOTTOM
 10
0.0
 20
0.0
 30
0.0
  9
$UCSORGLEFT
 10
0.0
 20
0.0
 30
0.0
  9
$UCSORGRIGHT
 10
0.0
 20
0.0
 30
0.0
  9
$UCSORGFRONT
 10
0.0
 20
0.0
 30
0.0
  9
$UCSORGBACK
 10
0.0
 20
0.0
 30
0.0
  9
$PUCSBASE
  2

  9
$PUCSNAME
  2

  9
$PUCSORG
 10
0.0
 20
0.0
 30
0.0
  9
$PUCSXDIR
 10
1.0
 20
0.0
 30
0.0
  9
$PUCSYDIR
 10
0.0
 20
1.0
 30
0.0
  9
$PUCSORTHOREF
  2

  9
$PUCSORTHOVIEW
 70
     0
  9
$PUCSORGTOP
 10
0.0
 20
0.0
 30
0.0
  9
$PUCSORGBOTTOM
 10
0.0
 20
0.0
 30
0.0
  9
$PUCSORGLEFT
 10
0.0
 20
0.0
 30
0.0
  9
$PUCSORGRIGHT
 10
0.0
 20
0.0
 30
0.0
  9
$PUCSORGFRONT
 10
0.0
 20
0.0
 30
0.0
  9
$PUCSORGBACK
 10
0.0
 20
0.0
 30
0.0
  9
$USERI1
 70
     0
  9
$USERI2
 70
     0
  9
$USERI3
 70
     0
  9
$USERI4
 70
     0
  9
$USERI5
 70
     0
  9
$USERR1
 40
0.0
  9
$USERR2
 40
0.0
  9
$USERR3
 40
0.0
  9
$USERR4
 40
0.0
  9
$USERR5
 40
0.0
  9
$WORLDVIEW
 70
     1
  9
$SHADEDGE
 70
     3
  9
$SHADEDIF
 70
    70
  9
$TILEMODE
 70
     1
  9
$MAXACTVP
 70
    48
  9
$PINSBASE
 10
0.0
 20
0.0
 30
0.0
  9
$PLIMCHECK
 70
     0
  9
$PEXTMIN
 10
1.000000000000000E+20
 20
1.000000000000000E+20
 30
1.000000000000000E+20
  9
$PEXTMAX
 10
-1.000000000000000E+20
 20
-1.000000000000000E+20
 30
-1.000000000000000E+20
  9
$PLIMMIN
 10
0.0
 20
0.0
  9
$PLIMMAX
 10
12.0
 20
9.0
  9
$UNITMODE
 70
     0
  9
$VISRETAIN
 70
     1
  9
$PLINEGEN
 70
     0
  9
$PSLTSCALE
 70
     1
  9
$TREEDEPTH
 70
  3020
  9
$CMLSTYLE
  2
Standard
  9
$CMLJUST
 70
     0
  9
$CMLSCALE
 40
1.0
  9
$PROXYGRAPHICS
 70
     1
  9
$MEASUREMENT
 70
     0
  9
$CELWEIGHT
370
    -1
  9
$ENDCAPS
280
     0
  9
$JOINSTYLE
280
     0
  9
$LWDISPLAY
290
     0
  9
$INSUNITS
 70
     1
  9
$HYPERLINKBASE
  1

  9
$STYLESHEET
  1

  9
$XEDIT
290
     1
  9
$CEPSNTYPE
380
     0
  9
$PSTYLEMODE
290
     1
  9
$FINGERPRINTGUID
  2
{B4E2673A-D450-11D5-828D-00C04FA0491E}
  9
$VERSIONGUID
  2
{A6172907-B50E-4FAA-9B90-40C052EAD1B4}
  9
$EXTNAMES
290
     1
  9
$PSVPSCALE
 40
0.0
  9
$OLESTARTUP
290
     0
  0
ENDSEC
  0
SECTION
  2
CLASSES
  0
CLASS
  1
ACDBDICTIONARYWDFLT
  2
AcDbDictionaryWithDefault
  3
AutoCAD 2000
 90
        0
280
     0
281
     0
  0
CLASS
  1
ACDBPLACEHOLDER
  2
AcDbPlaceHolder
  3
AutoCAD 2000
 90
        0
280
     0
281
     0
  0
CLASS
  1
LAYOUT
  2
AcDbLayout
  3
AutoCAD 2000
 90
        0
280
     0
281
     0
  0
CLASS
  1
LONG_TRANSACTION
  2
AcDbLongTransaction
  3
AutoCAD 2000
 90
    32768
280
     0
281
     0
  0
CLASS
  1
LWPOLYLINE
  2
AcDbPolyline
  3
AutoCAD 2000
 90
    32768
280
     0
281
     1
  0
CLASS
  1
HATCH
  2
AcDbHatch
  3
AutoCAD 2000
 90
    32768
280
     0
281
     1
  0
CLASS
  1
XRECORD
  2
AcDbXrecord
  3
AutoCAD 2000
 90
    32768
280
     0
281
     0
  0
CLASS
  1
DICTIONARYVAR
  2
AcDbDictionaryVar
  3
AutoCAD 2000
 90
    32768
280
     0
281
     0
  0
CLASS
  1
LONG_TRANSACTION
  2
AcDbLongTransaction
  3
AutoCAD 2000
 90
    32768
280
     0
281
     0
  0
CLASS
  1
LWPOLYLINE
  2
AcDbPolyline
  3
AutoCAD 2000
 90
    32768
280
     0
281
     1
  0
CLASS
  1
HATCH
  2
AcDbHatch
  3
AutoCAD 2000
 90
    32768
280
     0
281
     1
  0
CLASS
  1
XRECORD
  2
AcDbXrecord
  3
AutoCAD 2000
 90
    32768
280
     0
281
     0
  0
CLASS
  1
LONG_TRANSACTION
  2
AcDbLongTransaction
  3
AutoCAD 2000
 90
    32768
280
     0
281
     0
  0
CLASS
  1
LWPOLYLINE
  2
AcDbPolyline
  3
AutoCAD 2000
 90
    32768
280
     0
281
     1
  0
CLASS
  1
HATCH
  2
AcDbHatch
  3
AutoCAD 2000
 90
    32768
280
     0
281
     1
  0
CLASS
  1
XRECORD
  2
AcDbXrecord
  3
AutoCAD 2000
 90
    32768
280
     0
281
     0
  0
CLASS
  1
LONG_TRANSACTION
  2
AcDbLongTransaction
  3
AutoCAD 2000
 90
    32768
280
     0
281
     0
  0
CLASS
  1
LWPOLYLINE
  2
AcDbPolyline
  3
AutoCAD 2000
 90
    32768
280
     0
281
     1
  0
CLASS
  1
HATCH
  2
AcDbHatch
  3
AutoCAD 2000
 90
    32768
280
     0
281
     1
  0
CLASS
  1
XRECORD
  2
AcDbXrecord
  3
AutoCAD 2000
 90
    32768
280
     0
281
     0
  0
CLASS
  1
LONG_TRANSACTION
  2
AcDbLongTransaction
  3
AutoCAD 2000
 90
    32768
280
     0
281
     0
  0
CLASS
  1
LWPOLYLINE
  2
AcDbPolyline
  3
AutoCAD 2000
 90
    32768
280
     0
281
     1
  0
CLASS
  1
HATCH
  2
AcDbHatch
  3
AutoCAD 2000
 90
    32768
280
     0
281
     1
  0
CLASS
  1
XRECORD
  2
AcDbXrecord
  3
AutoCAD 2000
 90
    32768
280
     0
281
     0
  0
CLASS
  1
LONG_TRANSACTION
  2
AcDbLongTransaction
  3
AutoCAD 2000
 90
    32768
280
     0
281
     0
  0
CLASS
  1
LWPOLYLINE
  2
AcDbPolyline
  3
AutoCAD 2000
 90
    32768
280
     0
281
     1
  0
CLASS
  1
HATCH
  2
AcDbHatch
  3
AutoCAD 2000
 90
    32768
280
     0
281
     1
  0
CLASS
  1
XRECORD
  2
AcDbXrecord
  3
AutoCAD 2000
 90
    32768
280
     0
281
     0
  0
CLASS
  1
LONG_TRANSACTION
  2
AcDbLongTransaction
  3
AutoCAD 2000
 90
    32768
280
     0
281
     0
  0
CLASS
  1
LWPOLYLINE
  2
AcDbPolyline
  3
AutoCAD 2000
 90
    32768
280
     0
281
     1
  0
CLASS
  1
HATCH
  2
AcDbHatch
  3
AutoCAD 2000
 90
    32768
280
     0
281
     1
  0
CLASS
  1
XRECORD
  2
AcDbXrecord
  3
AutoCAD 2000
 90
    32768
280
     0
281
     0
  0
CLASS
  1
LONG_TRANSACTION
  2
AcDbLongTransaction
  3
AutoCAD 2000
 90
    32768
280
     0
281
     0
  0
CLASS
  1
LWPOLYLINE
  2
AcDbPolyline
  3
AutoCAD 2000
 90
    32768
280
     0
281
     1
  0
CLASS
  1
HATCH
  2
AcDbHatch
  3
AutoCAD 2000
 90
    32768
280
     0
281
     1
  0
CLASS
  1
XRECORD
  2
AcDbXrecord
  3
AutoCAD 2000
 90
    32768
280
     0
281
     0
  0
CLASS
  1
RASTERVARIABLES
  2
AcDbRasterVariables
  3
ISM
 90
    32768
280
     0
281
     0
  0
CLASS
  1
IMAGEDEF
  2
AcDbRasterImageDef
  3
ISM
 90
    32768
280
     0
281
     0
  0
CLASS
  1
IMAGEDEF_REACTOR
  2
AcDbRasterImageDefReactor
  3
ISM
 90
    32769
280
     0
281
     0
  0
CLASS
  1
IMAGE
  2
AcDbRasterImage
  3
ISM
 90
    32895
280
     0
281
     1
  0
CLASS
  1
LONG_TRANSACTION
  2
AcDbLongTransaction
  3
AutoCAD 2000
 90
    32768
280
     0
281
     0
  0
CLASS
  1
LWPOLYLINE
  2
AcDbPolyline
  3
AutoCAD 2000
 90
    32768
280
     0
281
     1
  0
CLASS
  1
HATCH
  2
AcDbHatch
  3
AutoCAD 2000
 90
    32768
280
     0
281
     1
  0
CLASS
  1
XRECORD
  2
AcDbXrecord
  3
AutoCAD 2000
 90
    32768
280
     0
281
     0
  0
CLASS
  1
LONG_TRANSACTION
  2
AcDbLongTransaction
  3
AutoCAD 2000
 90
    32768
280
     0
281
     0
  0
CLASS
  1
LWPOLYLINE
  2
AcDbPolyline
  3
AutoCAD 2000
 90
    32768
280
     0
281
     1
  0
CLASS
  1
HATCH
  2
AcDbHatch
  3
AutoCAD 2000
 90
    32768
280
     0
281
     1
  0
CLASS
  1
XRECORD
  2
AcDbXrecord
  3
AutoCAD 2000
 90
    32768
280
     0
281
     0
  0
CLASS
  1
LONG_TRANSACTION
  2
AcDbLongTransaction
  3
AutoCAD 2000
 90
    32768
280
     0
281
     0
  0
CLASS
  1
LWPOLYLINE
  2
AcDbPolyline
  3
AutoCAD 2000
 90
    32768
280
     0
281
     1
  0
CLASS
  1
HATCH
  2
AcDbHatch
  3
AutoCAD 2000
 90
    32768
280
     0
281
     1
  0
CLASS
  1
XRECORD
  2
AcDbXrecord
  3
AutoCAD 2000
 90
    32768
280
     0
281
     0
  0
CLASS
  1
LONG_TRANSACTION
  2
AcDbLongTransaction
  3
AutoCAD 2000
 90
    32768
280
     0
281
     0
  0
CLASS
  1
LWPOLYLINE
  2
AcDbPolyline
  3
AutoCAD 2000
 90
    32768
280
     0
281
     1
  0
CLASS
  1
HATCH
  2
AcDbHatch
  3
AutoCAD 2000
 90
    32768
280
     0
281
     1
  0
CLASS
  1
XRECORD
  2
AcDbXrecord
  3
AutoCAD 2000
 90
    32768
280
     0
281
     0
  0
CLASS
  1
LONG_TRANSACTION
  2
AcDbLongTransaction
  3
AutoCAD 2000
 90
    32768
280
     0
281
     0
  0
CLASS
  1
LWPOLYLINE
  2
AcDbPolyline
  3
AutoCAD 2000
 90
    32768
280
     0
281
     1
  0
CLASS
  1
HATCH
  2
AcDbHatch
  3
AutoCAD 2000
 90
    32768
280
     0
281
     1
  0
CLASS
  1
XRECORD
  2
AcDbXrecord
  3
AutoCAD 2000
 90
    32768
280
     0
281
     0
  0
ENDSEC
  0
SECTION
  2
TABLES
  0
TABLE
  2
VPORT
  5
1E
330
0
100
AcDbSymbolTable
 70
     2
  0
VPORT
  5
417
330
1E
100
AcDbSymbolTableRecord
100
AcDbViewportTableRecord
  2
*Active
 70
     0
 10
0.0
 20
0.0
 11
1.0
 21
1.0
 12
4.21875
 22
5.46875
 13
0.0
 23
0.0
 14
0.5
 24
0.5
 15
0.5
 25
0.5
 16
0.0
 26
0.0
 36
1.0
 17
0.0
 27
0.0
 37
0.0
 40
11.05703551912568
 41
1.534671532846715
 42
50.0
 43
0.0
 44
0.0
 50
0.0
 51
0.0
 71
     0
 72
   100
 73
     1
 74
     3
 75
     0
 76
     0
 77
     0
 78
     0
281
     0
 65
     1
110
0.0
120
0.0
130
0.0
111
1.0
121
0.0
131
0.0
112
0.0
122
1.0
132
0.0
 79
     0
146
0.0
  0
ENDTAB
  0
TABLE
  2
LTYPE
  5
19
330
0
100
AcDbSymbolTable
 70
     3
  0
LTYPE
  5
1A
330
19
100
AcDbSymbolTableRecord
100
AcDbLinetypeTableRecord
  2
ByBlock
 70
     0
  3

 72
    65
 73
     0
 40
0.0
  0
LTYPE
  5
1B
330
19
100
AcDbSymbolTableRecord
100
AcDbLinetypeTableRecord
  2
ByLayer
 70
     0
  3

 72
    65
 73
     0
 40
0.0
  0
LTYPE
  5
A
330
19
100
AcDbSymbolTableRecord
100
AcDbLinetypeTableRecord
  2
Continuous
 70
     0
  3
Solid line
 72
    65
 73
     0
 40
0.0
  0
LTYPE
  5
6A
330
19
100
AcDbSymbolTableRecord
100
AcDbLinetypeTableRecord
  2
CENTER2
 70
     0
  3
___ _ ___ _ ___ _ ___ _ ___ _ ___ _ ___ _ ___ _
 72
    65
 73
     4
 40
1.125
 49
0.75
 74
     0
 49
-0.125
 74
     0
 49
0.125
 74
     0
 49
-0.125
 74
     0
  0
LTYPE
  5
166
330
19
100
AcDbSymbolTableRecord
100
AcDbLinetypeTableRecord
  2
HIDDEN
 70
     0
  3
Hidden __ __ __ __ __ __ __ __ __ __ __ __ __ _
 72
    65
 73
     2
 40
0.375
 49
0.25
 74
     0
 49
-0.125
 74
     0
  0
ENDTAB
  0
TABLE
  2
LAYER
  5
14
330
0
100
AcDbSymbolTable
 70
     7
  0
LAYER
  5
6
330
14
100
AcDbSymbolTableRecord
100
AcDbLayerTableRecord
  2
0
 70
     0
 62
     7
  6
Continuous
370
    -3
390
7
  0
LAYER
  5
67
330
14
100
AcDbSymbolTableRecord
100
AcDbLayerTableRecord
  2
OBJ
 70
     0
 62
     7
  6
Continuous
370
    -3
390
7
  0
LAYER
  5
8B
330
14
100
AcDbSymbolTableRecord
100
AcDbLayerTableRecord
  2
NOTES
 70
     0
 62
     7
  6
Continuous
370
    -3
390
7
  0
LAYER
  5
26
330
14
100
AcDbSymbolTableRecord
100
AcDbLayerTableRecord
  2
DIM
 70
     0
 62
     3
  6
Continuous
370
    -3
390
7
  0
LAYER
  5
65
330
14
100
AcDbSymbolTableRecord
100
AcDbLayerTableRecord
  2
HATCH
 70
     0
 62
     4
  6
Continuous
370
    -3
390
7
  0
LAYER
  5
69
330
14
100
AcDbSymbolTableRecord
100
AcDbLayerTableRecord
  2
CL
 70
     0
 62
     7
  6
CENTER2
370
    -3
390
7
  0
LAYER
  5
33
330
14
100
AcDbSymbolTableRecord
100
AcDbLayerTableRecord
  2
Defpoints
 70
     0
 62
     7
  6
Continuous
290
     0
370
    -3
390
7
  0
ENDTAB
  0
TABLE
  2
STYLE
  5
15
330
0
100
AcDbSymbolTable
 70
     1
  0
STYLE
  5
16
330
15
100
AcDbSymbolTableRecord
100
AcDbTextStyleTableRecord
  2
Standard
 70
     0
 40
0.0
 41
1.0
 50
0.0
 71
     0
 42
0.07
  3
ARIAL.TTF
  4

1001
ACAD
1000
Arial
1071
       34
  0
ENDTAB
  0
TABLE
  2
VIEW
  5
1C
330
0
100
AcDbSymbolTable
 70
     0
  0
ENDTAB
  0
TABLE
  2
UCS
  5
1D
330
0
100
AcDbSymbolTable
 70
     0
  0
ENDTAB
  0
TABLE
  2
APPID
  5
20
330
0
100
AcDbSymbolTable
 70
     1
  0
APPID
  5
17
330
20
100
AcDbSymbolTableRecord
100
AcDbRegAppTableRecord
  2
ACAD
 70
     0
  0
ENDTAB
  0
TABLE
  2
DIMSTYLE
  5
21
330
0
100
AcDbSymbolTable
 70
     1
100
AcDbDimStyleTable
 71
     0
  0
DIMSTYLE
105
28
102
{ACAD_REACTORS
330
340
330
182
330
111
330
47
330
155
330
11F
330
38
330
55
330
29
330
214
330
9C
330
74
330
DD
102
}
330
21
100
AcDbSymbolTableRecord
100
AcDbDimStyleTableRecord
  2
Standard
 70
     0
 41
0.12
 42
0.06
 44
0.07
140
0.1
147
0.02
271
     2
272
     2
340
16
  0
ENDTAB
  0
TABLE
  2
BLOCK_RECORD
  5
1
330
0
100
AcDbSymbolTable
 70
    27
  0
BLOCK_RECORD
  5
2
102
{ACAD_XDICTIONARY
360
3
102
}
330
1
100
AcDbSymbolTableRecord
100
AcDbBlockTableRecord
  2
*Model_Space
340
C
  0
BLOCK_RECORD
  5
E
102
{ACAD_XDICTIONARY
360
F
102
}
330
1
100
AcDbSymbolTableRecord
100
AcDbBlockTableRecord
  2
*Paper_Space
340
13
  0
BLOCK_RECORD
  5
B5
330
1
100
AcDbSymbolTableRecord
100
AcDbBlockTableRecord
  2
A$C266B4E3C
340
0
102
{BLKREFS
331
B4
331
235
102
}
  0
BLOCK_RECORD
  5
341
330
1
100
AcDbSymbolTableRecord
100
AcDbBlockTableRecord
  2
*D1
340
0
  0
BLOCK_RECORD
  5
183
330
1
100
AcDbSymbolTableRecord
100
AcDbBlockTableRecord
  2
*D2
340
0
  0
BLOCK_RECORD
  5
112
330
1
100
AcDbSymbolTableRecord
100
AcDbBlockTableRecord
  2
*D3
340
0
  0
BLOCK_RECORD
  5
48
330
1
100
AcDbSymbolTableRecord
100
AcDbBlockTableRecord
  2
*D4
340
0
  0
BLOCK_RECORD
  5
156
330
1
100
AcDbSymbolTableRecord
100
AcDbBlockTableRecord
  2
*D5
340
0
  0
BLOCK_RECORD
  5
120
330
1
100
AcDbSymbolTableRecord
100
AcDbBlockTableRecord
  2
*D6
340
0
  0
BLOCK_RECORD
  5
39
330
1
100
AcDbSymbolTableRecord
100
AcDbBlockTableRecord
  2
*D7
340
0
  0
BLOCK_RECORD
  5
56
330
1
100
AcDbSymbolTableRecord
100
AcDbBlockTableRecord
  2
*D8
340
0
  0
BLOCK_RECORD
  5
2A
330
1
100
AcDbSymbolTableRecord
100
AcDbBlockTableRecord
  2
*D9
340
0
  0
BLOCK_RECORD
  5
215
330
1
100
AcDbSymbolTableRecord
100
AcDbBlockTableRecord
  2
*D10
340
0
  0
BLOCK_RECORD
  5
9D
330
1
100
AcDbSymbolTableRecord
100
AcDbBlockTableRecord
  2
*D11
340
0
  0
BLOCK_RECORD
  5
75
330
1
100
AcDbSymbolTableRecord
100
AcDbBlockTableRecord
  2
*D12
340
0
  0
BLOCK_RECORD
  5
DE
330
1
100
AcDbSymbolTableRecord
100
AcDbBlockTableRecord
  2
*D13
340
0
  0
BLOCK_RECORD
  5
36C
330
1
100
AcDbSymbolTableRecord
100
AcDbBlockTableRecord
  2
*D14
340
0
  0
BLOCK_RECORD
  5
379
330
1
100
AcDbSymbolTableRecord
100
AcDbBlockTableRecord
  2
*D15
340
0
  0
BLOCK_RECORD
  5
387
330
1
100
AcDbSymbolTableRecord
100
AcDbBlockTableRecord
  2
*D16
340
0
  0
BLOCK_RECORD
  5
394
330
1
100
AcDbSymbolTableRecord
100
AcDbBlockTableRecord
  2
*D17
340
0
  0
BLOCK_RECORD
  5
3A2
330
1
100
AcDbSymbolTableRecord
100
AcDbBlockTableRecord
  2
*D18
340
0
  0
BLOCK_RECORD
  5
3AF
330
1
100
AcDbSymbolTableRecord
100
AcDbBlockTableRecord
  2
*D19
340
0
  0
BLOCK_RECORD
  5
3BC
330
1
100
AcDbSymbolTableRecord
100
AcDbBlockTableRecord
  2
*D20
340
0
  0
BLOCK_RECORD
  5
3C9
330
1
100
AcDbSymbolTableRecord
100
AcDbBlockTableRecord
  2
*D21
340
0
  0
BLOCK_RECORD
  5
3D6
330
1
100
AcDbSymbolTableRecord
100
AcDbBlockTableRecord
  2
*D22
340
0
  0
BLOCK_RECORD
  5
3E3
330
1
100
AcDbSymbolTableRecord
100
AcDbBlockTableRecord
  2
*D23
340
0
  0
BLOCK_RECORD
  5
3F0
330
1
100
AcDbSymbolTableRecord
100
AcDbBlockTableRecord
  2
*D24
340
0
  0
BLOCK_RECORD
  5
3FD
330
1
100
AcDbSymbolTableRecord
100
AcDbBlockTableRecord
  2
*D25
340
0
  0
BLOCK_RECORD
  5
40A
330
1
100
AcDbSymbolTableRecord
100
AcDbBlockTableRecord
  2
*D26
340
0
  0
ENDTAB
  0
ENDSEC
  0
SECTION
  2
BLOCKS
  0
BLOCK
  5
5
330
2
100
AcDbEntity
  8
0
100
AcDbBlockBegin
  2
*Model_Space
 70
     0
 10
0.0
 20
0.0
 30
0.0
  3
*Model_Space
  1

  0
ENDBLK
  5
B
330
2
100
AcDbEntity
  8
0
100
AcDbBlockEnd
  0
BLOCK
  5
11
330
E
100
AcDbEntity
 67
     1
  8
0
100
AcDbBlockBegin
  2
*Paper_Space
 70
     0
 10
0.0
 20
0.0
 30
0.0
  3
*Paper_Space
  1

  0
ENDBLK
  5
12
330
E
100
AcDbEntity
 67
     1
  8
0
100
AcDbBlockEnd
  0
BLOCK
  5
B8
330
B5
100
AcDbEntity
  8
0
100
AcDbBlockBegin
  2
A$C266B4E3C
 70
     0
 10
0.0
 20
0.0
 30
0.0
  3
A$C266B4E3C
  1

  0
MTEXT
  5
B6
330
B5
100
AcDbEntity
  8
NOTES
100
AcDbMText
 10
0.0531773608844617
 20
0.188115100644378
 30
0.0
 40
0.1
 41
0.0
 71
     2
 72
     5
  1
C
 73
     1
 44
1.0
1001
ACAD
1000
MTEXTBEGIN
1070
    73
1070
     1
1070
    44
1040
1.0
1070
    74
1070
     0
1000
MTEXTEND
1000
MTEXTBEGIN
1070
    73
1070
     1
1070
    44
1040
1.0
1070
    74
1070
     0
1000
MTEXTEND
1000
MTEXTBEGIN
1070
    73
1070
     1
1070
    44
1040
1.0
1070
    74
1070
     0
1000
MTEXTEND
1000
MTEXTBEGIN
1070
    73
1070
     1
1070
    44
1040
1.0
1070
    74
1070
     0
1000
MTEXTEND
1000
MTEXTBEGIN
1070
    73
1070
     1
1070
    44
1040
1.0
1070
    74
1070
     0
1000
MTEXTEND
1000
MTEXTBEGIN
1070
    73
1070
     1
1070
    44
1040
1.0
1070
    74
1070
     0
1000
MTEXTEND
1000
MTEXTBEGIN
1070
    73
1070
     1
1070
    44
1040
1.0
1070
    74
1070
     0
1000
MTEXTEND
1000
MTEXTBEGIN
1070
    73
1070
     1
1070
    44
1040
1.0
1070
    74
1070
     0
1000
MTEXTEND
1000
MTEXTBEGIN
1070
    73
1070
     1
1070
    44
1040
1.0
1070
    74
1070
     0
1000
MTEXTEND
1000
MTEXTBEGIN
1070
    73
1070
     1
1070
    44
1040
1.0
1070
    74
1070
     0
1000
MTEXTEND
1000
MTEXTBEGIN
1070
    73
1070
     1
1070
    44
1040
1.0
1070
    74
1070
     0
1000
MTEXTEND
1000
MTEXTBEGIN
1070
    73
1070
     1
1070
    44
1040
1.0
1070
    74
1070
     0
1000
MTEXTEND
  0
MTEXT
  5
B7
330
B5
100
AcDbEntity
  8
NOTES
100
AcDbMText
 10
0.0897735595015661
 20
0.1306408944278488
 30
0.0
 40
0.1
 41
0.0
 71
     2
 72
     5
  1
L
 73
     1
 44
1.0
1001
ACAD
1000
MTEXTBEGIN
1070
    73
1070
     1
1070
    44
1040
1.0
1070
    74
1070
     0
1000
MTEXTEND
1000
MTEXTBEGIN
1070
    73
1070
     1
1070
    44
1040
1.0
1070
    74
1070
     0
1000
MTEXTEND
1000
MTEXTBEGIN
1070
    73
1070
     1
1070
    44
1040
1.0
1070
    74
1070
     0
1000
MTEXTEND
1000
MTEXTBEGIN
1070
    73
1070
     1
1070
    44
1040
1.0
1070
    74
1070
     0
1000
MTEXTEND
1000
MTEXTBEGIN
1070
    73
1070
     1
1070
    44
1040
1.0
1070
    74
1070
     0
1000
MTEXTEND
1000
MTEXTBEGIN
1070
    73
1070
     1
1070
    44
1040
1.0
1070
    74
1070
     0
1000
MTEXTEND
1000
MTEXTBEGIN
1070
    73
1070
     1
1070
    44
1040
1.0
1070
    74
1070
     0
1000
MTEXTEND
1000
MTEXTBEGIN
1070
    73
1070
     1
1070
    44
1040
1.0
1070
    74
1070
     0
1000
MTEXTEND
1000
MTEXTBEGIN
1070
    73
1070
     1
1070
    44
1040
1.0
1070
    74
1070
     0
1000
MTEXTEND
1000
MTEXTBEGIN
1070
    73
1070
     1
1070
    44
1040
1.0
1070
    74
1070
     0
1000
MTEXTEND
1000
MTEXTBEGIN
1070
    73
1070
     1
1070
    44
1040
1.0
1070
    74
1070
     0
1000
MTEXTEND
1000
MTEXTBEGIN
1070
    73
1070
     1
1070
    44
1040
1.0
1070
    74
1070
     0
1000
MTEXTEND
  0
ENDBLK
  5
B9
330
B5
100
AcDbEntity
  8
0
100
AcDbBlockEnd
  0
BLOCK
  5
34C
330
341
100
AcDbEntity
  8
0
100
AcDbBlockBegin
  2
*D1
 70
     1
 10
0.0
 20
0.0
 30
0.0
  3
*D1
  1

  0
LINE
  5
342
330
341
100
AcDbEntity
  8
DIM
 62
     0
370
    -2
100
AcDbLine
 10
5.989502980604186
 20
5.594261123939777
 30
0.0
 11
5.989502980604186
 21
6.328391432989124
 31
0.0
  0
LINE
  5
343
330
341
100
AcDbEntity
  8
DIM
 62
     0
370
    -2
100
AcDbLine
 10
7.175502980604186
 20
5.594261123939777
 30
0.0
 11
7.175502980604186
 21
6.328391432989124
 31
0.0
  0
LINE
  5
344
330
341
100
AcDbEntity
  8
DIM
 62
     0
370
    -2
100
AcDbLine
 10
6.109502980604186
 20
6.258391432989124
 30
0.0
 11
6.654864430840464
 21
6.258391432989124
 31
0.0
  0
LINE
  5
345
330
341
100
AcDbEntity
  8
DIM
 62
     0
370
    -2
100
AcDbLine
 10
7.055502980604186
 20
6.258391432989124
 30
0.0
 11
6.945410133432552
 21
6.258391432989124
 31
0.0
  0
SOLID
  5
346
330
341
100
AcDbEntity
  8
DIM
 62
     0
100
AcDbTrace
 10
6.109502980604186
 20
6.278391432989121
 30
0.0
 11
6.109502980604186
 21
6.238391432989123
 31
0.0
 12
5.989502980604186
 22
6.258391432989124
 32
0.0
 13
5.989502980604186
 23
6.258391432989124
 33
0.0
  0
SOLID
  5
347
330
341
100
AcDbEntity
  8
DIM
 62
     0
100
AcDbTrace
 10
7.055502980604186
 20
6.278391432989121
 30
0.0
 11
7.055502980604186
 21
6.238391432989123
 31
0.0
 12
7.175502980604186
 22
6.258391432989124
 32
0.0
 13
7.175502980604186
 23
6.258391432989124
 33
0.0
  0
MTEXT
  5
348
330
341
100
AcDbEntity
  8
DIM
 62
     0
100
AcDbMText
 10
6.800137282136508
 20
6.258391432989124
 30
0.0
 40
0.1
 41
0.0
 71
     5
 72
     1
  1
\A1;1.19\PDia.
 73
     1
 44
1.0
1001
ACAD
1000
MTEXTBEGIN
1070
    73
1070
     1
1070
    44
1040
1.0
1070
    74
1070
     0
1000
MTEXTEND
1000
MTEXTBEGIN
1070
    73
1070
     1
1070
    44
1040
1.0
1070
    74
1070
     0
1000
MTEXTEND
1000
MTEXTBEGIN
1070
    73
1070
     1
1070
    44
1040
1.0
1070
    74
1070
     0
1000
MTEXTEND
1000
MTEXTBEGIN
1070
    73
1070
     1
1070
    44
1040
1.0
1070
    74
1070
     0
1000
MTEXTEND
  0
POINT
  5
349
330
341
100
AcDbEntity
  8
Defpoints
 62
     0
100
AcDbPoint
 10
5.989502980604186
 20
5.534261123939777
 30
0.0
  0
POINT
  5
34A
330
341
100
AcDbEntity
  8
Defpoints
 62
     0
100
AcDbPoint
 10
7.175502980604186
 20
5.534261123939777
 30
0.0
  0
POINT
  5
34B
330
341
100
AcDbEntity
  8
Defpoints
 62
     0
100
AcDbPoint
 10
7.175502980604186
 20
6.258391432989124
 30
0.0
  0
ENDBLK
  5
34D
330
341
100
AcDbEntity
  8
0
100
AcDbBlockEnd
  0
BLOCK
  5
18E
330
183
100
AcDbEntity
  8
0
100
AcDbBlockBegin
  2
*D2
 70
     1
 10
0.0
 20
0.0
 30
0.0
  3
*D2
  1

  0
LINE
  5
184
330
183
100
AcDbEntity
  8
DIM
 62
     0
370
    -2
100
AcDbLine
 10
1.639014689739227
 20
9.490813188452662
 30
0.0
 11
1.639014689739227
 21
10.17852317177933
 31
0.0
  0
LINE
  5
185
330
183
100
AcDbEntity
  8
DIM
 62
     0
370
    -2
100
AcDbLine
 10
3.259014689659228
 20
9.490813188452658
 30
0.0
 11
3.259014689659228
 21
10.17852317177933
 31
0.0
  0
LINE
  5
186
330
183
100
AcDbEntity
  8
DIM
 62
     0
370
    -2
100
AcDbLine
 10
1.759014689739227
 20
10.10852317177933
 30
0.0
 11
2.304355753819284
 21
10.10852317177933
 31
0.0
  0
LINE
  5
187
330
183
100
AcDbEntity
  8
DIM
 62
     0
370
    -2
100
AcDbLine
 10
3.139014689659228
 20
10.10852317177933
 30
0.0
 11
2.593673625579173
 21
10.10852317177933
 31
0.0
  0
SOLID
  5
188
330
183
100
AcDbEntity
  8
DIM
 62
     0
100
AcDbTrace
 10
1.759014689739227
 20
10.12852317177933
 30
0.0
 11
1.759014689739227
 21
10.08852317177932
 31
0.0
 12
1.639014689739227
 22
10.10852317177933
 32
0.0
 13
1.639014689739227
 23
10.10852317177933
 33
0.0
  0
SOLID
  5
189
330
183
100
AcDbEntity
  8
DIM
 62
     0
100
AcDbTrace
 10
3.139014689659228
 20
10.12852317177933
 30
0.0
 11
3.139014689659228
 21
10.08852317177932
 31
0.0
 12
3.259014689659228
 22
10.10852317177933
 32
0.0
 13
3.259014689659228
 23
10.10852317177933
 33
0.0
  0
MTEXT
  5
18A
330
183
100
AcDbEntity
  8
DIM
 62
     0
100
AcDbMText
 10
2.449014689699228
 20
10.10852317177933
 30
0.0
 40
0.1
 41
0.0
 71
     5
 72
     1
  1
\A1;1.62
 73
     1
 44
1.0
1001
ACAD
1000
MTEXTBEGIN
1070
    73
1070
     1
1070
    44
1040
1.0
1070
    74
1070
     0
1000
MTEXTEND
1000
MTEXTBEGIN
1070
    73
1070
     1
1070
    44
1040
1.0
1070
    74
1070
     0
1000
MTEXTEND
1000
MTEXTBEGIN
1070
    73
1070
     1
1070
    44
1040
1.0
1070
    74
1070
     0
1000
MTEXTEND
1000
MTEXTBEGIN
1070
    73
1070
     1
1070
    44
1040
1.0
1070
    74
1070
     0
1000
MTEXTEND
1000
MTEXTBEGIN
1070
    73
1070
     1
1070
    44
1040
1.0
1070
    74
1070
     0
1000
MTEXTEND
  0
POINT
  5
18B
330
183
100
AcDbEntity
  8
Defpoints
 62
     0
100
AcDbPoint
 10
1.639014689739227
 20
9.430813188452662
 30
0.0
  0
POINT
  5
18C
330
183
100
AcDbEntity
  8
Defpoints
 62
     0
100
AcDbPoint
 10
3.259014689659228
 20
9.43081318845266
 30
0.0
  0
POINT
  5
18D
330
183
100
AcDbEntity
  8
Defpoints
 62
     0
100
AcDbPoint
 10
3.259014689659228
 20
10.10852317177933
 30
0.0
  0
ENDBLK
  5
18F
330
183
100
AcDbEntity
  8
0
100
AcDbBlockEnd
  0
BLOCK
  5
11D
330
112
100
AcDbEntity
  8
0
100
AcDbBlockBegin
  2
*D3
 70
     1
 10
0.0
 20
0.0
 30
0.0
  3
*D3
  1

  0
LINE
  5
113
330
112
100
AcDbEntity
  8
DIM
 62
     0
370
    -2
100
AcDbLine
 10
1.887703714114232
 20
9.739502212827659
 30
0.0
 11
1.208246761144877
 21
9.739502212827659
 31
0.0
  0
LINE
  5
114
330
112
100
AcDbEntity
  8
DIM
 62
     0
370
    -2
100
AcDbLine
 10
1.887703714114226
 20
8.119502212907661
 30
0.0
 11
1.208246761144876
 21
8.119502212907661
 31
0.0
  0
LINE
  5
115
330
112
100
AcDbEntity
  8
DIM
 62
     0
370
    -2
100
AcDbLine
 10
1.278246761144878
 20
9.61950221282766
 30
0.0
 11
1.278246761144878
 21
9.00055951163983
 31
0.0
  0
LINE
  5
116
330
112
100
AcDbEntity
  8
DIM
 62
     0
370
    -2
100
AcDbLine
 10
1.278246761144876
 20
8.239502212907661
 30
0.0
 11
1.278246761144878
 21
8.858444914095493
 31
0.0
  0
SOLID
  5
117
330
112
100
AcDbEntity
  8
DIM
 62
     0
100
AcDbTrace
 10
1.258246761144877
 20
9.61950221282766
 30
0.0
 11
1.298246761144878
 21
9.61950221282766
 31
0.0
 12
1.278246761144878
 22
9.739502212827659
 32
0.0
 13
1.278246761144878
 23
9.739502212827659
 33
0.0
  0
SOLID
  5
118
330
112
100
AcDbEntity
  8
DIM
 62
     0
100
AcDbTrace
 10
1.258246761144876
 20
8.239502212907661
 30
0.0
 11
1.298246761144876
 21
8.239502212907661
 31
0.0
 12
1.278246761144876
 22
8.119502212907661
 32
0.0
 13
1.278246761144876
 23
8.119502212907661
 33
0.0
  0
MTEXT
  5
119
330
112
100
AcDbEntity
  8
DIM
 62
     0
100
AcDbMText
 10
1.278246761144876
 20
8.92950221286766
 30
0.0
 40
0.1
 41
0.0
 71
     5
 72
     1
  1
\A1;1.62
 73
     1
 44
1.0
1001
ACAD
1000
MTEXTBEGIN
1070
    73
1070
     1
1070
    44
1040
1.0
1070
    74
1070
     0
1000
MTEXTEND
1000
MTEXTBEGIN
1070
    73
1070
     1
1070
    44
1040
1.0
1070
    74
1070
     0
1000
MTEXTEND
1000
MTEXTBEGIN
1070
    73
1070
     1
1070
    44
1040
1.0
1070
    74
1070
     0
1000
MTEXTEND
1000
MTEXTBEGIN
1070
    73
1070
     1
1070
    44
1040
1.0
1070
    74
1070
     0
1000
MTEXTEND
1000
MTEXTBEGIN
1070
    73
1070
     1
1070
    44
1040
1.0
1070
    74
1070
     0
1000
MTEXTEND
  0
POINT
  5
11A
330
112
100
AcDbEntity
  8
Defpoints
 62
     0
100
AcDbPoint
 10
1.947703714114233
 20
9.739502212827659
 30
0.0
  0
POINT
  5
11B
330
112
100
AcDbEntity
  8
Defpoints
 62
     0
100
AcDbPoint
 10
1.947703714114226
 20
8.119502212907661
 30
0.0
  0
POINT
  5
11C
330
112
100
AcDbEntity
  8
Defpoints
 62
     0
100
AcDbPoint
 10
1.278246761144876
 20
8.119502212907661
 30
0.0
  0
ENDBLK
  5
11E
330
112
100
AcDbEntity
  8
0
100
AcDbBlockEnd
  0
BLOCK
  5
53
330
48
100
AcDbEntity
  8
0
100
AcDbBlockBegin
  2
*D4
 70
     1
 10
0.0
 20
0.0
 30
0.0
  3
*D4
  1

  0
LINE
  5
49
330
48
100
AcDbEntity
  8
DIM
 62
     0
370
    -2
100
AcDbLine
 10
3.837477533601715
 20
5.195707237681991
 30
0.0
 11
4.181572712599233
 21
5.195707237681991
 31
0.0
  0
LINE
  5
4A
330
48
100
AcDbEntity
  8
DIM
 62
     0
370
    -2
100
AcDbLine
 10
3.398480638320736
 20
3.885707237681978
 30
0.0
 11
4.181572712599233
 21
3.885707237681978
 31
0.0
  0
LINE
  5
4B
330
48
100
AcDbEntity
  8
DIM
 62
     0
370
    -2
100
AcDbLine
 10
4.111572712599232
 20
5.07570723768199
 30
0.0
 11
4.111572712599232
 21
4.611798642866158
 31
0.0
  0
LINE
  5
4C
330
48
100
AcDbEntity
  8
DIM
 62
     0
370
    -2
100
AcDbLine
 10
4.111572712599232
 20
4.00570723768198
 30
0.0
 11
4.111572712599232
 21
4.469615832497811
 31
0.0
  0
SOLID
  5
4D
330
48
100
AcDbEntity
  8
DIM
 62
     0
100
AcDbTrace
 10
4.091572712599234
 20
5.07570723768199
 30
0.0
 11
4.131572712599233
 21
5.07570723768199
 31
0.0
 12
4.111572712599232
 22
5.195707237681991
 32
0.0
 13
4.111572712599232
 23
5.195707237681991
 33
0.0
  0
SOLID
  5
4E
330
48
100
AcDbEntity
  8
DIM
 62
     0
100
AcDbTrace
 10
4.091572712599234
 20
4.00570723768198
 30
0.0
 11
4.131572712599233
 21
4.00570723768198
 31
0.0
 12
4.111572712599232
 22
3.885707237681978
 32
0.0
 13
4.111572712599232
 23
3.885707237681978
 33
0.0
  0
MTEXT
  5
4F
330
48
100
AcDbEntity
  8
DIM
 62
     0
100
AcDbMText
 10
4.111572712599231
 20
4.540707237681986
 30
0.0
 40
0.1
 41
0.0
 71
     5
 72
     1
  1
\A1;1.31
 73
     1
 44
1.0
1001
ACAD
1000
MTEXTBEGIN
1070
    73
1070
     1
1070
    44
1040
1.0
1070
    74
1070
     0
1000
MTEXTEND
1000
MTEXTBEGIN
1070
    73
1070
     1
1070
    44
1040
1.0
1070
    74
1070
     0
1000
MTEXTEND
1000
MTEXTBEGIN
1070
    73
1070
     1
1070
    44
1040
1.0
1070
    74
1070
     0
1000
MTEXTEND
1000
MTEXTBEGIN
1070
    73
1070
     1
1070
    44
1040
1.0
1070
    74
1070
     0
1000
MTEXTEND
  0
POINT
  5
50
330
48
100
AcDbEntity
  8
Defpoints
 62
     0
100
AcDbPoint
 10
3.777477533601715
 20
5.195707237681991
 30
0.0
  0
POINT
  5
51
330
48
100
AcDbEntity
  8
Defpoints
 62
     0
100
AcDbPoint
 10
3.338480638320736
 20
3.885707237681978
 30
0.0
  0
POINT
  5
52
330
48
100
AcDbEntity
  8
Defpoints
 62
     0
100
AcDbPoint
 10
4.111572712599232
 20
3.885707237681978
 30
0.0
  0
ENDBLK
  5
54
330
48
100
AcDbEntity
  8
0
100
AcDbBlockEnd
  0
BLOCK
  5
161
330
156
100
AcDbEntity
  8
0
100
AcDbBlockBegin
  2
*D5
 70
     1
 10
0.0
 20
0.0
 30
0.0
  3
*D5
  1

  0
LINE
  5
157
330
156
100
AcDbEntity
  8
DIM
 62
     0
370
    -2
100
AcDbLine
 10
2.294037749159997
 20
7.77950221286766
 30
0.0
 11
2.294037749159997
 21
7.557646053014059
 31
0.0
  0
LINE
  5
158
330
156
100
AcDbEntity
  8
DIM
 62
     0
370
    -2
100
AcDbLine
 10
2.603991630238461
 20
7.77950221286766
 30
0.0
 11
2.603991630238461
 21
7.557646053014059
 31
0.0
  0
LINE
  5
159
330
156
100
AcDbEntity
  8
DIM
 62
     0
370
    -2
100
AcDbLine
 10
2.483991630238461
 20
7.627646053014059
 30
0.0
 11
2.414037749159997
 21
7.627646053014059
 31
0.0
  0
LINE
  5
15A
330
156
100
AcDbEntity
  8
DIM
 62
     0
370
    -2
100
AcDbLine
 10
2.294037749159997
 20
7.627646053014059
 30
0.0
 11
2.034037749159995
 21
7.627646053014059
 31
0.0
  0
SOLID
  5
15B
330
156
100
AcDbEntity
  8
DIM
 62
     0
100
AcDbTrace
 10
2.483991630238461
 20
7.647646053014058
 30
0.0
 11
2.483991630238461
 21
7.607646053014058
 31
0.0
 12
2.603991630238461
 22
7.627646053014059
 32
0.0
 13
2.603991630238461
 23
7.627646053014059
 33
0.0
  0
SOLID
  5
15C
330
156
100
AcDbEntity
  8
DIM
 62
     0
100
AcDbTrace
 10
2.414037749159997
 20
7.647646053014058
 30
0.0
 11
2.414037749159997
 21
7.607646053014058
 31
0.0
 12
2.294037749159997
 22
7.627646053014059
 32
0.0
 13
2.294037749159997
 23
7.627646053014059
 33
0.0
  0
MTEXT
  5
15D
330
156
100
AcDbEntity
  8
DIM
 62
     0
100
AcDbMText
 10
1.893812646840759
 20
7.627646053014059
 30
0.0
 40
0.1
 41
0.0
 71
     5
 72
     1
  1
\A1;0.31
 73
     1
 44
1.0
1001
ACAD
1000
MTEXTBEGIN
1070
    73
1070
     1
1070
    44
1040
1.0
1070
    74
1070
     0
1000
MTEXTEND
1000
MTEXTBEGIN
1070
    73
1070
     1
1070
    44
1040
1.0
1070
    74
1070
     0
1000
MTEXTEND
1000
MTEXTBEGIN
1070
    73
1070
     1
1070
    44
1040
1.0
1070
    74
1070
     0
1000
MTEXTEND
1000
MTEXTBEGIN
1070
    73
1070
     1
1070
    44
1040
1.0
1070
    74
1070
     0
1000
MTEXTEND
1000
MTEXTBEGIN
1070
    73
1070
     1
1070
    44
1040
1.0
1070
    74
1070
     0
1000
MTEXTEND
  0
POINT
  5
15E
330
156
100
AcDbEntity
  8
Defpoints
 62
     0
100
AcDbPoint
 10
2.294037749159997
 20
7.839502212867659
 30
0.0
  0
POINT
  5
15F
330
156
100
AcDbEntity
  8
Defpoints
 62
     0
100
AcDbPoint
 10
2.603991630238461
 20
7.839502212867659
 30
0.0
  0
POINT
  5
160
330
156
100
AcDbEntity
  8
Defpoints
 62
     0
100
AcDbPoint
 10
2.603991630238461
 20
7.627646053014059
 30
0.0
  0
ENDBLK
  5
162
330
156
100
AcDbEntity
  8
0
100
AcDbBlockEnd
  0
BLOCK
  5
12B
330
120
100
AcDbEntity
  8
0
100
AcDbBlockBegin
  2
*D6
 70
     1
 10
0.0
 20
0.0
 30
0.0
  3
*D6
  1

  0
LINE
  5
121
330
120
100
AcDbEntity
  8
DIM
 62
     0
370
    -2
100
AcDbLine
 10
2.599014689699229
 20
8.92950221286766
 30
0.0
 11
3.789070966625046
 21
8.92950221286766
 31
0.0
  0
LINE
  5
122
330
120
100
AcDbEntity
  8
DIM
 62
     0
370
    -2
100
AcDbLine
 10
2.66399163023846
 20
8.269502212867662
 30
0.0
 11
3.789070966625046
 21
8.269502212867662
 31
0.0
  0
LINE
  5
123
330
120
100
AcDbEntity
  8
DIM
 62
     0
370
    -2
100
AcDbLine
 10
3.719070966625046
 20
8.809502212867661
 30
0.0
 11
3.719070966625046
 21
8.768592708547517
 31
0.0
  0
LINE
  5
124
330
120
100
AcDbEntity
  8
DIM
 62
     0
370
    -2
100
AcDbLine
 10
3.719070966625046
 20
8.389502212867661
 30
0.0
 11
3.719070966625046
 21
8.430411717187807
 31
0.0
  0
SOLID
  5
125
330
120
100
AcDbEntity
  8
DIM
 62
     0
100
AcDbTrace
 10
3.699070966625046
 20
8.809502212867661
 30
0.0
 11
3.739070966625046
 21
8.809502212867661
 31
0.0
 12
3.719070966625046
 22
8.92950221286766
 32
0.0
 13
3.719070966625046
 23
8.92950221286766
 33
0.0
  0
SOLID
  5
126
330
120
100
AcDbEntity
  8
DIM
 62
     0
100
AcDbTrace
 10
3.699070966625046
 20
8.389502212867661
 30
0.0
 11
3.739070966625046
 21
8.389502212867661
 31
0.0
 12
3.719070966625046
 22
8.269502212867662
 32
0.0
 13
3.719070966625046
 23
8.269502212867662
 33
0.0
  0
MTEXT
  5
127
330
120
100
AcDbEntity
  8
DIM
 62
     0
100
AcDbMText
 10
3.719070966625044
 20
8.599502212867662
 30
0.0
 40
0.1
 41
0.0
 71
     5
 72
     1
  1
\A1;0.66\P(Short Lever)
 73
     1
 44
1.0
1001
ACAD
1000
MTEXTBEGIN
1070
    73
1070
     1
1070
    44
1040
1.0
1070
    74
1070
     0
1000
MTEXTEND
1000
MTEXTBEGIN
1070
    73
1070
     1
1070
    44
1040
1.0
1070
    74
1070
     0
1000
MTEXTEND
1000
MTEXTBEGIN
1070
    73
1070
     1
1070
    44
1040
1.0
1070
    74
1070
     0
1000
MTEXTEND
1000
MTEXTBEGIN
1070
    73
1070
     1
1070
    44
1040
1.0
1070
    74
1070
     0
1000
MTEXTEND
1000
MTEXTBEGIN
1070
    73
1070
     1
1070
    44
1040
1.0
1070
    74
1070
     0
1000
MTEXTEND
  0
POINT
  5
128
330
120
100
AcDbEntity
  8
Defpoints
 62
     0
100
AcDbPoint
 10
2.539014689699229
 20
8.92950221286766
 30
0.0
  0
POINT
  5
129
330
120
100
AcDbEntity
  8
Defpoints
 62
     0
100
AcDbPoint
 10
2.60399163023846
 20
8.269502212867662
 30
0.0
  0
POINT
  5
12A
330
120
100
AcDbEntity
  8
Defpoints
 62
     0
100
AcDbPoint
 10
3.719070966625046
 20
8.269502212867662
 30
0.0
  0
ENDBLK
  5
12C
330
120
100
AcDbEntity
  8
0
100
AcDbBlockEnd
  0
BLOCK
  5
45
330
39
100
AcDbEntity
  8
0
100
AcDbBlockBegin
  2
*D7
 70
     1
 10
0.0
 20
0.0
 30
0.0
  3
*D7
  1

  0
LINE
  5
3A
330
39
100
AcDbEntity
  8
DIM
 62
     0
370
    -2
100
AcDbLine
 10
3.65134578012618
 20
5.445707237681989
 30
0.0
 11
3.432134931067036
 21
5.445707237681989
 31
0.0
  0
LINE
  5
3B
330
39
100
AcDbEntity
  8
DIM
 62
     0
370
    -2
100
AcDbLine
 10
4.274921878972717
 20
5.195707237681991
 30
0.0
 11
3.432134931067035
 21
5.195707237681991
 31
0.0
  0
LINE
  5
3C
330
39
100
AcDbEntity
  8
DIM
 62
     0
370
    -2
100
AcDbLine
 10
3.502134931067036
 20
5.07570723768199
 30
0.0
 11
3.502134931067035
 21
4.955707237681989
 31
0.0
  0
LINE
  5
3D
330
39
100
AcDbEntity
  8
DIM
 62
     0
370
    -2
100
AcDbLine
 10
3.502134931067036
 20
5.565707237681989
 30
0.0
 11
3.502134931067036
 21
5.839836261111966
 31
0.0
  0
LINE
  5
3E
330
39
100
AcDbEntity
  8
DIM
 62
     0
370
    -2
100
AcDbLine
 10
3.502134931067036
 20
5.839836261111966
 30
0.0
 11
3.622134931067036
 21
5.839836261111966
 31
0.0
  0
SOLID
  5
3F
330
39
100
AcDbEntity
  8
DIM
 62
     0
100
AcDbTrace
 10
3.482134931067036
 20
5.07570723768199
 30
0.0
 11
3.522134931067036
 21
5.07570723768199
 31
0.0
 12
3.502134931067036
 22
5.195707237681991
 32
0.0
 13
3.502134931067036
 23
5.195707237681991
 33
0.0
  0
SOLID
  5
40
330
39
100
AcDbEntity
  8
DIM
 62
     0
100
AcDbTrace
 10
3.482134931067036
 20
5.565707237681989
 30
0.0
 11
3.522134931067036
 21
5.565707237681989
 31
0.0
 12
3.502134931067036
 22
5.445707237681989
 32
0.0
 13
3.502134931067036
 23
5.445707237681989
 33
0.0
  0
MTEXT
  5
41
330
39
100
AcDbEntity
  8
DIM
 62
     0
100
AcDbMText
 10
4.36267835989832
 20
5.839836261111967
 30
0.0
 40
0.1
 41
0.0
 71
     5
 72
     1
  1
\A1;\A1;For panels {\H0.7x;\S1#8;}" to {\H0.7x;\S1#4;}" use\PLocknut D26711 
 73
     1
 44
1.0
1001
ACAD
1000
MTEXTBEGIN
1070
    73
1070
     1
1070
    44
1040
1.0
1070
    74
1070
     1
1000
MTEXTEND
1000
MTEXTBEGIN
1070
    73
1070
     1
1070
    44
1040
1.0
1070
    74
1070
     1
1000
MTEXTEND
1000
MTEXTBEGIN
1070
    73
1070
     1
1070
    44
1040
1.0
1070
    74
1070
     1
1000
MTEXTEND
1000
MTEXTBEGIN
1070
    73
1070
     1
1070
    44
1040
1.0
1070
    74
1070
     1
1000
MTEXTEND
  0
POINT
  5
42
330
39
100
AcDbEntity
  8
Defpoints
 62
     0
100
AcDbPoint
 10
3.71134578012618
 20
5.445707237681989
 30
0.0
  0
POINT
  5
43
330
39
100
AcDbEntity
  8
Defpoints
 62
     0
100
AcDbPoint
 10
4.334921878972718
 20
5.195707237681991
 30
0.0
  0
POINT
  5
44
330
39
100
AcDbEntity
  8
Defpoints
 62
     0
100
AcDbPoint
 10
3.502134931067036
 20
5.195707237681991
 30
0.0
  0
ENDBLK
  5
46
330
39
100
AcDbEntity
  8
0
100
AcDbBlockEnd
  0
BLOCK
  5
62
330
56
100
AcDbEntity
  8
0
100
AcDbBlockBegin
  2
*D8
 70
     1
 10
0.0
 20
0.0
 30
0.0
  3
*D8
  1

  0
LINE
  5
57
330
56
100
AcDbEntity
  8
DIM
 62
     0
370
    -2
100
AcDbLine
 10
1.349827214527507
 20
5.320707237681988
 30
0.0
 11
0.65165121160346
 21
5.320707237681988
 31
0.0
  0
LINE
  5
58
330
56
100
AcDbEntity
  8
DIM
 62
     0
370
    -2
100
AcDbLine
 10
1.313215562175827
 20
5.195707237681991
 30
0.0
 11
0.6516512116034599
 21
5.195707237681991
 31
0.0
  0
LINE
  5
59
330
56
100
AcDbEntity
  8
DIM
 62
     0
370
    -2
100
AcDbLine
 10
0.7216512116034599
 20
5.07570723768199
 30
0.0
 11
0.7216512116034599
 21
4.955707237681989
 31
0.0
  0
LINE
  5
5A
330
56
100
AcDbEntity
  8
DIM
 62
     0
370
    -2
100
AcDbLine
 10
0.7216512116034602
 20
5.440707237681988
 30
0.0
 11
0.7216512116034603
 21
5.837633236835062
 31
0.0
  0
LINE
  5
5B
330
56
100
AcDbEntity
  8
DIM
 62
     0
370
    -2
100
AcDbLine
 10
0.7216512116034603
 20
5.837633236835062
 30
0.0
 11
0.8416512116034601
 21
5.837633236835062
 31
0.0
  0
SOLID
  5
5C
330
56
100
AcDbEntity
  8
DIM
 62
     0
100
AcDbTrace
 10
0.7016512116034601
 20
5.07570723768199
 30
0.0
 11
0.7416512116034601
 21
5.07570723768199
 31
0.0
 12
0.7216512116034599
 22
5.195707237681991
 32
0.0
 13
0.7216512116034599
 23
5.195707237681991
 33
0.0
  0
SOLID
  5
5D
330
56
100
AcDbEntity
  8
DIM
 62
     0
100
AcDbTrace
 10
0.7016512116034602
 20
5.440707237681988
 30
0.0
 11
0.7416512116034602
 21
5.440707237681988
 31
0.0
 12
0.7216512116034602
 22
5.320707237681988
 32
0.0
 13
0.7216512116034602
 23
5.320707237681988
 33
0.0
  0
MTEXT
  5
5E
330
56
100
AcDbEntity
  8
DIM
 62
     0
100
AcDbMText
 10
1.235828110193726
 20
5.837633236835062
 30
0.0
 40
0.1
 41
0.0
 71
     5
 72
     1
  1
\A1;\A1;For panels\Pup to {\H0.7x;\S1#8;}" use\PLocknut\PD55356-1
 73
     1
 44
1.0
1001
ACAD
1000
MTEXTBEGIN
1070
    73
1070
     1
1070
    44
1040
1.0
1070
    74
1070
     1
1000
MTEXTEND
1000
MTEXTBEGIN
1070
    73
1070
     1
1070
    44
1040
1.0
1070
    74
1070
     1
1000
MTEXTEND
1000
MTEXTBEGIN
1070
    73
1070
     1
1070
    44
1040
1.0
1070
    74
1070
     1
1000
MTEXTEND
1000
MTEXTBEGIN
1070
    73
1070
     1
1070
    44
1040
1.0
1070
    74
1070
     1
1000
MTEXTEND
  0
POINT
  5
5F
330
56
100
AcDbEntity
  8
Defpoints
 62
     0
100
AcDbPoint
 10
1.409827214527506
 20
5.320707237681988
 30
0.0
  0
POINT
  5
60
330
56
100
AcDbEntity
  8
Defpoints
 62
     0
100
AcDbPoint
 10
1.373215562175827
 20
5.195707237681991
 30
0.0
  0
POINT
  5
61
330
56
100
AcDbEntity
  8
Defpoints
 62
     0
100
AcDbPoint
 10
0.7216512116034599
 20
5.195707237681991
 30
0.0
  0
ENDBLK
  5
63
330
56
100
AcDbEntity
  8
0
100
AcDbBlockEnd
  0
BLOCK
  5
36
330
2A
100
AcDbEntity
  8
0
100
AcDbBlockBegin
  2
*D9
 70
     1
 10
0.0
 20
0.0
 30
0.0
  3
*D9
  1

  0
LINE
  5
2B
330
2A
100
AcDbEntity
  8
DIM
 62
     0
370
    -2
100
AcDbLine
 10
2.599014689699229
 20
8.92950221286766
 30
0.0
 11
4.6204362683358
 21
8.929502212867658
 31
0.0
  0
LINE
  5
2C
330
2A
100
AcDbEntity
  8
DIM
 62
     0
370
    -2
100
AcDbLine
 10
2.663991630238461
 20
7.839502212867659
 30
0.0
 11
4.6204362683358
 21
7.839502212867659
 31
0.0
  0
LINE
  5
2D
330
2A
100
AcDbEntity
  8
DIM
 62
     0
370
    -2
100
AcDbLine
 10
4.550436268335801
 20
8.809502212867657
 30
0.0
 11
4.550436268335801
 21
8.553592708547514
 31
0.0
  0
LINE
  5
2E
330
2A
100
AcDbEntity
  8
DIM
 62
     0
370
    -2
100
AcDbLine
 10
4.550436268335801
 20
7.95950221286766
 30
0.0
 11
4.550436268335801
 21
8.215411717187802
 31
0.0
  0
SOLID
  5
2F
330
2A
100
AcDbEntity
  8
DIM
 62
     0
100
AcDbTrace
 10
4.5304362683358
 20
8.809502212867657
 30
0.0
 11
4.570436268335799
 21
8.809502212867657
 31
0.0
 12
4.550436268335801
 22
8.929502212867658
 32
0.0
 13
4.550436268335801
 23
8.929502212867658
 33
0.0
  0
SOLID
  5
30
330
2A
100
AcDbEntity
  8
DIM
 62
     0
100
AcDbTrace
 10
4.5304362683358
 20
7.95950221286766
 30
0.0
 11
4.570436268335799
 21
7.95950221286766
 31
0.0
 12
4.550436268335801
 22
7.839502212867659
 32
0.0
 13
4.550436268335801
 23
7.839502212867659
 33
0.0
  0
MTEXT
  5
31
330
2A
100
AcDbEntity
  8
DIM
 62
     0
100
AcDbMText
 10
4.550436268335799
 20
8.38450221286766
 30
0.0
 40
0.1
 41
0.0
 71
     5
 72
     1
  1
\A1;1.09\P(Long Lever)
 73
     1
 44
1.0
1001
ACAD
1000
MTEXTBEGIN
1070
    73
1070
     1
1070
    44
1040
1.0
1070
    74
1070
     0
1000
MTEXTEND
1000
MTEXTBEGIN
1070
    73
1070
     1
1070
    44
1040
1.0
1070
    74
1070
     0
1000
MTEXTEND
1000
MTEXTBEGIN
1070
    73
1070
     1
1070
    44
1040
1.0
1070
    74
1070
     0
1000
MTEXTEND
1000
MTEXTBEGIN
1070
    73
1070
     1
1070
    44
1040
1.0
1070
    74
1070
     0
1000
MTEXTEND
1000
MTEXTBEGIN
1070
    73
1070
     1
1070
    44
1040
1.0
1070
    74
1070
     0
1000
MTEXTEND
  0
POINT
  5
32
330
2A
100
AcDbEntity
  8
Defpoints
 62
     0
100
AcDbPoint
 10
2.539014689699229
 20
8.92950221286766
 30
0.0
  0
POINT
  5
34
330
2A
100
AcDbEntity
  8
Defpoints
 62
     0
100
AcDbPoint
 10
2.603991630238461
 20
7.839502212867659
 30
0.0
  0
POINT
  5
35
330
2A
100
AcDbEntity
  8
Defpoints
 62
     0
100
AcDbPoint
 10
4.550436268335801
 20
7.839502212867659
 30
0.0
  0
ENDBLK
  5
37
330
2A
100
AcDbEntity
  8
0
100
AcDbBlockEnd
  0
BLOCK
  5
220
330
215
100
AcDbEntity
  8
0
100
AcDbBlockBegin
  2
*D10
 70
     1
 10
0.0
 20
0.0
 30
0.0
  3
*D10
  1

  0
LINE
  5
216
330
215
100
AcDbEntity
  8
DIM
 62
     0
370
    -2
100
AcDbLine
 10
5.762584578009589
 20
4.25070723768197
 30
0.0
 11
5.762584578009589
 21
3.365709104672848
 31
0.0
  0
LINE
  5
217
330
215
100
AcDbEntity
  8
DIM
 62
     0
370
    -2
100
AcDbLine
 10
7.402421383198581
 20
4.25070723768197
 30
0.0
 11
7.402421383198581
 21
3.365709104672848
 31
0.0
  0
LINE
  5
218
330
215
100
AcDbEntity
  8
DIM
 62
     0
370
    -2
100
AcDbLine
 10
5.88258457800959
 20
3.435709104672848
 30
0.0
 11
6.437537087016091
 21
3.435709104672848
 31
0.0
  0
LINE
  5
219
330
215
100
AcDbEntity
  8
DIM
 62
     0
370
    -2
100
AcDbLine
 10
7.282421383198581
 20
3.435709104672848
 30
0.0
 11
6.72746887419208
 21
3.435709104672848
 31
0.0
  0
SOLID
  5
21A
330
215
100
AcDbEntity
  8
DIM
 62
     0
100
AcDbTrace
 10
5.88258457800959
 20
3.455709104672848
 30
0.0
 11
5.88258457800959
 21
3.415709104672848
 31
0.0
 12
5.762584578009589
 22
3.435709104672848
 32
0.0
 13
5.762584578009589
 23
3.435709104672848
 33
0.0
  0
SOLID
  5
21B
330
215
100
AcDbEntity
  8
DIM
 62
     0
100
AcDbTrace
 10
7.282421383198581
 20
3.455709104672848
 30
0.0
 11
7.282421383198581
 21
3.415709104672848
 31
0.0
 12
7.402421383198581
 22
3.435709104672848
 32
0.0
 13
7.402421383198581
 23
3.435709104672848
 33
0.0
  0
MTEXT
  5
21C
330
215
100
AcDbEntity
  8
DIM
 62
     0
100
AcDbMText
 10
6.582502980604085
 20
3.435709104672848
 30
0.0
 40
0.1
 41
0.0
 71
     5
 72
     1
  1
\A1;1.64
 73
     1
 44
1.0
1001
ACAD
1000
MTEXTBEGIN
1070
    73
1070
     1
1070
    44
1040
1.0
1070
    74
1070
     0
1000
MTEXTEND
1000
MTEXTBEGIN
1070
    73
1070
     1
1070
    44
1040
1.0
1070
    74
1070
     0
1000
MTEXTEND
1000
MTEXTBEGIN
1070
    73
1070
     1
1070
    44
1040
1.0
1070
    74
1070
     0
1000
MTEXTEND
1000
MTEXTBEGIN
1070
    73
1070
     1
1070
    44
1040
1.0
1070
    74
1070
     0
1000
MTEXTEND
  0
POINT
  5
21D
330
215
100
AcDbEntity
  8
Defpoints
 62
     0
100
AcDbPoint
 10
5.762584578009589
 20
4.310707237681969
 30
0.0
  0
POINT
  5
21E
330
215
100
AcDbEntity
  8
Defpoints
 62
     0
100
AcDbPoint
 10
7.402421383198581
 20
4.310707237681969
 30
0.0
  0
POINT
  5
21F
330
215
100
AcDbEntity
  8
Defpoints
 62
     0
100
AcDbPoint
 10
7.402421383198581
 20
3.435709104672848
 30
0.0
  0
ENDBLK
  5
221
330
215
100
AcDbEntity
  8
0
100
AcDbBlockEnd
  0
BLOCK
  5
A8
330
9D
100
AcDbEntity
  8
0
100
AcDbBlockBegin
  2
*D11
 70
     1
 10
0.0
 20
0.0
 30
0.0
  3
*D11
  1

  0
LINE
  5
9E
330
9D
100
AcDbEntity
  8
DIM
 62
     0
370
    -2
100
AcDbLine
 10
2.449014689699228
 20
3.526013933253681
 30
0.0
 11
2.449014689699228
 21
3.365709104672848
 31
0.0
  0
LINE
  5
9F
330
9D
100
AcDbEntity
  8
DIM
 62
     0
370
    -2
100
AcDbLine
 10
3.509313955384357
 20
4.250707237681972
 30
0.0
 11
3.509313955384357
 21
3.365709104672848
 31
0.0
  0
LINE
  5
A0
330
9D
100
AcDbEntity
  8
DIM
 62
     0
370
    -2
100
AcDbLine
 10
2.569014689699228
 20
3.435709104672848
 30
0.0
 11
2.834027896893771
 21
3.435709104672848
 31
0.0
  0
LINE
  5
A1
330
9D
100
AcDbEntity
  8
DIM
 62
     0
370
    -2
100
AcDbLine
 10
3.389313955384356
 20
3.435709104672848
 30
0.0
 11
3.124300748189813
 21
3.435709104672848
 31
0.0
  0
SOLID
  5
A2
330
9D
100
AcDbEntity
  8
DIM
 62
     0
100
AcDbTrace
 10
2.569014689699228
 20
3.455709104672848
 30
0.0
 11
2.569014689699228
 21
3.415709104672848
 31
0.0
 12
2.449014689699228
 22
3.435709104672848
 32
0.0
 13
2.449014689699228
 23
3.435709104672848
 33
0.0
  0
SOLID
  5
A3
330
9D
100
AcDbEntity
  8
DIM
 62
     0
100
AcDbTrace
 10
3.389313955384356
 20
3.455709104672848
 30
0.0
 11
3.389313955384356
 21
3.415709104672848
 31
0.0
 12
3.509313955384357
 22
3.435709104672848
 32
0.0
 13
3.509313955384357
 23
3.435709104672848
 33
0.0
  0
MTEXT
  5
A4
330
9D
100
AcDbEntity
  8
DIM
 62
     0
100
AcDbMText
 10
2.979164322541793
 20
3.435709104672848
 30
0.0
 40
0.1
 41
0.0
 71
     5
 72
     1
  1
\A1;1.06
 73
     1
 44
1.0
1001
ACAD
1000
MTEXTBEGIN
1070
    73
1070
     1
1070
    44
1040
1.0
1070
    74
1070
     0
1000
MTEXTEND
1000
MTEXTBEGIN
1070
    73
1070
     1
1070
    44
1040
1.0
1070
    74
1070
     0
1000
MTEXTEND
1000
MTEXTBEGIN
1070
    73
1070
     1
1070
    44
1040
1.0
1070
    74
1070
     0
1000
MTEXTEND
1000
MTEXTBEGIN
1070
    73
1070
     1
1070
    44
1040
1.0
1070
    74
1070
     0
1000
MTEXTEND
  0
POINT
  5
A5
330
9D
100
AcDbEntity
  8
Defpoints
 62
     0
100
AcDbPoint
 10
2.449014689699228
 20
3.586013933253681
 30
0.0
  0
POINT
  5
A6
330
9D
100
AcDbEntity
  8
Defpoints
 62
     0
100
AcDbPoint
 10
3.509313955384357
 20
4.31070723768197
 30
0.0
  0
POINT
  5
A7
330
9D
100
AcDbEntity
  8
Defpoints
 62
     0
100
AcDbPoint
 10
3.509313955384357
 20
3.435709104672848
 30
0.0
  0
ENDBLK
  5
A9
330
9D
100
AcDbEntity
  8
0
100
AcDbBlockEnd
  0
BLOCK
  5
80
330
75
100
AcDbEntity
  8
0
100
AcDbBlockBegin
  2
*D12
 70
     1
 10
0.0
 20
0.0
 30
0.0
  3
*D12
  1

  0
LINE
  5
76
330
75
100
AcDbEntity
  8
DIM
 62
     0
370
    -2
100
AcDbLine
 10
1.3887154240141
 20
4.250707237681972
 30
0.0
 11
1.3887154240141
 21
3.041838848131628
 31
0.0
  0
LINE
  5
77
330
75
100
AcDbEntity
  8
DIM
 62
     0
370
    -2
100
AcDbLine
 10
3.509313955384357
 20
4.250707237681972
 30
0.0
 11
3.509313955384357
 21
3.041838848131628
 31
0.0
  0
LINE
  5
78
330
75
100
AcDbEntity
  8
DIM
 62
     0
370
    -2
100
AcDbLine
 10
1.5087154240141
 20
3.111838848131628
 30
0.0
 11
2.298796408662393
 21
3.111838848131628
 31
0.0
  0
LINE
  5
79
330
75
100
AcDbEntity
  8
DIM
 62
     0
370
    -2
100
AcDbLine
 10
3.389313955384356
 20
3.111838848131628
 30
0.0
 11
2.599232970736064
 21
3.111838848131628
 31
0.0
  0
SOLID
  5
7A
330
75
100
AcDbEntity
  8
DIM
 62
     0
100
AcDbTrace
 10
1.5087154240141
 20
3.131838848131628
 30
0.0
 11
1.5087154240141
 21
3.091838848131628
 31
0.0
 12
1.3887154240141
 22
3.111838848131628
 32
0.0
 13
1.3887154240141
 23
3.111838848131628
 33
0.0
  0
SOLID
  5
7B
330
75
100
AcDbEntity
  8
DIM
 62
     0
100
AcDbTrace
 10
3.389313955384356
 20
3.131838848131628
 30
0.0
 11
3.389313955384356
 21
3.091838848131628
 31
0.0
 12
3.509313955384357
 22
3.111838848131628
 32
0.0
 13
3.509313955384357
 23
3.111838848131628
 33
0.0
  0
MTEXT
  5
7C
330
75
100
AcDbEntity
  8
DIM
 62
     0
100
AcDbMText
 10
2.449014689699228
 20
3.111838848131628
 30
0.0
 40
0.1
 41
0.0
 71
     5
 72
     1
  1
\A1;2.12
 73
     1
 44
1.0
1001
ACAD
1000
MTEXTBEGIN
1070
    73
1070
     1
1070
    44
1040
1.0
1070
    74
1070
     0
1000
MTEXTEND
1000
MTEXTBEGIN
1070
    73
1070
     1
1070
    44
1040
1.0
1070
    74
1070
     0
1000
MTEXTEND
1000
MTEXTBEGIN
1070
    73
1070
     1
1070
    44
1040
1.0
1070
    74
1070
     0
1000
MTEXTEND
1000
MTEXTBEGIN
1070
    73
1070
     1
1070
    44
1040
1.0
1070
    74
1070
     0
1000
MTEXTEND
  0
POINT
  5
7D
330
75
100
AcDbEntity
  8
Defpoints
 62
     0
100
AcDbPoint
 10
1.3887154240141
 20
4.31070723768197
 30
0.0
  0
POINT
  5
7E
330
75
100
AcDbEntity
  8
Defpoints
 62
     0
100
AcDbPoint
 10
3.509313955384357
 20
4.31070723768197
 30
0.0
  0
POINT
  5
7F
330
75
100
AcDbEntity
  8
Defpoints
 62
     0
100
AcDbPoint
 10
3.509313955384357
 20
3.111838848131628
 30
0.0
  0
ENDBLK
  5
81
330
75
100
AcDbEntity
  8
0
100
AcDbBlockEnd
  0
BLOCK
  5
E9
330
DE
100
AcDbEntity
  8
0
100
AcDbBlockBegin
  2
*D13
 70
     1
 10
0.0
 20
0.0
 30
0.0
  3
*D13
  1

  0
LINE
  5
DF
330
DE
100
AcDbEntity
  8
DIM
 62
     0
370
    -2
100
AcDbLine
 10
3.305154690139678
 20
4.885707237681992
 30
0.0
 11
3.877196110729521
 21
4.885707237681992
 31
0.0
  0
LINE
  5
E0
330
DE
100
AcDbEntity
  8
DIM
 62
     0
370
    -2
100
AcDbLine
 10
3.398480638320736
 20
3.885707237681978
 30
0.0
 11
3.877196110729521
 21
3.885707237681978
 31
0.0
  0
LINE
  5
E1
330
DE
100
AcDbEntity
  8
DIM
 62
     0
370
    -2
100
AcDbLine
 10
3.807196110729519
 20
4.765707237681992
 30
0.0
 11
3.807196110729519
 21
4.456764536454155
 31
0.0
  0
LINE
  5
E2
330
DE
100
AcDbEntity
  8
DIM
 62
     0
370
    -2
100
AcDbLine
 10
3.807196110729519
 20
4.00570723768198
 30
0.0
 11
3.807196110729519
 21
4.314649938909815
 31
0.0
  0
SOLID
  5
E3
330
DE
100
AcDbEntity
  8
DIM
 62
     0
100
AcDbTrace
 10
3.787196110729519
 20
4.765707237681992
 30
0.0
 11
3.827196110729519
 21
4.765707237681992
 31
0.0
 12
3.807196110729519
 22
4.885707237681992
 32
0.0
 13
3.807196110729519
 23
4.885707237681992
 33
0.0
  0
SOLID
  5
E4
330
DE
100
AcDbEntity
  8
DIM
 62
     0
100
AcDbTrace
 10
3.787196110729519
 20
4.00570723768198
 30
0.0
 11
3.827196110729519
 21
4.00570723768198
 31
0.0
 12
3.807196110729519
 22
3.885707237681978
 32
0.0
 13
3.807196110729519
 23
3.885707237681978
 33
0.0
  0
MTEXT
  5
E5
330
DE
100
AcDbEntity
  8
DIM
 62
     0
100
AcDbMText
 10
3.807196110729519
 20
4.385707237681987
 30
0.0
 40
0.1
 41
0.0
 71
     5
 72
     1
  1
\A1;1.00
 73
     1
 44
1.0
1001
ACAD
1000
MTEXTBEGIN
1070
    73
1070
     1
1070
    44
1040
1.0
1070
    74
1070
     0
1000
MTEXTEND
1000
MTEXTBEGIN
1070
    73
1070
     1
1070
    44
1040
1.0
1070
    74
1070
     0
1000
MTEXTEND
1000
MTEXTBEGIN
1070
    73
1070
     1
1070
    44
1040
1.0
1070
    74
1070
     0
1000
MTEXTEND
1000
MTEXTBEGIN
1070
    73
1070
     1
1070
    44
1040
1.0
1070
    74
1070
     0
1000
MTEXTEND
  0
POINT
  5
E6
330
DE
100
AcDbEntity
  8
Defpoints
 62
     0
100
AcDbPoint
 10
3.245154690139678
 20
4.885707237681992
 30
0.0
  0
POINT
  5
E7
330
DE
100
AcDbEntity
  8
Defpoints
 62
     0
100
AcDbPoint
 10
3.338480638320736
 20
3.885707237681978
 30
0.0
  0
POINT
  5
E8
330
DE
100
AcDbEntity
  8
Defpoints
 62
     0
100
AcDbPoint
 10
3.807196110729519
 20
3.885707237681978
 30
0.0
  0
ENDBLK
  5
EA
330
DE
100
AcDbEntity
  8
0
100
AcDbBlockEnd
  0
BLOCK
  5
377
330
36C
100
AcDbEntity
  8
0
100
AcDbBlockBegin
  2
*D14
 70
     1
 10
0.0
 20
0.0
 30
0.0
  3
*D14
  1

  0
LINE
  5
36D
330
36C
100
AcDbEntity
  8
DIM
 62
     0
370
    -2
100
AcDbLine
 10
3.481605396251012
 20
3.233612099220279
 30
0.0
 11
3.82570057524853
 21
3.233612099220279
 31
0.0
  0
LINE
  5
36E
330
36C
100
AcDbEntity
  8
DIM
 62
     0
370
    -2
100
AcDbLine
 10
3.042608500970034
 20
1.923612099220266
 30
0.0
 11
3.82570057524853
 21
1.923612099220266
 31
0.0
  0
LINE
  5
36F
330
36C
100
AcDbEntity
  8
DIM
 62
     0
370
    -2
100
AcDbLine
 10
3.755700575248531
 20
3.113612099220278
 30
0.0
 11
3.75570057524853
 21
2.649703504404447
 31
0.0
  0
LINE
  5
370
330
36C
100
AcDbEntity
  8
DIM
 62
     0
370
    -2
100
AcDbLine
 10
3.75570057524853
 20
2.043612099220266
 30
0.0
 11
3.75570057524853
 21
2.507520694036097
 31
0.0
  0
SOLID
  5
371
330
36C
100
AcDbEntity
  8
DIM
 62
     0
100
AcDbTrace
 10
3.735700575248531
 20
3.113612099220278
 30
0.0
 11
3.775700575248531
 21
3.113612099220278
 31
0.0
 12
3.755700575248531
 22
3.233612099220279
 32
0.0
 13
3.755700575248531
 23
3.233612099220279
 33
0.0
  0
SOLID
  5
372
330
36C
100
AcDbEntity
  8
DIM
 62
     0
100
AcDbTrace
 10
3.73570057524853
 20
2.043612099220266
 30
0.0
 11
3.77570057524853
 21
2.043612099220266
 31
0.0
 12
3.75570057524853
 22
1.923612099220266
 32
0.0
 13
3.75570057524853
 23
1.923612099220266
 33
0.0
  0
MTEXT
  5
373
330
36C
100
AcDbEntity
  8
DIM
 62
     0
100
AcDbMText
 10
3.75570057524853
 20
2.578612099220273
 30
0.0
 40
0.1
 41
0.0
 71
     5
 72
     1
  1
\A1;1.31
 73
     1
 44
1.0
  0
POINT
  5
374
330
36C
100
AcDbEntity
  8
Defpoints
 62
     0
100
AcDbPoint
 10
3.421605396251012
 20
3.233612099220279
 30
0.0
  0
POINT
  5
375
330
36C
100
AcDbEntity
  8
Defpoints
 62
     0
100
AcDbPoint
 10
2.982608500970034
 20
1.923612099220266
 30
0.0
  0
POINT
  5
376
330
36C
100
AcDbEntity
  8
Defpoints
 62
     0
100
AcDbPoint
 10
3.75570057524853
 20
1.923612099220266
 30
0.0
  0
ENDBLK
  5
378
330
36C
100
AcDbEntity
  8
0
100
AcDbBlockEnd
  0
BLOCK
  5
385
330
379
100
AcDbEntity
  8
0
100
AcDbBlockBegin
  2
*D15
 70
     1
 10
0.0
 20
0.0
 30
0.0
  3
*D15
  1

  0
LINE
  5
37A
330
379
100
AcDbEntity
  8
DIM
 62
     0
370
    -2
100
AcDbLine
 10
3.295473642775478
 20
3.483612099220277
 30
0.0
 11
3.076262793716332
 21
3.483612099220277
 31
0.0
  0
LINE
  5
37B
330
379
100
AcDbEntity
  8
DIM
 62
     0
370
    -2
100
AcDbLine
 10
3.919049741622016
 20
3.233612099220279
 30
0.0
 11
3.076262793716332
 21
3.233612099220279
 31
0.0
  0
LINE
  5
37C
330
379
100
AcDbEntity
  8
DIM
 62
     0
370
    -2
100
AcDbLine
 10
3.146262793716332
 20
3.113612099220278
 30
0.0
 11
3.146262793716332
 21
2.993612099220278
 31
0.0
  0
LINE
  5
37D
330
379
100
AcDbEntity
  8
DIM
 62
     0
370
    -2
100
AcDbLine
 10
3.146262793716332
 20
3.603612099220277
 30
0.0
 11
3.146262793716332
 21
3.877741122650255
 31
0.0
  0
LINE
  5
37E
330
379
100
AcDbEntity
  8
DIM
 62
     0
370
    -2
100
AcDbLine
 10
3.146262793716332
 20
3.877741122650255
 30
0.0
 11
3.266262793716332
 21
3.877741122650255
 31
0.0
  0
SOLID
  5
37F
330
379
100
AcDbEntity
  8
DIM
 62
     0
100
AcDbTrace
 10
3.126262793716332
 20
3.113612099220278
 30
0.0
 11
3.166262793716332
 21
3.113612099220278
 31
0.0
 12
3.146262793716332
 22
3.233612099220279
 32
0.0
 13
3.146262793716332
 23
3.233612099220279
 33
0.0
  0
SOLID
  5
380
330
379
100
AcDbEntity
  8
DIM
 62
     0
100
AcDbTrace
 10
3.126262793716332
 20
3.603612099220277
 30
0.0
 11
3.166262793716332
 21
3.603612099220277
 31
0.0
 12
3.146262793716332
 22
3.483612099220277
 32
0.0
 13
3.146262793716332
 23
3.483612099220277
 33
0.0
  0
MTEXT
  5
381
330
379
100
AcDbEntity
  8
DIM
 62
     0
100
AcDbMText
 10
4.006806222547618
 20
3.877741122650255
 30
0.0
 40
0.1
 41
0.0
 71
     5
 72
     1
  1
\A1;\A1;For panels {\H0.7x;\S1#8;}" to {\H0.7x;\S1#4;}" use\PLocknut D26711 
 73
     1
 44
1.0
  0
POINT
  5
382
330
379
100
AcDbEntity
  8
Defpoints
 62
     0
100
AcDbPoint
 10
3.355473642775478
 20
3.483612099220277
 30
0.0
  0
POINT
  5
383
330
379
100
AcDbEntity
  8
Defpoints
 62
     0
100
AcDbPoint
 10
3.979049741622016
 20
3.233612099220279
 30
0.0
  0
POINT
  5
384
330
379
100
AcDbEntity
  8
Defpoints
 62
     0
100
AcDbPoint
 10
3.146262793716332
 20
3.233612099220279
 30
0.0
  0
ENDBLK
  5
386
330
379
100
AcDbEntity
  8
0
100
AcDbBlockEnd
  0
BLOCK
  5
392
330
387
100
AcDbEntity
  8
0
100
AcDbBlockBegin
  2
*D16
 70
     1
 10
0.0
 20
0.0
 30
0.0
  3
*D16
  1

  0
LINE
  5
388
330
387
100
AcDbEntity
  8
DIM
 62
     0
370
    -2
100
AcDbLine
 10
2.243142552348527
 20
6.967407074405948
 30
0.0
 11
4.2645641309851
 21
6.967407074405948
 31
0.0
  0
LINE
  5
389
330
387
100
AcDbEntity
  8
DIM
 62
     0
370
    -2
100
AcDbLine
 10
2.308119492887759
 20
5.877407074405947
 30
0.0
 11
4.264564130985099
 21
5.877407074405947
 31
0.0
  0
LINE
  5
38A
330
387
100
AcDbEntity
  8
DIM
 62
     0
370
    -2
100
AcDbLine
 10
4.194564130985099
 20
6.847407074405948
 30
0.0
 11
4.194564130985099
 21
6.591497570085802
 31
0.0
  0
LINE
  5
38B
330
387
100
AcDbEntity
  8
DIM
 62
     0
370
    -2
100
AcDbLine
 10
4.194564130985098
 20
5.997407074405947
 30
0.0
 11
4.194564130985099
 21
6.253316578726093
 31
0.0
  0
SOLID
  5
38C
330
387
100
AcDbEntity
  8
DIM
 62
     0
100
AcDbTrace
 10
4.1745641309851
 20
6.847407074405948
 30
0.0
 11
4.214564130985099
 21
6.847407074405948
 31
0.0
 12
4.194564130985099
 22
6.967407074405948
 32
0.0
 13
4.194564130985099
 23
6.967407074405948
 33
0.0
  0
SOLID
  5
38D
330
387
100
AcDbEntity
  8
DIM
 62
     0
100
AcDbTrace
 10
4.174564130985099
 20
5.997407074405947
 30
0.0
 11
4.214564130985098
 21
5.997407074405947
 31
0.0
 12
4.194564130985098
 22
5.877407074405947
 32
0.0
 13
4.194564130985098
 23
5.877407074405947
 33
0.0
  0
MTEXT
  5
38E
330
387
100
AcDbEntity
  8
DIM
 62
     0
100
AcDbMText
 10
4.194564130985098
 20
6.422407074405948
 30
0.0
 40
0.1
 41
0.0
 71
     5
 72
     1
  1
\A1;1.09\P(Long Lever)
 73
     1
 44
1.0
  0
POINT
  5
38F
330
387
100
AcDbEntity
  8
Defpoints
 62
     0
100
AcDbPoint
 10
2.183142552348527
 20
6.967407074405948
 30
0.0
  0
POINT
  5
390
330
387
100
AcDbEntity
  8
Defpoints
 62
     0
100
AcDbPoint
 10
2.248119492887759
 20
5.877407074405947
 30
0.0
  0
POINT
  5
391
330
387
100
AcDbEntity
  8
Defpoints
 62
     0
100
AcDbPoint
 10
4.194564130985098
 20
5.877407074405947
 30
0.0
  0
ENDBLK
  5
393
330
387
100
AcDbEntity
  8
0
100
AcDbBlockEnd
  0
BLOCK
  5
3A0
330
394
100
AcDbEntity
  8
0
100
AcDbBlockBegin
  2
*D17
 70
     1
 10
0.0
 20
0.0
 30
0.0
  3
*D17
  1

  0
LINE
  5
395
330
394
100
AcDbEntity
  8
DIM
 62
     0
370
    -2
100
AcDbLine
 10
0.9939550771768047
 20
3.358612099220276
 30
0.0
 11
0.2957790742527569
 21
3.358612099220276
 31
0.0
  0
LINE
  5
396
330
394
100
AcDbEntity
  8
DIM
 62
     0
370
    -2
100
AcDbLine
 10
0.9573434248251249
 20
3.233612099220279
 30
0.0
 11
0.2957790742527569
 21
3.233612099220279
 31
0.0
  0
LINE
  5
397
330
394
100
AcDbEntity
  8
DIM
 62
     0
370
    -2
100
AcDbLine
 10
0.3657790742527569
 20
3.113612099220279
 30
0.0
 11
0.3657790742527569
 21
2.993612099220279
 31
0.0
  0
LINE
  5
398
330
394
100
AcDbEntity
  8
DIM
 62
     0
370
    -2
100
AcDbLine
 10
0.365779074252757
 20
3.478612099220276
 30
0.0
 11
0.3657790742527571
 21
3.87553809837335
 31
0.0
  0
LINE
  5
399
330
394
100
AcDbEntity
  8
DIM
 62
     0
370
    -2
100
AcDbLine
 10
0.3657790742527571
 20
3.87553809837335
 30
0.0
 11
0.4857790742527572
 21
3.87553809837335
 31
0.0
  0
SOLID
  5
39A
330
394
100
AcDbEntity
  8
DIM
 62
     0
100
AcDbTrace
 10
0.3457790742527569
 20
3.113612099220279
 30
0.0
 11
0.3857790742527569
 21
3.113612099220279
 31
0.0
 12
0.3657790742527569
 22
3.233612099220279
 32
0.0
 13
0.3657790742527569
 23
3.233612099220279
 33
0.0
  0
SOLID
  5
39B
330
394
100
AcDbEntity
  8
DIM
 62
     0
100
AcDbTrace
 10
0.345779074252757
 20
3.478612099220276
 30
0.0
 11
0.3857790742527571
 21
3.478612099220276
 31
0.0
 12
0.3657790742527569
 22
3.358612099220276
 32
0.0
 13
0.3657790742527569
 23
3.358612099220276
 33
0.0
  0
MTEXT
  5
39C
330
394
100
AcDbEntity
  8
DIM
 62
     0
100
AcDbMText
 10
0.8799559728430248
 20
3.87553809837335
 30
0.0
 40
0.1
 41
0.0
 71
     5
 72
     1
  1
\A1;\A1;For panels\Pup to {\H0.7x;\S1#8;}" use\PLocknut\PD55356-1
 73
     1
 44
1.0
  0
POINT
  5
39D
330
394
100
AcDbEntity
  8
Defpoints
 62
     0
100
AcDbPoint
 10
1.053955077176804
 20
3.358612099220276
 30
0.0
  0
POINT
  5
39E
330
394
100
AcDbEntity
  8
Defpoints
 62
     0
100
AcDbPoint
 10
1.017343424825124
 20
3.233612099220279
 30
0.0
  0
POINT
  5
39F
330
394
100
AcDbEntity
  8
Defpoints
 62
     0
100
AcDbPoint
 10
0.3657790742527569
 20
3.233612099220279
 30
0.0
  0
ENDBLK
  5
3A1
330
394
100
AcDbEntity
  8
0
100
AcDbBlockEnd
  0
BLOCK
  5
3AD
330
3A2
100
AcDbEntity
  8
0
100
AcDbBlockBegin
  2
*D18
 70
     1
 10
0.0
 20
0.0
 30
0.0
  3
*D18
  1

  0
LINE
  5
3A3
330
3A2
100
AcDbEntity
  8
DIM
 62
     0
370
    -2
100
AcDbLine
 10
1.032843286663398
 20
2.288612099220258
 30
0.0
 11
1.032843286663398
 21
1.079743709669916
 31
0.0
  0
LINE
  5
3A4
330
3A2
100
AcDbEntity
  8
DIM
 62
     0
370
    -2
100
AcDbLine
 10
3.153441818033654
 20
2.288612099220258
 30
0.0
 11
3.153441818033654
 21
1.079743709669916
 31
0.0
  0
LINE
  5
3A5
330
3A2
100
AcDbEntity
  8
DIM
 62
     0
370
    -2
100
AcDbLine
 10
1.152843286663398
 20
1.149743709669916
 30
0.0
 11
1.942924271311691
 21
1.149743709669916
 31
0.0
  0
LINE
  5
3A6
330
3A2
100
AcDbEntity
  8
DIM
 62
     0
370
    -2
100
AcDbLine
 10
3.033441818033654
 20
1.149743709669916
 30
0.0
 11
2.243360833385361
 21
1.149743709669916
 31
0.0
  0
SOLID
  5
3A7
330
3A2
100
AcDbEntity
  8
DIM
 62
     0
100
AcDbTrace
 10
1.152843286663398
 20
1.169743709669916
 30
0.0
 11
1.152843286663398
 21
1.129743709669916
 31
0.0
 12
1.032843286663398
 22
1.149743709669916
 32
0.0
 13
1.032843286663398
 23
1.149743709669916
 33
0.0
  0
SOLID
  5
3A8
330
3A2
100
AcDbEntity
  8
DIM
 62
     0
100
AcDbTrace
 10
3.033441818033654
 20
1.169743709669916
 30
0.0
 11
3.033441818033654
 21
1.129743709669916
 31
0.0
 12
3.153441818033654
 22
1.149743709669916
 32
0.0
 13
3.153441818033654
 23
1.149743709669916
 33
0.0
  0
MTEXT
  5
3A9
330
3A2
100
AcDbEntity
  8
DIM
 62
     0
100
AcDbMText
 10
2.093142552348526
 20
1.149743709669916
 30
0.0
 40
0.1
 41
0.0
 71
     5
 72
     1
  1
\A1;2.12
 73
     1
 44
1.0
  0
POINT
  5
3AA
330
3A2
100
AcDbEntity
  8
Defpoints
 62
     0
100
AcDbPoint
 10
1.032843286663398
 20
2.348612099220258
 30
0.0
  0
POINT
  5
3AB
330
3A2
100
AcDbEntity
  8
Defpoints
 62
     0
100
AcDbPoint
 10
3.153441818033654
 20
2.348612099220258
 30
0.0
  0
POINT
  5
3AC
330
3A2
100
AcDbEntity
  8
Defpoints
 62
     0
100
AcDbPoint
 10
3.153441818033654
 20
1.149743709669916
 30
0.0
  0
ENDBLK
  5
3AE
330
3A2
100
AcDbEntity
  8
0
100
AcDbBlockEnd
  0
BLOCK
  5
3BA
330
3AF
100
AcDbEntity
  8
0
100
AcDbBlockBegin
  2
*D19
 70
     1
 10
0.0
 20
0.0
 30
0.0
  3
*D19
  1

  0
LINE
  5
3B0
330
3AF
100
AcDbEntity
  8
DIM
 62
     0
370
    -2
100
AcDbLine
 10
2.093142552348526
 20
1.563918794791969
 30
0.0
 11
2.093142552348526
 21
1.403613966211136
 31
0.0
  0
LINE
  5
3B1
330
3AF
100
AcDbEntity
  8
DIM
 62
     0
370
    -2
100
AcDbLine
 10
3.153441818033654
 20
2.288612099220258
 30
0.0
 11
3.153441818033654
 21
1.403613966211136
 31
0.0
  0
LINE
  5
3B2
330
3AF
100
AcDbEntity
  8
DIM
 62
     0
370
    -2
100
AcDbLine
 10
2.213142552348526
 20
1.473613966211136
 30
0.0
 11
2.478155759543069
 21
1.473613966211136
 31
0.0
  0
LINE
  5
3B3
330
3AF
100
AcDbEntity
  8
DIM
 62
     0
370
    -2
100
AcDbLine
 10
3.033441818033654
 20
1.473613966211136
 30
0.0
 11
2.768428610839112
 21
1.473613966211136
 31
0.0
  0
SOLID
  5
3B4
330
3AF
100
AcDbEntity
  8
DIM
 62
     0
100
AcDbTrace
 10
2.213142552348526
 20
1.493613966211136
 30
0.0
 11
2.213142552348526
 21
1.453613966211136
 31
0.0
 12
2.093142552348526
 22
1.473613966211136
 32
0.0
 13
2.093142552348526
 23
1.473613966211136
 33
0.0
  0
SOLID
  5
3B5
330
3AF
100
AcDbEntity
  8
DIM
 62
     0
100
AcDbTrace
 10
3.033441818033654
 20
1.493613966211136
 30
0.0
 11
3.033441818033654
 21
1.453613966211136
 31
0.0
 12
3.153441818033654
 22
1.473613966211136
 32
0.0
 13
3.153441818033654
 23
1.473613966211136
 33
0.0
  0
MTEXT
  5
3B6
330
3AF
100
AcDbEntity
  8
DIM
 62
     0
100
AcDbMText
 10
2.623292185191091
 20
1.473613966211136
 30
0.0
 40
0.1
 41
0.0
 71
     5
 72
     1
  1
\A1;1.06
 73
     1
 44
1.0
  0
POINT
  5
3B7
330
3AF
100
AcDbEntity
  8
Defpoints
 62
     0
100
AcDbPoint
 10
2.093142552348526
 20
1.623918794791969
 30
0.0
  0
POINT
  5
3B8
330
3AF
100
AcDbEntity
  8
Defpoints
 62
     0
100
AcDbPoint
 10
3.153441818033654
 20
2.348612099220258
 30
0.0
  0
POINT
  5
3B9
330
3AF
100
AcDbEntity
  8
Defpoints
 62
     0
100
AcDbPoint
 10
3.153441818033654
 20
1.473613966211136
 30
0.0
  0
ENDBLK
  5
3BB
330
3AF
100
AcDbEntity
  8
0
100
AcDbBlockEnd
  0
BLOCK
  5
3C7
330
3BC
100
AcDbEntity
  8
0
100
AcDbBlockBegin
  2
*D20
 70
     1
 10
0.0
 20
0.0
 30
0.0
  3
*D20
  1

  0
LINE
  5
3BD
330
3BC
100
AcDbEntity
  8
DIM
 62
     0
370
    -2
100
AcDbLine
 10
2.949282552788976
 20
2.92361209922028
 30
0.0
 11
3.521323973378817
 21
2.923612099220279
 31
0.0
  0
LINE
  5
3BE
330
3BC
100
AcDbEntity
  8
DIM
 62
     0
370
    -2
100
AcDbLine
 10
3.042608500970034
 20
1.923612099220266
 30
0.0
 11
3.521323973378817
 21
1.923612099220266
 31
0.0
  0
LINE
  5
3BF
330
3BC
100
AcDbEntity
  8
DIM
 62
     0
370
    -2
100
AcDbLine
 10
3.451323973378817
 20
2.803612099220279
 30
0.0
 11
3.451323973378817
 21
2.494669397992442
 31
0.0
  0
LINE
  5
3C0
330
3BC
100
AcDbEntity
  8
DIM
 62
     0
370
    -2
100
AcDbLine
 10
3.451323973378817
 20
2.043612099220266
 30
0.0
 11
3.451323973378817
 21
2.352554800448103
 31
0.0
  0
SOLID
  5
3C1
330
3BC
100
AcDbEntity
  8
DIM
 62
     0
100
AcDbTrace
 10
3.431323973378817
 20
2.803612099220279
 30
0.0
 11
3.471323973378817
 21
2.803612099220279
 31
0.0
 12
3.451323973378817
 22
2.923612099220279
 32
0.0
 13
3.451323973378817
 23
2.923612099220279
 33
0.0
  0
SOLID
  5
3C2
330
3BC
100
AcDbEntity
  8
DIM
 62
     0
100
AcDbTrace
 10
3.431323973378817
 20
2.043612099220266
 30
0.0
 11
3.471323973378817
 21
2.043612099220266
 31
0.0
 12
3.451323973378817
 22
1.923612099220266
 32
0.0
 13
3.451323973378817
 23
1.923612099220266
 33
0.0
  0
MTEXT
  5
3C3
330
3BC
100
AcDbEntity
  8
DIM
 62
     0
100
AcDbMText
 10
3.451323973378817
 20
2.423612099220274
 30
0.0
 40
0.1
 41
0.0
 71
     5
 72
     1
  1
\A1;1.00
 73
     1
 44
1.0
  0
POINT
  5
3C4
330
3BC
100
AcDbEntity
  8
Defpoints
 62
     0
100
AcDbPoint
 10
2.889282552788976
 20
2.92361209922028
 30
0.0
  0
POINT
  5
3C5
330
3BC
100
AcDbEntity
  8
Defpoints
 62
     0
100
AcDbPoint
 10
2.982608500970034
 20
1.923612099220266
 30
0.0
  0
POINT
  5
3C6
330
3BC
100
AcDbEntity
  8
Defpoints
 62
     0
100
AcDbPoint
 10
3.451323973378817
 20
1.923612099220266
 30
0.0
  0
ENDBLK
  5
3C8
330
3BC
100
AcDbEntity
  8
0
100
AcDbBlockEnd
  0
BLOCK
  5
3D4
330
3C9
100
AcDbEntity
  8
0
100
AcDbBlockBegin
  2
*D21
 70
     1
 10
0.0
 20
0.0
 30
0.0
  3
*D21
  1

  0
LINE
  5
3CA
330
3C9
100
AcDbEntity
  8
DIM
 62
     0
370
    -2
100
AcDbLine
 10
1.531831576763531
 20
7.777407074365947
 30
0.0
 11
0.852374623794175
 21
7.777407074365947
 31
0.0
  0
LINE
  5
3CB
330
3C9
100
AcDbEntity
  8
DIM
 62
     0
370
    -2
100
AcDbLine
 10
1.531831576763524
 20
6.157407074445949
 30
0.0
 11
0.8523746237941747
 21
6.157407074445949
 31
0.0
  0
LINE
  5
3CC
330
3C9
100
AcDbEntity
  8
DIM
 62
     0
370
    -2
100
AcDbLine
 10
0.9223746237941751
 20
7.657407074365947
 30
0.0
 11
0.922374623794175
 21
7.038464373178118
 31
0.0
  0
LINE
  5
3CD
330
3C9
100
AcDbEntity
  8
DIM
 62
     0
370
    -2
100
AcDbLine
 10
0.9223746237941748
 20
6.27740707444595
 30
0.0
 11
0.922374623794175
 21
6.896349775633779
 31
0.0
  0
SOLID
  5
3CE
330
3C9
100
AcDbEntity
  8
DIM
 62
     0
100
AcDbTrace
 10
0.902374623794175
 20
7.657407074365947
 30
0.0
 11
0.9423746237941751
 21
7.657407074365947
 31
0.0
 12
0.9223746237941751
 22
7.777407074365947
 32
0.0
 13
0.9223746237941751
 23
7.777407074365947
 33
0.0
  0
SOLID
  5
3CF
330
3C9
100
AcDbEntity
  8
DIM
 62
     0
100
AcDbTrace
 10
0.9023746237941749
 20
6.27740707444595
 30
0.0
 11
0.9423746237941749
 21
6.27740707444595
 31
0.0
 12
0.9223746237941748
 22
6.157407074445949
 32
0.0
 13
0.9223746237941748
 23
6.157407074445949
 33
0.0
  0
MTEXT
  5
3D0
330
3C9
100
AcDbEntity
  8
DIM
 62
     0
100
AcDbMText
 10
0.9223746237941739
 20
6.967407074405948
 30
0.0
 40
0.1
 41
0.0
 71
     5
 72
     1
  1
\A1;1.62
 73
     1
 44
1.0
  0
POINT
  5
3D1
330
3C9
100
AcDbEntity
  8
Defpoints
 62
     0
100
AcDbPoint
 10
1.591831576763531
 20
7.777407074365947
 30
0.0
  0
POINT
  5
3D2
330
3C9
100
AcDbEntity
  8
Defpoints
 62
     0
100
AcDbPoint
 10
1.591831576763524
 20
6.157407074445949
 30
0.0
  0
POINT
  5
3D3
330
3C9
100
AcDbEntity
  8
Defpoints
 62
     0
100
AcDbPoint
 10
0.9223746237941748
 20
6.157407074445949
 30
0.0
  0
ENDBLK
  5
3D5
330
3C9
100
AcDbEntity
  8
0
100
AcDbBlockEnd
  0
BLOCK
  5
3E1
330
3D6
100
AcDbEntity
  8
0
100
AcDbBlockBegin
  2
*D22
 70
     1
 10
0.0
 20
0.0
 30
0.0
  3
*D22
  1

  0
LINE
  5
3D7
330
3D6
100
AcDbEntity
  8
DIM
 62
     0
370
    -2
100
AcDbLine
 10
2.243142552348527
 20
6.967407074405948
 30
0.0
 11
3.433198829274343
 21
6.967407074405948
 31
0.0
  0
LINE
  5
3D8
330
3D6
100
AcDbEntity
  8
DIM
 62
     0
370
    -2
100
AcDbLine
 10
2.308119492887758
 20
6.30740707440595
 30
0.0
 11
3.433198829274343
 21
6.30740707440595
 31
0.0
  0
LINE
  5
3D9
330
3D6
100
AcDbEntity
  8
DIM
 62
     0
370
    -2
100
AcDbLine
 10
3.363198829274343
 20
6.847407074405948
 30
0.0
 11
3.363198829274343
 21
6.806497570085803
 31
0.0
  0
LINE
  5
3DA
330
3D6
100
AcDbEntity
  8
DIM
 62
     0
370
    -2
100
AcDbLine
 10
3.363198829274343
 20
6.42740707440595
 30
0.0
 11
3.363198829274343
 21
6.468316578726095
 31
0.0
  0
SOLID
  5
3DB
330
3D6
100
AcDbEntity
  8
DIM
 62
     0
100
AcDbTrace
 10
3.343198829274343
 20
6.847407074405948
 30
0.0
 11
3.383198829274344
 21
6.847407074405948
 31
0.0
 12
3.363198829274343
 22
6.967407074405948
 32
0.0
 13
3.363198829274343
 23
6.967407074405948
 33
0.0
  0
SOLID
  5
3DC
330
3D6
100
AcDbEntity
  8
DIM
 62
     0
100
AcDbTrace
 10
3.343198829274343
 20
6.42740707440595
 30
0.0
 11
3.383198829274344
 21
6.42740707440595
 31
0.0
 12
3.363198829274343
 22
6.30740707440595
 32
0.0
 13
3.363198829274343
 23
6.30740707440595
 33
0.0
  0
MTEXT
  5
3DD
330
3D6
100
AcDbEntity
  8
DIM
 62
     0
100
AcDbMText
 10
3.363198829274343
 20
6.63740707440595
 30
0.0
 40
0.1
 41
0.0
 71
     5
 72
     1
  1
\A1;0.66\P(Short Lever)
 73
     1
 44
1.0
  0
POINT
  5
3DE
330
3D6
100
AcDbEntity
  8
Defpoints
 62
     0
100
AcDbPoint
 10
2.183142552348527
 20
6.967407074405948
 30
0.0
  0
POINT
  5
3DF
330
3D6
100
AcDbEntity
  8
Defpoints
 62
     0
100
AcDbPoint
 10
2.248119492887758
 20
6.30740707440595
 30
0.0
  0
POINT
  5
3E0
330
3D6
100
AcDbEntity
  8
Defpoints
 62
     0
100
AcDbPoint
 10
3.363198829274343
 20
6.30740707440595
 30
0.0
  0
ENDBLK
  5
3E2
330
3D6
100
AcDbEntity
  8
0
100
AcDbBlockEnd
  0
BLOCK
  5
3EE
330
3E3
100
AcDbEntity
  8
0
100
AcDbBlockBegin
  2
*D23
 70
     1
 10
0.0
 20
0.0
 30
0.0
  3
*D23
  1

  0
LINE
  5
3E4
330
3E3
100
AcDbEntity
  8
DIM
 62
     0
370
    -2
100
AcDbLine
 10
1.938165611809294
 20
5.817407074405947
 30
0.0
 11
1.938165611809294
 21
5.595550914552346
 31
0.0
  0
LINE
  5
3E5
330
3E3
100
AcDbEntity
  8
DIM
 62
     0
370
    -2
100
AcDbLine
 10
2.248119492887759
 20
5.817407074405947
 30
0.0
 11
2.248119492887759
 21
5.595550914552346
 31
0.0
  0
LINE
  5
3E6
330
3E3
100
AcDbEntity
  8
DIM
 62
     0
370
    -2
100
AcDbLine
 10
2.128119492887759
 20
5.665550914552347
 30
0.0
 11
2.058165611809295
 21
5.665550914552347
 31
0.0
  0
LINE
  5
3E7
330
3E3
100
AcDbEntity
  8
DIM
 62
     0
370
    -2
100
AcDbLine
 10
1.938165611809294
 20
5.665550914552347
 30
0.0
 11
1.678165611809292
 21
5.665550914552347
 31
0.0
  0
SOLID
  5
3E8
330
3E3
100
AcDbEntity
  8
DIM
 62
     0
100
AcDbTrace
 10
2.128119492887759
 20
5.685550914552346
 30
0.0
 11
2.128119492887759
 21
5.645550914552347
 31
0.0
 12
2.248119492887759
 22
5.665550914552347
 32
0.0
 13
2.248119492887759
 23
5.665550914552347
 33
0.0
  0
SOLID
  5
3E9
330
3E3
100
AcDbEntity
  8
DIM
 62
     0
100
AcDbTrace
 10
2.058165611809295
 20
5.685550914552346
 30
0.0
 11
2.058165611809295
 21
5.645550914552347
 31
0.0
 12
1.938165611809294
 22
5.665550914552347
 32
0.0
 13
1.938165611809294
 23
5.665550914552347
 33
0.0
  0
MTEXT
  5
3EA
330
3E3
100
AcDbEntity
  8
DIM
 62
     0
100
AcDbMText
 10
1.537940509490056
 20
5.665550914552347
 30
0.0
 40
0.1
 41
0.0
 71
     5
 72
     1
  1
\A1;0.31
 73
     1
 44
1.0
  0
POINT
  5
3EB
330
3E3
100
AcDbEntity
  8
Defpoints
 62
     0
100
AcDbPoint
 10
1.938165611809294
 20
5.877407074405947
 30
0.0
  0
POINT
  5
3EC
330
3E3
100
AcDbEntity
  8
Defpoints
 62
     0
100
AcDbPoint
 10
2.248119492887759
 20
5.877407074405947
 30
0.0
  0
POINT
  5
3ED
330
3E3
100
AcDbEntity
  8
Defpoints
 62
     0
100
AcDbPoint
 10
2.248119492887759
 20
5.665550914552347
 30
0.0
  0
ENDBLK
  5
3EF
330
3E3
100
AcDbEntity
  8
0
100
AcDbBlockEnd
  0
BLOCK
  5
3FB
330
3F0
100
AcDbEntity
  8
0
100
AcDbBlockBegin
  2
*D24
 70
     1
 10
0.0
 20
0.0
 30
0.0
  3
*D24
  1

  0
LINE
  5
3F1
330
3F0
100
AcDbEntity
  8
DIM
 62
     0
370
    -2
100
AcDbLine
 10
1.283142552388525
 20
7.528718049990949
 30
0.0
 11
1.283142552388525
 21
8.216428033317619
 31
0.0
  0
LINE
  5
3F2
330
3F0
100
AcDbEntity
  8
DIM
 62
     0
370
    -2
100
AcDbLine
 10
2.903142552308526
 20
7.528718049990947
 30
0.0
 11
2.903142552308526
 21
8.216428033317619
 31
0.0
  0
LINE
  5
3F3
330
3F0
100
AcDbEntity
  8
DIM
 62
     0
370
    -2
100
AcDbLine
 10
1.403142552388525
 20
8.146428033317619
 30
0.0
 11
1.94848361646858
 21
8.146428033317619
 31
0.0
  0
LINE
  5
3F4
330
3F0
100
AcDbEntity
  8
DIM
 62
     0
370
    -2
100
AcDbLine
 10
2.783142552308526
 20
8.146428033317619
 30
0.0
 11
2.237801488228471
 21
8.146428033317619
 31
0.0
  0
SOLID
  5
3F5
330
3F0
100
AcDbEntity
  8
DIM
 62
     0
100
AcDbTrace
 10
1.403142552388525
 20
8.166428033317618
 30
0.0
 11
1.403142552388525
 21
8.126428033317619
 31
0.0
 12
1.283142552388525
 22
8.146428033317619
 32
0.0
 13
1.283142552388525
 23
8.146428033317619
 33
0.0
  0
SOLID
  5
3F6
330
3F0
100
AcDbEntity
  8
DIM
 62
     0
100
AcDbTrace
 10
2.783142552308526
 20
8.166428033317618
 30
0.0
 11
2.783142552308526
 21
8.126428033317619
 31
0.0
 12
2.903142552308526
 22
8.146428033317619
 32
0.0
 13
2.903142552308526
 23
8.146428033317619
 33
0.0
  0
MTEXT
  5
3F7
330
3F0
100
AcDbEntity
  8
DIM
 62
     0
100
AcDbMText
 10
2.093142552348526
 20
8.146428033317619
 30
0.0
 40
0.1
 41
0.0
 71
     5
 72
     1
  1
\A1;1.62
 73
     1
 44
1.0
  0
POINT
  5
3F8
330
3F0
100
AcDbEntity
  8
Defpoints
 62
     0
100
AcDbPoint
 10
1.283142552388525
 20
7.46871804999095
 30
0.0
  0
POINT
  5
3F9
330
3F0
100
AcDbEntity
  8
Defpoints
 62
     0
100
AcDbPoint
 10
2.903142552308526
 20
7.468718049990948
 30
0.0
  0
POINT
  5
3FA
330
3F0
100
AcDbEntity
  8
Defpoints
 62
     0
100
AcDbPoint
 10
2.903142552308526
 20
8.146428033317619
 30
0.0
  0
ENDBLK
  5
3FC
330
3F0
100
AcDbEntity
  8
0
100
AcDbBlockEnd
  0
BLOCK
  5
408
330
3FD
100
AcDbEntity
  8
0
100
AcDbBlockBegin
  2
*D25
 70
     1
 10
0.0
 20
0.0
 30
0.0
  3
*D25
  1

  0
LINE
  5
3FE
330
3FD
100
AcDbEntity
  8
DIM
 62
     0
370
    -2
100
AcDbLine
 10
5.406712440658887
 20
2.288612099220256
 30
0.0
 11
5.406712440658887
 21
1.403613966211136
 31
0.0
  0
LINE
  5
3FF
330
3FD
100
AcDbEntity
  8
DIM
 62
     0
370
    -2
100
AcDbLine
 10
7.046549245847879
 20
2.288612099220256
 30
0.0
 11
7.046549245847879
 21
1.403613966211136
 31
0.0
  0
LINE
  5
400
330
3FD
100
AcDbEntity
  8
DIM
 62
     0
370
    -2
100
AcDbLine
 10
5.526712440658887
 20
1.473613966211136
 30
0.0
 11
6.081664949665388
 21
1.473613966211136
 31
0.0
  0
LINE
  5
401
330
3FD
100
AcDbEntity
  8
DIM
 62
     0
370
    -2
100
AcDbLine
 10
6.926549245847879
 20
1.473613966211136
 30
0.0
 11
6.371596736841378
 21
1.473613966211136
 31
0.0
  0
SOLID
  5
402
330
3FD
100
AcDbEntity
  8
DIM
 62
     0
100
AcDbTrace
 10
5.526712440658887
 20
1.493613966211136
 30
0.0
 11
5.526712440658887
 21
1.453613966211136
 31
0.0
 12
5.406712440658887
 22
1.473613966211136
 32
0.0
 13
5.406712440658887
 23
1.473613966211136
 33
0.0
  0
SOLID
  5
403
330
3FD
100
AcDbEntity
  8
DIM
 62
     0
100
AcDbTrace
 10
6.926549245847879
 20
1.493613966211136
 30
0.0
 11
6.926549245847879
 21
1.453613966211136
 31
0.0
 12
7.046549245847879
 22
1.473613966211136
 32
0.0
 13
7.046549245847879
 23
1.473613966211136
 33
0.0
  0
MTEXT
  5
404
330
3FD
100
AcDbEntity
  8
DIM
 62
     0
100
AcDbMText
 10
6.226630843253383
 20
1.473613966211136
 30
0.0
 40
0.1
 41
0.0
 71
     5
 72
     1
  1
\A1;1.64
 73
     1
 44
1.0
  0
POINT
  5
405
330
3FD
100
AcDbEntity
  8
Defpoints
 62
     0
100
AcDbPoint
 10
5.406712440658887
 20
2.348612099220257
 30
0.0
  0
POINT
  5
406
330
3FD
100
AcDbEntity
  8
Defpoints
 62
     0
100
AcDbPoint
 10
7.046549245847879
 20
2.348612099220257
 30
0.0
  0
POINT
  5
407
330
3FD
100
AcDbEntity
  8
Defpoints
 62
     0
100
AcDbPoint
 10
7.046549245847879
 20
1.473613966211136
 30
0.0
  0
ENDBLK
  5
409
330
3FD
100
AcDbEntity
  8
0
100
AcDbBlockEnd
  0
BLOCK
  5
415
330
40A
100
AcDbEntity
  8
0
100
AcDbBlockBegin
  2
*D26
 70
     1
 10
0.0
 20
0.0
 30
0.0
  3
*D26
  1

  0
LINE
  5
40B
330
40A
100
AcDbEntity
  8
DIM
 62
     0
370
    -2
100
AcDbLine
 10
5.633630843253484
 20
3.632165985478065
 30
0.0
 11
5.633630843253484
 21
4.366296294527412
 31
0.0
  0
LINE
  5
40C
330
40A
100
AcDbEntity
  8
DIM
 62
     0
370
    -2
100
AcDbLine
 10
6.819630843253484
 20
3.632165985478065
 30
0.0
 11
6.819630843253484
 21
4.366296294527412
 31
0.0
  0
LINE
  5
40D
330
40A
100
AcDbEntity
  8
DIM
 62
     0
370
    -2
100
AcDbLine
 10
5.753630843253484
 20
4.296296294527412
 30
0.0
 11
6.298992293489762
 21
4.296296294527412
 31
0.0
  0
LINE
  5
40E
330
40A
100
AcDbEntity
  8
DIM
 62
     0
370
    -2
100
AcDbLine
 10
6.699630843253483
 20
4.296296294527412
 30
0.0
 11
6.589537996081849
 21
4.296296294527412
 31
0.0
  0
SOLID
  5
40F
330
40A
100
AcDbEntity
  8
DIM
 62
     0
100
AcDbTrace
 10
5.753630843253484
 20
4.316296294527411
 30
0.0
 11
5.753630843253484
 21
4.276296294527412
 31
0.0
 12
5.633630843253484
 22
4.296296294527412
 32
0.0
 13
5.633630843253484
 23
4.296296294527412
 33
0.0
  0
SOLID
  5
410
330
40A
100
AcDbEntity
  8
DIM
 62
     0
100
AcDbTrace
 10
6.699630843253483
 20
4.316296294527411
 30
0.0
 11
6.699630843253483
 21
4.276296294527412
 31
0.0
 12
6.819630843253484
 22
4.296296294527412
 32
0.0
 13
6.819630843253484
 23
4.296296294527412
 33
0.0
  0
MTEXT
  5
411
330
40A
100
AcDbEntity
  8
DIM
 62
     0
100
AcDbMText
 10
6.444265144785806
 20
4.296296294527412
 30
0.0
 40
0.1
 41
0.0
 71
     5
 72
     1
  1
\A1;1.19\PDia.
 73
     1
 44
1.0
  0
POINT
  5
412
330
40A
100
AcDbEntity
  8
Defpoints
 62
     0
100
AcDbPoint
 10
5.633630843253484
 20
3.572165985478065
 30
0.0
  0
POINT
  5
413
330
40A
100
AcDbEntity
  8
Defpoints
 62
     0
100
AcDbPoint
 10
6.819630843253484
 20
3.572165985478065
 30
0.0
  0
POINT
  5
414
330
40A
100
AcDbEntity
  8
Defpoints
 62
     0
100
AcDbPoint
 10
6.819630843253484
 20
4.296296294527412
 30
0.0
  0
ENDBLK
  5
416
330
40A
100
AcDbEntity
  8
0
100
AcDbBlockEnd
  0
ENDSEC
  0
SECTION
  2
ENTITIES
  0
DIMENSION
  5
29
330
2
100
AcDbEntity
  8
DIM
100
AcDbDimension
  2
*D16
 10
4.194564130985098
 20
5.877407074405947
 30
0.0
 11
4.194564130985098
 21
6.422407074405948
 31
0.0
 70
    32
  1
1.09\P(Long Lever)
 71
     5
 42
1.090000000000001
  3
Standard
100
AcDbAlignedDimension
 13
2.183142552348527
 23
6.967407074405948
 33
0.0
 14
2.248119492887759
 24
5.877407074405947
 34
0.0
 50
90.0
100
AcDbRotatedDimension
  0
DIMENSION
  5
38
330
2
100
AcDbEntity
  8
DIM
100
AcDbDimension
  2
*D15
 10
3.146262793716332
 20
3.233612099220279
 30
0.0
 11
4.006806222547618
 21
3.877741122650255
 31
0.0
 70
   160
  1
\A1;For panels {\H0.7x;\S1#8;}" to {\H0.7x;\S1#4;}" use\PLocknut D26711 
 71
     5
 42
0.2499999999999982
  3
Standard
100
AcDbAlignedDimension
 13
3.355473642775478
 23
3.483612099220277
 33
0.0
 14
3.979049741622016
 24
3.233612099220279
 34
0.0
 50
90.0
100
AcDbRotatedDimension
  0
DIMENSION
  5
47
330
2
100
AcDbEntity
  8
DIM
100
AcDbDimension
  2
*D14
 10
3.75570057524853
 20
1.923612099220266
 30
0.0
 11
3.75570057524853
 21
2.578612099220273
 31
0.0
 70
    32
 71
     5
 42
1.310000000000012
  3
Standard
100
AcDbAlignedDimension
 13
3.421605396251012
 23
3.233612099220279
 33
0.0
 14
2.982608500970034
 24
1.923612099220266
 34
0.0
 50
90.0
100
AcDbRotatedDimension
  0
DIMENSION
  5
55
330
2
100
AcDbEntity
  8
DIM
100
AcDbDimension
  2
*D17
 10
0.3657790742527569
 20
3.233612099220279
 30
0.0
 11
0.8799559728430248
 21
3.87553809837335
 31
0.0
 70
   160
  1
\A1;For panels\Pup to {\H0.7x;\S1#8;}" use\PLocknut\PD55356-1
 71
     5
 42
0.1249999999999973
  3
Standard
100
AcDbAlignedDimension
 13
1.053955077176804
 23
3.358612099220276
 33
0.0
 14
1.017343424825124
 24
3.233612099220279
 34
0.0
 50
90.0
100
AcDbRotatedDimension
  0
HATCH
  5
64
330
2
100
AcDbEntity
  8
HATCH
100
AcDbHatch
 10
0.0
 20
0.0
 30
0.0
210
0.0
220
0.0
230
1.0
  2
SOLID
 70
     1
 71
     0
 91
        2
 92
        1
 93
        4
 72
     1
 10
1.168272889104924
 20
3.404996602333949
 11
2.093142552348529
 21
3.40499660233395
 72
     1
 10
2.093142552348529
 20
3.40499660233395
 11
2.093142552348529
 21
3.358612099220279
 72
     1
 10
2.093142552348529
 20
3.358612099220279
 11
1.168272889104924
 21
3.358612099220279
 72
     1
 10
1.168272889104924
 20
3.358612099220279
 11
1.168272889104924
 21
3.404996602333949
 97
        0
 92
        1
 93
        4
 72
     1
 10
3.018012215592122
 20
3.529996602333951
 11
2.093142552348518
 21
3.529996602333951
 72
     1
 10
2.093142552348518
 20
3.529996602333951
 11
2.093142552348518
 21
3.48361209922028
 72
     1
 10
2.093142552348518
 20
3.48361209922028
 11
3.018012215592122
 21
3.48361209922028
 72
     1
 10
3.018012215592122
 20
3.48361209922028
 11
3.018012215592122
 21
3.529996602333951
 97
        0
 75
     0
 76
     1
 98
        1
 10
-0.3558721373507021
 20
-2.47063249772315
  0
LWPOLYLINE
  5
66
330
2
100
AcDbEntity
  8
OBJ
100
AcDbPolyline
 90
        4
 70
     1
 43
0.0
 10
3.018012215592122
 20
3.529996602333951
 10
2.093142552348518
 20
3.529996602333951
 10
2.093142552348518
 20
3.48361209922028
 10
3.018012215592122
 20
3.48361209922028
  0
LINE
  5
68
330
2
100
AcDbEntity
  8
CL
 48
0.5
100
AcDbLine
 10
2.093142552348526
 20
1.623918794791969
 30
0.0
 11
2.093142552348526
 21
7.961900456497356
 31
0.0
  0
LINE
  5
6B
330
2
100
AcDbEntity
  8
OBJ
100
AcDbLine
 10
2.619332271850519
 20
3.543021347777044
 30
0.0
 11
2.619332271850519
 21
3.483612099220279
 31
0.0
  0
LINE
  5
6C
330
2
100
AcDbEntity
  8
OBJ
100
AcDbLine
 10
2.837287190049545
 20
3.543021347777044
 30
0.0
 11
2.837287190049545
 21
3.483612099220279
 31
0.0
  0
LINE
  5
6D
330
2
100
AcDbEntity
  8
OBJ
100
AcDbLine
 10
2.093142552348529
 20
3.358612099220279
 30
0.0
 11
2.093142552348529
 21
3.543021347777044
 31
0.0
  0
LINE
  5
6E
330
2
100
AcDbEntity
  8
OBJ
100
AcDbLine
 10
1.566952832846526
 20
3.543021347777044
 30
0.0
 11
1.566952832846526
 21
3.358612099220279
 31
0.0
  0
LINE
  5
6F
330
2
100
AcDbEntity
  8
OBJ
100
AcDbLine
 10
1.348997914647506
 20
3.543021347777044
 30
0.0
 11
1.348997914647506
 21
3.358612099220276
 31
0.0
  0
SPLINE
  5
70
330
2
100
AcDbEntity
  8
OBJ
100
AcDbSpline
210
0.0
220
0.0
230
1.0
 70
     8
 71
     3
 72
    10
 73
     6
 74
     0
 42
0.0000000001
 43
0.0000000001
 40
-0.0029945299755116
 40
-0.0029945299755116
 40
-0.0029945299755116
 40
-0.0029945299755116
 40
-0.0022803656357293
 40
-0.0022803656357293
 40
0.0
 40
0.0
 40
0.0
 40
0.0
 10
2.390343531628618
 20
1.923612099220261
 30
0.0
 10
2.390379564351443
 20
1.923612099220261
 30
0.0
 10
2.390415190924755
 20
1.923612171660527
 30
0.0
 10
2.390561257508081
 20
1.923612776246475
 30
0.0
 10
2.390666420536369
 20
1.923613971025753
 30
0.0
 10
2.390765475755737
 20
1.92361590327235
 30
0.0
  0
SPLINE
  5
71
330
2
100
AcDbEntity
  8
OBJ
100
AcDbSpline
210
0.0
220
0.0
230
1.0
 70
     8
 71
     3
 72
    18
 73
    14
 74
     0
 42
0.0000000001
 43
0.0000000001
 40
-0.0443549831880504
 40
-0.0443549831880504
 40
-0.0443549831880504
 40
-0.0443549831880504
 40
-0.0442099853884745
 40
-0.0442099853884745
 40
-0.0367977550515025
 40
-0.0367977550515025
 40
-0.0288909711111124
 40
-0.0288909711111124
 40
-0.0188499997894747
 40
-0.0188499997894747
 40
-0.009233087120922
 40
-0.009233087120922
 40
0.0
 40
0.0
 40
0.0
 40
0.0
 10
2.138559249683638
 20
1.923612099220259
 30
0.0
 10
2.138519346334918
 20
1.923612099220259
 30
0.0
 10
2.138479388401788
 20
1.923612158931204
 30
0.0
 10
2.136393993182863
 20
1.923618408524039
 30
0.0
 10
2.134210507907658
 20
1.923783921792257
 30
0.0
 10
2.129564305980643
 20
1.924560816801002
 30
0.0
 10
2.127108470603106
 20
1.925198535835799
 30
0.0
 10
2.121589016603635
 20
1.927241066463991
 30
0.0
 10
2.118594010589371
 20
1.928789820734015
 30
0.0
 10
2.113201113199477
 20
1.932511607695389
 30
0.0
 10
2.110850684992511
 20
1.934609736868916
 30
0.0
 10
2.106934469301846
 20
1.938952851997838
 30
0.0
 10
2.10539637397925
 20
1.941124159366839
 30
0.0
 10
2.104197618577694
 20
1.94313581274686
 30
0.0
  0
SPLINE
  5
72
330
2
100
AcDbEntity
  8
OBJ
100
AcDbSpline
210
0.0
220
0.0
230
1.0
 70
     8
 71
     3
 72
    10
 73
     6
 74
     0
 42
0.0000000001
 43
0.0000000001
 40
-0.0029945299755116
 40
-0.0029945299755116
 40
-0.0029945299755116
 40
-0.0029945299755116
 40
-0.0022803656357293
 40
-0.0022803656357293
 40
0.0
 40
0.0
 40
0.0
 40
0.0
 10
1.795941573068434
 20
1.923612099220261
 30
0.0
 10
1.795905540345609
 20
1.923612099220261
 30
0.0
 10
1.795869913772298
 20
1.923612171660527
 30
0.0
 10
1.795723847188972
 20
1.923612776246475
 30
0.0
 10
1.795618684160682
 20
1.923613971025753
 30
0.0
 10
1.795519628941316
 20
1.92361590327235
 30
0.0
  0
SPLINE
  5
73
330
2
100
AcDbEntity
  8
OBJ
100
AcDbSpline
210
0.0
220
0.0
230
1.0
 70
     8
 71
     3
 72
    18
 73
    14
 74
     0
 42
0.0000000001
 43
0.0000000001
 40
-0.0443549831880504
 40
-0.0443549831880504
 40
-0.0443549831880504
 40
-0.0443549831880504
 40
-0.0442099853884745
 40
-0.0442099853884745
 40
-0.0367977550515025
 40
-0.0367977550515025
 40
-0.0288909711111124
 40
-0.0288909711111124
 40
-0.0188499997894747
 40
-0.0188499997894747
 40
-0.009233087120922
 40
-0.009233087120922
 40
0.0
 40
0.0
 40
0.0
 40
0.0
 10
2.047725855013414
 20
1.923612099220259
 30
0.0
 10
2.047765758362134
 20
1.923612099220259
 30
0.0
 10
2.047805716295264
 20
1.923612158931204
 30
0.0
 10
2.049891111514189
 20
1.923618408524039
 30
0.0
 10
2.052074596789394
 20
1.923783921792257
 30
0.0
 10
2.056720798716408
 20
1.924560816801002
 30
0.0
 10
2.059176634093946
 20
1.925198535835799
 30
0.0
 10
2.064696088093417
 20
1.927241066463991
 30
0.0
 10
2.067691094107681
 20
1.928789820734015
 30
0.0
 10
2.073083991497577
 20
1.932511607695389
 30
0.0
 10
2.075434419704541
 20
1.934609736868916
 30
0.0
 10
2.079350635395208
 20
1.938952851997838
 30
0.0
 10
2.080888730717803
 20
1.941124159366839
 30
0.0
 10
2.082087486119357
 20
1.94313581274686
 30
0.0
  0
DIMENSION
  5
74
330
2
100
AcDbEntity
  8
DIM
100
AcDbDimension
  2
*D18
 10
3.153441818033654
 20
1.149743709669916
 30
0.0
 11
2.093142552348526
 21
1.149743709669916
 31
0.0
 70
    32
 71
     5
 42
2.120598531370256
  3
Standard
100
AcDbAlignedDimension
 13
1.032843286663398
 23
2.348612099220258
 33
0.0
 14
3.153441818033654
 24
2.348612099220258
 34
0.0
100
AcDbRotatedDimension
  0
HATCH
  5
82
330
2
100
AcDbEntity
  8
HATCH
100
AcDbHatch
 10
0.0
 20
0.0
 30
0.0
210
0.0
220
0.0
230
1.0
  2
ANSI31
 70
     0
 71
     0
 91
        1
 92
        1
 93
        7
 72
     1
 10
2.093142552348527
 20
3.233612099220279
 11
0.7646797084460408
 21
3.233612099220279
 72
     1
 10
0.7646797084460408
 20
3.233612099220279
 11
0.8320965858936038
 21
3.262065902268711
 72
     1
 10
0.8320965858936038
 20
3.262065902268711
 11
0.7900745241294038
 21
3.292609276156226
 72
     1
 10
0.7900745241294038
 20
3.292609276156226
 11
0.8626580575908729
 21
3.315516806571864
 72
     1
 10
0.8626580575908729
 20
3.315516806571864
 11
0.8397369538179209
 21
3.358612099220276
 72
     1
 10
0.8397369538179209
 20
3.358612099220276
 11
2.093142552348526
 21
3.358612099220276
 72
     1
 10
2.093142552348526
 20
3.358612099220276
 11
2.093142552348527
 21
3.233612099220279
 97
        0
 75
     0
 76
     1
 52
0.0
 41
0.5
 77
     0
 78
     1
 53
45.0
 43
-0.3558721373507021
 44
-2.47063249772315
 45
-0.0441941738241592
 46
0.0441941738241592
 79
     0
 98
        1
 10
-0.3558721373507021
 20
-2.47063249772315
  0
LWPOLYLINE
  5
83
330
2
100
AcDbEntity
  8
OBJ
100
AcDbPolyline
 90
        7
 70
     1
 43
0.0
 10
2.093142552348527
 20
3.233612099220279
 10
0.7646797084460408
 20
3.233612099220279
 10
0.8320965858936038
 20
3.262065902268711
 10
0.7900745241294038
 20
3.292609276156226
 10
0.8626580575908729
 20
3.315516806571864
 10
0.8397369538179209
 20
3.358612099220276
 10
2.093142552348526
 20
3.358612099220276
  0
LINE
  5
84
330
2
100
AcDbEntity
  8
OBJ
100
AcDbLine
 10
1.037033744894952
 20
2.360516916724606
 30
0.0
 11
1.260047370607633
 21
2.898919436514866
 31
0.0
  0
LINE
  5
85
330
2
100
AcDbEntity
  8
OBJ
100
AcDbLine
 10
1.203676603727017
 20
1.923612099220266
 30
0.0
 11
1.491447789316914
 21
1.923612099220263
 31
0.0
  0
LINE
  5
86
330
2
100
AcDbEntity
  8
OBJ
100
AcDbLine
 10
1.061262624087667
 20
2.098504940978259
 30
0.0
 11
1.476140452022312
 21
1.926656917919814
 31
0.0
  0
LINE
  5
87
330
2
100
AcDbEntity
  8
OBJ
100
AcDbLine
 10
1.410469560052392
 20
2.256928508108769
 30
0.0
 11
1.189125790943982
 21
2.348612099220249
 31
0.0
  0
LWPOLYLINE
  5
88
330
2
100
AcDbEntity
  8
OBJ
100
AcDbPolyline
 90
        4
 70
     1
 43
0.0
 10
1.168272889104924
 20
3.404996602333949
 10
2.093142552348529
 20
3.40499660233395
 10
2.093142552348529
 20
3.358612099220279
 10
1.168272889104924
 20
3.358612099220279
  0
ARC
  5
89
330
2
100
AcDbEntity
  8
OBJ
100
AcDbCircle
 10
1.115392878796324
 20
2.59361209922029
 30
0.0
 40
0.08
100
AcDbArc
 50
90.0
 51
179.5000000000001
  0
LINE
  5
8D
330
2
100
AcDbEntity
  8
OBJ
100
AcDbLine
 10
1.032843286663398
 20
2.348612099220263
 30
0.0
 11
1.036576053576018
 21
2.134762026021213
 31
0.0
  0
ARC
  5
8E
330
2
100
AcDbEntity
  8
OBJ
100
AcDbCircle
 10
1.078665735626701
 20
2.015393296231784
 30
0.0
 40
0.0400000000000001
100
AcDbArc
 50
181.0000000000079
 51
247.499999999994
  0
ARC
  5
8F
330
2
100
AcDbEntity
  8
OBJ
100
AcDbCircle
 10
1.076569961382268
 20
2.13546012227871
 30
0.0
 40
0.04
100
AcDbArc
 50
181.0000000000066
 51
247.500000000004
  0
LINE
  5
90
330
2
100
AcDbEntity
  8
OBJ
100
AcDbLine
 10
1.036576053576018
 20
2.134762026021212
 30
0.0
 11
1.038671827820406
 21
2.014695199974286
 31
0.0
  0
LINE
  5
91
330
2
100
AcDbEntity
  8
OBJ
100
AcDbLine
 10
1.063358398331983
 20
1.978438114931066
 30
0.0
 11
1.188369266432411
 21
1.926656917919816
 31
0.0
  0
ARC
  5
92
330
2
100
AcDbEntity
  8
OBJ
100
AcDbCircle
 10
1.203676603727018
 20
1.963612099220267
 30
0.0
 40
0.04
100
AcDbArc
 50
247.4999999999923
 51
269.999999999998
  0
LINE
  5
93
330
2
100
AcDbEntity
  8
OBJ
100
AcDbLine
 10
1.032843286663398
 20
2.348612099220263
 30
0.0
 11
1.072837194469654
 21
2.348612099220258
 31
0.0
  0
LINE
  5
94
330
2
100
AcDbEntity
  8
OBJ
100
AcDbLine
 10
1.03519469168506
 20
2.571251541535995
 30
0.0
 11
1.036942731350968
 21
2.37091552372712
 31
0.0
  0
LINE
  5
95
330
2
100
AcDbEntity
  8
OBJ
100
AcDbLine
 10
1.037033744894952
 20
2.360516916724606
 30
0.0
 11
1.037137636663398
 21
2.34861209922026
 31
0.0
  0
LINE
  5
96
330
2
100
AcDbEntity
  8
OBJ
100
AcDbLine
 10
1.032635487300893
 20
2.360516916724967
 30
0.0
 11
1.032843286663398
 21
2.348612099220258
 31
0.0
  0
LINE
  5
97
330
2
100
AcDbEntity
  8
OBJ
100
AcDbLine
 10
1.052557164175382
 20
2.408612099220626
 30
0.0
 11
1.032635487300892
 21
2.360516916724969
 31
0.0
  0
LINE
  5
98
330
2
100
AcDbEntity
  8
OBJ
100
AcDbLine
 10
1.056955421769584
 20
2.408612099220622
 30
0.0
 11
1.052557164175384
 21
2.408612099220629
 31
0.0
  0
LINE
  5
99
330
2
100
AcDbEntity
  8
OBJ
100
AcDbLine
 10
1.035194694894586
 20
2.57125154150799
 30
0.0
 11
1.03539592495119
 21
2.594310222060159
 31
0.0
  0
LINE
  5
9A
330
2
100
AcDbEntity
  8
OBJ
100
AcDbLine
 10
1.189125790943982
 20
2.348612099220247
 30
0.0
 11
1.072837194469654
 21
2.348612099220258
 31
0.0
  0
LINE
  5
9B
330
2
100
AcDbEntity
  8
OBJ
100
AcDbLine
 10
1.115392878796324
 20
2.673612101535994
 30
0.0
 11
1.166722016757368
 21
2.673612101535994
 31
0.0
  0
DIMENSION
  5
9C
330
2
100
AcDbEntity
  8
DIM
100
AcDbDimension
  2
*D19
 10
3.153441818033654
 20
1.473613966211136
 30
0.0
 11
2.623292185191091
 21
1.473613966211136
 31
0.0
 70
    32
 71
     5
 42
1.060299265685128
  3
Standard
100
AcDbAlignedDimension
 13
2.093142552348526
 23
1.623918794791969
 33
0.0
 14
3.153441818033654
 24
2.348612099220258
 34
0.0
100
AcDbRotatedDimension
  0
HATCH
  5
AA
330
2
100
AcDbEntity
  8
HATCH
100
AcDbHatch
 10
0.0
 20
0.0
 30
0.0
210
0.0
220
0.0
230
1.0
  2
ANSI31
 70
     0
 71
     0
 91
        1
 92
        1
 93
        9
 72
     1
 10
3.354188518803449
 20
3.262065902268711
 11
3.421605396251012
 21
3.233612099220279
 72
     1
 10
3.421605396251012
 20
3.233612099220279
 11
2.093142552348524
 21
3.233612099220279
 72
     1
 10
2.093142552348524
 20
3.233612099220279
 11
2.093142552348524
 21
3.483612099220279
 72
     1
 10
2.093142552348524
 20
3.483612099220279
 11
3.355473642775478
 21
3.483612099220277
 72
     1
 10
3.355473642775478
 20
3.483612099220277
 11
3.317952418488777
 21
3.422006602768949
 72
     1
 10
3.317952418488777
 20
3.422006602768949
 11
3.346548150879131
 21
3.358612099220276
 72
     1
 10
3.346548150879131
 20
3.358612099220276
 11
3.32362704710618
 21
3.315516806571864
 72
     1
 10
3.32362704710618
 20
3.315516806571864
 11
3.396210580567649
 21
3.292609276156226
 72
     1
 10
3.396210580567649
 20
3.292609276156226
 11
3.354188518803449
 21
3.262065902268711
 97
        0
 75
     0
 76
     1
 52
90.0
 41
0.5
 77
     0
 78
     1
 53
135.0
 43
-0.3558721373507021
 44
-2.47063249772315
 45
-0.0441941738241592
 46
-0.0441941738241592
 79
     0
 98
        1
 10
-0.3558721373507021
 20
-2.47063249772315
  0
LWPOLYLINE
  5
AB
330
2
100
AcDbEntity
  8
OBJ
100
AcDbPolyline
 90
        9
 70
     1
 43
0.0
 10
3.354188518803449
 20
3.262065902268711
 10
3.421605396251012
 20
3.233612099220279
 10
2.093142552348524
 20
3.233612099220279
 10
2.093142552348524
 20
3.483612099220279
 10
3.355473642775478
 20
3.483612099220277
 10
3.317952418488777
 20
3.422006602768949
 10
3.346548150879131
 20
3.358612099220276
 10
3.32362704710618
 20
3.315516806571864
 10
3.396210580567649
 20
3.292609276156226
  0
LINE
  5
AC
330
2
100
AcDbEntity
  8
OBJ
100
AcDbLine
 10
2.889282552788976
 20
2.92361209922028
 30
0.0
 11
2.138903808225872
 21
2.923612099220278
 31
0.0
  0
ARC
  5
AD
330
2
100
AcDbEntity
  8
OBJ
100
AcDbCircle
 10
2.556251359158979
 20
1.943612099220263
 30
0.0
 40
0.02
100
AcDbArc
 50
180.0000000000049
 51
270.0
  0
LINE
  5
AE
330
2
100
AcDbEntity
  8
OBJ
100
AcDbLine
 10
2.556251359158979
 20
1.923612099220263
 30
0.0
 11
2.390375414718539
 21
1.923612099220261
 31
0.0
  0
LINE
  5
AF
330
2
100
AcDbEntity
  8
OBJ
100
AcDbLine
 10
2.695382619099626
 20
2.223612099220274
 30
0.0
 11
2.13314102927109
 21
2.223612099220279
 31
0.0
  0
LINE
  5
B0
330
2
100
AcDbEntity
  8
OBJ
100
AcDbLine
 10
2.274275474078573
 20
2.088612099220239
 30
0.0
 11
2.556251359158979
 21
2.088612099220259
 31
0.0
  0
HATCH
  5
B1
330
2
100
AcDbEntity
  8
HATCH
100
AcDbHatch
 10
0.0
 20
0.0
 30
0.0
210
0.0
220
0.0
230
1.0
  2
SOLID
 70
     1
 71
     0
 91
        1
 92
        1
 93
        4
 72
     1
 10
1.283142552348526
 20
3.233612099220279
 11
2.903142552348525
 21
3.233612099220279
 72
     1
 10
2.903142552348525
 20
3.233612099220279
 11
2.903142552348525
 21
3.168612099220278
 72
     1
 10
2.903142552348525
 20
3.168612099220278
 11
1.283142552348526
 21
3.168612099220278
 72
     1
 10
1.283142552348526
 20
3.168612099220278
 11
1.283142552348526
 21
3.233612099220279
 97
        0
 75
     0
 76
     1
 98
        1
 10
-3.918574176149257
 20
-2.55528925225642
  0
LWPOLYLINE
  5
B2
330
2
100
AcDbEntity
  8
OBJ
100
AcDbPolyline
 90
        4
 70
     1
 43
0.0
 10
1.283142552348526
 20
3.233612099220279
 10
2.903142552348525
 20
3.233612099220279
 10
2.903142552348525
 20
3.168612099220278
 10
1.283142552348526
 20
3.168612099220278
  0
LWPOLYLINE
  5
B3
330
2
100
AcDbEntity
  8
OBJ
100
AcDbPolyline
 90
        4
 70
     1
 43
0.0
 10
2.903142552348525
 20
3.168612099220278
 10
2.903142552348525
 20
2.92361209922028
 10
1.283142552348526
 20
2.92361209922028
 10
1.283142552348526
 20
3.168612099220278
  0
INSERT
  5
B4
330
2
100
AcDbEntity
  8
CL
 48
0.5
100
AcDbBlockReference
  2
A$C266B4E3C
 10
2.05552259064815
 20
1.638836278841937
 30
0.0
  0
LINE
  5
BA
330
2
100
AcDbEntity
  8
OBJ
100
AcDbLine
 10
1.297002551908075
 20
2.92361209922028
 30
0.0
 11
2.047381296471179
 21
2.923612099220278
 31
0.0
  0
LINE
  5
BB
330
2
100
AcDbEntity
  8
OBJ
100
AcDbLine
 10
1.490902485597427
 20
2.223612099220274
 30
0.0
 11
2.053144075425962
 21
2.223612099220279
 31
0.0
  0
LINE
  5
BC
330
2
100
AcDbEntity
  8
OBJ
100
AcDbLine
 10
1.937638589423874
 20
1.923612099220259
 30
0.0
 11
1.795941573068439
 21
1.923612099220261
 31
0.0
  0
LINE
  5
BD
330
2
100
AcDbEntity
  8
OBJ
100
AcDbLine
 10
1.912009630618479
 20
2.088612099220239
 30
0.0
 11
1.630033745538073
 21
2.088612099220259
 31
0.0
  0
LINE
  5
BE
330
2
100
AcDbEntity
  8
OBJ
100
AcDbLine
 10
1.491447789316914
 20
1.923612099220265
 30
0.0
 11
1.630033745538073
 21
1.923612099220263
 31
0.0
  0
LINE
  5
BF
330
2
100
AcDbEntity
  8
OBJ
100
AcDbLine
 10
1.410469559774933
 20
2.256928507957303
 30
0.0
 11
1.490902485597427
 21
2.223612099220274
 31
0.0
  0
ARC
  5
C0
330
2
100
AcDbEntity
  8
OBJ
100
AcDbCircle
 10
1.491447789316914
 20
1.963612099220254
 30
0.0
 40
0.04
100
AcDbArc
 50
247.4999999999965
 51
270.0
  0
LINE
  5
C1
330
2
100
AcDbEntity
  8
OBJ
100
AcDbLine
 10
1.630033745538073
 20
1.923612099220263
 30
0.0
 11
1.795909689978513
 21
1.923612099220261
 31
0.0
  0
LINE
  5
C2
330
2
100
AcDbEntity
  8
OBJ
100
AcDbLine
 10
1.650033745538072
 20
1.963263051091515
 30
0.0
 11
1.650033745538072
 21
2.08861209922029
 31
0.0
  0
ARC
  5
C3
330
2
100
AcDbEntity
  8
OBJ
100
AcDbCircle
 10
1.630033745538073
 20
1.943612099220263
 30
0.0
 40
0.02
100
AcDbArc
 50
270.0
 51
359.9999999999949
  0
LINE
  5
C4
330
2
100
AcDbEntity
  8
OBJ
100
AcDbLine
 10
1.650033745538072
 20
1.963263051091515
 30
0.0
 11
1.650033745538072
 21
1.943612099220263
 31
0.0
  0
LINE
  5
C5
330
2
100
AcDbEntity
  8
OBJ
100
AcDbLine
 10
1.750033745538067
 20
2.088612099220251
 30
0.0
 11
1.776213534918269
 21
1.940139135666922
 31
0.0
  0
LINE
  5
C6
330
2
100
AcDbEntity
  8
OBJ
100
AcDbLine
 10
1.795909689978513
 20
1.923612099220261
 30
0.0
 11
1.795941573068437
 21
1.923612099220261
 31
0.0
  0
ARC
  5
C7
330
2
100
AcDbEntity
  8
OBJ
100
AcDbCircle
 10
1.795909689978513
 20
1.943612099220261
 30
0.0
 40
0.0200000000000003
100
AcDbArc
 50
190.0000000000003
 51
268.8824865885667
  0
ARC
  5
C8
330
2
100
AcDbEntity
  8
OBJ
100
AcDbCircle
 10
1.297002551908075
 20
2.883612099220279
 30
0.0
 40
0.04
100
AcDbArc
 50
90.00000000000067
 51
157.5000000000174
  0
LINE
  5
C9
330
2
100
AcDbEntity
  8
OBJ
100
AcDbLine
 10
2.098905331303307
 20
2.883961160640214
 30
0.0
 11
2.093142552348524
 21
2.223612099220279
 31
0.0
  0
LINE
  5
CA
330
2
100
AcDbEntity
  8
OBJ
100
AcDbLine
 10
2.087379773393746
 20
2.883961160640214
 30
0.0
 11
2.093142552348528
 21
2.223612099220279
 31
0.0
  0
LINE
  5
CB
330
2
100
AcDbEntity
  8
OBJ
100
AcDbLine
 10
2.248646515273179
 20
1.923612099220261
 30
0.0
 11
2.138902258324423
 21
1.923612099220259
 31
0.0
  0
LINE
  5
CC
330
2
100
AcDbEntity
  8
OBJ
100
AcDbLine
 10
1.937638589423874
 20
1.923612099220261
 30
0.0
 11
2.04738284637263
 21
1.923612099220259
 31
0.0
  0
LINE
  5
CD
330
2
100
AcDbEntity
  8
OBJ
100
AcDbLine
 10
2.047725855013438
 20
1.923612099220259
 30
0.0
 11
2.04738284637263
 21
1.923612099220259
 31
0.0
  0
LINE
  5
CE
330
2
100
AcDbEntity
  8
OBJ
100
AcDbLine
 10
2.098565341877349
 20
1.962914002962761
 30
0.0
 11
2.094014839680482
 21
2.223612099220276
 31
0.0
  0
LINE
  5
CF
330
2
100
AcDbEntity
  8
OBJ
100
AcDbLine
 10
2.087719762819703
 20
1.962914002962761
 30
0.0
 11
2.092270265016571
 21
2.223612099220276
 31
0.0
  0
ARC
  5
D0
330
2
100
AcDbEntity
  8
OBJ
100
AcDbCircle
 10
2.138559249683614
 20
1.963612099220259
 30
0.0
 40
0.04
100
AcDbArc
 50
181.000000000008
 51
210.7909485353629
  0
ARC
  5
D1
330
2
100
AcDbEntity
  8
OBJ
100
AcDbCircle
 10
2.047725855013438
 20
1.963612099220259
 30
0.0
 40
0.04
100
AcDbArc
 50
329.209051464637
 51
358.9999999999919
  0
LINE
  5
D2
330
2
100
AcDbEntity
  8
OBJ
100
AcDbLine
 10
2.138559249683614
 20
1.923612099220259
 30
0.0
 11
2.138902258324423
 21
1.923612099220259
 31
0.0
  0
LINE
  5
D3
330
2
100
AcDbEntity
  8
OBJ
100
AcDbLine
 10
2.13314102927109
 20
2.223612099220579
 30
0.0
 11
2.093142552348526
 21
2.223612099220558
 31
0.0
  0
LINE
  5
D4
330
2
100
AcDbEntity
  8
OBJ
100
AcDbLine
 10
2.053144075425962
 20
2.223612099220579
 30
0.0
 11
2.093142552348526
 21
2.223612099220558
 31
0.0
  0
LINE
  5
D5
330
2
100
AcDbEntity
  8
OBJ
100
AcDbLine
 10
2.248646515273179
 20
1.923612099220259
 30
0.0
 11
2.390343531628613
 21
1.923612099220261
 31
0.0
  0
LINE
  5
D6
330
2
100
AcDbEntity
  8
OBJ
100
AcDbLine
 10
2.536251359158979
 20
1.963263051091515
 30
0.0
 11
2.536251359158979
 21
2.08861209922029
 31
0.0
  0
LINE
  5
D7
330
2
100
AcDbEntity
  8
OBJ
100
AcDbLine
 10
2.436251359158985
 20
2.088612099220251
 30
0.0
 11
2.410071569778783
 21
1.940139135666922
 31
0.0
  0
LINE
  5
D8
330
2
100
AcDbEntity
  8
OBJ
100
AcDbLine
 10
2.390375414718539
 20
1.923612099220261
 30
0.0
 11
2.390343531628616
 21
1.923612099220261
 31
0.0
  0
ARC
  5
D9
330
2
100
AcDbEntity
  8
OBJ
100
AcDbCircle
 10
2.390375414718539
 20
1.943612099220261
 30
0.0
 40
0.0200000000000003
100
AcDbArc
 50
271.1175134114333
 51
349.9999999999995
  0
LINE
  5
DA
330
2
100
AcDbEntity
  8
OBJ
100
AcDbLine
 10
2.536251359158979
 20
1.963263051091515
 30
0.0
 11
2.536251359158979
 21
1.943612099220263
 31
0.0
  0
ARC
  5
DB
330
2
100
AcDbEntity
  8
OBJ
100
AcDbCircle
 10
2.047381296471179
 20
2.883612099220276
 30
0.0
 40
0.04
100
AcDbArc
 50
0.5000000000011165
 51
90.0
  0
ARC
  5
DC
330
2
100
AcDbEntity
  8
OBJ
100
AcDbCircle
 10
2.138903808225872
 20
2.883612099220276
 30
0.0
 40
0.04
100
AcDbArc
 50
90.0
 51
179.4999999999989
  0
DIMENSION
  5
DD
330
2
100
AcDbEntity
  8
DIM
100
AcDbDimension
  2
*D20
 10
3.451323973378817
 20
1.923612099220266
 30
0.0
 11
3.451323973378817
 21
2.423612099220274
 31
0.0
 70
    32
 71
     5
 42
1.000000000000013
  3
Standard
100
AcDbAlignedDimension
 13
2.889282552788976
 23
2.92361209922028
 33
0.0
 14
2.982608500970034
 24
1.923612099220266
 34
0.0
 50
90.0
100
AcDbRotatedDimension
  0
ARC
  5
EB
330
2
100
AcDbEntity
  8
OBJ
100
AcDbCircle
 10
3.070892225900728
 20
2.59361209922029
 30
0.0
 40
0.08
100
AcDbArc
 50
0.4999999999997423
 51
90.0
  0
LINE
  5
EC
330
2
100
AcDbEntity
  8
OBJ
100
AcDbLine
 10
3.149251359802101
 20
2.360516916724606
 30
0.0
 11
2.926237734089419
 21
2.898919436514866
 31
0.0
  0
LINE
  5
ED
330
2
100
AcDbEntity
  8
OBJ
100
AcDbLine
 10
2.982608500970036
 20
1.923612099220266
 30
0.0
 11
2.694837315380139
 21
1.923612099220263
 31
0.0
  0
LINE
  5
EE
330
2
100
AcDbEntity
  8
OBJ
100
AcDbLine
 10
3.125022480609386
 20
2.098504940978259
 30
0.0
 11
2.710144652674741
 21
1.926656917919814
 31
0.0
  0
LINE
  5
EF
330
2
100
AcDbEntity
  8
OBJ
100
AcDbLine
 10
2.775815544644659
 20
2.256928508108769
 30
0.0
 11
2.997159313753071
 21
2.348612099220249
 31
0.0
  0
LINE
  5
F0
330
2
100
AcDbEntity
  8
OBJ
100
AcDbLine
 10
2.775815544922119
 20
2.256928507957303
 30
0.0
 11
2.695382619099626
 21
2.223612099220274
 31
0.0
  0
ARC
  5
F1
330
2
100
AcDbEntity
  8
OBJ
100
AcDbCircle
 10
2.694837315380139
 20
1.963612099220254
 30
0.0
 40
0.04
100
AcDbArc
 50
270.0
 51
292.5000000000034
  0
LINE
  5
F2
330
2
100
AcDbEntity
  8
OBJ
100
AcDbLine
 10
2.694837315380139
 20
1.923612099220265
 30
0.0
 11
2.556251359158979
 21
1.923612099220263
 31
0.0
  0
LINE
  5
F3
330
2
100
AcDbEntity
  8
OBJ
100
AcDbLine
 10
3.153441818033654
 20
2.348612099220263
 30
0.0
 11
3.149709051121034
 21
2.134762026021213
 31
0.0
  0
LINE
  5
F4
330
2
100
AcDbEntity
  8
OBJ
100
AcDbLine
 10
3.12292670636507
 20
1.978438114931066
 30
0.0
 11
2.997915838264642
 21
1.926656917919816
 31
0.0
  0
ARC
  5
F5
330
2
100
AcDbEntity
  8
OBJ
100
AcDbCircle
 10
2.982608500970034
 20
1.963612099220267
 30
0.0
 40
0.04
100
AcDbArc
 50
270.0000000000019
 51
292.5000000000074
  0
ARC
  5
F6
330
2
100
AcDbEntity
  8
OBJ
100
AcDbCircle
 10
3.107619369070351
 20
2.015393296231784
 30
0.0
 40
0.0400000000000001
100
AcDbArc
 50
292.5000000000057
 51
358.9999999999921
  0
LINE
  5
F7
330
2
100
AcDbEntity
  8
OBJ
100
AcDbLine
 10
3.149709051121034
 20
2.134762026021212
 30
0.0
 11
3.147613276876645
 21
2.014695199974286
 31
0.0
  0
ARC
  5
F8
330
2
100
AcDbEntity
  8
OBJ
100
AcDbCircle
 10
3.109715143314786
 20
2.13546012227871
 30
0.0
 40
0.04
100
AcDbArc
 50
292.4999999999958
 51
358.9999999999932
  0
LINE
  5
F9
330
2
100
AcDbEntity
  8
OBJ
100
AcDbLine
 10
2.997159313753071
 20
2.348612099220247
 30
0.0
 11
3.113447910227399
 21
2.348612099220258
 31
0.0
  0
LINE
  5
FA
330
2
100
AcDbEntity
  8
OBJ
100
AcDbLine
 10
3.151090413011992
 20
2.571251541535995
 30
0.0
 11
3.149342373346085
 21
2.37091552372712
 31
0.0
  0
LINE
  5
FB
330
2
100
AcDbEntity
  8
OBJ
100
AcDbLine
 10
3.153441818033654
 20
2.348612099220263
 30
0.0
 11
3.113447910227399
 21
2.348612099220258
 31
0.0
  0
LINE
  5
FC
330
2
100
AcDbEntity
  8
OBJ
100
AcDbLine
 10
3.149251359802101
 20
2.360516916724606
 30
0.0
 11
3.149147468033654
 21
2.34861209922026
 31
0.0
  0
LINE
  5
FD
330
2
100
AcDbEntity
  8
OBJ
100
AcDbLine
 10
3.153649617396159
 20
2.360516916724967
 30
0.0
 11
3.153441818033654
 21
2.348612099220258
 31
0.0
  0
LINE
  5
FE
330
2
100
AcDbEntity
  8
OBJ
100
AcDbLine
 10
3.13372794052167
 20
2.408612099220626
 30
0.0
 11
3.153649617396161
 21
2.360516916724969
 31
0.0
  0
LINE
  5
FF
330
2
100
AcDbEntity
  8
OBJ
100
AcDbLine
 10
3.129329682927468
 20
2.408612099220622
 30
0.0
 11
3.133727940521668
 21
2.408612099220629
 31
0.0
  0
LINE
  5
100
330
2
100
AcDbEntity
  8
OBJ
100
AcDbLine
 10
3.151090409802467
 20
2.57125154150799
 30
0.0
 11
3.150889179745862
 21
2.594310222060159
 31
0.0
  0
LINE
  5
101
330
2
100
AcDbEntity
  8
OBJ
100
AcDbLine
 10
3.070892225900728
 20
2.673612101535994
 30
0.0
 11
3.019563087939683
 21
2.673612101535994
 31
0.0
  0
ARC
  5
102
330
2
100
AcDbEntity
  8
OBJ
100
AcDbCircle
 10
2.889282552788976
 20
2.883612099220279
 30
0.0
 40
0.04
100
AcDbArc
 50
22.49999999998257
 51
89.99999999999934
  0
SPLINE
  5
103
330
2
100
AcDbEntity
  8
OBJ
100
AcDbSpline
210
0.0
220
0.0
230
1.0
 70
    28
 71
     2
 72
     6
 73
     3
 74
     0
 42
0.0000000001
 43
0.0000000001
 40
0.0
 40
0.0
 40
0.0
 40
0.5807016679826571
 40
0.5807016679826571
 40
0.5807016679826571
 10
2.093142552348532
 20
6.22326243670493
 30
0.0
 41
1.0
 10
2.356237412099524
 20
6.332239895804439
 30
0.0
 41
1.082392200292382
 10
2.619332271850521
 20
6.44121735490395
 30
0.0
 41
1.0
  0
SPLINE
  5
104
330
2
100
AcDbEntity
  8
OBJ
100
AcDbSpline
210
0.0
220
0.0
230
1.0
 70
    28
 71
     2
 72
     6
 73
     3
 74
     0
 42
0.0000000001
 43
0.0000000001
 40
0.0
 40
0.0
 40
0.0
 40
0.5807016679826571
 40
0.5807016679826571
 40
0.5807016679826571
 10
2.619332271850519
 20
7.49359679390795
 30
0.0
 41
1.0
 10
2.356237412099527
 20
7.602574253007458
 30
0.0
 41
1.082392200292382
 10
2.093142552348532
 20
7.711551712106964
 30
0.0
 41
1.0
  0
SPLINE
  5
105
330
2
100
AcDbEntity
  8
OBJ
100
AcDbSpline
210
0.0
220
0.0
230
1.0
 70
    28
 71
     2
 72
     6
 73
     3
 74
     0
 42
0.0000000001
 43
0.0000000001
 40
0.0
 40
0.0
 40
0.0
 40
0.5807016679826579
 40
0.5807016679826579
 40
0.5807016679826579
 10
1.348997914647509
 20
6.967407074405946
 30
0.0
 41
1.0
 10
1.457975373747018
 20
6.704312214654952
 30
0.0
 41
1.082392200292382
 10
1.566952832846526
 20
6.441217354903955
 30
0.0
 41
1.0
  0
SPLINE
  5
106
330
2
100
AcDbEntity
  8
OBJ
100
AcDbSpline
210
0.0
220
0.0
230
1.0
 70
    28
 71
     2
 72
     6
 73
     3
 74
     0
 42
0.0000000001
 43
0.0000000001
 40
0.0
 40
0.0
 40
0.0
 40
0.5807016679826586
 40
0.5807016679826586
 40
0.5807016679826586
 10
1.566952832846536
 20
6.44121735490395
 30
0.0
 41
1.0
 10
1.830047692597529
 20
6.332239895804437
 30
0.0
 41
1.082392200292416
 10
2.093142552348523
 20
6.22326243670493
 30
0.0
 41
1.0
  0
SPLINE
  5
107
330
2
100
AcDbEntity
  8
OBJ
100
AcDbSpline
210
0.0
220
0.0
230
1.0
 70
    28
 71
     2
 72
     6
 73
     3
 74
     0
 42
0.0000000001
 43
0.0000000001
 40
0.0
 40
0.0
 40
0.0
 40
0.5807016679826557
 40
0.5807016679826557
 40
0.5807016679826557
 10
1.566952832846525
 20
7.493596793907944
 30
0.0
 41
1.0
 10
1.457975373747017
 20
7.23050193415695
 30
0.0
 41
1.0823922002924
 10
1.348997914647511
 20
6.967407074405961
 30
0.0
 41
1.0
  0
SPLINE
  5
108
330
2
100
AcDbEntity
  8
OBJ
100
AcDbSpline
210
0.0
220
0.0
230
1.0
 70
    28
 71
     2
 72
     6
 73
     3
 74
     0
 42
0.0000000001
 43
0.0000000001
 40
0.0
 40
0.0
 40
0.0
 40
0.5807016679826571
 40
0.5807016679826571
 40
0.5807016679826571
 10
2.093142552348524
 20
7.711551712106968
 30
0.0
 41
1.0
 10
1.83004769259753
 20
7.602574253007454
 30
0.0
 41
1.082392200292382
 10
1.566952832846533
 20
7.49359679390795
 30
0.0
 41
1.0
  0
SPLINE
  5
109
330
2
100
AcDbEntity
  8
OBJ
100
AcDbSpline
210
0.0
220
0.0
230
1.0
 70
    28
 71
     2
 72
     6
 73
     3
 74
     0
 42
0.0000000001
 43
0.0000000001
 40
0.0
 40
0.0
 40
0.0
 40
0.5807016679826576
 40
0.5807016679826576
 40
0.5807016679826576
 10
2.619332271850526
 20
6.441217354903955
 30
0.0
 41
1.0
 10
2.728309730950036
 20
6.704312214654945
 30
0.0
 41
1.082392200292382
 10
2.837287190049546
 20
6.967407074405946
 30
0.0
 41
1.0
  0
SPLINE
  5
10A
330
2
100
AcDbEntity
  8
OBJ
100
AcDbSpline
210
0.0
220
0.0
230
1.0
 70
    28
 71
     2
 72
     6
 73
     3
 74
     0
 42
0.0000000001
 43
0.0000000001
 40
0.0
 40
0.0
 40
0.0
 40
0.5807016679826573
 40
0.5807016679826573
 40
0.5807016679826573
 10
2.837287190049546
 20
6.967407074405955
 30
0.0
 41
1.0
 10
2.728309730950036
 20
7.230501934156952
 30
0.0
 41
1.082392200292416
 10
2.61933227185053
 20
7.493596793907944
 30
0.0
 41
1.0
  0
SPLINE
  5
10B
330
2
100
AcDbEntity
  8
OBJ
100
AcDbSpline
210
0.0
220
0.0
230
1.0
 70
    12
 71
     2
 72
     6
 73
     3
 74
     0
 42
0.0000000001
 43
0.0000000001
 40
0.0
 40
0.0
 40
0.0
 40
0.5807016679826576
 40
0.5807016679826576
 40
0.5807016679826576
 10
2.619332271850526
 20
3.543021347777044
 30
0.0
 41
1.0
 10
2.728309730950036
 20
3.651998806876556
 30
0.0
 41
1.082392200292382
 10
2.837287190049545
 20
3.543021347777044
 30
0.0
 41
1.0
  0
SPLINE
  5
10C
330
2
100
AcDbEntity
  8
OBJ
100
AcDbSpline
210
0.0
220
0.0
230
1.0
 70
    12
 71
     2
 72
     6
 73
     3
 74
     0
 42
0.0000000001
 43
0.0000000001
 40
0.0
 40
0.0
 40
0.0
 40
0.5807016679826586
 40
0.5807016679826586
 40
0.5807016679826586
 10
1.566952832846533
 20
3.543021347777044
 30
0.0
 41
1.0
 10
1.830047692597529
 20
3.651998806876556
 30
0.0
 41
1.082392200292416
 10
2.093142552348523
 20
3.543021347777044
 30
0.0
 41
1.0
  0
SPLINE
  5
10D
330
2
100
AcDbEntity
  8
OBJ
100
AcDbSpline
210
0.0
220
0.0
230
1.0
 70
    12
 71
     2
 72
     6
 73
     3
 74
     0
 42
0.0000000001
 43
0.0000000001
 40
0.0
 40
0.0
 40
0.0
 40
0.5807016679826579
 40
0.5807016679826579
 40
0.5807016679826579
 10
1.348997914647508
 20
3.543021347777044
 30
0.0
 41
1.0
 10
1.457975373747016
 20
3.651998806876556
 30
0.0
 41
1.082392200292382
 10
1.566952832846526
 20
3.543021347777044
 30
0.0
 41
1.0
  0
SPLINE
  5
10E
330
2
100
AcDbEntity
  8
OBJ
100
AcDbSpline
210
0.0
220
0.0
230
1.0
 70
    12
 71
     2
 72
     6
 73
     3
 74
     0
 42
0.0000000001
 43
0.0000000001
 40
0.0
 40
0.0
 40
0.0
 40
0.5807016679826571
 40
0.5807016679826571
 40
0.5807016679826571
 10
2.093142552348531
 20
3.543021347777044
 30
0.0
 41
1.0
 10
2.356237412099524
 20
3.651998806876556
 30
0.0
 41
1.082392200292382
 10
2.619332271850519
 20
3.543021347777044
 30
0.0
 41
1.0
  0
ARC
  5
10F
330
2
100
AcDbEntity
  8
OBJ
100
AcDbCircle
 10
1.591831576763526
 20
7.468718049990948
 30
0.0
 40
0.3086890243750004
100
AcDbArc
 50
90.00000000000005
 51
180.0
  0
ARC
  5
110
330
2
100
AcDbEntity
  8
OBJ
100
AcDbCircle
 10
1.591831576763525
 20
6.466096098820949
 30
0.0
 40
0.308689024375
100
AcDbArc
 50
180.0000000000003
 51
270.0
  0
DIMENSION
  5
111
330
2
100
AcDbEntity
  8
DIM
100
AcDbDimension
  2
*D21
 10
0.9223746237941748
 20
6.157407074445949
 30
0.0
 11
0.9223746237941739
 21
6.967407074405948
 31
0.0
 70
    32
 71
     5
 42
1.619999999919997
  3
Standard
100
AcDbAlignedDimension
 13
1.591831576763531
 23
7.777407074365947
 33
0.0
 14
1.591831576763524
 24
6.157407074445949
 34
0.0
 50
90.0
100
AcDbRotatedDimension
  0
DIMENSION
  5
11F
330
2
100
AcDbEntity
  8
DIM
100
AcDbDimension
  2
*D22
 10
3.363198829274343
 20
6.30740707440595
 30
0.0
 11
3.363198829274343
 21
6.63740707440595
 31
0.0
 70
    32
  1
0.66\P(Short Lever)
 71
     5
 42
0.6599999999999984
  3
Standard
100
AcDbAlignedDimension
 13
2.183142552348527
 23
6.967407074405948
 33
0.0
 14
2.248119492887758
 24
6.30740707440595
 34
0.0
 50
90.0
100
AcDbRotatedDimension
  0
ARC
  5
12D
330
2
100
AcDbEntity
  8
OBJ
100
AcDbCircle
 10
2.093142552348526
 20
6.967407074405948
 30
0.0
 40
0.55
100
AcDbArc
 50
286.366245832387
 51
253.6337541676128
  0
CIRCLE
  5
12E
330
2
100
AcDbEntity
  8
OBJ
100
AcDbCircle
 10
2.093142552348526
 20
6.967407074405948
 30
0.0
 40
0.6875000000098872
  0
ARC
  5
12F
330
2
100
AcDbEntity
  8
OBJ
100
AcDbCircle
 10
2.093142552348526
 20
6.967407074405948
 30
0.0
 40
0.5
100
AcDbArc
 50
104.6886870194527
 51
251.9435488266259
  0
LINE
  5
130
330
2
100
AcDbEntity
  8
OBJ
100
AcDbLine
 10
2.163081136117096
 20
6.307407074405948
 30
0.0
 11
2.163081136117096
 21
7.48011779786812
 31
0.0
  0
LINE
  5
131
330
2
100
AcDbEntity
  8
OBJ
100
AcDbLine
 10
2.219926029259704
 20
6.307407074405948
 30
0.0
 11
2.219926029259708
 21
7.48011779786812
 31
0.0
  0
LINE
  5
132
330
2
100
AcDbEntity
  8
OBJ
100
AcDbLine
 10
1.966359075437345
 20
6.307407074405948
 30
0.0
 11
1.966359075437345
 21
7.48011779786812
 31
0.0
  0
LINE
  5
133
330
2
100
AcDbEntity
  8
OBJ
100
AcDbLine
 10
2.023203968579952
 20
6.307407074405948
 30
0.0
 11
2.023203968579954
 21
7.48011779786812
 31
0.0
  0
CIRCLE
  5
134
330
2
100
AcDbEntity
  8
OBJ
100
AcDbCircle
 10
2.093142552348526
 20
6.967407074405948
 30
0.0
 40
0.0537707689354505
  0
LINE
  5
135
330
2
100
AcDbEntity
  8
OBJ
100
AcDbLine
 10
1.938165611809292
 20
6.30740707440595
 30
0.0
 11
1.938165611809294
 21
7.4427828709092
 31
0.0
  0
LINE
  5
136
330
2
100
AcDbEntity
  8
OBJ
100
AcDbLine
 10
2.248119492887758
 20
6.30740707440595
 30
0.0
 11
2.248119492887756
 21
7.4427828709092
 31
0.0
  0
LINE
  5
137
330
2
100
AcDbEntity
  8
OBJ
100
AcDbLine
 10
2.903142552308526
 20
7.468718049990948
 30
0.0
 11
2.903142552308526
 21
6.466096098820947
 31
0.0
  0
LINE
  5
138
330
2
100
AcDbEntity
  8
OBJ
100
AcDbLine
 10
1.283142552388525
 20
6.466096098820947
 30
0.0
 11
1.283142552388525
 21
7.468718049990948
 31
0.0
  0
ARC
  5
139
330
2
100
AcDbEntity
  8
OBJ
100
AcDbCircle
 10
2.093142552348526
 20
6.967407074405948
 30
0.0
 40
0.5
100
AcDbArc
 50
288.0564511733736
 51
75.31131298054734
  0
CIRCLE
  5
13A
330
2
100
AcDbEntity
  8
OBJ
100
AcDbCircle
 10
2.093142552348526
 20
6.967407074405948
 30
0.0
 40
0.8099999999600001
  0
LINE
  5
13B
330
2
100
AcDbEntity
  8
DIM
100
AcDbLine
 10
2.093142552348526
 20
6.877407074405948
 30
0.0
 11
2.093142552348526
 21
7.057407074405948
 31
0.0
  0
LINE
  5
13C
330
2
100
AcDbEntity
  8
OBJ
100
AcDbLine
 10
2.594453527933526
 20
6.157407074445949
 30
0.0
 11
1.591831576763526
 21
6.157407074445949
 31
0.0
  0
LINE
  5
13D
330
2
100
AcDbEntity
  8
OBJ
100
AcDbLine
 10
2.583142552348525
 20
4.113391100466315
 30
0.0
 11
1.603142552348526
 21
4.113391100466313
 31
0.0
  0
LINE
  5
13E
330
2
100
AcDbEntity
  8
OBJ
100
AcDbLine
 10
2.768142552348527
 20
3.612165985478067
 30
0.0
 11
1.418142552348526
 21
3.612165985478067
 31
0.0
  0
LINE
  5
13F
330
2
100
AcDbEntity
  8
OBJ
100
AcDbLine
 10
2.708142552348525
 20
4.0230259429593
 30
0.0
 11
1.478142552348526
 21
4.023025942959299
 31
0.0
  0
ARC
  5
140
330
2
100
AcDbEntity
  8
OBJ
100
AcDbCircle
 10
1.848556563401161
 20
4.203391100466315
 30
0.0
 40
0.09
100
AcDbArc
 50
270.0
 51
354.6576147210949
  0
LINE
  5
141
330
2
100
AcDbEntity
  8
OBJ
100
AcDbLine
 10
1.848556563401161
 20
4.113391100466315
 30
0.0
 11
2.337728541295892
 21
4.113391100466315
 31
0.0
  0
ARC
  5
142
330
2
100
AcDbEntity
  8
OBJ
100
AcDbCircle
 10
1.603142552348526
 20
4.053391100466313
 30
0.0
 40
0.06
100
AcDbArc
 50
90.0
 51
180.0000000000007
  0
LINE
  5
143
330
2
100
AcDbEntity
  8
OBJ
100
AcDbLine
 10
1.418142552348527
 20
3.612165985478067
 30
0.0
 11
1.418142552348526
 21
3.9630259429593
 31
0.0
  0
LINE
  5
144
330
2
100
AcDbEntity
  8
OBJ
100
AcDbLine
 10
1.418142552348527
 20
3.612165985478067
 30
0.0
 11
1.348997914647508
 21
3.543021347777044
 31
0.0
  0
ARC
  5
145
330
2
100
AcDbEntity
  8
OBJ
100
AcDbCircle
 10
1.478142552348526
 20
3.9630259429593
 30
0.0
 40
0.06
100
AcDbArc
 50
90.00000000000005
 51
180.0000000000001
  0
LINE
  5
146
330
2
100
AcDbEntity
  8
OBJ
100
AcDbLine
 10
1.543142552348526
 20
4.0230259429593
 30
0.0
 11
1.543142552348526
 21
4.053391100466313
 31
0.0
  0
LINE
  5
147
330
2
100
AcDbEntity
  8
OBJ
100
AcDbLine
 10
2.219926029259707
 20
4.496502697077731
 30
0.0
 11
2.248119492887756
 21
4.195011455880274
 31
0.0
  0
LINE
  5
148
330
2
100
AcDbEntity
  8
OBJ
100
AcDbLine
 10
2.219926029259707
 20
4.496502697077731
 30
0.0
 11
2.219926029259707
 21
4.113391100466315
 31
0.0
  0
LINE
  5
149
330
2
100
AcDbEntity
  8
OBJ
100
AcDbLine
 10
2.163081136117096
 20
4.496502697077731
 30
0.0
 11
2.163081136117098
 21
4.113391100466315
 31
0.0
  0
LINE
  5
14A
330
2
100
AcDbEntity
  8
OBJ
100
AcDbLine
 10
1.966359075437346
 20
4.496502697077731
 30
0.0
 11
1.938165611809296
 21
4.195011455880274
 31
0.0
  0
LINE
  5
14B
330
2
100
AcDbEntity
  8
OBJ
100
AcDbLine
 10
2.023203968579957
 20
4.496502697077731
 30
0.0
 11
2.023203968579954
 21
4.113391100466315
 31
0.0
  0
LINE
  5
14C
330
2
100
AcDbEntity
  8
OBJ
100
AcDbLine
 10
1.966359075437346
 20
4.496502697077731
 30
0.0
 11
1.966359075437346
 21
4.113391100466315
 31
0.0
  0
LINE
  5
14D
330
2
100
AcDbEntity
  8
OBJ
100
AcDbLine
 10
2.219926029259707
 20
4.16874561794602
 30
0.0
 11
2.163081136117096
 21
4.16874561794602
 31
0.0
  0
LINE
  5
14E
330
2
100
AcDbEntity
  8
OBJ
100
AcDbLine
 10
2.023203968579954
 20
4.24303723970968
 30
0.0
 11
2.163081136117099
 21
4.243037239709681
 31
0.0
  0
LINE
  5
14F
330
2
100
AcDbEntity
  8
OBJ
100
AcDbLine
 10
1.966359075437346
 20
4.16874561794602
 30
0.0
 11
2.023203968579957
 21
4.16874561794602
 31
0.0
  0
ARC
  5
150
330
2
100
AcDbEntity
  8
OBJ
100
AcDbCircle
 10
2.337728541295892
 20
4.203391100466315
 30
0.0
 40
0.09
100
AcDbArc
 50
185.3423852789051
 51
270.0
  0
LINE
  5
151
330
2
100
AcDbEntity
  8
OBJ
100
AcDbLine
 10
2.219926029259707
 20
4.496502697077731
 30
0.0
 11
2.163081136117096
 21
4.496502697077731
 31
0.0
  0
LINE
  5
152
330
2
100
AcDbEntity
  8
OBJ
100
AcDbLine
 10
2.023203968579954
 20
4.400360637692902
 30
0.0
 11
2.163081136117098
 21
4.400360637692907
 31
0.0
  0
LINE
  5
153
330
2
100
AcDbEntity
  8
OBJ
100
AcDbLine
 10
2.023203968579957
 20
4.430951281251391
 30
0.0
 11
2.163081136117098
 21
4.43095128125139
 31
0.0
  0
LINE
  5
154
330
2
100
AcDbEntity
  8
OBJ
100
AcDbLine
 10
1.966359075437346
 20
4.496502697077731
 30
0.0
 11
2.023203968579957
 21
4.496502697077731
 31
0.0
  0
DIMENSION
  5
155
330
2
100
AcDbEntity
  8
DIM
100
AcDbDimension
  2
*D23
 10
2.248119492887759
 20
5.665550914552347
 30
0.0
 11
1.537940509490056
 21
5.665550914552347
 31
0.0
 70
   160
 71
     5
 42
0.3099538810784645
  3
Standard
100
AcDbAlignedDimension
 13
1.938165611809294
 23
5.877407074405947
 33
0.0
 14
2.248119492887759
 24
5.877407074405947
 34
0.0
100
AcDbRotatedDimension
  0
LINE
  5
165
330
2
100
AcDbEntity
  8
OBJ
  6
HIDDEN
 48
0.25
100
AcDbLine
 10
1.938165611809292
 20
6.30740707440595
 30
0.0
 11
1.938165611809294
 21
5.877407074405947
 31
0.0
  0
LINE
  5
167
330
2
100
AcDbEntity
  8
OBJ
  6
HIDDEN
 48
0.25
100
AcDbLine
 10
2.248119492887758
 20
6.307407074405948
 30
0.0
 11
2.248119492887759
 21
5.877407074405947
 31
0.0
  0
LINE
  5
168
330
2
100
AcDbEntity
  8
OBJ
  6
HIDDEN
 48
0.25
100
AcDbLine
 10
1.938165611809294
 20
5.877407074405947
 30
0.0
 11
2.248119492887759
 21
5.877407074405947
 31
0.0
  0
LINE
  5
169
330
2
100
AcDbEntity
  8
OBJ
100
AcDbLine
 10
2.163081136117094
 20
6.307407074405948
 30
0.0
 11
2.248119492887758
 21
6.30740707440595
 31
0.0
  0
LINE
  5
16A
330
2
100
AcDbEntity
  8
OBJ
100
AcDbLine
 10
2.023203968579952
 20
6.431320946695822
 30
0.0
 11
2.163081136117094
 21
6.431320946695822
 31
0.0
  0
LINE
  5
16B
330
2
100
AcDbEntity
  8
OBJ
100
AcDbLine
 10
2.023203968579952
 20
6.394530421936868
 30
0.0
 11
2.163081136117094
 21
6.394530421936868
 31
0.0
  0
LINE
  5
16C
330
2
100
AcDbEntity
  8
OBJ
100
AcDbLine
 10
1.938165611809292
 20
6.30740707440595
 30
0.0
 11
2.023203968579952
 21
6.307407074405948
 31
0.0
  0
CIRCLE
  5
16D
330
2
100
AcDbEntity
  8
OBJ
100
AcDbCircle
 10
2.093142552348526
 20
6.701383266134654
 30
0.0
 40
0.0537707689354505
  0
LINE
  5
16E
330
2
100
AcDbEntity
  8
OBJ
100
AcDbLine
 10
2.023203968579952
 20
6.519052203984265
 30
0.0
 11
2.163081136117094
 21
6.519052203984265
 31
0.0
  0
LINE
  5
16F
330
2
100
AcDbEntity
  8
OBJ
100
AcDbLine
 10
1.938165611809292
 20
6.653272544270428
 30
0.0
 11
1.966359075437345
 21
6.653272544270428
 31
0.0
  0
LINE
  5
170
330
2
100
AcDbEntity
  8
OBJ
100
AcDbLine
 10
1.938165611809292
 20
6.840172544270429
 30
0.0
 11
1.966359075437345
 21
6.840172544270429
 31
0.0
  0
LINE
  5
171
330
2
100
AcDbEntity
  8
OBJ
100
AcDbLine
 10
1.938165611809292
 20
6.902472544270429
 30
0.0
 11
1.966359075437345
 21
6.902472544270429
 31
0.0
  0
LINE
  5
172
330
2
100
AcDbEntity
  8
OBJ
100
AcDbLine
 10
1.938165611809292
 20
6.71557254427043
 30
0.0
 11
1.966359075437345
 21
6.71557254427043
 31
0.0
  0
LINE
  5
173
330
2
100
AcDbEntity
  8
OBJ
100
AcDbLine
 10
1.938165611809292
 20
6.777872544270429
 30
0.0
 11
1.966359075437345
 21
6.777872544270429
 31
0.0
  0
LINE
  5
174
330
2
100
AcDbEntity
  8
OBJ
100
AcDbLine
 10
2.219926029259707
 20
6.653272544270428
 30
0.0
 11
2.248119492887759
 21
6.653272544270428
 31
0.0
  0
LINE
  5
175
330
2
100
AcDbEntity
  8
OBJ
100
AcDbLine
 10
2.219926029259707
 20
6.840172544270429
 30
0.0
 11
2.248119492887759
 21
6.840172544270429
 31
0.0
  0
LINE
  5
176
330
2
100
AcDbEntity
  8
OBJ
100
AcDbLine
 10
2.219926029259707
 20
6.902472544270429
 30
0.0
 11
2.248119492887759
 21
6.902472544270429
 31
0.0
  0
LINE
  5
177
330
2
100
AcDbEntity
  8
OBJ
100
AcDbLine
 10
2.219926029259707
 20
6.71557254427043
 30
0.0
 11
2.248119492887759
 21
6.71557254427043
 31
0.0
  0
LINE
  5
178
330
2
100
AcDbEntity
  8
OBJ
100
AcDbLine
 10
2.219926029259707
 20
6.777872544270429
 30
0.0
 11
2.248119492887759
 21
6.777872544270429
 31
0.0
  0
LINE
  5
179
330
2
100
AcDbEntity
  8
OBJ
100
AcDbLine
 10
2.768142552348527
 20
3.612165985478067
 30
0.0
 11
2.768142552348525
 21
3.9630259429593
 31
0.0
  0
LINE
  5
17A
330
2
100
AcDbEntity
  8
OBJ
100
AcDbLine
 10
2.768142552348527
 20
3.612165985478067
 30
0.0
 11
2.837287190049545
 21
3.543021347777044
 31
0.0
  0
ARC
  5
17B
330
2
100
AcDbEntity
  8
OBJ
100
AcDbCircle
 10
2.708142552348525
 20
3.9630259429593
 30
0.0
 40
0.06
100
AcDbArc
 50
0.0000000000002163
 51
90.0000000000001
  0
ARC
  5
17C
330
2
100
AcDbEntity
  8
OBJ
100
AcDbCircle
 10
2.583142552348525
 20
4.053391100466314
 30
0.0
 40
0.06
100
AcDbArc
 50
0.0
 51
90.0
  0
LINE
  5
17D
330
2
100
AcDbEntity
  8
OBJ
100
AcDbLine
 10
2.643142552348525
 20
4.0230259429593
 30
0.0
 11
2.643142552348525
 21
4.053391100466314
 31
0.0
  0
ARC
  5
17E
330
2
100
AcDbEntity
  8
OBJ
100
AcDbCircle
 10
2.594453527933528
 20
6.466096098820949
 30
0.0
 40
0.3086890243749991
100
AcDbArc
 50
269.9999999999998
 51
359.9999999999997
  0
CIRCLE
  5
17F
330
2
100
AcDbEntity
  8
NOTES
100
AcDbCircle
 10
3.659091403807222
 20
6.736873364488199
 30
0.0
 40
0.0814663559072671
  0
LINE
  5
181
330
2
100
AcDbEntity
  8
OBJ
100
AcDbLine
 10
2.167666675268708
 20
7.777407074365943
 30
0.0
 11
2.594453527933526
 21
7.777407074365947
 31
0.0
  0
DIMENSION
  5
182
330
2
100
AcDbEntity
  8
DIM
100
AcDbDimension
  2
*D24
 10
2.903142552308526
 20
8.146428033317619
 30
0.0
 11
2.093142552348526
 21
8.146428033317619
 31
0.0
 70
    32
 71
     5
 42
1.61999999992
  3
Standard
100
AcDbAlignedDimension
 13
1.283142552388525
 23
7.46871804999095
 33
0.0
 14
2.903142552308526
 24
7.468718049990948
 34
0.0
100
AcDbRotatedDimension
  0
LINE
  5
190
330
2
100
AcDbEntity
  8
OBJ
100
AcDbLine
 10
1.591831576763526
 20
7.777407074365947
 30
0.0
 11
2.018618429428344
 21
7.777407074365943
 31
0.0
  0
ARC
  5
191
330
2
100
AcDbEntity
  8
OBJ
100
AcDbCircle
 10
2.1915035826884
 20
7.48011779786812
 30
0.0
 40
0.0284224465713043
100
AcDbArc
 50
0.0
 51
180.0
  0
LINE
  5
192
330
2
100
AcDbEntity
  8
OBJ
100
AcDbLine
 10
2.023203968579952
 20
7.348254157967283
 30
0.0
 11
2.163081136117094
 21
7.348254157967283
 31
0.0
  0
LINE
  5
193
330
2
100
AcDbEntity
  8
OBJ
100
AcDbLine
 10
2.023203968579952
 20
7.116190812308279
 30
0.0
 11
2.163081136117094
 21
7.116190812308279
 31
0.0
  0
LINE
  5
194
330
2
100
AcDbEntity
  8
DIM
100
AcDbLine
 10
2.003142552348526
 20
6.967407074405948
 30
0.0
 11
2.183142552348527
 21
6.967407074405948
 31
0.0
  0
LINE
  5
195
330
2
100
AcDbEntity
  8
OBJ
100
AcDbLine
 10
1.938165611809292
 20
7.089372544270429
 30
0.0
 11
1.966359075437345
 21
7.089372544270429
 31
0.0
  0
LINE
  5
196
330
2
100
AcDbEntity
  8
OBJ
100
AcDbLine
 10
1.938165611809292
 20
6.96477254427043
 30
0.0
 11
1.966359075437345
 21
6.96477254427043
 31
0.0
  0
LINE
  5
197
330
2
100
AcDbEntity
  8
OBJ
100
AcDbLine
 10
1.938165611809292
 20
7.027072544270429
 30
0.0
 11
1.966359075437345
 21
7.027072544270429
 31
0.0
  0
LINE
  5
198
330
2
100
AcDbEntity
  8
OBJ
100
AcDbLine
 10
1.938165611809292
 20
7.276272544270429
 30
0.0
 11
1.966359075437345
 21
7.276272544270429
 31
0.0
  0
LINE
  5
199
330
2
100
AcDbEntity
  8
OBJ
100
AcDbLine
 10
1.938165611809292
 20
7.338572544270429
 30
0.0
 11
1.966359075437345
 21
7.338572544270429
 31
0.0
  0
LINE
  5
19A
330
2
100
AcDbEntity
  8
OBJ
100
AcDbLine
 10
1.938165611809292
 20
7.15167254427043
 30
0.0
 11
1.966359075437345
 21
7.15167254427043
 31
0.0
  0
LINE
  5
19B
330
2
100
AcDbEntity
  8
OBJ
100
AcDbLine
 10
1.938165611809292
 20
7.21397254427043
 30
0.0
 11
1.966359075437345
 21
7.21397254427043
 31
0.0
  0
ARC
  5
19C
330
2
100
AcDbEntity
  8
OBJ
100
AcDbCircle
 10
2.093142552348526
 20
6.967407074405948
 30
0.0
 40
0.5
100
AcDbArc
 50
81.95926147305289
 51
98.04073852694729
  0
LINE
  5
19D
330
2
100
AcDbEntity
  8
OBJ
100
AcDbLine
 10
2.023203968579952
 20
7.421835207485195
 30
0.0
 11
2.163081136117094
 21
7.421835207485195
 31
0.0
  0
LINE
  5
19E
330
2
100
AcDbEntity
  8
OBJ
  6
HIDDEN
 48
0.125
100
AcDbLine
 10
2.018618429428344
 20
7.777407074365943
 30
0.0
 11
2.071314942107183
 21
7.724710561687106
 31
0.0
  0
ARC
  5
19F
330
2
100
AcDbEntity
  8
OBJ
100
AcDbCircle
 10
1.994781522008649
 20
7.48011779786812
 30
0.0
 40
0.0284224465713043
100
AcDbArc
 50
0.0
 51
180.0
  0
LINE
  5
1A0
330
2
100
AcDbEntity
  8
OBJ
  6
HIDDEN
 48
0.125
100
AcDbLine
 10
2.114970162589868
 20
7.724710561687106
 30
0.0
 11
2.167666675268708
 21
7.777407074365943
 31
0.0
  0
ARC
  5
1A1
330
2
100
AcDbEntity
  8
OBJ
  6
HIDDEN
 48
0.125
100
AcDbCircle
 10
2.093142552348526
 20
7.74653817192845
 30
0.0
 40
0.0308689024375012
100
AcDbArc
 50
225.0000000000016
 51
314.9999999999983
  0
LINE
  5
1A2
330
2
100
AcDbEntity
  8
OBJ
100
AcDbLine
 10
2.219926029259707
 20
7.089372544270429
 30
0.0
 11
2.248119492887759
 21
7.089372544270429
 31
0.0
  0
LINE
  5
1A3
330
2
100
AcDbEntity
  8
OBJ
100
AcDbLine
 10
2.219926029259707
 20
6.96477254427043
 30
0.0
 11
2.248119492887759
 21
6.96477254427043
 31
0.0
  0
LINE
  5
1A4
330
2
100
AcDbEntity
  8
OBJ
100
AcDbLine
 10
2.219926029259707
 20
7.027072544270429
 30
0.0
 11
2.248119492887759
 21
7.027072544270429
 31
0.0
  0
LINE
  5
1A5
330
2
100
AcDbEntity
  8
OBJ
100
AcDbLine
 10
2.219926029259707
 20
7.276272544270429
 30
0.0
 11
2.248119492887759
 21
7.276272544270429
 31
0.0
  0
LINE
  5
1A6
330
2
100
AcDbEntity
  8
OBJ
100
AcDbLine
 10
2.219926029259707
 20
7.338572544270429
 30
0.0
 11
2.248119492887759
 21
7.338572544270429
 31
0.0
  0
LINE
  5
1A7
330
2
100
AcDbEntity
  8
OBJ
100
AcDbLine
 10
2.219926029259707
 20
7.15167254427043
 30
0.0
 11
2.248119492887759
 21
7.15167254427043
 31
0.0
  0
LINE
  5
1A8
330
2
100
AcDbEntity
  8
OBJ
100
AcDbLine
 10
2.219926029259707
 20
7.21397254427043
 30
0.0
 11
2.248119492887759
 21
7.21397254427043
 31
0.0
  0
ARC
  5
1A9
330
2
100
AcDbEntity
  8
OBJ
100
AcDbCircle
 10
2.594453527933526
 20
7.468718049990948
 30
0.0
 40
0.3086890243750009
100
AcDbArc
 50
0.0
 51
89.99999999999992
  0
LINE
  5
1AA
330
2
100
AcDbEntity
  8
OBJ
100
AcDbLine
 10
6.819630843253484
 20
3.233612099220278
 30
0.0
 11
6.819630843253484
 21
3.572165985478065
 31
0.0
  0
LINE
  5
1AB
330
2
100
AcDbEntity
  8
OBJ
100
AcDbLine
 10
5.633630843253484
 20
3.233612099220278
 30
0.0
 11
5.633630843253484
 21
3.572165985478065
 31
0.0
  0
LINE
  5
1AC
330
2
100
AcDbEntity
  8
CL
 48
0.5
100
AcDbLine
 10
6.226630843253484
 20
1.623918794791969
 30
0.0
 11
6.226630843253484
 21
7.851267257386866
 31
0.0
  0
ELLIPSE
  5
1AD
330
2
100
AcDbEntity
  8
OBJ
100
AcDbEllipse
 10
6.936569147910909
 20
2.502772333346771
 30
0.0
 11
-0.0361242058268777
 21
0.000006692493227
 31
0.0
210
0.0
220
0.0
230
1.0
 40
0.3826834538255973
 41
3.141492389761812
 42
4.712288716557101
  0
ELLIPSE
  5
1AE
330
2
100
AcDbEntity
  8
OBJ
100
AcDbEllipse
 10
7.004936731849805
 20
2.258148628134046
 30
0.0
 11
-0.0008966585547306
 21
0.1023676891381015
 31
0.0
210
0.0
220
0.0
230
1.0
 40
0.3907333049937804
 41
5.792688797317476
 42
6.279763071926062
  0
ELLIPSE
  5
1AF
330
2
100
AcDbEntity
  8
OBJ
100
AcDbEllipse
 10
6.933535768837738
 20
2.410926819228763
 30
0.0
 11
0.0399999993135495
 21
-0.0000074105358693
 31
0.0
210
0.0
220
0.0
230
1.0
 40
0.3826834538255959
 41
6.072518468684696
 42
6.283256204414755
  0
ELLIPSE
  5
1B0
330
2
100
AcDbEntity
  8
OBJ
100
AcDbEllipse
 10
6.9365263576453
 20
2.407101476656896
 30
0.0
 11
-0.0361242058268777
 21
0.000006692493227
 31
0.0
210
0.0
220
0.0
230
1.0
 40
0.3826834538255973
 41
3.105345723633353
 42
3.141492389761658
  0
SPLINE
  5
1B1
330
2
100
AcDbEntity
  8
OBJ
100
AcDbSpline
210
0.0
220
0.0
230
1.0
 70
    24
 71
     1
 72
     4
 73
     2
 74
     0
 42
0.0000000001
 43
0.0000000001
 40
0.0363178271946409
 40
0.0363178271946409
 40
0.091283474148555
 40
0.091283474148555
 10
6.967294264365017
 20
2.350430672620884
 30
0.0
 10
6.96682054657074
 20
2.348711392205722
 30
0.0
  0
ELLIPSE
  5
1B2
330
2
100
AcDbEntity
  8
OBJ
100
AcDbEllipse
 10
6.811535770625022
 20
2.353653853435841
 30
0.0
 11
0.1311222268989594
 21
0.0000000000000001
 31
0.0
210
0.0
220
0.0
230
1.0
 40
0.3826834323650894
 41
1.378960055728859
 42
1.413874856747351
  0
ELLIPSE
  5
1B3
330
2
100
AcDbEntity
  8
OBJ
100
AcDbEllipse
 10
6.811535770625022
 20
2.353653853435841
 30
0.0
 11
0.1311222268989594
 21
0.0000000000000001
 31
0.0
210
0.0
220
0.0
230
1.0
 40
0.3826834323650894
 41
1.726155695557418
 42
1.762632597860821
  0
ELLIPSE
  5
1B4
330
2
100
AcDbEntity
  8
OBJ
100
AcDbEllipse
 10
6.686569155234931
 20
2.502828241522766
 30
0.0
 11
-0.0361242058268777
 21
0.000006692493227
 31
0.0
210
0.0
220
0.0
230
1.0
 40
0.3826834538255973
 41
4.712288716557101
 42
6.283085043352412
  0
SPLINE
  5
1B5
330
2
100
AcDbEntity
  8
OBJ
100
AcDbSpline
210
0.0
220
0.0
230
1.0
 70
     8
 71
     1
 72
     5
 73
     3
 74
     0
 42
0.0000000001
 43
0.0000000001
 40
3.048360340867348
 40
3.048360340867348
 40
3.101925485436305
 40
3.105416620871191
 40
3.105416620871191
 10
6.656285622865121
 20
2.348767310458868
 30
0.0
 10
6.65574914510581
 20
2.350380141905016
 30
0.0
 10
6.655737462310621
 20
2.350497985020729
 30
0.0
  0
ELLIPSE
  5
1B6
330
2
100
AcDbEntity
  8
OBJ
100
AcDbEllipse
 10
6.689553143738204
 20
2.410965400738099
 30
0.0
 11
0.0399999993135495
 21
-0.0000074105358693
 31
0.0
210
0.0
220
0.0
230
1.0
 40
0.3826834538255959
 41
3.141663550824962
 42
3.348102035979741
  0
ELLIPSE
  5
1B7
330
2
100
AcDbEntity
  8
OBJ
100
AcDbEllipse
 10
6.54665237652038
 20
2.407152055626677
 30
0.0
 11
-0.0361242064468147
 21
0.0000000000000363
 31
0.0
210
0.0
220
0.0
230
1.0
 40
0.3826834323651056
 41
3.105345726015839
 42
3.141421492526554
  0
ELLIPSE
  5
1B8
330
2
100
AcDbEntity
  8
OBJ
100
AcDbEllipse
 10
6.68652636496932
 20
2.407157384832886
 30
0.0
 11
-0.0361242058268777
 21
0.000006692493227
 31
0.0
210
0.0
220
0.0
230
1.0
 40
0.3826834538255973
 41
6.283085043351848
 42
6.319432237136124
  0
SPLINE
  5
1B9
330
2
100
AcDbEntity
  8
OBJ
100
AcDbSpline
210
0.0
220
0.0
230
1.0
 70
    24
 71
     1
 72
     4
 73
     2
 74
     0
 42
0.0000000001
 43
0.0000000001
 40
0.0362469275744479
 40
0.0362469275744479
 40
0.0929614187736757
 40
0.0929614187736757
 10
6.577430781740385
 20
2.350486952241031
 30
0.0
 10
6.576942320300243
 20
2.348712878836284
 30
0.0
  0
ELLIPSE
  5
1BA
330
2
100
AcDbEntity
  8
OBJ
100
AcDbEllipse
 10
6.421680555009368
 20
2.353684664240557
 30
0.0
 11
0.1311222246487364
 21
0.000024292148553
 31
0.0
210
0.0
220
0.0
230
1.0
 40
0.382683399693462
 41
1.378889158500416
 42
1.415272909103764
  0
ELLIPSE
  5
1BB
330
2
100
AcDbEntity
  8
OBJ
100
AcDbEllipse
 10
6.54669516678599
 20
2.502822912316557
 30
0.0
 11
-0.0361242064468147
 21
0.0000000000000363
 31
0.0
210
0.0
220
0.0
230
1.0
 40
0.3826834323651056
 41
3.141421492526708
 42
4.712217819321598
  0
SPLINE
  5
1BC
330
2
100
AcDbEntity
  8
OBJ
100
AcDbSpline
210
0.0
220
0.0
230
1.0
 70
     8
 71
     1
 72
    24
 73
    22
 74
     0
 42
0.0000000001
 43
0.0000000001
 40
3.10104149001699
 40
3.10104149001699
 40
3.246145544602281
 40
3.391249599187572
 40
3.549109183641698
 40
3.706968768095826
 40
3.870594686784266
 40
4.034220605472706
 40
4.196286644999233
 40
4.358352684525758
 40
4.519584274336849
 40
4.680815864147938
 40
4.841804103226511
 40
5.002792342305082
 40
5.163939794057545
 40
5.325087245810009
 40
5.486918121343438
 40
5.648748996876865
 40
5.812070042343544
 40
5.975391087810219
 40
6.136080531903858
 40
6.296769975997496
 40
6.323736470752327
 40
6.323736470752327
 10
6.676915045921909
 20
2.385633725945754
 30
0.0
 10
6.67760353501273
 20
2.393891561332248
 30
0.0
 10
6.681311815174177
 20
2.401838769719152
 30
0.0
 10
6.688463674928125
 20
2.409876911217241
 30
0.0
 10
6.698579953279656
 20
2.417201722524159
 30
0.0
 10
6.71191881518153
 20
2.42395772405993
 30
0.0
 10
6.727833993996492
 20
2.429747080688097
 30
0.0
 10
6.745743998403222
 20
2.434407706521569
 30
0.0
 10
6.76533864275333
 20
2.437893025456674
 30
0.0
 10
6.786010043794244
 20
2.440111611992965
 30
0.0
 10
6.807330914773141
 20
2.44103087514112
 30
0.0
 10
6.828726684930654
 20
2.440629983464591
 30
0.0
 10
6.849686231890824
 20
2.438921081296614
 30
0.0
 10
6.869697863594106
 20
2.435942006548252
 30
0.0
 10
6.888235317842696
 20
2.431764943622561
 30
0.0
 10
6.904900776721655
 20
2.426461798310804
 30
0.0
 10
6.919198748652555
 20
2.420163144947942
 30
0.0
 10
6.930874548564868
 20
2.412917375466571
 30
0.0
 10
6.939487290630306
 20
2.404878271400177
 30
0.0
 10
6.944682200904432
 20
2.396269388572611
 30
0.0
 10
6.946265368564676
 20
2.3871727730133
 30
0.0
 10
6.946156495328136
 20
2.385633725945757
 30
0.0
  0
ELLIPSE
  5
1BD
330
2
100
AcDbEntity
  8
OBJ
100
AcDbEllipse
 10
6.296695170447999
 20
2.502839287442484
 30
0.0
 11
-0.0361242064468147
 21
0.0000000000000363
 31
0.0
210
0.0
220
0.0
230
1.0
 40
0.3826834323651056
 41
4.712217819321992
 42
6.283014146117296
  0
ELLIPSE
  5
1BE
330
2
100
AcDbEntity
  8
OBJ
100
AcDbEllipse
 10
6.421680555009368
 20
2.353684664240557
 30
0.0
 11
0.1311222246487364
 21
0.000024292148553
 31
0.0
210
0.0
220
0.0
230
1.0
 40
0.382683399693462
 41
1.727047511286223
 42
1.762561700632514
  0
ELLIPSE
  5
1BF
330
2
100
AcDbEntity
  8
OBJ
100
AcDbEllipse
 10
6.296652380182389
 20
2.407168430752602
 30
0.0
 11
-0.0361242064468147
 21
0.0000000000000363
 31
0.0
210
0.0
220
0.0
230
1.0
 40
0.3826834323651056
 41
6.28301414611668
 42
6.319432234753706
  0
ELLIPSE
  5
1C0
330
2
100
AcDbEntity
  8
OBJ
100
AcDbEllipse
 10
6.299661787668989
 20
2.410976927956133
 30
0.0
 11
0.04
 21
0.0
 31
0.0
210
0.0
220
0.0
230
1.0
 40
0.3826834323651058
 41
3.141592653589802
 42
3.350137535659778
  0
SPLINE
  5
1C1
330
2
100
AcDbEntity
  8
OBJ
100
AcDbSpline
210
0.0
220
0.0
230
1.0
 70
     8
 71
     1
 72
     5
 73
     3
 74
     0
 42
0.0000000001
 43
0.0000000001
 40
3.048121165417465
 40
3.048121165417465
 40
3.101860621457123
 40
3.105345726016101
 40
3.105345726016101
 10
6.266424156036103
 20
2.34876768939721
 30
0.0
 10
6.265885658461593
 20
2.350385689787803
 30
0.0
 10
6.26587397496227
 20
2.350503327367019
 30
0.0
  0
ELLIPSE
  5
1C2
330
2
100
AcDbEntity
  8
OBJ
100
AcDbEllipse
 10
6.156663841601124
 20
2.502822912317554
 30
0.0
 11
-0.0361242064468147
 21
0.0000000000000364
 31
0.0
210
0.0
220
0.0
230
1.0
 40
0.3826834323653294
 41
3.141421492526586
 42
4.712217819321868
  0
ELLIPSE
  5
1C3
330
2
100
AcDbEntity
  8
OBJ
100
AcDbEllipse
 10
6.153630462484125
 20
2.410976925020593
 30
0.0
 11
0.04
 21
0.0
 31
0.0
210
0.0
220
0.0
230
1.0
 40
0.382683432365329
 41
6.072447571447773
 42
6.283185307179585
  0
ELLIPSE
  5
1C4
330
2
100
AcDbEntity
  8
OBJ
100
AcDbEllipse
 10
6.156621051335515
 20
2.407152055627618
 30
0.0
 11
-0.0361242064468147
 21
0.0000000000000364
 31
0.0
210
0.0
220
0.0
230
1.0
 40
0.3826834323653294
 41
3.105345726015666
 42
3.141421492526431
  0
SPLINE
  5
1C5
330
2
100
AcDbEntity
  8
OBJ
100
AcDbSpline
210
0.0
220
0.0
230
1.0
 70
    24
 71
     1
 72
     4
 73
     2
 74
     0
 42
0.0000000001
 43
0.0000000001
 40
0.0362469275744681
 40
0.0362469275744681
 40
0.0929614188031877
 40
0.0929614188031877
 10
6.18739945655552
 20
2.350486952241976
 30
0.0
 10
6.186910995115121
 20
2.348712878836306
 30
0.0
  0
ELLIPSE
  5
1C6
330
2
100
AcDbEntity
  8
OBJ
100
AcDbEllipse
 10
6.031649229824505
 20
2.353684664241535
 30
0.0
 11
0.1311222246487364
 21
0.0000242921485527
 31
0.0
210
0.0
220
0.0
230
1.0
 40
0.3826833996936858
 41
1.726790114206709
 42
1.762561700632413
  0
ELLIPSE
  5
1C7
330
2
100
AcDbEntity
  8
OBJ
100
AcDbEllipse
 10
6.031649229824505
 20
2.353684664241535
 30
0.0
 11
0.1311222246487364
 21
0.0000242921485527
 31
0.0
210
0.0
220
0.0
230
1.0
 40
0.3826833996936858
 41
1.378889158500533
 42
1.415015689109734
  0
ELLIPSE
  5
1C8
330
2
100
AcDbEntity
  8
OBJ
100
AcDbEllipse
 10
5.906663845263135
 20
2.502839287443481
 30
0.0
 11
-0.0361242064468147
 21
0.0000000000000364
 31
0.0
210
0.0
220
0.0
230
1.0
 40
0.3826834323653294
 41
4.712217819322262
 42
6.283014146117151
  0
ELLIPSE
  5
1C9
330
2
100
AcDbEntity
  8
OBJ
100
AcDbEllipse
 10
5.766633277955031
 20
2.502822912316639
 30
0.0
 11
-0.0361242064468147
 21
-0.0000000000000144
 31
0.0
210
0.0
220
0.0
230
1.0
 40
0.3826834323651054
 41
3.141421492526106
 42
4.712217819321777
  0
ELLIPSE
  5
1CA
330
2
100
AcDbEntity
  8
OBJ
100
AcDbEllipse
 10
5.909647833810717
 20
2.410976925020593
 30
0.0
 11
0.04
 21
0.0
 31
0.0
210
0.0
220
0.0
230
1.0
 40
0.382683432365329
 41
3.141592653589792
 42
3.348031138744413
  0
ELLIPSE
  5
1CB
330
2
100
AcDbEntity
  8
OBJ
100
AcDbEllipse
 10
5.906621054997525
 20
2.407168430753542
 30
0.0
 11
-0.0361242064468147
 21
0.0000000000000364
 31
0.0
210
0.0
220
0.0
230
1.0
 40
0.3826834323653294
 41
6.283014146116556
 42
6.319432234753619
  0
SPLINE
  5
1CC
330
2
100
AcDbEntity
  8
OBJ
100
AcDbSpline
210
0.0
220
0.0
230
1.0
 70
     8
 71
     1
 72
     5
 73
     3
 74
     0
 42
0.0000000001
 43
0.0000000001
 40
3.048121165388021
 40
3.048121165388021
 40
3.101860621457188
 40
3.105345726016095
 40
3.105345726016095
 10
5.876392830851538
 20
2.348767689397272
 30
0.0
 10
5.875854333276731
 20
2.350385689788752
 30
0.0
 10
5.875842649777405
 20
2.350503327367964
 30
0.0
  0
ELLIPSE
  5
1CD
330
2
100
AcDbEntity
  8
OBJ
100
AcDbEllipse
 10
5.766590487689437
 20
2.407152055626759
 30
0.0
 11
-0.0361242064468147
 21
-0.0000000000000144
 31
0.0
210
0.0
220
0.0
230
1.0
 40
0.3826834323651054
 41
3.105345726015766
 42
3.141421492525984
  0
SPLINE
  5
1CE
330
2
100
AcDbEntity
  8
OBJ
100
AcDbSpline
210
0.0
220
0.0
230
1.0
 70
    24
 71
     1
 72
     4
 73
     2
 74
     0
 42
0.0000000001
 43
0.0000000001
 40
0.0362469275738225
 40
0.0362469275738225
 40
0.0929614187770666
 40
0.0929614187770666
 10
5.797368892909513
 20
2.35048695224116
 30
0.0
 10
5.796880431469328
 20
2.348712878836286
 30
0.0
  0
SPLINE
  5
1CF
330
2
100
AcDbEntity
  8
OBJ
100
AcDbSpline
210
0.0
220
0.0
230
1.0
 70
     8
 71
     1
 72
    24
 73
    22
 74
     0
 42
0.0000000001
 43
0.0000000001
 40
3.100970596849404
 40
3.100970596849404
 40
3.246074648715811
 40
3.391178700582218
 40
3.549038285726863
 40
3.70689787087151
 40
3.870523790029461
 40
4.034149709187413
 40
4.196215748717536
 40
4.358281788247658
 40
4.519513378006593
 40
4.680744967765531
 40
4.841733206789101
 40
5.002721445812671
 40
5.163868897513202
 40
5.325016349213731
 40
5.486847224732688
 40
5.648678100251642
 40
5.811999146015391
 40
5.975320191779139
 40
6.136009636948018
 40
6.296699082116897
 40
6.323665569468387
 40
6.323665569468387
 10
5.897022582709647
 20
2.385639596797084
 30
0.0
 10
5.897709541971417
 20
2.393897558886409
 30
0.0
 10
5.901416349713382
 20
2.401845453409839
 30
0.0
 10
5.9085667202069
 20
2.409884919130832
 30
0.0
 10
5.918681641405068
 20
2.417211603897911
 30
0.0
 10
5.93201925147073
 20
2.423970075956909
 30
0.0
 10
5.94793335749909
 20
2.429762380498678
 30
0.0
 10
5.965842498152578
 20
2.434426323912297
 30
0.0
 10
5.985436496459366
 20
2.437915272650775
 30
0.0
 10
6.006107486107775
 20
2.440137688603984
 30
0.0
 10
6.027428186396926
 20
2.441060901626793
 30
0.0
 10
6.048824030436501
 20
2.440663973838029
 30
0.0
 10
6.069783893610116
 20
2.438958954877604
 30
0.0
 10
6.089796076857902
 20
2.435983587855043
 30
0.0
 10
6.108334304618162
 20
2.431809959669132
 30
0.0
 10
6.125000745665952
 20
2.42650990240144
 30
0.0
 10
6.139299884238535
 20
2.420213898577446
 30
0.0
 10
6.150977026329552
 20
2.412970292922859
 30
0.0
 10
6.159591257608761
 20
2.404932785271994
 30
0.0
 10
6.164787762743197
 20
2.396324865616467
 30
0.0
 10
6.16637261561615
 20
2.387228544068499
 30
0.0
 10
6.16626402753969
 20
2.385689477381331
 30
0.0
  0
ELLIPSE
  5
1D0
330
2
100
AcDbEntity
  8
OBJ
100
AcDbEllipse
 10
5.641618666178567
 20
2.353684664240491
 30
0.0
 11
0.1311222246487364
 21
0.000024292148737
 31
0.0
210
0.0
220
0.0
230
1.0
 40
0.3826833996934617
 41
1.378889158500002
 42
1.414764685697874
  0
ELLIPSE
  5
1D1
330
2
100
AcDbEntity
  8
OBJ
100
AcDbEllipse
 10
5.641618666178567
 20
2.353684664240491
 30
0.0
 11
0.1311222246487364
 21
0.000024292148737
 31
0.0
210
0.0
220
0.0
230
1.0
 40
0.3826833996934617
 41
1.726539011354754
 42
1.762561700631992
  0
ELLIPSE
  5
1D2
330
2
100
AcDbEntity
  8
OBJ
100
AcDbEllipse
 10
5.516633281617054
 20
2.502839287442268
 30
0.0
 11
-0.0361242064468147
 21
-0.0000000000000144
 31
0.0
210
0.0
220
0.0
230
1.0
 40
0.3826834323651054
 41
4.712217819321777
 42
6.283014146116705
  0
ELLIPSE
  5
1D3
330
2
100
AcDbEntity
  8
OBJ
100
AcDbEllipse
 10
5.516590491351444
 20
2.407168430752384
 30
0.0
 11
-0.0361242064468147
 21
-0.0000000000000144
 31
0.0
210
0.0
220
0.0
230
1.0
 40
0.3826834323651054
 41
6.283014146116087
 42
6.319432234753613
  0
ELLIPSE
  5
1D4
330
2
100
AcDbEntity
  8
OBJ
100
AcDbEllipse
 10
5.519599898837948
 20
2.410976927956133
 30
0.0
 11
0.04
 21
0.0
 31
0.0
210
0.0
220
0.0
230
1.0
 40
0.3826834323651058
 41
3.141592653589802
 42
3.35013753566997
  0
ELLIPSE
  5
1D5
330
2
100
AcDbEntity
  8
OBJ
100
AcDbEllipse
 10
5.448324954657161
 20
2.258148628134046
 30
0.0
 11
0.0008966585547306
 21
0.1023676891381012
 31
0.0
210
0.0
220
0.0
230
1.0
 40
0.3907333049937816
 41
0.0034222352535223
 42
0.4904965098621105
  0
SPLINE
  5
1D6
330
2
100
AcDbEntity
  8
OBJ
100
AcDbSpline
210
0.0
220
0.0
230
1.0
 70
     8
 71
     1
 72
     5
 73
     3
 74
     0
 42
0.0000000001
 43
0.0000000001
 40
3.048121165425128
 40
3.048121165425128
 40
3.101860621456603
 40
3.105345726015648
 40
3.105345726015648
 10
5.486362267205146
 20
2.348767689397199
 30
0.0
 10
5.485823769630721
 20
2.350385689787544
 30
0.0
 10
5.485812086131399
 20
2.350503327366761
 30
0.0
  0
SPLINE
  5
1D7
330
2
100
AcDbEntity
  8
OBJ
100
AcDbSpline
210
0.0
220
0.0
230
1.0
 70
     8
 71
     1
 72
    24
 73
    22
 74
     0
 42
0.0000000001
 43
0.0000000001
 40
3.100970596849042
 40
3.100970596849042
 40
3.246074648715426
 40
3.391178700581811
 40
3.549038285726468
 40
3.706897870871127
 40
3.870523790029082
 40
4.034149709187038
 40
4.196215748717158
 40
4.358281788247279
 40
4.519513378006215
 40
4.680744967765152
 40
4.841733206788721
 40
5.002721445812291
 40
5.163868897512821
 40
5.325016349213351
 40
5.486847224732307
 40
5.648678100251261
 40
5.811999146015013
 40
5.975320191778764
 40
6.136009636947646
 40
6.296699082116526
 40
6.323665569467799
 40
6.323665569467799
 10
5.506992019063668
 20
2.385639596795866
 30
0.0
 10
5.507678978325439
 20
2.393897558885186
 30
0.0
 10
5.511385786067387
 20
2.401845453408614
 30
0.0
 10
5.518536156560908
 20
2.409884919129615
 30
0.0
 10
5.528651077759061
 20
2.417211603896701
 30
0.0
 10
5.541988687824708
 20
2.423970075955714
 30
0.0
 10
5.557902793853069
 20
2.429762380497499
 30
0.0
 10
5.575811934506555
 20
2.434426323911142
 30
0.0
 10
5.59540593281333
 20
2.437915272649641
 30
0.0
 10
5.616076922461752
 20
2.44013768860288
 30
0.0
 10
5.63739762275089
 20
2.441060901625717
 30
0.0
 10
5.65879346679045
 20
2.440663973836983
 30
0.0
 10
5.679753329964095
 20
2.438958954876585
 30
0.0
 10
5.699765513211882
 20
2.435983587854054
 30
0.0
 10
5.718303740972141
 20
2.431809959668171
 30
0.0
 10
5.734970182019931
 20
2.426509902400502
 30
0.0
 10
5.749269320592526
 20
2.420213898576533
 30
0.0
 10
5.760946462683544
 20
2.412970292921967
 30
0.0
 10
5.769560693962755
 20
2.404932785271116
 30
0.0
 10
5.774757199097217
 20
2.396324865615597
 30
0.0
 10
5.77634205197017
 20
2.387228544067639
 30
0.0
 10
5.776233463893713
 20
2.385689477380484
 30
0.0
  0
SPLINE
  5
1D8
330
2
100
AcDbEntity
  8
OBJ
100
AcDbSpline
210
0.0
220
0.0
230
1.0
 70
     8
 71
     1
 72
    24
 73
    22
 74
     0
 42
0.0000000001
 43
0.0000000001
 40
3.100970596849358
 40
3.100970596849358
 40
3.246074648715748
 40
3.391178700582138
 40
3.549038285726783
 40
3.706897870871431
 40
3.870523790029386
 40
4.034149709187341
 40
4.196215748717464
 40
4.358281788247587
 40
4.519513378006522
 40
4.680744967765458
 40
4.841733206789028
 40
5.002721445812597
 40
5.163868897513127
 40
5.325016349213657
 40
5.486847224732613
 40
5.648678100251568
 40
5.811999146015318
 40
5.975320191779067
 40
6.136009636947957
 40
6.296699082116846
 40
6.32366556946817
 40
6.32366556946817
 10
6.287053907894511
 20
2.385639596796109
 30
0.0
 10
6.287740867156283
 20
2.393897558885428
 30
0.0
 10
6.291447674898245
 20
2.401845453408854
 30
0.0
 10
6.298598045391766
 20
2.409884919129846
 30
0.0
 10
6.308712966589931
 20
2.417211603896917
 30
0.0
 10
6.32205057665558
 20
2.423970075955914
 30
0.0
 10
6.337964682683955
 20
2.429762380497678
 30
0.0
 10
6.355873823337427
 20
2.434426323911296
 30
0.0
 10
6.375467821644217
 20
2.437915272649771
 30
0.0
 10
6.396138811292624
 20
2.440137688602979
 30
0.0
 10
6.417459511581776
 20
2.441060901625791
 30
0.0
 10
6.438855355621351
 20
2.440663973837025
 30
0.0
 10
6.459815218794981
 20
2.438958954876603
 30
0.0
 10
6.479827402042753
 20
2.435983587854045
 30
0.0
 10
6.498365629803013
 20
2.431809959668138
 30
0.0
 10
6.515032070850803
 20
2.426509902400446
 30
0.0
 10
6.529331209423386
 20
2.420213898576458
 30
0.0
 10
6.541008351514401
 20
2.412970292921875
 30
0.0
 10
6.549622582793626
 20
2.404932785271018
 30
0.0
 10
6.554819087928061
 20
2.396324865615492
 30
0.0
 10
6.556403940801013
 20
2.387228544067529
 30
0.0
 10
6.556295352724555
 20
2.385689477380371
 30
0.0
  0
SPLINE
  5
1D9
330
2
100
AcDbEntity
  8
OBJ
100
AcDbSpline
210
0.0
220
0.0
230
1.0
 70
     8
 71
     3
 72
    10
 73
     6
 74
     0
 42
0.0000000001
 43
0.0000000001
 40
0.3412320970249437
 40
0.3412320970249437
 40
0.3412320970249437
 40
0.3412320970249437
 40
0.3570500479484264
 40
0.3570500479484264
 40
0.3728679988719091
 40
0.3728679988719091
 40
0.3728679988719091
 40
0.3728679988719091
 10
6.827985163166254
 20
2.098504940978256
 30
0.0
 10
6.822416022615708
 20
2.098775200552979
 30
0.0
 10
6.816903493561079
 20
2.098912500851203
 30
0.0
 10
6.806358192945419
 20
2.098912500851203
 30
0.0
 10
6.800845663890791
 20
2.098775200552979
 30
0.0
 10
6.795276523340244
 20
2.098504940978256
 30
0.0
  0
ELLIPSE
  5
1DA
330
2
100
AcDbEntity
  8
OBJ
100
AcDbEllipse
 10
6.81163084325325
 20
2.049151333863058
 30
0.0
 11
-0.1299999999999954
 21
0.0
 31
0.0
210
0.0
220
0.0
230
1.0
 40
0.3826834323651334
 41
3.141592653589606
 42
4.58625230338353
  0
SPLINE
  5
1DB
330
2
100
AcDbEntity
  8
OBJ
100
AcDbSpline
210
0.0
220
0.0
230
1.0
 70
     8
 71
     3
 72
    14
 73
    10
 74
     0
 42
0.0000000001
 43
0.0000000001
 40
0.107174915786777
 40
0.107174915786777
 40
0.107174915786777
 40
0.107174915786777
 40
0.116185495802843
 40
0.116185495802843
 40
0.1252031102278906
 40
0.1252031102278906
 40
0.1384349594185068
 40
0.1384349594185068
 40
0.1516668086091231
 40
0.1516668086091231
 40
0.1516668086091231
 40
0.1516668086091231
 10
6.594718059443231
 20
2.100478744918091
 30
0.0
 10
6.594743444794794
 20
2.101935462076577
 30
0.0
 10
6.59424179978546
 20
2.103798122296999
 30
0.0
 10
6.592508275704656
 20
2.107984599296162
 30
0.0
 10
6.591270593384473
 20
2.110307270682668
 30
0.0
 10
6.588090258907665
 20
2.115797370976268
 30
0.0
 10
6.585684694503153
 20
2.119521612630797
 30
0.0
 10
6.580557293098147
 20
2.127192234020386
 30
0.0
 10
6.577823837691819
 20
2.131131884554689
 30
0.0
 10
6.575319522437719
 20
2.134762026021213
 30
0.0
  0
SPLINE
  5
1DC
330
2
100
AcDbEntity
  8
OBJ
100
AcDbSpline
210
0.0
220
0.0
230
1.0
 70
     8
 71
     3
 72
    10
 73
     6
 74
     0
 42
0.0000000001
 43
0.0000000001
 40
-0.0417647838791784
 40
-0.0417647838791784
 40
-0.0417647838791784
 40
-0.0417647838791784
 40
-0.0415502310021925
 40
-0.0415502310021925
 40
-0.0350421910867174
 40
-0.0350421910867174
 40
-0.0350421910867174
 40
-0.0350421910867174
 10
6.522660285136391
 20
2.014695199974309
 30
0.0
 10
6.522638577736865
 20
2.014608884481976
 30
0.0
 10
6.522616850230628
 20
2.014522578806352
 30
0.0
 10
6.521935492090856
 20
2.011818716578634
 30
0.0
 10
6.521258780111034
 20
2.009211874342098
 30
0.0
 10
6.520618894956138
 20
2.00665315715256
 30
0.0
  0
ELLIPSE
  5
1DD
330
2
100
AcDbEntity
  8
OBJ
100
AcDbEllipse
 10
6.4650623007584
 20
2.015393296231476
 30
0.0
 11
0.096428365645764
 21
-0.0377260125755916
 31
0.0
210
0.0
220
0.0
230
1.0
 40
0.1378708387172333
 41
0.0538874775384637
 42
1.011703964023836
  0
ELLIPSE
  5
1DE
330
2
100
AcDbEntity
  8
OBJ
100
AcDbEllipse
 10
6.4650623007584
 20
1.963612099220266
 30
0.0
 11
0.0964283656457251
 21
-0.0377260125755614
 31
0.0
210
0.0
220
0.0
230
1.0
 40
0.1378708387173037
 41
0.0331135831714719
 42
0.0538874775383131
  0
SPLINE
  5
1DF
330
2
100
AcDbEntity
  8
OBJ
100
AcDbSpline
210
0.0
220
0.0
230
1.0
 70
     8
 71
     3
 72
    10
 73
     6
 74
     0
 42
0.0000000001
 43
0.0000000001
 40
0.0
 40
0.0
 40
0.0
 40
0.0
 40
0.0068323771000424
 40
0.0068323771000424
 40
0.0136655360437318
 40
0.0136655360437318
 40
0.0136655360437318
 40
0.0136655360437318
 10
6.561610006699092
 20
1.926346921587306
 30
0.0
 10
6.56149593772977
 20
1.925520309741739
 30
0.0
 10
6.5614218456006
 20
1.924875478663476
 30
0.0
 10
6.561351917267908
 20
1.92396465030516
 30
0.0
 10
6.561356257003419
 20
1.923700627904332
 30
0.0
 10
6.561398043649754
 20
1.923630869471951
 30
0.0
  0
SPLINE
  5
1E0
330
2
100
AcDbEntity
  8
OBJ
100
AcDbSpline
210
0.0
220
0.0
230
1.0
 70
     8
 71
     3
 72
    14
 73
    10
 74
     0
 42
0.0000000001
 43
0.0000000001
 40
-0.008303708877411
 40
-0.008303708877411
 40
-0.008303708877411
 40
-0.008303708877411
 40
-0.0081854763732654
 40
-0.0081854763732654
 40
-0.0079741760494122
 40
-0.0079741760494122
 40
-0.0075416085323859
 40
-0.0075416085323859
 40
-0.007076550466161
 40
-0.007076550466161
 40
-0.007076550466161
 40
-0.007076550466161
 10
6.561368921236374
 20
1.923612099220265
 30
0.0
 10
6.561371511990039
 20
1.923612099220377
 30
0.0
 10
6.561373943901751
 20
1.923612157177765
 30
0.0
 10
6.561380278725945
 20
1.92361248049862
 30
0.0
 10
6.561383832281673
 20
1.923612873192609
 30
0.0
 10
6.56139310834511
 20
1.923614635898462
 30
0.0
 10
6.561397203328279
 20
1.923616598318568
 30
0.0
 10
6.561401257800122
 20
1.923622289278808
 30
0.0
 10
6.561400880030072
 20
1.923626134431906
 30
0.0
 10
6.561398043649754
 20
1.923630869471949
 30
0.0
  0
SPLINE
  5
1E1
330
2
100
AcDbEntity
  8
OBJ
100
AcDbSpline
210
0.0
220
0.0
230
1.0
 70
    24
 71
     3
 72
     8
 73
     4
 74
     0
 42
0.0000000001
 43
0.0000000001
 40
0.0075199171437402
 40
0.0075199171437402
 40
0.0075199171437402
 40
0.0075199171437402
 40
0.0135057075271342
 40
0.0135057075271342
 40
0.0135057075271342
 40
0.0135057075271342
 10
6.551630843253301
 20
1.928617227119961
 30
0.0
 10
6.551630843253301
 20
1.92907363272602
 30
0.0
 10
6.551630843253342
 20
1.929686551731239
 30
0.0
 10
6.551630843253342
 20
1.930450101917094
 30
0.0
  0
SPLINE
  5
1E2
330
2
100
AcDbEntity
  8
OBJ
100
AcDbSpline
210
0.0
220
0.0
230
1.0
 70
     8
 71
     3
 72
    10
 73
     6
 74
     0
 42
0.0000000001
 43
0.0000000001
 40
0.0
 40
0.0
 40
0.0
 40
0.0
 40
0.0067758505285162
 40
0.0067758505285162
 40
0.0075449245862625
 40
0.0075449245862625
 40
0.0075449245862625
 40
0.0075449245862625
 10
6.551380142101701
 20
1.927754234844019
 30
0.0
 10
6.551531845639951
 20
1.927754234844019
 30
0.0
 10
6.551613368595846
 20
1.927985344420319
 30
0.0
 10
6.551630003702025
 20
1.928502941970056
 30
0.0
 10
6.551630843253301
 20
1.928558631536189
 30
0.0
 10
6.551630843253301
 20
1.928617227119961
 30
0.0
  0
SPLINE
  5
1E3
330
2
100
AcDbEntity
  8
OBJ
100
AcDbSpline
210
0.0
220
0.0
230
1.0
 70
     8
 71
     3
 72
    18
 73
    14
 74
     0
 42
0.0000000001
 43
0.0000000001
 40
-0.0417680594137397
 40
-0.0417680594137397
 40
-0.0417680594137397
 40
-0.0417680594137397
 40
-0.0343916356095534
 40
-0.0343916356095534
 40
-0.0288193597061715
 40
-0.0288193597061715
 40
-0.0236514834893003
 40
-0.0236514834893003
 40
-0.0179288414348449
 40
-0.0179288414348449
 40
-0.010529419602394
 40
-0.010529419602394
 40
0.0
 40
0.0
 40
0.0
 40
0.0
 10
6.520618894197491
 20
2.006653156862264
 30
0.0
 10
6.51892557252861
 20
2.007220136973783
 30
0.0
 10
6.517243744325223
 20
2.007685409961526
 30
0.0
 10
6.514561570540545
 20
2.008172218531696
 30
0.0
 10
6.513504747907555
 20
2.008272322842209
 30
0.0
 10
6.511803989990265
 20
2.008181436784282
 30
0.0
 10
6.511169320453442
 20
2.008012594719563
 30
0.0
 10
6.510267453849261
 20
2.007390196726696
 30
0.0
 10
6.510072445961337
 20
2.006926102785669
 30
0.0
 10
6.510147573834013
 20
2.005646329679674
 30
0.0
 10
6.510571722065316
 20
2.004742531242361
 30
0.0
 10
6.512453659194486
 20
2.002212242669625
 30
0.0
 10
6.514248328425447
 20
2.000475570705218
 30
0.0
 10
6.516555751833232
 20
1.998648868849457
 30
0.0
  0
ELLIPSE
  5
1E4
330
2
100
AcDbEntity
  8
OBJ
100
AcDbEllipse
 10
6.421630843253335
 20
2.000984536013819
 30
0.0
 11
0.1286830260760789
 21
-0.0563082363096595
 31
0.0
210
0.0
220
0.0
230
1.0
 40
0.3277937206516909
 41
0.1424620633108467
 42
0.8946560474046123
  0
ELLIPSE
  5
1E5
330
2
100
AcDbEntity
  8
OBJ
100
AcDbEllipse
 10
6.81163084325325
 20
2.042810827151813
 30
0.0
 11
-0.129999999999999
 21
0.0
 31
0.0
210
0.0
220
0.0
230
1.0
 40
0.3826834323651369
 41
0.0000000000002172
 42
3.141592653589588
  0
ELLIPSE
  5
1E6
330
2
100
AcDbEntity
  8
OBJ
100
AcDbEllipse
 10
6.81163084325325
 20
2.049151333863058
 30
0.0
 11
-0.1299999999999954
 21
0.0
 31
0.0
210
0.0
220
0.0
230
1.0
 40
0.3826834323651334
 41
4.838525657385846
 42
6.283185307179786
  0
ELLIPSE
  5
1E7
330
2
100
AcDbEntity
  8
OBJ
100
AcDbEllipse
 10
6.81163084325325
 20
2.086106515163502
 30
0.0
 11
-0.129999999999999
 21
0.0
 31
0.0
210
0.0
220
0.0
230
1.0
 40
0.3826834323651109
 41
0.3805352361403484
 42
2.76105741744947
  0
SPLINE
  5
1E8
330
2
100
AcDbEntity
  8
OBJ
100
AcDbSpline
210
0.0
220
0.0
230
1.0
 70
     8
 71
     3
 72
    14
 73
    10
 74
     0
 42
0.0000000001
 43
0.0000000001
 40
0.0
 40
0.0
 40
0.0
 40
0.0
 40
0.013188266539672
 40
0.013188266539672
 40
0.026376533079344
 40
0.026376533079344
 40
0.0354377315428581
 40
0.0354377315428581
 40
0.0444918955937354
 40
0.0444918955937354
 40
0.0444918955937354
 40
0.0444918955937354
 10
6.267942158880169
 20
2.134762026021213
 30
0.0
 10
6.265446092261322
 20
2.131143841401096
 30
0.0
 10
6.2627215240341
 20
2.127216833983042
 30
0.0
 10
6.257608302732474
 20
2.119569332957326
 30
0.0
 10
6.25520827272832
 20
2.115855441806623
 30
0.0
 10
6.252019912628195
 20
2.110360743802161
 30
0.0
 10
6.250772518383082
 20
2.108024833690189
 30
0.0
 10
6.249024601890903
 20
2.103815126618901
 30
0.0
 10
6.248518113510209
 20
2.101942506607033
 30
0.0
 10
6.248543621874655
 20
2.100478744918091
 30
0.0
  0
SPLINE
  5
1E9
330
2
100
AcDbEntity
  8
OBJ
100
AcDbSpline
210
0.0
220
0.0
230
1.0
 70
     8
 71
     3
 72
    14
 73
    10
 74
     0
 42
0.0000000001
 43
0.0000000001
 40
-0.0213446362801211
 40
-0.0213446362801211
 40
-0.0213446362801211
 40
-0.0213446362801211
 40
-0.0207679336892253
 40
-0.0207679336892253
 40
-0.0204972031970928
 40
-0.0204972031970928
 40
-0.0203366647221627
 40
-0.0203366647221627
 40
-0.020285391442158
 40
-0.020285391442158
 40
-0.020285391442158
 40
-0.020285391442158
 10
6.281863642856857
 20
1.923630869471951
 30
0.0
 10
6.281859562503791
 20
1.923624057749579
 30
0.0
 10
6.281860576156171
 20
1.923619097495082
 30
0.0
 10
6.281869572559111
 20
1.923614535348939
 30
0.0
 10
6.281873570853642
 20
1.923613487636361
 30
0.0
 10
6.281881727185771
 20
1.923612469824505
 30
0.0
 10
6.28188515749745
 20
1.923612234727289
 30
0.0
 10
6.28189020242956
 20
1.923612113846601
 30
0.0
 10
6.281891463618275
 20
1.923612099221291
 30
0.0
 10
6.281892765011187
 20
1.923612099220265
 30
0.0
  0
SPLINE
  5
1EA
330
2
100
AcDbEntity
  8
OBJ
100
AcDbSpline
210
0.0
220
0.0
230
1.0
 70
     8
 71
     3
 72
    10
 73
     6
 74
     0
 42
0.0000000001
 43
0.0000000001
 40
-0.0136655500851975
 40
-0.0136655500851975
 40
-0.0136655500851975
 40
-0.0136655500851975
 40
-0.0068329585344003
 40
-0.0068329585344003
 40
0.0
 40
0.0
 40
0.0
 40
0.0
 10
6.281651679807504
 20
1.926346921587278
 30
0.0
 10
6.281765752239985
 20
1.925520284645664
 30
0.0
 10
6.281839845398075
 20
1.924875439562716
 30
0.0
 10
6.28190976897866
 20
1.923964634280279
 30
0.0
 10
6.281905428234676
 20
1.923700625786694
 30
0.0
 10
6.281863642856857
 20
1.923630869471949
 30
0.0
  0
ELLIPSE
  5
1EB
330
2
100
AcDbEntity
  8
OBJ
100
AcDbEllipse
 10
6.378199385748212
 20
1.963612099220266
 30
0.0
 11
-0.0964283656457328
 21
-0.037726012575581
 31
0.0
210
0.0
220
0.0
230
1.0
 40
0.1378708387167187
 41
6.229297829639945
 42
6.250071724008588
  0
SPLINE
  5
1EC
330
2
100
AcDbEntity
  8
OBJ
100
AcDbSpline
210
0.0
220
0.0
230
1.0
 70
     8
 71
     3
 72
    10
 73
     6
 74
     0
 42
0.0000000001
 43
0.0000000001
 40
0.0060028448236663
 40
0.0060028448236663
 40
0.0060028448236663
 40
0.0060028448236663
 40
0.0067709042126076
 40
0.0067709042126076
 40
0.0135557062391037
 40
0.0135557062391037
 40
0.0135557062391037
 40
0.0135557062391037
 10
6.291630843253297
 20
1.928617227118339
 30
0.0
 10
6.291630843253311
 20
1.928558703274669
 30
0.0
 10
6.29163168074981
 20
1.928503078331205
 30
0.0
 10
6.291648314356487
 20
1.92798481645052
 30
0.0
 10
6.291731120095998
 20
1.927754600635571
 30
0.0
 10
6.291881553079258
 20
1.927754234839791
 30
0.0
  0
SPLINE
  5
1ED
330
2
100
AcDbEntity
  8
OBJ
100
AcDbSpline
210
0.0
220
0.0
230
1.0
 70
    24
 71
     3
 72
     8
 73
     4
 74
     0
 42
0.0000000001
 43
0.0000000001
 40
0.0
 40
0.0
 40
0.0
 40
0.0
 40
0.005985757650266
 40
0.005985757650266
 40
0.005985757650266
 40
0.005985757650266
 10
6.291630843253338
 20
1.930450101913172
 30
0.0
 10
6.291630843253338
 20
1.929686551818872
 30
0.0
 10
6.291630843253311
 20
1.929073632778456
 30
0.0
 10
6.291630843253311
 20
1.928617227118339
 30
0.0
  0
ELLIPSE
  5
1EE
330
2
100
AcDbEntity
  8
OBJ
100
AcDbEllipse
 10
6.378199385748709
 20
2.015393296231504
 30
0.0
 11
-0.0964283656455283
 21
-0.0377260125755526
 31
0.0
210
0.0
220
0.0
230
1.0
 40
0.1378708387169703
 41
5.271481343162159
 42
6.229297829639607
  0
SPLINE
  5
1EF
330
2
100
AcDbEntity
  8
OBJ
100
AcDbSpline
210
0.0
220
0.0
230
1.0
 70
     8
 71
     3
 72
    10
 73
     6
 74
     0
 42
0.0000000001
 43
0.0000000001
 40
-0.0081003747957519
 40
-0.0081003747957519
 40
-0.0081003747957519
 40
-0.0081003747957519
 40
0.0
 40
0.0
 40
0.0002670479466551
 40
0.0002670479466551
 40
0.0002670479466551
 40
0.0002670479466551
 10
6.322642791550644
 20
2.006653157152248
 30
0.0
 10
6.322002906393743
 20
2.009211874348461
 30
0.0
 10
6.321326194410342
 20
2.01181871659527
 30
0.0
 10
6.320644836276596
 20
2.014522578805056
 30
0.0
 10
6.320623108769434
 20
2.014608884483641
 30
0.0
 10
6.32060140137032
 20
2.014695199974386
 30
0.0
  0
SPLINE
  5
1F0
330
2
100
AcDbEntity
  8
OBJ
100
AcDbSpline
210
0.0
220
0.0
230
1.0
 70
     8
 71
     3
 72
    20
 73
    16
 74
     0
 42
0.0000000001
 43
0.0000000001
 40
-0.0462415200195045
 40
-0.0462415200195045
 40
-0.0462415200195045
 40
-0.0462415200195045
 40
-0.0369865613202929
 40
-0.0369865613202929
 40
-0.030076985820867
 40
-0.030076985820867
 40
-0.025061190447857
 40
-0.025061190447857
 40
-0.0205930017670555
 40
-0.0205930017670555
 40
-0.0157412005182118
 40
-0.0157412005182118
 40
-0.009297134061504
 40
-0.009297134061504
 40
-0.0070933241343543
 40
-0.0070933241343543
 40
-0.0070933241343543
 40
-0.0070933241343543
 10
6.326705934673349
 20
1.998648868849214
 30
0.0
 10
6.328452292186249
 20
2.000031395566622
 30
0.0
 10
6.330012813158769
 20
2.001447754457317
 30
0.0
 10
6.332038636216006
 20
2.003778680319137
 30
0.0
 10
6.332701872118216
 20
2.004754342374179
 30
0.0
 10
6.33320906104003
 20
2.006230837651292
 30
0.0
 10
6.333226402408294
 20
2.006786802752161
 30
0.0
 10
6.332757064143757
 20
2.007620499906114
 30
0.0
 10
6.332332729873337
 20
2.007907649974097
 30
0.0
 10
6.331008105845805
 20
2.008252799414894
 30
0.0
 10
6.330107684925986
 20
2.008279343740881
 30
0.0
 10
6.327664322318834
 20
2.008042470030972
 30
0.0
 10
6.326055508859903
 20
2.007686565155009
 30
0.0
 10
6.323828605176879
 20
2.007037894451404
 30
0.0
 10
6.323243256445404
 20
2.006854212118677
 30
0.0
 10
6.32264279230929
 20
2.006653156861958
 30
0.0
  0
ELLIPSE
  5
1F1
330
2
100
AcDbEntity
  8
OBJ
100
AcDbEllipse
 10
6.421630843253335
 20
2.000984536013816
 30
0.0
 11
0.1286830260760889
 21
0.0563082363096889
 31
0.0
210
0.0
220
0.0
230
1.0
 40
0.3277937206502902
 41
2.246936606186348
 42
2.999130590278906
  0
SPLINE
  5
1F2
330
2
100
AcDbEntity
  8
OBJ
100
AcDbSpline
210
0.0
220
0.0
230
1.0
 70
     8
 71
     3
 72
    10
 73
     6
 74
     0
 42
0.0000000001
 43
0.0000000001
 40
0.3412320970250418
 40
0.3412320970250418
 40
0.3412320970250418
 40
0.3412320970250418
 40
0.3570500479482948
 40
0.3570500479482948
 40
0.3728679988715479
 40
0.3728679988715479
 40
0.3728679988715479
 40
0.3728679988715479
 10
6.047985163166041
 20
2.098504940978256
 30
0.0
 10
6.042416022615592
 20
2.098775200552971
 30
0.0
 10
6.036903493561037
 20
2.098912500851191
 30
0.0
 10
6.026358192945544
 20
2.098912500851191
 30
0.0
 10
6.02084566389099
 20
2.098775200552971
 30
0.0
 10
6.015276523340539
 20
2.098504940978256
 30
0.0
  0
SPLINE
  5
1F3
330
2
100
AcDbEntity
  8
OBJ
100
AcDbSpline
210
0.0
220
0.0
230
1.0
 70
     8
 71
     3
 72
    14
 73
    10
 74
     0
 42
0.0000000001
 43
0.0000000001
 40
0.1071749157867759
 40
0.1071749157867759
 40
0.1071749157867759
 40
0.1071749157867759
 40
0.1161854958028425
 40
0.1161854958028425
 40
0.1252031102278902
 40
0.1252031102278902
 40
0.1384349594185061
 40
0.1384349594185061
 40
0.151666808609122
 40
0.151666808609122
 40
0.151666808609122
 40
0.151666808609122
 10
5.814718059443231
 20
2.100478744918091
 30
0.0
 10
5.814743444794767
 20
2.101935462076581
 30
0.0
 10
5.814241799785444
 20
2.103798122297002
 30
0.0
 10
5.812508275704654
 20
2.107984599296164
 30
0.0
 10
5.811270593384472
 20
2.110307270682668
 30
0.0
 10
5.80809025890765
 20
2.115797370976268
 30
0.0
 10
5.805684694503151
 20
2.119521612630797
 30
0.0
 10
5.800557293098131
 20
2.127192234020386
 30
0.0
 10
5.797823837691803
 20
2.131131884554689
 30
0.0
 10
5.795319522437702
 20
2.134762026021213
 30
0.0
  0
ELLIPSE
  5
1F4
330
2
100
AcDbEntity
  8
OBJ
100
AcDbEllipse
 10
5.685062300758383
 20
1.963612099220266
 30
0.0
 11
0.0964283656457262
 21
-0.0377260125755614
 31
0.0
210
0.0
220
0.0
230
1.0
 40
0.1378708387173026
 41
0.0331135831715608
 42
0.0538874775384046
  0
SPLINE
  5
1F5
330
2
100
AcDbEntity
  8
OBJ
100
AcDbSpline
210
0.0
220
0.0
230
1.0
 70
     8
 71
     3
 72
    10
 73
     6
 74
     0
 42
0.0000000001
 43
0.0000000001
 40
0.0
 40
0.0
 40
0.0
 40
0.0
 40
0.0068323771000337
 40
0.0068323771000337
 40
0.013665536043707
 40
0.013665536043707
 40
0.013665536043707
 40
0.013665536043707
 10
5.781610006699078
 20
1.926346921587308
 30
0.0
 10
5.781495937729753
 20
1.925520309741741
 30
0.0
 10
5.7814218456006
 20
1.924875478663476
 30
0.0
 10
5.781351917267892
 20
1.923964650305161
 30
0.0
 10
5.781356257003419
 20
1.923700627904332
 30
0.0
 10
5.781398043649753
 20
1.923630869471949
 30
0.0
  0
SPLINE
  5
1F6
330
2
100
AcDbEntity
  8
OBJ
100
AcDbSpline
210
0.0
220
0.0
230
1.0
 70
     8
 71
     3
 72
    14
 73
    10
 74
     0
 42
0.0000000001
 43
0.0000000001
 40
-0.0083037088773457
 40
-0.0083037088773457
 40
-0.0083037088773457
 40
-0.0083037088773457
 40
-0.0081854763732419
 40
-0.0081854763732419
 40
-0.0079741760494108
 40
-0.0079741760494108
 40
-0.0075416085323764
 40
-0.0075416085323764
 40
-0.0070765504661497
 40
-0.0070765504661497
 40
-0.0070765504661497
 40
-0.0070765504661497
 10
5.781368921236374
 20
1.923612099220265
 30
0.0
 10
5.781371511990039
 20
1.923612099220377
 30
0.0
 10
5.781373943901735
 20
1.923612157177765
 30
0.0
 10
5.781380278725942
 20
1.92361248049862
 30
0.0
 10
5.781383832281671
 20
1.923612873192609
 30
0.0
 10
5.781393108345109
 20
1.923614635898462
 30
0.0
 10
5.781397203328277
 20
1.923616598318566
 30
0.0
 10
5.781401257800122
 20
1.923622289278808
 30
0.0
 10
5.781400880030057
 20
1.923626134431906
 30
0.0
 10
5.781398043649753
 20
1.923630869471949
 30
0.0
  0
SPLINE
  5
1F7
330
2
100
AcDbEntity
  8
OBJ
100
AcDbSpline
210
0.0
220
0.0
230
1.0
 70
     8
 71
     3
 72
    10
 73
     6
 74
     0
 42
0.0000000001
 43
0.0000000001
 40
0.0
 40
0.0
 40
0.0
 40
0.0
 40
0.0067758505285223
 40
0.0067758505285223
 40
0.0075449245861631
 40
0.0075449245861631
 40
0.0075449245861631
 40
0.0075449245861631
 10
5.771380142101686
 20
1.927754234844018
 30
0.0
 10
5.77153184563995
 20
1.927754234844018
 30
0.0
 10
5.771613368595845
 20
1.927985344420319
 30
0.0
 10
5.771630003702011
 20
1.928502941970049
 30
0.0
 10
5.7716308432533
 20
1.928558631536172
 30
0.0
 10
5.7716308432533
 20
1.928617227119939
 30
0.0
  0
SPLINE
  5
1F8
330
2
100
AcDbEntity
  8
OBJ
100
AcDbSpline
210
0.0
220
0.0
230
1.0
 70
    24
 71
     3
 72
     8
 73
     4
 74
     0
 42
0.0000000001
 43
0.0000000001
 40
0.0075199171436215
 40
0.0075199171436215
 40
0.0075199171436215
 40
0.0075199171436215
 40
0.0135057075271103
 40
0.0135057075271103
 40
0.0135057075271103
 40
0.0135057075271103
 10
5.7716308432533
 20
1.928617227119939
 30
0.0
 10
5.7716308432533
 20
1.929073632725999
 30
0.0
 10
5.7716308432533
 20
1.929686551731241
 30
0.0
 10
5.7716308432533
 20
1.930450101917109
 30
0.0
  0
ELLIPSE
  5
1F9
330
2
100
AcDbEntity
  8
OBJ
100
AcDbEllipse
 10
6.031630843253291
 20
2.049151333863044
 30
0.0
 11
-0.1299999999999954
 21
0.0
 31
0.0
210
0.0
220
0.0
230
1.0
 40
0.3826834323651334
 41
4.838525657383863
 42
6.283185307179797
  0
ELLIPSE
  5
1FA
330
2
100
AcDbEntity
  8
OBJ
100
AcDbEllipse
 10
6.031630843253291
 20
2.042810827151801
 30
0.0
 11
-0.129999999999999
 21
0.0
 31
0.0
210
0.0
220
0.0
230
1.0
 40
0.3826834323651369
 41
0.0000000000001503
 42
3.141592653589654
  0
ELLIPSE
  5
1FB
330
2
100
AcDbEntity
  8
OBJ
100
AcDbEllipse
 10
6.031630843253291
 20
2.049151333863044
 30
0.0
 11
-0.1299999999999954
 21
0.0
 31
0.0
210
0.0
220
0.0
230
1.0
 40
0.3826834323651334
 41
3.1415926535896
 42
4.586252303385514
  0
ELLIPSE
  5
1FC
330
2
100
AcDbEntity
  8
OBJ
100
AcDbEllipse
 10
6.031630843253291
 20
2.086106515163491
 30
0.0
 11
-0.129999999999999
 21
0.0
 31
0.0
210
0.0
220
0.0
230
1.0
 40
0.3826834323651109
 41
0.3805352361403538
 42
2.761057417449466
  0
SPLINE
  5
1FD
330
2
100
AcDbEntity
  8
OBJ
100
AcDbSpline
210
0.0
220
0.0
230
1.0
 70
     8
 71
     3
 72
    18
 73
    14
 74
     0
 42
0.0000000001
 43
0.0000000001
 40
-0.0417680594135152
 40
-0.0417680594135152
 40
-0.0417680594135152
 40
-0.0417680594135152
 40
-0.0343916356095545
 40
-0.0343916356095545
 40
-0.0288193597061681
 40
-0.0288193597061681
 40
-0.0236514834892956
 40
-0.0236514834892956
 40
-0.0179288414348379
 40
-0.0179288414348379
 40
-0.0105294196023879
 40
-0.0105294196023879
 40
0.0
 40
0.0
 40
0.0
 40
0.0
 10
5.740618894197292
 20
2.006653156862086
 30
0.0
 10
5.738925572528467
 20
2.007220136973571
 30
0.0
 10
5.737243744325178
 20
2.007685409961516
 30
0.0
 10
5.734561570540543
 20
2.008172218531678
 30
0.0
 10
5.733504747907555
 20
2.008272322842191
 30
0.0
 10
5.731803989990278
 20
2.008181436784266
 30
0.0
 10
5.731169320453455
 20
2.008012594719544
 30
0.0
 10
5.73026745384926
 20
2.007390196726678
 30
0.0
 10
5.730072445961335
 20
2.006926102785651
 30
0.0
 10
5.730147573834011
 20
2.005646329679656
 30
0.0
 10
5.730571722065315
 20
2.004742531242346
 30
0.0
 10
5.732453659194485
 20
2.002212242669606
 30
0.0
 10
5.734248328425445
 20
2.000475570705199
 30
0.0
 10
5.736555751833231
 20
1.998648868849439
 30
0.0
  0
SPLINE
  5
1FE
330
2
100
AcDbEntity
  8
OBJ
100
AcDbSpline
210
0.0
220
0.0
230
1.0
 70
     8
 71
     3
 72
    10
 73
     6
 74
     0
 42
0.0000000001
 43
0.0000000001
 40
-0.0417647839043876
 40
-0.0417647839043876
 40
-0.0417647839043876
 40
-0.0417647839043876
 40
-0.0415502310363372
 40
-0.0415502310363372
 40
-0.0350421910848817
 40
-0.0350421910848817
 40
-0.0350421910848817
 40
-0.0350421910848817
 10
5.742660285136361
 20
2.014695199974358
 30
0.0
 10
5.742638577738285
 20
2.014608884487776
 30
0.0
 10
5.742616850228667
 20
2.014522578801543
 30
0.0
 10
5.741935492107494
 20
2.011818716629394
 30
0.0
 10
5.741258780116902
 20
2.009211874361924
 30
0.0
 10
5.740618894955925
 20
2.00665315715237
 30
0.0
  0
SPLINE
  5
1FF
330
2
100
AcDbEntity
  8
OBJ
100
AcDbSpline
210
0.0
220
0.0
230
1.0
 70
     8
 71
     3
 72
    12
 73
     8
 74
     0
 42
0.0000000001
 43
0.0000000001
 40
0.0
 40
0.0
 40
0.0
 40
0.0
 40
0.0245172874788117
 40
0.0245172874788117
 40
0.0345152721567914
 40
0.0345152721567914
 40
0.0445062223494357
 40
0.0445062223494357
 40
0.0445062223494357
 40
0.0445062223494357
 10
5.487942158880169
 20
2.134762026021213
 30
0.0
 10
5.483301914259948
 20
2.128035738512844
 30
0.0
 10
5.477852455255113
 20
2.120183659594916
 30
0.0
 10
5.472656468153739
 20
2.111516663413778
 30
0.0
 10
5.471196335881781
 20
2.108894315897951
 30
0.0
 10
5.469130959589017
 20
2.104181934222389
 30
0.0
 10
5.468515468475938
 20
2.102093919017165
 30
0.0
 10
5.46854362187464
 20
2.100478744918091
 30
0.0
  0
SPLINE
  5
200
330
2
100
AcDbEntity
  8
OBJ
100
AcDbSpline
210
0.0
220
0.0
230
1.0
 70
     8
 71
     3
 72
    10
 73
     6
 74
     0
 42
0.0000000001
 43
0.0000000001
 40
-0.0029945299755116
 40
-0.0029945299755116
 40
-0.0029945299755116
 40
-0.0029945299755116
 40
-0.0022803656357293
 40
-0.0022803656357293
 40
0.0
 40
0.0
 40
0.0
 40
0.0
 10
5.57041652223989
 20
1.923612099220259
 30
0.0
 10
5.570651736709431
 20
1.923612099220259
 30
0.0
 10
5.570888342698435
 20
1.923612171660526
 30
0.0
 10
5.571875365635459
 20
1.923612776246473
 30
0.0
 10
5.572628131232797
 20
1.92361397102575
 30
0.0
 10
5.573381768811624
 20
1.923615903272349
 30
0.0
  0
SPLINE
  5
201
330
2
100
AcDbEntity
  8
OBJ
100
AcDbSpline
210
0.0
220
0.0
230
1.0
 70
     8
 71
     3
 72
    14
 73
    10
 74
     0
 42
0.0000000001
 43
0.0000000001
 40
-0.0213446362808433
 40
-0.0213446362808433
 40
-0.0213446362808433
 40
-0.0213446362808433
 40
-0.0207679336896277
 40
-0.0207679336896277
 40
-0.0204972031973391
 40
-0.0204972031973391
 40
-0.0203366647222956
 40
-0.0203366647222956
 40
-0.0202853914422554
 40
-0.0202853914422554
 40
-0.0202853914422554
 40
-0.0202853914422554
 10
5.501863642856828
 20
1.923630869471951
 30
0.0
 10
5.501859562503762
 20
1.923624057749579
 30
0.0
 10
5.501860576156142
 20
1.923619097495082
 30
0.0
 10
5.501869572559082
 20
1.923614535348939
 30
0.0
 10
5.501873570853613
 20
1.923613487636361
 30
0.0
 10
5.501881727185756
 20
1.923612469824505
 30
0.0
 10
5.501885157497436
 20
1.923612234727289
 30
0.0
 10
5.50189020242953
 20
1.923612113846601
 30
0.0
 10
5.501891463618258
 20
1.923612099221291
 30
0.0
 10
5.501892765011159
 20
1.923612099220265
 30
0.0
  0
SPLINE
  5
202
330
2
100
AcDbEntity
  8
OBJ
100
AcDbSpline
210
0.0
220
0.0
230
1.0
 70
     8
 71
     3
 72
    10
 73
     6
 74
     0
 42
0.0000000001
 43
0.0000000001
 40
-0.0136655500852087
 40
-0.0136655500852087
 40
-0.0136655500852087
 40
-0.0136655500852087
 40
-0.0068329585344051
 40
-0.0068329585344051
 40
0.0
 40
0.0
 40
0.0
 40
0.0
 10
5.501651679807503
 20
1.926346921587286
 30
0.0
 10
5.501765752239971
 20
1.925520284645671
 30
0.0
 10
5.501839845398061
 20
1.924875439562724
 30
0.0
 10
5.50190976897863
 20
1.923964634280282
 30
0.0
 10
5.50190542823466
 20
1.923700625786696
 30
0.0
 10
5.501863642856828
 20
1.923630869471951
 30
0.0
  0
ELLIPSE
  5
203
330
2
100
AcDbEntity
  8
OBJ
100
AcDbEllipse
 10
5.598199385748212
 20
1.963612099220266
 30
0.0
 11
-0.0964283656457314
 21
-0.037726012575581
 31
0.0
210
0.0
220
0.0
230
1.0
 40
0.1378708387167208
 41
6.229297829639771
 42
6.250071724007929
  0
SPLINE
  5
204
330
2
100
AcDbEntity
  8
OBJ
100
AcDbSpline
210
0.0
220
0.0
230
1.0
 70
     8
 71
     3
 72
    10
 73
     6
 74
     0
 42
0.0000000001
 43
0.0000000001
 40
0.0060028448230405
 40
0.0060028448230405
 40
0.0060028448230405
 40
0.0060028448230405
 40
0.0067709042124276
 40
0.0067709042124276
 40
0.0135557061890758
 40
0.0135557061890758
 40
0.0135557061890758
 40
0.0135557061890758
 10
5.51163084325331
 20
1.928617227118244
 30
0.0
 10
5.511630843253294
 20
1.928558703274529
 30
0.0
 10
5.51163168074981
 20
1.928503078331031
 30
0.0
 10
5.511648314356373
 20
1.927984816453731
 30
0.0
 10
5.511731120088379
 20
1.927754600633143
 30
0.0
 10
5.511881553079258
 20
1.927754234839508
 30
0.0
  0
SPLINE
  5
205
330
2
100
AcDbEntity
  8
OBJ
100
AcDbSpline
210
0.0
220
0.0
230
1.0
 70
    24
 71
     3
 72
     8
 73
     4
 74
     0
 42
0.0000000001
 43
0.0000000001
 40
0.0
 40
0.0
 40
0.0
 40
0.0
 40
0.0059857576497239
 40
0.0059857576497239
 40
0.0059857576497239
 40
0.0059857576497239
 10
5.511630843253294
 20
1.930450101912922
 30
0.0
 10
5.511630843253294
 20
1.929686551818691
 30
0.0
 10
5.511630843253294
 20
1.929073632778337
 30
0.0
 10
5.511630843253294
 20
1.928617227118236
 30
0.0
  0
ELLIPSE
  5
206
330
2
100
AcDbEntity
  8
OBJ
100
AcDbEllipse
 10
5.641630843253319
 20
2.000984536013802
 30
0.0
 11
0.1286830260760889
 21
0.0563082363096895
 31
0.0
210
0.0
220
0.0
230
1.0
 40
0.3277937206502706
 41
2.246936606186415
 42
2.999130590278915
  0
SPLINE
  5
207
330
2
100
AcDbEntity
  8
OBJ
100
AcDbSpline
210
0.0
220
0.0
230
1.0
 70
     8
 71
     3
 72
    20
 73
    16
 74
     0
 42
0.0000000001
 43
0.0000000001
 40
-0.0462415200196581
 40
-0.0462415200196581
 40
-0.0462415200196581
 40
-0.0462415200196581
 40
-0.0369865613203981
 40
-0.0369865613203981
 40
-0.0300769858209393
 40
-0.0300769858209393
 40
-0.0250611904478964
 40
-0.0250611904478964
 40
-0.0205930017670779
 40
-0.0205930017670779
 40
-0.0157412005182239
 40
-0.0157412005182239
 40
-0.009297134061511
 40
-0.009297134061511
 40
-0.0070933241345621
 40
-0.0070933241345621
 40
-0.0070933241345621
 40
-0.0070933241345621
 10
5.546705934673334
 20
1.998648868849191
 30
0.0
 10
5.548452292186235
 20
2.000031395566598
 30
0.0
 10
5.550012813158754
 20
2.001447754457293
 30
0.0
 10
5.55203863621599
 20
2.003778680319109
 30
0.0
 10
5.5527018721182
 20
2.004754342374154
 30
0.0
 10
5.553209061040003
 20
2.006230837651265
 30
0.0
 10
5.55322640240828
 20
2.006786802752134
 30
0.0
 10
5.552757064143743
 20
2.007620499906085
 30
0.0
 10
5.552332729873323
 20
2.007907649974071
 30
0.0
 10
5.55100810584579
 20
2.008252799414866
 30
0.0
 10
5.550107684925956
 20
2.008279343740856
 30
0.0
 10
5.547664322318819
 20
2.008042470030946
 30
0.0
 10
5.546055508859875
 20
2.007686565154982
 30
0.0
 10
5.543828605176908
 20
2.007037894451391
 30
0.0
 10
5.543243256445514
 20
2.006854212118474
 30
0.0
 10
5.542642792309473
 20
2.006653156861776
 30
0.0
  0
ELLIPSE
  5
208
330
2
100
AcDbEntity
  8
OBJ
100
AcDbEllipse
 10
5.598199385749292
 20
2.015393296231749
 30
0.0
 11
-0.0964283656455265
 21
-0.0377260125755529
 31
0.0
210
0.0
220
0.0
230
1.0
 40
0.1378708387169644
 41
5.271481343168457
 42
6.229297829639397
  0
SPLINE
  5
209
330
2
100
AcDbEntity
  8
OBJ
100
AcDbSpline
210
0.0
220
0.0
230
1.0
 70
     8
 71
     3
 72
    10
 73
     6
 74
     0
 42
0.0000000001
 43
0.0000000001
 40
-0.0081003746413899
 40
-0.0081003746413899
 40
-0.0081003746413899
 40
-0.0081003746413899
 40
0.0
 40
0.0
 40
0.0002670479289022
 40
0.0002670479289022
 40
0.0002670479289022
 40
0.0002670479289022
 10
5.542642791550855
 20
2.006653157152058
 30
0.0
 10
5.542002906387986
 20
2.009211874367886
 30
0.0
 10
5.541326194394011
 20
2.011818716645008
 30
0.0
 10
5.54064483627854
 20
2.014522578800244
 30
0.0
 10
5.540623108767984
 20
2.014608884489414
 30
0.0
 10
5.540601401370318
 20
2.014695199974422
 30
0.0
  0
ELLIPSE
  5
20A
330
2
100
AcDbEntity
  8
OBJ
100
AcDbEllipse
 10
5.641630843253289
 20
2.086106515163486
 30
0.0
 11
0.129999999999999
 21
0.0
 31
0.0
210
0.0
220
0.0
230
1.0
 40
0.3826834323651085
 41
4.140984945716168
 42
5.284020114909203
  0
SPLINE
  5
20B
330
2
100
AcDbEntity
  8
OBJ
100
AcDbSpline
210
0.0
220
0.0
230
1.0
 70
     8
 71
     1
 72
    18
 73
    16
 74
     0
 42
0.0000000001
 43
0.0000000001
 40
0.0
 40
0.0
 40
0.0314049155779545
 40
0.062809831155909
 40
0.0853337342369795
 40
0.1078576373180501
 40
0.1204113867307504
 40
0.1330085800003168
 40
0.1456390981466701
 40
0.1582419582528183
 40
0.1709381195710021
 40
0.183634280889186
 40
0.2005461502222331
 40
0.2174580195552802
 40
0.2343698888883273
 40
0.2552614931089347
 40
0.2761530973295421
 40
0.2761530973295421
 10
5.730336425187696
 20
2.005419932681964
 30
0.0
 10
5.717429504010803
 20
2.034129204952906
 30
0.0
 10
5.701351641330869
 20
2.06113264092806
 30
0.0
 10
5.687156457068364
 20
2.078829843515475
 30
0.0
 10
5.669969714931136
 20
2.093444838931561
 30
0.0
 10
5.65885958045987
 20
2.099288268875814
 30
0.0
 10
5.646663898433567
 20
2.102442543142997
 30
0.0
 10
5.634038998925285
 20
2.102065948169132
 30
0.0
 10
5.6220206994364
 20
2.098273160602769
 30
0.0
 10
5.611012412324393
 20
2.091900105934189
 30
0.0
 10
5.601152202986193
 20
2.083809895974703
 30
0.0
 10
5.589619503785239
 20
2.071423869279481
 30
0.0
 10
5.579555675901583
 20
2.057722060783889
 30
0.0
 10
5.570733317572369
 20
2.043211891238184
 30
0.0
 10
5.561203801660747
 20
2.024614237928344
 30
0.0
 10
5.552925261318856
 20
2.005419932681723
 30
0.0
  0
SPLINE
  5
20C
330
2
100
AcDbEntity
  8
OBJ
100
AcDbSpline
210
0.0
220
0.0
230
1.0
 70
    24
 71
     3
 72
    24
 73
    20
 74
     0
 42
0.0000000001
 43
0.0000000001
 40
0.0079778831072328
 40
0.0079778831072328
 40
0.0079778831072328
 40
0.0079778831072328
 40
0.0474275054288751
 40
0.0474275054288751
 40
0.09650986774771
 40
0.09650986774771
 40
0.1492666222589894
 40
0.1492666222589894
 40
0.2059923338761851
 40
0.2059923338761851
 40
0.2644711307097356
 40
0.2644711307097356
 40
0.3210150566220631
 40
0.3210150566220631
 40
0.3726424742258652
 40
0.3726424742258652
 40
0.3988650541292404
 40
0.3988650541292404
 40
0.4169947979047187
 40
0.4169947979047187
 40
0.4169947979047187
 40
0.4169947979047187
 10
5.501892765011159
 20
1.923612099220265
 30
0.0
 10
5.502754316127942
 20
1.923612099220265
 30
0.0
 10
5.50573182359093
 20
1.923612099220265
 30
0.0
 10
5.516863770122208
 20
1.923612099220265
 30
0.0
 10
5.525949425836367
 20
1.923612099220265
 30
0.0
 10
5.549528745264335
 20
1.923612099220265
 30
0.0
 10
5.564137988641968
 20
1.923612099220265
 30
0.0
 10
5.597447643861124
 20
1.923612099220263
 30
0.0
 10
5.616138957122467
 20
1.923612099220263
 30
0.0
 10
5.654615667888091
 20
1.923612099220263
 30
0.0
 10
5.674208924196601
 20
1.923612099220263
 30
0.0
 10
5.710338566200002
 20
1.923612099220265
 30
0.0
 10
5.726723870003789
 20
1.923612099220265
 30
0.0
 10
5.753188407900604
 20
1.923612099220265
 30
0.0
 10
5.763453020260095
 20
1.923612099220265
 30
0.0
 10
5.77420002811578
 20
1.923612099220265
 30
0.0
 10
5.776973765548329
 20
1.923612099220265
 30
0.0
 10
5.78012582331352
 20
1.923612099220265
 30
0.0
 10
5.780972178933248
 20
1.923612099220265
 30
0.0
 10
5.781368921236374
 20
1.923612099220265
 30
0.0
  0
SPLINE
  5
20D
330
2
100
AcDbEntity
  8
OBJ
100
AcDbSpline
210
0.0
220
0.0
230
1.0
 70
    24
 71
     3
 72
    24
 73
    20
 74
     0
 42
0.0000000001
 43
0.0000000001
 40
0.0074763013144239
 40
0.0074763013144239
 40
0.0074763013144239
 40
0.0074763013144239
 40
0.0435490338020164
 40
0.0435490338020164
 40
0.0888193109350073
 40
0.0888193109350073
 40
0.1377824283533078
 40
0.1377824283533078
 40
0.1906703400286812
 40
0.1906703400286812
 40
0.2452193874543196
 40
0.2452193874543196
 40
0.2977504346313815
 40
0.2977504346313815
 40
0.3454057117032607
 40
0.3454057117032607
 40
0.3695057790682612
 40
0.3695057790682612
 40
0.3859866273381174
 40
0.3859866273381174
 40
0.3859866273381174
 40
0.3859866273381174
 10
5.771380142101686
 20
1.927754234844018
 30
0.0
 10
5.770575580830675
 20
1.927754234844018
 30
0.0
 10
5.767843540221757
 20
1.927754234844019
 30
0.0
 10
5.757615351408186
 20
1.927754234844019
 30
0.0
 10
5.749228144848667
 20
1.927754234844019
 30
0.0
 10
5.72740810749597
 20
1.927754234844019
 30
0.0
 10
5.713839972544271
 20
1.927754234844019
 30
0.0
 10
5.682846813598482
 20
1.927754234844021
 30
0.0
 10
5.665410635727208
 20
1.927754234844021
 30
0.0
 10
5.629519841723417
 20
1.927754234844021
 30
0.0
 10
5.611233394033841
 20
1.927754234844021
 30
0.0
 10
5.577592257501216
 20
1.927754234844023
 30
0.0
 10
5.562359040312283
 20
1.927754234844023
 30
0.0
 10
5.537846153459677
 20
1.927754234844024
 30
0.0
 10
5.528362849714946
 20
1.927754234844024
 30
0.0
 10
5.518457167616499
 20
1.927754234844024
 30
0.0
 10
5.515907196758825
 20
1.927754234844024
 30
0.0
 10
5.513023175095449
 20
1.927754234844024
 30
0.0
 10
5.512249920328112
 20
1.927754234844024
 30
0.0
 10
5.511881553079301
 20
1.927754234844024
 30
0.0
  0
ELLIPSE
  5
20E
330
2
100
AcDbEntity
  8
OBJ
100
AcDbEllipse
 10
5.685062300757816
 20
2.01539329623172
 30
0.0
 11
0.0964283656457633
 21
-0.0377260125755917
 31
0.0
210
0.0
220
0.0
230
1.0
 40
0.1378708387172344
 41
0.0538874775386002
 42
1.011703964017553
  0
ELLIPSE
  5
20F
330
2
100
AcDbEntity
  8
OBJ
100
AcDbEllipse
 10
5.641630843253319
 20
2.00098453601381
 30
0.0
 11
0.1286830260760789
 21
-0.0563082363096599
 31
0.0
210
0.0
220
0.0
230
1.0
 40
0.3277937206516912
 41
0.1424620633103804
 42
0.8946560474045323
  0
SPLINE
  5
210
330
2
100
AcDbEntity
  8
OBJ
100
AcDbSpline
210
0.0
220
0.0
230
1.0
 70
    24
 71
     3
 72
    24
 73
    20
 74
     0
 42
0.0000000001
 43
0.0000000001
 40
0.0079778831072414
 40
0.0079778831072414
 40
0.0079778831072414
 40
0.0079778831072414
 40
0.0474275054288527
 40
0.0474275054288527
 40
0.0965098677476692
 40
0.0965098677476692
 40
0.1492666222589423
 40
0.1492666222589423
 40
0.2059923338761441
 40
0.2059923338761441
 40
0.2644711307096913
 40
0.2644711307096913
 40
0.3210150566220183
 40
0.3210150566220183
 40
0.372642474225807
 40
0.372642474225807
 40
0.3988650541291701
 40
0.3988650541291701
 40
0.416994797904625
 40
0.416994797904625
 40
0.416994797904625
 40
0.416994797904625
 10
6.281892765011187
 20
1.923612099220265
 30
0.0
 10
6.282754316127972
 20
1.923612099220265
 30
0.0
 10
6.285731823590959
 20
1.923612099220265
 30
0.0
 10
6.296863770122222
 20
1.923612099220265
 30
0.0
 10
6.305949425836383
 20
1.923612099220265
 30
0.0
 10
6.32952874526435
 20
1.923612099220265
 30
0.0
 10
6.344137988641969
 20
1.923612099220265
 30
0.0
 10
6.377447643861127
 20
1.923612099220265
 30
0.0
 10
6.396138957122454
 20
1.923612099220265
 30
0.0
 10
6.434615667888104
 20
1.923612099220265
 30
0.0
 10
6.454208924196601
 20
1.923612099220265
 30
0.0
 10
6.490338566200017
 20
1.923612099220265
 30
0.0
 10
6.506723870003805
 20
1.923612099220265
 30
0.0
 10
6.533188407900619
 20
1.923612099220265
 30
0.0
 10
6.543453020260111
 20
1.923612099220265
 30
0.0
 10
6.554200028115794
 20
1.923612099220265
 30
0.0
 10
6.556973765548343
 20
1.923612099220265
 30
0.0
 10
6.560125823313521
 20
1.923612099220265
 30
0.0
 10
6.560972178933265
 20
1.923612099220265
 30
0.0
 10
6.561368921236374
 20
1.923612099220265
 30
0.0
  0
SPLINE
  5
211
330
2
100
AcDbEntity
  8
OBJ
100
AcDbSpline
210
0.0
220
0.0
230
1.0
 70
    24
 71
     3
 72
    24
 73
    20
 74
     0
 42
0.0000000001
 43
0.0000000001
 40
0.0074763013144354
 40
0.0074763013144354
 40
0.0074763013144354
 40
0.0074763013144354
 40
0.0435490338020158
 40
0.0435490338020158
 40
0.0888193109350093
 40
0.0888193109350093
 40
0.1377824283533037
 40
0.1377824283533037
 40
0.1906703400286427
 40
0.1906703400286427
 40
0.2452193874542228
 40
0.2452193874542228
 40
0.2977504346312383
 40
0.2977504346312383
 40
0.3454057117030978
 40
0.3454057117030978
 40
0.3695057790680617
 40
0.3695057790680617
 40
0.3859866273385254
 40
0.3859866273385254
 40
0.3859866273385254
 40
0.3859866273385254
 10
6.551380142101701
 20
1.927754234844018
 30
0.0
 10
6.550575580830677
 20
1.927754234844019
 30
0.0
 10
6.547843540221758
 20
1.927754234844021
 30
0.0
 10
6.537615351408173
 20
1.927754234844023
 30
0.0
 10
6.529228144848654
 20
1.927754234844021
 30
0.0
 10
6.507408107495956
 20
1.927754234844021
 30
0.0
 10
6.49383997254426
 20
1.927754234844019
 30
0.0
 10
6.462846813598455
 20
1.927754234844018
 30
0.0
 10
6.44541063572718
 20
1.927754234844018
 30
0.0
 10
6.40951984172339
 20
1.927754234844018
 30
0.0
 10
6.391233394033815
 20
1.927754234844018
 30
0.0
 10
6.357592257501189
 20
1.927754234844019
 30
0.0
 10
6.342359040312254
 20
1.927754234844021
 30
0.0
 10
6.31784615345965
 20
1.927754234844021
 30
0.0
 10
6.308362849714934
 20
1.927754234844023
 30
0.0
 10
6.2984571676165
 20
1.927754234844021
 30
0.0
 10
6.295907196758828
 20
1.927754234844021
 30
0.0
 10
6.293023175095409
 20
1.927754234844019
 30
0.0
 10
6.292249920328069
 20
1.927754234844026
 30
0.0
 10
6.291881553079273
 20
1.927754234844024
 30
0.0
  0
ELLIPSE
  5
212
330
2
100
AcDbEntity
  8
OBJ
100
AcDbEllipse
 10
6.421630843253304
 20
2.086106515163486
 30
0.0
 11
-0.129999999999999
 21
0.0
 31
0.0
210
0.0
220
0.0
230
1.0
 40
0.3826834323651085
 41
0.9993922921265314
 42
2.142427461319324
  0
SPLINE
  5
213
330
2
100
AcDbEntity
  8
OBJ
100
AcDbSpline
210
0.0
220
0.0
230
1.0
 70
     8
 71
     1
 72
    18
 73
    16
 74
     0
 42
0.0000000001
 43
0.0000000001
 40
0.0
 40
0.0
 40
0.0314049155779546
 40
0.0628098311559092
 40
0.085333734236971
 40
0.1078576373180327
 40
0.1204113867307424
 40
0.1330085800003083
 40
0.1456390981466617
 40
0.1582419582527828
 40
0.1709381195709656
 40
0.1836342808891484
 40
0.2005461502221932
 40
0.2174580195552379
 40
0.2343698888882826
 40
0.2552614931088828
 40
0.276153097329483
 40
0.276153097329483
 10
6.510336425187682
 20
2.005419932681988
 30
0.0
 10
6.497429504010789
 20
2.034129204952926
 30
0.0
 10
6.481351641330855
 20
2.061132640928079
 30
0.0
 10
6.467156457068364
 20
2.078829843515491
 30
0.0
 10
6.449969714931137
 20
2.093444838931566
 30
0.0
 10
6.438859580459856
 20
2.09928826887581
 30
0.0
 10
6.426663898433555
 20
2.10244254314299
 30
0.0
 10
6.414038998925271
 20
2.102065948169125
 30
0.0
 10
6.402020699436415
 20
2.098273160602759
 30
0.0
 10
6.391012412324394
 20
2.091900105934183
 30
0.0
 10
6.381152202986209
 20
2.083809895974702
 30
0.0
 10
6.369619503785266
 20
2.071423869279481
 30
0.0
 10
6.359555675901598
 20
2.057722060783892
 30
0.0
 10
6.350733317572386
 20
2.04321189123819
 30
0.0
 10
6.341203801660762
 20
2.024614237928354
 30
0.0
 10
6.332925261318871
 20
2.005419932681745
 30
0.0
  0
DIMENSION
  5
214
330
2
100
AcDbEntity
  8
DIM
100
AcDbDimension
  2
*D25
 10
7.046549245847879
 20
1.473613966211136
 30
0.0
 11
6.226630843253383
 21
1.473613966211136
 31
0.0
 70
    32
 71
     5
 42
1.639836805188991
  3
Standard
100
AcDbAlignedDimension
 13
5.406712440658887
 23
2.348612099220257
 33
0.0
 14
7.046549245847879
 24
2.348612099220257
 34
0.0
100
AcDbRotatedDimension
  0
HATCH
  5
222
330
2
100
AcDbEntity
  8
HATCH
100
AcDbHatch
 10
0.0
 20
0.0
 30
0.0
210
0.0
220
0.0
230
1.0
  2
SOLID
 70
     1
 71
     0
 91
        1
 92
        1
 93
        4
 72
     1
 10
5.416630843253483
 20
3.233612099220278
 11
7.036630843253481
 21
3.233612099220278
 72
     1
 10
7.036630843253481
 20
3.233612099220278
 11
7.036630843253481
 21
3.168612099220276
 72
     1
 10
7.036630843253481
 20
3.168612099220276
 11
5.416630843253483
 21
3.168612099220276
 72
     1
 10
5.416630843253483
 20
3.168612099220276
 11
5.416630843253483
 21
3.233612099220278
 97
        0
 75
     0
 76
     1
 98
        1
 10
-0.3558721373507021
 20
-2.47063249772315
  0
LINE
  5
223
330
2
100
AcDbEntity
  8
OBJ
100
AcDbLine
 10
5.633630843253484
 20
3.233612099220278
 30
0.0
 11
6.819630843253484
 21
3.233612099220278
 31
0.0
  0
LINE
  5
224
330
2
100
AcDbEntity
  8
OBJ
100
AcDbLine
 10
6.779630843253483
 20
3.482165985478065
 30
0.0
 11
5.673630843253484
 21
3.482165985478065
 31
0.0
  0
LINE
  5
225
330
2
100
AcDbEntity
  8
OBJ
100
AcDbLine
 10
6.819630843253484
 20
3.452165985478065
 30
0.0
 11
5.633630843253484
 21
3.452165985478065
 31
0.0
  0
LINE
  5
226
330
2
100
AcDbEntity
  8
OBJ
100
AcDbLine
 10
6.779630843253483
 20
3.422165985478065
 30
0.0
 11
5.673630843253484
 21
3.422165985478065
 31
0.0
  0
LINE
  5
227
330
2
100
AcDbEntity
  8
OBJ
100
AcDbLine
 10
6.819630843253484
 20
3.392165985478064
 30
0.0
 11
5.633630843253484
 21
3.392165985478064
 31
0.0
  0
LINE
  5
228
330
2
100
AcDbEntity
  8
OBJ
100
AcDbLine
 10
6.779630843253483
 20
3.362165985478064
 30
0.0
 11
5.673630843253484
 21
3.362165985478066
 31
0.0
  0
LINE
  5
229
330
2
100
AcDbEntity
  8
OBJ
100
AcDbLine
 10
6.819630843253484
 20
3.332165985478065
 30
0.0
 11
5.633630843253484
 21
3.332165985478065
 31
0.0
  0
LINE
  5
22A
330
2
100
AcDbEntity
  8
OBJ
100
AcDbLine
 10
6.779630843253483
 20
3.302165985478064
 30
0.0
 11
5.673630843253484
 21
3.302165985478065
 31
0.0
  0
LINE
  5
22B
330
2
100
AcDbEntity
  8
OBJ
100
AcDbLine
 10
6.819630843253484
 20
3.272165985478065
 30
0.0
 11
5.633630843253484
 21
3.272165985478065
 31
0.0
  0
LINE
  5
22C
330
2
100
AcDbEntity
  8
OBJ
100
AcDbLine
 10
6.779630843253483
 20
3.242165985478065
 30
0.0
 11
5.673630843253484
 21
3.242165985478068
 31
0.0
  0
LINE
  5
22D
330
2
100
AcDbEntity
  8
OBJ
100
AcDbLine
 10
6.7366308432537
 20
2.348612099220263
 30
0.0
 11
6.496630843253238
 21
2.348612099220263
 31
0.0
  0
LINE
  5
22E
330
2
100
AcDbEntity
  8
OBJ
100
AcDbLine
 10
6.546701349843553
 20
2.516647047428595
 30
0.0
 11
6.296701353505564
 21
2.516663422554521
 31
0.0
  0
LINE
  5
22F
330
2
100
AcDbEntity
  8
OBJ
100
AcDbLine
 10
6.252232383234637
 20
2.551432954734351
 30
0.0
 11
6.591029303274534
 21
2.551432954988595
 31
0.0
  0
LINE
  5
230
330
2
100
AcDbEntity
  8
OBJ
100
AcDbLine
 10
6.2524688206044
 20
2.524339915693139
 30
0.0
 11
6.590792865902538
 21
2.524339915693139
 31
0.0
  0
LINE
  5
231
330
2
100
AcDbEntity
  8
OBJ
100
AcDbLine
 10
5.453783291677278
 20
2.923612099220278
 30
0.0
 11
6.999478394829689
 21
2.923612099220278
 31
0.0
  0
LWPOLYLINE
  5
232
330
2
100
AcDbEntity
  8
OBJ
100
AcDbPolyline
 90
        4
 70
     1
 43
0.0
 10
5.416630843253483
 20
3.233612099220278
 10
7.036630843253481
 20
3.233612099220278
 10
7.036630843253481
 20
3.168612099220276
 10
5.416630843253483
 20
3.168612099220276
  0
LWPOLYLINE
  5
233
330
2
100
AcDbEntity
  8
OBJ
100
AcDbPolyline
 90
        4
 70
     1
 43
0.0
 10
7.036630843253481
 20
3.168612099220278
 10
7.036630843253482
 20
2.923612099220278
 10
5.416630843253483
 20
2.923612099220278
 10
5.416630843253483
 20
3.168612099220278
  0
LINE
  5
234
330
2
100
AcDbEntity
  8
OBJ
100
AcDbLine
 10
5.416630843253483
 20
3.233612099220278
 30
0.0
 11
6.904920118655524
 21
3.233612099220278
 31
0.0
  0
INSERT
  5
235
330
2
100
AcDbEntity
  8
CL
 48
0.5
100
AcDbBlockReference
  2
A$C266B4E3C
 10
6.193289625186975
 20
1.658723499742451
 30
0.0
  0
LINE
  5
236
330
2
100
AcDbEntity
  8
OBJ
100
AcDbLine
 10
5.862059429047826
 20
2.571251541535994
 30
0.0
 11
5.811202257459124
 21
2.571251541535994
 31
0.0
  0
LINE
  5
237
330
2
100
AcDbEntity
  8
OBJ
100
AcDbLine
 10
5.81209554453323
 20
2.673612101536054
 30
0.0
 11
5.861166141993915
 21
2.673612101536054
 31
0.0
  0
LINE
  5
238
330
2
100
AcDbEntity
  8
OBJ
100
AcDbLine
 10
5.956630843253202
 20
2.348612099220263
 30
0.0
 11
5.716630843253721
 21
2.348612099220263
 31
0.0
  0
LINE
  5
239
330
2
100
AcDbEntity
  8
OBJ
100
AcDbLine
 10
5.850540416804601
 20
2.098562594042384
 30
0.0
 11
5.82272126970201
 21
2.098562594042384
 31
0.0
  0
LINE
  5
23A
330
2
100
AcDbEntity
  8
OBJ
100
AcDbLine
 10
6.271284785921261
 20
1.923612099220263
 30
0.0
 11
5.791976895396625
 21
1.923612099220263
 31
0.0
  0
LINE
  5
23B
330
2
100
AcDbEntity
  8
OBJ
100
AcDbLine
 10
5.812095544513023
 20
2.673612099220289
 30
0.0
 11
5.811403487515486
 21
2.594310222060157
 31
0.0
  0
LINE
  5
23C
330
2
100
AcDbEntity
  8
OBJ
100
AcDbLine
 10
5.413784814754716
 20
2.883961160640212
 30
0.0
 11
5.409112894273798
 21
2.34861209922026
 31
0.0
  0
LINE
  5
23D
330
2
100
AcDbEntity
  8
OBJ
100
AcDbLine
 10
5.566630843252933
 20
2.348612099220263
 30
0.0
 11
5.44670634846515
 21
2.348612099220263
 31
0.0
  0
LINE
  5
23E
330
2
100
AcDbEntity
  8
OBJ
100
AcDbLine
 10
5.470885169763103
 20
2.551432954148002
 30
0.0
 11
5.811029303269417
 21
2.551432954403257
 31
0.0
  0
LINE
  5
23F
330
2
100
AcDbEntity
  8
OBJ
100
AcDbLine
 10
5.470648732398454
 20
2.524339915693139
 30
0.0
 11
5.810792865902536
 21
2.524339915693139
 31
0.0
  0
LINE
  5
240
330
2
100
AcDbEntity
  8
OBJ
100
AcDbLine
 10
5.40831278369526
 20
2.256928508070735
 30
0.0
 11
5.408022035799953
 21
2.223612099220273
 31
0.0
  0
LINE
  5
241
330
2
100
AcDbEntity
  8
OBJ
100
AcDbLine
 10
5.410445207571494
 20
2.134762026021216
 30
0.0
 11
5.406712440658887
 21
2.348612099220257
 31
0.0
  0
LINE
  5
242
330
2
100
AcDbEntity
  8
OBJ
100
AcDbLine
 10
5.470040979221417
 20
2.014695199974289
 30
0.0
 11
5.470357414108174
 21
1.996566657452812
 31
0.0
  0
LINE
  5
243
330
2
100
AcDbEntity
  8
OBJ
100
AcDbLine
 10
5.413444825971761
 20
1.962914002962774
 30
0.0
 11
5.410445207571494
 21
2.134762026021216
 31
0.0
  0
ARC
  5
244
330
2
100
AcDbEntity
  8
OBJ
100
AcDbCircle
 10
5.433784788515703
 20
1.943612099220259
 30
0.0
 40
0.0200000000000002
100
AcDbArc
 50
180.9999999999988
 51
270.0000000000406
  0
ARC
  5
245
330
2
100
AcDbEntity
  8
OBJ
100
AcDbCircle
 10
5.453438733778011
 20
1.963612099220263
 30
0.0
 40
0.0400000000000001
100
AcDbArc
 50
180.9999999999993
 51
270.0
  0
LINE
  5
246
330
2
100
AcDbEntity
  8
OBJ
100
AcDbLine
 10
5.413787834612573
 20
1.943263051091514
 30
0.0
 11
5.413444825971746
 21
1.962914002962771
 31
0.0
  0
LINE
  5
247
330
2
100
AcDbEntity
  8
OBJ
100
AcDbLine
 10
5.501630843253886
 20
1.978438114931066
 30
0.0
 11
5.501630843253289
 21
1.926656917919816
 31
0.0
  0
LINE
  5
248
330
2
100
AcDbEntity
  8
OBJ
100
AcDbLine
 10
5.433784788515703
 20
1.923612099220258
 30
0.0
 11
5.453438733778011
 21
1.923612099220258
 31
0.0
  0
LINE
  5
249
330
2
100
AcDbEntity
  8
OBJ
100
AcDbLine
 10
5.491284785921247
 20
1.923612099220263
 30
0.0
 11
5.453438733778011
 21
1.923612099220263
 31
0.0
  0
LINE
  5
24A
330
2
100
AcDbEntity
  8
OBJ
100
AcDbLine
 10
5.471261258264087
 20
1.944785460441294
 30
0.0
 11
5.470357414108186
 21
1.996566657452542
 31
0.0
  0
ARC
  5
24B
330
2
100
AcDbEntity
  8
OBJ
100
AcDbCircle
 10
5.491284785921247
 20
1.943612099220265
 30
0.0
 40
0.0200000000000001
100
AcDbArc
 50
181.0000000000038
 51
270.0
  0
LINE
  5
24C
330
2
100
AcDbEntity
  8
OBJ
100
AcDbLine
 10
5.471261258264074
 20
1.944785460441294
 30
0.0
 11
5.47128783201813
 21
1.94326305109152
 31
0.0
  0
LINE
  5
24D
330
2
100
AcDbEntity
  8
OBJ
100
AcDbLine
 10
5.501892765011159
 20
1.923612099220265
 30
0.0
 11
5.491284785921247
 21
1.923612099220265
 31
0.0
  0
LINE
  5
24E
330
2
100
AcDbEntity
  8
OBJ
100
AcDbLine
 10
5.408022035799953
 20
2.223612099220273
 30
0.0
 11
5.40889432377491
 21
2.223612099220273
 31
0.0
  0
LINE
  5
24F
330
2
100
AcDbEntity
  8
OBJ
100
AcDbLine
 10
5.470040979221417
 20
2.014695199974286
 30
0.0
 11
5.468543621874654
 21
2.100478744918089
 31
0.0
  0
LINE
  5
252
330
2
100
AcDbEntity
  8
OBJ
100
AcDbLine
 10
5.480509075699383
 20
2.502841653595936
 30
0.0
 11
5.480466285433773
 21
2.40717079690606
 31
0.0
  0
LINE
  5
253
330
2
100
AcDbEntity
  8
OBJ
100
AcDbLine
 10
5.479599898837955
 20
2.497846064166421
 30
0.0
 11
5.479599898837955
 21
2.41097692795614
 31
0.0
  0
LINE
  5
254
330
2
100
AcDbEntity
  8
OBJ
100
AcDbLine
 10
5.469219070745376
 20
2.360516916724604
 30
0.0
 11
5.470885169739386
 21
2.551432951430387
 31
0.0
  0
LINE
  5
255
330
2
100
AcDbEntity
  8
OBJ
100
AcDbLine
 10
5.44670634846515
 20
2.34861209922026
 30
0.0
 11
5.406712440658887
 21
2.348612099220257
 31
0.0
  0
LINE
  5
256
330
2
100
AcDbEntity
  8
OBJ
100
AcDbLine
 10
5.51092473795496
 20
2.348612099220263
 30
0.0
 11
5.50699201906364
 21
2.385639596795856
 31
0.0
  0
LINE
  5
257
330
2
100
AcDbEntity
  8
OBJ
100
AcDbLine
 10
5.449084724068863
 20
2.360516916724604
 30
0.0
 11
5.469219070745376
 21
2.360516916724604
 31
0.0
  0
LINE
  5
258
330
2
100
AcDbEntity
  8
OBJ
100
AcDbLine
 10
5.469219070745363
 20
2.360516916724604
 30
0.0
 11
5.46911517897693
 21
2.348612099220265
 31
0.0
  0
LINE
  5
259
330
2
100
AcDbEntity
  8
OBJ
100
AcDbLine
 10
5.485812086131413
 20
2.350503327366761
 30
0.0
 11
5.48049001301589
 21
2.406667458037315
 31
0.0
  0
LINE
  5
25A
330
2
100
AcDbEntity
  8
OBJ
100
AcDbLine
 10
5.489599898837946
 20
2.512008964689336
 30
0.0
 11
5.489599898837946
 21
2.524339915693139
 31
0.0
  0
LINE
  5
25B
330
2
100
AcDbEntity
  8
OBJ
100
AcDbLine
 10
5.479599898837955
 20
2.497846064166421
 30
0.0
 11
5.479599898837955
 21
2.524339915693141
 31
0.0
  0
LINE
  5
25C
330
2
100
AcDbEntity
  8
OBJ
100
AcDbLine
 10
5.480506996604811
 20
2.498193195453332
 30
0.0
 11
5.479599898837955
 21
2.497846064166419
 31
0.0
  0
LINE
  5
25D
330
2
100
AcDbEntity
  8
OBJ
100
AcDbLine
 10
5.511630843253294
 20
1.930450101912922
 30
0.0
 11
5.51163084325331
 21
1.951235689806238
 31
0.0
  0
LINE
  5
25E
330
2
100
AcDbEntity
  8
OBJ
100
AcDbLine
 10
5.652179847285389
 20
2.036521730172025
 30
0.0
 11
5.65274512394823
 21
2.101296019916739
 31
0.0
  0
LINE
  5
25F
330
2
100
AcDbEntity
  8
OBJ
100
AcDbLine
 10
5.812904267209698
 20
1.996566657452716
 30
0.0
 11
5.813220702096454
 21
2.014695199974192
 31
0.0
  0
LINE
  5
260
330
2
100
AcDbEntity
  8
OBJ
100
AcDbLine
 10
5.791976895396625
 20
1.923612099220265
 30
0.0
 11
5.781368921236374
 21
1.923612099220265
 31
0.0
  0
LINE
  5
261
330
2
100
AcDbEntity
  8
OBJ
100
AcDbLine
 10
5.812904267209698
 20
1.996566657452529
 30
0.0
 11
5.812000423053797
 21
1.944785460441294
 31
0.0
  0
ARC
  5
262
330
2
100
AcDbEntity
  8
OBJ
100
AcDbCircle
 10
5.791976895396625
 20
1.943612099220265
 30
0.0
 40
0.02
100
AcDbArc
 50
270.0
 51
359.0000000000009
  0
LINE
  5
263
330
2
100
AcDbEntity
  8
OBJ
100
AcDbLine
 10
5.81197384929974
 20
1.94326305109152
 30
0.0
 11
5.812000423053797
 21
1.944785460441294
 31
0.0
  0
LINE
  5
264
330
2
100
AcDbEntity
  8
OBJ
100
AcDbLine
 10
5.781630843253291
 20
1.926656917919816
 30
0.0
 11
5.781630843253249
 21
1.978438114931051
 31
0.0
  0
LINE
  5
265
330
2
100
AcDbEntity
  8
OBJ
100
AcDbLine
 10
5.7716308432533
 20
1.951235689806286
 30
0.0
 11
5.7716308432533
 21
1.930450101933338
 31
0.0
  0
LINE
  5
266
330
2
100
AcDbEntity
  8
OBJ
100
AcDbLine
 10
5.680657159245082
 20
2.085185235374892
 30
0.0
 11
5.681062817141333
 21
2.038701444630469
 31
0.0
  0
LINE
  5
267
330
2
100
AcDbEntity
  8
OBJ
100
AcDbLine
 10
5.822720766571345
 20
2.098504940978256
 30
0.0
 11
5.82272126970201
 21
2.098562594042384
 31
0.0
  0
LINE
  5
268
330
2
100
AcDbEntity
  8
OBJ
100
AcDbLine
 10
5.814718059443217
 20
2.100478744918091
 30
0.0
 11
5.813220702096454
 21
2.014695199974191
 31
0.0
  0
LINE
  5
269
330
2
100
AcDbEntity
  8
OBJ
100
AcDbLine
 10
5.578535660757659
 20
2.360516916724969
 30
0.0
 11
5.704726025749033
 21
2.360516916724969
 31
0.0
  0
LINE
  5
26A
330
2
100
AcDbEntity
  8
OBJ
100
AcDbLine
 10
5.704726025749033
 20
2.360516916724967
 30
0.0
 11
5.656630843253434
 21
2.408612099220587
 31
0.0
  0
LINE
  5
26B
330
2
100
AcDbEntity
  8
OBJ
100
AcDbLine
 10
5.766639461012583
 20
2.516647047428675
 30
0.0
 11
5.516639464674605
 21
2.516663422554304
 31
0.0
  0
LINE
  5
26C
330
2
100
AcDbEntity
  8
OBJ
100
AcDbLine
 10
5.626630843253431
 20
2.408612099220624
 30
0.0
 11
5.578535660757659
 21
2.360516916724967
 31
0.0
  0
LINE
  5
26D
330
2
100
AcDbEntity
  8
OBJ
100
AcDbLine
 10
5.578535660757659
 20
2.360516916724965
 30
0.0
 11
5.566630843252933
 21
2.348612099220257
 31
0.0
  0
LINE
  5
26E
330
2
100
AcDbEntity
  8
OBJ
100
AcDbLine
 10
5.666618665812686
 20
2.40294643624543
 30
0.0
 11
5.666619434927649
 21
2.398623507546356
 31
0.0
  0
LINE
  5
26F
330
2
100
AcDbEntity
  8
OBJ
100
AcDbLine
 10
5.666618665812686
 20
2.40294643624543
 30
0.0
 11
5.666618665812659
 21
2.398624276661346
 31
0.0
  0
LINE
  5
270
330
2
100
AcDbEntity
  8
OBJ
100
AcDbLine
 10
5.616619438312164
 20
2.398600694279397
 30
0.0
 11
5.616618666545088
 21
2.402938529635375
 31
0.0
  0
LINE
  5
271
330
2
100
AcDbEntity
  8
OBJ
100
AcDbLine
 10
5.656630843253419
 20
2.408612099220582
 30
0.0
 11
5.626630843253418
 21
2.408612099220626
 31
0.0
  0
LINE
  5
272
330
2
100
AcDbEntity
  8
OBJ
100
AcDbLine
 10
5.802714693607095
 20
2.407149689473079
 30
0.0
 11
5.802757483872704
 21
2.50282054616296
 31
0.0
  0
LINE
  5
273
330
2
100
AcDbEntity
  8
OBJ
100
AcDbLine
 10
5.803599898837953
 20
2.392701736618318
 30
0.0
 11
5.803599898837953
 21
2.497846064166417
 31
0.0
  0
LINE
  5
274
330
2
100
AcDbEntity
  8
OBJ
100
AcDbLine
 10
5.811202257459124
 20
2.571251541535994
 30
0.0
 11
5.80928345360699
 21
2.351378398256896
 31
0.0
  0
LINE
  5
275
330
2
100
AcDbEntity
  8
OBJ
100
AcDbLine
 10
5.716630843253734
 20
2.348612099220265
 30
0.0
 11
5.704726025749033
 21
2.360516916724967
 31
0.0
  0
LINE
  5
276
330
2
100
AcDbEntity
  8
OBJ
100
AcDbLine
 10
5.803599898837953
 20
2.392701736618319
 30
0.0
 11
5.803599898837953
 21
2.386612099219221
 31
0.0
  0
LINE
  5
277
330
2
100
AcDbEntity
  8
OBJ
100
AcDbLine
 10
5.800792086168779
 20
2.386612099219221
 30
0.0
 11
5.803599898837953
 21
2.386612099219221
 31
0.0
  0
LINE
  5
278
330
2
100
AcDbEntity
  8
OBJ
100
AcDbLine
 10
5.809590933457069
 20
2.386612099219223
 30
0.0
 11
5.803599898837941
 21
2.386612099219223
 31
0.0
  0
LINE
  5
279
330
2
100
AcDbEntity
  8
OBJ
100
AcDbLine
 10
5.813120769068144
 20
2.351411886001598
 30
0.0
 11
5.80928345360699
 21
2.351378398256896
 31
0.0
  0
LINE
  5
27A
330
2
100
AcDbEntity
  8
OBJ
100
AcDbLine
 10
5.813145202437222
 20
2.348612099220263
 30
0.0
 11
5.81312076906813
 21
2.351411886001598
 31
0.0
  0
LINE
  5
27B
330
2
100
AcDbEntity
  8
OBJ
100
AcDbLine
 10
5.803599898837953
 20
2.426612099220267
 30
0.0
 11
5.809940008168704
 21
2.426612099220267
 31
0.0
  0
LINE
  5
27C
330
2
100
AcDbEntity
  8
OBJ
100
AcDbLine
 10
5.800507808300503
 20
2.38361209922029
 30
0.0
 11
5.809564752853697
 21
2.38361209922029
 31
0.0
  0
LINE
  5
27D
330
2
100
AcDbEntity
  8
OBJ
100
AcDbLine
 10
5.798358267831753
 20
2.348612099220258
 30
0.0
 11
5.798259853150249
 21
2.359889304726439
 31
0.0
  0
LINE
  5
27E
330
2
100
AcDbEntity
  8
OBJ
100
AcDbLine
 10
5.797368892909483
 20
2.35048695224116
 30
0.0
 11
5.802690966024964
 21
2.406651082911719
 31
0.0
  0
LINE
  5
27F
330
2
100
AcDbEntity
  8
OBJ
100
AcDbLine
 10
5.772309339739517
 20
2.348612099220263
 30
0.0
 11
5.776233463893699
 21
2.38568947738049
 31
0.0
  0
LINE
  5
280
330
2
100
AcDbEntity
  8
OBJ
100
AcDbLine
 10
5.803599898837953
 20
2.497846064166417
 30
0.0
 11
5.802755403503661
 21
2.498169238539563
 31
0.0
  0
LINE
  5
281
330
2
100
AcDbEntity
  8
OBJ
100
AcDbLine
 10
5.803599898837953
 20
2.524339915693139
 30
0.0
 11
5.803599898837953
 21
2.497846064166417
 31
0.0
  0
LINE
  5
282
330
2
100
AcDbEntity
  8
OBJ
100
AcDbLine
 10
5.793599898837949
 20
2.524339915693139
 30
0.0
 11
5.793599898837949
 21
2.512021332927353
 31
0.0
  0
LINE
  5
283
330
2
100
AcDbEntity
  8
OBJ
100
AcDbLine
 10
5.811202257458882
 20
2.571251541507987
 30
0.0
 11
5.811403487515499
 21
2.594310222060157
 31
0.0
  0
ARC
  5
284
330
2
100
AcDbEntity
  8
OBJ
100
AcDbCircle
 10
5.453783291677278
 20
2.883612099220279
 30
0.0
 40
0.04
100
AcDbArc
 50
90.0
 51
179.5000000000013
  0
LINE
  5
285
330
2
100
AcDbEntity
  8
OBJ
100
AcDbLine
 10
6.251858198991465
 20
2.594310222060157
 30
0.0
 11
6.25116614199393
 21
2.673612099220289
 31
0.0
  0
LINE
  5
286
330
2
100
AcDbEntity
  8
OBJ
100
AcDbLine
 10
6.202095544513023
 20
2.673612099220289
 30
0.0
 11
6.201403487515486
 21
2.594310222060157
 31
0.0
  0
LINE
  5
287
330
2
100
AcDbEntity
  8
OBJ
100
AcDbLine
 10
5.861858198991465
 20
2.594310222060157
 30
0.0
 11
5.861166141993929
 21
2.673612099220289
 31
0.0
  0
LINE
  5
288
330
2
100
AcDbEntity
  8
OBJ
100
AcDbLine
 10
6.346630843253445
 20
2.348612099220263
 30
0.0
 11
6.106630843253522
 21
2.348612099220263
 31
0.0
  0
LINE
  5
289
330
2
100
AcDbEntity
  8
OBJ
100
AcDbLine
 10
5.862232383237193
 20
2.551432954441682
 30
0.0
 11
6.201029303271975
 21
2.551432954695926
 31
0.0
  0
LINE
  5
28A
330
2
100
AcDbEntity
  8
OBJ
100
AcDbLine
 10
5.862468820604415
 20
2.524339915693139
 30
0.0
 11
6.200792865902538
 21
2.524339915693139
 31
0.0
  0
LINE
  5
28B
330
2
100
AcDbEntity
  8
OBJ
100
AcDbLine
 10
5.915679023863527
 20
2.063612099220287
 30
0.0
 11
5.931630843253283
 21
2.063612099220287
 31
0.0
  0
LINE
  5
28C
330
2
100
AcDbEntity
  8
OBJ
100
AcDbLine
 10
5.901630843253281
 20
2.049151333863044
 30
0.0
 11
5.901630843253281
 21
2.042810827151792
 31
0.0
  0
LINE
  5
28D
330
2
100
AcDbEntity
  8
OBJ
100
AcDbLine
 10
5.850540416804601
 20
2.098562594042384
 30
0.0
 11
5.850540919935266
 21
2.098504940978256
 31
0.0
  0
LINE
  5
28E
330
2
100
AcDbEntity
  8
OBJ
100
AcDbLine
 10
6.101630843253468
 20
2.073612099220268
 30
0.0
 11
6.04804509107968
 21
2.073612099220268
 31
0.0
  0
LINE
  5
28F
330
2
100
AcDbEntity
  8
OBJ
100
AcDbLine
 10
6.035845425152126
 20
2.063612099220287
 30
0.0
 11
6.147582662643055
 21
2.063612099220287
 31
0.0
  0
LINE
  5
290
330
2
100
AcDbEntity
  8
OBJ
100
AcDbLine
 10
6.047827788178761
 20
2.098512545304876
 30
0.0
 11
6.048045091079666
 21
2.073612099220268
 31
0.0
  0
LINE
  5
291
330
2
100
AcDbEntity
  8
OBJ
100
AcDbLine
 10
6.050876349746141
 20
2.073612099220268
 30
0.0
 11
6.050701799096851
 21
2.063612099220287
 31
0.0
  0
LINE
  5
292
330
2
100
AcDbEntity
  8
OBJ
100
AcDbLine
 10
6.035537571180778
 20
2.098888670233604
 30
0.0
 11
6.036083016280963
 21
2.036386852483316
 31
0.0
  0
LINE
  5
293
330
2
100
AcDbEntity
  8
OBJ
100
AcDbLine
 10
6.007186159883966
 20
2.037245082322461
 30
0.0
 11
6.007716806899618
 21
2.098051207541921
 31
0.0
  0
LINE
  5
294
330
2
100
AcDbEntity
  8
OBJ
100
AcDbLine
 10
6.161630843253286
 20
2.042810827151792
 30
0.0
 11
6.161630843253286
 21
2.049151333863044
 31
0.0
  0
LINE
  5
295
330
2
100
AcDbEntity
  8
OBJ
100
AcDbLine
 10
6.101630843253468
 20
2.073612099220268
 30
0.0
 11
6.1448313456419
 21
2.073612099220268
 31
0.0
  0
LINE
  5
296
330
2
100
AcDbEntity
  8
OBJ
100
AcDbLine
 10
6.016630843253432
 20
2.408612099220381
 30
0.0
 11
5.968535660757932
 21
2.360516916724972
 31
0.0
  0
LINE
  5
297
330
2
100
AcDbEntity
  8
OBJ
100
AcDbLine
 10
6.156670024658675
 20
2.516647047429596
 30
0.0
 11
5.906670028320685
 21
2.516663422555526
 31
0.0
  0
LINE
  5
298
330
2
100
AcDbEntity
  8
OBJ
100
AcDbLine
 10
5.968535660757932
 20
2.360516916724969
 30
0.0
 11
6.094726025748821
 21
2.360516916724969
 31
0.0
  0
LINE
  5
299
330
2
100
AcDbEntity
  8
OBJ
100
AcDbLine
 10
5.869647833810724
 20
2.49784606416751
 30
0.0
 11
5.869647833810724
 21
2.410976925020593
 31
0.0
  0
LINE
  5
29A
330
2
100
AcDbEntity
  8
OBJ
100
AcDbLine
 10
5.870539639345475
 20
2.502841653597191
 30
0.0
 11
5.870496849079865
 21
2.407170796907259
 31
0.0
  0
LINE
  5
29B
330
2
100
AcDbEntity
  8
OBJ
100
AcDbLine
 10
5.863978232899961
 20
2.351378398256901
 30
0.0
 11
5.862059429047826
 21
2.571251541535994
 31
0.0
  0
LINE
  5
29C
330
2
100
AcDbEntity
  8
OBJ
100
AcDbLine
 10
5.863321678338246
 20
2.426612099219223
 30
0.0
 11
5.869647833810724
 21
2.426612099219223
 31
0.0
  0
LINE
  5
29D
330
2
100
AcDbEntity
  8
OBJ
100
AcDbLine
 10
5.872421008213545
 20
2.386612099219223
 30
0.0
 11
5.863670753049882
 21
2.386612099219223
 31
0.0
  0
LINE
  5
29E
330
2
100
AcDbEntity
  8
OBJ
100
AcDbLine
 10
5.860140917438807
 20
2.351411886001601
 30
0.0
 11
5.860116484069715
 21
2.348612099220263
 31
0.0
  0
LINE
  5
29F
330
2
100
AcDbEntity
  8
OBJ
100
AcDbLine
 10
5.860140917438807
 20
2.351411886001601
 30
0.0
 11
5.863978232899961
 21
2.351378398256898
 31
0.0
  0
LINE
  5
2A0
330
2
100
AcDbEntity
  8
OBJ
100
AcDbLine
 10
5.86369693365324
 20
2.38361209922029
 30
0.0
 11
5.872705286081821
 21
2.38361209922029
 31
0.0
  0
LINE
  5
2A1
330
2
100
AcDbEntity
  8
OBJ
100
AcDbLine
 10
5.874903418674814
 20
2.348612099220263
 30
0.0
 11
5.874997735638753
 21
2.359419752802221
 31
0.0
  0
LINE
  5
2A2
330
2
100
AcDbEntity
  8
OBJ
100
AcDbLine
 10
5.875842649777405
 20
2.350503327367964
 30
0.0
 11
5.870520576661968
 21
2.40666745803852
 31
0.0
  0
LINE
  5
2A3
330
2
100
AcDbEntity
  8
OBJ
100
AcDbLine
 10
5.900955301601038
 20
2.348612099220263
 30
0.0
 11
5.897022582709647
 21
2.385639596797084
 31
0.0
  0
LINE
  5
2A4
330
2
100
AcDbEntity
  8
OBJ
100
AcDbLine
 10
5.968535660757932
 20
2.360516916724971
 30
0.0
 11
5.956630843253202
 21
2.348612099220263
 31
0.0
  0
LINE
  5
2A5
330
2
100
AcDbEntity
  8
OBJ
100
AcDbLine
 10
5.869647833810724
 20
2.49784606416751
 30
0.0
 11
5.869647833810724
 21
2.524339915693141
 31
0.0
  0
LINE
  5
2A6
330
2
100
AcDbEntity
  8
OBJ
100
AcDbLine
 10
5.870537557277097
 20
2.498186546597474
 30
0.0
 11
5.869647833810724
 21
2.49784606416751
 31
0.0
  0
LINE
  5
2A7
330
2
100
AcDbEntity
  8
OBJ
100
AcDbLine
 10
5.879647833810716
 20
2.512016459173157
 30
0.0
 11
5.879647833810716
 21
2.524339915693139
 31
0.0
  0
LINE
  5
2A8
330
2
100
AcDbEntity
  8
OBJ
100
AcDbLine
 10
5.86185819899145
 20
2.594310222060157
 30
0.0
 11
5.862059429048055
 21
2.571251541507987
 31
0.0
  0
LINE
  5
2A9
330
2
100
AcDbEntity
  8
OBJ
100
AcDbLine
 10
6.094726025748821
 20
2.360516916724972
 30
0.0
 11
6.046630843253462
 21
2.408612099220363
 31
0.0
  0
LINE
  5
2AA
330
2
100
AcDbEntity
  8
OBJ
100
AcDbLine
 10
6.056649229458622
 20
2.402946436246477
 30
0.0
 11
6.056650004012293
 21
2.398592938461534
 31
0.0
  0
LINE
  5
2AB
330
2
100
AcDbEntity
  8
OBJ
100
AcDbLine
 10
6.056649229458622
 20
2.402946436246477
 30
0.0
 11
6.056649229458595
 21
2.398593713015224
 31
0.0
  0
LINE
  5
2AC
330
2
100
AcDbEntity
  8
OBJ
100
AcDbLine
 10
6.006649996521328
 20
2.398631252488303
 30
0.0
 11
6.006649230191025
 21
2.402938529636482
 31
0.0
  0
LINE
  5
2AD
330
2
100
AcDbEntity
  8
OBJ
100
AcDbLine
 10
6.046630843253462
 20
2.408612099220363
 30
0.0
 11
6.016630843253432
 21
2.408612099220384
 31
0.0
  0
LINE
  5
2AE
330
2
100
AcDbEntity
  8
OBJ
100
AcDbLine
 10
6.162339903385381
 20
2.348612099220265
 30
0.0
 11
6.166264027539705
 21
2.385689477381339
 31
0.0
  0
LINE
  5
2AF
330
2
100
AcDbEntity
  8
OBJ
100
AcDbLine
 10
6.106630843253522
 20
2.34861209922026
 30
0.0
 11
6.094726025748834
 21
2.360516916724972
 31
0.0
  0
LINE
  5
2B0
330
2
100
AcDbEntity
  8
OBJ
100
AcDbLine
 10
6.250040979221434
 20
2.014695199974044
 30
0.0
 11
6.250357414108189
 21
1.996566657452566
 31
0.0
  0
ARC
  5
2B1
330
2
100
AcDbEntity
  8
OBJ
100
AcDbCircle
 10
6.271284785921261
 20
1.943612099220265
 30
0.0
 40
0.02
100
AcDbArc
 50
181.0000000000038
 51
270.0
  0
LINE
  5
2B2
330
2
100
AcDbEntity
  8
OBJ
100
AcDbLine
 10
6.251261258264088
 20
1.944785460441294
 30
0.0
 11
6.250357414108189
 21
1.996566657452508
 31
0.0
  0
LINE
  5
2B3
330
2
100
AcDbEntity
  8
OBJ
100
AcDbLine
 10
6.251261258264075
 20
1.944785460441294
 30
0.0
 11
6.25128783201813
 21
1.94326305109152
 31
0.0
  0
LINE
  5
2B4
330
2
100
AcDbEntity
  8
OBJ
100
AcDbLine
 10
6.281892765011173
 20
1.923612099220265
 30
0.0
 11
6.271284785921261
 21
1.923612099220265
 31
0.0
  0
LINE
  5
2B5
330
2
100
AcDbEntity
  8
OBJ
100
AcDbLine
 10
6.281630843253845
 20
1.978438114931026
 30
0.0
 11
6.281630843253291
 21
1.926656917919816
 31
0.0
  0
LINE
  5
2B6
330
2
100
AcDbEntity
  8
OBJ
100
AcDbLine
 10
6.291630843253338
 20
1.930450101913172
 30
0.0
 11
6.291630843253338
 21
1.951235689806261
 31
0.0
  0
LINE
  5
2B7
330
2
100
AcDbEntity
  8
OBJ
100
AcDbLine
 10
6.2405404168046
 20
2.098562594042384
 30
0.0
 11
6.240540919935265
 21
2.098504940978256
 31
0.0
  0
LINE
  5
2B8
330
2
100
AcDbEntity
  8
OBJ
100
AcDbLine
 10
6.250040979221418
 20
2.014695199974042
 30
0.0
 11
6.248543621874655
 21
2.100478744918091
 31
0.0
  0
LINE
  5
2B9
330
2
100
AcDbEntity
  8
OBJ
100
AcDbLine
 10
6.212720766571332
 20
2.098504940978256
 30
0.0
 11
6.212721269701996
 21
2.098562594042379
 31
0.0
  0
LINE
  5
2BA
330
2
100
AcDbEntity
  8
OBJ
100
AcDbLine
 10
6.2405404168046
 20
2.098562594042541
 30
0.0
 11
6.212721269701996
 21
2.098562594042541
 31
0.0
  0
LINE
  5
2BB
330
2
100
AcDbEntity
  8
OBJ
100
AcDbLine
 10
6.417178670225648
 20
2.036386852483314
 30
0.0
 11
6.417756148268732
 21
2.102559281918873
 31
0.0
  0
LINE
  5
2BC
330
2
100
AcDbEntity
  8
OBJ
100
AcDbLine
 10
6.363623614132061
 20
2.063612099220287
 30
0.0
 11
6.417416261354485
 21
2.063612099220287
 31
0.0
  0
LINE
  5
2BD
330
2
100
AcDbEntity
  8
OBJ
100
AcDbLine
 10
6.405444174774567
 20
2.099690109423332
 30
0.0
 11
6.405216595427271
 21
2.073612099220268
 31
0.0
  0
LINE
  5
2BE
330
2
100
AcDbEntity
  8
OBJ
100
AcDbLine
 10
6.402385336760484
 20
2.073612099220268
 30
0.0
 11
6.402559887409775
 21
2.063612099220289
 31
0.0
  0
LINE
  5
2BF
330
2
100
AcDbEntity
  8
OBJ
100
AcDbLine
 10
6.405216595427271
 20
2.073612099220268
 30
0.0
 11
6.371449530214102
 21
2.073612099220268
 31
0.0
  0
LINE
  5
2C0
330
2
100
AcDbEntity
  8
OBJ
100
AcDbLine
 10
6.44556190548668
 20
2.096100234971068
 30
0.0
 11
6.446075526622658
 21
2.037245082322458
 31
0.0
  0
LINE
  5
2C1
330
2
100
AcDbEntity
  8
OBJ
100
AcDbLine
 10
6.26057096453034
 20
2.502841653596195
 30
0.0
 11
6.26052817426473
 21
2.407170796906321
 31
0.0
  0
LINE
  5
2C2
330
2
100
AcDbEntity
  8
OBJ
100
AcDbLine
 10
6.259661787668998
 20
2.497846064166419
 30
0.0
 11
6.259661787668998
 21
2.410976927956138
 31
0.0
  0
LINE
  5
2C3
330
2
100
AcDbEntity
  8
OBJ
100
AcDbLine
 10
6.253978232899962
 20
2.351378398256901
 30
0.0
 11
6.252059429047827
 21
2.571251541535994
 31
0.0
  0
LINE
  5
2C4
330
2
100
AcDbEntity
  8
OBJ
100
AcDbLine
 10
6.193630462484118
 20
2.49784606416751
 30
0.0
 11
6.193630462484118
 21
2.410976925020593
 31
0.0
  0
LINE
  5
2C5
330
2
100
AcDbEntity
  8
OBJ
100
AcDbLine
 10
6.192745257253173
 20
2.407149689473892
 30
0.0
 11
6.192788047518783
 21
2.502820546163832
 31
0.0
  0
LINE
  5
2C6
330
2
100
AcDbEntity
  8
OBJ
100
AcDbLine
 10
6.201202257459124
 20
2.571251541535994
 30
0.0
 11
6.19928345360699
 21
2.351378398256898
 31
0.0
  0
LINE
  5
2C7
330
2
100
AcDbEntity
  8
OBJ
100
AcDbLine
 10
6.250140917438807
 20
2.351411886001601
 30
0.0
 11
6.253978232899962
 21
2.351378398256898
 31
0.0
  0
LINE
  5
2C8
330
2
100
AcDbEntity
  8
OBJ
100
AcDbLine
 10
6.250140917438807
 20
2.351411886001601
 30
0.0
 11
6.25011648406973
 21
2.348612099220263
 31
0.0
  0
LINE
  5
2C9
330
2
100
AcDbEntity
  8
OBJ
100
AcDbLine
 10
6.203120769068146
 20
2.351411886001598
 30
0.0
 11
6.19928345360699
 21
2.351378398256896
 31
0.0
  0
LINE
  5
2CA
330
2
100
AcDbEntity
  8
OBJ
100
AcDbLine
 10
6.203145202437221
 20
2.348612099220263
 30
0.0
 11
6.203120769068146
 21
2.351411886001598
 31
0.0
  0
LINE
  5
2CB
330
2
100
AcDbEntity
  8
OBJ
100
AcDbLine
 10
6.187399456555504
 20
2.350486952241981
 30
0.0
 11
6.192721529671056
 21
2.406651082912525
 31
0.0
  0
LINE
  5
2CC
330
2
100
AcDbEntity
  8
OBJ
100
AcDbLine
 10
6.265873974962285
 20
2.350503327367023
 30
0.0
 11
6.260551901846847
 21
2.406667458037582
 31
0.0
  0
LINE
  5
2CD
330
2
100
AcDbEntity
  8
OBJ
100
AcDbLine
 10
6.290986626785789
 20
2.348612099220263
 30
0.0
 11
6.287053907894498
 21
2.385639596796114
 31
0.0
  0
LINE
  5
2CE
330
2
100
AcDbEntity
  8
OBJ
100
AcDbLine
 10
6.251858198991451
 20
2.594310222060157
 30
0.0
 11
6.252059429048069
 21
2.571251541507987
 31
0.0
  0
LINE
  5
2CF
330
2
100
AcDbEntity
  8
OBJ
100
AcDbLine
 10
6.193630462484118
 20
2.524339915693139
 30
0.0
 11
6.193630462484118
 21
2.49784606416751
 31
0.0
  0
LINE
  5
2D0
330
2
100
AcDbEntity
  8
OBJ
100
AcDbLine
 10
6.193630462484118
 20
2.497846064167512
 30
0.0
 11
6.192785967149754
 21
2.498169238540686
 31
0.0
  0
LINE
  5
2D1
330
2
100
AcDbEntity
  8
OBJ
100
AcDbLine
 10
6.183630462484127
 20
2.524339915693139
 30
0.0
 11
6.183630462484127
 21
2.512021332928203
 31
0.0
  0
LINE
  5
2D2
330
2
100
AcDbEntity
  8
OBJ
100
AcDbLine
 10
6.201202257458882
 20
2.571251541507987
 30
0.0
 11
6.201403487515486
 21
2.594310222060157
 31
0.0
  0
LINE
  5
2D3
330
2
100
AcDbEntity
  8
OBJ
100
AcDbLine
 10
6.252059429047827
 20
2.571251541535994
 30
0.0
 11
6.201202257459124
 21
2.571251541535994
 31
0.0
  0
LINE
  5
2D4
330
2
100
AcDbEntity
  8
OBJ
100
AcDbLine
 10
6.269661787668988
 20
2.512008964689631
 30
0.0
 11
6.269661787668988
 21
2.524339915693139
 31
0.0
  0
LINE
  5
2D5
330
2
100
AcDbEntity
  8
OBJ
100
AcDbLine
 10
6.259661787668998
 20
2.497846064166419
 30
0.0
 11
6.259661787668998
 21
2.524339915693139
 31
0.0
  0
LINE
  5
2D6
330
2
100
AcDbEntity
  8
OBJ
100
AcDbLine
 10
6.26056888543577
 20
2.498193195453297
 30
0.0
 11
6.259661787668998
 21
2.497846064166417
 31
0.0
  0
LINE
  5
2D7
330
2
100
AcDbEntity
  8
OBJ
100
AcDbLine
 10
6.436630843253449
 20
2.408612099220086
 30
0.0
 11
6.406630843253419
 21
2.40861209922012
 31
0.0
  0
LINE
  5
2D8
330
2
100
AcDbEntity
  8
OBJ
100
AcDbLine
 10
6.35853566075816
 20
2.360516916724969
 30
0.0
 11
6.484726025748537
 21
2.360516916724969
 31
0.0
  0
LINE
  5
2D9
330
2
100
AcDbEntity
  8
OBJ
100
AcDbLine
 10
6.396681316133959
 20
2.398662572100684
 30
0.0
 11
6.39668055537589
 21
2.402938529635474
 31
0.0
  0
LINE
  5
2DA
330
2
100
AcDbEntity
  8
OBJ
100
AcDbLine
 10
6.358535660758173
 20
2.360516916724967
 30
0.0
 11
6.346630843253445
 21
2.348612099220265
 31
0.0
  0
LINE
  5
2DB
330
2
100
AcDbEntity
  8
OBJ
100
AcDbLine
 10
6.406630843253419
 20
2.40861209922012
 30
0.0
 11
6.35853566075816
 21
2.360516916724967
 31
0.0
  0
LINE
  5
2DC
330
2
100
AcDbEntity
  8
OBJ
100
AcDbLine
 10
6.446680554643488
 20
2.402946436245468
 30
0.0
 11
6.446681334771365
 21
2.398561607702159
 31
0.0
  0
LINE
  5
2DD
330
2
100
AcDbEntity
  8
OBJ
100
AcDbLine
 10
6.446680554643488
 20
2.402946436245469
 30
0.0
 11
6.446680554643459
 21
2.398562387830071
 31
0.0
  0
LINE
  5
2DE
330
2
100
AcDbEntity
  8
OBJ
100
AcDbLine
 10
6.484726025748537
 20
2.360516916724971
 30
0.0
 11
6.436630843253449
 21
2.408612099220086
 31
0.0
  0
LINE
  5
2DF
330
2
100
AcDbEntity
  8
OBJ
100
AcDbLine
 10
6.496630843253238
 20
2.348612099220258
 30
0.0
 11
6.484726025748537
 21
2.360516916724971
 31
0.0
  0
LINE
  5
2E0
330
2
100
AcDbEntity
  8
OBJ
100
AcDbLine
 10
6.202095544533229
 20
2.673612101536039
 30
0.0
 11
6.25116614199393
 21
2.673612101536039
 31
0.0
  0
LINE
  5
2E1
330
2
100
AcDbEntity
  8
OBJ
100
AcDbLine
 10
7.044148792233167
 20
2.34861209922026
 30
0.0
 11
7.039476871752251
 21
2.883961160640205
 31
0.0
  0
LINE
  5
2E2
330
2
100
AcDbEntity
  8
OBJ
100
AcDbLine
 10
6.641858198991466
 20
2.594310222060157
 30
0.0
 11
6.64116614199393
 21
2.673612099220289
 31
0.0
  0
LINE
  5
2E3
330
2
100
AcDbEntity
  8
OBJ
100
AcDbLine
 10
6.592095544513024
 20
2.673612099220289
 30
0.0
 11
6.591403487515488
 21
2.594310222060157
 31
0.0
  0
LINE
  5
2E4
330
2
100
AcDbEntity
  8
OBJ
100
AcDbLine
 10
6.874726025748341
 20
2.360516916724971
 30
0.0
 11
6.826630843253463
 21
2.408612099219872
 31
0.0
  0
LINE
  5
2E5
330
2
100
AcDbEntity
  8
OBJ
100
AcDbLine
 10
6.748535660758431
 20
2.360516916724969
 30
0.0
 11
6.874726025748341
 21
2.360516916724969
 31
0.0
  0
LINE
  5
2E6
330
2
100
AcDbEntity
  8
OBJ
100
AcDbLine
 10
6.936575330968462
 20
2.516596468458806
 30
0.0
 11
6.686575338292493
 21
2.516652376634801
 31
0.0
  0
LINE
  5
2E7
330
2
100
AcDbEntity
  8
OBJ
100
AcDbLine
 10
6.642232383232093
 20
2.551432955027019
 30
0.0
 11
6.982376516733959
 21
2.551432955282274
 31
0.0
  0
LINE
  5
2E8
330
2
100
AcDbEntity
  8
OBJ
100
AcDbLine
 10
6.6424688206044
 20
2.524339915693139
 30
0.0
 11
6.982612954108512
 21
2.524339915693139
 31
0.0
  0
LINE
  5
2E9
330
2
100
AcDbEntity
  8
OBJ
100
AcDbLine
 10
6.999822952728758
 20
1.923612099220263
 30
0.0
 11
6.571976895396624
 21
1.923612099220263
 31
0.0
  0
LINE
  5
2EA
330
2
100
AcDbEntity
  8
OBJ
100
AcDbLine
 10
6.592904267209699
 20
1.996566657452471
 30
0.0
 11
6.593220702096455
 21
2.014695199973948
 31
0.0
  0
ARC
  5
2EB
330
2
100
AcDbEntity
  8
OBJ
100
AcDbCircle
 10
6.571976895396624
 20
1.943612099220265
 30
0.0
 40
0.02
100
AcDbArc
 50
270.0
 51
358.9999999999959
  0
LINE
  5
2EC
330
2
100
AcDbEntity
  8
OBJ
100
AcDbLine
 10
6.561630843253293
 20
1.926656917919814
 30
0.0
 11
6.561630843253293
 21
1.978438114931011
 31
0.0
  0
LINE
  5
2ED
330
2
100
AcDbEntity
  8
OBJ
100
AcDbLine
 10
6.551630843253342
 20
1.951235689806314
 30
0.0
 11
6.551630843253342
 21
1.930450101933321
 31
0.0
  0
LINE
  5
2EE
330
2
100
AcDbEntity
  8
OBJ
100
AcDbLine
 10
6.571976895396624
 20
1.923612099220265
 30
0.0
 11
6.561368921236374
 21
1.923612099220265
 31
0.0
  0
LINE
  5
2EF
330
2
100
AcDbEntity
  8
OBJ
100
AcDbLine
 10
6.591973849299757
 20
1.94326305109152
 30
0.0
 11
6.592000423053812
 21
1.944785460441294
 31
0.0
  0
LINE
  5
2F0
330
2
100
AcDbEntity
  8
OBJ
100
AcDbLine
 10
6.592904267209699
 20
1.996566657452491
 30
0.0
 11
6.592000423053798
 21
1.944785460441294
 31
0.0
  0
LINE
  5
2F1
330
2
100
AcDbEntity
  8
OBJ
100
AcDbLine
 10
6.630540416804601
 20
2.098562594042371
 30
0.0
 11
6.630540919935265
 21
2.098504940978256
 31
0.0
  0
LINE
  5
2F2
330
2
100
AcDbEntity
  8
OBJ
100
AcDbLine
 10
6.630540416804601
 20
2.098562594042371
 30
0.0
 11
6.602721269701997
 21
2.098562594042371
 31
0.0
  0
LINE
  5
2F3
330
2
100
AcDbEntity
  8
OBJ
100
AcDbLine
 10
6.602720766571333
 20
2.098504940978256
 30
0.0
 11
6.602721269701997
 21
2.098562594042372
 31
0.0
  0
LINE
  5
2F4
330
2
100
AcDbEntity
  8
OBJ
100
AcDbLine
 10
6.594718059443231
 20
2.100478744918091
 30
0.0
 11
6.593220702096468
 21
2.014695199973949
 31
0.0
  0
LINE
  5
2F5
330
2
100
AcDbEntity
  8
OBJ
100
AcDbLine
 10
6.68163084325324
 20
2.049151333863056
 30
0.0
 11
6.68163084325324
 21
2.042810827151801
 31
0.0
  0
LINE
  5
2F6
330
2
100
AcDbEntity
  8
OBJ
100
AcDbLine
 10
6.695846524738167
 20
2.063486099140254
 30
0.0
 11
6.695774687599306
 21
2.071717819910514
 31
0.0
  0
LINE
  5
2F7
330
2
100
AcDbEntity
  8
OBJ
100
AcDbLine
 10
6.810537379527838
 20
2.098910631477272
 30
0.0
 11
6.8110832671103
 21
2.036358110279765
 31
0.0
  0
LINE
  5
2F8
330
2
100
AcDbEntity
  8
OBJ
100
AcDbLine
 10
6.782189695647484
 20
2.037650240696861
 30
0.0
 11
6.782713338469615
 21
2.097653764835334
 31
0.0
  0
LINE
  5
2F9
330
2
100
AcDbEntity
  8
OBJ
100
AcDbLine
 10
6.649553144324693
 20
2.49784087131688
 30
0.0
 11
6.649553144324125
 21
2.410971726026016
 31
0.0
  0
LINE
  5
2FA
330
2
100
AcDbEntity
  8
OBJ
100
AcDbLine
 10
6.582776582438039
 20
2.407149689472952
 30
0.0
 11
6.582819372703649
 21
2.502820546162834
 31
0.0
  0
LINE
  5
2FB
330
2
100
AcDbEntity
  8
OBJ
100
AcDbLine
 10
6.65044494984641
 20
2.502836320076726
 30
0.0
 11
6.650402159580801
 21
2.407165463386855
 31
0.0
  0
LINE
  5
2FC
330
2
100
AcDbEntity
  8
OBJ
100
AcDbLine
 10
6.583661787668996
 20
2.392701736618316
 30
0.0
 11
6.583661787668996
 21
2.497846064166417
 31
0.0
  0
LINE
  5
2FD
330
2
100
AcDbEntity
  8
OBJ
100
AcDbLine
 10
6.643978232899963
 20
2.351378398256894
 30
0.0
 11
6.642059429047828
 21
2.571251541535994
 31
0.0
  0
LINE
  5
2FE
330
2
100
AcDbEntity
  8
OBJ
100
AcDbLine
 10
6.591202257459124
 20
2.571251541535994
 30
0.0
 11
6.589283453606991
 21
2.351378398256894
 31
0.0
  0
LINE
  5
2FF
330
2
100
AcDbEntity
  8
OBJ
100
AcDbLine
 10
6.580853974999707
 20
2.386612099219219
 30
0.0
 11
6.583661787668996
 21
2.386612099219219
 31
0.0
  0
LINE
  5
300
330
2
100
AcDbEntity
  8
OBJ
100
AcDbLine
 10
6.580569697131432
 20
2.38361209922029
 30
0.0
 11
6.589564752853712
 21
2.38361209922029
 31
0.0
  0
LINE
  5
301
330
2
100
AcDbEntity
  8
OBJ
100
AcDbLine
 10
6.577430781740369
 20
2.350486952241033
 30
0.0
 11
6.58275285485592
 21
2.406651082911587
 31
0.0
  0
LINE
  5
302
330
2
100
AcDbEntity
  8
OBJ
100
AcDbLine
 10
6.578358267831797
 20
2.348612099220263
 30
0.0
 11
6.578265072163724
 21
2.359291265022387
 31
0.0
  0
LINE
  5
303
330
2
100
AcDbEntity
  8
OBJ
100
AcDbLine
 10
6.552371228570359
 20
2.348612099220263
 30
0.0
 11
6.556295352724569
 21
2.385689477380369
 31
0.0
  0
LINE
  5
304
330
2
100
AcDbEntity
  8
OBJ
100
AcDbLine
 10
6.654903418674814
 20
2.348612099220263
 30
0.0
 11
6.654988947370862
 21
2.35841271704787
 31
0.0
  0
LINE
  5
305
330
2
100
AcDbEntity
  8
OBJ
100
AcDbLine
 10
6.643321678338248
 20
2.42661209921922
 30
0.0
 11
6.649553144324225
 21
2.42661209921922
 31
0.0
  0
LINE
  5
306
330
2
100
AcDbEntity
  8
OBJ
100
AcDbLine
 10
6.583661787668996
 20
2.392701736618318
 30
0.0
 11
6.583661787668996
 21
2.386612099219219
 31
0.0
  0
LINE
  5
307
330
2
100
AcDbEntity
  8
OBJ
100
AcDbLine
 10
6.589590933457071
 20
2.386612099219221
 30
0.0
 11
6.583661787668981
 21
2.386612099219221
 31
0.0
  0
LINE
  5
308
330
2
100
AcDbEntity
  8
OBJ
100
AcDbLine
 10
6.640140917438809
 20
2.351411886001594
 30
0.0
 11
6.643978232899963
 21
2.35137839825689
 31
0.0
  0
LINE
  5
309
330
2
100
AcDbEntity
  8
OBJ
100
AcDbLine
 10
6.593120769068145
 20
2.351411886001594
 30
0.0
 11
6.589283453606991
 21
2.35137839825689
 31
0.0
  0
LINE
  5
30A
330
2
100
AcDbEntity
  8
OBJ
100
AcDbLine
 10
6.593145202437222
 20
2.348612099220263
 30
0.0
 11
6.593120769068145
 21
2.351411886001594
 31
0.0
  0
LINE
  5
30B
330
2
100
AcDbEntity
  8
OBJ
100
AcDbLine
 10
6.640140917438823
 20
2.351411886001594
 30
0.0
 11
6.640116484069729
 21
2.348612099220263
 31
0.0
  0
LINE
  5
30C
330
2
100
AcDbEntity
  8
OBJ
100
AcDbLine
 10
6.583661787668996
 20
2.426612099220267
 30
0.0
 11
6.589940008168704
 21
2.426612099220267
 31
0.0
  0
LINE
  5
30D
330
2
100
AcDbEntity
  8
OBJ
100
AcDbLine
 10
6.652322065058864
 20
2.386612099219221
 30
0.0
 11
6.643670753049883
 21
2.386612099219221
 31
0.0
  0
LINE
  5
30E
330
2
100
AcDbEntity
  8
OBJ
100
AcDbLine
 10
6.64369693365324
 20
2.38361209922029
 30
0.0
 11
6.652605782158923
 21
2.38361209922029
 31
0.0
  0
LINE
  5
30F
330
2
100
AcDbEntity
  8
OBJ
100
AcDbLine
 10
6.655737462310636
 20
2.350497985020731
 30
0.0
 11
6.650425794444511
 21
2.406663100162694
 31
0.0
  0
LINE
  5
310
330
2
100
AcDbEntity
  8
OBJ
100
AcDbLine
 10
6.57366178766899
 20
2.524339915693139
 30
0.0
 11
6.57366178766899
 21
2.512021332927202
 31
0.0
  0
LINE
  5
311
330
2
100
AcDbEntity
  8
OBJ
100
AcDbLine
 10
6.659553603613655
 20
2.512009883995139
 30
0.0
 11
6.659554710592355
 21
2.524339915693139
 31
0.0
  0
LINE
  5
312
330
2
100
AcDbEntity
  8
OBJ
100
AcDbLine
 10
6.649553144324707
 20
2.497840871316882
 30
0.0
 11
6.649558053627751
 21
2.524339915693139
 31
0.0
  0
LINE
  5
313
330
2
100
AcDbEntity
  8
OBJ
100
AcDbLine
 10
6.650442867778048
 20
2.498181213077004
 30
0.0
 11
6.649553144324707
 21
2.49784087131688
 31
0.0
  0
LINE
  5
314
330
2
100
AcDbEntity
  8
OBJ
100
AcDbLine
 10
6.583661787668996
 20
2.497846064166417
 30
0.0
 11
6.582817292334605
 21
2.498169238539596
 31
0.0
  0
LINE
  5
315
330
2
100
AcDbEntity
  8
OBJ
100
AcDbLine
 10
6.583661787668996
 20
2.524339915693139
 30
0.0
 11
6.583661787668996
 21
2.497846064166417
 31
0.0
  0
LINE
  5
316
330
2
100
AcDbEntity
  8
OBJ
100
AcDbLine
 10
6.641858198991466
 20
2.594310222060157
 30
0.0
 11
6.642059429048069
 21
2.571251541507987
 31
0.0
  0
LINE
  5
317
330
2
100
AcDbEntity
  8
OBJ
100
AcDbLine
 10
6.591202257458883
 20
2.571251541507987
 30
0.0
 11
6.591403487515488
 21
2.594310222060157
 31
0.0
  0
LINE
  5
318
330
2
100
AcDbEntity
  8
OBJ
100
AcDbLine
 10
6.642059429047828
 20
2.571251541535994
 30
0.0
 11
6.591202257459124
 21
2.571251541535994
 31
0.0
  0
LINE
  5
319
330
2
100
AcDbEntity
  8
OBJ
100
AcDbLine
 10
6.748535660758431
 20
2.360516916724972
 30
0.0
 11
6.7366308432537
 21
2.348612099220265
 31
0.0
  0
LINE
  5
31A
330
2
100
AcDbEntity
  8
OBJ
100
AcDbLine
 10
6.680840205336319
 20
2.34861209922026
 30
0.0
 11
6.676915045921909
 21
2.385633725945754
 31
0.0
  0
LINE
  5
31B
330
2
100
AcDbEntity
  8
OBJ
100
AcDbLine
 10
6.786535770625016
 20
2.398517026591471
 30
0.0
 11
6.786535770625016
 21
2.402911675619615
 31
0.0
  0
LINE
  5
31C
330
2
100
AcDbEntity
  8
OBJ
100
AcDbLine
 10
6.796630843253462
 20
2.408612099219896
 30
0.0
 11
6.748535660758431
 21
2.360516916724972
 31
0.0
  0
LINE
  5
31D
330
2
100
AcDbEntity
  8
OBJ
100
AcDbLine
 10
6.826630843253463
 20
2.408612099219872
 30
0.0
 11
6.796630843253462
 21
2.408612099219894
 31
0.0
  0
LINE
  5
31E
330
2
100
AcDbEntity
  8
OBJ
100
AcDbLine
 10
7.045239650707012
 20
2.223612099220273
 30
0.0
 11
7.04494890281165
 21
2.256928508078333
 31
0.0
  0
LINE
  5
31F
330
2
100
AcDbEntity
  8
OBJ
100
AcDbLine
 10
7.046549245847865
 20
2.348612099220257
 30
0.0
 11
7.042816478935273
 21
2.134762026021216
 31
0.0
  0
LINE
  5
320
330
2
100
AcDbEntity
  8
OBJ
100
AcDbLine
 10
6.941630843253245
 20
2.042810827151804
 30
0.0
 11
6.941630843253245
 21
2.049151333863056
 31
0.0
  0
LINE
  5
321
330
2
100
AcDbEntity
  8
OBJ
100
AcDbLine
 10
7.042816478935273
 20
2.134762026021216
 30
0.0
 11
7.039816860535006
 21
1.962914002962774
 31
0.0
  0
LINE
  5
322
330
2
100
AcDbEntity
  8
OBJ
100
AcDbLine
 10
6.999822952728758
 20
1.923612099220259
 30
0.0
 11
7.019476897991064
 21
1.923612099220259
 31
0.0
  0
ARC
  5
323
330
2
100
AcDbEntity
  8
OBJ
100
AcDbCircle
 10
7.019476897991064
 20
1.943612099220259
 30
0.0
 40
0.02
100
AcDbArc
 50
270.0
 51
359.0000000000009
  0
ARC
  5
324
330
2
100
AcDbEntity
  8
OBJ
100
AcDbCircle
 10
6.999822952728758
 20
1.963612099220263
 30
0.0
 40
0.04
100
AcDbArc
 50
270.0
 51
358.999999999998
  0
LINE
  5
325
330
2
100
AcDbEntity
  8
OBJ
100
AcDbLine
 10
7.039816860535006
 20
1.962914002962771
 30
0.0
 11
7.039473851894195
 21
1.943263051091514
 31
0.0
  0
LINE
  5
326
330
2
100
AcDbEntity
  8
OBJ
100
AcDbLine
 10
7.044367362731856
 20
2.223612099220273
 30
0.0
 11
7.045239650707012
 21
2.223612099220273
 31
0.0
  0
LINE
  5
327
330
2
100
AcDbEntity
  8
OBJ
100
AcDbLine
 10
6.984042615761591
 20
2.360516916724604
 30
0.0
 11
7.004176962438104
 21
2.360516916724604
 31
0.0
  0
LINE
  5
328
330
2
100
AcDbEntity
  8
OBJ
100
AcDbLine
 10
7.006555338041615
 20
2.348612099220263
 30
0.0
 11
6.88663084325304
 21
2.348612099220263
 31
0.0
  0
LINE
  5
329
330
2
100
AcDbEntity
  8
OBJ
100
AcDbLine
 10
6.973535768151316
 20
2.410919408692898
 30
0.0
 11
6.973542614593664
 21
2.447874589003581
 31
0.0
  0
LINE
  5
32A
330
2
100
AcDbEntity
  8
OBJ
100
AcDbLine
 10
6.973535768252386
 20
2.497789639231709
 30
0.0
 11
6.973535768251815
 21
2.410920493940848
 31
0.0
  0
LINE
  5
32B
330
2
100
AcDbEntity
  8
OBJ
100
AcDbLine
 10
6.972650563033819
 20
2.407093398102921
 30
0.0
 11
6.972693353299428
 21
2.5027642547928
 31
0.0
  0
LINE
  5
32C
330
2
100
AcDbEntity
  8
OBJ
100
AcDbLine
 10
6.982376516755945
 20
2.551432952762825
 30
0.0
 11
6.984042615761591
 21
2.360516916724604
 31
0.0
  0
LINE
  5
32D
330
2
100
AcDbEntity
  8
OBJ
100
AcDbLine
 10
6.836535770625029
 20
2.402911675619614
 30
0.0
 11
6.836535770625029
 21
2.398707171848301
 31
0.0
  0
LINE
  5
32E
330
2
100
AcDbEntity
  8
OBJ
100
AcDbLine
 10
6.88663084325304
 20
2.34861209922026
 30
0.0
 11
6.874726025748341
 21
2.360516916724972
 31
0.0
  0
LINE
  5
32F
330
2
100
AcDbEntity
  8
OBJ
100
AcDbLine
 10
6.984146507530023
 20
2.348612099220263
 30
0.0
 11
6.984042615761591
 21
2.360516916724604
 31
0.0
  0
LINE
  5
330
330
2
100
AcDbEntity
  8
OBJ
100
AcDbLine
 10
6.967294264365017
 20
2.350430672620884
 30
0.0
 11
6.972626742546291
 21
2.406593815792152
 31
0.0
  0
LINE
  5
331
330
2
100
AcDbEntity
  8
OBJ
100
AcDbLine
 10
6.942231335913726
 20
2.34861209922026
 30
0.0
 11
6.946156495328136
 21
2.385633725945754
 31
0.0
  0
LINE
  5
332
330
2
100
AcDbEntity
  8
OBJ
100
AcDbLine
 10
6.973540687046872
 20
2.524339915693141
 30
0.0
 11
6.973535768252386
 21
2.497789639231709
 31
0.0
  0
LINE
  5
333
330
2
100
AcDbEntity
  8
OBJ
100
AcDbLine
 10
6.973535768252399
 20
2.497789639231704
 30
0.0
 11
6.9726912729304
 21
2.498112947169641
 31
0.0
  0
LINE
  5
334
330
2
100
AcDbEntity
  8
OBJ
100
AcDbLine
 10
6.96353997792803
 20
2.524339915693141
 30
0.0
 11
6.963537685432622
 21
2.511965666905044
 31
0.0
  0
LINE
  5
335
330
2
100
AcDbEntity
  8
OBJ
100
AcDbLine
 10
6.963537339790685
 20
2.524339915693139
 30
0.0
 11
6.963536228158611
 21
2.511966292851221
 31
0.0
  0
LINE
  5
336
330
2
100
AcDbEntity
  8
OBJ
100
AcDbLine
 10
6.973542614694162
 20
2.447875674251529
 30
0.0
 11
6.973542614694659
 21
2.524339915693139
 31
0.0
  0
LINE
  5
337
330
2
100
AcDbEntity
  8
OBJ
100
AcDbLine
 10
7.046549245847879
 20
2.348612099220257
 30
0.0
 11
7.006555338041615
 21
2.34861209922026
 31
0.0
  0
LINE
  5
338
330
2
100
AcDbEntity
  8
OBJ
100
AcDbLine
 10
6.592095544533231
 20
2.673612101536026
 30
0.0
 11
6.64116614199393
 21
2.673612101536026
 31
0.0
  0
ARC
  5
339
330
2
100
AcDbEntity
  8
OBJ
100
AcDbCircle
 10
6.999478394829689
 20
2.883612099220279
 30
0.0
 40
0.04
100
AcDbArc
 50
0.4999999999986227
 51
90.0
  0
CIRCLE
  5
33A
330
2
100
AcDbEntity
  8
OBJ
100
AcDbCircle
 10
6.226630843253484
 20
6.967407074405948
 30
0.0
 40
0.5402324591343161
  0
LINE
  5
33B
330
2
100
AcDbEntity
  8
OBJ
100
AcDbLine
 10
6.749630843253481
 20
4.023025942959299
 30
0.0
 11
5.716398384119167
 21
4.023025942959299
 31
0.0
  0
LINE
  5
33C
330
2
100
AcDbEntity
  8
OBJ
100
AcDbLine
 10
6.766863302387799
 20
3.62493352634375
 30
0.0
 11
5.686398384119167
 21
3.624933526343749
 31
0.0
  0
LINE
  5
33D
330
2
100
AcDbEntity
  8
OBJ
100
AcDbLine
 10
6.819630843253484
 20
3.572165985478065
 30
0.0
 11
5.633630843253484
 21
3.572165985478065
 31
0.0
  0
LINE
  5
33E
330
2
100
AcDbEntity
  8
OBJ
100
AcDbLine
 10
6.779630843253483
 20
3.542165985478064
 30
0.0
 11
5.673630843253484
 21
3.542165985478066
 31
0.0
  0
LINE
  5
33F
330
2
100
AcDbEntity
  8
OBJ
100
AcDbLine
 10
6.819630843253484
 20
3.512165985478064
 30
0.0
 11
5.633630843253484
 21
3.512165985478064
 31
0.0
  0
DIMENSION
  5
340
330
2
100
AcDbEntity
  8
DIM
100
AcDbDimension
  2
*D26
 10
6.819630843253484
 20
4.296296294527412
 30
0.0
 11
6.444265144785806
 21
4.296296294527412
 31
0.0
 70
   160
  1
1.19\PDia.
 71
     5
 42
1.185999999999999
  3
Standard
100
AcDbAlignedDimension
 13
5.633630843253484
 23
3.572165985478065
 33
0.0
 14
6.819630843253484
 24
3.572165985478065
 34
0.0
100
AcDbRotatedDimension
  0
LINE
  5
34E
330
2
100
AcDbEntity
  8
OBJ
100
AcDbLine
 10
5.72531986766848
 20
7.777407074365947
 30
0.0
 11
6.727941818838481
 21
7.777407074365947
 31
0.0
  0
LINE
  5
34F
330
2
100
AcDbEntity
  8
OBJ
100
AcDbLine
 10
6.727941818838481
 20
6.157407074445948
 30
0.0
 11
5.72531986766848
 21
6.157407074445948
 31
0.0
  0
MTEXT
  5
350
330
2
100
AcDbEntity
  8
NOTES
100
AcDbMText
 10
5.767843680498308
 20
8.261864529297337
 30
0.0
 40
0.12
 41
0.0
 71
     1
 72
     5
  1
{\fArial|b1|i0|c0|p34;Top View\P(Base Only)}
 73
     1
 44
1.0
1001
ACAD
1000
MTEXTBEGIN
1070
    73
1070
     1
1070
    44
1040
1.0
1070
    74
1070
     0
1000
MTEXTEND
1000
MTEXTBEGIN
1070
    73
1070
     1
1070
    44
1040
1.0
1070
    74
1070
     0
1000
MTEXTEND
1000
MTEXTBEGIN
1070
    73
1070
     1
1070
    44
1040
1.0
1070
    74
1070
     0
1000
MTEXTEND
1000
MTEXTBEGIN
1070
    73
1070
     1
1070
    44
1040
1.0
1070
    74
1070
     0
1000
MTEXTEND
1000
MTEXTBEGIN
1070
    73
1070
     1
1070
    44
1040
1.0
1070
    74
1070
     0
1000
MTEXTEND
1000
MTEXTBEGIN
1070
    73
1070
     1
1070
    44
1040
1.0
1070
    74
1070
     0
1000
MTEXTEND
1000
MTEXTBEGIN
1070
    73
1070
     1
1070
    44
1040
1.0
1070
    74
1070
     0
1000
MTEXTEND
1000
MTEXTBEGIN
1070
    73
1070
     1
1070
    44
1040
1.0
1070
    74
1070
     0
1000
MTEXTEND
1000
MTEXTBEGIN
1070
    73
1070
     1
1070
    44
1040
1.0
1070
    74
1070
     0
1000
MTEXTEND
1000
MTEXTBEGIN
1070
    73
1070
     1
1070
    44
1040
1.0
1070
    74
1070
     0
1000
MTEXTEND
1000
MTEXTBEGIN
1070
    73
1070
     1
1070
    44
1040
1.0
1070
    74
1070
     0
1000
MTEXTEND
1000
MTEXTBEGIN
1070
    73
1070
     1
1070
    44
1040
1.0
1070
    74
1070
     0
1000
MTEXTEND
  0
CIRCLE
  5
351
330
2
100
AcDbEntity
  8
OBJ
100
AcDbCircle
 10
6.226630843253484
 20
6.967407074405948
 30
0.0
 40
0.593
  0
CIRCLE
  5
352
330
2
100
AcDbEntity
  8
OBJ
100
AcDbCircle
 10
6.226630843253484
 20
6.967407074405948
 30
0.0
 40
0.8099999999600001
  0
LINE
  5
353
330
2
100
AcDbEntity
  8
OBJ
100
AcDbLine
 10
5.416630843293486
 20
6.466096098820949
 30
0.0
 11
5.416630843293486
 21
7.468718049990948
 31
0.0
  0
LINE
  5
354
330
2
100
AcDbEntity
  8
DIM
100
AcDbLine
 10
6.226630843253484
 20
6.877407074405948
 30
0.0
 11
6.226630843253484
 21
7.057407074405948
 31
0.0
  0
LINE
  5
357
330
2
100
AcDbEntity
  8
OBJ
100
AcDbLine
 10
5.686398384119167
 20
3.993025942959299
 30
0.0
 11
5.686398384119167
 21
3.624933526343747
 31
0.0
  0
LINE
  5
358
330
2
100
AcDbEntity
  8
OBJ
100
AcDbLine
 10
5.633630843253484
 20
3.572165985478065
 30
0.0
 11
5.686398384119167
 21
3.624933526343747
 31
0.0
  0
ARC
  5
359
330
2
100
AcDbEntity
  8
OBJ
100
AcDbCircle
 10
5.716398384119167
 20
3.993025942959299
 30
0.0
 40
0.03
100
AcDbArc
 50
89.99999999999994
 51
180.0
  0
ARC
  5
35A
330
2
100
AcDbEntity
  8
OBJ
100
AcDbCircle
 10
5.725319867668484
 20
6.466096098820947
 30
0.0
 40
0.3086890243749991
100
AcDbArc
 50
179.9999999999995
 51
269.9999999999996
  0
ARC
  5
35B
330
2
100
AcDbEntity
  8
OBJ
100
AcDbCircle
 10
5.725319867668484
 20
7.46871804999095
 30
0.0
 40
0.3086890243749991
100
AcDbArc
 50
90.00000000000033
 51
180.0000000000003
  0
LINE
  5
35C
330
2
100
AcDbEntity
  8
DIM
100
AcDbLine
 10
6.136630843253484
 20
6.967407074405948
 30
0.0
 11
6.316630843253483
 21
6.967407074405948
 31
0.0
  0
LINE
  5
35D
330
2
100
AcDbEntity
  8
OBJ
  6
HIDDEN
 48
0.125
100
AcDbLine
 10
6.983934330534641
 20
6.945579464164606
 30
0.0
 11
7.03663084321348
 21
6.892882951485765
 31
0.0
  0
LINE
  5
35E
330
2
100
AcDbEntity
  8
OBJ
100
AcDbLine
 10
6.766863302387799
 20
3.993025942959299
 30
0.0
 11
6.766863302387799
 21
3.62493352634375
 31
0.0
  0
LINE
  5
35F
330
2
100
AcDbEntity
  8
OBJ
100
AcDbLine
 10
6.819630843253484
 20
3.572165985478065
 30
0.0
 11
6.766863302387799
 21
3.62493352634375
 31
0.0
  0
ARC
  5
360
330
2
100
AcDbEntity
  8
OBJ
100
AcDbCircle
 10
6.736863302387798
 20
3.993025942959299
 30
0.0
 40
0.03
100
AcDbArc
 50
0.000000000000007
 51
90.00000000000005
  0
ARC
  5
361
330
2
100
AcDbEntity
  8
OBJ
100
AcDbCircle
 10
6.727941818838481
 20
6.466096098820949
 30
0.0
 40
0.3086890243750009
100
AcDbArc
 50
270.0
 51
0.0
  0
LINE
  5
362
330
2
100
AcDbEntity
  8
OBJ
100
AcDbLine
 10
7.03663084321348
 20
6.892882951485765
 30
0.0
 11
7.036630843213484
 21
6.466096098820949
 31
0.0
  0
ARC
  5
363
330
2
100
AcDbEntity
  8
OBJ
100
AcDbCircle
 10
6.727941818838481
 20
7.468718049990948
 30
0.0
 40
0.3086890243750009
100
AcDbArc
 50
0.0
 51
90.0
  0
LINE
  5
364
330
2
100
AcDbEntity
  8
OBJ
100
AcDbLine
 10
7.036630843213484
 20
7.468718049990948
 30
0.0
 11
7.03663084321348
 21
7.041931197326129
 31
0.0
  0
LINE
  5
365
330
2
100
AcDbEntity
  8
OBJ
  6
HIDDEN
 48
0.125
100
AcDbLine
 10
7.03663084321348
 20
7.041931197326129
 30
0.0
 11
6.983934330534641
 21
6.98923468464729
 31
0.0
  0
ARC
  5
366
330
2
100
AcDbEntity
  8
OBJ
  6
HIDDEN
 48
0.125
100
AcDbCircle
 10
7.005761940775984
 20
6.967407074405948
 30
0.0
 40
0.0308689024374997
100
AcDbArc
 50
135.0
 51
225.0
  0
ENDSEC
  0
SECTION
  2
OBJECTS
  0
DICTIONARY
  5
9
330
0
100
AcDbDictionary
281
     1
  3
ACAD_GROUP
350
23
  3
ACAD_LAYOUT
350
D
  3
ACAD_MLINESTYLE
350
24
  3
ACAD_PLOTSETTINGS
350
25
  3
ACAD_PLOTSTYLENAME
350
8
  0
DICTIONARY
  5
3
330
2
100
AcDbDictionary
280
     1
281
     1
  3
ACAD_LAYOUTSELFREF
360
4
  0
DICTIONARY
  5
F
330
E
100
AcDbDictionary
280
     1
281
     1
  3
ACAD_LAYOUTSELFREF
360
10
  0
DICTIONARY
  5
23
102
{ACAD_REACTORS
330
9
102
}
330
9
100
AcDbDictionary
281
     1
  0
DICTIONARY
  5
D
102
{ACAD_REACTORS
330
9
102
}
330
9
100
AcDbDictionary
281
     1
  3
Layout1
350
13
  3
Model
350
C
  0
DICTIONARY
  5
24
102
{ACAD_REACTORS
330
9
102
}
330
9
100
AcDbDictionary
281
     1
  3
Standard
350
27
  0
DICTIONARY
  5
25
102
{ACAD_REACTORS
330
9
102
}
330
9
100
AcDbDictionary
281
     1
  0
ACDBDICTIONARYWDFLT
  5
8
102
{ACAD_REACTORS
330
9
102
}
330
9
100
AcDbDictionary
281
     1
  3
Normal
350
7
100
AcDbDictionaryWithDefault
340
7
  0
XRECORD
  5
4
102
{ACAD_REACTORS
330
3
102
}
330
3
100
AcDbXrecord
280
     1
340
2
  0
XRECORD
  5
10
102
{ACAD_REACTORS
330
F
102
}
330
F
100
AcDbXrecord
280
     1
340
E
  0
LAYOUT
  5
13
102
{ACAD_REACTORS
330
D
102
}
330
D
100
AcDbPlotSettings
  1

  2
\\FOFS01\Engr_HP5si
  4

  6

 40
0.0
 41
0.0
 42
0.0
 43
0.0
 44
0.0
 45
0.0
 46
0.0
 47
0.0
 48
0.0
 49
0.0
140
0.0
141
0.0
142
1.0
143
1.0
 70
   688
 72
     0
 73
     0
 74
     5
  7
acad.ctb
 75
    16
147
1.0
148
0.0
149
0.0
100
AcDbLayout
  1
Layout1
 70
     1
 71
     1
 10
0.0
 20
0.0
 11
12.0
 21
9.0
 12
0.0
 22
0.0
 32
0.0
 14
1.000000000000000E+20
 24
1.000000000000000E+20
 34
1.000000000000000E+20
 15
-1.000000000000000E+20
 25
-1.000000000000000E+20
 35
-1.000000000000000E+20
146
0.0
 13
0.0
 23
0.0
 33
0.0
 16
1.0
 26
0.0
 36
0.0
 17
0.0
 27
1.0
 37
0.0
 76
     0
330
E
  0
LAYOUT
  5
C
102
{ACAD_REACTORS
330
D
102
}
330
D
100
AcDbPlotSettings
  1

  2
Dept62 LJ4V.pc3
  4
Letter
  6

 40
7.143749713897705
 41
6.720414161682128
 42
7.14373779296875
 43
5.027069091796875
 44
215.8999938964842
 45
279.3999938964843
 46
0.0
 47
3.047999999999998
 48
0.0
 49
0.0
140
0.0
141
0.0
142
1.0
143
1.063056972183824
 70
 11956
 72
     0
 73
     0
 74
     1
  7
R14cfg-1-Default System Printer.ctb
 75
     0
147
0.9406833557995604
148
0.0065397994845014
149
0.0084775178500557
100
AcDbLayout
  1
Model
 70
     1
 71
     0
 10
0.0
 20
0.0
 11
12.0
 21
9.0
 12
0.0
 22
0.0
 32
0.0
 14
0.0
 24
0.0
 34
0.0
 15
0.0
 25
0.0
 35
0.0
146
0.0
 13
0.0
 23
0.0
 33
0.0
 16
1.0
 26
0.0
 36
0.0
 17
0.0
 27
1.0
 37
0.0
 76
     0
330
2
  0
MLINESTYLE
  5
27
102
{ACAD_REACTORS
330
24
102
}
330
24
100
AcDbMlineStyle
  2
STANDARD
 70
     0
  3

 62
   256
 51
90.0
 52
90.0
 71
     2
 49
0.5
 62
   256
  6
BYLAYER
 49
-0.5
 62
   256
  6
BYLAYER
  0
ACDBPLACEHOLDER
  5
7
102
{ACAD_REACTORS
330
8
102
}
330
8
  0
ENDSEC
  0
EOF
