  0
SECTION
  2
HEADER
  9
$ACADVER
  1
AC1014
  9
$ACADMAINTVER
 70
     9
  9
$DWGCODEPAGE
  3
ANSI_1252
  9
$INSBASE
 10
0.0
 20
0.0
 30
0.0
  9
$EXTMIN
 10
2.376971121880768
 20
0.6860528305974914
 30
-0.00000001
  9
$EXTMAX
 10
9.397736838723877
 20
8.14157720638518
 30
0.00000001
  9
$LIMMIN
 10
0.0
 20
0.0
  9
$LIMMAX
 10
12.0
 20
9.0
  9
$ORTHOMODE
 70
     0
  9
$REGENMODE
 70
     1
  9
$FILLMODE
 70
     1
  9
$QTEXTMODE
 70
     0
  9
$MIRRTEXT
 70
     1
  9
$DRAGMODE
 70
     2
  9
$LTSCALE
 40
1.0
  9
$OSMODE
 70
    39
  9
$ATTMODE
 70
     1
  9
$TEXTSIZE
 40
0.33
  9
$TRACEWID
 40
0.05
  9
$TEXTSTYLE
  7
NAME
  9
$CLAYER
  8
DIM
  9
$CELTYPE
  6
BYLAYER
  9
$CECOLOR
 62
   256
  9
$CELTSCALE
 40
1.0
  9
$DELOBJ
 70
     1
  9
$DISPSILH
 70
     0
  9
$DIMSCALE
 40
1.0
  9
$DIMASZ
 40
0.12
  9
$DIMEXO
 40
0.06
  9
$DIMDLI
 40
0.38
  9
$DIMRND
 40
0.0
  9
$DIMDLE
 40
0.0
  9
$DIMEXE
 40
0.07
  9
$DIMTP
 40
0.0
  9
$DIMTM
 40
0.0
  9
$DIMTXT
 40
0.1
  9
$DIMCEN
 40
0.09
  9
$DIMTSZ
 40
0.0
  9
$DIMTOL
 70
     0
  9
$DIMLIM
 70
     0
  9
$DIMTIH
 70
     1
  9
$DIMTOH
 70
     1
  9
$DIMSE1
 70
     0
  9
$DIMSE2
 70
     0
  9
$DIMTAD
 70
     0
  9
$DIMZIN
 70
     0
  9
$DIMBLK
  1

  9
$DIMASO
 70
     1
  9
$DIMSHO
 70
     1
  9
$DIMPOST
  1

  9
$DIMAPOST
  1

  9
$DIMALT
 70
     0
  9
$DIMALTD
 70
     2
  9
$DIMALTF
 40
25.4
  9
$DIMLFAC
 40
1.0
  9
$DIMTOFL
 70
     0
  9
$DIMTVP
 40
0.0
  9
$DIMTIX
 70
     0
  9
$DIMSOXD
 70
     0
  9
$DIMSAH
 70
     0
  9
$DIMBLK1
  1

  9
$DIMBLK2
  1

  9
$DIMSTYLE
  2
STANDARD
  9
$DIMCLRD
 70
     0
  9
$DIMCLRE
 70
     0
  9
$DIMCLRT
 70
     0
  9
$DIMTFAC
 40
1.0
  9
$DIMGAP
 40
0.02
  9
$DIMJUST
 70
     0
  9
$DIMSD1
 70
     0
  9
$DIMSD2
 70
     0
  9
$DIMTOLJ
 70
     1
  9
$DIMTZIN
 70
     0
  9
$DIMALTZ
 70
     0
  9
$DIMALTTZ
 70
     0
  9
$DIMFIT
 70
     3
  9
$DIMUPT
 70
     0
  9
$DIMUNIT
 70
     2
  9
$DIMDEC
 70
     2
  9
$DIMTDEC
 70
     2
  9
$DIMALTU
 70
     2
  9
$DIMALTTD
 70
     2
  9
$DIMTXSTY
  7
STANDARD
  9
$DIMAUNIT
 70
     0
  9
$LUNITS
 70
     2
  9
$LUPREC
 70
     4
  9
$SKETCHINC
 40
0.1
  9
$FILLETRAD
 40
0.04
  9
$AUNITS
 70
     0
  9
$AUPREC
 70
     2
  9
$MENU
  1
.
  9
$ELEVATION
 40
0.0
  9
$PELEVATION
 40
0.0
  9
$THICKNESS
 40
0.0
  9
$LIMCHECK
 70
     0
  9
$BLIPMODE
 70
     0
  9
$CHAMFERA
 40
0.5
  9
$CHAMFERB
 40
0.5
  9
$CHAMFERC
 40
1.0
  9
$CHAMFERD
 40
0.0
  9
$SKPOLY
 70
     0
  9
$TDCREATE
 40
2452222.563186817
  9
$TDUPDATE
 40
2452415.474869548
  9
$TDINDWG
 40
1.4499307755
  9
$TDUSRTIMER
 40
1.4499305903
  9
$USRTIMER
 70
     1
  9
$ANGBASE
 50
0.0
  9
$ANGDIR
 70
     0
  9
$PDMODE
 70
     0
  9
$PDSIZE
 40
0.0
  9
$PLINEWID
 40
0.0
  9
$COORDS
 70
     1
  9
$SPLFRAME
 70
     0
  9
$SPLINETYPE
 70
     6
  9
$SPLINESEGS
 70
     8
  9
$ATTDIA
 70
     0
  9
$ATTREQ
 70
     1
  9
$HANDLING
 70
 12289
  9
$HANDSEED
  5
3C4
  9
$SURFTAB1
 70
     6
  9
$SURFTAB2
 70
     6
  9
$SURFTYPE
 70
     6
  9
$SURFU
 70
     6
  9
$SURFV
 70
     6
  9
$UCSNAME
  2

  9
$UCSORG
 10
0.0
 20
0.0
 30
0.0
  9
$UCSXDIR
 10
1.0
 20
0.0
 30
0.0
  9
$UCSYDIR
 10
0.0
 20
1.0
 30
0.0
  9
$PUCSNAME
  2

  9
$PUCSORG
 10
0.0
 20
0.0
 30
0.0
  9
$PUCSXDIR
 10
1.0
 20
0.0
 30
0.0
  9
$PUCSYDIR
 10
0.0
 20
1.0
 30
0.0
  9
$USERI1
 70
     0
  9
$USERI2
 70
     0
  9
$USERI3
 70
     0
  9
$USERI4
 70
     0
  9
$USERI5
 70
     0
  9
$USERR1
 40
0.0
  9
$USERR2
 40
0.0
  9
$USERR3
 40
0.0
  9
$USERR4
 40
0.0
  9
$USERR5
 40
0.0
  9
$WORLDVIEW
 70
     1
  9
$SHADEDGE
 70
     3
  9
$SHADEDIF
 70
    70
  9
$TILEMODE
 70
     1
  9
$MAXACTVP
 70
    48
  9
$PINSBASE
 10
0.0
 20
0.0
 30
0.0
  9
$PLIMCHECK
 70
     0
  9
$PEXTMIN
 10
1.000000000000000E+20
 20
1.000000000000000E+20
 30
1.000000000000000E+20
  9
$PEXTMAX
 10
-1.000000000000000E+20
 20
-1.000000000000000E+20
 30
-1.000000000000000E+20
  9
$PLIMMIN
 10
0.0
 20
0.0
  9
$PLIMMAX
 10
12.0
 20
9.0
  9
$UNITMODE
 70
     0
  9
$VISRETAIN
 70
     1
  9
$PLINEGEN
 70
     0
  9
$PSLTSCALE
 70
     1
  9
$TREEDEPTH
 70
  3020
  9
$PICKSTYLE
 70
     1
  9
$CMLSTYLE
  2
STANDARD
  9
$CMLJUST
 70
     0
  9
$CMLSCALE
 40
1.0
  9
$PROXYGRAPHICS
 70
     1
  9
$MEASUREMENT
 70
     0
  0
ENDSEC
  0
SECTION
  2
CLASSES
  0
CLASS
  1
ACDBDICTIONARYWDFLT
  2
AcDbDictionaryWithDefault
  3
AutoCAD 2000
 90
        0
280
     0
281
     0
  0
CLASS
  1
ACDBPLACEHOLDER
  2
AcDbPlaceHolder
  3
AutoCAD 2000
 90
        0
280
     0
281
     0
  0
CLASS
  1
LAYOUT
  2
AcDbLayout
  3
AutoCAD 2000
 90
        0
280
     0
281
     0
  0
CLASS
  1
LONG_TRANSACTION
  2
AcDbLongTransaction
  3
AutoCAD 2000
 90
        0
280
     0
281
     0
  0
CLASS
  1
LWPOLYLINE
  2
AcDbPolyline
  3
AutoCAD 2000
 90
        0
280
     0
281
     1
  0
CLASS
  1
HATCH
  2
AcDbHatch
  3
AutoCAD 2000
 90
        0
280
     0
281
     1
  0
CLASS
  1
XRECORD
  2
AcDbXrecord
  3
AutoCAD 2000
 90
        0
280
     0
281
     0
  0
CLASS
  1
DICTIONARYVAR
  2
AcDbDictionaryVar
  3
AutoCAD 2000
 90
        0
280
     0
281
     0
  0
CLASS
  1
LONG_TRANSACTION
  2
AcDbLongTransaction
  3
AutoCAD 2000
 90
        0
280
     0
281
     0
  0
CLASS
  1
LWPOLYLINE
  2
AcDbPolyline
  3
AutoCAD 2000
 90
        0
280
     0
281
     1
  0
CLASS
  1
HATCH
  2
AcDbHatch
  3
AutoCAD 2000
 90
        0
280
     0
281
     1
  0
CLASS
  1
XRECORD
  2
AcDbXrecord
  3
AutoCAD 2000
 90
        0
280
     0
281
     0
  0
CLASS
  1
LONG_TRANSACTION
  2
AcDbLongTransaction
  3
AutoCAD 2000
 90
        0
280
     0
281
     0
  0
CLASS
  1
LWPOLYLINE
  2
AcDbPolyline
  3
AutoCAD 2000
 90
        0
280
     0
281
     1
  0
CLASS
  1
HATCH
  2
AcDbHatch
  3
AutoCAD 2000
 90
        0
280
     0
281
     1
  0
CLASS
  1
XRECORD
  2
AcDbXrecord
  3
AutoCAD 2000
 90
        0
280
     0
281
     0
  0
CLASS
  1
RASTERVARIABLES
  2
AcDbRasterVariables
  3
ISM
 90
        0
280
     0
281
     0
  0
CLASS
  1
IMAGEDEF
  2
AcDbRasterImageDef
  3
ISM
 90
        0
280
     0
281
     0
  0
CLASS
  1
IMAGEDEF_REACTOR
  2
AcDbRasterImageDefReactor
  3
ISM
 90
        1
280
     0
281
     0
  0
CLASS
  1
IMAGE
  2
AcDbRasterImage
  3
ISM
 90
      127
280
     0
281
     1
  0
CLASS
  1
LONG_TRANSACTION
  2
AcDbLongTransaction
  3
AutoCAD 2000
 90
        0
280
     0
281
     0
  0
CLASS
  1
LWPOLYLINE
  2
AcDbPolyline
  3
AutoCAD 2000
 90
        0
280
     0
281
     1
  0
CLASS
  1
HATCH
  2
AcDbHatch
  3
AutoCAD 2000
 90
        0
280
     0
281
     1
  0
CLASS
  1
XRECORD
  2
AcDbXrecord
  3
AutoCAD 2000
 90
        0
280
     0
281
     0
  0
CLASS
  1
LONG_TRANSACTION
  2
AcDbLongTransaction
  3
AutoCAD 2000
 90
        0
280
     0
281
     0
  0
CLASS
  1
LWPOLYLINE
  2
AcDbPolyline
  3
AutoCAD 2000
 90
        0
280
     0
281
     1
  0
CLASS
  1
HATCH
  2
AcDbHatch
  3
AutoCAD 2000
 90
        0
280
     0
281
     1
  0
CLASS
  1
XRECORD
  2
AcDbXrecord
  3
AutoCAD 2000
 90
        0
280
     0
281
     0
  0
CLASS
  1
LONG_TRANSACTION
  2
AcDbLongTransaction
  3
AutoCAD 2000
 90
        0
280
     0
281
     0
  0
CLASS
  1
LWPOLYLINE
  2
AcDbPolyline
  3
AutoCAD 2000
 90
        0
280
     0
281
     1
  0
CLASS
  1
HATCH
  2
AcDbHatch
  3
AutoCAD 2000
 90
        0
280
     0
281
     1
  0
CLASS
  1
XRECORD
  2
AcDbXrecord
  3
AutoCAD 2000
 90
        0
280
     0
281
     0
  0
CLASS
  1
LONG_TRANSACTION
  2
AcDbLongTransaction
  3
AutoCAD 2000
 90
        0
280
     0
281
     0
  0
CLASS
  1
LWPOLYLINE
  2
AcDbPolyline
  3
AutoCAD 2000
 90
        0
280
     0
281
     1
  0
CLASS
  1
HATCH
  2
AcDbHatch
  3
AutoCAD 2000
 90
        0
280
     0
281
     1
  0
CLASS
  1
XRECORD
  2
AcDbXrecord
  3
AutoCAD 2000
 90
        0
280
     0
281
     0
  0
CLASS
  1
LONG_TRANSACTION
  2
AcDbLongTransaction
  3
AutoCAD 2000
 90
        0
280
     0
281
     0
  0
CLASS
  1
LWPOLYLINE
  2
AcDbPolyline
  3
AutoCAD 2000
 90
        0
280
     0
281
     1
  0
CLASS
  1
HATCH
  2
AcDbHatch
  3
AutoCAD 2000
 90
        0
280
     0
281
     1
  0
CLASS
  1
XRECORD
  2
AcDbXrecord
  3
AutoCAD 2000
 90
        0
280
     0
281
     0
  0
CLASS
  1
LONG_TRANSACTION
  2
AcDbLongTransaction
  3
AutoCAD 2000
 90
        0
280
     0
281
     0
  0
CLASS
  1
LWPOLYLINE
  2
AcDbPolyline
  3
AutoCAD 2000
 90
        0
280
     0
281
     1
  0
CLASS
  1
HATCH
  2
AcDbHatch
  3
AutoCAD 2000
 90
        0
280
     0
281
     1
  0
CLASS
  1
XRECORD
  2
AcDbXrecord
  3
AutoCAD 2000
 90
        0
280
     0
281
     0
  0
CLASS
  1
LONG_TRANSACTION
  2
AcDbLongTransaction
  3
AutoCAD 2000
 90
        0
280
     0
281
     0
  0
CLASS
  1
LWPOLYLINE
  2
AcDbPolyline
  3
AutoCAD 2000
 90
        0
280
     0
281
     1
  0
CLASS
  1
HATCH
  2
AcDbHatch
  3
AutoCAD 2000
 90
        0
280
     0
281
     1
  0
CLASS
  1
XRECORD
  2
AcDbXrecord
  3
AutoCAD 2000
 90
        0
280
     0
281
     0
  0
CLASS
  1
LONG_TRANSACTION
  2
AcDbLongTransaction
  3
AutoCAD 2000
 90
        0
280
     0
281
     0
  0
CLASS
  1
LWPOLYLINE
  2
AcDbPolyline
  3
AutoCAD 2000
 90
        0
280
     0
281
     1
  0
CLASS
  1
HATCH
  2
AcDbHatch
  3
AutoCAD 2000
 90
        0
280
     0
281
     1
  0
CLASS
  1
XRECORD
  2
AcDbXrecord
  3
AutoCAD 2000
 90
        0
280
     0
281
     0
  0
CLASS
  1
LONG_TRANSACTION
  2
AcDbLongTransaction
  3
AutoCAD 2000
 90
        0
280
     0
281
     0
  0
CLASS
  1
LWPOLYLINE
  2
AcDbPolyline
  3
AutoCAD 2000
 90
        0
280
     0
281
     1
  0
CLASS
  1
HATCH
  2
AcDbHatch
  3
AutoCAD 2000
 90
        0
280
     0
281
     1
  0
CLASS
  1
XRECORD
  2
AcDbXrecord
  3
AutoCAD 2000
 90
        0
280
     0
281
     0
  0
ENDSEC
  0
SECTION
  2
TABLES
  0
TABLE
  2
VPORT
  5
1E
330
0
100
AcDbSymbolTable
 70
     2
  0
VPORT
  5
3A1
330
1E
100
AcDbSymbolTableRecord
100
AcDbViewportTableRecord
  2
*ACTIVE
 70
     0
 10
0.0
 20
0.0
 11
1.0
 21
1.0
 12
5.999999999999998
 22
4.499999999999999
 13
0.0
 23
0.0
 14
0.5
 24
0.5
 15
0.5
 25
0.5
 16
0.0
 26
0.0
 36
1.0
 17
0.0
 27
0.0
 37
0.0
 40
9.098360655737703
 41
1.534671532846715
 42
50.0
 43
0.0
 44
0.0
 50
0.0
 51
0.0
 71
     0
 72
   100
 73
     1
 74
     3
 75
     0
 76
     0
 77
     0
 78
     0
  0
ENDTAB
  0
TABLE
  2
LTYPE
  5
19
330
0
100
AcDbSymbolTable
 70
     3
  0
LTYPE
  5
1A
330
19
100
AcDbSymbolTableRecord
100
AcDbLinetypeTableRecord
  2
BYBLOCK
 70
     0
  3

 72
    65
 73
     0
 40
0.0
  0
LTYPE
  5
1B
330
19
100
AcDbSymbolTableRecord
100
AcDbLinetypeTableRecord
  2
BYLAYER
 70
     0
  3

 72
    65
 73
     0
 40
0.0
  0
LTYPE
  5
A
330
19
100
AcDbSymbolTableRecord
100
AcDbLinetypeTableRecord
  2
CONTINUOUS
 70
     0
  3
Solid line
 72
    65
 73
     0
 40
0.0
  0
LTYPE
  5
236
330
19
100
AcDbSymbolTableRecord
100
AcDbLinetypeTableRecord
  2
CENTER2
 70
     0
  3
___ _ ___ _ ___ _ ___ _ ___ _ ___ _ ___ _ ___ _
 72
    65
 73
     4
 40
1.125
 49
0.75
 74
     0
 49
-0.125
 74
     0
 49
0.125
 74
     0
 49
-0.125
 74
     0
  0
LTYPE
  5
2C2
330
19
100
AcDbSymbolTableRecord
100
AcDbLinetypeTableRecord
  2
HIDDEN
 70
     0
  3
Hidden __ __ __ __ __ __ __ __ __ __ __ __ __ _
 72
    65
 73
     2
 40
0.375
 49
0.25
 74
     0
 49
-0.125
 74
     0
  0
ENDTAB
  0
TABLE
  2
LAYER
  5
14
330
0
100
AcDbSymbolTable
 70
     7
  0
LAYER
  5
6
330
14
100
AcDbSymbolTableRecord
100
AcDbLayerTableRecord
  2
0
 70
     0
 62
     7
  6
CONTINUOUS
  0
LAYER
  5
58
330
14
100
AcDbSymbolTableRecord
100
AcDbLayerTableRecord
  2
OBJ
 70
     0
 62
     7
  6
CONTINUOUS
  0
LAYER
  5
62
330
14
100
AcDbSymbolTableRecord
100
AcDbLayerTableRecord
  2
NOTES
 70
     0
 62
     7
  6
CONTINUOUS
  0
LAYER
  5
26
330
14
100
AcDbSymbolTableRecord
100
AcDbLayerTableRecord
  2
DIM
 70
     0
 62
     3
  6
CONTINUOUS
  0
LAYER
  5
1E4
330
14
100
AcDbSymbolTableRecord
100
AcDbLayerTableRecord
  2
HATCH
 70
     0
 62
     4
  6
CONTINUOUS
  0
LAYER
  5
235
330
14
100
AcDbSymbolTableRecord
100
AcDbLayerTableRecord
  2
CL
 70
     0
 62
     7
  6
CENTER2
  0
LAYER
  5
34
330
14
100
AcDbSymbolTableRecord
100
AcDbLayerTableRecord
  2
DEFPOINTS
 70
     0
 62
     7
  6
CONTINUOUS
  0
ENDTAB
  0
TABLE
  2
STYLE
  5
15
330
0
100
AcDbSymbolTable
 70
     2
  0
STYLE
  5
16
330
15
100
AcDbSymbolTableRecord
100
AcDbTextStyleTableRecord
  2
STANDARD
 70
     0
 40
0.0
 41
1.0
 50
0.0
 71
     0
 42
0.2
  3
ARIAL.TTF
  4

1001
ACAD
1000
Arial
1071
       34
  0
STYLE
  5
27
330
15
100
AcDbSymbolTableRecord
100
AcDbTextStyleTableRecord
  2
NAME
 70
     0
 40
0.0
 41
1.0
 50
0.0
 71
     0
 42
0.33
  3
TT0007M_.TTF
  4

1001
ACAD
1000
Swis721 Blk BT
1071
       34
  0
ENDTAB
  0
TABLE
  2
VIEW
  5
1C
330
0
100
AcDbSymbolTable
 70
     0
  0
ENDTAB
  0
TABLE
  2
UCS
  5
1D
330
0
100
AcDbSymbolTable
 70
     0
  0
ENDTAB
  0
TABLE
  2
APPID
  5
20
330
0
100
AcDbSymbolTable
 70
     1
  0
APPID
  5
17
330
20
100
AcDbSymbolTableRecord
100
AcDbRegAppTableRecord
  2
ACAD
 70
     0
  0
ENDTAB
  0
TABLE
  2
DIMSTYLE
  5
21
330
0
100
AcDbSymbolTable
 70
     1
  0
DIMSTYLE
105
29
102
{ACAD_REACTORS
330
270
330
2CA
330
47
330
2A7
330
1F3
330
247
330
239
330
39
330
2A
330
255
330
1E5
102
}
330
21
100
AcDbSymbolTableRecord
100
AcDbDimStyleTableRecord
  2
STANDARD
 70
     0
  3

  4

  5

  6

  7

 40
1.0
 41
0.12
 42
0.06
 43
0.38
 44
0.07
 45
0.0
 46
0.0
 47
0.0
 48
0.0
140
0.1
141
0.09
142
0.0
143
25.4
144
1.0
145
0.0
146
1.0
147
0.02
 71
     0
 72
     0
 73
     1
 74
     1
 75
     0
 76
     0
 77
     0
 78
     0
170
     0
171
     2
172
     0
173
     0
174
     0
175
     0
176
     0
177
     0
178
     0
270
     2
271
     2
272
     2
273
     2
274
     2
340
16
275
     0
280
     0
281
     0
282
     0
283
     1
284
     0
285
     0
286
     0
287
     3
288
     0
  0
ENDTAB
  0
TABLE
  2
BLOCK_RECORD
  5
1
330
0
100
AcDbSymbolTable
 70
    29
  0
BLOCK_RECORD
  5
2
102
{ACAD_XDICTIONARY
360
3
102
}
330
1
100
AcDbSymbolTableRecord
100
AcDbBlockTableRecord
  2
*MODEL_SPACE
  0
BLOCK_RECORD
  5
E
102
{ACAD_XDICTIONARY
360
F
102
}
330
1
100
AcDbSymbolTableRecord
100
AcDbBlockTableRecord
  2
*PAPER_SPACE
  0
BLOCK_RECORD
  5
264
330
1
100
AcDbSymbolTableRecord
100
AcDbBlockTableRecord
  2
A$C266B4E3C
  0
BLOCK_RECORD
  5
202
330
1
100
AcDbSymbolTableRecord
100
AcDbBlockTableRecord
  2
A$C7F1E10B3
  0
BLOCK_RECORD
  5
2EE
330
1
100
AcDbSymbolTableRecord
100
AcDbBlockTableRecord
  2
A$C2D52713C
  0
BLOCK_RECORD
  5
64
330
1
100
AcDbSymbolTableRecord
100
AcDbBlockTableRecord
  2
A$C48B50263
  0
BLOCK_RECORD
  5
27F
330
1
100
AcDbSymbolTableRecord
100
AcDbBlockTableRecord
  2
A$C48EB56D4
  0
BLOCK_RECORD
  5
2D9
330
1
100
AcDbSymbolTableRecord
100
AcDbBlockTableRecord
  2
A$C5802352A
  0
BLOCK_RECORD
  5
56
330
1
100
AcDbSymbolTableRecord
100
AcDbBlockTableRecord
  2
A$C1748711A
  0
BLOCK_RECORD
  5
271
330
1
100
AcDbSymbolTableRecord
100
AcDbBlockTableRecord
  2
*D7
  0
BLOCK_RECORD
  5
2CB
330
1
100
AcDbSymbolTableRecord
100
AcDbBlockTableRecord
  2
*D8
  0
BLOCK_RECORD
  5
48
330
1
100
AcDbSymbolTableRecord
100
AcDbBlockTableRecord
  2
*D9
  0
BLOCK_RECORD
  5
2A8
330
1
100
AcDbSymbolTableRecord
100
AcDbBlockTableRecord
  2
*D10
  0
BLOCK_RECORD
  5
1F4
330
1
100
AcDbSymbolTableRecord
100
AcDbBlockTableRecord
  2
*D11
  0
BLOCK_RECORD
  5
248
330
1
100
AcDbSymbolTableRecord
100
AcDbBlockTableRecord
  2
*D12
  0
BLOCK_RECORD
  5
23A
330
1
100
AcDbSymbolTableRecord
100
AcDbBlockTableRecord
  2
*D13
  0
BLOCK_RECORD
  5
3A
330
1
100
AcDbSymbolTableRecord
100
AcDbBlockTableRecord
  2
*D14
  0
BLOCK_RECORD
  5
2B
330
1
100
AcDbSymbolTableRecord
100
AcDbBlockTableRecord
  2
*D15
  0
BLOCK_RECORD
  5
256
330
1
100
AcDbSymbolTableRecord
100
AcDbBlockTableRecord
  2
*D16
  0
BLOCK_RECORD
  5
1E6
330
1
100
AcDbSymbolTableRecord
100
AcDbBlockTableRecord
  2
*D17
  0
BLOCK_RECORD
  5
312
330
1
100
AcDbSymbolTableRecord
100
AcDbBlockTableRecord
  2
*D18
  0
BLOCK_RECORD
  5
31F
330
1
100
AcDbSymbolTableRecord
100
AcDbBlockTableRecord
  2
*D19
  0
BLOCK_RECORD
  5
32C
330
1
100
AcDbSymbolTableRecord
100
AcDbBlockTableRecord
  2
*D20
  0
BLOCK_RECORD
  5
339
330
1
100
AcDbSymbolTableRecord
100
AcDbBlockTableRecord
  2
*D21
  0
BLOCK_RECORD
  5
346
330
1
100
AcDbSymbolTableRecord
100
AcDbBlockTableRecord
  2
*D22
  0
BLOCK_RECORD
  5
353
330
1
100
AcDbSymbolTableRecord
100
AcDbBlockTableRecord
  2
*D23
  0
BLOCK_RECORD
  5
360
330
1
100
AcDbSymbolTableRecord
100
AcDbBlockTableRecord
  2
*D24
  0
BLOCK_RECORD
  5
36D
330
1
100
AcDbSymbolTableRecord
100
AcDbBlockTableRecord
  2
*D25
  0
BLOCK_RECORD
  5
37A
330
1
100
AcDbSymbolTableRecord
100
AcDbBlockTableRecord
  2
*D26
  0
BLOCK_RECORD
  5
387
330
1
100
AcDbSymbolTableRecord
100
AcDbBlockTableRecord
  2
*D27
  0
BLOCK_RECORD
  5
394
330
1
100
AcDbSymbolTableRecord
100
AcDbBlockTableRecord
  2
*D28
  0
ENDTAB
  0
ENDSEC
  0
SECTION
  2
BLOCKS
  0
BLOCK
  5
5
330
2
100
AcDbEntity
  8
0
100
AcDbBlockBegin
  2
*MODEL_SPACE
 70
     0
 10
0.0
 20
0.0
 30
0.0
  3
*MODEL_SPACE
  1

  0
ENDBLK
  5
B
330
2
100
AcDbEntity
  8
0
100
AcDbBlockEnd
  0
BLOCK
  5
11
330
E
100
AcDbEntity
 67
     1
  8
0
100
AcDbBlockBegin
  2
*PAPER_SPACE
 70
     0
 10
0.0
 20
0.0
 30
0.0
  3
*PAPER_SPACE
  1

  0
ENDBLK
  5
12
330
E
100
AcDbEntity
 67
     1
  8
0
100
AcDbBlockEnd
  0
BLOCK
  5
267
330
264
100
AcDbEntity
  8
0
100
AcDbBlockBegin
  2
A$C266B4E3C
 70
     0
 10
0.0
 20
0.0
 30
0.0
  3
A$C266B4E3C
  1

  0
MTEXT
  5
265
330
264
100
AcDbEntity
  8
NOTES
100
AcDbMText
 10
0.0531773608844617
 20
0.188115100644378
 30
0.0
 40
0.1
 41
0.0
 71
     2
 72
     5
  1
C
1001
ACAD
1000
MTEXTBEGIN
1070
    73
1070
     1
1070
    44
1040
1.0
1070
    74
1070
     0
1000
MTEXTEND
1000
MTEXTBEGIN
1070
    73
1070
     1
1070
    44
1040
1.0
1070
    74
1070
     0
1000
MTEXTEND
1000
MTEXTBEGIN
1070
    73
1070
     1
1070
    44
1040
1.0
1070
    74
1070
     0
1000
MTEXTEND
1000
MTEXTBEGIN
1070
    73
1070
     1
1070
    44
1040
1.0
1070
    74
1070
     0
1000
MTEXTEND
1000
MTEXTBEGIN
1070
    73
1070
     1
1070
    44
1040
1.0
1070
    74
1070
     0
1000
MTEXTEND
1000
MTEXTBEGIN
1070
    73
1070
     1
1070
    44
1040
1.0
1070
    74
1070
     0
1000
MTEXTEND
1000
MTEXTBEGIN
1070
    73
1070
     1
1070
    44
1040
1.0
1070
    74
1070
     0
1000
MTEXTEND
1000
MTEXTBEGIN
1070
    73
1070
     1
1070
    44
1040
1.0
1070
    74
1070
     0
1000
MTEXTEND
1000
MTEXTBEGIN
1070
    73
1070
     1
1070
    44
1040
1.0
1070
    74
1070
     0
1000
MTEXTEND
1000
MTEXTBEGIN
1070
    73
1070
     1
1070
    44
1040
1.0
1070
    74
1070
     0
1000
MTEXTEND
1000
MTEXTBEGIN
1070
    73
1070
     1
1070
    44
1040
1.0
1070
    74
1070
     0
1000
MTEXTEND
  0
MTEXT
  5
266
330
264
100
AcDbEntity
  8
NOTES
100
AcDbMText
 10
0.0897735595015661
 20
0.1306408944278488
 30
0.0
 40
0.1
 41
0.0
 71
     2
 72
     5
  1
L
1001
ACAD
1000
MTEXTBEGIN
1070
    73
1070
     1
1070
    44
1040
1.0
1070
    74
1070
     0
1000
MTEXTEND
1000
MTEXTBEGIN
1070
    73
1070
     1
1070
    44
1040
1.0
1070
    74
1070
     0
1000
MTEXTEND
1000
MTEXTBEGIN
1070
    73
1070
     1
1070
    44
1040
1.0
1070
    74
1070
     0
1000
MTEXTEND
1000
MTEXTBEGIN
1070
    73
1070
     1
1070
    44
1040
1.0
1070
    74
1070
     0
1000
MTEXTEND
1000
MTEXTBEGIN
1070
    73
1070
     1
1070
    44
1040
1.0
1070
    74
1070
     0
1000
MTEXTEND
1000
MTEXTBEGIN
1070
    73
1070
     1
1070
    44
1040
1.0
1070
    74
1070
     0
1000
MTEXTEND
1000
MTEXTBEGIN
1070
    73
1070
     1
1070
    44
1040
1.0
1070
    74
1070
     0
1000
MTEXTEND
1000
MTEXTBEGIN
1070
    73
1070
     1
1070
    44
1040
1.0
1070
    74
1070
     0
1000
MTEXTEND
1000
MTEXTBEGIN
1070
    73
1070
     1
1070
    44
1040
1.0
1070
    74
1070
     0
1000
MTEXTEND
1000
MTEXTBEGIN
1070
    73
1070
     1
1070
    44
1040
1.0
1070
    74
1070
     0
1000
MTEXTEND
1000
MTEXTBEGIN
1070
    73
1070
     1
1070
    44
1040
1.0
1070
    74
1070
     0
1000
MTEXTEND
  0
ENDBLK
  5
268
330
264
100
AcDbEntity
  8
0
100
AcDbBlockEnd
  0
BLOCK
  5
231
330
202
100
AcDbEntity
  8
0
100
AcDbBlockBegin
  2
A$C7F1E10B3
 70
     0
 10
0.0
 20
0.0
 30
0.0
  3
A$C7F1E10B3
  1

  0
SPLINE
  5
203
330
202
100
AcDbEntity
  8
OBJ
100
AcDbSpline
210
0.0
220
0.0
230
1.0
 70
     8
 71
     3
 72
    10
 73
     6
 74
     0
 42
0.0000000001
 43
0.0000000001
 40
-0.0029945299755116
 40
-0.0029945299755116
 40
-0.0029945299755116
 40
-0.0029945299755116
 40
-0.0022803656357293
 40
-0.0022803656357293
 40
0.0
 40
0.0
 40
0.0
 40
0.0
 10
0.7633060779679362
 20
-0.000000004770718
 30
0.0
 10
0.7632700452451111
 20
-0.000000004770718
 30
0.0
 10
0.7632344186718001
 20
0.0000000676695473
 30
0.0
 10
0.7630883520884737
 20
0.0000006722554948
 30
0.0
 10
0.7629831890601846
 20
0.000001867034773
 30
0.0
 10
0.7628841338408173
 20
0.0000037992813704
 30
0.0
  0
SPLINE
  5
204
330
202
100
AcDbEntity
  8
OBJ
100
AcDbSpline
210
0.0
220
0.0
230
1.0
 70
     8
 71
     3
 72
    18
 73
    14
 74
     0
 42
0.0000000001
 43
0.0000000001
 40
-0.0443549831880504
 40
-0.0443549831880504
 40
-0.0443549831880504
 40
-0.0443549831880504
 40
-0.0442099853884745
 40
-0.0442099853884745
 40
-0.0367977550515025
 40
-0.0367977550515025
 40
-0.0288909711111124
 40
-0.0288909711111124
 40
-0.0188499997894747
 40
-0.0188499997894747
 40
-0.009233087120922
 40
-0.009233087120922
 40
0.0
 40
0.0
 40
0.0
 40
0.0
 10
1.015090359912915
 20
-0.0000000047707198
 30
0.0
 10
1.015130263261636
 20
-0.0000000047707198
 30
0.0
 10
1.015170221194765
 20
0.0000000549402239
 30
0.0
 10
1.01725561641369
 20
0.0000063045330601
 30
0.0
 10
1.019439101688895
 20
0.0001718178012782
 30
0.0
 10
1.024085303615909
 20
0.0009487128100227
 30
0.0
 10
1.026541138993446
 20
0.00158643184482
 30
0.0
 10
1.032060592992917
 20
0.0036289624730115
 30
0.0
 10
1.035055599007181
 20
0.0051777167430354
 30
0.0
 10
1.040448496397077
 20
0.0088995037044102
 30
0.0
 10
1.042798924604042
 20
0.0109976328779373
 30
0.0
 10
1.046715140294709
 20
0.0153407480068575
 30
0.0
 10
1.048253235617304
 20
0.0175120553758594
 30
0.0
 10
1.049451991018859
 20
0.0195237087558811
 30
0.0
  0
LINE
  5
205
330
202
100
AcDbEntity
  8
OBJ
100
AcDbLine
 10
0.0286271289871678
 20
0.1748928369872784
 30
0.0
 11
0.4435049569218137
 21
0.0030448139288337
 31
0.0
  0
LINE
  5
206
330
202
100
AcDbEntity
  8
OBJ
100
AcDbLine
 10
0.1710411086265182
 20
-0.0000000047707127
 30
0.0
 11
0.4588122942164148
 21
-0.0000000047707163
 31
0.0
  0
LINE
  5
207
330
202
100
AcDbEntity
  8
OBJ
100
AcDbLine
 10
0.3778340649518945
 20
0.333316404117789
 30
0.0
 11
0.1564902958434828
 21
0.4249999952292686
 31
0.0
  0
LINE
  5
208
330
202
100
AcDbEntity
  8
OBJ
100
AcDbLine
 10
0.0043982497944537
 20
0.4369048127336274
 30
0.0
 11
0.2274118755071353
 21
0.9753073325238855
 31
0.0
  0
ARC
  5
209
330
202
100
AcDbEntity
  8
OBJ
100
AcDbCircle
 10
0.0827573836958262
 20
0.6699999952293103
 30
0.0
 40
0.08
100
AcDbArc
 50
90.0
 51
179.5000000000001
  0
LINE
  5
20A
330
202
100
AcDbEntity
  8
OBJ
100
AcDbLine
 10
0.0002077915629002
 20
0.4249999952292828
 30
0.0
 11
0.0039405584755201
 21
0.2111499220302333
 31
0.0
  0
LINE
  5
20B
330
202
100
AcDbEntity
  8
OBJ
100
AcDbLine
 10
0.0039405584755201
 20
0.2111499220302315
 30
0.0
 11
0.0060363327199084
 21
0.0910830959833069
 31
0.0
  0
LINE
  5
20C
330
202
100
AcDbEntity
  8
OBJ
100
AcDbLine
 10
0.0307229032314851
 20
0.0548260109400856
 30
0.0
 11
0.1557337713319118
 21
0.0030448139288373
 31
0.0
  0
ARC
  5
20D
330
202
100
AcDbEntity
  8
OBJ
100
AcDbCircle
 10
0.0460302405262034
 20
0.0917811922408047
 30
0.0
 40
0.0400000000000001
100
AcDbArc
 50
181.0000000000079
 51
247.499999999994
  0
ARC
  5
20E
330
202
100
AcDbEntity
  8
OBJ
100
AcDbCircle
 10
0.17104110862652
 20
0.0399999952292882
 30
0.0
 40
0.04
100
AcDbArc
 50
247.4999999999923
 51
269.999999999998
  0
ARC
  5
20F
330
202
100
AcDbEntity
  8
OBJ
100
AcDbCircle
 10
0.0439344662817689
 20
0.2118480182877311
 30
0.0
 40
0.04
100
AcDbArc
 50
181.0000000000066
 51
247.500000000004
  0
LINE
  5
210
330
202
100
AcDbEntity
  8
OBJ
100
AcDbLine
 10
0.0025591965845617
 20
0.6476394375450161
 30
0.0
 11
0.0043072362504688
 21
0.44730341973614
 31
0.0
  0
LINE
  5
211
330
202
100
AcDbEntity
  8
OBJ
100
AcDbLine
 10
0.1564902958434828
 20
0.4249999952292667
 30
0.0
 11
0.0402016993691561
 21
0.4249999952292792
 31
0.0
  0
LINE
  5
212
330
202
100
AcDbEntity
  8
OBJ
100
AcDbLine
 10
0.0002077915629002
 20
0.4249999952292828
 30
0.0
 11
0.0402016993691561
 21
0.4249999952292792
 31
0.0
  0
LINE
  5
213
330
202
100
AcDbEntity
  8
OBJ
100
AcDbLine
 10
0.0043982497944537
 20
0.4369048127336256
 30
0.0
 11
0.0045021415629005
 21
0.4249999952292809
 31
0.0
  0
LINE
  5
214
330
202
100
AcDbEntity
  8
OBJ
100
AcDbLine
 10
-0.0000000077996045
 20
0.436904812733988
 30
0.0
 11
0.0002077915629002
 21
0.4249999952292792
 31
0.0
  0
LINE
  5
215
330
202
100
AcDbEntity
  8
OBJ
100
AcDbLine
 10
0.0199216690748845
 20
0.4849999952296457
 30
0.0
 11
-0.0000000077996063
 21
0.4369048127339898
 31
0.0
  0
LINE
  5
216
330
202
100
AcDbEntity
  8
OBJ
100
AcDbLine
 10
0.0243199266690866
 20
0.4849999952296421
 30
0.0
 11
0.0199216690748863
 21
0.4849999952296491
 31
0.0
  0
LINE
  5
217
330
202
100
AcDbEntity
  8
OBJ
100
AcDbLine
 10
0.0025591997940868
 20
0.6476394375170102
 30
0.0
 11
0.0027604298506922
 21
0.67069811806918
 31
0.0
  0
LINE
  5
218
330
202
100
AcDbEntity
  8
OBJ
100
AcDbLine
 10
0.0827573836958262
 20
0.7499999975450136
 30
0.0
 11
0.1340865216568705
 21
0.7499999975450136
 31
0.0
  0
LINE
  5
219
330
202
100
AcDbEntity
  8
OBJ
100
AcDbLine
 10
1.054744278293247
 20
0.9603490566492343
 30
0.0
 11
1.060507057248029
 21
0.2999999952292986
 31
0.0
  0
LINE
  5
21A
330
202
100
AcDbEntity
  8
OBJ
100
AcDbLine
 10
0.8793741355179809
 20
0.1649999952292598
 30
0.0
 11
0.5973982504375748
 21
0.1649999952292793
 31
0.0
  0
LINE
  5
21B
330
202
100
AcDbEntity
  8
OBJ
100
AcDbLine
 10
0.458266990496929
 20
0.2999999952292951
 30
0.0
 11
1.020508580325462
 21
0.2999999952292986
 31
0.0
  0
LINE
  5
21C
330
202
100
AcDbEntity
  8
OBJ
100
AcDbLine
 10
0.5973982504375748
 20
-0.0000000047707163
 30
0.0
 11
0.7632741948780151
 21
-0.000000004770718
 31
0.0
  0
LINE
  5
21D
330
202
100
AcDbEntity
  8
OBJ
100
AcDbLine
 10
0.3778340646744347
 20
0.3333164039663226
 30
0.0
 11
0.458266990496929
 21
0.2999999952292951
 31
0.0
  0
LINE
  5
21E
330
202
100
AcDbEntity
  8
OBJ
100
AcDbLine
 10
0.6173982504375744
 20
0.0396509471005358
 30
0.0
 11
0.6173982504375744
 21
0.1649999952293095
 31
0.0
  0
LINE
  5
21F
330
202
100
AcDbEntity
  8
OBJ
100
AcDbLine
 10
0.4588122942164148
 20
-0.0000000047707145
 30
0.0
 11
0.5973982504375748
 21
-0.0000000047707163
 31
0.0
  0
ARC
  5
220
330
202
100
AcDbEntity
  8
OBJ
100
AcDbCircle
 10
0.4588122942164148
 20
0.039999995229274
 30
0.0
 40
0.04
100
AcDbArc
 50
247.4999999999966
 51
270.0
  0
ARC
  5
221
330
202
100
AcDbEntity
  8
OBJ
100
AcDbCircle
 10
0.5973982504375748
 20
0.0199999952292833
 30
0.0
 40
0.02
100
AcDbArc
 50
270.0
 51
359.9999999999949
  0
LINE
  5
222
330
202
100
AcDbEntity
  8
OBJ
100
AcDbLine
 10
0.6173982504375744
 20
0.0396509471005358
 30
0.0
 11
0.6173982504375744
 21
0.0199999952292833
 31
0.0
  0
LINE
  5
223
330
202
100
AcDbEntity
  8
OBJ
100
AcDbLine
 10
0.9050030943233744
 20
-0.0000000047707198
 30
0.0
 11
0.7633060779679415
 21
-0.000000004770718
 31
0.0
  0
LINE
  5
224
330
202
100
AcDbEntity
  8
OBJ
100
AcDbLine
 10
0.7173982504375687
 20
0.1649999952292722
 30
0.0
 11
0.7435780398177716
 21
0.0165270316759427
 31
0.0
  0
LINE
  5
225
330
202
100
AcDbEntity
  8
OBJ
100
AcDbLine
 10
0.7632741948780151
 20
-0.000000004770718
 30
0.0
 11
0.7633060779679381
 21
-0.000000004770718
 31
0.0
  0
ARC
  5
226
330
202
100
AcDbEntity
  8
OBJ
100
AcDbCircle
 10
0.7632741948780151
 20
0.0199999952292815
 30
0.0
 40
0.0200000000000003
100
AcDbArc
 50
190.0000000000004
 51
268.8824865885667
  0
LINE
  5
227
330
202
100
AcDbEntity
  8
OBJ
100
AcDbLine
 10
1.055084267719204
 20
0.0393018989717815
 30
0.0
 11
1.059634769916072
 21
0.2999999952292969
 31
0.0
  0
LINE
  5
228
330
202
100
AcDbEntity
  8
OBJ
100
AcDbLine
 10
0.9050030943233744
 20
-0.000000004770718
 30
0.0
 11
1.014747351272131
 21
-0.0000000047707198
 31
0.0
  0
LINE
  5
229
330
202
100
AcDbEntity
  8
OBJ
100
AcDbLine
 10
1.015090359912939
 20
-0.0000000047707198
 30
0.0
 11
1.014747351272131
 21
-0.0000000047707198
 31
0.0
  0
ARC
  5
22A
330
202
100
AcDbEntity
  8
OBJ
100
AcDbCircle
 10
1.015090359912939
 20
0.0399999952292793
 30
0.0
 40
0.04
100
AcDbArc
 50
329.2090514646369
 51
358.9999999999919
  0
LINE
  5
22B
330
202
100
AcDbEntity
  8
OBJ
100
AcDbLine
 10
1.020508580325462
 20
0.2999999952295988
 30
0.0
 11
1.060507057248027
 21
0.2999999952295775
 31
0.0
  0
LINE
  5
22C
330
202
100
AcDbEntity
  8
OBJ
100
AcDbLine
 10
0.2643670568075773
 20
0.9999999952292995
 30
0.0
 11
1.01474580137068
 21
0.9999999952292981
 31
0.0
  0
ARC
  5
22D
330
202
100
AcDbEntity
  8
OBJ
100
AcDbCircle
 10
0.2643670568075773
 20
0.9599999952292987
 30
0.0
 40
0.04
100
AcDbArc
 50
90.00000000000062
 51
157.5000000000174
  0
ARC
  5
22E
330
202
100
AcDbEntity
  8
OBJ
100
AcDbCircle
 10
1.01474580137068
 20
0.959999995229297
 30
0.0
 40
0.04
100
AcDbArc
 50
0.5000000000011165
 51
90.0
  0
LINE
  5
22F
330
202
100
AcDbEntity
  8
OBJ
100
AcDbLine
 10
0.9050015444219248
 20
0.9999999952292995
 30
0.0
 11
1.014745801370682
 21
0.9999999952292981
 31
0.0
  0
LINE
  5
230
330
202
100
AcDbEntity
  8
OBJ
100
AcDbLine
 10
1.015088810011488
 20
0.9999999952292981
 30
0.0
 11
1.01474580137068
 21
0.9999999952292981
 31
0.0
  0
ENDBLK
  5
232
330
202
100
AcDbEntity
  8
0
100
AcDbBlockEnd
  0
BLOCK
  5
302
330
2EE
100
AcDbEntity
  8
0
100
AcDbBlockBegin
  2
A$C2D52713C
 70
     0
 10
0.0
 20
0.0
 30
0.0
  3
A$C2D52713C
  1

  0
LINE
  5
2EF
330
2EE
100
AcDbEntity
  8
OBJ
100
AcDbLine
 10
-0.0000000111325695
 20
-0.0000000061431882
 30
0.0
 11
0.3574018885076864
 21
-0.0000000061431882
 31
0.0
  0
LINE
  5
2F0
330
2EE
100
AcDbEntity
  8
OBJ
100
AcDbLine
 10
0.0341237885669497
 20
0.5115537639013521
 30
0.0
 11
0.3232780888081672
 21
0.511553763901353
 31
0.0
  0
LINE
  5
2F1
330
2EE
100
AcDbEntity
  8
OBJ
100
AcDbLine
 10
0.0035919776862361
 20
0.4774501781857686
 30
0.0
 11
0.3538098996888808
 21
0.4774501781857678
 31
0.0
  0
LINE
  5
2F2
330
2EE
100
AcDbEntity
  8
OBJ
100
AcDbLine
 10
0.0287358288585216
 20
0.186672239298578
 30
0.0
 11
0.3286660485165962
 21
0.1866722392985771
 31
0.0
  0
LINE
  5
2F3
330
2EE
100
AcDbEntity
  8
OBJ
100
AcDbLine
 10
0.0287358288585216
 20
0.0484629915159332
 30
0.0
 11
0.3286660485165962
 21
0.0484629915159305
 31
0.0
  0
LINE
  5
2F4
330
2EE
100
AcDbEntity
  8
OBJ
100
AcDbLine
 10
0.0035919776862361
 20
0.2046215081503
 30
0.0
 11
0.3538098996888817
 21
0.2046215081503
 31
0.0
  0
LINE
  5
2F5
330
2EE
100
AcDbEntity
  8
OBJ
100
AcDbLine
 10
-0.0000000111325695
 20
0.0323086589628927
 30
0.0
 11
0.3574018885076873
 21
0.0323086589628927
 31
0.0
  0
LINE
  5
2F6
330
2EE
100
AcDbEntity
  8
OBJ
100
AcDbLine
 10
0.0035919776862361
 20
0.4774501781857686
 30
0.0
 11
0.0035919776862361
 21
0.2046215081503
 31
0.0
  0
LINE
  5
2F7
330
2EE
100
AcDbEntity
  8
OBJ
100
AcDbLine
 10
0.0287358288585216
 20
0.0484629915159332
 30
0.0
 11
-0.0000000111325695
 21
0.0323086589628927
 31
0.0
  0
LINE
  5
2F8
330
2EE
100
AcDbEntity
  8
OBJ
100
AcDbLine
 10
-0.0000000111325695
 20
0.0323086589628927
 30
0.0
 11
-0.0000000111325695
 21
-0.0000000061431882
 31
0.0
  0
LINE
  5
2F9
330
2EE
100
AcDbEntity
  8
OBJ
100
AcDbLine
 10
0.0287358288585216
 20
0.186672239298578
 30
0.0
 11
0.0287358288585216
 21
0.0484629915159332
 31
0.0
  0
LINE
  5
2FA
330
2EE
100
AcDbEntity
  8
OBJ
100
AcDbLine
 10
0.0035919776862361
 20
0.2046215081503
 30
0.0
 11
0.0287358288585216
 21
0.186672239298578
 31
0.0
  0
LINE
  5
2FB
330
2EE
100
AcDbEntity
  8
OBJ
100
AcDbLine
 10
0.0035919776862361
 20
0.4774501781857686
 30
0.0
 11
0.0341237885669497
 21
0.5115537639013521
 31
0.0
  0
LINE
  5
2FC
330
2EE
100
AcDbEntity
  8
OBJ
100
AcDbLine
 10
0.3538098996888817
 20
0.4774501781857686
 30
0.0
 11
0.3538098996888817
 21
0.2046215081503
 31
0.0
  0
LINE
  5
2FD
330
2EE
100
AcDbEntity
  8
OBJ
100
AcDbLine
 10
0.3286660485165962
 20
0.0484629915159332
 30
0.0
 11
0.3574018885076873
 21
0.0323086589628927
 31
0.0
  0
LINE
  5
2FE
330
2EE
100
AcDbEntity
  8
OBJ
100
AcDbLine
 10
0.3574018885076873
 20
0.0323086589628927
 30
0.0
 11
0.3574018885076864
 21
-0.0000000061431882
 31
0.0
  0
LINE
  5
2FF
330
2EE
100
AcDbEntity
  8
OBJ
100
AcDbLine
 10
0.3538098996888817
 20
0.2046215081503
 30
0.0
 11
0.3286660485165962
 21
0.186672239298578
 31
0.0
  0
LINE
  5
300
330
2EE
100
AcDbEntity
  8
OBJ
100
AcDbLine
 10
0.3286660485165962
 20
0.186672239298578
 30
0.0
 11
0.3286660485165962
 21
0.0484629915159332
 31
0.0
  0
LINE
  5
301
330
2EE
100
AcDbEntity
  8
OBJ
100
AcDbLine
 10
0.3538098996888817
 20
0.4774501781857686
 30
0.0
 11
0.3232780888081681
 21
0.5115537639013521
 31
0.0
  0
ENDBLK
  5
303
330
2EE
100
AcDbEntity
  8
0
100
AcDbBlockEnd
  0
BLOCK
  5
1D3
330
64
100
AcDbEntity
  8
0
100
AcDbBlockBegin
  2
A$C48B50263
 70
     0
 10
0.0
 20
0.0
 30
0.0
  3
A$C48B50263
  1

  0
SPLINE
  5
65
330
64
100
AcDbEntity
  8
OBJ
100
AcDbSpline
210
0.0
220
0.0
230
1.0
 70
     8
 71
     1
 72
    18
 73
    16
 74
     0
 42
0.0000000001
 43
0.0000000001
 40
0.0
 40
0.0
 40
0.0314049155779546
 40
0.0628098311559092
 40
0.085333734236971
 40
0.1078576373180327
 40
0.1204113867307424
 40
0.1330085800003083
 40
0.1456390981466617
 40
0.1582419582527828
 40
0.1709381195709656
 40
0.1836342808891484
 40
0.2005461502221932
 40
0.2174580195552379
 40
0.2343698888882826
 40
0.2552614931088828
 40
0.276153097329483
 40
0.276153097329483
 10
1.103623979163177
 20
0.0818078332733032
 30
0.0
 10
1.090717057986285
 20
0.1105171055442424
 30
0.0
 10
1.07463919530635
 20
0.1375205415193941
 30
0.0
 10
1.060444011043858
 20
0.1552177441068059
 30
0.0
 10
1.043257268906632
 20
0.1698327395228825
 30
0.0
 10
1.03214713443535
 20
0.1756761694671267
 30
0.0
 10
1.019951452409049
 20
0.1788304437343067
 30
0.0
 10
1.007326552900767
 20
0.1784538487604399
 30
0.0
 10
0.9953082534119095
 20
0.1746610611940751
 30
0.0
 10
0.98429996629989
 20
0.1682880065254979
 30
0.0
 10
0.974439756961704
 20
0.1601977965660177
 30
0.0
 10
0.9629070577607627
 20
0.1478117698707964
 30
0.0
 10
0.952843229877093
 20
0.1341099613752084
 30
0.0
 10
0.9440208715478808
 20
0.1195997918295051
 30
0.0
 10
0.9344913556362575
 20
0.1010021385196707
 30
0.0
 10
0.9262128152943668
 20
0.0818078332730599
 30
0.0
  0
ELLIPSE
  5
66
330
64
100
AcDbEntity
  8
OBJ
100
AcDbEllipse
 10
1.0149183972288
 20
0.1624944157548009
 30
0.0
 11
-0.129999999999999
 21
0.0
 31
0.0
210
0.0
220
0.0
230
1.0
 40
0.3826834323651085
 41
0.9993922921265314
 42
2.142427461319324
  0
SPLINE
  5
67
330
64
100
AcDbEntity
  8
OBJ
100
AcDbSpline
210
0.0
220
0.0
230
1.0
 70
    24
 71
     3
 72
    24
 73
    20
 74
     0
 42
0.0000000001
 43
0.0000000001
 40
0.0074763013144354
 40
0.0074763013144354
 40
0.0074763013144354
 40
0.0074763013144354
 40
0.0435490338020158
 40
0.0435490338020158
 40
0.0888193109350093
 40
0.0888193109350093
 40
0.1377824283533037
 40
0.1377824283533037
 40
0.1906703400286427
 40
0.1906703400286427
 40
0.2452193874542228
 40
0.2452193874542228
 40
0.2977504346312383
 40
0.2977504346312383
 40
0.3454057117030978
 40
0.3454057117030978
 40
0.3695057790680617
 40
0.3695057790680617
 40
0.3859866273385254
 40
0.3859866273385254
 40
0.3859866273385254
 40
0.3859866273385254
 10
1.144667696077195
 20
0.004142135435333
 30
0.0
 10
1.14386313480617
 20
0.0041421354353348
 30
0.0
 10
1.141131094197251
 20
0.0041421354353366
 30
0.0
 10
1.130902905383667
 20
0.0041421354353384
 30
0.0
 10
1.122515698824147
 20
0.0041421354353366
 30
0.0
 10
1.10069566147145
 20
0.0041421354353366
 30
0.0
 10
1.087127526519753
 20
0.0041421354353348
 30
0.0
 10
1.05613436757395
 20
0.004142135435333
 30
0.0
 10
1.038698189702675
 20
0.004142135435333
 30
0.0
 10
1.002807395698883
 20
0.004142135435333
 30
0.0
 10
0.9845209480093082
 20
0.004142135435333
 30
0.0
 10
0.9508798114766854
 20
0.0041421354353348
 30
0.0
 10
0.9356465942877496
 20
0.0041421354353366
 30
0.0
 10
0.9111337074351444
 20
0.0041421354353366
 30
0.0
 10
0.9016504036904288
 20
0.0041421354353384
 30
0.0
 10
0.8917447215919942
 20
0.0041421354353366
 30
0.0
 10
0.8891947507343225
 20
0.0041421354353366
 30
0.0
 10
0.8863107290709031
 20
0.0041421354353348
 30
0.0
 10
0.8855374743035644
 20
0.0041421354353419
 30
0.0
 10
0.8851691070547678
 20
0.0041421354353401
 30
0.0
  0
SPLINE
  5
68
330
64
100
AcDbEntity
  8
OBJ
100
AcDbSpline
210
0.0
220
0.0
230
1.0
 70
    24
 71
     3
 72
    24
 73
    20
 74
     0
 42
0.0000000001
 43
0.0000000001
 40
0.0079778831072414
 40
0.0079778831072414
 40
0.0079778831072414
 40
0.0079778831072414
 40
0.0474275054288527
 40
0.0474275054288527
 40
0.0965098677476692
 40
0.0965098677476692
 40
0.1492666222589423
 40
0.1492666222589423
 40
0.2059923338761441
 40
0.2059923338761441
 40
0.2644711307096913
 40
0.2644711307096913
 40
0.3210150566220183
 40
0.3210150566220183
 40
0.372642474225807
 40
0.372642474225807
 40
0.3988650541291701
 40
0.3988650541291701
 40
0.416994797904625
 40
0.416994797904625
 40
0.416994797904625
 40
0.416994797904625
 10
0.8751803189866825
 20
-0.0000000001884191
 30
0.0
 10
0.8760418701034673
 20
-0.0000000001884191
 30
0.0
 10
0.879019377566454
 20
-0.0000000001884191
 30
0.0
 10
0.8901513240977186
 20
-0.0000000001884191
 30
0.0
 10
0.8992369798118778
 20
-0.0000000001884191
 30
0.0
 10
0.9228162992398443
 20
-0.0000000001884191
 30
0.0
 10
0.9374255426174647
 20
-0.0000000001884191
 30
0.0
 10
0.9707351978366212
 20
-0.0000000001884191
 30
0.0
 10
0.9894265110979494
 20
-0.0000000001884191
 30
0.0
 10
1.027903221863599
 20
-0.0000000001884191
 30
0.0
 10
1.047496478172096
 20
-0.0000000001884191
 30
0.0
 10
1.083626120175512
 20
-0.0000000001884191
 30
0.0
 10
1.100011423979299
 20
-0.0000000001884191
 30
0.0
 10
1.126475961876112
 20
-0.0000000001884191
 30
0.0
 10
1.136740574235605
 20
-0.0000000001884191
 30
0.0
 10
1.147487582091289
 20
-0.0000000001884191
 30
0.0
 10
1.150261319523837
 20
-0.0000000001884191
 30
0.0
 10
1.153413377289015
 20
-0.0000000001884191
 30
0.0
 10
1.154259732908758
 20
-0.0000000001884191
 30
0.0
 10
1.154656475211869
 20
-0.0000000001884191
 30
0.0
  0
ELLIPSE
  5
69
330
64
100
AcDbEntity
  8
OBJ
100
AcDbEllipse
 10
0.2349183972288138
 20
0.077372436605125
 30
0.0
 11
0.1286830260760789
 21
-0.0563082363096599
 31
0.0
210
0.0
220
0.0
230
1.0
 40
0.3277937206516912
 41
0.1424620633103804
 42
0.8946560474045323
  0
ELLIPSE
  5
6A
330
64
100
AcDbEntity
  8
OBJ
100
AcDbEllipse
 10
0.2783498547333103
 20
0.0917811968230362
 30
0.0
 11
0.0964283656457633
 21
-0.0377260125755917
 31
0.0
210
0.0
220
0.0
230
1.0
 40
0.1378708387172344
 41
0.0538874775386002
 42
1.011703964017553
  0
SPLINE
  5
6B
330
64
100
AcDbEntity
  8
OBJ
100
AcDbSpline
210
0.0
220
0.0
230
1.0
 70
    24
 71
     3
 72
    24
 73
    20
 74
     0
 42
0.0000000001
 43
0.0000000001
 40
0.0074763013144239
 40
0.0074763013144239
 40
0.0074763013144239
 40
0.0074763013144239
 40
0.0435490338020164
 40
0.0435490338020164
 40
0.0888193109350073
 40
0.0888193109350073
 40
0.1377824283533078
 40
0.1377824283533078
 40
0.1906703400286812
 40
0.1906703400286812
 40
0.2452193874543196
 40
0.2452193874543196
 40
0.2977504346313815
 40
0.2977504346313815
 40
0.3454057117032607
 40
0.3454057117032607
 40
0.3695057790682612
 40
0.3695057790682612
 40
0.3859866273381174
 40
0.3859866273381174
 40
0.3859866273381174
 40
0.3859866273381174
 10
0.3646676960771806
 20
0.004142135435333
 30
0.0
 10
0.36386313480617
 20
0.004142135435333
 30
0.0
 10
0.3611310941972512
 20
0.0041421354353348
 30
0.0
 10
0.3509029053836805
 20
0.0041421354353348
 30
0.0
 10
0.3425156988241618
 20
0.0041421354353348
 30
0.0
 10
0.3206956614714649
 20
0.0041421354353348
 30
0.0
 10
0.3071275265197677
 20
0.0041421354353348
 30
0.0
 10
0.2761343675739774
 20
0.0041421354353366
 30
0.0
 10
0.2586981897027023
 20
0.0041421354353366
 30
0.0
 10
0.2228073956989114
 20
0.0041421354353366
 30
0.0
 10
0.2045209480093355
 20
0.0041421354353366
 30
0.0
 10
0.1708798114767127
 20
0.0041421354353384
 30
0.0
 10
0.1556465942877772
 20
0.0041421354353384
 30
0.0
 10
0.1311337074351719
 20
0.0041421354353401
 30
0.0
 10
0.1216504036904418
 20
0.0041421354353401
 30
0.0
 10
0.1117447215919931
 20
0.0041421354353401
 30
0.0
 10
0.1091947507343214
 20
0.0041421354353401
 30
0.0
 10
0.1063107290709446
 20
0.0041421354353401
 30
0.0
 10
0.1055374743036062
 20
0.0041421354353401
 30
0.0
 10
0.1051691070547953
 20
0.0041421354353401
 30
0.0
  0
SPLINE
  5
6C
330
64
100
AcDbEntity
  8
OBJ
100
AcDbSpline
210
0.0
220
0.0
230
1.0
 70
    24
 71
     3
 72
    24
 73
    20
 74
     0
 42
0.0000000001
 43
0.0000000001
 40
0.0079778831072328
 40
0.0079778831072328
 40
0.0079778831072328
 40
0.0079778831072328
 40
0.0474275054288751
 40
0.0474275054288751
 40
0.09650986774771
 40
0.09650986774771
 40
0.1492666222589894
 40
0.1492666222589894
 40
0.2059923338761851
 40
0.2059923338761851
 40
0.2644711307097356
 40
0.2644711307097356
 40
0.3210150566220631
 40
0.3210150566220631
 40
0.3726424742258652
 40
0.3726424742258652
 40
0.3988650541292404
 40
0.3988650541292404
 40
0.4169947979047187
 40
0.4169947979047187
 40
0.4169947979047187
 40
0.4169947979047187
 10
0.0951803189866532
 20
-0.0000000001884191
 30
0.0
 10
0.0960418701034378
 20
-0.0000000001884191
 30
0.0
 10
0.0990193775664246
 20
-0.0000000001884191
 30
0.0
 10
0.1101513240977034
 20
-0.0000000001884191
 30
0.0
 10
0.1192369798118626
 20
-0.0000000001884191
 30
0.0
 10
0.1428162992398292
 20
-0.0000000001884191
 30
0.0
 10
0.1574255426174638
 20
-0.0000000001884191
 30
0.0
 10
0.1907351978366201
 20
-0.0000000001884208
 30
0.0
 10
0.2094265110979627
 20
-0.0000000001884208
 30
0.0
 10
0.2479032218635844
 20
-0.0000000001884208
 30
0.0
 10
0.2674964781720952
 20
-0.0000000001884208
 30
0.0
 10
0.3036261201754975
 20
-0.0000000001884191
 30
0.0
 10
0.3200114239792846
 20
-0.0000000001884191
 30
0.0
 10
0.3464759618760986
 20
-0.0000000001884191
 30
0.0
 10
0.3567405742355909
 20
-0.0000000001884191
 30
0.0
 10
0.3674875820912753
 20
-0.0000000001884191
 30
0.0
 10
0.3702613195238236
 20
-0.0000000001884191
 30
0.0
 10
0.3734133772890154
 20
-0.0000000001884191
 30
0.0
 10
0.3742597329087438
 20
-0.0000000001884191
 30
0.0
 10
0.374656475211868
 20
-0.0000000001884191
 30
0.0
  0
SPLINE
  5
6D
330
64
100
AcDbEntity
  8
OBJ
100
AcDbSpline
210
0.0
220
0.0
230
1.0
 70
     8
 71
     1
 72
    18
 73
    16
 74
     0
 42
0.0000000001
 43
0.0000000001
 40
0.0
 40
0.0
 40
0.0314049155779545
 40
0.062809831155909
 40
0.0853337342369795
 40
0.1078576373180501
 40
0.1204113867307504
 40
0.1330085800003168
 40
0.1456390981466701
 40
0.1582419582528183
 40
0.1709381195710021
 40
0.183634280889186
 40
0.2005461502222331
 40
0.2174580195552802
 40
0.2343698888883273
 40
0.2552614931089347
 40
0.2761530973295421
 40
0.2761530973295421
 10
0.3236239791631911
 20
0.0818078332732801
 30
0.0
 10
0.3107170579862988
 20
0.1105171055442211
 30
0.0
 10
0.2946391953063632
 20
0.1375205415193763
 30
0.0
 10
0.2804440110438584
 20
0.1552177441067917
 30
0.0
 10
0.2632572689066315
 20
0.1698327395228771
 30
0.0
 10
0.252147134435365
 20
0.1756761694671303
 30
0.0
 10
0.2399514524090627
 20
0.178830443734312
 30
0.0
 10
0.2273265529007808
 20
0.178453848760447
 30
0.0
 10
0.2153082534118944
 20
0.174661061194084
 30
0.0
 10
0.2042999662998888
 20
0.168288006525505
 30
0.0
 10
0.1944397569616889
 20
0.1601977965660195
 30
0.0
 10
0.1829070577607332
 20
0.1478117698707964
 30
0.0
 10
0.1728432298770777
 20
0.1341099613752048
 30
0.0
 10
0.1640208715478657
 20
0.1195997918294998
 30
0.0
 10
0.1544913556362424
 20
0.10100213851966
 30
0.0
 10
0.1462128152943514
 20
0.0818078332730386
 30
0.0
  0
ELLIPSE
  5
6E
330
64
100
AcDbEntity
  8
OBJ
100
AcDbEllipse
 10
0.2349183972287854
 20
0.1624944157548009
 30
0.0
 11
0.129999999999999
 21
0.0
 31
0.0
210
0.0
220
0.0
230
1.0
 40
0.3826834323651085
 41
4.140984945716168
 42
5.284020114909203
  0
SPLINE
  5
6F
330
64
100
AcDbEntity
  8
OBJ
100
AcDbSpline
210
0.0
220
0.0
230
1.0
 70
     8
 71
     3
 72
    10
 73
     6
 74
     0
 42
0.0000000001
 43
0.0000000001
 40
-0.0081003746413899
 40
-0.0081003746413899
 40
-0.0081003746413899
 40
-0.0081003746413899
 40
0.0
 40
0.0
 40
0.0002670479289022
 40
0.0002670479289022
 40
0.0002670479289022
 40
0.0002670479289022
 10
0.1359303455263507
 20
0.0830410577433734
 30
0.0
 10
0.1352904603634819
 20
0.0855997749592019
 30
0.0
 10
0.1346137483695067
 20
0.088206617236323
 30
0.0
 10
0.133932390254035
 20
0.0909104793915594
 30
0.0
 10
0.1339106627434781
 20
0.0909967850807307
 30
0.0
 10
0.1338889553458138
 20
0.0910831005657373
 30
0.0
  0
ELLIPSE
  5
70
330
64
100
AcDbEntity
  8
OBJ
100
AcDbEllipse
 10
0.1914869397247862
 20
0.0917811968230646
 30
0.0
 11
-0.0964283656455265
 21
-0.0377260125755529
 31
0.0
210
0.0
220
0.0
230
1.0
 40
0.1378708387169644
 41
5.271481343168457
 42
6.229297829639397
  0
SPLINE
  5
71
330
64
100
AcDbEntity
  8
OBJ
100
AcDbSpline
210
0.0
220
0.0
230
1.0
 70
     8
 71
     3
 72
    20
 73
    16
 74
     0
 42
0.0000000001
 43
0.0000000001
 40
-0.0462415200196581
 40
-0.0462415200196581
 40
-0.0462415200196581
 40
-0.0462415200196581
 40
-0.0369865613203981
 40
-0.0369865613203981
 40
-0.0300769858209393
 40
-0.0300769858209393
 40
-0.0250611904478964
 40
-0.0250611904478964
 40
-0.0205930017670779
 40
-0.0205930017670779
 40
-0.0157412005182239
 40
-0.0157412005182239
 40
-0.009297134061511
 40
-0.009297134061511
 40
-0.0070933241345621
 40
-0.0070933241345621
 40
-0.0070933241345621
 40
-0.0070933241345621
 10
0.1399934886488303
 20
0.0750367694405059
 30
0.0
 10
0.1417398461617303
 20
0.0764192961579129
 30
0.0
 10
0.1433003671342483
 20
0.0778356550486086
 30
0.0
 10
0.1453261901914864
 20
0.0801665809104249
 30
0.0
 10
0.1459894260936956
 20
0.0811422429654689
 30
0.0
 10
0.1464966150154972
 20
0.0826187382425809
 30
0.0
 10
0.1465139563837745
 20
0.0831747033434498
 30
0.0
 10
0.1460446181192374
 20
0.0840084004974005
 30
0.0
 10
0.1456202838488174
 20
0.0842955505653871
 30
0.0
 10
0.1442956598212852
 20
0.0846407000061822
 30
0.0
 10
0.1433952389014514
 20
0.084667244332171
 30
0.0
 10
0.1409518762943129
 20
0.084430370622262
 30
0.0
 10
0.1393430628353691
 20
0.0840744657462986
 30
0.0
 10
0.1371161591524022
 20
0.0834257950427064
 30
0.0
 10
0.1365308104210108
 20
0.0832421127097893
 30
0.0
 10
0.1359303462849688
 20
0.0830410574530918
 30
0.0
  0
ELLIPSE
  5
72
330
64
100
AcDbEntity
  8
OBJ
100
AcDbEllipse
 10
0.2349183972288138
 20
0.0773724366051178
 30
0.0
 11
0.1286830260760889
 21
0.0563082363096895
 31
0.0
210
0.0
220
0.0
230
1.0
 40
0.3277937206502706
 41
2.246936606186415
 42
2.999130590278915
  0
SPLINE
  5
73
330
64
100
AcDbEntity
  8
OBJ
100
AcDbSpline
210
0.0
220
0.0
230
1.0
 70
    24
 71
     3
 72
     8
 73
     4
 74
     0
 42
0.0000000001
 43
0.0000000001
 40
0.0
 40
0.0
 40
0.0
 40
0.0
 40
0.0059857576497239
 40
0.0059857576497239
 40
0.0059857576497239
 40
0.0059857576497239
 10
0.1049183972287899
 20
0.0068380025042378
 30
0.0
 10
0.1049183972287899
 20
0.0060744524100071
 30
0.0
 10
0.1049183972287899
 20
0.0054615333696537
 30
0.0
 10
0.1049183972287899
 20
0.0050051277095511
 30
0.0
  0
SPLINE
  5
74
330
64
100
AcDbEntity
  8
OBJ
100
AcDbSpline
210
0.0
220
0.0
230
1.0
 70
     8
 71
     3
 72
    10
 73
     6
 74
     0
 42
0.0000000001
 43
0.0000000001
 40
0.0060028448230405
 40
0.0060028448230405
 40
0.0060028448230405
 40
0.0060028448230405
 40
0.0067709042124276
 40
0.0067709042124276
 40
0.0135557061890758
 40
0.0135557061890758
 40
0.0135557061890758
 40
0.0135557061890758
 10
0.1049183972288041
 20
0.00500512770956
 30
0.0
 10
0.1049183972287899
 20
0.0049466038658439
 30
0.0
 10
0.1049192347253047
 20
0.0048909789223464
 30
0.0
 10
0.104935868331868
 20
0.0043727170450465
 30
0.0
 10
0.1050186740638743
 20
0.0041425012244583
 30
0.0
 10
0.1051691070547527
 20
0.0041421354308246
 30
0.0
  0
ELLIPSE
  5
75
330
64
100
AcDbEntity
  8
OBJ
100
AcDbEllipse
 10
0.1914869397237062
 20
0.0399999998115819
 30
0.0
 11
-0.0964283656457314
 21
-0.037726012575581
 31
0.0
210
0.0
220
0.0
230
1.0
 40
0.1378708387167208
 41
6.229297829639771
 42
6.250071724007929
  0
SPLINE
  5
76
330
64
100
AcDbEntity
  8
OBJ
100
AcDbSpline
210
0.0
220
0.0
230
1.0
 70
     8
 71
     3
 72
    10
 73
     6
 74
     0
 42
0.0000000001
 43
0.0000000001
 40
-0.0136655500852087
 40
-0.0136655500852087
 40
-0.0136655500852087
 40
-0.0136655500852087
 40
-0.0068329585344051
 40
-0.0068329585344051
 40
0.0
 40
0.0
 40
0.0
 40
0.0
 10
0.0949392337829984
 20
0.0027348221786019
 30
0.0
 10
0.0950533062154655
 20
0.001908185236986
 30
0.0
 10
0.0951273993735562
 20
0.001263340154039
 30
0.0
 10
0.0951973229541246
 20
0.000352534871598
 30
0.0
 10
0.0951929822101541
 20
0.0000885263780122
 30
0.0
 10
0.0951511968323224
 20
0.0000187700632663
 30
0.0
  0
SPLINE
  5
77
330
64
100
AcDbEntity
  8
OBJ
100
AcDbSpline
210
0.0
220
0.0
230
1.0
 70
     8
 71
     3
 72
    14
 73
    10
 74
     0
 42
0.0000000001
 43
0.0000000001
 40
-0.0213446362808433
 40
-0.0213446362808433
 40
-0.0213446362808433
 40
-0.0213446362808433
 40
-0.0207679336896277
 40
-0.0207679336896277
 40
-0.0204972031973391
 40
-0.0204972031973391
 40
-0.0203366647222956
 40
-0.0203366647222956
 40
-0.0202853914422554
 40
-0.0202853914422554
 40
-0.0202853914422554
 40
-0.0202853914422554
 10
0.0951511968323224
 20
0.0000187700632663
 30
0.0
 10
0.0951471164792572
 20
0.0000119583408944
 30
0.0
 10
0.0951481301316371
 20
0.0000069980863975
 30
0.0
 10
0.095157126534577
 20
0.000002435940254
 30
0.0
 10
0.095161124829108
 20
0.0000013882276759
 30
0.0
 10
0.095169281161251
 20
0.0000003704158216
 30
0.0
 10
0.0951727114729302
 20
0.0000001353186052
 30
0.0
 10
0.0951777564050254
 20
0.0000000144379166
 30
0.0
 10
0.0951790175937539
 20
-0.0000000001873923
 30
0.0
 10
0.0951803189866532
 20
-0.0000000001884191
 30
0.0
  0
SPLINE
  5
78
330
64
100
AcDbEntity
  8
OBJ
100
AcDbSpline
210
0.0
220
0.0
230
1.0
 70
     8
 71
     3
 72
    10
 73
     6
 74
     0
 42
0.0000000001
 43
0.0000000001
 40
-0.0029945299755116
 40
-0.0029945299755116
 40
-0.0029945299755116
 40
-0.0029945299755116
 40
-0.0022803656357293
 40
-0.0022803656357293
 40
0.0
 40
0.0
 40
0.0
 40
0.0
 10
0.1637040762153852
 20
-0.0000000001884244
 30
0.0
 10
0.163939290684926
 20
-0.0000000001884244
 30
0.0
 10
0.1641758966739282
 20
0.000000072251841
 30
0.0
 10
0.1651629196109532
 20
0.0000006768377885
 30
0.0
 10
0.1659156852082937
 20
0.0000018716170667
 30
0.0
 10
0.1666693227871185
 20
0.0000038038636641
 30
0.0
  0
SPLINE
  5
79
330
64
100
AcDbEntity
  8
OBJ
100
AcDbSpline
210
0.0
220
0.0
230
1.0
 70
     8
 71
     3
 72
    12
 73
     8
 74
     0
 42
0.0000000001
 43
0.0000000001
 40
0.0
 40
0.0
 40
0.0
 40
0.0
 40
0.0245172874788117
 40
0.0245172874788117
 40
0.0345152721567914
 40
0.0345152721567914
 40
0.0445062223494357
 40
0.0445062223494357
 40
0.0445062223494357
 40
0.0445062223494357
 10
0.081229712855663
 20
0.2111499266125287
 30
0.0
 10
0.0765894682354436
 20
0.2044236391041592
 30
0.0
 10
0.0711400092306072
 20
0.1965715601862312
 30
0.0
 10
0.0659440221292336
 20
0.1879045640050938
 30
0.0
 10
0.0644838898572751
 20
0.1852822164892673
 30
0.0
 10
0.0624185135645128
 20
0.1805698348137055
 30
0.0
 10
0.0618030224514321
 20
0.1784818196084812
 30
0.0
 10
0.0618311758501342
 20
0.1768666455094072
 30
0.0
  0
SPLINE
  5
7A
330
64
100
AcDbEntity
  8
OBJ
100
AcDbSpline
210
0.0
220
0.0
230
1.0
 70
     8
 71
     3
 72
    10
 73
     6
 74
     0
 42
0.0000000001
 43
0.0000000001
 40
-0.0417647839043876
 40
-0.0417647839043876
 40
-0.0417647839043876
 40
-0.0417647839043876
 40
-0.0415502310363372
 40
-0.0415502310363372
 40
-0.0350421910848817
 40
-0.0350421910848817
 40
-0.0350421910848817
 40
-0.0350421910848817
 10
0.3359478391118564
 20
0.0910831005656734
 30
0.0
 10
0.33592613171378
 20
0.0909967850790912
 30
0.0
 10
0.335904404204161
 20
0.0909104793928579
 30
0.0
 10
0.3352230460829908
 20
0.0882066172207106
 30
0.0
 10
0.3345463340923978
 20
0.0855997749532405
 30
0.0
 10
0.333906448931419
 20
0.083041057743686
 30
0.0
  0
SPLINE
  5
7B
330
64
100
AcDbEntity
  8
OBJ
100
AcDbSpline
210
0.0
220
0.0
230
1.0
 70
     8
 71
     3
 72
    18
 73
    14
 74
     0
 42
0.0000000001
 43
0.0000000001
 40
-0.0417680594135152
 40
-0.0417680594135152
 40
-0.0417680594135152
 40
-0.0417680594135152
 40
-0.0343916356095545
 40
-0.0343916356095545
 40
-0.0288193597061681
 40
-0.0288193597061681
 40
-0.0236514834892956
 40
-0.0236514834892956
 40
-0.0179288414348379
 40
-0.0179288414348379
 40
-0.0105294196023879
 40
-0.0105294196023879
 40
0.0
 40
0.0
 40
0.0
 40
0.0
 10
0.3339064481727867
 20
0.0830410574534009
 30
0.0
 10
0.3322131265039623
 20
0.0836080375648871
 30
0.0
 10
0.3305312983006736
 20
0.0840733105528324
 30
0.0
 10
0.3278491245160389
 20
0.084560119122993
 30
0.0
 10
0.3267923018830494
 20
0.0846602234335068
 30
0.0
 10
0.3250915439657724
 20
0.0845693373755809
 30
0.0
 10
0.3244568744289502
 20
0.0844004953108604
 30
0.0
 10
0.3235550078247549
 20
0.0837780973179934
 30
0.0
 10
0.3233599999368302
 20
0.0833140033769668
 30
0.0
 10
0.3234351278095069
 20
0.0820342302709714
 30
0.0
 10
0.3238592760408103
 20
0.0811304318336612
 30
0.0
 10
0.3257412131699802
 20
0.078600143260922
 30
0.0
 10
0.3275358824009409
 20
0.0768634712965151
 30
0.0
 10
0.3298433058087262
 20
0.0750367694407546
 30
0.0
  0
ELLIPSE
  5
7C
330
64
100
AcDbEntity
  8
OBJ
100
AcDbEllipse
 10
0.624918397228786
 20
0.1624944157548063
 30
0.0
 11
-0.129999999999999
 21
0.0
 31
0.0
210
0.0
220
0.0
230
1.0
 40
0.3826834323651109
 41
0.3805352361403538
 42
2.761057417449466
  0
ELLIPSE
  5
7D
330
64
100
AcDbEntity
  8
OBJ
100
AcDbEllipse
 10
0.624918397228786
 20
0.1255392344543607
 30
0.0
 11
-0.1299999999999954
 21
0.0
 31
0.0
210
0.0
220
0.0
230
1.0
 40
0.3826834323651334
 41
3.1415926535896
 42
4.586252303385514
  0
ELLIPSE
  5
7E
330
64
100
AcDbEntity
  8
OBJ
100
AcDbEllipse
 10
0.624918397228786
 20
0.1191987277431172
 30
0.0
 11
-0.129999999999999
 21
0.0
 31
0.0
210
0.0
220
0.0
230
1.0
 40
0.3826834323651369
 41
0.0000000000001503
 42
3.141592653589654
  0
ELLIPSE
  5
7F
330
64
100
AcDbEntity
  8
OBJ
100
AcDbEllipse
 10
0.624918397228786
 20
0.1255392344543607
 30
0.0
 11
-0.1299999999999954
 21
0.0
 31
0.0
210
0.0
220
0.0
230
1.0
 40
0.3826834323651334
 41
4.838525657383863
 42
6.283185307179797
  0
SPLINE
  5
80
330
64
100
AcDbEntity
  8
OBJ
100
AcDbSpline
210
0.0
220
0.0
230
1.0
 70
    24
 71
     3
 72
     8
 73
     4
 74
     0
 42
0.0000000001
 43
0.0000000001
 40
0.0075199171436215
 40
0.0075199171436215
 40
0.0075199171436215
 40
0.0075199171436215
 40
0.0135057075271103
 40
0.0135057075271103
 40
0.0135057075271103
 40
0.0135057075271103
 10
0.364918397228795
 20
0.0050051277112546
 30
0.0
 10
0.364918397228795
 20
0.0054615333173151
 30
0.0
 10
0.364918397228795
 20
0.0060744523225571
 30
0.0
 10
0.364918397228795
 20
0.0068380025084247
 30
0.0
  0
SPLINE
  5
81
330
64
100
AcDbEntity
  8
OBJ
100
AcDbSpline
210
0.0
220
0.0
230
1.0
 70
     8
 71
     3
 72
    10
 73
     6
 74
     0
 42
0.0000000001
 43
0.0000000001
 40
0.0
 40
0.0
 40
0.0
 40
0.0
 40
0.0067758505285223
 40
0.0067758505285223
 40
0.0075449245861631
 40
0.0075449245861631
 40
0.0075449245861631
 40
0.0075449245861631
 10
0.3646676960771806
 20
0.004142135435333
 30
0.0
 10
0.3648193996154454
 20
0.004142135435333
 30
0.0
 10
0.3649009225713407
 20
0.0043732450116343
 30
0.0
 10
0.3649175576775043
 20
0.0048908425613652
 30
0.0
 10
0.364918397228795
 20
0.0049465321274882
 30
0.0
 10
0.364918397228795
 20
0.0050051277112546
 30
0.0
  0
SPLINE
  5
82
330
64
100
AcDbEntity
  8
OBJ
100
AcDbSpline
210
0.0
220
0.0
230
1.0
 70
     8
 71
     3
 72
    14
 73
    10
 74
     0
 42
0.0000000001
 43
0.0000000001
 40
-0.0083037088773457
 40
-0.0083037088773457
 40
-0.0083037088773457
 40
-0.0083037088773457
 40
-0.0081854763732419
 40
-0.0081854763732419
 40
-0.0079741760494108
 40
-0.0079741760494108
 40
-0.0075416085323764
 40
-0.0075416085323764
 40
-0.0070765504661497
 40
-0.0070765504661497
 40
-0.0070765504661497
 40
-0.0070765504661497
 10
0.374656475211868
 20
-0.0000000001884191
 30
0.0
 10
0.3746590659655347
 20
-0.0000000001883071
 30
0.0
 10
0.3746614978772307
 20
0.0000000577690811
 30
0.0
 10
0.3746678327014372
 20
0.0000003810899356
 30
0.0
 10
0.374671386257166
 20
0.0000007737839249
 30
0.0
 10
0.3746806623206034
 20
0.0000025364897782
 30
0.0
 10
0.3746847573037719
 20
0.000004498909882
 30
0.0
 10
0.3746888117756164
 20
0.0000101898701237
 30
0.0
 10
0.3746884340055523
 20
0.0000140350232209
 30
0.0
 10
0.3746855976252483
 20
0.0000187700632646
 30
0.0
  0
SPLINE
  5
83
330
64
100
AcDbEntity
  8
OBJ
100
AcDbSpline
210
0.0
220
0.0
230
1.0
 70
     8
 71
     3
 72
    10
 73
     6
 74
     0
 42
0.0000000001
 43
0.0000000001
 40
0.0
 40
0.0
 40
0.0
 40
0.0
 40
0.0068323771000337
 40
0.0068323771000337
 40
0.013665536043707
 40
0.013665536043707
 40
0.013665536043707
 40
0.013665536043707
 10
0.3748975606745724
 20
0.0027348221786232
 30
0.0
 10
0.3747834917052479
 20
0.001908210333057
 30
0.0
 10
0.3747093995760942
 20
0.0012633792547918
 30
0.0
 10
0.3746394712433876
 20
0.0003525508964772
 30
0.0
 10
0.3746438109789132
 20
0.000088528495648
 30
0.0
 10
0.3746855976252483
 20
0.0000187700632646
 30
0.0
  0
ELLIPSE
  5
84
330
64
100
AcDbEntity
  8
OBJ
100
AcDbEllipse
 10
0.2783498547338787
 20
0.0399999998115819
 30
0.0
 11
0.0964283656457262
 21
-0.0377260125755614
 31
0.0
210
0.0
220
0.0
230
1.0
 40
0.1378708387173026
 41
0.0331135831715608
 42
0.0538874775384046
  0
SPLINE
  5
85
330
64
100
AcDbEntity
  8
OBJ
100
AcDbSpline
210
0.0
220
0.0
230
1.0
 70
     8
 71
     3
 72
    14
 73
    10
 74
     0
 42
0.0000000001
 43
0.0000000001
 40
0.1071749157867759
 40
0.1071749157867759
 40
0.1071749157867759
 40
0.1071749157867759
 40
0.1161854958028425
 40
0.1161854958028425
 40
0.1252031102278902
 40
0.1252031102278902
 40
0.1384349594185061
 40
0.1384349594185061
 40
0.151666808609122
 40
0.151666808609122
 40
0.151666808609122
 40
0.151666808609122
 10
0.4080056134187268
 20
0.1768666455094072
 30
0.0
 10
0.4080309987702613
 20
0.1783233626678973
 30
0.0
 10
0.4075293537609391
 20
0.180186022888317
 30
0.0
 10
0.4057958296801482
 20
0.1843724998874796
 30
0.0
 10
0.4045581473599677
 20
0.1866951712739846
 30
0.0
 10
0.401377812883144
 20
0.1921852715675838
 30
0.0
 10
0.3989722484786462
 20
0.1959095132221131
 30
0.0
 10
0.3938448470736269
 20
0.203580134611701
 30
0.0
 10
0.3911113916672981
 20
0.2075197851460055
 30
0.0
 10
0.3886070764131979
 20
0.2111499266125287
 30
0.0
  0
SPLINE
  5
86
330
64
100
AcDbEntity
  8
OBJ
100
AcDbSpline
210
0.0
220
0.0
230
1.0
 70
     8
 71
     3
 72
    10
 73
     6
 74
     0
 42
0.0000000001
 43
0.0000000001
 40
0.3412320970250418
 40
0.3412320970250418
 40
0.3412320970250418
 40
0.3412320970250418
 40
0.3570500479482948
 40
0.3570500479482948
 40
0.3728679988715479
 40
0.3728679988715479
 40
0.3728679988715479
 40
0.3728679988715479
 10
0.6412727171415363
 20
0.1748928415695721
 30
0.0
 10
0.6357035765910874
 20
0.1751631011442862
 30
0.0
 10
0.6301910475365311
 20
0.1753004014425068
 30
0.0
 10
0.6196457469210408
 20
0.1753004014425068
 30
0.0
 10
0.6141332178664847
 20
0.1751631011442862
 30
0.0
 10
0.6085640773160357
 20
0.1748928415695721
 30
0.0
  0
ELLIPSE
  5
87
330
64
100
AcDbEntity
  8
OBJ
100
AcDbEllipse
 10
1.014918397228829
 20
0.0773724366051321
 30
0.0
 11
0.1286830260760889
 21
0.0563082363096889
 31
0.0
210
0.0
220
0.0
230
0.9999999999999998
 40
0.3277937206502902
 41
2.246936606186348
 42
2.999130590278906
  0
SPLINE
  5
88
330
64
100
AcDbEntity
  8
OBJ
100
AcDbSpline
210
0.0
220
0.0
230
1.0
 70
     8
 71
     3
 72
    20
 73
    16
 74
     0
 42
0.0000000001
 43
0.0000000001
 40
-0.0462415200195045
 40
-0.0462415200195045
 40
-0.0462415200195045
 40
-0.0462415200195045
 40
-0.0369865613202929
 40
-0.0369865613202929
 40
-0.030076985820867
 40
-0.030076985820867
 40
-0.025061190447857
 40
-0.025061190447857
 40
-0.0205930017670555
 40
-0.0205930017670555
 40
-0.0157412005182118
 40
-0.0157412005182118
 40
-0.009297134061504
 40
-0.009297134061504
 40
-0.0070933241343543
 40
-0.0070933241343543
 40
-0.0070933241343543
 40
-0.0070933241343543
 10
0.9199934886488454
 20
0.0750367694405307
 30
0.0
 10
0.9217398461617456
 20
0.0764192961579378
 30
0.0
 10
0.9233003671342634
 20
0.0778356550486334
 30
0.0
 10
0.9253261901915015
 20
0.0801665809104533
 30
0.0
 10
0.9259894260937107
 20
0.0811422429654956
 30
0.0
 10
0.9264966150155268
 20
0.0826187382426076
 30
0.0
 10
0.9265139563837896
 20
0.0831747033434765
 30
0.0
 10
0.9260446181192527
 20
0.0840084004974289
 30
0.0
 10
0.9256202838488327
 20
0.0842955505654137
 30
0.0
 10
0.9242956598213003
 20
0.0846407000062088
 30
0.0
 10
0.9233952389014808
 20
0.0846672443321977
 30
0.0
 10
0.9209518762943281
 20
0.0844303706222887
 30
0.0
 10
0.9193430628353985
 20
0.0840744657463253
 30
0.0
 10
0.9171161591523746
 20
0.0834257950427189
 30
0.0
 10
0.9165308104208982
 20
0.0832421127099936
 30
0.0
 10
0.9159303462847852
 20
0.083041057453273
 30
0.0
  0
SPLINE
  5
89
330
64
100
AcDbEntity
  8
OBJ
100
AcDbSpline
210
0.0
220
0.0
230
1.0
 70
     8
 71
     3
 72
    10
 73
     6
 74
     0
 42
0.0000000001
 43
0.0000000001
 40
-0.0081003747957519
 40
-0.0081003747957519
 40
-0.0081003747957519
 40
-0.0081003747957519
 40
0.0
 40
0.0
 40
0.0002670479466551
 40
0.0002670479466551
 40
0.0002670479466551
 40
0.0002670479466551
 10
0.9159303455261389
 20
0.0830410577435634
 30
0.0
 10
0.9152904603692384
 20
0.0855997749397775
 30
0.0
 10
0.9146137483858359
 20
0.0882066171865868
 30
0.0
 10
0.913932390252089
 20
0.0909104793963716
 30
0.0
 10
0.9139106627449288
 20
0.0909967850749576
 30
0.0
 10
0.9138889553458147
 20
0.0910831005657018
 30
0.0
  0
ELLIPSE
  5
8A
330
64
100
AcDbEntity
  8
OBJ
100
AcDbEllipse
 10
0.9714869397242047
 20
0.0917811968228195
 30
0.0
 11
-0.0964283656455283
 21
-0.0377260125755526
 31
0.0
210
0.0
220
0.0
230
1.0
 40
0.1378708387169703
 41
5.271481343162159
 42
6.229297829639607
  0
SPLINE
  5
8B
330
64
100
AcDbEntity
  8
OBJ
100
AcDbSpline
210
0.0
220
0.0
230
1.0
 70
    24
 71
     3
 72
     8
 73
     4
 74
     0
 42
0.0000000001
 43
0.0000000001
 40
0.0
 40
0.0
 40
0.0
 40
0.0
 40
0.005985757650266
 40
0.005985757650266
 40
0.005985757650266
 40
0.005985757650266
 10
0.8849183972288335
 20
0.0068380025044883
 30
0.0
 10
0.8849183972288335
 20
0.0060744524101883
 30
0.0
 10
0.884918397228805
 20
0.005461533369771
 30
0.0
 10
0.884918397228805
 20
0.0050051277096541
 30
0.0
  0
SPLINE
  5
8C
330
64
100
AcDbEntity
  8
OBJ
100
AcDbSpline
210
0.0
220
0.0
230
1.0
 70
     8
 71
     3
 72
    10
 73
     6
 74
     0
 42
0.0000000001
 43
0.0000000001
 40
0.0060028448236663
 40
0.0060028448236663
 40
0.0060028448236663
 40
0.0060028448236663
 40
0.0067709042126076
 40
0.0067709042126076
 40
0.0135557062391037
 40
0.0135557062391037
 40
0.0135557062391037
 40
0.0135557062391037
 10
0.8849183972287908
 20
0.0050051277096541
 30
0.0
 10
0.884918397228805
 20
0.0049466038659842
 30
0.0
 10
0.8849192347253056
 20
0.0048909789225204
 30
0.0
 10
0.8849358683319826
 20
0.0043727170418348
 30
0.0
 10
0.8850186740714923
 20
0.0041425012268865
 30
0.0
 10
0.8851691070547538
 20
0.0041421354311071
 30
0.0
  0
ELLIPSE
  5
8D
330
64
100
AcDbEntity
  8
OBJ
100
AcDbEllipse
 10
0.9714869397237071
 20
0.0399999998115819
 30
0.0
 11
-0.0964283656457328
 21
-0.037726012575581
 31
0.0
210
0.0
220
0.0
230
0.9999999999999998
 40
0.1378708387167187
 41
6.229297829639945
 42
6.250071724008588
  0
SPLINE
  5
8E
330
64
100
AcDbEntity
  8
OBJ
100
AcDbSpline
210
0.0
220
0.0
230
1.0
 70
     8
 71
     3
 72
    10
 73
     6
 74
     0
 42
0.0000000001
 43
0.0000000001
 40
-0.0136655500851975
 40
-0.0136655500851975
 40
-0.0136655500851975
 40
-0.0136655500851975
 40
-0.0068329585344003
 40
-0.0068329585344003
 40
0.0
 40
0.0
 40
0.0
 40
0.0
 10
0.8749392337829995
 20
0.002734822178593
 30
0.0
 10
0.8750533062154808
 20
0.0019081852369789
 30
0.0
 10
0.8751273993735715
 20
0.0012633401540318
 30
0.0
 10
0.8751973229541539
 20
0.0003525348715945
 30
0.0
 10
0.8751929822101692
 20
0.0000885263780104
 30
0.0
 10
0.8751511968323518
 20
0.0000187700632646
 30
0.0
  0
SPLINE
  5
8F
330
64
100
AcDbEntity
  8
OBJ
100
AcDbSpline
210
0.0
220
0.0
230
1.0
 70
     8
 71
     3
 72
    14
 73
    10
 74
     0
 42
0.0000000001
 43
0.0000000001
 40
-0.0213446362801211
 40
-0.0213446362801211
 40
-0.0213446362801211
 40
-0.0213446362801211
 40
-0.0207679336892253
 40
-0.0207679336892253
 40
-0.0204972031970928
 40
-0.0204972031970928
 40
-0.0203366647221627
 40
-0.0203366647221627
 40
-0.020285391442158
 40
-0.020285391442158
 40
-0.020285391442158
 40
-0.020285391442158
 10
0.8751511968323518
 20
0.0000187700632663
 30
0.0
 10
0.8751471164792866
 20
0.0000119583408944
 30
0.0
 10
0.8751481301316664
 20
0.0000069980863975
 30
0.0
 10
0.8751571265346065
 20
0.000002435940254
 30
0.0
 10
0.8751611248291375
 20
0.0000013882276759
 30
0.0
 10
0.8751692811612663
 20
0.0000003704158216
 30
0.0
 10
0.8751727114729455
 20
0.0000001353186052
 30
0.0
 10
0.8751777564050549
 20
0.0000000144379166
 30
0.0
 10
0.875179017593769
 20
-0.0000000001873923
 30
0.0
 10
0.8751803189866825
 20
-0.0000000001884191
 30
0.0
  0
SPLINE
  5
90
330
64
100
AcDbEntity
  8
OBJ
100
AcDbSpline
210
0.0
220
0.0
230
1.0
 70
     8
 71
     3
 72
    14
 73
    10
 74
     0
 42
0.0000000001
 43
0.0000000001
 40
0.0
 40
0.0
 40
0.0
 40
0.0
 40
0.013188266539672
 40
0.013188266539672
 40
0.026376533079344
 40
0.026376533079344
 40
0.0354377315428581
 40
0.0354377315428581
 40
0.0444918955937354
 40
0.0444918955937354
 40
0.0444918955937354
 40
0.0444918955937354
 10
0.861229712855664
 20
0.2111499266125287
 30
0.0
 10
0.8587336462368178
 20
0.207531741992411
 30
0.0
 10
0.8560090780095952
 20
0.2036047345743581
 30
0.0
 10
0.8508958567079679
 20
0.1959572335486426
 30
0.0
 10
0.8484958267038145
 20
0.1922433423979379
 30
0.0
 10
0.845307466603689
 20
0.186748644393476
 30
0.0
 10
0.8440600723585767
 20
0.1844127342815041
 30
0.0
 10
0.8423121558663986
 20
0.180203027210216
 30
0.0
 10
0.8418056674857048
 20
0.1783304071983496
 30
0.0
 10
0.8418311758501495
 20
0.1768666455094072
 30
0.0
  0
ELLIPSE
  5
91
330
64
100
AcDbEntity
  8
OBJ
100
AcDbEllipse
 10
1.404918397228744
 20
0.1624944157548187
 30
0.0
 11
-0.129999999999999
 21
0.0
 31
0.0
210
0.0
220
0.0
230
1.0
 40
0.3826834323651109
 41
0.3805352361403484
 42
2.76105741744947
  0
ELLIPSE
  5
92
330
64
100
AcDbEntity
  8
OBJ
100
AcDbEllipse
 10
1.404918397228744
 20
0.1255392344543731
 30
0.0
 11
-0.1299999999999954
 21
0.0
 31
0.0
210
0.0
220
0.0
230
1.0
 40
0.3826834323651334
 41
4.838525657385846
 42
6.283185307179786
  0
ELLIPSE
  5
93
330
64
100
AcDbEntity
  8
OBJ
100
AcDbEllipse
 10
1.404918397228744
 20
0.1191987277431279
 30
0.0
 11
-0.129999999999999
 21
0.0
 31
0.0
210
0.0
220
0.0
230
1.0
 40
0.3826834323651369
 41
0.0000000000002172
 42
3.141592653589588
  0
ELLIPSE
  5
94
330
64
100
AcDbEntity
  8
OBJ
100
AcDbEllipse
 10
1.014918397228829
 20
0.0773724366051356
 30
0.0
 11
0.1286830260760789
 21
-0.0563082363096595
 31
0.0
210
0.0
220
0.0
230
1.0
 40
0.3277937206516909
 41
0.1424620633108467
 42
0.8946560474046123
  0
SPLINE
  5
95
330
64
100
AcDbEntity
  8
OBJ
100
AcDbSpline
210
0.0
220
0.0
230
1.0
 70
     8
 71
     3
 72
    18
 73
    14
 74
     0
 42
0.0000000001
 43
0.0000000001
 40
-0.0417680594137397
 40
-0.0417680594137397
 40
-0.0417680594137397
 40
-0.0417680594137397
 40
-0.0343916356095534
 40
-0.0343916356095534
 40
-0.0288193597061715
 40
-0.0288193597061715
 40
-0.0236514834893003
 40
-0.0236514834893003
 40
-0.0179288414348449
 40
-0.0179288414348449
 40
-0.010529419602394
 40
-0.010529419602394
 40
0.0
 40
0.0
 40
0.0
 40
0.0
 10
1.113906448172985
 20
0.0830410574535803
 30
0.0
 10
1.112213126504105
 20
0.0836080375650985
 30
0.0
 10
1.110531298300716
 20
0.0840733105528413
 30
0.0
 10
1.10784912451604
 20
0.0845601191230126
 30
0.0
 10
1.10679230188305
 20
0.0846602234335245
 30
0.0
 10
1.105091543965758
 20
0.0845693373755987
 30
0.0
 10
1.104456874428936
 20
0.0844004953108781
 30
0.0
 10
1.103555007824756
 20
0.0837780973180111
 30
0.0
 10
1.103359999936831
 20
0.0833140033769846
 30
0.0
 10
1.103435127809508
 20
0.0820342302709891
 30
0.0
 10
1.103859276040811
 20
0.0811304318336772
 30
0.0
 10
1.10574121316998
 20
0.0786001432609416
 30
0.0
 10
1.107535882400942
 20
0.0768634712965346
 30
0.0
 10
1.109843305808726
 20
0.0750367694407723
 30
0.0
  0
SPLINE
  5
96
330
64
100
AcDbEntity
  8
OBJ
100
AcDbSpline
210
0.0
220
0.0
230
1.0
 70
     8
 71
     3
 72
    10
 73
     6
 74
     0
 42
0.0000000001
 43
0.0000000001
 40
0.0
 40
0.0
 40
0.0
 40
0.0
 40
0.0067758505285162
 40
0.0067758505285162
 40
0.0075449245862625
 40
0.0075449245862625
 40
0.0075449245862625
 40
0.0075449245862625
 10
1.144667696077195
 20
0.0041421354353348
 30
0.0
 10
1.144819399615446
 20
0.0041421354353348
 30
0.0
 10
1.14490092257134
 20
0.0043732450116343
 30
0.0
 10
1.144917557677519
 20
0.0048908425613723
 30
0.0
 10
1.144918397228795
 20
0.0049465321275042
 30
0.0
 10
1.144918397228795
 20
0.0050051277112777
 30
0.0
  0
SPLINE
  5
97
330
64
100
AcDbEntity
  8
OBJ
100
AcDbSpline
210
0.0
220
0.0
230
1.0
 70
    24
 71
     3
 72
     8
 73
     4
 74
     0
 42
0.0000000001
 43
0.0000000001
 40
0.0075199171437402
 40
0.0075199171437402
 40
0.0075199171437402
 40
0.0075199171437402
 40
0.0135057075271342
 40
0.0135057075271342
 40
0.0135057075271342
 40
0.0135057075271342
 10
1.144918397228795
 20
0.0050051277112777
 30
0.0
 10
1.144918397228795
 20
0.0054615333173365
 30
0.0
 10
1.144918397228837
 20
0.0060744523225553
 30
0.0
 10
1.144918397228837
 20
0.0068380025084105
 30
0.0
  0
SPLINE
  5
98
330
64
100
AcDbEntity
  8
OBJ
100
AcDbSpline
210
0.0
220
0.0
230
1.0
 70
     8
 71
     3
 72
    14
 73
    10
 74
     0
 42
0.0000000001
 43
0.0000000001
 40
-0.008303708877411
 40
-0.008303708877411
 40
-0.008303708877411
 40
-0.008303708877411
 40
-0.0081854763732654
 40
-0.0081854763732654
 40
-0.0079741760494122
 40
-0.0079741760494122
 40
-0.0075416085323859
 40
-0.0075416085323859
 40
-0.007076550466161
 40
-0.007076550466161
 40
-0.007076550466161
 40
-0.007076550466161
 10
1.154656475211869
 20
-0.0000000001884191
 30
0.0
 10
1.154659065965534
 20
-0.0000000001883071
 30
0.0
 10
1.154661497877245
 20
0.0000000577690811
 30
0.0
 10
1.154667832701437
 20
0.0000003810899356
 30
0.0
 10
1.154671386257166
 20
0.0000007737839249
 30
0.0
 10
1.154680662320604
 20
0.0000025364897782
 30
0.0
 10
1.154684757303773
 20
0.0000044989098837
 30
0.0
 10
1.154688811775617
 20
0.0000101898701237
 30
0.0
 10
1.154688434005567
 20
0.0000140350232209
 30
0.0
 10
1.154685597625249
 20
0.0000187700632646
 30
0.0
  0
SPLINE
  5
99
330
64
100
AcDbEntity
  8
OBJ
100
AcDbSpline
210
0.0
220
0.0
230
1.0
 70
     8
 71
     3
 72
    10
 73
     6
 74
     0
 42
0.0000000001
 43
0.0000000001
 40
0.0
 40
0.0
 40
0.0
 40
0.0
 40
0.0068323771000424
 40
0.0068323771000424
 40
0.0136655360437318
 40
0.0136655360437318
 40
0.0136655360437318
 40
0.0136655360437318
 10
1.154897560674586
 20
0.0027348221786214
 30
0.0
 10
1.154783491705263
 20
0.0019082103330552
 30
0.0
 10
1.154709399576095
 20
0.0012633792547918
 30
0.0
 10
1.154639471243402
 20
0.0003525508964755
 30
0.0
 10
1.154643810978914
 20
0.000088528495648
 30
0.0
 10
1.154685597625249
 20
0.0000187700632663
 30
0.0
  0
ELLIPSE
  5
9A
330
64
100
AcDbEntity
  8
OBJ
100
AcDbEllipse
 10
1.058349854733894
 20
0.0399999998115819
 30
0.0
 11
0.0964283656457251
 21
-0.0377260125755614
 31
0.0
210
0.0
220
0.0
230
1.0
 40
0.1378708387173037
 41
0.0331135831714719
 42
0.0538874775383131
  0
ELLIPSE
  5
9B
330
64
100
AcDbEntity
  8
OBJ
100
AcDbEllipse
 10
1.058349854733894
 20
0.0917811968227911
 30
0.0
 11
0.096428365645764
 21
-0.0377260125755916
 31
0.0
210
0.0
220
0.0
230
1.0
 40
0.1378708387172333
 41
0.0538874775384637
 42
1.011703964023836
  0
SPLINE
  5
9C
330
64
100
AcDbEntity
  8
OBJ
100
AcDbSpline
210
0.0
220
0.0
230
1.0
 70
     8
 71
     3
 72
    10
 73
     6
 74
     0
 42
0.0000000001
 43
0.0000000001
 40
-0.0417647838791784
 40
-0.0417647838791784
 40
-0.0417647838791784
 40
-0.0417647838791784
 40
-0.0415502310021925
 40
-0.0415502310021925
 40
-0.0350421910867174
 40
-0.0350421910867174
 40
-0.0350421910867174
 40
-0.0350421910867174
 10
1.115947839111884
 20
0.0910831005656254
 30
0.0
 10
1.11592613171236
 20
0.0909967850732914
 30
0.0
 10
1.115904404206123
 20
0.0909104793976683
 30
0.0
 10
1.11522304606635
 20
0.0882066171699494
 30
0.0
 10
1.114546334086528
 20
0.0855997749334146
 30
0.0
 10
1.113906448931633
 20
0.0830410577438761
 30
0.0
  0
SPLINE
  5
9D
330
64
100
AcDbEntity
  8
OBJ
100
AcDbSpline
210
0.0
220
0.0
230
1.0
 70
     8
 71
     3
 72
    14
 73
    10
 74
     0
 42
0.0000000001
 43
0.0000000001
 40
0.107174915786777
 40
0.107174915786777
 40
0.107174915786777
 40
0.107174915786777
 40
0.116185495802843
 40
0.116185495802843
 40
0.1252031102278906
 40
0.1252031102278906
 40
0.1384349594185068
 40
0.1384349594185068
 40
0.1516668086091231
 40
0.1516668086091231
 40
0.1516668086091231
 40
0.1516668086091231
 10
1.188005613418727
 20
0.1768666455094072
 30
0.0
 10
1.188030998770289
 20
0.1783233626678937
 30
0.0
 10
1.187529353760954
 20
0.1801860228883152
 30
0.0
 10
1.185795829680149
 20
0.1843724998874778
 30
0.0
 10
1.184558147359967
 20
0.1866951712739846
 30
0.0
 10
1.181377812883159
 20
0.1921852715675838
 30
0.0
 10
1.178972248478647
 20
0.1959095132221131
 30
0.0
 10
1.173844847073642
 20
0.203580134611701
 30
0.0
 10
1.171111391667313
 20
0.2075197851460055
 30
0.0
 10
1.168607076413212
 20
0.2111499266125287
 30
0.0
  0
ELLIPSE
  5
9E
330
64
100
AcDbEntity
  8
OBJ
100
AcDbEllipse
 10
1.404918397228744
 20
0.1255392344543731
 30
0.0
 11
-0.1299999999999954
 21
0.0
 31
0.0
210
0.0
220
0.0
230
1.0
 40
0.3826834323651334
 41
3.141592653589606
 42
4.58625230338353
  0
SPLINE
  5
9F
330
64
100
AcDbEntity
  8
OBJ
100
AcDbSpline
210
0.0
220
0.0
230
1.0
 70
     8
 71
     3
 72
    10
 73
     6
 74
     0
 42
0.0000000001
 43
0.0000000001
 40
0.3412320970249437
 40
0.3412320970249437
 40
0.3412320970249437
 40
0.3412320970249437
 40
0.3570500479484264
 40
0.3570500479484264
 40
0.3728679988719091
 40
0.3728679988719091
 40
0.3728679988719091
 40
0.3728679988719091
 10
1.421272717141749
 20
0.1748928415695721
 30
0.0
 10
1.415703576591202
 20
0.1751631011442951
 30
0.0
 10
1.410191047536573
 20
0.1753004014425192
 30
0.0
 10
1.399645746920914
 20
0.1753004014425192
 30
0.0
 10
1.394133217866285
 20
0.1751631011442951
 30
0.0
 10
1.388564077315737
 20
0.1748928415695721
 30
0.0
  0
SPLINE
  5
A0
330
64
100
AcDbEntity
  8
OBJ
100
AcDbSpline
210
0.0
220
0.0
230
1.0
 70
     8
 71
     1
 72
    24
 73
    22
 74
     0
 42
0.0000000001
 43
0.0000000001
 40
3.100970596849358
 40
3.100970596849358
 40
3.246074648715748
 40
3.391178700582138
 40
3.549038285726783
 40
3.706897870871431
 40
3.870523790029386
 40
4.034149709187341
 40
4.196215748717464
 40
4.358281788247587
 40
4.519513378006522
 40
4.680744967765458
 40
4.841733206789028
 40
5.002721445812597
 40
5.163868897513127
 40
5.325016349213657
 40
5.486847224732613
 40
5.648678100251568
 40
5.811999146015318
 40
5.975320191779067
 40
6.136009636947957
 40
6.296699082116846
 40
6.32366556946817
 40
6.32366556946817
 10
0.8803414618700067
 20
0.4620274973874256
 30
0.0
 10
0.8810284211317771
 20
0.4702854594767444
 30
0.0
 10
0.8847352288737404
 20
0.4782333540001701
 30
0.0
 10
0.89188559936726
 20
0.4862728197211627
 30
0.0
 10
0.9020005205654262
 20
0.4935995044882331
 30
0.0
 10
0.9153381306310739
 20
0.5003579765472291
 30
0.0
 10
0.9312522366594498
 20
0.5061502810889929
 30
0.0
 10
0.9491613773129223
 20
0.5108142245026111
 30
0.0
 10
0.9687553756197111
 20
0.5143031732410864
 30
0.0
 10
0.9894263652681194
 20
0.5165255891942957
 30
0.0
 10
1.010747065557271
 20
0.517448802217106
 30
0.0
 10
1.032142909596845
 20
0.5170518744283426
 30
0.0
 10
1.053102772770475
 20
0.5153468554679188
 30
0.0
 10
1.073114956018247
 20
0.5123714884453614
 30
0.0
 10
1.091653183778507
 20
0.5081978602594531
 30
0.0
 10
1.108319624826297
 20
0.5028978029917619
 30
0.0
 10
1.122618763398879
 20
0.4966017991677747
 30
0.0
 10
1.134295905489896
 20
0.4893581935131916
 30
0.0
 10
1.14291013676912
 20
0.4813206858623335
 30
0.0
 10
1.148106641903555
 20
0.472712766206807
 30
0.0
 10
1.149691494776508
 20
0.4636164446588441
 30
0.0
 10
1.14958290670005
 20
0.4620773779716876
 30
0.0
  0
SPLINE
  5
A1
330
64
100
AcDbEntity
  8
OBJ
100
AcDbSpline
210
0.0
220
0.0
230
1.0
 70
     8
 71
     1
 72
    24
 73
    22
 74
     0
 42
0.0000000001
 43
0.0000000001
 40
3.100970596849042
 40
3.100970596849042
 40
3.246074648715426
 40
3.391178700581811
 40
3.549038285726468
 40
3.706897870871127
 40
3.870523790029082
 40
4.034149709187038
 40
4.196215748717158
 40
4.358281788247279
 40
4.519513378006215
 40
4.680744967765152
 40
4.841733206788721
 40
5.002721445812291
 40
5.163868897512821
 40
5.325016349213351
 40
5.486847224732307
 40
5.648678100251261
 40
5.811999146015013
 40
5.975320191778764
 40
6.136009636947646
 40
6.296699082116526
 40
6.323665569467799
 40
6.323665569467799
 10
0.1002795730391632
 20
0.4620274973871821
 30
0.0
 10
0.1009665323009337
 20
0.4702854594765009
 30
0.0
 10
0.1046733400428828
 20
0.4782333539999303
 30
0.0
 10
0.1118237105364024
 20
0.4862728197209317
 30
0.0
 10
0.1219386317345545
 20
0.4935995044880165
 30
0.0
 10
0.1352762418002023
 20
0.5003579765470301
 30
0.0
 10
0.1511903478285639
 20
0.5061502810888153
 30
0.0
 10
0.1690994884820505
 20
0.5108142245024583
 30
0.0
 10
0.188693486788825
 20
0.5143031732409567
 30
0.0
 10
0.2093644764372478
 20
0.5165255891941963
 30
0.0
 10
0.2306851767263858
 20
0.5174488022170332
 30
0.0
 10
0.2520810207659458
 20
0.5170518744282983
 30
0.0
 10
0.2730408839395899
 20
0.5153468554679012
 30
0.0
 10
0.2930530671873761
 20
0.5123714884453703
 30
0.0
 10
0.311591294947636
 20
0.5081978602594868
 30
0.0
 10
0.3282577359954253
 20
0.5028978029918189
 30
0.0
 10
0.3425568745680216
 20
0.4966017991678493
 30
0.0
 10
0.3542340166590385
 20
0.4893581935132822
 30
0.0
 10
0.3628482479382491
 20
0.4813206858624329
 30
0.0
 10
0.3680447530727129
 20
0.4727127662069135
 30
0.0
 10
0.369629605945665
 20
0.4636164446589543
 30
0.0
 10
0.3695210178692072
 20
0.4620773779717995
 30
0.0
  0
SPLINE
  5
A2
330
64
100
AcDbEntity
  8
OBJ
100
AcDbSpline
210
0.0
220
0.0
230
1.0
 70
     8
 71
     1
 72
     5
 73
     3
 74
     0
 42
0.0000000001
 43
0.0000000001
 40
3.048121165425128
 40
3.048121165425128
 40
3.101860621456603
 40
3.105345726015648
 40
3.105345726015648
 10
0.0796498211806416
 20
0.4251555899885143
 30
0.0
 10
0.0791113236062167
 20
0.4267735903788604
 30
0.0
 10
0.0790996401068931
 20
0.4268912279580759
 30
0.0
  0
ELLIPSE
  5
A3
330
64
100
AcDbEntity
  8
OBJ
100
AcDbEllipse
 10
0.0416125086326567
 20
0.3345365287253612
 30
0.0
 11
0.0008966585547306
 21
0.1023676891381012
 31
0.0
210
0.0
220
0.0
230
1.0
 40
0.3907333049937816
 41
0.0034222352535223
 42
0.4904965098621105
  0
ELLIPSE
  5
A4
330
64
100
AcDbEntity
  8
OBJ
100
AcDbEllipse
 10
0.1128874528134425
 20
0.4873648285474498
 30
0.0
 11
0.04
 21
0.0
 31
0.0
210
0.0
220
0.0
230
1.0
 40
0.3826834323651058
 41
3.141592653589802
 42
3.35013753566997
  0
ELLIPSE
  5
A5
330
64
100
AcDbEntity
  8
OBJ
100
AcDbEllipse
 10
0.1098780453269406
 20
0.4835563313437003
 30
0.0
 11
-0.0361242064468147
 21
-0.0000000000000144
 31
0.0
210
0.0
220
0.0
230
1.0
 40
0.3826834323651054
 41
6.283014146116087
 42
6.319432234753613
  0
ELLIPSE
  5
A6
330
64
100
AcDbEntity
  8
OBJ
100
AcDbEllipse
 10
0.1099208355925505
 20
0.5792271880335838
 30
0.0
 11
-0.0361242064468147
 21
-0.0000000000000144
 31
0.0
210
0.0
220
0.0
230
1.0
 40
0.3826834323651054
 41
4.712217819321777
 42
6.283014146116705
  0
ELLIPSE
  5
A7
330
64
100
AcDbEntity
  8
OBJ
100
AcDbEllipse
 10
0.2349062201540626
 20
0.4300725648318064
 30
0.0
 11
0.1311222246487364
 21
0.000024292148737
 31
0.0
210
0.0
220
0.0
230
1.0
 40
0.3826833996934617
 41
1.726539011354754
 42
1.762561700631992
  0
ELLIPSE
  5
A8
330
64
100
AcDbEntity
  8
OBJ
100
AcDbEllipse
 10
0.2349062201540626
 20
0.4300725648318064
 30
0.0
 11
0.1311222246487364
 21
0.000024292148737
 31
0.0
210
0.0
220
0.0
230
1.0
 40
0.3826833996934617
 41
1.378889158500002
 42
1.414764685697874
  0
SPLINE
  5
A9
330
64
100
AcDbEntity
  8
OBJ
100
AcDbSpline
210
0.0
220
0.0
230
1.0
 70
     8
 71
     1
 72
    24
 73
    22
 74
     0
 42
0.0000000001
 43
0.0000000001
 40
3.100970596849404
 40
3.100970596849404
 40
3.246074648715811
 40
3.391178700582218
 40
3.549038285726863
 40
3.70689787087151
 40
3.870523790029461
 40
4.034149709187413
 40
4.196215748717536
 40
4.358281788247658
 40
4.519513378006593
 40
4.680744967765531
 40
4.841733206789101
 40
5.002721445812671
 40
5.163868897513202
 40
5.325016349213731
 40
5.486847224732688
 40
5.648678100251642
 40
5.811999146015391
 40
5.975320191779139
 40
6.136009636948018
 40
6.296699082116897
 40
6.323665569468387
 40
6.323665569468387
 10
0.4903101366851425
 20
0.4620274973884008
 30
0.0
 10
0.4909970959469129
 20
0.4702854594777249
 30
0.0
 10
0.4947039036888762
 20
0.4782333540011541
 30
0.0
 10
0.5018542741823957
 20
0.4862728197221485
 30
0.0
 10
0.5119691953805621
 20
0.4935995044892262
 30
0.0
 10
0.525306805446224
 20
0.5003579765482256
 30
0.0
 10
0.5412209114745857
 20
0.506150281089993
 30
0.0
 10
0.5591300521280722
 20
0.510814224503613
 30
0.0
 10
0.578724050434861
 20
0.5143031732420901
 30
0.0
 10
0.5993950400832695
 20
0.5165255891952995
 30
0.0
 10
0.6207157403724218
 20
0.5174488022181098
 30
0.0
 10
0.642111584411996
 20
0.5170518744293445
 30
0.0
 10
0.6630714475856117
 20
0.5153468554689189
 30
0.0
 10
0.6830836308333979
 20
0.5123714884463598
 30
0.0
 10
0.7016218585936578
 20
0.5081978602604478
 30
0.0
 10
0.7182882996414472
 20
0.5028978029927549
 30
0.0
 10
0.7325874382140292
 20
0.4966017991687625
 30
0.0
 10
0.7442645803050461
 20
0.4893581935141757
 30
0.0
 10
0.7528788115842568
 20
0.4813206858633105
 30
0.0
 10
0.758075316718692
 20
0.4727127662077823
 30
0.0
 10
0.7596601695916441
 20
0.4636164446598139
 30
0.0
 10
0.7595515815151864
 20
0.4620773779726468
 30
0.0
  0
SPLINE
  5
AA
330
64
100
AcDbEntity
  8
OBJ
100
AcDbSpline
210
0.0
220
0.0
230
1.0
 70
    24
 71
     1
 72
     4
 73
     2
 74
     0
 42
0.0000000001
 43
0.0000000001
 40
0.0362469275738225
 40
0.0362469275738225
 40
0.0929614187770666
 40
0.0929614187770666
 10
0.3906564468850071
 20
0.4268748528324755
 30
0.0
 10
0.3901679854448225
 20
0.4251007794276013
 30
0.0
  0
ELLIPSE
  5
AB
330
64
100
AcDbEntity
  8
OBJ
100
AcDbEllipse
 10
0.3598780416649312
 20
0.4835399562180749
 30
0.0
 11
-0.0361242064468147
 21
-0.0000000000000144
 31
0.0
210
0.0
220
0.0
230
1.0
 40
0.3826834323651054
 41
3.105345726015766
 42
3.141421492525984
  0
SPLINE
  5
AC
330
64
100
AcDbEntity
  8
OBJ
100
AcDbSpline
210
0.0
220
0.0
230
1.0
 70
     8
 71
     1
 72
     5
 73
     3
 74
     0
 42
0.0000000001
 43
0.0000000001
 40
3.048121165388021
 40
3.048121165388021
 40
3.101860621457188
 40
3.105345726016095
 40
3.105345726016095
 10
0.4696803848270328
 20
0.4251555899885872
 30
0.0
 10
0.4691418872522243
 20
0.4267735903800684
 30
0.0
 10
0.4691302037529006
 20
0.4268912279592804
 30
0.0
  0
ELLIPSE
  5
AD
330
64
100
AcDbEntity
  8
OBJ
100
AcDbEllipse
 10
0.4999086089730193
 20
0.4835563313448584
 30
0.0
 11
-0.0361242064468147
 21
0.0000000000000364
 31
0.0
210
0.0
220
0.0
230
1.0
 40
0.3826834323653294
 41
6.283014146116556
 42
6.319432234753619
  0
ELLIPSE
  5
AE
330
64
100
AcDbEntity
  8
OBJ
100
AcDbEllipse
 10
0.502935387786213
 20
0.4873648256119081
 30
0.0
 11
0.04
 21
0.0
 31
0.0
210
0.0
220
0.0
230
1.0
 40
0.382683432365329
 41
3.141592653589792
 42
3.348031138744413
  0
ELLIPSE
  5
AF
330
64
100
AcDbEntity
  8
OBJ
100
AcDbEllipse
 10
0.3599208319305269
 20
0.579210812907955
 30
0.0
 11
-0.0361242064468147
 21
-0.0000000000000144
 31
0.0
210
0.0
220
0.0
230
1.0
 40
0.3826834323651054
 41
3.141421492526106
 42
4.712217819321777
  0
ELLIPSE
  5
B0
330
64
100
AcDbEntity
  8
OBJ
100
AcDbEllipse
 10
0.4999513992386291
 20
0.579227188034797
 30
0.0
 11
-0.0361242064468147
 21
0.0000000000000364
 31
0.0
210
0.0
220
0.0
230
1.0
 40
0.3826834323653294
 41
4.712217819322262
 42
6.283014146117151
  0
ELLIPSE
  5
B1
330
64
100
AcDbEntity
  8
OBJ
100
AcDbEllipse
 10
0.6249367837999991
 20
0.4300725648328525
 30
0.0
 11
0.1311222246487364
 21
0.0000242921485527
 31
0.0
210
0.0
220
0.0
230
1.0
 40
0.3826833996936858
 41
1.378889158500533
 42
1.415015689109734
  0
ELLIPSE
  5
B2
330
64
100
AcDbEntity
  8
OBJ
100
AcDbEllipse
 10
0.6249367837999991
 20
0.4300725648328525
 30
0.0
 11
0.1311222246487364
 21
0.0000242921485527
 31
0.0
210
0.0
220
0.0
230
1.0
 40
0.3826833996936858
 41
1.726790114206709
 42
1.762561700632413
  0
SPLINE
  5
B3
330
64
100
AcDbEntity
  8
OBJ
100
AcDbSpline
210
0.0
220
0.0
230
1.0
 70
    24
 71
     1
 72
     4
 73
     2
 74
     0
 42
0.0000000001
 43
0.0000000001
 40
0.0362469275744681
 40
0.0362469275744681
 40
0.0929614188031877
 40
0.0929614188031877
 10
0.7806870105310148
 20
0.4268748528332928
 30
0.0
 10
0.780198549090617
 20
0.4251007794276225
 30
0.0
  0
ELLIPSE
  5
B4
330
64
100
AcDbEntity
  8
OBJ
100
AcDbEllipse
 10
0.7499086053110098
 20
0.483539956218933
 30
0.0
 11
-0.0361242064468147
 21
0.0000000000000364
 31
0.0
210
0.0
220
0.0
230
1.0
 40
0.3826834323653294
 41
3.105345726015666
 42
3.141421492526431
  0
ELLIPSE
  5
B5
330
64
100
AcDbEntity
  8
OBJ
100
AcDbEllipse
 10
0.7469180164596203
 20
0.4873648256119081
 30
0.0
 11
0.04
 21
0.0
 31
0.0
210
0.0
220
0.0
230
1.0
 40
0.382683432365329
 41
6.072447571447773
 42
6.283185307179585
  0
ELLIPSE
  5
B6
330
64
100
AcDbEntity
  8
OBJ
100
AcDbEllipse
 10
0.7499513955766198
 20
0.5792108129088698
 30
0.0
 11
-0.0361242064468147
 21
0.0000000000000364
 31
0.0
210
0.0
220
0.0
230
1.0
 40
0.3826834323653294
 41
3.141421492526586
 42
4.712217819321868
  0
SPLINE
  5
B7
330
64
100
AcDbEntity
  8
OBJ
100
AcDbSpline
210
0.0
220
0.0
230
1.0
 70
     8
 71
     1
 72
     5
 73
     3
 74
     0
 42
0.0000000001
 43
0.0000000001
 40
3.048121165417465
 40
3.048121165417465
 40
3.101860621457123
 40
3.105345726016101
 40
3.105345726016101
 10
0.8597117100115987
 20
0.4251555899885268
 30
0.0
 10
0.8591732124370885
 20
0.4267735903791198
 30
0.0
 10
0.8591615289377648
 20
0.4268912279583354
 30
0.0
  0
ELLIPSE
  5
B8
330
64
100
AcDbEntity
  8
OBJ
100
AcDbEllipse
 10
0.8929493416444849
 20
0.4873648285474479
 30
0.0
 11
0.04
 21
0.0
 31
0.0
210
0.0
220
0.0
230
1.0
 40
0.3826834323651058
 41
3.141592653589802
 42
3.350137535659778
  0
ELLIPSE
  5
B9
330
64
100
AcDbEntity
  8
OBJ
100
AcDbEllipse
 10
0.8899399341578835
 20
0.483556331343917
 30
0.0
 11
-0.0361242064468147
 21
0.0000000000000363
 31
0.0
210
0.0
220
0.0
230
1.0
 40
0.3826834323651056
 41
6.28301414611668
 42
6.319432234753706
  0
ELLIPSE
  5
BA
330
64
100
AcDbEntity
  8
OBJ
100
AcDbEllipse
 10
1.014968108984862
 20
0.4300725648318739
 30
0.0
 11
0.1311222246487364
 21
0.000024292148553
 31
0.0
210
0.0
220
0.0
230
1.0
 40
0.382683399693462
 41
1.727047511286223
 42
1.762561700632514
  0
ELLIPSE
  5
BB
330
64
100
AcDbEntity
  8
OBJ
100
AcDbEllipse
 10
0.8899827244234932
 20
0.5792271880338005
 30
0.0
 11
-0.0361242064468147
 21
0.0000000000000363
 31
0.0
210
0.0
220
0.0
230
1.0
 40
0.3826834323651056
 41
4.712217819321992
 42
6.283014146117296
  0
SPLINE
  5
BC
330
64
100
AcDbEntity
  8
OBJ
100
AcDbSpline
210
0.0
220
0.0
230
1.0
 70
     8
 71
     1
 72
    24
 73
    22
 74
     0
 42
0.0000000001
 43
0.0000000001
 40
3.10104149001699
 40
3.10104149001699
 40
3.246145544602281
 40
3.391249599187572
 40
3.549109183641698
 40
3.706968768095826
 40
3.870594686784266
 40
4.034220605472706
 40
4.196286644999233
 40
4.358352684525758
 40
4.519584274336849
 40
4.680815864147938
 40
4.841804103226511
 40
5.002792342305082
 40
5.163939794057545
 40
5.325087245810009
 40
5.486918121343438
 40
5.648748996876865
 40
5.812070042343544
 40
5.975391087810219
 40
6.136080531903858
 40
6.296769975997496
 40
6.323736470752327
 40
6.323736470752327
 10
1.270202599897405
 20
0.4620216265370704
 30
0.0
 10
1.270891088988225
 20
0.4702794619235632
 30
0.0
 10
1.274599369149672
 20
0.4782266703104689
 30
0.0
 10
1.281751228903619
 20
0.4862648118085576
 30
0.0
 10
1.29186750725515
 20
0.493589623115475
 30
0.0
 10
1.305206369157023
 20
0.5003456246512466
 30
0.0
 10
1.321121547971987
 20
0.5061349812794136
 30
0.0
 10
1.339031552378717
 20
0.5107956071128852
 30
0.0
 10
1.358626196728824
 20
0.5142809260479906
 30
0.0
 10
1.379297597769738
 20
0.5164995125842813
 30
0.0
 10
1.400618468748636
 20
0.5174187757324349
 30
0.0
 10
1.422014238906147
 20
0.5170178840559077
 30
0.0
 10
1.442973785866318
 20
0.5153089818879293
 30
0.0
 10
1.4629854175696
 20
0.5123299071395673
 30
0.0
 10
1.481522871818189
 20
0.5081528442138774
 30
0.0
 10
1.498188330697149
 20
0.5028496989021205
 30
0.0
 10
1.512486302628051
 20
0.496551045539257
 30
0.0
 10
1.524162102540361
 20
0.4893052760578868
 30
0.0
 10
1.532774844605799
 20
0.4812661719914937
 30
0.0
 10
1.537969754879926
 20
0.4726572891639275
 30
0.0
 10
1.539552922540169
 20
0.463560673604616
 30
0.0
 10
1.539444049303629
 20
0.4620216265370721
 30
0.0
  0
ELLIPSE
  5
BD
330
64
100
AcDbEntity
  8
OBJ
100
AcDbEllipse
 10
1.139982720761484
 20
0.5792108129078734
 30
0.0
 11
-0.0361242064468147
 21
0.0000000000000363
 31
0.0
210
0.0
220
0.0
230
1.0
 40
0.3826834323651056
 41
3.141421492526708
 42
4.712217819321598
  0
ELLIPSE
  5
BE
330
64
100
AcDbEntity
  8
OBJ
100
AcDbEllipse
 10
1.014968108984862
 20
0.4300725648318739
 30
0.0
 11
0.1311222246487364
 21
0.000024292148553
 31
0.0
210
0.0
220
0.0
230
1.0
 40
0.382683399693462
 41
1.378889158500416
 42
1.415272909103764
  0
SPLINE
  5
BF
330
64
100
AcDbEntity
  8
OBJ
100
AcDbSpline
210
0.0
220
0.0
230
1.0
 70
    24
 71
     1
 72
     4
 73
     2
 74
     0
 42
0.0000000001
 43
0.0000000001
 40
0.0362469275744479
 40
0.0362469275744479
 40
0.0929614187736757
 40
0.0929614187736757
 10
1.170718335715879
 20
0.4268748528323476
 30
0.0
 10
1.170229874275737
 20
0.4251007794275994
 30
0.0
  0
ELLIPSE
  5
C0
330
64
100
AcDbEntity
  8
OBJ
100
AcDbEllipse
 10
1.279813918944813
 20
0.4835452854242021
 30
0.0
 11
-0.0361242058268777
 21
0.000006692493227
 31
0.0
210
0.0
220
0.0
230
1.0
 40
0.3826834538255973
 41
6.283085043351848
 42
6.319432237136124
  0
ELLIPSE
  5
C1
330
64
100
AcDbEntity
  8
OBJ
100
AcDbEllipse
 10
1.139939930495873
 20
0.4835399562179933
 30
0.0
 11
-0.0361242064468147
 21
0.0000000000000363
 31
0.0
210
0.0
220
0.0
230
1.0
 40
0.3826834323651056
 41
3.105345726015839
 42
3.141421492526554
  0
ELLIPSE
  5
C2
330
64
100
AcDbEntity
  8
OBJ
100
AcDbEllipse
 10
1.282840697713697
 20
0.4873533013294146
 30
0.0
 11
0.0399999993135495
 21
-0.0000074105358693
 31
0.0
210
0.0
220
0.0
230
1.0
 40
0.3826834538255959
 41
3.141663550824962
 42
3.348102035979741
  0
SPLINE
  5
C3
330
64
100
AcDbEntity
  8
OBJ
100
AcDbSpline
210
0.0
220
0.0
230
1.0
 70
     8
 71
     1
 72
     5
 73
     3
 74
     0
 42
0.0000000001
 43
0.0000000001
 40
3.048360340867348
 40
3.048360340867348
 40
3.101925485436305
 40
3.105416620871191
 40
3.105416620871191
 10
1.249573176840615
 20
0.4251552110501847
 30
0.0
 10
1.249036699081304
 20
0.426768042496332
 30
0.0
 10
1.249025016286114
 20
0.4268858856120456
 30
0.0
  0
ELLIPSE
  5
C4
330
64
100
AcDbEntity
  8
OBJ
100
AcDbEllipse
 10
1.279856709210424
 20
0.579216142114082
 30
0.0
 11
-0.0361242058268777
 21
0.000006692493227
 31
0.0
210
0.0
220
0.0
230
1.0
 40
0.3826834538255973
 41
4.712288716557101
 42
6.283085043352412
  0
ELLIPSE
  5
C5
330
64
100
AcDbEntity
  8
OBJ
100
AcDbEllipse
 10
1.404823324600517
 20
0.4300417540271573
 30
0.0
 11
0.1311222268989594
 21
0.0000000000000001
 31
0.0
210
0.0
220
0.0
230
1.0
 40
0.3826834323650894
 41
1.726155695557418
 42
1.762632597860821
  0
ELLIPSE
  5
C6
330
64
100
AcDbEntity
  8
OBJ
100
AcDbEllipse
 10
1.404823324600517
 20
0.4300417540271573
 30
0.0
 11
0.1311222268989594
 21
0.0000000000000001
 31
0.0
210
0.0
220
0.0
230
1.0
 40
0.3826834323650894
 41
1.378960055728859
 42
1.413874856747351
  0
SPLINE
  5
C7
330
64
100
AcDbEntity
  8
OBJ
100
AcDbSpline
210
0.0
220
0.0
230
1.0
 70
    24
 71
     1
 72
     4
 73
     2
 74
     0
 42
0.0000000001
 43
0.0000000001
 40
0.0363178271946409
 40
0.0363178271946409
 40
0.091283474148555
 40
0.091283474148555
 10
1.560581818340511
 20
0.4268185732121994
 30
0.0
 10
1.560108100546234
 20
0.4250992927970385
 30
0.0
  0
ELLIPSE
  5
C8
330
64
100
AcDbEntity
  8
OBJ
100
AcDbEllipse
 10
1.529813911620794
 20
0.4834893772482111
 30
0.0
 11
-0.0361242058268777
 21
0.000006692493227
 31
0.0
210
0.0
220
0.0
230
1.0
 40
0.3826834538255973
 41
3.105345723633353
 42
3.141492389761658
  0
ELLIPSE
  5
C9
330
64
100
AcDbEntity
  8
OBJ
100
AcDbEllipse
 10
1.526823322813231
 20
0.4873147198200797
 30
0.0
 11
0.0399999993135495
 21
-0.0000074105358693
 31
0.0
210
0.0
220
0.0
230
1.0
 40
0.3826834538255959
 41
6.072518468684696
 42
6.283256204414755
  0
ELLIPSE
  5
CA
330
64
100
AcDbEntity
  8
OBJ
100
AcDbEllipse
 10
1.598224285825299
 20
0.3345365287253612
 30
0.0
 11
-0.0008966585547306
 21
0.1023676891381015
 31
0.0
210
0.0
220
0.0
230
1.0
 40
0.3907333049937804
 41
5.792688797317476
 42
6.279763071926062
  0
ELLIPSE
  5
CB
330
64
100
AcDbEntity
  8
OBJ
100
AcDbEllipse
 10
1.529856701886405
 20
0.5791602339380875
 30
0.0
 11
-0.0361242058268777
 21
0.000006692493227
 31
0.0
210
0.0
220
0.0
230
1.0
 40
0.3826834538255973
 41
3.141492389761812
 42
4.712288716557101
  0
ARC
  5
CC
330
64
100
AcDbEntity
  8
OBJ
100
AcDbCircle
 10
0.0470708456527724
 20
0.9599999998115942
 30
0.0
 40
0.04
100
AcDbArc
 50
90.0
 51
179.5000000000013
  0
LINE
  5
CD
330
64
100
AcDbEntity
  8
OBJ
100
AcDbLine
 10
0.0399939024406457
 20
0.4249999998115765
 30
0.0
 11
-0.0000000053656173
 21
0.4249999998115729
 31
0.0
  0
ARC
  5
CE
330
64
100
AcDbEntity
  8
OBJ
100
AcDbCircle
 10
0.0467262877535042
 20
0.0399999998115783
 30
0.0
 40
0.0400000000000001
100
AcDbArc
 50
180.9999999999993
 51
270.0
  0
ARC
  5
CF
330
64
100
AcDbEntity
  8
OBJ
100
AcDbCircle
 10
0.0270723424911985
 20
0.0199999998115752
 30
0.0
 40
0.0200000000000002
100
AcDbArc
 50
180.9999999999988
 51
270.0000000000406
  0
LINE
  5
D0
330
64
100
AcDbEntity
  8
OBJ
100
AcDbLine
 10
0.0037327615469884
 20
0.2111499266125323
 30
0.0
 11
-0.0000000053656173
 21
0.4249999998115729
 31
0.0
  0
LINE
  5
D1
330
64
100
AcDbEntity
  8
OBJ
100
AcDbLine
 10
0.0067323799472554
 20
0.0393019035540894
 30
0.0
 11
0.0037327615469884
 21
0.2111499266125323
 31
0.0
  0
LINE
  5
D2
330
64
100
AcDbEntity
  8
OBJ
100
AcDbLine
 10
0.007075388588067
 20
0.0196509516828298
 30
0.0
 11
0.0067323799472412
 21
0.0393019035540876
 31
0.0
  0
LINE
  5
D3
330
64
100
AcDbEntity
  8
OBJ
100
AcDbLine
 10
0.0016003376707552
 20
0.3333164086620508
 30
0.0
 11
0.0013095897754489
 21
0.2999999998115887
 31
0.0
  0
LINE
  5
D4
330
64
100
AcDbEntity
  8
OBJ
100
AcDbLine
 10
0.0013095897754489
 20
0.2999999998115887
 30
0.0
 11
0.0021818777504059
 21
0.2999999998115887
 31
0.0
  0
LINE
  5
D5
330
64
100
AcDbEntity
  8
OBJ
100
AcDbLine
 10
0.0070723687302099
 20
0.960349061231528
 30
0.0
 11
0.0024004482492934
 21
0.4249999998115765
 31
0.0
  0
LINE
  5
D6
330
64
100
AcDbEntity
  8
OBJ
100
AcDbLine
 10
0.8457563745798957
 20
0.6007278162844552
 30
0.0
 11
1.184080419878031
 21
0.6007278162844552
 31
0.0
  0
LINE
  5
D7
330
64
100
AcDbEntity
  8
OBJ
100
AcDbLine
 10
0.845519937210131
 20
0.627820855325667
 30
0.0
 11
1.184316857250028
 21
0.6278208555799099
 31
0.0
  0
LINE
  5
D8
330
64
100
AcDbEntity
  8
OBJ
100
AcDbLine
 10
1.139988903819047
 20
0.59303494801991
 30
0.0
 11
0.8899889074810579
 21
0.5930513231458372
 31
0.0
  0
LINE
  5
D9
330
64
100
AcDbEntity
  8
OBJ
100
AcDbLine
 10
0.9999183972289138
 20
0.4849999998114365
 30
0.0
 11
0.9518232147336542
 21
0.4369048173162833
 31
0.0
  0
LINE
  5
DA
330
64
100
AcDbEntity
  8
OBJ
100
AcDbLine
 10
0.9518232147336542
 20
0.4369048173162852
 30
0.0
 11
1.078013579724032
 21
0.4369048173162852
 31
0.0
  0
LINE
  5
DB
330
64
100
AcDbEntity
  8
OBJ
100
AcDbLine
 10
0.0470708456527724
 20
0.9999999998115931
 30
0.0
 11
1.592765948805183
 21
0.9999999998115931
 31
0.0
  0
LINE
  5
DC
330
64
100
AcDbEntity
  8
OBJ
100
AcDbLine
 10
0.8645723398967566
 20
-0.0000000001884208
 30
0.0
 11
0.3852644493721193
 21
-0.0000000001884208
 31
0.0
  0
LINE
  5
DD
330
64
100
AcDbEntity
  8
OBJ
100
AcDbLine
 10
0.0633285331969127
 20
0.0910831005656023
 30
0.0
 11
0.0618311758501484
 21
0.1768666455094054
 31
0.0
  0
LINE
  5
DE
330
64
100
AcDbEntity
  8
OBJ
100
AcDbLine
 10
0.0633285331969127
 20
0.0910831005656041
 30
0.0
 11
0.0636449680836684
 21
0.0729545580441284
 31
0.0
  0
LINE
  5
DF
330
64
100
AcDbEntity
  8
OBJ
100
AcDbLine
 10
0.0951803189866532
 20
-0.0000000001884191
 30
0.0
 11
0.0845723398967415
 21
-0.0000000001884191
 31
0.0
  0
LINE
  5
E0
330
64
100
AcDbEntity
  8
OBJ
100
AcDbLine
 10
0.0645488122395683
 20
0.0211733610326102
 30
0.0
 11
0.0645753859936242
 21
0.0196509516828352
 31
0.0
  0
ARC
  5
E1
330
64
100
AcDbEntity
  8
OBJ
100
AcDbCircle
 10
0.0845723398967415
 20
0.0199999998115805
 30
0.0
 40
0.0200000000000001
100
AcDbArc
 50
181.0000000000038
 51
270.0
  0
LINE
  5
E2
330
64
100
AcDbEntity
  8
OBJ
100
AcDbLine
 10
0.0845723398967415
 20
-0.0000000001884208
 30
0.0
 11
0.0467262877535042
 21
-0.0000000001884208
 31
0.0
  0
LINE
  5
E3
330
64
100
AcDbEntity
  8
OBJ
100
AcDbLine
 10
0.0270723424911985
 20
-0.0000000001884262
 30
0.0
 11
0.0467262877535042
 21
-0.0000000001884262
 31
0.0
  0
LINE
  5
E4
330
64
100
AcDbEntity
  8
OBJ
100
AcDbLine
 10
0.1049183972287899
 20
0.0068380025042378
 30
0.0
 11
0.1049183972288041
 21
0.0276235903975541
 31
0.0
  0
LINE
  5
E5
330
64
100
AcDbEntity
  8
OBJ
100
AcDbLine
 10
0.0949183972293817
 20
0.054826015522381
 30
0.0
 11
0.0949183972287848
 21
0.0030448185111327
 31
0.0
  0
LINE
  5
E6
330
64
100
AcDbEntity
  8
OBJ
100
AcDbLine
 10
0.0645488122395825
 20
0.0211733610326102
 30
0.0
 11
0.0636449680836826
 21
0.0729545580438584
 31
0.0
  0
LINE
  5
E7
330
64
100
AcDbEntity
  8
OBJ
100
AcDbLine
 10
0.2454674012608855
 20
0.1129096307633413
 30
0.0
 11
0.2460326779237256
 21
0.1776839205080547
 31
0.0
  0
LINE
  5
E8
330
64
100
AcDbEntity
  8
OBJ
100
AcDbLine
 10
0.2739447132205761
 20
0.1615731359662069
 30
0.0
 11
0.274350371116828
 21
0.1150893452217856
 31
0.0
  0
LINE
  5
E9
330
64
100
AcDbEntity
  8
OBJ
100
AcDbLine
 10
0.364918397228795
 20
0.0276235903976021
 30
0.0
 11
0.364918397228795
 21
0.0068380025246535
 31
0.0
  0
LINE
  5
EA
330
64
100
AcDbEntity
  8
OBJ
100
AcDbLine
 10
0.4080056134187126
 20
0.1768666455094072
 30
0.0
 11
0.4065082560719482
 21
0.0910831005655064
 31
0.0
  0
LINE
  5
EB
330
64
100
AcDbEntity
  8
OBJ
100
AcDbLine
 10
0.4061918211851925
 20
0.0729545580440325
 30
0.0
 11
0.4065082560719482
 21
0.0910831005655082
 31
0.0
  0
LINE
  5
EC
330
64
100
AcDbEntity
  8
OBJ
100
AcDbLine
 10
0.4438279707800953
 20
0.1749504946336993
 30
0.0
 11
0.4160088236775046
 21
0.1749504946336993
 31
0.0
  0
LINE
  5
ED
330
64
100
AcDbEntity
  8
OBJ
100
AcDbLine
 10
0.4160083205468405
 20
0.1748928415695721
 30
0.0
 11
0.4160088236775046
 21
0.1749504946336993
 31
0.0
  0
LINE
  5
EE
330
64
100
AcDbEntity
  8
OBJ
100
AcDbLine
 10
0.4438279707800953
 20
0.1749504946336993
 30
0.0
 11
0.4438284739107595
 21
0.1748928415695721
 31
0.0
  0
LINE
  5
EF
330
64
100
AcDbEntity
  8
OBJ
100
AcDbLine
 10
0.3749183972287859
 20
0.0030448185111309
 30
0.0
 11
0.3749183972287433
 21
0.0548260155223668
 31
0.0
  0
LINE
  5
F0
330
64
100
AcDbEntity
  8
OBJ
100
AcDbLine
 10
0.4052614032752368
 20
0.0196509516828352
 30
0.0
 11
0.4052879770292927
 21
0.0211733610326102
 31
0.0
  0
ARC
  5
F1
330
64
100
AcDbEntity
  8
OBJ
100
AcDbCircle
 10
0.3852644493721193
 20
0.0199999998115805
 30
0.0
 40
0.02
100
AcDbArc
 50
270.0
 51
359.0000000000009
  0
LINE
  5
F2
330
64
100
AcDbEntity
  8
OBJ
100
AcDbLine
 10
0.3852644493721193
 20
-0.0000000001884191
 30
0.0
 11
0.374656475211868
 21
-0.0000000001884191
 31
0.0
  0
LINE
  5
F3
330
64
100
AcDbEntity
  8
OBJ
100
AcDbLine
 10
0.4061918211851925
 20
0.0729545580438442
 30
0.0
 11
0.4052879770292927
 21
0.0211733610326102
 31
0.0
  0
LINE
  5
F4
330
64
100
AcDbEntity
  8
OBJ
100
AcDbLine
 10
0.6291329791276219
 20
0.1399999998116028
 30
0.0
 11
0.7408702166185499
 21
0.1399999998116028
 31
0.0
  0
LINE
  5
F5
330
64
100
AcDbEntity
  8
OBJ
100
AcDbLine
 10
0.6949183972289639
 20
0.1499999998115831
 30
0.0
 11
0.7381188996173941
 21
0.1499999998115831
 31
0.0
  0
LINE
  5
F6
330
64
100
AcDbEntity
  8
OBJ
100
AcDbLine
 10
0.4949183972287763
 20
0.1255392344543589
 30
0.0
 11
0.4949183972287763
 21
0.1191987277431084
 31
0.0
  0
LINE
  5
F7
330
64
100
AcDbEntity
  8
OBJ
100
AcDbLine
 10
0.6004737138594614
 20
0.113632982913777
 30
0.0
 11
0.6010043608751126
 21
0.1744391081332361
 31
0.0
  0
LINE
  5
F8
330
64
100
AcDbEntity
  8
OBJ
100
AcDbLine
 10
0.5089665778390221
 20
0.1399999998116028
 30
0.0
 11
0.5249183972287776
 21
0.1399999998116028
 31
0.0
  0
LINE
  5
F9
330
64
100
AcDbEntity
  8
OBJ
100
AcDbLine
 10
0.6949183972289639
 20
0.1499999998115831
 30
0.0
 11
0.6413326450551759
 21
0.1499999998115831
 31
0.0
  0
LINE
  5
FA
330
64
100
AcDbEntity
  8
OBJ
100
AcDbLine
 10
0.628825125156272
 20
0.1752765708249191
 30
0.0
 11
0.6293705702564587
 21
0.1127747530746328
 31
0.0
  0
LINE
  5
FB
330
64
100
AcDbEntity
  8
OBJ
100
AcDbLine
 10
0.6441639037216369
 20
0.1499999998115831
 30
0.0
 11
0.6439893530723461
 21
0.1399999998116028
 31
0.0
  0
LINE
  5
FC
330
64
100
AcDbEntity
  8
OBJ
100
AcDbLine
 10
0.6411153421542544
 20
0.1749004458961911
 30
0.0
 11
0.6413326450551616
 21
0.1499999998115831
 31
0.0
  0
LINE
  5
FD
330
64
100
AcDbEntity
  8
OBJ
100
AcDbLine
 10
0.8338279707800957
 20
0.1749504946338574
 30
0.0
 11
0.8060088236774909
 21
0.1749504946338574
 31
0.0
  0
LINE
  5
FE
330
64
100
AcDbEntity
  8
OBJ
100
AcDbLine
 10
0.8060083205468265
 20
0.1748928415695721
 30
0.0
 11
0.8060088236774909
 21
0.1749504946336939
 31
0.0
  0
LINE
  5
FF
330
64
100
AcDbEntity
  8
OBJ
100
AcDbLine
 10
0.7549183972287814
 20
0.1191987277431084
 30
0.0
 11
0.7549183972287814
 21
0.1255392344543589
 31
0.0
  0
LINE
  5
100
330
64
100
AcDbEntity
  8
OBJ
100
AcDbLine
 10
0.8338279707800957
 20
0.1749504946336993
 30
0.0
 11
0.8338284739107598
 21
0.1748928415695721
 31
0.0
  0
LINE
  5
101
330
64
100
AcDbEntity
  8
OBJ
100
AcDbLine
 10
0.8433285331969138
 20
0.0910831005653572
 30
0.0
 11
0.8418311758501495
 21
0.1768666455094072
 31
0.0
  0
LINE
  5
102
330
64
100
AcDbEntity
  8
OBJ
100
AcDbLine
 10
0.8433285331969278
 20
0.091083100565359
 30
0.0
 11
0.8436449680836837
 21
0.0729545580438815
 31
0.0
  0
LINE
  5
103
330
64
100
AcDbEntity
  8
OBJ
100
AcDbLine
 10
0.8849183972288335
 20
0.0068380025044883
 30
0.0
 11
0.8849183972288335
 21
0.0276235903975772
 31
0.0
  0
LINE
  5
104
330
64
100
AcDbEntity
  8
OBJ
100
AcDbLine
 10
0.8749183972293399
 20
0.0548260155223419
 30
0.0
 11
0.8749183972287859
 21
0.0030448185111309
 31
0.0
  0
LINE
  5
105
330
64
100
AcDbEntity
  8
OBJ
100
AcDbLine
 10
0.8445488122395692
 20
0.0211733610326102
 30
0.0
 11
0.8445753859936251
 21
0.0196509516828352
 31
0.0
  0
ARC
  5
106
330
64
100
AcDbEntity
  8
OBJ
100
AcDbCircle
 10
0.8645723398967566
 20
0.0199999998115805
 30
0.0
 40
0.02
100
AcDbArc
 50
181.0000000000038
 51
270.0
  0
LINE
  5
107
330
64
100
AcDbEntity
  8
OBJ
100
AcDbLine
 10
0.8751803189866683
 20
-0.0000000001884191
 30
0.0
 11
0.8645723398967566
 21
-0.0000000001884191
 31
0.0
  0
LINE
  5
108
330
64
100
AcDbEntity
  8
OBJ
100
AcDbLine
 10
0.8445488122395834
 20
0.0211733610326102
 30
0.0
 11
0.8436449680836837
 21
0.0729545580438229
 31
0.0
  0
LINE
  5
109
330
64
100
AcDbEntity
  8
OBJ
100
AcDbLine
 10
0.4557563745799095
 20
0.6007278162844552
 30
0.0
 11
0.7940804198780321
 21
0.6007278162844552
 31
0.0
  0
LINE
  5
10A
330
64
100
AcDbEntity
  8
OBJ
100
AcDbLine
 10
0.4555199372126886
 20
0.627820855032998
 30
0.0
 11
0.7943168572474697
 21
0.6278208552872409
 31
0.0
  0
LINE
  5
10B
330
64
100
AcDbEntity
  8
OBJ
100
AcDbLine
 10
0.549918397228698
 20
0.4249999998115781
 30
0.0
 11
0.3099183972292145
 21
0.4249999998115781
 31
0.0
  0
LINE
  5
10C
330
64
100
AcDbEntity
  8
OBJ
100
AcDbLine
 10
0.3599270149880773
 20
0.5930349480199917
 30
0.0
 11
0.1099270186501009
 21
0.5930513231456205
 31
0.0
  0
LINE
  5
10D
330
64
100
AcDbEntity
  8
OBJ
100
AcDbLine
 10
0.0639362863739486
 20
0.6007278162844552
 30
0.0
 11
0.4040804198780316
 21
0.6007278162844552
 31
0.0
  0
LINE
  5
10E
330
64
100
AcDbEntity
  8
OBJ
100
AcDbLine
 10
0.0641727237385972
 20
0.6278208547393183
 30
0.0
 11
0.4043168572449112
 21
0.6278208549945738
 31
0.0
  0
LINE
  5
10F
330
64
100
AcDbEntity
  8
OBJ
100
AcDbLine
 10
0.2980135797245289
 20
0.4369048173162833
 30
0.0
 11
0.2499183972289281
 21
0.4849999998119019
 31
0.0
  0
LINE
  5
110
330
64
100
AcDbEntity
  8
OBJ
100
AcDbLine
 10
0.1718232147331555
 20
0.4369048173162852
 30
0.0
 11
0.2980135797245289
 21
0.4369048173162852
 31
0.0
  0
LINE
  5
111
330
64
100
AcDbEntity
  8
OBJ
100
AcDbLine
 10
0.0625066247208714
 20
0.4369048173159193
 30
0.0
 11
0.0641727237148793
 21
0.6278208520217037
 31
0.0
  0
LINE
  5
112
330
64
100
AcDbEntity
  8
OBJ
100
AcDbLine
 10
0.1599183972284273
 20
0.4249999998115781
 30
0.0
 11
0.0399939024406457
 21
0.4249999998115781
 31
0.0
  0
LINE
  5
113
330
64
100
AcDbEntity
  8
OBJ
100
AcDbLine
 10
0.0728874528134504
 20
0.5742339647577373
 30
0.0
 11
0.0728874528134504
 21
0.487364828547455
 31
0.0
  0
LINE
  5
114
330
64
100
AcDbEntity
  8
OBJ
100
AcDbLine
 10
0.0737945505803062
 20
0.5745810960446473
 30
0.0
 11
0.0728874528134504
 21
0.5742339647577355
 31
0.0
  0
LINE
  5
115
330
64
100
AcDbEntity
  8
OBJ
100
AcDbLine
 10
0.0728874528134504
 20
0.5742339647577373
 30
0.0
 11
0.0728874528134504
 21
0.6007278162844571
 31
0.0
  0
LINE
  5
116
330
64
100
AcDbEntity
  8
OBJ
100
AcDbLine
 10
0.0828874528134414
 20
0.5883968652806511
 30
0.0
 11
0.0828874528134414
 21
0.6007278162844552
 31
0.0
  0
LINE
  5
117
330
64
100
AcDbEntity
  8
OBJ
100
AcDbLine
 10
0.0790996401069073
 20
0.4268912279580778
 30
0.0
 11
0.0737775669913852
 21
0.4830553586286303
 31
0.0
  0
LINE
  5
118
330
64
100
AcDbEntity
  8
OBJ
100
AcDbLine
 10
0.0625066247208572
 20
0.4369048173159193
 30
0.0
 11
0.0624027329524246
 21
0.4249999998115799
 31
0.0
  0
LINE
  5
119
330
64
100
AcDbEntity
  8
OBJ
100
AcDbLine
 10
0.0423722780443576
 20
0.4369048173159193
 30
0.0
 11
0.0625066247208714
 21
0.4369048173159193
 31
0.0
  0
LINE
  5
11A
330
64
100
AcDbEntity
  8
OBJ
100
AcDbLine
 10
0.1042122919304553
 20
0.4249999998115781
 30
0.0
 11
0.1002795730391348
 21
0.4620274973871715
 31
0.0
  0
LINE
  5
11B
330
64
100
AcDbEntity
  8
OBJ
100
AcDbLine
 10
0.0737966296748773
 20
0.5792295541872515
 30
0.0
 11
0.0737538394092674
 21
0.4835586974973767
 31
0.0
  0
LINE
  5
11C
330
64
100
AcDbEntity
  8
OBJ
100
AcDbLine
 10
0.1718232147331555
 20
0.4369048173162815
 30
0.0
 11
0.1599183972284273
 21
0.4249999998115729
 31
0.0
  0
LINE
  5
11D
330
64
100
AcDbEntity
  8
OBJ
100
AcDbLine
 10
0.2199183972289269
 20
0.4849999998119392
 30
0.0
 11
0.1718232147331555
 21
0.4369048173162833
 31
0.0
  0
LINE
  5
11E
330
64
100
AcDbEntity
  8
OBJ
100
AcDbLine
 10
0.2499183972289138
 20
0.4849999998118985
 30
0.0
 11
0.2199183972289127
 21
0.4849999998119411
 31
0.0
  0
LINE
  5
11F
330
64
100
AcDbEntity
  8
OBJ
100
AcDbLine
 10
0.2099069922876602
 20
0.4749885948707134
 30
0.0
 11
0.2099062205205833
 21
0.4793264302266911
 31
0.0
  0
LINE
  5
120
330
64
100
AcDbEntity
  8
OBJ
100
AcDbLine
 10
0.457265786875457
 20
0.4277662988482165
 30
0.0
 11
0.4553469830233219
 21
0.6476394421273099
 31
0.0
  0
LINE
  5
121
330
64
100
AcDbEntity
  8
OBJ
100
AcDbLine
 10
0.4044898114346191
 20
0.6476394421273099
 30
0.0
 11
0.4025710075824841
 21
0.4277662988482113
 31
0.0
  0
LINE
  5
122
330
64
100
AcDbEntity
  8
OBJ
100
AcDbLine
 10
0.3099183972292288
 20
0.4249999998115799
 30
0.0
 11
0.2980135797245289
 21
0.4369048173162833
 31
0.0
  0
LINE
  5
123
330
64
100
AcDbEntity
  8
OBJ
100
AcDbLine
 10
0.2599062197881814
 20
0.4793343368367477
 30
0.0
 11
0.259906219788153
 21
0.475012177252661
 31
0.0
  0
LINE
  5
124
330
64
100
AcDbEntity
  8
OBJ
100
AcDbLine
 10
0.2599062197881814
 20
0.4793343368367477
 30
0.0
 11
0.2599069889031433
 21
0.4750114081376724
 31
0.0
  0
LINE
  5
125
330
64
100
AcDbEntity
  8
OBJ
100
AcDbLine
 10
0.3655968937150114
 20
0.4249999998115781
 30
0.0
 11
0.369521017869193
 21
0.4620773779718066
 31
0.0
  0
LINE
  5
126
330
64
100
AcDbEntity
  8
OBJ
100
AcDbLine
 10
0.4629353877862208
 20
0.5742339647588262
 30
0.0
 11
0.4629353877862208
 21
0.4873648256119081
 31
0.0
  0
LINE
  5
127
330
64
100
AcDbEntity
  8
OBJ
100
AcDbLine
 10
0.3968874528134485
 20
0.502999999811583
 30
0.0
 11
0.4032275621441989
 21
0.502999999811583
 31
0.0
  0
LINE
  5
128
330
64
100
AcDbEntity
  8
OBJ
100
AcDbLine
 10
0.456609232313742
 20
0.5029999998105385
 30
0.0
 11
0.4629353877862208
 21
0.5029999998105385
 31
0.0
  0
LINE
  5
129
330
64
100
AcDbEntity
  8
OBJ
100
AcDbLine
 10
0.3868874528134434
 20
0.6007278162844552
 30
0.0
 11
0.3868874528134434
 21
0.5884092335186688
 31
0.0
  0
LINE
  5
12A
330
64
100
AcDbEntity
  8
OBJ
100
AcDbLine
 10
0.3968874528134485
 20
0.6007278162844552
 30
0.0
 11
0.3968874528134485
 21
0.5742339647577337
 31
0.0
  0
LINE
  5
12B
330
64
100
AcDbEntity
  8
OBJ
100
AcDbLine
 10
0.3968874528134485
 20
0.5742339647577337
 30
0.0
 11
0.3960429574791568
 21
0.5745571391308788
 31
0.0
  0
LINE
  5
12C
330
64
100
AcDbEntity
  8
OBJ
100
AcDbLine
 10
0.4729353877862117
 20
0.5884043597644723
 30
0.0
 11
0.4729353877862117
 21
0.6007278162844552
 31
0.0
  0
LINE
  5
12D
330
64
100
AcDbEntity
  8
OBJ
100
AcDbLine
 10
0.463825111252593
 20
0.5745744471887903
 30
0.0
 11
0.4629353877862208
 21
0.5742339647588262
 31
0.0
  0
LINE
  5
12E
330
64
100
AcDbEntity
  8
OBJ
100
AcDbLine
 10
0.4629353877862208
 20
0.5742339647588262
 30
0.0
 11
0.4629353877862208
 21
0.6007278162844571
 31
0.0
  0
LINE
  5
12F
330
64
100
AcDbEntity
  8
OBJ
100
AcDbLine
 10
0.3906564468849787
 20
0.4268748528324755
 30
0.0
 11
0.3959785200004582
 21
0.4830389835030351
 31
0.0
  0
LINE
  5
130
330
64
100
AcDbEntity
  8
OBJ
100
AcDbLine
 10
0.3916458218072485
 20
0.4249999998115747
 30
0.0
 11
0.3915474071257456
 21
0.4362772053177554
 31
0.0
  0
LINE
  5
131
330
64
100
AcDbEntity
  8
OBJ
100
AcDbLine
 10
0.3937953622759984
 20
0.4599999998116049
 30
0.0
 11
0.4028523068291925
 21
0.4599999998116049
 31
0.0
  0
LINE
  5
132
330
64
100
AcDbEntity
  8
OBJ
100
AcDbLine
 10
0.4064327564127163
 20
0.4249999998115781
 30
0.0
 11
0.4064083230436247
 21
0.427799786592913
 31
0.0
  0
LINE
  5
133
330
64
100
AcDbEntity
  8
OBJ
100
AcDbLine
 10
0.406408323043639
 20
0.427799786592913
 30
0.0
 11
0.4025710075824841
 21
0.4277662988482113
 31
0.0
  0
LINE
  5
134
330
64
100
AcDbEntity
  8
OBJ
100
AcDbLine
 10
0.4028784874325632
 20
0.4629999998105392
 30
0.0
 11
0.3968874528134343
 21
0.4629999998105392
 31
0.0
  0
LINE
  5
135
330
64
100
AcDbEntity
  8
OBJ
100
AcDbLine
 10
0.3940796401442732
 20
0.4629999998105374
 30
0.0
 11
0.3968874528134485
 21
0.4629999998105374
 31
0.0
  0
LINE
  5
136
330
64
100
AcDbEntity
  8
OBJ
100
AcDbLine
 10
0.3968874528134485
 20
0.4690896372096356
 30
0.0
 11
0.3968874528134485
 21
0.4629999998105374
 31
0.0
  0
LINE
  5
137
330
64
100
AcDbEntity
  8
OBJ
100
AcDbLine
 10
0.4691302037529006
 20
0.4268912279592804
 30
0.0
 11
0.4638081306374639
 21
0.4830553586298363
 31
0.0
  0
LINE
  5
138
330
64
100
AcDbEntity
  8
OBJ
100
AcDbLine
 10
0.4681909726503088
 20
0.4249999998115781
 30
0.0
 11
0.4682852896142471
 21
0.4358076533935363
 31
0.0
  0
LINE
  5
139
330
64
100
AcDbEntity
  8
OBJ
100
AcDbLine
 10
0.4569844876287342
 20
0.4599999998116049
 30
0.0
 11
0.4659928400573145
 21
0.4599999998116049
 31
0.0
  0
LINE
  5
13A
330
64
100
AcDbEntity
  8
OBJ
100
AcDbLine
 10
0.453428471414302
 20
0.4277997865929164
 30
0.0
 11
0.457265786875457
 21
0.4277662988482147
 31
0.0
  0
LINE
  5
13B
330
64
100
AcDbEntity
  8
OBJ
100
AcDbLine
 10
0.453428471414302
 20
0.4277997865929164
 30
0.0
 11
0.4534040380452106
 21
0.4249999998115781
 31
0.0
  0
LINE
  5
13C
330
64
100
AcDbEntity
  8
OBJ
100
AcDbLine
 10
0.4657085621890397
 20
0.4629999998105392
 30
0.0
 11
0.4569583070253779
 21
0.4629999998105392
 31
0.0
  0
LINE
  5
13D
330
64
100
AcDbEntity
  8
OBJ
100
AcDbLine
 10
0.3968874528134485
 20
0.4690896372096339
 30
0.0
 11
0.3968874528134485
 21
0.5742339647577337
 31
0.0
  0
LINE
  5
13E
330
64
100
AcDbEntity
  8
OBJ
100
AcDbLine
 10
0.4638271933209701
 20
0.5792295541885073
 30
0.0
 11
0.4637844030553602
 21
0.4835586974985758
 31
0.0
  0
LINE
  5
13F
330
64
100
AcDbEntity
  8
OBJ
100
AcDbLine
 10
0.3960022475825902
 20
0.4835375900643948
 30
0.0
 11
0.3960450378482001
 21
0.5792084467542768
 31
0.0
  0
LINE
  5
140
330
64
100
AcDbEntity
  8
OBJ
100
AcDbLine
 10
0.4053830985087254
 20
0.7500000021273694
 30
0.0
 11
0.4544536959694092
 21
0.7500000021273694
 31
0.0
  0
LINE
  5
141
330
64
100
AcDbEntity
  8
OBJ
100
AcDbLine
 10
0.4553469830233219
 20
0.6476394421273099
 30
0.0
 11
0.4044898114346191
 21
0.6476394421273099
 31
0.0
  0
LINE
  5
142
330
64
100
AcDbEntity
  8
OBJ
100
AcDbLine
 10
0.4044898114343775
 20
0.6476394420993037
 30
0.0
 11
0.4046910414909953
 21
0.6706981226514737
 31
0.0
  0
LINE
  5
143
330
64
100
AcDbEntity
  8
OBJ
100
AcDbLine
 10
0.4551457529669456
 20
0.6706981226514737
 30
0.0
 11
0.4553469830235494
 21
0.6476394420993019
 31
0.0
  0
LINE
  5
144
330
64
100
AcDbEntity
  8
OBJ
100
AcDbLine
 10
0.4053830984885174
 20
0.7499999998116042
 30
0.0
 11
0.404691041490981
 21
0.6706981226514737
 31
0.0
  0
LINE
  5
145
330
64
100
AcDbEntity
  8
OBJ
100
AcDbLine
 10
0.4551457529669598
 20
0.6706981226514737
 30
0.0
 11
0.4544536959694235
 21
0.7499999998116042
 31
0.0
  0
LINE
  5
146
330
64
100
AcDbEntity
  8
OBJ
100
AcDbLine
 10
0.7499575786341702
 20
0.5930349480209136
 30
0.0
 11
0.4999575822961795
 21
0.593051323146841
 31
0.0
  0
LINE
  5
147
330
64
100
AcDbEntity
  8
OBJ
100
AcDbLine
 10
0.9399183972289399
 20
0.4249999998115781
 30
0.0
 11
0.6999183972290162
 21
0.4249999998115781
 31
0.0
  0
LINE
  5
148
330
64
100
AcDbEntity
  8
OBJ
100
AcDbLine
 10
0.5618232147334262
 20
0.4369048173162852
 30
0.0
 11
0.6880135797243164
 21
0.4369048173162852
 31
0.0
  0
LINE
  5
149
330
64
100
AcDbEntity
  8
OBJ
100
AcDbLine
 10
0.6099183972289275
 20
0.4849999998116977
 30
0.0
 11
0.5618232147334262
 21
0.4369048173162886
 31
0.0
  0
LINE
  5
14A
330
64
100
AcDbEntity
  8
OBJ
100
AcDbLine
 10
0.494242855576534
 20
0.4249999998115781
 30
0.0
 11
0.4903101366851425
 21
0.4620274973883989
 31
0.0
  0
LINE
  5
14B
330
64
100
AcDbEntity
  8
OBJ
100
AcDbLine
 10
0.5618232147334262
 20
0.436904817316287
 30
0.0
 11
0.549918397228698
 21
0.4249999998115781
 31
0.0
  0
LINE
  5
14C
330
64
100
AcDbEntity
  8
OBJ
100
AcDbLine
 10
0.5999375504968221
 20
0.475019153079619
 30
0.0
 11
0.5999367841665199
 21
0.4793264302277979
 31
0.0
  0
LINE
  5
14D
330
64
100
AcDbEntity
  8
OBJ
100
AcDbLine
 10
0.6880135797243164
 20
0.4369048173162886
 30
0.0
 11
0.6399183972289571
 21
0.4849999998116781
 31
0.0
  0
LINE
  5
14E
330
64
100
AcDbEntity
  8
OBJ
100
AcDbLine
 10
0.6399183972289571
 20
0.4849999998116781
 30
0.0
 11
0.6099183972289275
 21
0.4849999998116994
 31
0.0
  0
LINE
  5
14F
330
64
100
AcDbEntity
  8
OBJ
100
AcDbLine
 10
0.6499367834341179
 20
0.4793343368377922
 30
0.0
 11
0.6499367834340895
 21
0.4749816136065405
 31
0.0
  0
LINE
  5
150
330
64
100
AcDbEntity
  8
OBJ
100
AcDbLine
 10
0.6499367834341179
 20
0.4793343368377922
 30
0.0
 11
0.6499375579877871
 21
0.47498083905285
 31
0.0
  0
LINE
  5
151
330
64
100
AcDbEntity
  8
OBJ
100
AcDbLine
 10
0.6999183972290162
 20
0.4249999998115765
 30
0.0
 11
0.6880135797243307
 21
0.4369048173162886
 31
0.0
  0
LINE
  5
152
330
64
100
AcDbEntity
  8
OBJ
100
AcDbLine
 10
0.8472657868754572
 20
0.4277662988482165
 30
0.0
 11
0.8453469830233224
 21
0.6476394421273099
 31
0.0
  0
LINE
  5
153
330
64
100
AcDbEntity
  8
OBJ
100
AcDbLine
 10
0.7944898114346195
 20
0.6476394421273099
 30
0.0
 11
0.7925710075824846
 21
0.427766298848213
 31
0.0
  0
LINE
  5
154
330
64
100
AcDbEntity
  8
OBJ
100
AcDbLine
 10
0.7869180164596124
 20
0.5742339647588262
 30
0.0
 11
0.7869180164596124
 21
0.4873648256119081
 31
0.0
  0
LINE
  5
155
330
64
100
AcDbEntity
  8
OBJ
100
AcDbLine
 10
0.7769180164596216
 20
0.6007278162844552
 30
0.0
 11
0.7769180164596216
 21
0.5884092335195197
 31
0.0
  0
LINE
  5
156
330
64
100
AcDbEntity
  8
OBJ
100
AcDbLine
 10
0.7869180164596124
 20
0.574233964758828
 30
0.0
 11
0.7860735211252498
 21
0.5745571391320015
 31
0.0
  0
LINE
  5
157
330
64
100
AcDbEntity
  8
OBJ
100
AcDbLine
 10
0.7869180164596124
 20
0.6007278162844552
 30
0.0
 11
0.7869180164596124
 21
0.5742339647588262
 31
0.0
  0
LINE
  5
158
330
64
100
AcDbEntity
  8
OBJ
100
AcDbLine
 10
0.7556274573608768
 20
0.4249999998115799
 30
0.0
 11
0.7595515815152007
 21
0.462077377972654
 31
0.0
  0
LINE
  5
159
330
64
100
AcDbEntity
  8
OBJ
100
AcDbLine
 10
0.7806870105310006
 20
0.4268748528332962
 30
0.0
 11
0.786009083646551
 21
0.4830389835038417
 31
0.0
  0
LINE
  5
15A
330
64
100
AcDbEntity
  8
OBJ
100
AcDbLine
 10
0.7964327564127168
 20
0.4249999998115781
 30
0.0
 11
0.7964083230436394
 21
0.427799786592913
 31
0.0
  0
LINE
  5
15B
330
64
100
AcDbEntity
  8
OBJ
100
AcDbLine
 10
0.7964083230436394
 20
0.427799786592913
 30
0.0
 11
0.7925710075824846
 21
0.4277662988482113
 31
0.0
  0
LINE
  5
15C
330
64
100
AcDbEntity
  8
OBJ
100
AcDbLine
 10
0.7860328112286688
 20
0.4835375900652085
 30
0.0
 11
0.7860756014942787
 21
0.5792084467551472
 31
0.0
  0
LINE
  5
15D
330
64
100
AcDbEntity
  8
OBJ
100
AcDbLine
 10
0.8529493416444926
 20
0.5742339647577355
 30
0.0
 11
0.8529493416444926
 21
0.4873648285474533
 31
0.0
  0
LINE
  5
15E
330
64
100
AcDbEntity
  8
OBJ
100
AcDbLine
 10
0.8538564394112633
 20
0.5745810960446134
 30
0.0
 11
0.8529493416444926
 21
0.5742339647577337
 31
0.0
  0
LINE
  5
15F
330
64
100
AcDbEntity
  8
OBJ
100
AcDbLine
 10
0.8529493416444926
 20
0.5742339647577355
 30
0.0
 11
0.8529493416444926
 21
0.6007278162844552
 31
0.0
  0
LINE
  5
160
330
64
100
AcDbEntity
  8
OBJ
100
AcDbLine
 10
0.8629493416444836
 20
0.5883968652809477
 30
0.0
 11
0.8629493416444836
 21
0.6007278162844552
 31
0.0
  0
LINE
  5
161
330
64
100
AcDbEntity
  8
OBJ
100
AcDbLine
 10
0.8842741807612846
 20
0.4249999998115781
 30
0.0
 11
0.8803414618699925
 21
0.4620274973874289
 31
0.0
  0
LINE
  5
162
330
64
100
AcDbEntity
  8
OBJ
100
AcDbLine
 10
0.859161528937779
 20
0.4268912279583388
 30
0.0
 11
0.8538394558223423
 21
0.4830553586288985
 31
0.0
  0
LINE
  5
163
330
64
100
AcDbEntity
  8
OBJ
100
AcDbLine
 10
0.8434284714143025
 20
0.4277997865929164
 30
0.0
 11
0.8472657868754572
 21
0.4277662988482147
 31
0.0
  0
LINE
  5
164
330
64
100
AcDbEntity
  8
OBJ
100
AcDbLine
 10
0.8434284714143025
 20
0.4277997865929164
 30
0.0
 11
0.8434040380452252
 21
0.4249999998115781
 31
0.0
  0
LINE
  5
165
330
64
100
AcDbEntity
  8
OBJ
100
AcDbLine
 10
0.951823214733668
 20
0.4369048173162833
 30
0.0
 11
0.9399183972289399
 21
0.4249999998115818
 31
0.0
  0
LINE
  5
166
330
64
100
AcDbEntity
  8
OBJ
100
AcDbLine
 10
0.8538585185058343
 20
0.5792295541875108
 30
0.0
 11
0.8538157282402243
 21
0.4835586974976362
 31
0.0
  0
LINE
  5
167
330
64
100
AcDbEntity
  8
OBJ
100
AcDbLine
 10
0.8453469830233224
 20
0.6476394421273099
 30
0.0
 11
0.7944898114346195
 21
0.6476394421273099
 31
0.0
  0
LINE
  5
168
330
64
100
AcDbEntity
  8
OBJ
100
AcDbLine
 10
0.7953830985087258
 20
0.7500000021273552
 30
0.0
 11
0.8444536959694238
 21
0.7500000021273552
 31
0.0
  0
LINE
  5
169
330
64
100
AcDbEntity
  8
OBJ
100
AcDbLine
 10
0.794489811434378
 20
0.6476394420993019
 30
0.0
 11
0.7946910414909816
 21
0.6706981226514737
 31
0.0
  0
LINE
  5
16A
330
64
100
AcDbEntity
  8
OBJ
100
AcDbLine
 10
0.795383098488518
 20
0.7499999998116042
 30
0.0
 11
0.7946910414909816
 21
0.6706981226514737
 31
0.0
  0
LINE
  5
16B
330
64
100
AcDbEntity
  8
OBJ
100
AcDbLine
 10
0.8451457529669459
 20
0.6706981226514737
 30
0.0
 11
0.845346983023564
 21
0.6476394420993037
 31
0.0
  0
LINE
  5
16C
330
64
100
AcDbEntity
  8
OBJ
100
AcDbLine
 10
0.8451457529669601
 20
0.6706981226514737
 30
0.0
 11
0.8444536959694238
 21
0.7499999998116042
 31
0.0
  0
LINE
  5
16D
330
64
100
AcDbEntity
  8
OBJ
100
AcDbLine
 10
1.63983679982336
 20
0.4249999998115729
 30
0.0
 11
1.636104032910768
 21
0.2111499266125323
 31
0.0
  0
LINE
  5
16E
330
64
100
AcDbEntity
  8
OBJ
100
AcDbLine
 10
1.593110506704253
 20
-0.0000000001884208
 30
0.0
 11
1.16526444937212
 21
-0.0000000001884208
 31
0.0
  0
LINE
  5
16F
330
64
100
AcDbEntity
  8
OBJ
100
AcDbLine
 10
0.9985041494027662
 20
0.1499999998115831
 30
0.0
 11
0.964737084189597
 21
0.1499999998115831
 31
0.0
  0
LINE
  5
170
330
64
100
AcDbEntity
  8
OBJ
100
AcDbLine
 10
0.995672890735978
 20
0.1499999998115831
 30
0.0
 11
0.9958474413852691
 21
0.1399999998116046
 31
0.0
  0
LINE
  5
171
330
64
100
AcDbEntity
  8
OBJ
100
AcDbLine
 10
1.010466224201141
 20
0.1127747530746292
 30
0.0
 11
1.011043702244225
 21
0.1789471825101883
 31
0.0
  0
LINE
  5
172
330
64
100
AcDbEntity
  8
OBJ
100
AcDbLine
 10
1.038849459462172
 20
0.1724881355623831
 30
0.0
 11
1.039363080598153
 21
0.1136329829137734
 31
0.0
  0
LINE
  5
173
330
64
100
AcDbEntity
  8
OBJ
100
AcDbLine
 10
0.9987317287500625
 20
0.1760780100146482
 30
0.0
 11
0.9985041494027662
 21
0.1499999998115831
 31
0.0
  0
LINE
  5
174
330
64
100
AcDbEntity
  8
OBJ
100
AcDbLine
 10
0.9569111681075559
 20
0.1399999998116028
 30
0.0
 11
1.010703815329978
 21
0.1399999998116028
 31
0.0
  0
LINE
  5
175
330
64
100
AcDbEntity
  8
OBJ
100
AcDbLine
 10
1.188005613418727
 20
0.1768666455094072
 30
0.0
 11
1.186508256071962
 21
0.0910831005652648
 31
0.0
  0
LINE
  5
176
330
64
100
AcDbEntity
  8
OBJ
100
AcDbLine
 10
1.186191821185192
 20
0.0729545580437874
 30
0.0
 11
1.186508256071949
 21
0.0910831005652631
 31
0.0
  0
LINE
  5
177
330
64
100
AcDbEntity
  8
OBJ
100
AcDbLine
 10
1.16526444937212
 20
-0.0000000001884191
 30
0.0
 11
1.154656475211869
 21
-0.0000000001884191
 31
0.0
  0
LINE
  5
178
330
64
100
AcDbEntity
  8
OBJ
100
AcDbLine
 10
1.144918397228837
 20
0.0276235903976305
 30
0.0
 11
1.144918397228837
 21
0.0068380025246375
 31
0.0
  0
LINE
  5
179
330
64
100
AcDbEntity
  8
OBJ
100
AcDbLine
 10
1.154918397228787
 20
0.0030448185111291
 30
0.0
 11
1.154918397228787
 21
0.0548260155223277
 31
0.0
  0
LINE
  5
17A
330
64
100
AcDbEntity
  8
OBJ
100
AcDbLine
 10
1.18526140327525
 20
0.0196509516828352
 30
0.0
 11
1.185287977029307
 21
0.0211733610326102
 31
0.0
  0
ARC
  5
17B
330
64
100
AcDbEntity
  8
OBJ
100
AcDbCircle
 10
1.16526444937212
 20
0.0199999998115805
 30
0.0
 40
0.02
100
AcDbArc
 50
270.0
 51
358.9999999999959
  0
LINE
  5
17C
330
64
100
AcDbEntity
  8
OBJ
100
AcDbLine
 10
1.186191821185192
 20
0.0729545580438069
 30
0.0
 11
1.185287977029292
 21
0.0211733610326102
 31
0.0
  0
LINE
  5
17D
330
64
100
AcDbEntity
  8
OBJ
100
AcDbLine
 10
1.196008320546827
 20
0.1748928415695721
 30
0.0
 11
1.19600882367749
 21
0.1749504946336886
 31
0.0
  0
LINE
  5
17E
330
64
100
AcDbEntity
  8
OBJ
100
AcDbLine
 10
1.223827970780095
 20
0.1749504946336868
 30
0.0
 11
1.19600882367749
 21
0.1749504946336868
 31
0.0
  0
LINE
  5
17F
330
64
100
AcDbEntity
  8
OBJ
100
AcDbLine
 10
1.223827970780095
 20
0.1749504946336868
 30
0.0
 11
1.223828473910759
 21
0.1748928415695721
 31
0.0
  0
LINE
  5
180
330
64
100
AcDbEntity
  8
OBJ
100
AcDbLine
 10
1.289134078713662
 20
0.1398739997315692
 30
0.0
 11
1.2890622415748
 21
0.148105720501829
 31
0.0
  0
LINE
  5
181
330
64
100
AcDbEntity
  8
OBJ
100
AcDbLine
 10
1.274918397228734
 20
0.1255392344543713
 30
0.0
 11
1.274918397228734
 21
0.1191987277431172
 31
0.0
  0
LINE
  5
182
330
64
100
AcDbEntity
  8
OBJ
100
AcDbLine
 10
1.375477249622977
 20
0.1140381412881775
 30
0.0
 11
1.376000892445109
 21
0.1740416654266506
 31
0.0
  0
LINE
  5
183
330
64
100
AcDbEntity
  8
OBJ
100
AcDbLine
 10
1.403824933503333
 20
0.1752985320685871
 30
0.0
 11
1.404370821085794
 21
0.1127460108710805
 31
0.0
  0
LINE
  5
184
330
64
100
AcDbEntity
  8
OBJ
100
AcDbLine
 10
1.636104032910768
 20
0.2111499266125323
 30
0.0
 11
1.6331044145105
 21
0.0393019035540894
 31
0.0
  0
LINE
  5
185
330
64
100
AcDbEntity
  8
OBJ
100
AcDbLine
 10
1.534918397228739
 20
0.119198727743119
 30
0.0
 11
1.534918397228739
 21
0.1255392344543713
 31
0.0
  0
LINE
  5
186
330
64
100
AcDbEntity
  8
OBJ
100
AcDbLine
 10
1.6331044145105
 20
0.0393019035540876
 30
0.0
 11
1.63276140586969
 21
0.0196509516828298
 31
0.0
  0
ARC
  5
187
330
64
100
AcDbEntity
  8
OBJ
100
AcDbCircle
 10
1.593110506704253
 20
0.0399999998115783
 30
0.0
 40
0.04
100
AcDbArc
 50
270.0
 51
358.999999999998
  0
ARC
  5
188
330
64
100
AcDbEntity
  8
OBJ
100
AcDbCircle
 10
1.612764451966557
 20
0.0199999998115752
 30
0.0
 40
0.02
100
AcDbArc
 50
270.0
 51
359.0000000000009
  0
LINE
  5
189
330
64
100
AcDbEntity
  8
OBJ
100
AcDbLine
 10
1.593110506704253
 20
-0.0000000001884244
 30
0.0
 11
1.612764451966557
 21
-0.0000000001884244
 31
0.0
  0
LINE
  5
18A
330
64
100
AcDbEntity
  8
OBJ
100
AcDbLine
 10
1.638527204682507
 20
0.2999999998115887
 30
0.0
 11
1.638236456787143
 21
0.3333164086696483
 31
0.0
  0
LINE
  5
18B
330
64
100
AcDbEntity
  8
OBJ
100
AcDbLine
 10
1.63765491670735
 20
0.2999999998115887
 30
0.0
 11
1.638527204682507
 21
0.2999999998115887
 31
0.0
  0
LINE
  5
18C
330
64
100
AcDbEntity
  8
OBJ
100
AcDbLine
 10
1.235756374579896
 20
0.6007278162844552
 30
0.0
 11
1.575900508084006
 21
0.6007278162844552
 31
0.0
  0
LINE
  5
18D
330
64
100
AcDbEntity
  8
OBJ
100
AcDbLine
 10
1.235519937207588
 20
0.6278208556183344
 30
0.0
 11
1.575664070709454
 21
0.6278208558735896
 31
0.0
  0
LINE
  5
18E
330
64
100
AcDbEntity
  8
OBJ
100
AcDbLine
 10
1.529862884943954
 20
0.5929843690501225
 30
0.0
 11
1.279862892267987
 21
0.5930402772261171
 31
0.0
  0
LINE
  5
18F
330
64
100
AcDbEntity
  8
OBJ
100
AcDbLine
 10
1.341823214733924
 20
0.4369048173162852
 30
0.0
 11
1.468013579723834
 21
0.4369048173162852
 31
0.0
  0
LINE
  5
190
330
64
100
AcDbEntity
  8
OBJ
100
AcDbLine
 10
1.468013579723834
 20
0.436904817316287
 30
0.0
 11
1.419918397228958
 21
0.4849999998111878
 31
0.0
  0
LINE
  5
191
330
64
100
AcDbEntity
  8
OBJ
100
AcDbLine
 10
1.185383098508725
 20
0.7500000021273409
 30
0.0
 11
1.234453695969424
 21
0.7500000021273409
 31
0.0
  0
LINE
  5
192
330
64
100
AcDbEntity
  8
OBJ
100
AcDbLine
 10
1.235346983023323
 20
0.6476394421273099
 30
0.0
 11
1.18448981143462
 21
0.6476394421273099
 31
0.0
  0
LINE
  5
193
330
64
100
AcDbEntity
  8
OBJ
100
AcDbLine
 10
1.329918397229195
 20
0.4249999998115781
 30
0.0
 11
1.089918397228732
 21
0.4249999998115781
 31
0.0
  0
LINE
  5
194
330
64
100
AcDbEntity
  8
OBJ
100
AcDbLine
 10
1.18448981143462
 20
0.6476394421273099
 30
0.0
 11
1.182571007582485
 21
0.4277662988482094
 31
0.0
  0
LINE
  5
195
330
64
100
AcDbEntity
  8
OBJ
100
AcDbLine
 10
1.078013579724032
 20
0.436904817316287
 30
0.0
 11
1.029918397228942
 21
0.4849999998114011
 31
0.0
  0
LINE
  5
196
330
64
100
AcDbEntity
  8
OBJ
100
AcDbLine
 10
0.9899688701094541
 20
0.4750504726919999
 30
0.0
 11
0.9899681093513839
 21
0.4793264302267907
 31
0.0
  0
LINE
  5
197
330
64
100
AcDbEntity
  8
OBJ
100
AcDbLine
 10
1.029918397228942
 20
0.4849999998114011
 30
0.0
 11
0.9999183972289138
 21
0.4849999998114365
 31
0.0
  0
LINE
  5
198
330
64
100
AcDbEntity
  8
OBJ
100
AcDbLine
 10
1.039968108618982
 20
0.479334336836785
 30
0.0
 11
1.039968108618952
 21
0.474950288421387
 31
0.0
  0
LINE
  5
199
330
64
100
AcDbEntity
  8
OBJ
100
AcDbLine
 10
1.039968108618982
 20
0.4793343368367832
 30
0.0
 11
1.039968888746858
 21
0.4749495082934745
 31
0.0
  0
LINE
  5
19A
330
64
100
AcDbEntity
  8
OBJ
100
AcDbLine
 10
1.17694934164449
 20
0.502999999811583
 30
0.0
 11
1.183227562144199
 21
0.502999999811583
 31
0.0
  0
LINE
  5
19B
330
64
100
AcDbEntity
  8
OBJ
100
AcDbLine
 10
1.166949341644485
 20
0.6007278162844552
 30
0.0
 11
1.166949341644485
 21
0.5884092335185179
 31
0.0
  0
LINE
  5
19C
330
64
100
AcDbEntity
  8
OBJ
100
AcDbLine
 10
1.17694934164449
 20
0.6007278162844552
 30
0.0
 11
1.17694934164449
 21
0.574233964757732
 31
0.0
  0
LINE
  5
19D
330
64
100
AcDbEntity
  8
OBJ
100
AcDbLine
 10
1.17694934164449
 20
0.574233964757732
 30
0.0
 11
1.176104846310099
 21
0.5745571391309126
 31
0.0
  0
LINE
  5
19E
330
64
100
AcDbEntity
  8
OBJ
100
AcDbLine
 10
1.089918397228732
 20
0.4249999998115747
 30
0.0
 11
1.078013579724032
 21
0.436904817316287
 31
0.0
  0
LINE
  5
19F
330
64
100
AcDbEntity
  8
OBJ
100
AcDbLine
 10
1.145658782545853
 20
0.4249999998115781
 30
0.0
 11
1.149582906700064
 21
0.4620773779716842
 31
0.0
  0
LINE
  5
1A0
330
64
100
AcDbEntity
  8
OBJ
100
AcDbLine
 10
1.170718335715863
 20
0.4268748528323494
 30
0.0
 11
1.176040408831414
 21
0.483038983502902
 31
0.0
  0
LINE
  5
1A1
330
64
100
AcDbEntity
  8
OBJ
100
AcDbLine
 10
1.171645821807292
 20
0.4249999998115781
 30
0.0
 11
1.171552626139219
 21
0.4356791656137037
 31
0.0
  0
LINE
  5
1A2
330
64
100
AcDbEntity
  8
OBJ
100
AcDbLine
 10
1.173857251106926
 20
0.4599999998116049
 30
0.0
 11
1.182852306829207
 21
0.4599999998116049
 31
0.0
  0
LINE
  5
1A3
330
64
100
AcDbEntity
  8
OBJ
100
AcDbLine
 10
1.186432756412717
 20
0.4249999998115781
 30
0.0
 11
1.186408323043639
 21
0.4277997865929093
 31
0.0
  0
LINE
  5
1A4
330
64
100
AcDbEntity
  8
OBJ
100
AcDbLine
 10
1.186408323043639
 20
0.4277997865929093
 30
0.0
 11
1.182571007582485
 21
0.4277662988482076
 31
0.0
  0
LINE
  5
1A5
330
64
100
AcDbEntity
  8
OBJ
100
AcDbLine
 10
1.182878487432563
 20
0.4629999998105374
 30
0.0
 11
1.176949341644475
 21
0.4629999998105374
 31
0.0
  0
LINE
  5
1A6
330
64
100
AcDbEntity
  8
OBJ
100
AcDbLine
 10
1.1741415289752
 20
0.4629999998105358
 30
0.0
 11
1.17694934164449
 21
0.4629999998105358
 31
0.0
  0
LINE
  5
1A7
330
64
100
AcDbEntity
  8
OBJ
100
AcDbLine
 10
1.17694934164449
 20
0.4690896372096339
 30
0.0
 11
1.17694934164449
 21
0.4629999998105358
 31
0.0
  0
LINE
  5
1A8
330
64
100
AcDbEntity
  8
OBJ
100
AcDbLine
 10
1.17694934164449
 20
0.4690896372096322
 30
0.0
 11
1.17694934164449
 21
0.574233964757732
 31
0.0
  0
LINE
  5
1A9
330
64
100
AcDbEntity
  8
OBJ
100
AcDbLine
 10
1.176064136413532
 20
0.4835375900642688
 30
0.0
 11
1.176106926679143
 21
0.5792084467541505
 31
0.0
  0
LINE
  5
1AA
330
64
100
AcDbEntity
  8
OBJ
100
AcDbLine
 10
1.184489811434377
 20
0.6476394420993037
 30
0.0
 11
1.184691041490981
 21
0.6706981226514737
 31
0.0
  0
LINE
  5
1AB
330
64
100
AcDbEntity
  8
OBJ
100
AcDbLine
 10
1.185383098488518
 20
0.7499999998116042
 30
0.0
 11
1.184691041490981
 21
0.6706981226514737
 31
0.0
  0
LINE
  5
1AC
330
64
100
AcDbEntity
  8
OBJ
100
AcDbLine
 10
1.237265786875457
 20
0.4277662988482094
 30
0.0
 11
1.235346983023323
 21
0.6476394421273099
 31
0.0
  0
LINE
  5
1AD
330
64
100
AcDbEntity
  8
OBJ
100
AcDbLine
 10
1.242840698300188
 20
0.5742287719081949
 30
0.0
 11
1.24284069829962
 21
0.4873596266173328
 31
0.0
  0
LINE
  5
1AE
330
64
100
AcDbEntity
  8
OBJ
100
AcDbLine
 10
1.236609232313741
 20
0.5029999998105366
 30
0.0
 11
1.242840698299718
 21
0.5029999998105366
 31
0.0
  0
LINE
  5
1AF
330
64
100
AcDbEntity
  8
OBJ
100
AcDbLine
 10
1.243730421753542
 20
0.5745691136683205
 30
0.0
 11
1.242840698300202
 21
0.5742287719081967
 31
0.0
  0
LINE
  5
1B0
330
64
100
AcDbEntity
  8
OBJ
100
AcDbLine
 10
1.242840698300202
 20
0.5742287719081986
 30
0.0
 11
1.242845607603245
 21
0.6007278162844552
 31
0.0
  0
LINE
  5
1B1
330
64
100
AcDbEntity
  8
OBJ
100
AcDbLine
 10
1.252841157589148
 20
0.5883977845864541
 30
0.0
 11
1.252842264567849
 21
0.6007278162844552
 31
0.0
  0
LINE
  5
1B2
330
64
100
AcDbEntity
  8
OBJ
100
AcDbLine
 10
1.249025016286129
 20
0.4268858856120472
 30
0.0
 11
1.243713348420004
 21
0.4830510007540109
 31
0.0
  0
LINE
  5
1B3
330
64
100
AcDbEntity
  8
OBJ
100
AcDbLine
 10
1.236984487628735
 20
0.4599999998116049
 30
0.0
 11
1.245893336134417
 21
0.4599999998116049
 31
0.0
  0
LINE
  5
1B4
330
64
100
AcDbEntity
  8
OBJ
100
AcDbLine
 10
1.245609619034356
 20
0.4629999998105374
 30
0.0
 11
1.236958307025377
 21
0.4629999998105374
 31
0.0
  0
LINE
  5
1B5
330
64
100
AcDbEntity
  8
OBJ
100
AcDbLine
 10
1.233428471414317
 20
0.4277997865929093
 30
0.0
 11
1.233404038045225
 21
0.4249999998115781
 31
0.0
  0
LINE
  5
1B6
330
64
100
AcDbEntity
  8
OBJ
100
AcDbLine
 10
1.233428471414303
 20
0.4277997865929093
 30
0.0
 11
1.237265786875457
 21
0.4277662988482076
 31
0.0
  0
LINE
  5
1B7
330
64
100
AcDbEntity
  8
OBJ
100
AcDbLine
 10
1.274127759311812
 20
0.4249999998115765
 30
0.0
 11
1.270202599897405
 21
0.4620216265370704
 31
0.0
  0
LINE
  5
1B8
330
64
100
AcDbEntity
  8
OBJ
100
AcDbLine
 10
1.248190972650309
 20
0.4249999998115781
 30
0.0
 11
1.248276501346356
 21
0.4348006176391861
 31
0.0
  0
LINE
  5
1B9
330
64
100
AcDbEntity
  8
OBJ
100
AcDbLine
 10
1.243732503821906
 20
0.5792242206680413
 30
0.0
 11
1.243689713556295
 21
0.4835533639781701
 31
0.0
  0
LINE
  5
1BA
330
64
100
AcDbEntity
  8
OBJ
100
AcDbLine
 10
1.419918397228958
 20
0.4849999998111878
 30
0.0
 11
1.389918397228957
 21
0.4849999998112092
 31
0.0
  0
LINE
  5
1BB
330
64
100
AcDbEntity
  8
OBJ
100
AcDbLine
 10
1.389918397228957
 20
0.4849999998112109
 30
0.0
 11
1.341823214733924
 21
0.4369048173162886
 31
0.0
  0
LINE
  5
1BC
330
64
100
AcDbEntity
  8
OBJ
100
AcDbLine
 10
1.341823214733924
 20
0.4369048173162886
 30
0.0
 11
1.329918397229195
 21
0.4249999998115818
 31
0.0
  0
LINE
  5
1BD
330
64
100
AcDbEntity
  8
OBJ
100
AcDbLine
 10
1.37982332460051
 20
0.4749049271827871
 30
0.0
 11
1.37982332460051
 21
0.4792995762109317
 31
0.0
  0
LINE
  5
1BE
330
64
100
AcDbEntity
  8
OBJ
100
AcDbLine
 10
1.235145752966959
 20
0.6706981226514737
 30
0.0
 11
1.235346983023563
 21
0.6476394420993019
 31
0.0
  0
LINE
  5
1BF
330
64
100
AcDbEntity
  8
OBJ
100
AcDbLine
 10
1.235145752966959
 20
0.6706981226514737
 30
0.0
 11
1.234453695969424
 21
0.7499999998116042
 31
0.0
  0
LINE
  5
1C0
330
64
100
AcDbEntity
  8
OBJ
100
AcDbLine
 10
1.637436346208661
 20
0.4249999998115765
 30
0.0
 11
1.632764425727745
 21
0.960349061231521
 31
0.0
  0
LINE
  5
1C1
330
64
100
AcDbEntity
  8
OBJ
100
AcDbLine
 10
1.575664070731438
 20
0.6278208533541401
 30
0.0
 11
1.577330169737083
 21
0.4369048173159193
 31
0.0
  0
LINE
  5
1C2
330
64
100
AcDbEntity
  8
OBJ
100
AcDbLine
 10
1.59984289201711
 20
0.4249999998115781
 30
0.0
 11
1.479918397228534
 21
0.4249999998115781
 31
0.0
  0
LINE
  5
1C3
330
64
100
AcDbEntity
  8
OBJ
100
AcDbLine
 10
1.479918397228534
 20
0.4249999998115765
 30
0.0
 11
1.468013579723834
 21
0.4369048173162886
 31
0.0
  0
LINE
  5
1C4
330
64
100
AcDbEntity
  8
OBJ
100
AcDbLine
 10
1.429823324600523
 20
0.4792995762109298
 30
0.0
 11
1.429823324600523
 21
0.4750950724396176
 31
0.0
  0
LINE
  5
1C5
330
64
100
AcDbEntity
  8
OBJ
100
AcDbLine
 10
1.53551888988922
 20
0.4249999998115765
 30
0.0
 11
1.539444049303629
 21
0.4620216265370704
 31
0.0
  0
LINE
  5
1C6
330
64
100
AcDbEntity
  8
OBJ
100
AcDbLine
 10
1.566823322227879
 20
0.5741775398230251
 30
0.0
 11
1.56682332222731
 21
0.4873083945321631
 31
0.0
  0
LINE
  5
1C7
330
64
100
AcDbEntity
  8
OBJ
100
AcDbLine
 10
1.566830168669657
 20
0.5242635748428457
 30
0.0
 11
1.566830168670153
 21
0.6007278162844552
 31
0.0
  0
LINE
  5
1C8
330
64
100
AcDbEntity
  8
OBJ
100
AcDbLine
 10
1.566823322126811
 20
0.487307309284213
 30
0.0
 11
1.566830168569158
 21
0.5242624895948973
 31
0.0
  0
LINE
  5
1C9
330
64
100
AcDbEntity
  8
OBJ
100
AcDbLine
 10
1.556824893766179
 20
0.6007278162844552
 30
0.0
 11
1.556823782134105
 21
0.5883541934425365
 31
0.0
  0
LINE
  5
1CA
330
64
100
AcDbEntity
  8
OBJ
100
AcDbLine
 10
1.556827531903524
 20
0.6007278162844571
 30
0.0
 11
1.556825239408116
 21
0.5883535674963598
 31
0.0
  0
LINE
  5
1CB
330
64
100
AcDbEntity
  8
OBJ
100
AcDbLine
 10
1.566823322227893
 20
0.5741775398230198
 30
0.0
 11
1.565978826905894
 21
0.5745008477609562
 31
0.0
  0
LINE
  5
1CC
330
64
100
AcDbEntity
  8
OBJ
100
AcDbLine
 10
1.566828241022366
 20
0.6007278162844571
 30
0.0
 11
1.566823322227879
 21
0.5741775398230251
 31
0.0
  0
LINE
  5
1CD
330
64
100
AcDbEntity
  8
OBJ
100
AcDbLine
 10
1.560581818340511
 20
0.4268185732121994
 30
0.0
 11
1.565914296521785
 21
0.4829817163834679
 31
0.0
  0
LINE
  5
1CE
330
64
100
AcDbEntity
  8
OBJ
100
AcDbLine
 10
1.639836799823374
 20
0.4249999998115729
 30
0.0
 11
1.59984289201711
 21
0.4249999998115765
 31
0.0
  0
LINE
  5
1CF
330
64
100
AcDbEntity
  8
OBJ
100
AcDbLine
 10
1.577434061505516
 20
0.4249999998115781
 30
0.0
 11
1.577330169737083
 21
0.4369048173159193
 31
0.0
  0
LINE
  5
1D0
330
64
100
AcDbEntity
  8
OBJ
100
AcDbLine
 10
1.577330169737083
 20
0.4369048173159193
 30
0.0
 11
1.597464516413598
 21
0.4369048173159193
 31
0.0
  0
LINE
  5
1D1
330
64
100
AcDbEntity
  8
OBJ
100
AcDbLine
 10
1.565938117009313
 20
0.4834812986942377
 30
0.0
 11
1.565980907274923
 21
0.5791521553841159
 31
0.0
  0
ARC
  5
1D2
330
64
100
AcDbEntity
  8
OBJ
100
AcDbCircle
 10
1.592765948805183
 20
0.9599999998115942
 30
0.0
 40
0.04
100
AcDbArc
 50
0.4999999999986227
 51
90.0
  0
ENDBLK
  5
1D4
330
64
100
AcDbEntity
  8
0
100
AcDbBlockEnd
  0
BLOCK
  5
28D
330
27F
100
AcDbEntity
  8
0
100
AcDbBlockBegin
  2
A$C48EB56D4
 70
     0
 10
0.0
 20
0.0
 30
0.0
  3
A$C48EB56D4
  1

  0
LINE
  5
280
330
27F
100
AcDbEntity
  8
OBJ
100
AcDbLine
 10
0.8670648262049333
 20
0.8641898909475196
 30
0.0
 11
1.5372234573871
 21
0.8276404445602912
 31
0.0
  0
LINE
  5
281
330
27F
100
AcDbEntity
  8
OBJ
100
AcDbLine
 10
-0.0000000055095586
 20
0.6934339825487097
 30
0.0
 11
1.61999999449044
 21
0.6934339825487115
 31
0.0
  0
LINE
  5
282
330
27F
100
AcDbEntity
  8
OBJ
100
AcDbLine
 10
0.3599999944904413
 20
-0.0000000059834324
 30
0.0
 11
1.25999999449044
 21
-0.0000000059834342
 31
0.0
  0
LINE
  5
283
330
27F
100
AcDbEntity
  8
OBJ
100
AcDbLine
 10
0.75293516277595
 20
0.8641898909475196
 30
0.0
 11
0.0827765315937819
 21
0.8276404445602912
 31
0.0
  0
LINE
  5
284
330
27F
100
AcDbEntity
  8
OBJ
100
AcDbLine
 10
-0.0000000055095586
 20
0.7525557689665181
 30
0.0
 11
-0.0000000055095586
 21
0.6934339825487097
 31
0.0
  0
LINE
  5
285
330
27F
100
AcDbEntity
  8
OBJ
100
AcDbLine
 10
0.3599999944904413
 20
-0.0000000059834324
 30
0.0
 11
0.3599999944904431
 21
0.6298339825487087
 31
0.0
  0
ARC
  5
286
330
27F
100
AcDbEntity
  8
OBJ
100
AcDbCircle
 10
0.2963999944904421
 20
0.6298339825487087
 30
0.0
 40
0.0636
100
AcDbArc
 50
0.0
 51
90.00000000000005
  0
ARC
  5
287
330
27F
100
AcDbEntity
  8
OBJ
100
AcDbCircle
 10
0.0878586314321699
 20
0.7388671978885119
 30
0.0
 40
0.0889185979613724
100
AcDbArc
 50
93.27649832028429
 51
171.1443867731365
  0
LINE
  5
288
330
27F
100
AcDbEntity
  8
OBJ
100
AcDbLine
 10
1.25999999449044
 20
-0.0000000059834324
 30
0.0
 11
1.259999994490438
 21
0.6298339825487087
 31
0.0
  0
ARC
  5
289
330
27F
100
AcDbEntity
  8
OBJ
100
AcDbCircle
 10
1.323599994490439
 20
0.6298339825487087
 30
0.0
 40
0.0636
100
AcDbArc
 50
89.99999999999991
 51
180.0
  0
LINE
  5
28A
330
27F
100
AcDbEntity
  8
OBJ
100
AcDbLine
 10
0.75293516277595
 20
0.8641898909475196
 30
0.0
 11
0.8670648262049109
 21
0.8641898909475196
 31
0.0
  0
LINE
  5
28B
330
27F
100
AcDbEntity
  8
OBJ
100
AcDbLine
 10
1.61999999449044
 20
0.7525557689665181
 30
0.0
 11
1.61999999449044
 21
0.6934339825487097
 31
0.0
  0
ARC
  5
28C
330
27F
100
AcDbEntity
  8
OBJ
100
AcDbCircle
 10
1.532141357548713
 20
0.7388671978885119
 30
0.0
 40
0.0889185979613724
100
AcDbArc
 50
8.855613226863431
 51
86.72350167971574
  0
ENDBLK
  5
28E
330
27F
100
AcDbEntity
  8
0
100
AcDbBlockEnd
  0
BLOCK
  5
2E7
330
2D9
100
AcDbEntity
  8
0
100
AcDbBlockBegin
  2
A$C5802352A
 70
     0
 10
0.0
 20
0.0
 30
0.0
  3
A$C5802352A
  1

  0
LINE
  5
2DA
330
2D9
100
AcDbEntity
  8
OBJ
100
AcDbLine
 10
1.307064839951074
 20
0.8820109798682958
 30
0.0
 11
2.417223471133243
 21
0.8276404445602912
 31
0.0
  0
LINE
  5
2DB
330
2D9
100
AcDbEntity
  8
OBJ
100
AcDbLine
 10
0.000000008236583
 20
0.6934339825487097
 30
0.0
 11
2.500000008236582
 21
0.6934339825487097
 31
0.0
  0
LINE
  5
2DC
330
2D9
100
AcDbEntity
  8
OBJ
100
AcDbLine
 10
0.8000000082365835
 20
-0.0000000059834324
 30
0.0
 11
1.700000008236582
 21
-0.0000000059834342
 31
0.0
  0
LINE
  5
2DD
330
2D9
100
AcDbEntity
  8
OBJ
100
AcDbLine
 10
1.19293517652209
 20
0.8820109798682958
 30
0.0
 11
0.0827765453399216
 21
0.8276404445602912
 31
0.0
  0
LINE
  5
2DE
330
2D9
100
AcDbEntity
  8
OBJ
100
AcDbLine
 10
0.000000008236583
 20
0.7525557689665181
 30
0.0
 11
0.000000008236583
 21
0.6934339825487097
 31
0.0
  0
ARC
  5
2DF
330
2D9
100
AcDbEntity
  8
OBJ
100
AcDbCircle
 10
0.0878586451783115
 20
0.7388671978885119
 30
0.0
 40
0.0889185979613724
100
AcDbArc
 50
93.27649832028429
 51
171.1443867731365
  0
LINE
  5
2E0
330
2D9
100
AcDbEntity
  8
OBJ
100
AcDbLine
 10
0.8000000082365835
 20
-0.0000000059834324
 30
0.0
 11
0.8000000082365872
 21
0.6298339825487087
 31
0.0
  0
ARC
  5
2E1
330
2D9
100
AcDbEntity
  8
OBJ
100
AcDbCircle
 10
0.7364000082365863
 20
0.6298339825487087
 30
0.0
 40
0.0636
100
AcDbArc
 50
0.0
 51
90.0000000000001
  0
LINE
  5
2E2
330
2D9
100
AcDbEntity
  8
OBJ
100
AcDbLine
 10
1.19293517652209
 20
0.8820109798682958
 30
0.0
 11
1.307064839951074
 21
0.8820109798682976
 31
0.0
  0
LINE
  5
2E3
330
2D9
100
AcDbEntity
  8
OBJ
100
AcDbLine
 10
1.700000008236582
 20
-0.0000000059834324
 30
0.0
 11
1.700000008236578
 21
0.6298339825487087
 31
0.0
  0
ARC
  5
2E4
330
2D9
100
AcDbEntity
  8
OBJ
100
AcDbCircle
 10
1.76360000823658
 20
0.6298339825487087
 30
0.0
 40
0.0636
100
AcDbArc
 50
89.99999999999991
 51
180.0
  0
LINE
  5
2E5
330
2D9
100
AcDbEntity
  8
OBJ
100
AcDbLine
 10
2.500000008236582
 20
0.7525557689665181
 30
0.0
 11
2.500000008236582
 21
0.6934339825487097
 31
0.0
  0
ARC
  5
2E6
330
2D9
100
AcDbEntity
  8
OBJ
100
AcDbCircle
 10
2.412141371294854
 20
0.7388671978885119
 30
0.0
 40
0.0889185979613724
100
AcDbArc
 50
8.855613226863431
 51
86.72350167971574
  0
ENDBLK
  5
2E8
330
2D9
100
AcDbEntity
  8
0
100
AcDbBlockEnd
  0
BLOCK
  5
5F
330
56
100
AcDbEntity
  8
0
100
AcDbBlockBegin
  2
A$C1748711A
 70
     0
 10
0.0
 20
0.0
 30
0.0
  3
A$C1748711A
  1

  0
LINE
  5
57
330
56
100
AcDbEntity
  8
OBJ
100
AcDbLine
 10
0.0380894713888171
 20
0.6881894941115104
 30
0.0
 11
1.707320823399601
 21
0.6881894941115016
 31
0.0
  0
ARC
  5
59
330
56
100
AcDbEntity
  8
OBJ
100
AcDbCircle
 10
0.872705147394434
 20
-1.045834402379715
 30
0.0
 40
2.000023896491223
100
AcDbArc
 50
64.82547906761739
 51
115.1745209323826
  0
ARC
  5
5A
330
56
100
AcDbEntity
  8
OBJ
100
AcDbCircle
 10
0.0389202009492777
 20
0.7280959842727999
 30
0.0
 40
0.0399151358333614
100
AcDbArc
 50
115.1745209323827
 51
271.1925484801879
  0
LINE
  5
5B
330
56
100
AcDbEntity
  8
OBJ
100
AcDbLine
 10
0.4227051473944316
 20
-0.0000000059834342
 30
0.0
 11
1.322705147394557
 21
-0.0000000059834342
 31
0.0
  0
LINE
  5
5C
330
56
100
AcDbEntity
  8
OBJ
100
AcDbLine
 10
0.4227051473944378
 20
0.6881894941115087
 30
0.0
 11
0.4227051473944316
 21
-0.0000000059834342
 31
0.0
  0
ARC
  5
5D
330
56
100
AcDbEntity
  8
OBJ
100
AcDbCircle
 10
1.706490093839589
 20
0.7280959842727999
 30
0.0
 40
0.0399151358333614
100
AcDbArc
 50
268.8074515204422
 51
64.82547906761772
  0
LINE
  5
5E
330
56
100
AcDbEntity
  8
OBJ
100
AcDbLine
 10
1.322705147393979
 20
0.6881894941118816
 30
0.0
 11
1.322705147394557
 21
-0.0000000059834342
 31
0.0
  0
ENDBLK
  5
60
330
56
100
AcDbEntity
  8
0
100
AcDbBlockEnd
  0
BLOCK
  5
27C
330
271
100
AcDbEntity
  8
0
100
AcDbBlockBegin
  2
*D7
 70
     1
 10
0.0
 20
0.0
 30
0.0
  3
*D7
  1

  0
LINE
  5
272
330
271
100
AcDbEntity
  8
DIM
 62
     0
100
AcDbLine
 10
0.7600988435603929
 20
9.824311941406195
 30
0.0
 11
0.7600988435603929
 21
10.21248529278976
 31
0.0
  0
LINE
  5
273
330
271
100
AcDbEntity
  8
DIM
 62
     0
100
AcDbLine
 10
2.380098843560393
 20
9.824311941406199
 30
0.0
 11
2.380098843560393
 21
10.21248529278976
 31
0.0
  0
LINE
  5
274
330
271
100
AcDbEntity
  8
DIM
 62
     0
100
AcDbLine
 10
0.8800988435603928
 20
10.14248529278977
 30
0.0
 11
1.28420525556585
 21
10.14248529278977
 31
0.0
  0
LINE
  5
275
330
271
100
AcDbEntity
  8
DIM
 62
     0
100
AcDbLine
 10
2.260098843560393
 20
10.14248529278977
 30
0.0
 11
1.855992431554936
 21
10.14248529278977
 31
0.0
  0
SOLID
  5
276
330
271
100
AcDbEntity
  8
DIM
 62
     0
100
AcDbTrace
 10
0.8800988435603928
 20
10.16248529278976
 30
0.0
 11
0.8800988435603928
 21
10.12248529278976
 31
0.0
 12
0.7600988435603929
 22
10.14248529278977
 32
0.0
 13
0.7600988435603929
 23
10.14248529278977
 33
0.0
  0
SOLID
  5
277
330
271
100
AcDbEntity
  8
DIM
 62
     0
100
AcDbTrace
 10
2.260098843560393
 20
10.16248529278976
 30
0.0
 11
2.260098843560393
 21
10.12248529278976
 31
0.0
 12
2.380098843560393
 22
10.14248529278977
 32
0.0
 13
2.380098843560393
 23
10.14248529278977
 33
0.0
  0
MTEXT
  5
278
330
271
100
AcDbEntity
  8
DIM
 62
     0
100
AcDbMText
 10
1.570098843560393
 20
10.14248529278977
 30
0.0
 40
0.1
 41
0.0
 71
     5
 72
     1
  1
\A1;1.62 Dia.
1001
ACAD
1000
MTEXTBEGIN
1070
    73
1070
     1
1070
    44
1040
1.0
1070
    74
1070
     0
1000
MTEXTEND
1000
MTEXTBEGIN
1070
    73
1070
     1
1070
    44
1040
1.0
1070
    74
1070
     0
1000
MTEXTEND
1000
MTEXTBEGIN
1070
    73
1070
     1
1070
    44
1040
1.0
1070
    74
1070
     0
1000
MTEXTEND
1000
MTEXTBEGIN
1070
    73
1070
     1
1070
    44
1040
1.0
1070
    74
1070
     0
1000
MTEXTEND
1000
MTEXTBEGIN
1070
    73
1070
     1
1070
    44
1040
1.0
1070
    74
1070
     0
1000
MTEXTEND
  0
POINT
  5
279
330
271
100
AcDbEntity
  8
DEFPOINTS
 62
     0
100
AcDbPoint
 10
0.7600988435603929
 20
9.764311941406193
 30
0.0
  0
POINT
  5
27A
330
271
100
AcDbEntity
  8
DEFPOINTS
 62
     0
100
AcDbPoint
 10
2.380098843560393
 20
9.764311941406196
 30
0.0
  0
POINT
  5
27B
330
271
100
AcDbEntity
  8
DEFPOINTS
 62
     0
100
AcDbPoint
 10
2.380098843560393
 20
10.14248529278977
 30
0.0
  0
ENDBLK
  5
27D
330
271
100
AcDbEntity
  8
0
100
AcDbBlockEnd
  0
BLOCK
  5
2D6
330
2CB
100
AcDbEntity
  8
0
100
AcDbBlockBegin
  2
*D8
 70
     1
 10
0.0
 20
0.0
 30
0.0
  3
*D8
  1

  0
LINE
  5
2CC
330
2CB
100
AcDbEntity
  8
DIM
 62
     0
100
AcDbLine
 10
2.651135548041131
 20
9.824311941406199
 30
0.0
 11
2.651135548041131
 21
10.21248529278976
 31
0.0
  0
LINE
  5
2CD
330
2CB
100
AcDbEntity
  8
DIM
 62
     0
100
AcDbLine
 10
5.15113554804113
 20
9.824311941406204
 30
0.0
 11
5.15113554804113
 21
10.21248529278976
 31
0.0
  0
LINE
  5
2CE
330
2CB
100
AcDbEntity
  8
DIM
 62
     0
100
AcDbLine
 10
2.771135548041132
 20
10.14248529278977
 30
0.0
 11
3.609682614889698
 21
10.14248529278977
 31
0.0
  0
LINE
  5
2CF
330
2CB
100
AcDbEntity
  8
DIM
 62
     0
100
AcDbLine
 10
5.03113554804113
 20
10.14248529278977
 30
0.0
 11
4.192588481192563
 21
10.14248529278977
 31
0.0
  0
SOLID
  5
2D0
330
2CB
100
AcDbEntity
  8
DIM
 62
     0
100
AcDbTrace
 10
2.771135548041132
 20
10.16248529278976
 30
0.0
 11
2.771135548041132
 21
10.12248529278976
 31
0.0
 12
2.651135548041131
 22
10.14248529278977
 32
0.0
 13
2.651135548041131
 23
10.14248529278977
 33
0.0
  0
SOLID
  5
2D1
330
2CB
100
AcDbEntity
  8
DIM
 62
     0
100
AcDbTrace
 10
5.03113554804113
 20
10.16248529278976
 30
0.0
 11
5.03113554804113
 21
10.12248529278976
 31
0.0
 12
5.15113554804113
 22
10.14248529278977
 32
0.0
 13
5.15113554804113
 23
10.14248529278977
 33
0.0
  0
MTEXT
  5
2D2
330
2CB
100
AcDbEntity
  8
DIM
 62
     0
100
AcDbMText
 10
3.901135548041132
 20
10.14248529278977
 30
0.0
 40
0.1
 41
0.0
 71
     5
 72
     1
  1
\A1;2.50 Dia.
1001
ACAD
1000
MTEXTBEGIN
1070
    73
1070
     1
1070
    44
1040
1.0
1070
    74
1070
     0
1000
MTEXTEND
1000
MTEXTBEGIN
1070
    73
1070
     1
1070
    44
1040
1.0
1070
    74
1070
     0
1000
MTEXTEND
1000
MTEXTBEGIN
1070
    73
1070
     1
1070
    44
1040
1.0
1070
    74
1070
     0
1000
MTEXTEND
1000
MTEXTBEGIN
1070
    73
1070
     1
1070
    44
1040
1.0
1070
    74
1070
     0
1000
MTEXTEND
1000
MTEXTBEGIN
1070
    73
1070
     1
1070
    44
1040
1.0
1070
    74
1070
     0
1000
MTEXTEND
  0
POINT
  5
2D3
330
2CB
100
AcDbEntity
  8
DEFPOINTS
 62
     0
100
AcDbPoint
 10
2.651135548041131
 20
9.764311941406196
 30
0.0
  0
POINT
  5
2D4
330
2CB
100
AcDbEntity
  8
DEFPOINTS
 62
     0
100
AcDbPoint
 10
5.15113554804113
 20
9.764311941406203
 30
0.0
  0
POINT
  5
2D5
330
2CB
100
AcDbEntity
  8
DEFPOINTS
 62
     0
100
AcDbPoint
 10
5.15113554804113
 20
10.14248529278977
 30
0.0
  0
ENDBLK
  5
2D7
330
2CB
100
AcDbEntity
  8
0
100
AcDbBlockEnd
  0
BLOCK
  5
53
330
48
100
AcDbEntity
  8
0
100
AcDbBlockBegin
  2
*D9
 70
     1
 10
0.0
 20
0.0
 30
0.0
  3
*D9
  1

  0
LINE
  5
49
330
48
100
AcDbEntity
  8
DIM
 62
     0
100
AcDbLine
 10
5.921905001359252
 20
9.790748668581668
 30
0.0
 11
5.921905001359252
 21
10.21248529278976
 31
0.0
  0
LINE
  5
4A
330
48
100
AcDbEntity
  8
DIM
 62
     0
100
AcDbLine
 10
7.66825318194234
 20
9.799852156712475
 30
0.0
 11
7.66825318194234
 21
10.21248529278976
 31
0.0
  0
LINE
  5
4B
330
48
100
AcDbEntity
  8
DIM
 62
     0
100
AcDbLine
 10
6.041905001359253
 20
10.14248529278977
 30
0.0
 11
6.509185503656252
 21
10.14248529278977
 31
0.0
  0
LINE
  5
4C
330
48
100
AcDbEntity
  8
DIM
 62
     0
100
AcDbLine
 10
7.54825318194234
 20
10.14248529278977
 30
0.0
 11
7.080972679645339
 21
10.14248529278977
 31
0.0
  0
SOLID
  5
4D
330
48
100
AcDbEntity
  8
DIM
 62
     0
100
AcDbTrace
 10
6.041905001359253
 20
10.16248529278976
 30
0.0
 11
6.041905001359253
 21
10.12248529278976
 31
0.0
 12
5.921905001359252
 22
10.14248529278977
 32
0.0
 13
5.921905001359252
 23
10.14248529278977
 33
0.0
  0
SOLID
  5
4E
330
48
100
AcDbEntity
  8
DIM
 62
     0
100
AcDbTrace
 10
7.54825318194234
 20
10.16248529278976
 30
0.0
 11
7.54825318194234
 21
10.12248529278976
 31
0.0
 12
7.66825318194234
 22
10.14248529278977
 32
0.0
 13
7.66825318194234
 23
10.14248529278977
 33
0.0
  0
MTEXT
  5
4F
330
48
100
AcDbEntity
  8
DIM
 62
     0
100
AcDbMText
 10
6.795079091650795
 20
10.14248529278977
 30
0.0
 40
0.1
 41
0.0
 71
     5
 72
     1
  1
\A1;1.75 Dia.
1001
ACAD
1000
MTEXTBEGIN
1070
    73
1070
     1
1070
    44
1040
1.0
1070
    74
1070
     0
1000
MTEXTEND
1000
MTEXTBEGIN
1070
    73
1070
     1
1070
    44
1040
1.0
1070
    74
1070
     0
1000
MTEXTEND
1000
MTEXTBEGIN
1070
    73
1070
     1
1070
    44
1040
1.0
1070
    74
1070
     0
1000
MTEXTEND
1000
MTEXTBEGIN
1070
    73
1070
     1
1070
    44
1040
1.0
1070
    74
1070
     0
1000
MTEXTEND
1000
MTEXTBEGIN
1070
    73
1070
     1
1070
    44
1040
1.0
1070
    74
1070
     0
1000
MTEXTEND
  0
POINT
  5
50
330
48
100
AcDbEntity
  8
DEFPOINTS
 62
     0
100
AcDbPoint
 10
5.921905001359252
 20
9.730748668581664
 30
0.0
  0
POINT
  5
51
330
48
100
AcDbEntity
  8
DEFPOINTS
 62
     0
100
AcDbPoint
 10
7.66825318194234
 20
9.739852156712476
 30
0.0
  0
POINT
  5
52
330
48
100
AcDbEntity
  8
DEFPOINTS
 62
     0
100
AcDbPoint
 10
7.66825318194234
 20
10.14248529278977
 30
0.0
  0
ENDBLK
  5
54
330
48
100
AcDbEntity
  8
0
100
AcDbBlockEnd
  0
BLOCK
  5
2B3
330
2A8
100
AcDbEntity
  8
0
100
AcDbBlockBegin
  2
*D10
 70
     1
 10
0.0
 20
0.0
 30
0.0
  3
*D10
  1

  0
LINE
  5
2A9
330
2A8
100
AcDbEntity
  8
DIM
 62
     0
100
AcDbLine
 10
4.100840969410215
 20
5.920475913143532
 30
0.0
 11
4.446750283626551
 21
5.920475913143532
 31
0.0
  0
LINE
  5
2AA
330
2A8
100
AcDbEntity
  8
DIM
 62
     0
100
AcDbLine
 10
2.77237812550773
 20
7.855499809634754
 30
0.0
 11
4.446750283626553
 21
7.855499809634754
 31
0.0
  0
LINE
  5
2AB
330
2A8
100
AcDbEntity
  8
DIM
 62
     0
100
AcDbLine
 10
4.376750283626551
 20
6.040475913143532
 30
0.0
 11
4.376750283626551
 21
6.816930562616974
 31
0.0
  0
LINE
  5
2AC
330
2A8
100
AcDbEntity
  8
DIM
 62
     0
100
AcDbLine
 10
4.376750283626551
 20
7.735499809634754
 30
0.0
 11
4.376750283626551
 21
6.959045160161314
 31
0.0
  0
SOLID
  5
2AD
330
2A8
100
AcDbEntity
  8
DIM
 62
     0
100
AcDbTrace
 10
4.356750283626553
 20
6.040475913143532
 30
0.0
 11
4.396750283626551
 21
6.040475913143532
 31
0.0
 12
4.376750283626551
 22
5.920475913143532
 32
0.0
 13
4.376750283626551
 23
5.920475913143532
 33
0.0
  0
SOLID
  5
2AE
330
2A8
100
AcDbEntity
  8
DIM
 62
     0
100
AcDbTrace
 10
4.356750283626553
 20
7.735499809634754
 30
0.0
 11
4.396750283626551
 21
7.735499809634754
 31
0.0
 12
4.376750283626551
 22
7.855499809634754
 32
0.0
 13
4.376750283626551
 23
7.855499809634754
 33
0.0
  0
MTEXT
  5
2AF
330
2A8
100
AcDbEntity
  8
DIM
 62
     0
100
AcDbMText
 10
4.376750283626551
 20
6.887987861389144
 30
0.0
 40
0.1
 41
0.0
 71
     5
 72
     1
  1
\A1;1.94
1001
ACAD
1000
MTEXTBEGIN
1070
    73
1070
     1
1070
    44
1040
1.0
1070
    74
1070
     0
1000
MTEXTEND
1000
MTEXTBEGIN
1070
    73
1070
     1
1070
    44
1040
1.0
1070
    74
1070
     0
1000
MTEXTEND
1000
MTEXTBEGIN
1070
    73
1070
     1
1070
    44
1040
1.0
1070
    74
1070
     0
1000
MTEXTEND
1000
MTEXTBEGIN
1070
    73
1070
     1
1070
    44
1040
1.0
1070
    74
1070
     0
1000
MTEXTEND
1000
MTEXTBEGIN
1070
    73
1070
     1
1070
    44
1040
1.0
1070
    74
1070
     0
1000
MTEXTEND
  0
POINT
  5
2B0
330
2A8
100
AcDbEntity
  8
DEFPOINTS
 62
     0
100
AcDbPoint
 10
4.040840969410215
 20
5.920475913143532
 30
0.0
  0
POINT
  5
2B1
330
2A8
100
AcDbEntity
  8
DEFPOINTS
 62
     0
100
AcDbPoint
 10
2.71237812550773
 20
7.855499809634754
 30
0.0
  0
POINT
  5
2B2
330
2A8
100
AcDbEntity
  8
DEFPOINTS
 62
     0
100
AcDbPoint
 10
4.376750283626551
 20
7.855499809634754
 30
0.0
  0
ENDBLK
  5
2B4
330
2A8
100
AcDbEntity
  8
0
100
AcDbBlockEnd
  0
BLOCK
  5
1FF
330
1F4
100
AcDbEntity
  8
0
100
AcDbBlockBegin
  2
*D11
 70
     1
 10
0.0
 20
0.0
 30
0.0
  3
*D11
  1

  0
LINE
  5
1F5
330
1F4
100
AcDbEntity
  8
DIM
 62
     0
100
AcDbLine
 10
4.085860348308195
 20
5.920475913143532
 30
0.0
 11
4.446750283626553
 21
5.920475913143532
 31
0.0
  0
LINE
  5
1F6
330
1F4
100
AcDbEntity
  8
DIM
 62
     0
100
AcDbLine
 10
3.661881295174459
 20
4.600426851723587
 30
0.0
 11
4.446750283626553
 21
4.600426851723587
 31
0.0
  0
LINE
  5
1F7
330
1F4
100
AcDbEntity
  8
DIM
 62
     0
100
AcDbLine
 10
4.376750283626551
 20
5.800475913143531
 30
0.0
 11
4.376750283626551
 21
5.331542787617733
 31
0.0
  0
LINE
  5
1F8
330
1F4
100
AcDbEntity
  8
DIM
 62
     0
100
AcDbLine
 10
4.376750283626551
 20
4.720426851723586
 30
0.0
 11
4.376750283626551
 21
5.189359977249384
 31
0.0
  0
SOLID
  5
1F9
330
1F4
100
AcDbEntity
  8
DIM
 62
     0
100
AcDbTrace
 10
4.356750283626553
 20
5.800475913143531
 30
0.0
 11
4.396750283626551
 21
5.800475913143531
 31
0.0
 12
4.376750283626551
 22
5.920475913143532
 32
0.0
 13
4.376750283626551
 23
5.920475913143532
 33
0.0
  0
SOLID
  5
1FA
330
1F4
100
AcDbEntity
  8
DIM
 62
     0
100
AcDbTrace
 10
4.356750283626553
 20
4.720426851723586
 30
0.0
 11
4.396750283626551
 21
4.720426851723586
 31
0.0
 12
4.376750283626551
 22
4.600426851723587
 32
0.0
 13
4.376750283626551
 23
4.600426851723587
 33
0.0
  0
MTEXT
  5
1FB
330
1F4
100
AcDbEntity
  8
DIM
 62
     0
100
AcDbMText
 10
4.376750283626551
 20
5.260451382433559
 30
0.0
 40
0.1
 41
0.0
 71
     5
 72
     1
  1
\A1;1.32
1001
ACAD
1000
MTEXTBEGIN
1070
    73
1070
     1
1070
    44
1040
1.0
1070
    74
1070
     0
1000
MTEXTEND
1000
MTEXTBEGIN
1070
    73
1070
     1
1070
    44
1040
1.0
1070
    74
1070
     0
1000
MTEXTEND
1000
MTEXTBEGIN
1070
    73
1070
     1
1070
    44
1040
1.0
1070
    74
1070
     0
1000
MTEXTEND
1000
MTEXTBEGIN
1070
    73
1070
     1
1070
    44
1040
1.0
1070
    74
1070
     0
1000
MTEXTEND
1000
MTEXTBEGIN
1070
    73
1070
     1
1070
    44
1040
1.0
1070
    74
1070
     0
1000
MTEXTEND
  0
POINT
  5
1FC
330
1F4
100
AcDbEntity
  8
DEFPOINTS
 62
     0
100
AcDbPoint
 10
4.025860348308196
 20
5.920475913143532
 30
0.0
  0
POINT
  5
1FD
330
1F4
100
AcDbEntity
  8
DEFPOINTS
 62
     0
100
AcDbPoint
 10
3.601881295174459
 20
4.600426851723587
 30
0.0
  0
POINT
  5
1FE
330
1F4
100
AcDbEntity
  8
DEFPOINTS
 62
     0
100
AcDbPoint
 10
4.376750283626551
 20
4.600426851723587
 30
0.0
  0
ENDBLK
  5
200
330
1F4
100
AcDbEntity
  8
0
100
AcDbBlockEnd
  0
BLOCK
  5
253
330
248
100
AcDbEntity
  8
0
100
AcDbBlockBegin
  2
*D12
 70
     1
 10
0.0
 20
0.0
 30
0.0
  3
*D12
  1

  0
LINE
  5
249
330
248
100
AcDbEntity
  8
DIM
 62
     0
100
AcDbLine
 10
3.661881295174459
 20
4.600426851723587
 30
0.0
 11
4.446750283626553
 21
4.600426851723587
 31
0.0
  0
LINE
  5
24A
330
248
100
AcDbEntity
  8
DIM
 62
     0
100
AcDbLine
 10
3.677188632469066
 20
3.60347167042312
 30
0.0
 11
4.446750283626553
 21
3.60347167042312
 31
0.0
  0
LINE
  5
24B
330
248
100
AcDbEntity
  8
DIM
 62
     0
100
AcDbLine
 10
4.376750283626551
 20
4.480426851723587
 30
0.0
 11
4.376750283626551
 21
4.339639120100183
 31
0.0
  0
LINE
  5
24C
330
248
100
AcDbEntity
  8
DIM
 62
     0
100
AcDbLine
 10
4.376750283626551
 20
3.72347167042312
 30
0.0
 11
4.376750283626551
 21
3.864259402046523
 31
0.0
  0
SOLID
  5
24D
330
248
100
AcDbEntity
  8
DIM
 62
     0
100
AcDbTrace
 10
4.356750283626553
 20
4.480426851723587
 30
0.0
 11
4.396750283626551
 21
4.480426851723587
 31
0.0
 12
4.376750283626551
 22
4.600426851723587
 32
0.0
 13
4.376750283626551
 23
4.600426851723587
 33
0.0
  0
SOLID
  5
24E
330
248
100
AcDbEntity
  8
DIM
 62
     0
100
AcDbTrace
 10
4.356750283626553
 20
3.72347167042312
 30
0.0
 11
4.396750283626551
 21
3.72347167042312
 31
0.0
 12
4.376750283626551
 22
3.60347167042312
 32
0.0
 13
4.376750283626551
 23
3.60347167042312
 33
0.0
  0
MTEXT
  5
24F
330
248
100
AcDbEntity
  8
DIM
 62
     0
100
AcDbMText
 10
4.376750283626551
 20
4.101949261073355
 30
0.0
 40
0.1
 41
0.0
 71
     5
 72
     1
  1
\A1;1.00" Each\PAdditional\PBlock
1001
ACAD
1000
MTEXTBEGIN
1070
    73
1070
     1
1070
    44
1040
1.0
1070
    74
1070
     0
1000
MTEXTEND
1000
MTEXTBEGIN
1070
    73
1070
     1
1070
    44
1040
1.0
1070
    74
1070
     0
1000
MTEXTEND
1000
MTEXTBEGIN
1070
    73
1070
     1
1070
    44
1040
1.0
1070
    74
1070
     0
1000
MTEXTEND
1000
MTEXTBEGIN
1070
    73
1070
     1
1070
    44
1040
1.0
1070
    74
1070
     0
1000
MTEXTEND
1000
MTEXTBEGIN
1070
    73
1070
     1
1070
    44
1040
1.0
1070
    74
1070
     0
1000
MTEXTEND
  0
POINT
  5
250
330
248
100
AcDbEntity
  8
DEFPOINTS
 62
     0
100
AcDbPoint
 10
3.601881295174459
 20
4.600426851723587
 30
0.0
  0
POINT
  5
251
330
248
100
AcDbEntity
  8
DEFPOINTS
 62
     0
100
AcDbPoint
 10
3.617188632469066
 20
3.60347167042312
 30
0.0
  0
POINT
  5
252
330
248
100
AcDbEntity
  8
DEFPOINTS
 62
     0
100
AcDbPoint
 10
4.376750283626551
 20
3.60347167042312
 30
0.0
  0
ENDBLK
  5
254
330
248
100
AcDbEntity
  8
0
100
AcDbBlockEnd
  0
BLOCK
  5
245
330
23A
100
AcDbEntity
  8
0
100
AcDbBlockBegin
  2
*D13
 70
     1
 10
0.0
 20
0.0
 30
0.0
  3
*D13
  1

  0
LINE
  5
23B
330
23A
100
AcDbEntity
  8
DIM
 62
     0
100
AcDbLine
 10
1.65204163877738
 20
3.965426851723566
 30
0.0
 11
1.65204163877738
 21
2.773884518639187
 31
0.0
  0
LINE
  5
23C
330
23A
100
AcDbEntity
  8
DIM
 62
     0
100
AcDbLine
 10
3.772714612238076
 20
3.965426851723563
 30
0.0
 11
3.772714612238076
 21
2.773884518639187
 31
0.0
  0
LINE
  5
23D
330
23A
100
AcDbEntity
  8
DIM
 62
     0
100
AcDbLine
 10
1.77204163877738
 20
2.843884518639187
 30
0.0
 11
2.562159844470893
 21
2.843884518639187
 31
0.0
  0
LINE
  5
23E
330
23A
100
AcDbEntity
  8
DIM
 62
     0
100
AcDbLine
 10
3.652714612238077
 20
2.843884518639187
 30
0.0
 11
2.862596406544563
 21
2.843884518639187
 31
0.0
  0
SOLID
  5
23F
330
23A
100
AcDbEntity
  8
DIM
 62
     0
100
AcDbTrace
 10
1.77204163877738
 20
2.863884518639187
 30
0.0
 11
1.77204163877738
 21
2.823884518639187
 31
0.0
 12
1.65204163877738
 22
2.843884518639187
 32
0.0
 13
1.65204163877738
 23
2.843884518639187
 33
0.0
  0
SOLID
  5
240
330
23A
100
AcDbEntity
  8
DIM
 62
     0
100
AcDbTrace
 10
3.652714612238077
 20
2.863884518639187
 30
0.0
 11
3.652714612238077
 21
2.823884518639187
 31
0.0
 12
3.772714612238076
 22
2.843884518639187
 32
0.0
 13
3.772714612238076
 23
2.843884518639187
 33
0.0
  0
MTEXT
  5
241
330
23A
100
AcDbEntity
  8
DIM
 62
     0
100
AcDbMText
 10
2.712378125507728
 20
2.843884518639187
 30
0.0
 40
0.1
 41
0.0
 71
     5
 72
     1
  1
\A1;2.12
1001
ACAD
1000
MTEXTBEGIN
1070
    73
1070
     1
1070
    44
1040
1.0
1070
    74
1070
     0
1000
MTEXTEND
1000
MTEXTBEGIN
1070
    73
1070
     1
1070
    44
1040
1.0
1070
    74
1070
     0
1000
MTEXTEND
1000
MTEXTBEGIN
1070
    73
1070
     1
1070
    44
1040
1.0
1070
    74
1070
     0
1000
MTEXTEND
1000
MTEXTBEGIN
1070
    73
1070
     1
1070
    44
1040
1.0
1070
    74
1070
     0
1000
MTEXTEND
  0
POINT
  5
242
330
23A
100
AcDbEntity
  8
DEFPOINTS
 62
     0
100
AcDbPoint
 10
1.65204163877738
 20
4.025426851723566
 30
0.0
  0
POINT
  5
243
330
23A
100
AcDbEntity
  8
DEFPOINTS
 62
     0
100
AcDbPoint
 10
3.772714612238076
 20
4.025426851723563
 30
0.0
  0
POINT
  5
244
330
23A
100
AcDbEntity
  8
DEFPOINTS
 62
     0
100
AcDbPoint
 10
3.772714612238076
 20
2.843884518639187
 30
0.0
  0
ENDBLK
  5
246
330
23A
100
AcDbEntity
  8
0
100
AcDbBlockEnd
  0
BLOCK
  5
45
330
3A
100
AcDbEntity
  8
0
100
AcDbBlockBegin
  2
*D14
 70
     1
 10
0.0
 20
0.0
 30
0.0
  3
*D14
  1

  0
LINE
  5
3B
330
3A
100
AcDbEntity
  8
DIM
 62
     0
100
AcDbLine
 10
5.588239458072584
 20
3.965475913143496
 30
0.0
 11
5.588239458072584
 21
3.048274091870377
 31
0.0
  0
LINE
  5
3C
330
3A
100
AcDbEntity
  8
DIM
 62
     0
100
AcDbLine
 10
7.228076263261562
 20
3.965475913143496
 30
0.0
 11
7.228076263261562
 21
3.048274091870377
 31
0.0
  0
LINE
  5
3D
330
3A
100
AcDbEntity
  8
DIM
 62
     0
100
AcDbLine
 10
5.708239458072585
 20
3.118274091870377
 30
0.0
 11
6.263191967079078
 21
3.118274091870377
 31
0.0
  0
LINE
  5
3E
330
3A
100
AcDbEntity
  8
DIM
 62
     0
100
AcDbLine
 10
7.108076263261562
 20
3.118274091870377
 30
0.0
 11
6.553123754255068
 21
3.118274091870377
 31
0.0
  0
SOLID
  5
3F
330
3A
100
AcDbEntity
  8
DIM
 62
     0
100
AcDbTrace
 10
5.708239458072585
 20
3.138274091870377
 30
0.0
 11
5.708239458072585
 21
3.098274091870377
 31
0.0
 12
5.588239458072584
 22
3.118274091870377
 32
0.0
 13
5.588239458072584
 23
3.118274091870377
 33
0.0
  0
SOLID
  5
40
330
3A
100
AcDbEntity
  8
DIM
 62
     0
100
AcDbTrace
 10
7.108076263261562
 20
3.138274091870377
 30
0.0
 11
7.108076263261562
 21
3.098274091870377
 31
0.0
 12
7.228076263261562
 22
3.118274091870377
 32
0.0
 13
7.228076263261562
 23
3.118274091870377
 33
0.0
  0
MTEXT
  5
41
330
3A
100
AcDbEntity
  8
DIM
 62
     0
100
AcDbMText
 10
6.408157860667073
 20
3.118274091870377
 30
0.0
 40
0.1
 41
0.0
 71
     5
 72
     1
  1
\A1;1.64
1001
ACAD
1000
MTEXTBEGIN
1070
    73
1070
     1
1070
    44
1040
1.0
1070
    74
1070
     0
1000
MTEXTEND
1000
MTEXTBEGIN
1070
    73
1070
     1
1070
    44
1040
1.0
1070
    74
1070
     0
1000
MTEXTEND
1000
MTEXTBEGIN
1070
    73
1070
     1
1070
    44
1040
1.0
1070
    74
1070
     0
1000
MTEXTEND
1000
MTEXTBEGIN
1070
    73
1070
     1
1070
    44
1040
1.0
1070
    74
1070
     0
1000
MTEXTEND
1000
MTEXTBEGIN
1070
    73
1070
     1
1070
    44
1040
1.0
1070
    74
1070
     0
1000
MTEXTEND
  0
POINT
  5
42
330
3A
100
AcDbEntity
  8
DEFPOINTS
 62
     0
100
AcDbPoint
 10
5.588239458072584
 20
4.025475913143496
 30
0.0
  0
POINT
  5
43
330
3A
100
AcDbEntity
  8
DEFPOINTS
 62
     0
100
AcDbPoint
 10
7.228076263261562
 20
4.025475913143496
 30
0.0
  0
POINT
  5
44
330
3A
100
AcDbEntity
  8
DEFPOINTS
 62
     0
100
AcDbPoint
 10
7.228076263261562
 20
3.118274091870377
 30
0.0
  0
ENDBLK
  5
46
330
3A
100
AcDbEntity
  8
0
100
AcDbBlockEnd
  0
BLOCK
  5
37
330
2B
100
AcDbEntity
  8
0
100
AcDbBlockBegin
  2
*D15
 70
     1
 10
0.0
 20
0.0
 30
0.0
  3
*D15
  1

  0
LINE
  5
2C
330
2B
100
AcDbEntity
  8
DIM
 62
     0
100
AcDbLine
 10
7.00315786066718
 20
6.633574028029662
 30
0.0
 11
7.00315786066718
 21
7.92516887789052
 31
0.0
  0
LINE
  5
2D
330
2B
100
AcDbEntity
  8
DIM
 62
     0
100
AcDbLine
 10
5.813157860667182
 20
6.633574028029662
 30
0.0
 11
5.813157860667182
 21
7.92516887789052
 31
0.0
  0
LINE
  5
2E
330
2B
100
AcDbEntity
  8
DIM
 62
     0
100
AcDbLine
 10
7.123157860667181
 20
7.85516887789052
 30
0.0
 11
7.243157860667182
 21
7.85516887789052
 31
0.0
  0
LINE
  5
2F
330
2B
100
AcDbEntity
  8
DIM
 62
     0
100
AcDbLine
 10
5.693157860667182
 20
7.85516887789052
 30
0.0
 11
5.573157860667182
 21
7.85516887789052
 31
0.0
  0
SOLID
  5
30
330
2B
100
AcDbEntity
  8
DIM
 62
     0
100
AcDbTrace
 10
7.123157860667181
 20
7.875168877890518
 30
0.0
 11
7.123157860667181
 21
7.835168877890519
 31
0.0
 12
7.00315786066718
 22
7.85516887789052
 32
0.0
 13
7.00315786066718
 23
7.85516887789052
 33
0.0
  0
SOLID
  5
31
330
2B
100
AcDbEntity
  8
DIM
 62
     0
100
AcDbTrace
 10
5.693157860667182
 20
7.875168877890518
 30
0.0
 11
5.693157860667182
 21
7.835168877890519
 31
0.0
 12
5.813157860667182
 22
7.85516887789052
 32
0.0
 13
5.813157860667182
 23
7.85516887789052
 33
0.0
  0
MTEXT
  5
32
330
2B
100
AcDbEntity
  8
DIM
 62
     0
100
AcDbMText
 10
6.401532711681528
 20
7.85516887789052
 30
0.0
 40
0.1
 41
0.0
 71
     5
 72
     1
  1
\A1;1.19 Dia. Thread
1001
ACAD
1000
MTEXTBEGIN
1070
    73
1070
     1
1070
    44
1040
1.0
1070
    74
1070
     0
1000
MTEXTEND
1000
MTEXTBEGIN
1070
    73
1070
     1
1070
    44
1040
1.0
1070
    74
1070
     0
1000
MTEXTEND
1000
MTEXTBEGIN
1070
    73
1070
     1
1070
    44
1040
1.0
1070
    74
1070
     0
1000
MTEXTEND
1000
MTEXTBEGIN
1070
    73
1070
     1
1070
    44
1040
1.0
1070
    74
1070
     0
1000
MTEXTEND
1000
MTEXTBEGIN
1070
    73
1070
     1
1070
    44
1040
1.0
1070
    74
1070
     0
1000
MTEXTEND
  0
POINT
  5
33
330
2B
100
AcDbEntity
  8
DEFPOINTS
 62
     0
100
AcDbPoint
 10
7.00315786066718
 20
6.573574028029661
 30
0.0
  0
POINT
  5
35
330
2B
100
AcDbEntity
  8
DEFPOINTS
 62
     0
100
AcDbPoint
 10
5.813157860667182
 20
6.573574028029661
 30
0.0
  0
POINT
  5
36
330
2B
100
AcDbEntity
  8
DEFPOINTS
 62
     0
100
AcDbPoint
 10
5.813157860667182
 20
7.85516887789052
 30
0.0
  0
ENDBLK
  5
38
330
2B
100
AcDbEntity
  8
0
100
AcDbBlockEnd
  0
BLOCK
  5
261
330
256
100
AcDbEntity
  8
0
100
AcDbBlockBegin
  2
*D16
 70
     1
 10
0.0
 20
0.0
 30
0.0
  3
*D16
  1

  0
LINE
  5
257
330
256
100
AcDbEntity
  8
DIM
 62
     0
100
AcDbLine
 10
3.772714612238076
 20
3.965426851723563
 30
0.0
 11
3.772714612238076
 21
3.048934131130311
 31
0.0
  0
LINE
  5
258
330
256
100
AcDbEntity
  8
DIM
 62
     0
100
AcDbLine
 10
2.712378125507728
 20
3.176111658427017
 30
0.0
 11
2.712378125507728
 21
3.048934131130313
 31
0.0
  0
LINE
  5
259
330
256
100
AcDbEntity
  8
DIM
 62
     0
100
AcDbLine
 10
3.652714612238077
 20
3.118934131130313
 30
0.0
 11
3.387682794520924
 21
3.118934131130313
 31
0.0
  0
LINE
  5
25A
330
256
100
AcDbEntity
  8
DIM
 62
     0
100
AcDbLine
 10
2.832378125507728
 20
3.118934131130313
 30
0.0
 11
3.097409943224882
 21
3.118934131130313
 31
0.0
  0
SOLID
  5
25B
330
256
100
AcDbEntity
  8
DIM
 62
     0
100
AcDbTrace
 10
3.652714612238077
 20
3.138934131130313
 30
0.0
 11
3.652714612238077
 21
3.098934131130313
 31
0.0
 12
3.772714612238076
 22
3.118934131130313
 32
0.0
 13
3.772714612238076
 23
3.118934131130313
 33
0.0
  0
SOLID
  5
25C
330
256
100
AcDbEntity
  8
DIM
 62
     0
100
AcDbTrace
 10
2.832378125507728
 20
3.138934131130313
 30
0.0
 11
2.832378125507728
 21
3.098934131130313
 31
0.0
 12
2.712378125507728
 22
3.118934131130313
 32
0.0
 13
2.712378125507728
 23
3.118934131130313
 33
0.0
  0
MTEXT
  5
25D
330
256
100
AcDbEntity
  8
DIM
 62
     0
100
AcDbMText
 10
3.242546368872903
 20
3.118934131130313
 30
0.0
 40
0.1
 41
0.0
 71
     5
 72
     1
  1
\A1;1.06
1001
ACAD
1000
MTEXTBEGIN
1070
    73
1070
     1
1070
    44
1040
1.0
1070
    74
1070
     0
1000
MTEXTEND
1000
MTEXTBEGIN
1070
    73
1070
     1
1070
    44
1040
1.0
1070
    74
1070
     0
1000
MTEXTEND
1000
MTEXTBEGIN
1070
    73
1070
     1
1070
    44
1040
1.0
1070
    74
1070
     0
1000
MTEXTEND
1000
MTEXTBEGIN
1070
    73
1070
     1
1070
    44
1040
1.0
1070
    74
1070
     0
1000
MTEXTEND
  0
POINT
  5
25E
330
256
100
AcDbEntity
  8
DEFPOINTS
 62
     0
100
AcDbPoint
 10
3.772714612238076
 20
4.025426851723563
 30
0.0
  0
POINT
  5
25F
330
256
100
AcDbEntity
  8
DEFPOINTS
 62
     0
100
AcDbPoint
 10
2.712378125507728
 20
3.236111658427017
 30
0.0
  0
POINT
  5
260
330
256
100
AcDbEntity
  8
DEFPOINTS
 62
     0
100
AcDbPoint
 10
2.712378125507728
 20
3.118934131130313
 30
0.0
  0
ENDBLK
  5
262
330
256
100
AcDbEntity
  8
0
100
AcDbBlockEnd
  0
BLOCK
  5
1F1
330
1E6
100
AcDbEntity
  8
0
100
AcDbBlockBegin
  2
*D17
 70
     1
 10
0.0
 20
0.0
 30
0.0
  3
*D17
  1

  0
LINE
  5
1E7
330
1E6
100
AcDbEntity
  8
DIM
 62
     0
100
AcDbLine
 10
5.019695016764694
 20
5.920475913143532
 30
0.0
 11
4.805651604800316
 21
5.920475913143532
 31
0.0
  0
LINE
  5
1E8
330
1E6
100
AcDbEntity
  8
DIM
 62
     0
100
AcDbLine
 10
5.555311805929401
 20
3.600475913143498
 30
0.0
 11
4.805651604800316
 21
3.600475913143498
 31
0.0
  0
LINE
  5
1E9
330
1E6
100
AcDbEntity
  8
DIM
 62
     0
100
AcDbLine
 10
4.875651604800316
 20
5.800475913143531
 30
0.0
 11
4.875651604800316
 21
4.83156731832769
 31
0.0
  0
LINE
  5
1EA
330
1E6
100
AcDbEntity
  8
DIM
 62
     0
100
AcDbLine
 10
4.875651604800316
 20
3.720475913143498
 30
0.0
 11
4.875651604800316
 21
4.68938450795934
 31
0.0
  0
SOLID
  5
1EB
330
1E6
100
AcDbEntity
  8
DIM
 62
     0
100
AcDbTrace
 10
4.855651604800318
 20
5.800475913143531
 30
0.0
 11
4.895651604800316
 21
5.800475913143531
 31
0.0
 12
4.875651604800316
 22
5.920475913143532
 32
0.0
 13
4.875651604800316
 23
5.920475913143532
 33
0.0
  0
SOLID
  5
1EC
330
1E6
100
AcDbEntity
  8
DIM
 62
     0
100
AcDbTrace
 10
4.855651604800318
 20
3.720475913143498
 30
0.0
 11
4.895651604800316
 21
3.720475913143498
 31
0.0
 12
4.875651604800316
 22
3.600475913143498
 32
0.0
 13
4.875651604800316
 23
3.600475913143498
 33
0.0
  0
MTEXT
  5
1ED
330
1E6
100
AcDbEntity
  8
DIM
 62
     0
100
AcDbMText
 10
4.875651604800316
 20
4.760475913143516
 30
0.0
 40
0.1
 41
0.0
 71
     5
 72
     1
  1
\A1;2.32
1001
ACAD
1000
MTEXTBEGIN
1070
    73
1070
     1
1070
    44
1040
1.0
1070
    74
1070
     0
1000
MTEXTEND
1000
MTEXTBEGIN
1070
    73
1070
     1
1070
    44
1040
1.0
1070
    74
1070
     0
1000
MTEXTEND
  0
POINT
  5
1EE
330
1E6
100
AcDbEntity
  8
DEFPOINTS
 62
     0
100
AcDbPoint
 10
5.079695016764695
 20
5.920475913143532
 30
0.0
  0
POINT
  5
1EF
330
1E6
100
AcDbEntity
  8
DEFPOINTS
 62
     0
100
AcDbPoint
 10
5.6153118059294
 20
3.600475913143498
 30
0.0
  0
POINT
  5
1F0
330
1E6
100
AcDbEntity
  8
DEFPOINTS
 62
     0
100
AcDbPoint
 10
4.875651604800316
 20
3.600475913143498
 30
0.0
  0
ENDBLK
  5
1F2
330
1E6
100
AcDbEntity
  8
0
100
AcDbBlockEnd
  0
BLOCK
  5
31D
330
312
100
AcDbEntity
  8
0
100
AcDbBlockBegin
  2
*D18
 70
     1
 10
0.0
 20
0.0
 30
0.0
  3
*D18
  1

  0
LINE
  5
313
330
312
100
AcDbEntity
  8
DIM
 62
     0
100
AcDbLine
 10
7.538777279679629
 20
7.712521346160705
 30
0.0
 11
7.538777279679629
 21
8.13425797036881
 31
0.0
  0
LINE
  5
314
330
312
100
AcDbEntity
  8
DIM
 62
     0
100
AcDbLine
 10
9.285125460262715
 20
7.721624834291517
 30
0.0
 11
9.285125460262715
 21
8.13425797036881
 31
0.0
  0
LINE
  5
315
330
312
100
AcDbEntity
  8
DIM
 62
     0
100
AcDbLine
 10
7.658777279679629
 20
8.06425797036881
 30
0.0
 11
8.12605778197663
 21
8.06425797036881
 31
0.0
  0
LINE
  5
316
330
312
100
AcDbEntity
  8
DIM
 62
     0
100
AcDbLine
 10
9.165125460262716
 20
8.06425797036881
 30
0.0
 11
8.697844957965717
 21
8.06425797036881
 31
0.0
  0
SOLID
  5
317
330
312
100
AcDbEntity
  8
DIM
 62
     0
100
AcDbTrace
 10
7.658777279679629
 20
8.08425797036881
 30
0.0
 11
7.658777279679629
 21
8.044257970368811
 31
0.0
 12
7.538777279679629
 22
8.06425797036881
 32
0.0
 13
7.538777279679629
 23
8.06425797036881
 33
0.0
  0
SOLID
  5
318
330
312
100
AcDbEntity
  8
DIM
 62
     0
100
AcDbTrace
 10
9.165125460262716
 20
8.08425797036881
 30
0.0
 11
9.165125460262716
 21
8.044257970368811
 31
0.0
 12
9.285125460262715
 22
8.06425797036881
 32
0.0
 13
9.285125460262715
 23
8.06425797036881
 33
0.0
  0
MTEXT
  5
319
330
312
100
AcDbEntity
  8
DIM
 62
     0
100
AcDbMText
 10
8.411951369971173
 20
8.06425797036881
 30
0.0
 40
0.1
 41
0.0
 71
     5
 72
     1
  1
\A1;1.75 Dia.
1001
ACAD
1000
MTEXTBEGIN
1070
    73
1070
     1
1070
    44
1040
1.0
1070
    74
1070
     0
1000
MTEXTEND
  0
POINT
  5
31A
330
312
100
AcDbEntity
  8
DEFPOINTS
 62
     0
100
AcDbPoint
 10
7.538777279679629
 20
7.652521346160705
 30
0.0
  0
POINT
  5
31B
330
312
100
AcDbEntity
  8
DEFPOINTS
 62
     0
100
AcDbPoint
 10
9.285125460262715
 20
7.661624834291517
 30
0.0
  0
POINT
  5
31C
330
312
100
AcDbEntity
  8
DEFPOINTS
 62
     0
100
AcDbPoint
 10
9.285125460262715
 20
8.06425797036881
 30
0.0
  0
ENDBLK
  5
31E
330
312
100
AcDbEntity
  8
0
100
AcDbBlockEnd
  0
BLOCK
  5
32A
330
31F
100
AcDbEntity
  8
0
100
AcDbBlockBegin
  2
*D19
 70
     1
 10
0.0
 20
0.0
 30
0.0
  3
*D19
  1

  0
LINE
  5
320
330
31F
100
AcDbEntity
  8
DIM
 62
     0
100
AcDbLine
 10
7.205111736392961
 20
1.887248590722537
 30
0.0
 11
7.205111736392961
 21
0.9700467694494177
 31
0.0
  0
LINE
  5
321
330
31F
100
AcDbEntity
  8
DIM
 62
     0
100
AcDbLine
 10
8.844948541581938
 20
1.887248590722537
 30
0.0
 11
8.844948541581938
 21
0.9700467694494177
 31
0.0
  0
LINE
  5
322
330
31F
100
AcDbEntity
  8
DIM
 62
     0
100
AcDbLine
 10
7.325111736392961
 20
1.040046769449417
 30
0.0
 11
7.880064245399455
 21
1.040046769449417
 31
0.0
  0
LINE
  5
323
330
31F
100
AcDbEntity
  8
DIM
 62
     0
100
AcDbLine
 10
8.724948541581939
 20
1.040046769449417
 30
0.0
 11
8.169996032575443
 21
1.040046769449417
 31
0.0
  0
SOLID
  5
324
330
31F
100
AcDbEntity
  8
DIM
 62
     0
100
AcDbTrace
 10
7.325111736392961
 20
1.060046769449417
 30
0.0
 11
7.325111736392961
 21
1.020046769449417
 31
0.0
 12
7.205111736392961
 22
1.040046769449417
 32
0.0
 13
7.205111736392961
 23
1.040046769449417
 33
0.0
  0
SOLID
  5
325
330
31F
100
AcDbEntity
  8
DIM
 62
     0
100
AcDbTrace
 10
8.724948541581939
 20
1.060046769449417
 30
0.0
 11
8.724948541581939
 21
1.020046769449417
 31
0.0
 12
8.844948541581938
 22
1.040046769449417
 32
0.0
 13
8.844948541581938
 23
1.040046769449417
 33
0.0
  0
MTEXT
  5
326
330
31F
100
AcDbEntity
  8
DIM
 62
     0
100
AcDbMText
 10
8.02503013898745
 20
1.040046769449417
 30
0.0
 40
0.1
 41
0.0
 71
     5
 72
     1
  1
\A1;1.64
1001
ACAD
1000
MTEXTBEGIN
1070
    73
1070
     1
1070
    44
1040
1.0
1070
    74
1070
     0
1000
MTEXTEND
  0
POINT
  5
327
330
31F
100
AcDbEntity
  8
DEFPOINTS
 62
     0
100
AcDbPoint
 10
7.205111736392961
 20
1.947248590722537
 30
0.0
  0
POINT
  5
328
330
31F
100
AcDbEntity
  8
DEFPOINTS
 62
     0
100
AcDbPoint
 10
8.844948541581938
 20
1.947248590722537
 30
0.0
  0
POINT
  5
329
330
31F
100
AcDbEntity
  8
DEFPOINTS
 62
     0
100
AcDbPoint
 10
8.844948541581938
 20
1.040046769449417
 30
0.0
  0
ENDBLK
  5
32B
330
31F
100
AcDbEntity
  8
0
100
AcDbBlockEnd
  0
BLOCK
  5
337
330
32C
100
AcDbEntity
  8
0
100
AcDbBlockBegin
  2
*D20
 70
     1
 10
0.0
 20
0.0
 30
0.0
  3
*D20
  1

  0
LINE
  5
32D
330
32C
100
AcDbEntity
  8
DIM
 62
     0
100
AcDbLine
 10
8.620030138987555
 20
4.555346705608702
 30
0.0
 11
8.620030138987555
 21
5.846941555469561
 31
0.0
  0
LINE
  5
32E
330
32C
100
AcDbEntity
  8
DIM
 62
     0
100
AcDbLine
 10
7.430030138987558
 20
4.555346705608702
 30
0.0
 11
7.430030138987558
 21
5.846941555469561
 31
0.0
  0
LINE
  5
32F
330
32C
100
AcDbEntity
  8
DIM
 62
     0
100
AcDbLine
 10
8.740030138987554
 20
5.77694155546956
 30
0.0
 11
8.860030138987555
 21
5.77694155546956
 31
0.0
  0
LINE
  5
330
330
32C
100
AcDbEntity
  8
DIM
 62
     0
100
AcDbLine
 10
7.310030138987558
 20
5.77694155546956
 30
0.0
 11
7.190030138987558
 21
5.77694155546956
 31
0.0
  0
SOLID
  5
331
330
32C
100
AcDbEntity
  8
DIM
 62
     0
100
AcDbTrace
 10
8.740030138987554
 20
5.79694155546956
 30
0.0
 11
8.740030138987554
 21
5.756941555469561
 31
0.0
 12
8.620030138987555
 22
5.77694155546956
 32
0.0
 13
8.620030138987555
 23
5.77694155546956
 33
0.0
  0
SOLID
  5
332
330
32C
100
AcDbEntity
  8
DIM
 62
     0
100
AcDbTrace
 10
7.310030138987558
 20
5.79694155546956
 30
0.0
 11
7.310030138987558
 21
5.756941555469561
 31
0.0
 12
7.430030138987558
 22
5.77694155546956
 32
0.0
 13
7.430030138987558
 23
5.77694155546956
 33
0.0
  0
MTEXT
  5
333
330
32C
100
AcDbEntity
  8
DIM
 62
     0
100
AcDbMText
 10
8.018404990001904
 20
5.77694155546956
 30
0.0
 40
0.1
 41
0.0
 71
     5
 72
     1
  1
\A1;1.19 Dia. Thread
1001
ACAD
1000
MTEXTBEGIN
1070
    73
1070
     1
1070
    44
1040
1.0
1070
    74
1070
     0
1000
MTEXTEND
  0
POINT
  5
334
330
32C
100
AcDbEntity
  8
DEFPOINTS
 62
     0
100
AcDbPoint
 10
8.620030138987555
 20
4.495346705608702
 30
0.0
  0
POINT
  5
335
330
32C
100
AcDbEntity
  8
DEFPOINTS
 62
     0
100
AcDbPoint
 10
7.430030138987558
 20
4.495346705608702
 30
0.0
  0
POINT
  5
336
330
32C
100
AcDbEntity
  8
DEFPOINTS
 62
     0
100
AcDbPoint
 10
7.430030138987558
 20
5.77694155546956
 30
0.0
  0
ENDBLK
  5
338
330
32C
100
AcDbEntity
  8
0
100
AcDbBlockEnd
  0
BLOCK
  5
344
330
339
100
AcDbEntity
  8
0
100
AcDbBlockBegin
  2
*D21
 70
     1
 10
0.0
 20
0.0
 30
0.0
  3
*D21
  1

  0
LINE
  5
33A
330
339
100
AcDbEntity
  8
DIM
 62
     0
100
AcDbLine
 10
5.702732626628572
 20
3.842248590722572
 30
0.0
 11
6.063622561946928
 21
3.842248590722572
 31
0.0
  0
LINE
  5
33B
330
339
100
AcDbEntity
  8
DIM
 62
     0
100
AcDbLine
 10
5.278753573494834
 20
2.522199529302628
 30
0.0
 11
6.063622561946928
 21
2.522199529302628
 31
0.0
  0
LINE
  5
33C
330
339
100
AcDbEntity
  8
DIM
 62
     0
100
AcDbLine
 10
5.993622561946928
 20
3.722248590722572
 30
0.0
 11
5.993622561946928
 21
3.253315465196775
 31
0.0
  0
LINE
  5
33D
330
339
100
AcDbEntity
  8
DIM
 62
     0
100
AcDbLine
 10
5.993622561946928
 20
2.642199529302628
 30
0.0
 11
5.993622561946928
 21
3.111132654828425
 31
0.0
  0
SOLID
  5
33E
330
339
100
AcDbEntity
  8
DIM
 62
     0
100
AcDbTrace
 10
5.973622561946928
 20
3.722248590722572
 30
0.0
 11
6.013622561946927
 21
3.722248590722572
 31
0.0
 12
5.993622561946928
 22
3.842248590722572
 32
0.0
 13
5.993622561946928
 23
3.842248590722572
 33
0.0
  0
SOLID
  5
33F
330
339
100
AcDbEntity
  8
DIM
 62
     0
100
AcDbTrace
 10
5.973622561946928
 20
2.642199529302628
 30
0.0
 11
6.013622561946927
 21
2.642199529302628
 31
0.0
 12
5.993622561946928
 22
2.522199529302628
 32
0.0
 13
5.993622561946928
 23
2.522199529302628
 33
0.0
  0
MTEXT
  5
340
330
339
100
AcDbEntity
  8
DIM
 62
     0
100
AcDbMText
 10
5.993622561946927
 20
3.182224060012601
 30
0.0
 40
0.1
 41
0.0
 71
     5
 72
     1
  1
\A1;1.32
1001
ACAD
1000
MTEXTBEGIN
1070
    73
1070
     1
1070
    44
1040
1.0
1070
    74
1070
     0
1000
MTEXTEND
  0
POINT
  5
341
330
339
100
AcDbEntity
  8
DEFPOINTS
 62
     0
100
AcDbPoint
 10
5.642732626628572
 20
3.842248590722572
 30
0.0
  0
POINT
  5
342
330
339
100
AcDbEntity
  8
DEFPOINTS
 62
     0
100
AcDbPoint
 10
5.218753573494835
 20
2.522199529302628
 30
0.0
  0
POINT
  5
343
330
339
100
AcDbEntity
  8
DEFPOINTS
 62
     0
100
AcDbPoint
 10
5.993622561946928
 20
2.522199529302628
 30
0.0
  0
ENDBLK
  5
345
330
339
100
AcDbEntity
  8
0
100
AcDbBlockEnd
  0
BLOCK
  5
351
330
346
100
AcDbEntity
  8
0
100
AcDbBlockBegin
  2
*D22
 70
     1
 10
0.0
 20
0.0
 30
0.0
  3
*D22
  1

  0
LINE
  5
347
330
346
100
AcDbEntity
  8
DIM
 62
     0
100
AcDbLine
 10
6.636567295085072
 20
3.842248590722572
 30
0.0
 11
6.422523883120693
 21
3.842248590722572
 31
0.0
  0
LINE
  5
348
330
346
100
AcDbEntity
  8
DIM
 62
     0
100
AcDbLine
 10
7.172184084249777
 20
1.522248590722539
 30
0.0
 11
6.422523883120693
 21
1.522248590722539
 31
0.0
  0
LINE
  5
349
330
346
100
AcDbEntity
  8
DIM
 62
     0
100
AcDbLine
 10
6.492523883120694
 20
3.722248590722572
 30
0.0
 11
6.492523883120694
 21
2.75333999590673
 31
0.0
  0
LINE
  5
34A
330
346
100
AcDbEntity
  8
DIM
 62
     0
100
AcDbLine
 10
6.492523883120693
 20
1.642248590722539
 30
0.0
 11
6.492523883120694
 21
2.611157185538381
 31
0.0
  0
SOLID
  5
34B
330
346
100
AcDbEntity
  8
DIM
 62
     0
100
AcDbTrace
 10
6.472523883120694
 20
3.722248590722572
 30
0.0
 11
6.512523883120693
 21
3.722248590722572
 31
0.0
 12
6.492523883120694
 22
3.842248590722572
 32
0.0
 13
6.492523883120694
 23
3.842248590722572
 33
0.0
  0
SOLID
  5
34C
330
346
100
AcDbEntity
  8
DIM
 62
     0
100
AcDbTrace
 10
6.472523883120693
 20
1.642248590722539
 30
0.0
 11
6.512523883120692
 21
1.642248590722538
 31
0.0
 12
6.492523883120693
 22
1.522248590722539
 32
0.0
 13
6.492523883120693
 23
1.522248590722539
 33
0.0
  0
MTEXT
  5
34D
330
346
100
AcDbEntity
  8
DIM
 62
     0
100
AcDbMText
 10
6.492523883120693
 20
2.682248590722557
 30
0.0
 40
0.1
 41
0.0
 71
     5
 72
     1
  1
\A1;2.32
1001
ACAD
1000
MTEXTBEGIN
1070
    73
1070
     1
1070
    44
1040
1.0
1070
    74
1070
     0
1000
MTEXTEND
  0
POINT
  5
34E
330
346
100
AcDbEntity
  8
DEFPOINTS
 62
     0
100
AcDbPoint
 10
6.696567295085071
 20
3.842248590722572
 30
0.0
  0
POINT
  5
34F
330
346
100
AcDbEntity
  8
DEFPOINTS
 62
     0
100
AcDbPoint
 10
7.232184084249777
 20
1.522248590722539
 30
0.0
  0
POINT
  5
350
330
346
100
AcDbEntity
  8
DEFPOINTS
 62
     0
100
AcDbPoint
 10
6.492523883120693
 20
1.522248590722539
 30
0.0
  0
ENDBLK
  5
352
330
346
100
AcDbEntity
  8
0
100
AcDbBlockEnd
  0
BLOCK
  5
35E
330
353
100
AcDbEntity
  8
0
100
AcDbBlockBegin
  2
*D23
 70
     1
 10
0.0
 20
0.0
 30
0.0
  3
*D23
  1

  0
LINE
  5
354
330
353
100
AcDbEntity
  8
DIM
 62
     0
100
AcDbLine
 10
3.268913917097757
 20
1.887199529302607
 30
0.0
 11
3.268913917097757
 21
0.6956571962182279
 31
0.0
  0
LINE
  5
355
330
353
100
AcDbEntity
  8
DIM
 62
     0
100
AcDbLine
 10
5.389586890558453
 20
1.887199529302603
 30
0.0
 11
5.389586890558453
 21
0.6956571962182279
 31
0.0
  0
LINE
  5
356
330
353
100
AcDbEntity
  8
DIM
 62
     0
100
AcDbLine
 10
3.388913917097757
 20
0.765657196218228
 30
0.0
 11
4.179032122791269
 21
0.765657196218228
 31
0.0
  0
LINE
  5
357
330
353
100
AcDbEntity
  8
DIM
 62
     0
100
AcDbLine
 10
5.269586890558453
 20
0.765657196218228
 30
0.0
 11
4.47946868486494
 21
0.765657196218228
 31
0.0
  0
SOLID
  5
358
330
353
100
AcDbEntity
  8
DIM
 62
     0
100
AcDbTrace
 10
3.388913917097757
 20
0.785657196218228
 30
0.0
 11
3.388913917097757
 21
0.7456571962182279
 31
0.0
 12
3.268913917097757
 22
0.765657196218228
 32
0.0
 13
3.268913917097757
 23
0.765657196218228
 33
0.0
  0
SOLID
  5
359
330
353
100
AcDbEntity
  8
DIM
 62
     0
100
AcDbTrace
 10
5.269586890558453
 20
0.785657196218228
 30
0.0
 11
5.269586890558453
 21
0.7456571962182279
 31
0.0
 12
5.389586890558453
 22
0.765657196218228
 32
0.0
 13
5.389586890558453
 23
0.765657196218228
 33
0.0
  0
MTEXT
  5
35A
330
353
100
AcDbEntity
  8
DIM
 62
     0
100
AcDbMText
 10
4.329250403828105
 20
0.765657196218228
 30
0.0
 40
0.1
 41
0.0
 71
     5
 72
     1
  1
\A1;2.12
1001
ACAD
1000
MTEXTBEGIN
1070
    73
1070
     1
1070
    44
1040
1.0
1070
    74
1070
     0
1000
MTEXTEND
  0
POINT
  5
35B
330
353
100
AcDbEntity
  8
DEFPOINTS
 62
     0
100
AcDbPoint
 10
3.268913917097757
 20
1.947199529302607
 30
0.0
  0
POINT
  5
35C
330
353
100
AcDbEntity
  8
DEFPOINTS
 62
     0
100
AcDbPoint
 10
5.389586890558453
 20
1.947199529302603
 30
0.0
  0
POINT
  5
35D
330
353
100
AcDbEntity
  8
DEFPOINTS
 62
     0
100
AcDbPoint
 10
5.389586890558453
 20
0.765657196218228
 30
0.0
  0
ENDBLK
  5
35F
330
353
100
AcDbEntity
  8
0
100
AcDbBlockEnd
  0
BLOCK
  5
36B
330
360
100
AcDbEntity
  8
0
100
AcDbBlockBegin
  2
*D24
 70
     1
 10
0.0
 20
0.0
 30
0.0
  3
*D24
  1

  0
LINE
  5
361
330
360
100
AcDbEntity
  8
DIM
 62
     0
100
AcDbLine
 10
5.278753573494834
 20
2.522199529302628
 30
0.0
 11
6.063622561946929
 21
2.522199529302628
 31
0.0
  0
LINE
  5
362
330
360
100
AcDbEntity
  8
DIM
 62
     0
100
AcDbLine
 10
5.294060910789442
 20
1.525244348002161
 30
0.0
 11
6.063622561946928
 21
1.525244348002161
 31
0.0
  0
LINE
  5
363
330
360
100
AcDbEntity
  8
DIM
 62
     0
100
AcDbLine
 10
5.993622561946929
 20
2.402199529302627
 30
0.0
 11
5.993622561946929
 21
2.261411797679225
 31
0.0
  0
LINE
  5
364
330
360
100
AcDbEntity
  8
DIM
 62
     0
100
AcDbLine
 10
5.993622561946928
 20
1.645244348002161
 30
0.0
 11
5.993622561946928
 21
1.786032079625564
 31
0.0
  0
SOLID
  5
365
330
360
100
AcDbEntity
  8
DIM
 62
     0
100
AcDbTrace
 10
5.973622561946929
 20
2.402199529302627
 30
0.0
 11
6.013622561946928
 21
2.402199529302627
 31
0.0
 12
5.993622561946929
 22
2.522199529302628
 32
0.0
 13
5.993622561946929
 23
2.522199529302628
 33
0.0
  0
SOLID
  5
366
330
360
100
AcDbEntity
  8
DIM
 62
     0
100
AcDbTrace
 10
5.973622561946928
 20
1.645244348002161
 30
0.0
 11
6.013622561946927
 21
1.645244348002161
 31
0.0
 12
5.993622561946928
 22
1.525244348002161
 32
0.0
 13
5.993622561946928
 23
1.525244348002161
 33
0.0
  0
MTEXT
  5
367
330
360
100
AcDbEntity
  8
DIM
 62
     0
100
AcDbMText
 10
5.993622561946928
 20
2.023721938652395
 30
0.0
 40
0.1
 41
0.0
 71
     5
 72
     1
  1
\A1;1.00" Each\PAdditional\PBlock
1001
ACAD
1000
MTEXTBEGIN
1070
    73
1070
     1
1070
    44
1040
1.0
1070
    74
1070
     0
1000
MTEXTEND
  0
POINT
  5
368
330
360
100
AcDbEntity
  8
DEFPOINTS
 62
     0
100
AcDbPoint
 10
5.218753573494835
 20
2.522199529302628
 30
0.0
  0
POINT
  5
369
330
360
100
AcDbEntity
  8
DEFPOINTS
 62
     0
100
AcDbPoint
 10
5.234060910789443
 20
1.525244348002161
 30
0.0
  0
POINT
  5
36A
330
360
100
AcDbEntity
  8
DEFPOINTS
 62
     0
100
AcDbPoint
 10
5.993622561946928
 20
1.525244348002161
 30
0.0
  0
ENDBLK
  5
36C
330
360
100
AcDbEntity
  8
0
100
AcDbBlockEnd
  0
BLOCK
  5
378
330
36D
100
AcDbEntity
  8
0
100
AcDbBlockBegin
  2
*D25
 70
     1
 10
0.0
 20
0.0
 30
0.0
  3
*D25
  1

  0
LINE
  5
36E
330
36D
100
AcDbEntity
  8
DIM
 62
     0
100
AcDbLine
 10
5.389586890558453
 20
1.887199529302603
 30
0.0
 11
5.389586890558453
 21
0.9707068087093537
 31
0.0
  0
LINE
  5
36F
330
36D
100
AcDbEntity
  8
DIM
 62
     0
100
AcDbLine
 10
4.329250403828105
 20
1.097884336006058
 30
0.0
 11
4.329250403828105
 21
0.9707068087093537
 31
0.0
  0
LINE
  5
370
330
36D
100
AcDbEntity
  8
DIM
 62
     0
100
AcDbLine
 10
5.269586890558453
 20
1.040706808709353
 30
0.0
 11
5.0045550728413
 21
1.040706808709353
 31
0.0
  0
LINE
  5
371
330
36D
100
AcDbEntity
  8
DIM
 62
     0
100
AcDbLine
 10
4.449250403828105
 20
1.040706808709353
 30
0.0
 11
4.714282221545257
 21
1.040706808709353
 31
0.0
  0
SOLID
  5
372
330
36D
100
AcDbEntity
  8
DIM
 62
     0
100
AcDbTrace
 10
5.269586890558453
 20
1.060706808709353
 30
0.0
 11
5.269586890558453
 21
1.020706808709353
 31
0.0
 12
5.389586890558453
 22
1.040706808709353
 32
0.0
 13
5.389586890558453
 23
1.040706808709353
 33
0.0
  0
SOLID
  5
373
330
36D
100
AcDbEntity
  8
DIM
 62
     0
100
AcDbTrace
 10
4.449250403828105
 20
1.060706808709353
 30
0.0
 11
4.449250403828105
 21
1.020706808709353
 31
0.0
 12
4.329250403828105
 22
1.040706808709353
 32
0.0
 13
4.329250403828105
 23
1.040706808709353
 33
0.0
  0
MTEXT
  5
374
330
36D
100
AcDbEntity
  8
DIM
 62
     0
100
AcDbMText
 10
4.859418647193279
 20
1.040706808709353
 30
0.0
 40
0.1
 41
0.0
 71
     5
 72
     1
  1
\A1;1.06
1001
ACAD
1000
MTEXTBEGIN
1070
    73
1070
     1
1070
    44
1040
1.0
1070
    74
1070
     0
1000
MTEXTEND
  0
POINT
  5
375
330
36D
100
AcDbEntity
  8
DEFPOINTS
 62
     0
100
AcDbPoint
 10
5.389586890558453
 20
1.947199529302603
 30
0.0
  0
POINT
  5
376
330
36D
100
AcDbEntity
  8
DEFPOINTS
 62
     0
100
AcDbPoint
 10
4.329250403828105
 20
1.157884336006058
 30
0.0
  0
POINT
  5
377
330
36D
100
AcDbEntity
  8
DEFPOINTS
 62
     0
100
AcDbPoint
 10
4.329250403828105
 20
1.040706808709353
 30
0.0
  0
ENDBLK
  5
379
330
36D
100
AcDbEntity
  8
0
100
AcDbBlockEnd
  0
BLOCK
  5
385
330
37A
100
AcDbEntity
  8
0
100
AcDbBlockBegin
  2
*D26
 70
     1
 10
0.0
 20
0.0
 30
0.0
  3
*D26
  1

  0
LINE
  5
37B
330
37A
100
AcDbEntity
  8
DIM
 62
     0
100
AcDbLine
 10
2.376971121880769
 20
7.746084618985233
 30
0.0
 11
2.376971121880769
 21
8.13425797036881
 31
0.0
  0
LINE
  5
37C
330
37A
100
AcDbEntity
  8
DIM
 62
     0
100
AcDbLine
 10
3.996971121880769
 20
7.746084618985237
 30
0.0
 11
3.996971121880769
 21
8.13425797036881
 31
0.0
  0
LINE
  5
37D
330
37A
100
AcDbEntity
  8
DIM
 62
     0
100
AcDbLine
 10
2.496971121880769
 20
8.06425797036881
 30
0.0
 11
2.901077533886226
 21
8.06425797036881
 31
0.0
  0
LINE
  5
37E
330
37A
100
AcDbEntity
  8
DIM
 62
     0
100
AcDbLine
 10
3.876971121880769
 20
8.06425797036881
 30
0.0
 11
3.472864709875312
 21
8.06425797036881
 31
0.0
  0
SOLID
  5
37F
330
37A
100
AcDbEntity
  8
DIM
 62
     0
100
AcDbTrace
 10
2.496971121880769
 20
8.08425797036881
 30
0.0
 11
2.496971121880769
 21
8.044257970368811
 31
0.0
 12
2.376971121880769
 22
8.06425797036881
 32
0.0
 13
2.376971121880769
 23
8.06425797036881
 33
0.0
  0
SOLID
  5
380
330
37A
100
AcDbEntity
  8
DIM
 62
     0
100
AcDbTrace
 10
3.876971121880769
 20
8.08425797036881
 30
0.0
 11
3.876971121880769
 21
8.044257970368811
 31
0.0
 12
3.996971121880769
 22
8.06425797036881
 32
0.0
 13
3.996971121880769
 23
8.06425797036881
 33
0.0
  0
MTEXT
  5
381
330
37A
100
AcDbEntity
  8
DIM
 62
     0
100
AcDbMText
 10
3.186971121880769
 20
8.06425797036881
 30
0.0
 40
0.1
 41
0.0
 71
     5
 72
     1
  1
\A1;1.62 Dia.
1001
ACAD
1000
MTEXTBEGIN
1070
    73
1070
     1
1070
    44
1040
1.0
1070
    74
1070
     0
1000
MTEXTEND
  0
POINT
  5
382
330
37A
100
AcDbEntity
  8
DEFPOINTS
 62
     0
100
AcDbPoint
 10
2.376971121880769
 20
7.686084618985233
 30
0.0
  0
POINT
  5
383
330
37A
100
AcDbEntity
  8
DEFPOINTS
 62
     0
100
AcDbPoint
 10
3.996971121880769
 20
7.686084618985237
 30
0.0
  0
POINT
  5
384
330
37A
100
AcDbEntity
  8
DEFPOINTS
 62
     0
100
AcDbPoint
 10
3.996971121880769
 20
8.06425797036881
 30
0.0
  0
ENDBLK
  5
386
330
37A
100
AcDbEntity
  8
0
100
AcDbBlockEnd
  0
BLOCK
  5
392
330
387
100
AcDbEntity
  8
0
100
AcDbBlockBegin
  2
*D27
 70
     1
 10
0.0
 20
0.0
 30
0.0
  3
*D27
  1

  0
LINE
  5
388
330
387
100
AcDbEntity
  8
DIM
 62
     0
100
AcDbLine
 10
5.717713247730591
 20
3.842248590722572
 30
0.0
 11
6.063622561946928
 21
3.842248590722572
 31
0.0
  0
LINE
  5
389
330
387
100
AcDbEntity
  8
DIM
 62
     0
100
AcDbLine
 10
4.389250403828106
 20
5.777272487213795
 30
0.0
 11
6.063622561946928
 21
5.777272487213794
 31
0.0
  0
LINE
  5
38A
330
387
100
AcDbEntity
  8
DIM
 62
     0
100
AcDbLine
 10
5.993622561946928
 20
3.962248590722572
 30
0.0
 11
5.993622561946928
 21
4.738703240196015
 31
0.0
  0
LINE
  5
38B
330
387
100
AcDbEntity
  8
DIM
 62
     0
100
AcDbLine
 10
5.993622561946928
 20
5.657272487213795
 30
0.0
 11
5.993622561946928
 21
4.880817837740353
 31
0.0
  0
SOLID
  5
38C
330
387
100
AcDbEntity
  8
DIM
 62
     0
100
AcDbTrace
 10
5.973622561946928
 20
3.962248590722572
 30
0.0
 11
6.013622561946927
 21
3.962248590722572
 31
0.0
 12
5.993622561946928
 22
3.842248590722572
 32
0.0
 13
5.993622561946928
 23
3.842248590722572
 33
0.0
  0
SOLID
  5
38D
330
387
100
AcDbEntity
  8
DIM
 62
     0
100
AcDbTrace
 10
5.973622561946928
 20
5.657272487213795
 30
0.0
 11
6.013622561946927
 21
5.657272487213794
 31
0.0
 12
5.993622561946928
 22
5.777272487213795
 32
0.0
 13
5.993622561946928
 23
5.777272487213795
 33
0.0
  0
MTEXT
  5
38E
330
387
100
AcDbEntity
  8
DIM
 62
     0
100
AcDbMText
 10
5.993622561946927
 20
4.809760538968185
 30
0.0
 40
0.1
 41
0.0
 71
     5
 72
     1
  1
\A1;1.94
1001
ACAD
1000
MTEXTBEGIN
1070
    73
1070
     1
1070
    44
1040
1.0
1070
    74
1070
     0
1000
MTEXTEND
  0
POINT
  5
38F
330
387
100
AcDbEntity
  8
DEFPOINTS
 62
     0
100
AcDbPoint
 10
5.657713247730591
 20
3.842248590722572
 30
0.0
  0
POINT
  5
390
330
387
100
AcDbEntity
  8
DEFPOINTS
 62
     0
100
AcDbPoint
 10
4.329250403828106
 20
5.777272487213795
 30
0.0
  0
POINT
  5
391
330
387
100
AcDbEntity
  8
DEFPOINTS
 62
     0
100
AcDbPoint
 10
5.993622561946928
 20
5.777272487213795
 30
0.0
  0
ENDBLK
  5
393
330
387
100
AcDbEntity
  8
0
100
AcDbBlockEnd
  0
BLOCK
  5
39F
330
394
100
AcDbEntity
  8
0
100
AcDbBlockBegin
  2
*D28
 70
     1
 10
0.0
 20
0.0
 30
0.0
  3
*D28
  1

  0
LINE
  5
395
330
394
100
AcDbEntity
  8
DIM
 62
     0
100
AcDbLine
 10
4.268007826361507
 20
7.746084618985237
 30
0.0
 11
4.268007826361507
 21
8.13425797036881
 31
0.0
  0
LINE
  5
396
330
394
100
AcDbEntity
  8
DIM
 62
     0
100
AcDbLine
 10
6.768007826361507
 20
7.746084618985244
 30
0.0
 11
6.768007826361507
 21
8.13425797036881
 31
0.0
  0
LINE
  5
397
330
394
100
AcDbEntity
  8
DIM
 62
     0
100
AcDbLine
 10
4.388007826361508
 20
8.06425797036881
 30
0.0
 11
5.226554893210075
 21
8.06425797036881
 31
0.0
  0
LINE
  5
398
330
394
100
AcDbEntity
  8
DIM
 62
     0
100
AcDbLine
 10
6.648007826361507
 20
8.06425797036881
 30
0.0
 11
5.80946075951294
 21
8.06425797036881
 31
0.0
  0
SOLID
  5
399
330
394
100
AcDbEntity
  8
DIM
 62
     0
100
AcDbTrace
 10
4.388007826361508
 20
8.08425797036881
 30
0.0
 11
4.388007826361508
 21
8.044257970368811
 31
0.0
 12
4.268007826361507
 22
8.06425797036881
 32
0.0
 13
4.268007826361507
 23
8.06425797036881
 33
0.0
  0
SOLID
  5
39A
330
394
100
AcDbEntity
  8
DIM
 62
     0
100
AcDbTrace
 10
6.648007826361507
 20
8.08425797036881
 30
0.0
 11
6.648007826361507
 21
8.044257970368811
 31
0.0
 12
6.768007826361507
 22
8.06425797036881
 32
0.0
 13
6.768007826361507
 23
8.06425797036881
 33
0.0
  0
MTEXT
  5
39B
330
394
100
AcDbEntity
  8
DIM
 62
     0
100
AcDbMText
 10
5.518007826361507
 20
8.06425797036881
 30
0.0
 40
0.1
 41
0.0
 71
     5
 72
     1
  1
\A1;2.50 Dia.
1001
ACAD
1000
MTEXTBEGIN
1070
    73
1070
     1
1070
    44
1040
1.0
1070
    74
1070
     0
1000
MTEXTEND
  0
POINT
  5
39C
330
394
100
AcDbEntity
  8
DEFPOINTS
 62
     0
100
AcDbPoint
 10
4.268007826361507
 20
7.686084618985237
 30
0.0
  0
POINT
  5
39D
330
394
100
AcDbEntity
  8
DEFPOINTS
 62
     0
100
AcDbPoint
 10
6.768007826361507
 20
7.686084618985244
 30
0.0
  0
POINT
  5
39E
330
394
100
AcDbEntity
  8
DEFPOINTS
 62
     0
100
AcDbPoint
 10
6.768007826361507
 20
8.06425797036881
 30
0.0
  0
ENDBLK
  5
3A0
330
394
100
AcDbEntity
  8
0
100
AcDbBlockEnd
  0
ENDSEC
  0
SECTION
  2
ENTITIES
  0
DIMENSION
  5
2A
330
2
100
AcDbEntity
  8
DIM
100
AcDbDimension
  2
*D20
 10
7.430030138987558
 20
5.77694155546956
 30
0.0
 11
8.018404990001904
 21
5.77694155546956
 31
0.0
 70
   160
  1
1.19 Dia. Thread
  3
STANDARD
100
AcDbAlignedDimension
 13
8.620030138987555
 23
4.495346705608702
 33
0.0
 14
7.430030138987558
 24
4.495346705608702
 34
0.0
100
AcDbRotatedDimension
  0
DIMENSION
  5
39
330
2
100
AcDbEntity
  8
DIM
100
AcDbDimension
  2
*D19
 10
8.844948541581938
 20
1.040046769449417
 30
0.0
 11
8.02503013898745
 21
1.040046769449417
 31
0.0
 70
    32
  3
STANDARD
100
AcDbAlignedDimension
 13
7.205111736392961
 23
1.947248590722537
 33
0.0
 14
8.844948541581938
 24
1.947248590722537
 34
0.0
100
AcDbRotatedDimension
  0
DIMENSION
  5
47
330
2
100
AcDbEntity
  8
DIM
100
AcDbDimension
  2
*D18
 10
9.285125460262715
 20
8.06425797036881
 30
0.0
 11
8.411951369971173
 21
8.06425797036881
 31
0.0
 70
    32
  1
1.75 Dia.
  3
STANDARD
100
AcDbAlignedDimension
 13
7.538777279679629
 23
7.652521346160705
 33
0.0
 14
9.285125460262715
 24
7.661624834291517
 34
0.0
100
AcDbRotatedDimension
  0
INSERT
  5
55
330
2
100
AcDbEntity
  8
DIM
100
AcDbBlockReference
  2
A$C1748711A
 10
7.538720230589763
 20
6.933528850018715
 30
0.0
  0
MTEXT
  5
61
330
2
100
AcDbEntity
  8
NOTES
100
AcDbMText
 10
7.218337111575173
 20
6.6613936637724
 30
0.0
 40
0.12
 41
0.0
 71
     1
 72
     5
  1
{\fArial|b1|i0|c0|p34;\LAluminum Mushroom Head}
1001
ACAD
1000
MTEXTBEGIN
1070
    73
1070
     1
1070
    44
1040
1.0
1070
    74
1070
     0
1000
MTEXTEND
1000
MTEXTBEGIN
1070
    73
1070
     1
1070
    44
1040
1.0
1070
    74
1070
     0
1000
MTEXTEND
1000
MTEXTBEGIN
1070
    73
1070
     1
1070
    44
1040
1.0
1070
    74
1070
     0
1000
MTEXTEND
1000
MTEXTBEGIN
1070
    73
1070
     1
1070
    44
1040
1.0
1070
    74
1070
     0
1000
MTEXTEND
1000
MTEXTBEGIN
1070
    73
1070
     1
1070
    44
1040
1.0
1070
    74
1070
     0
1000
MTEXTEND
1000
MTEXTBEGIN
1070
    73
1070
     1
1070
    44
1040
1.0
1070
    74
1070
     0
1000
MTEXTEND
1000
MTEXTBEGIN
1070
    73
1070
     1
1070
    44
1040
1.0
1070
    74
1070
     0
1000
MTEXTEND
1000
MTEXTBEGIN
1070
    73
1070
     1
1070
    44
1040
1.0
1070
    74
1070
     0
1000
MTEXTEND
1000
MTEXTBEGIN
1070
    73
1070
     1
1070
    44
1040
1.0
1070
    74
1070
     0
1000
MTEXTEND
1000
MTEXTBEGIN
1070
    73
1070
     1
1070
    44
1040
1.0
1070
    74
1070
     0
1000
MTEXTEND
1000
MTEXTBEGIN
1070
    73
1070
     1
1070
    44
1040
1.0
1070
    74
1070
     0
1000
MTEXTEND
1000
MTEXTBEGIN
1070
    73
1070
     1
1070
    44
1040
1.0
1070
    74
1070
     0
1000
MTEXTEND
1000
MTEXTBEGIN
1070
    73
1070
     1
1070
    44
1040
1.0
1070
    74
1070
     0
1000
MTEXTEND
  0
INSERT
  5
63
330
2
100
AcDbEntity
  8
DIM
100
AcDbBlockReference
  2
A$C48B50263
 10
7.205111741758579
 20
1.522248590910965
 30
0.0
  0
INSERT
  5
1D5
330
2
100
AcDbEntity
  8
DIM
100
AcDbBlockReference
  2
A$C48B50263
 10
7.205111741758579
 20
2.522248590910979
 30
0.0
  0
LINE
  5
1D6
330
2
100
AcDbEntity
  8
OBJ
100
AcDbLine
 10
7.484817435097933
 20
4.971662434461594
 30
0.0
 11
8.565242842877179
 21
4.971662434461594
 31
0.0
  0
LINE
  5
1D7
330
2
100
AcDbEntity
  8
OBJ
100
AcDbLine
 10
7.280885501286537
 20
4.027248590722573
 30
0.0
 11
8.769174776688576
 21
4.027248590722573
 31
0.0
  0
LINE
  5
1D8
330
2
100
AcDbEntity
  8
OBJ
100
AcDbLine
 10
7.275030138987558
 20
3.988718945413892
 30
0.0
 11
8.775030138987563
 21
3.988718945413893
 31
0.0
  0
LINE
  5
1D9
330
2
100
AcDbEntity
  8
OBJ
100
AcDbLine
 10
8.670030138987552
 20
4.282552006021142
 30
0.0
 11
7.380030138987558
 21
4.282552006021142
 31
0.0
  0
LINE
  5
1DA
330
2
100
AcDbEntity
  8
OBJ
100
AcDbLine
 10
8.613826843620721
 20
4.500536371060575
 30
0.0
 11
7.436233434354427
 21
4.500536371060575
 31
0.0
  0
LINE
  5
1DB
330
2
100
AcDbEntity
  8
OBJ
100
AcDbLine
 10
7.484817435097939
 20
4.567178956399839
 30
0.0
 11
8.565242842877175
 21
4.567178956399839
 31
0.0
  0
LINE
  5
1DC
330
2
100
AcDbEntity
  8
OBJ
100
AcDbLine
 10
7.484817435097939
 20
4.500536371060572
 30
0.0
 11
8.595620566547211
 21
4.500536371060578
 31
0.0
  0
LINE
  5
1DD
330
2
100
AcDbEntity
  8
OBJ
100
AcDbLine
 10
8.769174776688576
 20
4.131621916361598
 30
0.0
 11
7.280885501286537
 21
4.131621916361598
 31
0.0
  0
SPLINE
  5
1DE
330
2
100
AcDbEntity
  8
OBJ
100
AcDbSpline
210
0.0
220
0.0
230
1.0
 70
    12
 71
     2
 72
     6
 73
     3
 74
     0
 42
0.0000000001
 43
0.0000000001
 40
0.0
 40
0.0
 40
0.0
 40
0.5807016679826586
 40
0.5807016679826586
 40
0.5807016679826586
 10
7.498840419485564
 20
4.213407368320119
 30
0.0
 41
1.0
 10
7.761935279236559
 20
4.322384827419633
 30
0.0
 41
1.082392200292416
 10
8.025030138987553
 20
4.213407368320119
 30
0.0
 41
1.0
  0
LWPOLYLINE
  5
1DF
330
2
100
AcDbEntity
  8
OBJ
100
AcDbPolyline
 90
        4
 70
     1
 43
0.0
 10
8.835030138987555
 20
3.777248590722573
 10
8.835030138987555
 20
3.522248590722573
 10
7.215030138987558
 20
3.522248590722573
 10
7.215030138987558
 20
3.777248590722573
  0
LWPOLYLINE
  5
1E0
330
2
100
AcDbEntity
  8
OBJ
100
AcDbPolyline
 90
        4
 70
     1
 43
0.0
 10
7.215030138987558
 20
3.842248590722572
 10
8.835030138987555
 20
3.842248590722572
 10
8.835030138987555
 20
3.777248590722573
 10
7.215030138987558
 20
3.777248590722573
  0
HATCH
  5
1E1
330
2
100
AcDbEntity
  8
OBJ
100
AcDbHatch
 10
0.0
 20
0.0
 30
0.0
210
0.0
220
0.0
230
1.0
  2
SOLID
 70
     1
 71
     0
 91
        1
 92
        1
 93
        4
 72
     1
 10
7.215030138987558
 20
3.842248590722572
 11
8.835030138987555
 21
3.842248590722572
 72
     1
 10
8.835030138987555
 20
3.842248590722572
 11
8.835030138987555
 21
3.777248590722573
 72
     1
 10
8.835030138987555
 20
3.777248590722573
 11
7.215030138987558
 21
3.777248590722573
 72
     1
 10
7.215030138987558
 20
3.777248590722573
 11
7.215030138987558
 21
3.842248590722572
 97
        0
 75
     0
 76
     1
 98
        1
 10
2.013313410489772
 20
-1.946652760754125
  0
LWPOLYLINE
  5
1E2
330
2
100
AcDbEntity
  8
OBJ
100
AcDbPolyline
 90
       10
 70
     1
 43
0.0
 10
9.31351373780766
 20
3.878131891604003
 10
9.353492982890042
 20
3.842248590722572
 10
6.696567295085071
 20
3.842248590722572
 10
6.736546540167453
 20
3.878131891604003
 10
6.724450713684058
 20
3.890220534023952
 10
6.764037026839894
 20
3.901210237030414
 10
6.748022686247709
 20
3.92871894541389
 10
9.302037591727405
 20
3.928718945413891
 10
9.286023251135219
 20
3.901210237030414
 10
9.325609564291058
 20
3.890220534023952
  0
HATCH
  5
1E3
330
2
100
AcDbEntity
  8
HATCH
100
AcDbHatch
 10
0.0
 20
0.0
 30
0.0
210
0.0
220
0.0
230
1.0
  2
ANSI31
 70
     0
 71
     0
 91
        1
 92
        1
 93
       10
 72
     1
 10
9.31351373780766
 20
3.878131891604003
 11
9.353492982890042
 21
3.842248590722572
 72
     1
 10
9.353492982890042
 20
3.842248590722572
 11
6.696567295085072
 21
3.842248590722572
 72
     1
 10
6.696567295085071
 20
3.842248590722572
 11
6.736546540167453
 21
3.878131891604003
 72
     1
 10
6.736546540167453
 20
3.878131891604003
 11
6.724450713684058
 21
3.890220534023952
 72
     1
 10
6.724450713684058
 20
3.890220534023952
 11
6.764037026839894
 21
3.901210237030414
 72
     1
 10
6.764037026839894
 20
3.901210237030414
 11
6.748022686247709
 21
3.92871894541389
 72
     1
 10
6.748022686247709
 20
3.92871894541389
 11
9.302037591727405
 21
3.928718945413891
 72
     1
 10
9.302037591727405
 20
3.928718945413891
 11
9.286023251135219
 21
3.901210237030414
 72
     1
 10
9.286023251135219
 20
3.901210237030414
 11
9.32560956429106
 21
3.890220534023952
 72
     1
 10
9.325609564291058
 20
3.890220534023952
 11
9.31351373780766
 21
3.878131891604003
 97
        0
 75
     0
 76
     1
 52
0.0
 41
0.5
 77
     0
 78
     1
 53
45.0
 43
5.477615808545564
 44
-3.907735259045896
 45
-0.0441941738241592
 46
0.0441941738241592
 79
     0
 98
        1
 10
5.477615808545564
 20
-3.907735259045896
  0
DIMENSION
  5
1E5
330
2
100
AcDbEntity
  8
DIM
100
AcDbDimension
  2
*D22
 10
6.492523883120693
 20
1.522248590722539
 30
0.0
 11
6.492523883120693
 21
2.682248590722557
 31
0.0
 70
    32
  3
STANDARD
100
AcDbAlignedDimension
 13
6.696567295085071
 23
3.842248590722572
 33
0.0
 14
7.232184084249777
 24
1.522248590722539
 34
0.0
 50
90.0
100
AcDbRotatedDimension
  0
DIMENSION
  5
1F3
330
2
100
AcDbEntity
  8
DIM
100
AcDbDimension
  2
*D21
 10
5.993622561946928
 20
2.522199529302628
 30
0.0
 11
5.993622561946927
 21
3.182224060012601
 31
0.0
 70
    32
  3
STANDARD
100
AcDbAlignedDimension
 13
5.642732626628572
 23
3.842248590722572
 33
0.0
 14
5.218753573494835
 24
2.522199529302628
 34
0.0
 50
90.0
100
AcDbRotatedDimension
  0
INSERT
  5
201
330
2
100
AcDbEntity
  8
DIM
100
AcDbBlockReference
  2
A$C7F1E10B3
 10
5.389794682121353
 20
2.52219953407334
 30
0.0
 41
-1.0
  0
INSERT
  5
233
330
2
100
AcDbEntity
  8
DIM
100
AcDbBlockReference
  2
A$C7F1E10B3
 10
3.268706125534857
 20
2.52219953407334
 30
0.0
  0
LINE
  5
234
330
2
100
AcDbEntity
  8
CL
 48
0.5
100
AcDbLine
 10
4.329250403828105
 20
1.157884336006058
 30
0.0
 11
4.329250403828105
 21
5.918345434346767
 31
0.0
  0
INSERT
  5
237
330
2
100
AcDbEntity
  8
DIM
100
AcDbBlockReference
  2
A$C7F1E10B3
 10
5.389794682121353
 20
1.522199534073324
 30
0.0
 41
-1.0
  0
INSERT
  5
238
330
2
100
AcDbEntity
  8
DIM
100
AcDbBlockReference
  2
A$C7F1E10B3
 10
3.268706125534857
 20
1.522199534073324
 30
0.0
  0
DIMENSION
  5
239
330
2
100
AcDbEntity
  8
DIM
100
AcDbDimension
  2
*D23
 10
5.389586890558453
 20
0.765657196218228
 30
0.0
 11
4.329250403828105
 21
0.765657196218228
 31
0.0
 70
    32
  3
STANDARD
100
AcDbAlignedDimension
 13
3.268913917097757
 23
1.947199529302607
 33
0.0
 14
5.389586890558453
 24
1.947199529302603
 34
0.0
100
AcDbRotatedDimension
  0
DIMENSION
  5
247
330
2
100
AcDbEntity
  8
DIM
100
AcDbDimension
  2
*D24
 10
5.993622561946928
 20
1.525244348002161
 30
0.0
 11
5.993622561946928
 21
2.023721938652395
 31
0.0
 70
    32
  1
1.00" Each\PAdditional\PBlock
  3
STANDARD
100
AcDbAlignedDimension
 13
5.218753573494835
 23
2.522199529302628
 33
0.0
 14
5.234060910789443
 24
1.525244348002161
 34
0.0
 50
90.0
100
AcDbRotatedDimension
  0
DIMENSION
  5
255
330
2
100
AcDbEntity
  8
DIM
100
AcDbDimension
  2
*D25
 10
4.329250403828105
 20
1.040706808709353
 30
0.0
 11
4.859418647193279
 21
1.040706808709353
 31
0.0
 70
    32
  3
STANDARD
100
AcDbAlignedDimension
 13
5.389586890558453
 23
1.947199529302603
 33
0.0
 14
4.329250403828105
 24
1.157884336006058
 34
0.0
100
AcDbRotatedDimension
  0
INSERT
  5
263
330
2
100
AcDbEntity
  8
CL
 48
0.5
100
AcDbBlockReference
  2
A$C266B4E3C
 10
4.29163044212773
 20
1.135313304471987
 30
0.0
  0
SPLINE
  5
269
330
2
100
AcDbEntity
  8
OBJ
100
AcDbSpline
210
0.0
220
0.0
230
1.0
 70
    12
 71
     2
 72
     6
 73
     3
 74
     0
 42
0.0000000001
 43
0.0000000001
 40
0.0
 40
0.0
 40
0.0
 40
0.5807016679826579
 40
0.5807016679826579
 40
0.5807016679826579
 10
7.280885501286538
 20
4.213407368320119
 30
0.0
 41
1.0
 10
7.389862960386047
 20
4.322384827419633
 30
0.0
 41
1.082392200292382
 10
7.498840419485557
 20
4.213407368320119
 30
0.0
 41
1.0
  0
SPLINE
  5
26A
330
2
100
AcDbEntity
  8
OBJ
100
AcDbSpline
210
0.0
220
0.0
230
1.0
 70
    12
 71
     2
 72
     6
 73
     3
 74
     0
 42
0.0000000001
 43
0.0000000001
 40
0.0
 40
0.0
 40
0.0
 40
0.5807016679826576
 40
0.5807016679826576
 40
0.5807016679826576
 10
4.855440123330104
 20
4.213407368320118
 30
0.0
 41
1.0
 10
4.964417582429614
 20
4.322384827419633
 30
0.0
 41
1.082392200292382
 10
5.073395041529124
 20
4.213407368320118
 30
0.0
 41
1.0
  0
SPLINE
  5
26B
330
2
100
AcDbEntity
  8
OBJ
100
AcDbSpline
210
0.0
220
0.0
230
1.0
 70
    12
 71
     2
 72
     6
 73
     3
 74
     0
 42
0.0000000001
 43
0.0000000001
 40
0.0
 40
0.0
 40
0.0
 40
0.5807016679826586
 40
0.5807016679826586
 40
0.5807016679826586
 10
3.803060684326113
 20
4.213407368320118
 30
0.0
 41
1.0
 10
4.066155544077107
 20
4.322384827419633
 30
0.0
 41
1.082392200292416
 10
4.329250403828102
 20
4.213407368320118
 30
0.0
 41
1.0
  0
SPLINE
  5
26C
330
2
100
AcDbEntity
  8
OBJ
100
AcDbSpline
210
0.0
220
0.0
230
1.0
 70
    12
 71
     2
 72
     6
 73
     3
 74
     0
 42
0.0000000001
 43
0.0000000001
 40
0.0
 40
0.0
 40
0.0
 40
0.5807016679826579
 40
0.5807016679826579
 40
0.5807016679826579
 10
3.585105766127088
 20
4.213407368320118
 30
0.0
 41
1.0
 10
3.694083225226596
 20
4.322384827419633
 30
0.0
 41
1.082392200292382
 10
3.803060684326105
 20
4.213407368320118
 30
0.0
 41
1.0
  0
SPLINE
  5
26D
330
2
100
AcDbEntity
  8
OBJ
100
AcDbSpline
210
0.0
220
0.0
230
1.0
 70
    12
 71
     2
 72
     6
 73
     3
 74
     0
 42
0.0000000001
 43
0.0000000001
 40
0.0
 40
0.0
 40
0.0
 40
0.5807016679826571
 40
0.5807016679826571
 40
0.5807016679826571
 10
4.329250403828111
 20
4.213407368320118
 30
0.0
 41
1.0
 10
4.592345263579103
 20
4.322384827419633
 30
0.0
 41
1.082392200292382
 10
4.855440123330097
 20
4.213407368320118
 30
0.0
 41
1.0
  0
LEADER
  5
26E
330
2
100
AcDbEntity
  8
DIM
100
AcDbLeader
  3
STANDARD
 73
     0
 40
0.301844020009095
 41
0.8125375170532059
 76
     3
 10
4.285593774385375
 20
5.039605138934527
 30
0.0
 10
3.409054266132575
 20
5.377943008845161
 30
0.0
 10
3.327239140662538
 20
5.377943008845161
 30
0.0
340
26F
213
0.0
223
0.05
233
0.0
1001
ACAD
1000
DSTYLE
1002
{
1070
     5
1000

1070
    77
1070
     0
1070
   147
1040
0.02
1070
   342
1005
0
1002
}
  0
MTEXT
  5
26F
102
{ACAD_REACTORS
330
26E
102
}
330
2
100
AcDbEntity
  8
DIM
100
AcDbMText
 10
3.307239140662538
 20
5.327943008845161
 30
0.0
 40
0.1
 41
0.0
 71
     6
 72
     1
  1
\A1;{\H0.7x;\S1/8;}" Allen Head\PSet Screw
1001
ACAD
1000
MTEXTBEGIN
1070
    73
1070
     1
1070
    44
1040
1.0
1070
    74
1070
     0
1000
MTEXTEND
1000
MTEXTBEGIN
1070
    73
1070
     1
1070
    44
1040
1.0
1070
    74
1070
     1
1000
MTEXTEND
1000
MTEXTBEGIN
1070
    73
1070
     1
1070
    44
1040
1.0
1070
    74
1070
     0
1000
MTEXTEND
1000
MTEXTBEGIN
1070
    73
1070
     1
1070
    44
1040
1.0
1070
    74
1070
     0
1000
MTEXTEND
1000
MTEXTBEGIN
1070
    73
1070
     1
1070
    44
1040
1.0
1070
    74
1070
     0
1000
MTEXTEND
  0
DIMENSION
  5
270
330
2
100
AcDbEntity
  8
DIM
100
AcDbDimension
  2
*D26
 10
3.996971121880769
 20
8.06425797036881
 30
0.0
 11
3.186971121880769
 21
8.06425797036881
 31
0.0
 70
    32
  1
1.62 Dia.
  3
STANDARD
100
AcDbAlignedDimension
 13
2.376971121880769
 23
7.686084618985233
 33
0.0
 14
3.996971121880769
 24
7.686084618985237
 34
0.0
100
AcDbRotatedDimension
  0
INSERT
  5
27E
330
2
100
AcDbEntity
  8
DIM
100
AcDbBlockReference
  2
A$C48EB56D4
 10
2.376971127390327
 20
6.933528850018715
 30
0.0
  0
MTEXT
  5
28F
330
2
100
AcDbEntity
  8
NOTES
100
AcDbMText
 10
3.222813760916754
 20
6.6613936637724
 30
0.0
 40
0.12
 41
0.0
 71
     1
 72
     5
  1
{\fArial|b1|i0|c0|p34;\LPlastic Mushroom Head}
1001
ACAD
1000
MTEXTBEGIN
1070
    73
1070
     1
1070
    44
1040
1.0
1070
    74
1070
     0
1000
MTEXTEND
1000
MTEXTBEGIN
1070
    73
1070
     1
1070
    44
1040
1.0
1070
    74
1070
     0
1000
MTEXTEND
1000
MTEXTBEGIN
1070
    73
1070
     1
1070
    44
1040
1.0
1070
    74
1070
     0
1000
MTEXTEND
1000
MTEXTBEGIN
1070
    73
1070
     1
1070
    44
1040
1.0
1070
    74
1070
     0
1000
MTEXTEND
1000
MTEXTBEGIN
1070
    73
1070
     1
1070
    44
1040
1.0
1070
    74
1070
     0
1000
MTEXTEND
1000
MTEXTBEGIN
1070
    73
1070
     1
1070
    44
1040
1.0
1070
    74
1070
     0
1000
MTEXTEND
1000
MTEXTBEGIN
1070
    73
1070
     1
1070
    44
1040
1.0
1070
    74
1070
     0
1000
MTEXTEND
1000
MTEXTBEGIN
1070
    73
1070
     1
1070
    44
1040
1.0
1070
    74
1070
     0
1000
MTEXTEND
1000
MTEXTBEGIN
1070
    73
1070
     1
1070
    44
1040
1.0
1070
    74
1070
     0
1000
MTEXTEND
1000
MTEXTBEGIN
1070
    73
1070
     1
1070
    44
1040
1.0
1070
    74
1070
     0
1000
MTEXTEND
1000
MTEXTBEGIN
1070
    73
1070
     1
1070
    44
1040
1.0
1070
    74
1070
     0
1000
MTEXTEND
1000
MTEXTBEGIN
1070
    73
1070
     1
1070
    44
1040
1.0
1070
    74
1070
     0
1000
MTEXTEND
1000
MTEXTBEGIN
1070
    73
1070
     1
1070
    44
1040
1.0
1070
    74
1070
     0
1000
MTEXTEND
  0
LINE
  5
290
330
2
100
AcDbEntity
  8
OBJ
100
AcDbLine
 10
5.073395041529124
 20
4.131621916361598
 30
0.0
 11
3.585105766127086
 21
4.131621916361596
 31
0.0
  0
LINE
  5
291
330
2
100
AcDbEntity
  8
OBJ
100
AcDbLine
 10
3.494634727822488
 20
5.511272487213799
 30
0.0
 11
5.163866079833272
 21
5.51127248721379
 31
0.0
  0
ARC
  5
292
330
2
100
AcDbEntity
  8
OBJ
100
AcDbCircle
 10
4.329250403828105
 20
3.777248590722573
 30
0.0
 40
2.000023896491223
100
AcDbArc
 50
64.82547906761737
 51
115.1745209323826
  0
HATCH
  5
293
330
2
100
AcDbEntity
  8
HATCH
100
AcDbHatch
 10
0.0
 20
0.0
 30
0.0
210
0.0
220
0.0
230
1.0
  2
ANSI31
 70
     0
 71
     0
 91
        1
 92
        1
 93
       10
 72
     1
 10
5.617734002648209
 20
3.878131891604003
 11
5.657713247730591
 21
3.842248590722572
 72
     1
 10
5.657713247730591
 20
3.842248590722572
 11
3.00078755992562
 21
3.842248590722572
 72
     1
 10
3.00078755992562
 20
3.842248590722572
 11
3.040766805008001
 21
3.878131891604003
 72
     1
 10
3.040766805008001
 20
3.878131891604003
 11
3.028670978524605
 21
3.890220534023952
 72
     1
 10
3.028670978524605
 20
3.890220534023952
 11
3.068257291680442
 21
3.901210237030414
 72
     1
 10
3.068257291680442
 20
3.901210237030414
 11
3.052242951088259
 21
3.92871894541389
 72
     1
 10
3.052242951088259
 20
3.92871894541389
 11
5.606257856567952
 21
3.928718945413891
 72
     1
 10
5.606257856567952
 20
3.928718945413891
 11
5.590243515975768
 21
3.901210237030414
 72
     1
 10
5.590243515975768
 20
3.901210237030414
 11
5.629829829131605
 21
3.890220534023952
 72
     1
 10
5.629829829131605
 20
3.890220534023952
 11
5.617734002648209
 21
3.878131891604003
 97
        0
 75
     0
 76
     1
 52
0.0
 41
0.5
 77
     0
 78
     1
 53
45.0
 43
1.781836073386114
 44
-3.907735259045896
 45
-0.0441941738241592
 46
0.0441941738241592
 79
     0
 98
        1
 10
1.781836073386114
 20
-3.907735259045896
  0
LWPOLYLINE
  5
294
330
2
100
AcDbEntity
  8
OBJ
100
AcDbPolyline
 90
       10
 70
     1
 43
0.0
 10
5.617734002648209
 20
3.878131891604003
 10
5.657713247730591
 20
3.842248590722572
 10
3.00078755992562
 20
3.842248590722572
 10
3.040766805008001
 20
3.878131891604003
 10
3.028670978524605
 20
3.890220534023952
 10
3.068257291680442
 20
3.901210237030414
 10
3.052242951088259
 20
3.92871894541389
 10
5.606257856567952
 20
3.928718945413891
 10
5.590243515975768
 20
3.901210237030414
 10
5.629829829131605
 20
3.890220534023952
  0
LINE
  5
295
330
2
100
AcDbEntity
  8
OBJ
100
AcDbLine
 10
3.579250403828105
 20
3.988718945413889
 30
0.0
 11
5.079250403828112
 21
3.988718945413892
 31
0.0
  0
LINE
  5
296
330
2
100
AcDbEntity
  8
OBJ
100
AcDbLine
 10
3.585105766127086
 20
4.027248590722571
 30
0.0
 11
5.073395041529124
 21
4.027248590722571
 31
0.0
  0
LINE
  5
297
330
2
100
AcDbEntity
  8
OBJ
100
AcDbLine
 10
3.789037699938486
 20
4.567178956399836
 30
0.0
 11
4.869463107717724
 21
4.567178956399839
 31
0.0
  0
LINE
  5
298
330
2
100
AcDbEntity
  8
OBJ
100
AcDbLine
 10
3.789037699938483
 20
4.971662434461594
 30
0.0
 11
4.869463107717728
 21
4.971662434461594
 31
0.0
  0
LINE
  5
299
330
2
100
AcDbEntity
  8
OBJ
100
AcDbLine
 10
3.740453699194976
 20
4.500536371060572
 30
0.0
 11
4.918047108461269
 21
4.500536371060578
 31
0.0
  0
HATCH
  5
29A
330
2
100
AcDbEntity
  8
OBJ
100
AcDbHatch
 10
0.0
 20
0.0
 30
0.0
210
0.0
220
0.0
230
1.0
  2
SOLID
 70
     1
 71
     0
 91
        1
 92
        1
 93
        4
 72
     1
 10
3.519250403828106
 20
3.842248590722572
 11
5.139250403828104
 21
3.842248590722572
 72
     1
 10
5.139250403828103
 20
3.842248590722572
 11
5.139250403828103
 21
3.777248590722573
 72
     1
 10
5.139250403828103
 20
3.777248590722573
 11
3.519250403828105
 21
3.777248590722573
 72
     1
 10
3.519250403828106
 20
3.777248590722573
 11
3.519250403828106
 21
3.842248590722572
 97
        0
 75
     0
 76
     1
 98
        1
 10
-1.682466324669677
 20
-1.946652760754125
  0
LWPOLYLINE
  5
29B
330
2
100
AcDbEntity
  8
OBJ
100
AcDbPolyline
 90
        4
 70
     1
 43
0.0
 10
3.519250403828106
 20
3.842248590722572
 10
5.139250403828103
 20
3.842248590722572
 10
5.139250403828103
 20
3.777248590722573
 10
3.519250403828106
 20
3.777248590722573
  0
LWPOLYLINE
  5
29C
330
2
100
AcDbEntity
  8
OBJ
100
AcDbPolyline
 90
        4
 70
     1
 43
0.0
 10
5.139250403828104
 20
3.777248590722573
 10
5.139250403828104
 20
3.522248590722573
 10
3.519250403828106
 20
3.522248590722573
 10
3.519250403828106
 20
3.777248590722573
  0
LINE
  5
29D
330
2
100
AcDbEntity
  8
OBJ
100
AcDbLine
 10
4.974250403828104
 20
4.282552006021142
 30
0.0
 11
3.684250403828106
 21
4.282552006021142
 31
0.0
  0
LINE
  5
29E
330
2
100
AcDbEntity
  8
OBJ
100
AcDbLine
 10
4.329250403828105
 20
4.500536371060575
 30
0.0
 11
3.758659976268486
 21
4.500536371060575
 31
0.0
  0
LINE
  5
29F
330
2
100
AcDbEntity
  8
OBJ
100
AcDbLine
 10
3.585105766127086
 20
4.213407368320118
 30
0.0
 11
3.585105766127086
 21
3.988718945413892
 31
0.0
  0
LINE
  5
2A0
330
2
100
AcDbEntity
  8
OBJ
100
AcDbLine
 10
3.579250403828105
 20
3.988718945413889
 30
0.0
 11
3.579250403828105
 21
3.92871894541389
 31
0.0
  0
LINE
  5
2A1
330
2
100
AcDbEntity
  8
OBJ
100
AcDbLine
 10
3.803060684326105
 20
4.213407368320118
 30
0.0
 11
3.803060684326105
 21
4.131621916361596
 31
0.0
  0
LINE
  5
2A2
330
2
100
AcDbEntity
  8
OBJ
100
AcDbLine
 10
3.789037699938486
 20
4.500536371060571
 30
0.0
 11
3.789037699938483
 21
4.971662434461588
 31
0.0
  0
LINE
  5
2A3
330
2
100
AcDbEntity
  8
OBJ
100
AcDbLine
 10
3.684250403828104
 20
4.282552006021142
 30
0.0
 11
3.631949796936952
 21
4.251140070604964
 31
0.0
  0
LINE
  5
2A4
330
2
100
AcDbEntity
  8
OBJ
100
AcDbLine
 10
3.700615173055692
 20
4.464126891224775
 30
0.0
 11
3.684250403828104
 21
4.282552006021142
 31
0.0
  0
ARC
  5
2A5
330
2
100
AcDbEntity
  8
OBJ
100
AcDbCircle
 10
3.740453699194976
 20
4.460536371060572
 30
0.0
 40
0.04
100
AcDbArc
 50
90.00000000000019
 51
174.8500269579958
  0
ARC
  5
2A6
330
2
100
AcDbEntity
  8
OBJ
100
AcDbCircle
 10
3.495465457382949
 20
5.551178977375089
 30
0.0
 40
0.0399151358333614
100
AcDbArc
 50
115.1745209323829
 51
271.1925484801879
  0
DIMENSION
  5
2A7
330
2
100
AcDbEntity
  8
DIM
100
AcDbDimension
  2
*D27
 10
5.993622561946928
 20
5.777272487213795
 30
0.0
 11
5.993622561946927
 21
4.809760538968185
 31
0.0
 70
    32
  3
STANDARD
100
AcDbAlignedDimension
 13
5.657713247730591
 23
3.842248590722572
 33
0.0
 14
4.329250403828106
 24
5.777272487213795
 34
0.0
 50
90.0
100
AcDbRotatedDimension
  0
LINE
  5
2B5
330
2
100
AcDbEntity
  8
OBJ
100
AcDbLine
 10
4.779250403827653
 20
5.511272487214172
 30
0.0
 11
4.779250403828104
 21
4.971662434461967
 31
0.0
  0
LINE
  5
2B6
330
2
100
AcDbEntity
  8
OBJ
100
AcDbLine
 10
3.879250403828109
 20
5.511272487213796
 30
0.0
 11
3.879250403828105
 21
4.971662434461594
 31
0.0
  0
CIRCLE
  5
2B7
330
2
100
AcDbEntity
  8
OBJ
100
AcDbCircle
 10
4.329250403828105
 20
5.039605138934527
 30
0.0
 40
0.0436566294427294
  0
CIRCLE
  5
2B8
330
2
100
AcDbEntity
  8
OBJ
100
AcDbCircle
 10
4.329250403828105
 20
5.039605138934527
 30
0.0
 40
0.0408606215954384
  0
LINE
  5
2B9
330
2
100
AcDbEntity
  8
OBJ
100
AcDbLine
 10
4.855440123330097
 20
4.213407368320118
 30
0.0
 11
4.855440123330097
 21
4.131621916361596
 31
0.0
  0
LINE
  5
2BA
330
2
100
AcDbEntity
  8
OBJ
100
AcDbLine
 10
5.073395041529124
 20
4.213407368320118
 30
0.0
 11
5.073395041529124
 21
3.988718945413889
 31
0.0
  0
LINE
  5
2BB
330
2
100
AcDbEntity
  8
OBJ
100
AcDbLine
 10
5.079250403828112
 20
3.92871894541389
 30
0.0
 11
5.079250403828112
 21
3.988718945413892
 31
0.0
  0
LINE
  5
2BC
330
2
100
AcDbEntity
  8
OBJ
100
AcDbLine
 10
4.869463107717724
 20
4.500536371060571
 30
0.0
 11
4.869463107717728
 21
4.971662434461594
 31
0.0
  0
LINE
  5
2BD
330
2
100
AcDbEntity
  8
OBJ
100
AcDbLine
 10
4.957885634600554
 20
4.464126891224773
 30
0.0
 11
4.974250403828108
 21
4.282552006021075
 31
0.0
  0
LINE
  5
2BE
330
2
100
AcDbEntity
  8
OBJ
100
AcDbLine
 10
4.974250403828108
 20
4.282552006021075
 30
0.0
 11
5.026551010719255
 21
4.251140070604892
 31
0.0
  0
ARC
  5
2BF
330
2
100
AcDbEntity
  8
OBJ
100
AcDbCircle
 10
4.918047108461269
 20
4.460536371060578
 30
0.0
 40
0.04
100
AcDbArc
 50
5.149973041991226
 51
90.00000000000019
  0
ARC
  5
2C0
330
2
100
AcDbEntity
  8
OBJ
100
AcDbCircle
 10
5.163035350273261
 20
5.551178977375089
 30
0.0
 40
0.0399151358333614
100
AcDbArc
 50
268.8074515204422
 51
64.82547906761768
  0
LINE
  5
2C1
330
2
100
AcDbEntity
  8
HATCH
  6
HIDDEN
 48
0.25
100
AcDbLine
 10
7.430030138987558
 20
4.131621916361598
 30
0.0
 11
7.430030138987558
 21
4.495346705608702
 31
0.0
  0
LINE
  5
2C3
330
2
100
AcDbEntity
  8
OBJ
100
AcDbLine
 10
7.280885501286537
 20
4.213407368320119
 30
0.0
 11
7.280885501286537
 21
3.988718945413893
 31
0.0
  0
LINE
  5
2C4
330
2
100
AcDbEntity
  8
OBJ
100
AcDbLine
 10
7.275030138987558
 20
3.988718945413892
 30
0.0
 11
7.275030138987558
 21
3.928718945413891
 31
0.0
  0
LINE
  5
2C5
330
2
100
AcDbEntity
  8
OBJ
100
AcDbLine
 10
7.498840419485557
 20
4.213407368320119
 30
0.0
 11
7.498840419485557
 21
4.131621916361598
 31
0.0
  0
LINE
  5
2C6
330
2
100
AcDbEntity
  8
OBJ
100
AcDbLine
 10
7.484817435097939
 20
4.500536371060572
 30
0.0
 11
7.484817435097933
 21
4.97166243446159
 31
0.0
  0
LINE
  5
2C7
330
2
100
AcDbEntity
  8
OBJ
100
AcDbLine
 10
7.396394908215143
 20
4.464126891224777
 30
0.0
 11
7.380030138987555
 21
4.282552006021142
 31
0.0
  0
LINE
  5
2C8
330
2
100
AcDbEntity
  8
OBJ
100
AcDbLine
 10
7.380030138987555
 20
4.282552006021142
 30
0.0
 11
7.327729532096403
 21
4.251140070604965
 31
0.0
  0
ARC
  5
2C9
330
2
100
AcDbEntity
  8
OBJ
100
AcDbCircle
 10
7.436233434354427
 20
4.460536371060575
 30
0.0
 40
0.04
100
AcDbArc
 50
90.0
 51
174.8500269579958
  0
DIMENSION
  5
2CA
330
2
100
AcDbEntity
  8
DIM
100
AcDbDimension
  2
*D28
 10
6.768007826361507
 20
8.06425797036881
 30
0.0
 11
5.518007826361507
 21
8.06425797036881
 31
0.0
 70
    32
  1
2.50 Dia.
  3
STANDARD
100
AcDbAlignedDimension
 13
4.268007826361507
 23
7.686084618985237
 33
0.0
 14
6.768007826361507
 24
7.686084618985244
 34
0.0
100
AcDbRotatedDimension
  0
INSERT
  5
2D8
330
2
100
AcDbEntity
  8
DIM
100
AcDbBlockReference
  2
A$C5802352A
 10
4.268007818124925
 20
6.933528850018715
 30
0.0
  0
LINE
  5
2E9
330
2
100
AcDbEntity
  8
CL
 48
0.5
100
AcDbLine
 10
8.025030138987558
 20
1.157884336006058
 30
0.0
 11
8.025030138987558
 21
5.532313371250945
 31
0.0
  0
INSERT
  5
2EA
330
2
100
AcDbEntity
  8
CL
 48
0.5
100
AcDbBlockReference
  2
A$C266B4E3C
 10
7.987410177287181
 20
1.135313304471987
 30
0.0
  0
SPLINE
  5
2EB
330
2
100
AcDbEntity
  8
OBJ
100
AcDbSpline
210
0.0
220
0.0
230
1.0
 70
    12
 71
     2
 72
     6
 73
     3
 74
     0
 42
0.0000000001
 43
0.0000000001
 40
0.0
 40
0.0
 40
0.0
 40
0.5807016679826571
 40
0.5807016679826571
 40
0.5807016679826571
 10
8.025030138987563
 20
4.213407368320119
 30
0.0
 41
1.0
 10
8.288124998738556
 20
4.322384827419633
 30
0.0
 41
1.082392200292382
 10
8.551219858489549
 20
4.213407368320119
 30
0.0
 41
1.0
  0
SPLINE
  5
2EC
330
2
100
AcDbEntity
  8
OBJ
100
AcDbSpline
210
0.0
220
0.0
230
1.0
 70
    12
 71
     2
 72
     6
 73
     3
 74
     0
 42
0.0000000001
 43
0.0000000001
 40
0.0
 40
0.0
 40
0.0
 40
0.5807016679826576
 40
0.5807016679826576
 40
0.5807016679826576
 10
8.551219858489556
 20
4.213407368320119
 30
0.0
 41
1.0
 10
8.660197317589066
 20
4.322384827419633
 30
0.0
 41
1.082392200292382
 10
8.769174776688576
 20
4.213407368320119
 30
0.0
 41
1.0
  0
INSERT
  5
2ED
330
2
100
AcDbEntity
  8
DIM
100
AcDbBlockReference
  2
A$C2D52713C
 10
7.846329200299997
 20
4.971662440604783
 30
0.0
  0
LINE
  5
304
330
2
100
AcDbEntity
  8
OBJ
100
AcDbLine
 10
8.551219858489549
 20
4.213407368320119
 30
0.0
 11
8.551219858489549
 21
4.131621916361598
 31
0.0
  0
LINE
  5
305
330
2
100
AcDbEntity
  8
HATCH
  6
HIDDEN
 48
0.25
100
AcDbLine
 10
8.620030138987555
 20
4.131621916361598
 30
0.0
 11
8.620030138987555
 21
4.495346705608702
 31
0.0
  0
LINE
  5
306
330
2
100
AcDbEntity
  8
OBJ
100
AcDbLine
 10
8.769174776688576
 20
4.213407368320119
 30
0.0
 11
8.769174776688576
 21
3.988718945413892
 31
0.0
  0
LINE
  5
307
330
2
100
AcDbEntity
  8
OBJ
100
AcDbLine
 10
8.775030138987563
 20
3.928718945413891
 30
0.0
 11
8.775030138987563
 21
3.988718945413893
 31
0.0
  0
LINE
  5
308
330
2
100
AcDbEntity
  8
OBJ
100
AcDbLine
 10
8.565242842877175
 20
4.500536371060572
 30
0.0
 11
8.565242842877179
 21
4.971662434461594
 31
0.0
  0
LINE
  5
309
330
2
100
AcDbEntity
  8
OBJ
100
AcDbLine
 10
8.653665369760005
 20
4.464126891224769
 30
0.0
 11
8.670030138987559
 21
4.282552006021076
 31
0.0
  0
LINE
  5
30A
330
2
100
AcDbEntity
  8
OBJ
100
AcDbLine
 10
8.670030138987559
 20
4.282552006021076
 30
0.0
 11
8.722330745878707
 21
4.251140070604894
 31
0.0
  0
ARC
  5
30B
330
2
100
AcDbEntity
  8
OBJ
100
AcDbCircle
 10
8.613826843620721
 20
4.460536371060575
 30
0.0
 40
0.04
100
AcDbArc
 50
5.149973041991571
 51
90.0
  0
ENDSEC
  0
SECTION
  2
OBJECTS
  0
DICTIONARY
  5
9
330
0
100
AcDbDictionary
  3
ACAD_GROUP
350
23
  3
ACAD_LAYOUT
350
D
  3
ACAD_MLINESTYLE
350
24
  3
ACAD_PLOTSETTINGS
350
25
  3
ACAD_PLOTSTYLENAME
350
8
  3
ACDBHEADERROUNDTRIPXREC
350
3A2
  0
DICTIONARY
  5
3
330
2
100
AcDbDictionary
280
     1
  3
ACAD_LAYOUTSELFREF
360
3C2
  0
DICTIONARY
  5
F
330
E
100
AcDbDictionary
280
     1
  3
ACAD_LAYOUTSELFREF
360
3C3
  0
DICTIONARY
  5
23
102
{ACAD_REACTORS
330
9
102
}
330
9
100
AcDbDictionary
  0
DICTIONARY
  5
D
102
{ACAD_REACTORS
330
9
102
}
330
9
100
AcDbDictionary
  0
DICTIONARY
  5
24
102
{ACAD_REACTORS
330
9
102
}
330
9
100
AcDbDictionary
  3
STANDARD
350
28
  0
DICTIONARY
  5
25
102
{ACAD_REACTORS
330
9
102
}
330
9
100
AcDbDictionary
  0
ACDBDICTIONARYWDFLT
  5
8
102
{ACAD_REACTORS
330
9
102
}
330
9
100
AcDbDictionary
281
     1
  3
Normal
350
7
100
AcDbDictionaryWithDefault
340
7
  0
DICTIONARY
  5
3A2
102
{ACAD_REACTORS
330
9
102
}
330
9
100
AcDbDictionary
  3
TSTACKALIGN
350
3A3
  3
TSTACKSIZE
350
3A4
  3
HYPERLINKBASE
350
3A5
  3
STYLESHEET
350
3A6
  3
LAYOUTDICT
350
3A7
  3
PLOTSETDICT
350
3A8
  3
PLOTSTYLNAMDICT
350
3A9
  3
LWETCUNION
350
3AA
  3
INSUNITS
350
3AB
  3
CEPSNTYPE
350
3AC
  3
FINGERPRINTGUID
350
3AD
  3
VERSIONGUID
350
3AE
  3
PSVPSCALE
350
3AF
  3
PUCSORTHOREF
350
3B0
  3
PUCSORTHOVIEW
350
3B1
  3
PUCSBASE
350
3B2
  3
PUCSORGTOP
350
3B3
  3
PUCSORGBOTTOM
350
3B4
  3
PUCSORGLEFT
350
3B5
  3
PUCSORGRIGHT
350
3B6
  3
PUCSORGFRONT
350
3B7
  3
PUCSORGBACK
350
3B8
  3
UCSORTHOREF
350
3B9
  3
UCSORTHOVIEW
350
3BA
  3
UCSBASE
350
3BB
  3
UCSORGTOP
350
3BC
  3
UCSORGBOTTOM
350
3BD
  3
UCSORGLEFT
350
3BE
  3
UCSORGRIGHT
350
3BF
  3
UCSORGFRONT
350
3C0
  3
UCSORGBACK
350
3C1
  0
XRECORD
  5
3C2
102
{ACAD_REACTORS
330
3
102
}
330
3
100
AcDbXrecord
340
2
  0
XRECORD
  5
3C3
102
{ACAD_REACTORS
330
F
102
}
330
F
100
AcDbXrecord
340
E
  0
MLINESTYLE
  5
28
102
{ACAD_REACTORS
330
24
102
}
330
24
100
AcDbMlineStyle
  2
STANDARD
 70
     0
  3

 62
   256
 51
90.0
 52
90.0
 71
     2
 49
0.5
 62
   256
  6
BYLAYER
 49
-0.5
 62
   256
  6
BYLAYER
  0
ACDBPLACEHOLDER
  5
7
102
{ACAD_REACTORS
330
8
102
}
330
8
100
AcDbPlaceHolder
280
     0
  0
XRECORD
  5
3A3
102
{ACAD_REACTORS
330
3A2
102
}
330
3A2
100
AcDbXrecord
 90
        1
  0
XRECORD
  5
3A4
102
{ACAD_REACTORS
330
3A2
102
}
330
3A2
100
AcDbXrecord
 90
       70
  0
XRECORD
  5
3A5
102
{ACAD_REACTORS
330
3A2
102
}
330
3A2
100
AcDbXrecord
  1

  0
XRECORD
  5
3A6
102
{ACAD_REACTORS
330
3A2
102
}
330
3A2
100
AcDbXrecord
  1

  0
XRECORD
  5
3A7
102
{ACAD_REACTORS
330
3A2
102
}
330
3A2
100
AcDbXrecord
340
D
  0
XRECORD
  5
3A8
102
{ACAD_REACTORS
330
3A2
102
}
330
3A2
100
AcDbXrecord
340
25
  0
XRECORD
  5
3A9
102
{ACAD_REACTORS
330
3A2
102
}
330
3A2
100
AcDbXrecord
340
8
  0
XRECORD
  5
3AA
102
{ACAD_REACTORS
330
3A2
102
}
330
3A2
100
AcDbXrecord
 90
    10781
  0
XRECORD
  5
3AB
102
{ACAD_REACTORS
330
3A2
102
}
330
3A2
100
AcDbXrecord
 90
        1
  0
XRECORD
  5
3AC
102
{ACAD_REACTORS
330
3A2
102
}
330
3A2
100
AcDbXrecord
 90
        0
  0
XRECORD
  5
3AD
102
{ACAD_REACTORS
330
3A2
102
}
330
3A2
100
AcDbXrecord
  1
{B4E2673A-D450-11D5-828D-00C04FA0491E}
  0
XRECORD
  5
3AE
102
{ACAD_REACTORS
330
3A2
102
}
330
3A2
100
AcDbXrecord
  1
{E6179536-5CC7-4C0B-88C1-D57CDB59FF4A}
  0
XRECORD
  5
3AF
102
{ACAD_REACTORS
330
3A2
102
}
330
3A2
100
AcDbXrecord
 40
0.0
  0
XRECORD
  5
3B0
102
{ACAD_REACTORS
330
3A2
102
}
330
3A2
100
AcDbXrecord
340
0
  0
XRECORD
  5
3B1
102
{ACAD_REACTORS
330
3A2
102
}
330
3A2
100
AcDbXrecord
 70
     0
  0
XRECORD
  5
3B2
102
{ACAD_REACTORS
330
3A2
102
}
330
3A2
100
AcDbXrecord
340
0
  0
XRECORD
  5
3B3
102
{ACAD_REACTORS
330
3A2
102
}
330
3A2
100
AcDbXrecord
 10
0.0
 20
0.0
 30
0.0
  0
XRECORD
  5
3B4
102
{ACAD_REACTORS
330
3A2
102
}
330
3A2
100
AcDbXrecord
 10
0.0
 20
0.0
 30
0.0
  0
XRECORD
  5
3B5
102
{ACAD_REACTORS
330
3A2
102
}
330
3A2
100
AcDbXrecord
 10
0.0
 20
0.0
 30
0.0
  0
XRECORD
  5
3B6
102
{ACAD_REACTORS
330
3A2
102
}
330
3A2
100
AcDbXrecord
 10
0.0
 20
0.0
 30
0.0
  0
XRECORD
  5
3B7
102
{ACAD_REACTORS
330
3A2
102
}
330
3A2
100
AcDbXrecord
 10
0.0
 20
0.0
 30
0.0
  0
XRECORD
  5
3B8
102
{ACAD_REACTORS
330
3A2
102
}
330
3A2
100
AcDbXrecord
 10
0.0
 20
0.0
 30
0.0
  0
XRECORD
  5
3B9
102
{ACAD_REACTORS
330
3A2
102
}
330
3A2
100
AcDbXrecord
340
0
  0
XRECORD
  5
3BA
102
{ACAD_REACTORS
330
3A2
102
}
330
3A2
100
AcDbXrecord
 70
     0
  0
XRECORD
  5
3BB
102
{ACAD_REACTORS
330
3A2
102
}
330
3A2
100
AcDbXrecord
340
0
  0
XRECORD
  5
3BC
102
{ACAD_REACTORS
330
3A2
102
}
330
3A2
100
AcDbXrecord
 10
0.0
 20
0.0
 30
0.0
  0
XRECORD
  5
3BD
102
{ACAD_REACTORS
330
3A2
102
}
330
3A2
100
AcDbXrecord
 10
0.0
 20
0.0
 30
0.0
  0
XRECORD
  5
3BE
102
{ACAD_REACTORS
330
3A2
102
}
330
3A2
100
AcDbXrecord
 10
0.0
 20
0.0
 30
0.0
  0
XRECORD
  5
3BF
102
{ACAD_REACTORS
330
3A2
102
}
330
3A2
100
AcDbXrecord
 10
0.0
 20
0.0
 30
0.0
  0
XRECORD
  5
3C0
102
{ACAD_REACTORS
330
3A2
102
}
330
3A2
100
AcDbXrecord
 10
0.0
 20
0.0
 30
0.0
  0
XRECORD
  5
3C1
102
{ACAD_REACTORS
330
3A2
102
}
330
3A2
100
AcDbXrecord
 10
0.0
 20
0.0
 30
0.0
  0
ENDSEC
  0
EOF
