  0
SECTION
  2
HEADER
  9
$ACADVER
  1
AC1015
  9
$ACADMAINTVER
 70
     6
  9
$DWGCODEPAGE
  3
ANSI_1252
  9
$INSBASE
 10
0.0
 20
0.0
 30
0.0
  9
$EXTMIN
 10
3.059584812281914
 20
0.4416658603498273
 30
-0.00000001
  9
$EXTMAX
 10
9.666507376411134
 20
7.85800666346379
 30
0.00000001
  9
$LIMMIN
 10
0.0
 20
0.0
  9
$LIMMAX
 10
12.0
 20
9.0
  9
$ORTHOMODE
 70
     0
  9
$REGENMODE
 70
     1
  9
$FILLMODE
 70
     1
  9
$QTEXTMODE
 70
     0
  9
$MIRRTEXT
 70
     1
  9
$LTSCALE
 40
1.0
  9
$ATTMODE
 70
     1
  9
$TEXTSIZE
 40
0.33
  9
$TRACEWID
 40
0.05
  9
$TEXTSTYLE
  7
NAME
  9
$CLAYER
  8
DIM
  9
$CELTYPE
  6
ByLayer
  9
$CECOLOR
 62
   256
  9
$CELTSCALE
 40
1.0
  9
$DISPSILH
 70
     0
  9
$DIMSCALE
 40
1.0
  9
$DIMASZ
 40
0.12
  9
$DIMEXO
 40
0.06
  9
$DIMDLI
 40
0.38
  9
$DIMRND
 40
0.0
  9
$DIMDLE
 40
0.0
  9
$DIMEXE
 40
0.07
  9
$DIMTP
 40
0.0
  9
$DIMTM
 40
0.0
  9
$DIMTXT
 40
0.1
  9
$DIMCEN
 40
0.09
  9
$DIMTSZ
 40
0.0
  9
$DIMTOL
 70
     0
  9
$DIMLIM
 70
     0
  9
$DIMTIH
 70
     1
  9
$DIMTOH
 70
     1
  9
$DIMSE1
 70
     0
  9
$DIMSE2
 70
     0
  9
$DIMTAD
 70
     0
  9
$DIMZIN
 70
     0
  9
$DIMBLK
  1

  9
$DIMASO
 70
     1
  9
$DIMSHO
 70
     1
  9
$DIMPOST
  1

  9
$DIMAPOST
  1

  9
$DIMALT
 70
     0
  9
$DIMALTD
 70
     2
  9
$DIMALTF
 40
25.4
  9
$DIMLFAC
 40
1.0
  9
$DIMTOFL
 70
     0
  9
$DIMTVP
 40
0.0
  9
$DIMTIX
 70
     0
  9
$DIMSOXD
 70
     0
  9
$DIMSAH
 70
     0
  9
$DIMBLK1
  1

  9
$DIMBLK2
  1

  9
$DIMSTYLE
  2
Standard
  9
$DIMCLRD
 70
     0
  9
$DIMCLRE
 70
     0
  9
$DIMCLRT
 70
     0
  9
$DIMTFAC
 40
1.0
  9
$DIMGAP
 40
0.04
  9
$DIMJUST
 70
     0
  9
$DIMSD1
 70
     0
  9
$DIMSD2
 70
     0
  9
$DIMTOLJ
 70
     1
  9
$DIMTZIN
 70
     0
  9
$DIMALTZ
 70
     0
  9
$DIMALTTZ
 70
     0
  9
$DIMUPT
 70
     0
  9
$DIMDEC
 70
     2
  9
$DIMTDEC
 70
     2
  9
$DIMALTU
 70
     2
  9
$DIMALTTD
 70
     2
  9
$DIMTXSTY
  7
Standard
  9
$DIMAUNIT
 70
     0
  9
$DIMADEC
 70
     0
  9
$DIMALTRND
 40
0.0
  9
$DIMAZIN
 70
     0
  9
$DIMDSEP
 70
    46
  9
$DIMATFIT
 70
     3
  9
$DIMFRAC
 70
     0
  9
$DIMLDRBLK
  1

  9
$DIMLUNIT
 70
     2
  9
$DIMLWD
 70
    -2
  9
$DIMLWE
 70
    -2
  9
$DIMTMOVE
 70
     0
  9
$LUNITS
 70
     2
  9
$LUPREC
 70
     4
  9
$SKETCHINC
 40
0.1
  9
$FILLETRAD
 40
0.02
  9
$AUNITS
 70
     0
  9
$AUPREC
 70
     2
  9
$MENU
  1
.
  9
$ELEVATION
 40
0.0
  9
$PELEVATION
 40
0.0
  9
$THICKNESS
 40
0.0
  9
$LIMCHECK
 70
     0
  9
$CHAMFERA
 40
0.5
  9
$CHAMFERB
 40
0.5
  9
$CHAMFERC
 40
1.0
  9
$CHAMFERD
 40
0.0
  9
$SKPOLY
 70
     0
  9
$TDCREATE
 40
2452222.563186817
  9
$TDUCREATE
 40
2452222.771520150
  9
$TDUPDATE
 40
2452415.430103194
  9
$TDUUPDATE
 40
2452415.638436528
  9
$TDINDWG
 40
1.2611800347
  9
$TDUSRTIMER
 40
1.2611798495
  9
$USRTIMER
 70
     1
  9
$ANGBASE
 50
0.0
  9
$ANGDIR
 70
     0
  9
$PDMODE
 70
     0
  9
$PDSIZE
 40
0.0
  9
$PLINEWID
 40
0.0
  9
$SPLFRAME
 70
     0
  9
$SPLINETYPE
 70
     6
  9
$SPLINESEGS
 70
     8
  9
$HANDSEED
  5
259
  9
$SURFTAB1
 70
     6
  9
$SURFTAB2
 70
     6
  9
$SURFTYPE
 70
     6
  9
$SURFU
 70
     6
  9
$SURFV
 70
     6
  9
$UCSBASE
  2

  9
$UCSNAME
  2

  9
$UCSORG
 10
0.0
 20
0.0
 30
0.0
  9
$UCSXDIR
 10
1.0
 20
0.0
 30
0.0
  9
$UCSYDIR
 10
0.0
 20
1.0
 30
0.0
  9
$UCSORTHOREF
  2

  9
$UCSORTHOVIEW
 70
     0
  9
$UCSORGTOP
 10
0.0
 20
0.0
 30
0.0
  9
$UCSORGBOTTOM
 10
0.0
 20
0.0
 30
0.0
  9
$UCSORGLEFT
 10
0.0
 20
0.0
 30
0.0
  9
$UCSORGRIGHT
 10
0.0
 20
0.0
 30
0.0
  9
$UCSORGFRONT
 10
0.0
 20
0.0
 30
0.0
  9
$UCSORGBACK
 10
0.0
 20
0.0
 30
0.0
  9
$PUCSBASE
  2

  9
$PUCSNAME
  2

  9
$PUCSORG
 10
0.0
 20
0.0
 30
0.0
  9
$PUCSXDIR
 10
1.0
 20
0.0
 30
0.0
  9
$PUCSYDIR
 10
0.0
 20
1.0
 30
0.0
  9
$PUCSORTHOREF
  2

  9
$PUCSORTHOVIEW
 70
     0
  9
$PUCSORGTOP
 10
0.0
 20
0.0
 30
0.0
  9
$PUCSORGBOTTOM
 10
0.0
 20
0.0
 30
0.0
  9
$PUCSORGLEFT
 10
0.0
 20
0.0
 30
0.0
  9
$PUCSORGRIGHT
 10
0.0
 20
0.0
 30
0.0
  9
$PUCSORGFRONT
 10
0.0
 20
0.0
 30
0.0
  9
$PUCSORGBACK
 10
0.0
 20
0.0
 30
0.0
  9
$USERI1
 70
     0
  9
$USERI2
 70
     0
  9
$USERI3
 70
     0
  9
$USERI4
 70
     0
  9
$USERI5
 70
     0
  9
$USERR1
 40
0.0
  9
$USERR2
 40
0.0
  9
$USERR3
 40
0.0
  9
$USERR4
 40
0.0
  9
$USERR5
 40
0.0
  9
$WORLDVIEW
 70
     1
  9
$SHADEDGE
 70
     3
  9
$SHADEDIF
 70
    70
  9
$TILEMODE
 70
     1
  9
$MAXACTVP
 70
    48
  9
$PINSBASE
 10
0.0
 20
0.0
 30
0.0
  9
$PLIMCHECK
 70
     0
  9
$PEXTMIN
 10
1.000000000000000E+20
 20
1.000000000000000E+20
 30
1.000000000000000E+20
  9
$PEXTMAX
 10
-1.000000000000000E+20
 20
-1.000000000000000E+20
 30
-1.000000000000000E+20
  9
$PLIMMIN
 10
0.0
 20
0.0
  9
$PLIMMAX
 10
12.0
 20
9.0
  9
$UNITMODE
 70
     0
  9
$VISRETAIN
 70
     1
  9
$PLINEGEN
 70
     0
  9
$PSLTSCALE
 70
     1
  9
$TREEDEPTH
 70
  3020
  9
$CMLSTYLE
  2
Standard
  9
$CMLJUST
 70
     0
  9
$CMLSCALE
 40
1.0
  9
$PROXYGRAPHICS
 70
     1
  9
$MEASUREMENT
 70
     0
  9
$CELWEIGHT
370
    -1
  9
$ENDCAPS
280
     0
  9
$JOINSTYLE
280
     0
  9
$LWDISPLAY
290
     0
  9
$INSUNITS
 70
     1
  9
$HYPERLINKBASE
  1

  9
$STYLESHEET
  1

  9
$XEDIT
290
     1
  9
$CEPSNTYPE
380
     0
  9
$PSTYLEMODE
290
     1
  9
$FINGERPRINTGUID
  2
{B4E2673A-D450-11D5-828D-00C04FA0491E}
  9
$VERSIONGUID
  2
{BEA6181B-68FB-4B91-A6C2-80BD5677BFB5}
  9
$EXTNAMES
290
     1
  9
$PSVPSCALE
 40
0.0
  9
$OLESTARTUP
290
     0
  0
ENDSEC
  0
SECTION
  2
CLASSES
  0
CLASS
  1
ACDBDICTIONARYWDFLT
  2
AcDbDictionaryWithDefault
  3
AutoCAD 2000
 90
        0
280
     0
281
     0
  0
CLASS
  1
ACDBPLACEHOLDER
  2
AcDbPlaceHolder
  3
AutoCAD 2000
 90
        0
280
     0
281
     0
  0
CLASS
  1
LAYOUT
  2
AcDbLayout
  3
AutoCAD 2000
 90
        0
280
     0
281
     0
  0
CLASS
  1
LONG_TRANSACTION
  2
AcDbLongTransaction
  3
AutoCAD 2000
 90
    32768
280
     0
281
     0
  0
CLASS
  1
LWPOLYLINE
  2
AcDbPolyline
  3
AutoCAD 2000
 90
    32768
280
     0
281
     1
  0
CLASS
  1
HATCH
  2
AcDbHatch
  3
AutoCAD 2000
 90
    32768
280
     0
281
     1
  0
CLASS
  1
XRECORD
  2
AcDbXrecord
  3
AutoCAD 2000
 90
    32768
280
     0
281
     0
  0
CLASS
  1
DICTIONARYVAR
  2
AcDbDictionaryVar
  3
AutoCAD 2000
 90
    32768
280
     0
281
     0
  0
CLASS
  1
LONG_TRANSACTION
  2
AcDbLongTransaction
  3
AutoCAD 2000
 90
    32768
280
     0
281
     0
  0
CLASS
  1
LWPOLYLINE
  2
AcDbPolyline
  3
AutoCAD 2000
 90
    32768
280
     0
281
     1
  0
CLASS
  1
HATCH
  2
AcDbHatch
  3
AutoCAD 2000
 90
    32768
280
     0
281
     1
  0
CLASS
  1
XRECORD
  2
AcDbXrecord
  3
AutoCAD 2000
 90
    32768
280
     0
281
     0
  0
CLASS
  1
LONG_TRANSACTION
  2
AcDbLongTransaction
  3
AutoCAD 2000
 90
    32768
280
     0
281
     0
  0
CLASS
  1
LWPOLYLINE
  2
AcDbPolyline
  3
AutoCAD 2000
 90
    32768
280
     0
281
     1
  0
CLASS
  1
HATCH
  2
AcDbHatch
  3
AutoCAD 2000
 90
    32768
280
     0
281
     1
  0
CLASS
  1
XRECORD
  2
AcDbXrecord
  3
AutoCAD 2000
 90
    32768
280
     0
281
     0
  0
CLASS
  1
RASTERVARIABLES
  2
AcDbRasterVariables
  3
ISM
 90
    32768
280
     0
281
     0
  0
CLASS
  1
IMAGEDEF
  2
AcDbRasterImageDef
  3
ISM
 90
    32768
280
     0
281
     0
  0
CLASS
  1
IMAGEDEF_REACTOR
  2
AcDbRasterImageDefReactor
  3
ISM
 90
    32769
280
     0
281
     0
  0
CLASS
  1
IMAGE
  2
AcDbRasterImage
  3
ISM
 90
    32895
280
     0
281
     1
  0
CLASS
  1
LONG_TRANSACTION
  2
AcDbLongTransaction
  3
AutoCAD 2000
 90
    32768
280
     0
281
     0
  0
CLASS
  1
LWPOLYLINE
  2
AcDbPolyline
  3
AutoCAD 2000
 90
    32768
280
     0
281
     1
  0
CLASS
  1
HATCH
  2
AcDbHatch
  3
AutoCAD 2000
 90
    32768
280
     0
281
     1
  0
CLASS
  1
XRECORD
  2
AcDbXrecord
  3
AutoCAD 2000
 90
    32768
280
     0
281
     0
  0
CLASS
  1
LONG_TRANSACTION
  2
AcDbLongTransaction
  3
AutoCAD 2000
 90
    32768
280
     0
281
     0
  0
CLASS
  1
LWPOLYLINE
  2
AcDbPolyline
  3
AutoCAD 2000
 90
    32768
280
     0
281
     1
  0
CLASS
  1
HATCH
  2
AcDbHatch
  3
AutoCAD 2000
 90
    32768
280
     0
281
     1
  0
CLASS
  1
XRECORD
  2
AcDbXrecord
  3
AutoCAD 2000
 90
    32768
280
     0
281
     0
  0
CLASS
  1
LONG_TRANSACTION
  2
AcDbLongTransaction
  3
AutoCAD 2000
 90
    32768
280
     0
281
     0
  0
CLASS
  1
LWPOLYLINE
  2
AcDbPolyline
  3
AutoCAD 2000
 90
    32768
280
     0
281
     1
  0
CLASS
  1
HATCH
  2
AcDbHatch
  3
AutoCAD 2000
 90
    32768
280
     0
281
     1
  0
CLASS
  1
XRECORD
  2
AcDbXrecord
  3
AutoCAD 2000
 90
    32768
280
     0
281
     0
  0
CLASS
  1
LONG_TRANSACTION
  2
AcDbLongTransaction
  3
AutoCAD 2000
 90
    32768
280
     0
281
     0
  0
CLASS
  1
LWPOLYLINE
  2
AcDbPolyline
  3
AutoCAD 2000
 90
    32768
280
     0
281
     1
  0
CLASS
  1
HATCH
  2
AcDbHatch
  3
AutoCAD 2000
 90
    32768
280
     0
281
     1
  0
CLASS
  1
XRECORD
  2
AcDbXrecord
  3
AutoCAD 2000
 90
    32768
280
     0
281
     0
  0
ENDSEC
  0
SECTION
  2
TABLES
  0
TABLE
  2
VPORT
  5
1E
330
0
100
AcDbSymbolTable
 70
     2
  0
VPORT
  5
258
330
1E
100
AcDbSymbolTableRecord
100
AcDbViewportTableRecord
  2
*Active
 70
     0
 10
0.0
 20
0.0
 11
1.0
 21
1.0
 12
5.999999999999998
 22
4.499999999999999
 13
0.0
 23
0.0
 14
0.5
 24
0.5
 15
0.5
 25
0.5
 16
0.0
 26
0.0
 36
1.0
 17
0.0
 27
0.0
 37
0.0
 40
9.098360655737703
 41
1.534671532846715
 42
50.0
 43
0.0
 44
0.0
 50
0.0
 51
0.0
 71
     0
 72
   100
 73
     1
 74
     3
 75
     0
 76
     0
 77
     0
 78
     0
281
     0
 65
     1
110
0.0
120
0.0
130
0.0
111
1.0
121
0.0
131
0.0
112
0.0
122
1.0
132
0.0
 79
     0
146
0.0
  0
ENDTAB
  0
TABLE
  2
LTYPE
  5
19
330
0
100
AcDbSymbolTable
 70
     3
  0
LTYPE
  5
1A
330
19
100
AcDbSymbolTableRecord
100
AcDbLinetypeTableRecord
  2
ByBlock
 70
     0
  3

 72
    65
 73
     0
 40
0.0
  0
LTYPE
  5
1B
330
19
100
AcDbSymbolTableRecord
100
AcDbLinetypeTableRecord
  2
ByLayer
 70
     0
  3

 72
    65
 73
     0
 40
0.0
  0
LTYPE
  5
A
330
19
100
AcDbSymbolTableRecord
100
AcDbLinetypeTableRecord
  2
Continuous
 70
     0
  3
Solid line
 72
    65
 73
     0
 40
0.0
  0
LTYPE
  5
54
330
19
100
AcDbSymbolTableRecord
100
AcDbLinetypeTableRecord
  2
CENTER2
 70
     0
  3
___ _ ___ _ ___ _ ___ _ ___ _ ___ _ ___ _ ___ _
 72
    65
 73
     4
 40
1.125
 49
0.75
 74
     0
 49
-0.125
 74
     0
 49
0.125
 74
     0
 49
-0.125
 74
     0
  0
LTYPE
  5
145
330
19
100
AcDbSymbolTableRecord
100
AcDbLinetypeTableRecord
  2
HIDDEN
 70
     0
  3
Hidden __ __ __ __ __ __ __ __ __ __ __ __ __ _
 72
    65
 73
     2
 40
0.375
 49
0.25
 74
     0
 49
-0.125
 74
     0
  0
ENDTAB
  0
TABLE
  2
LAYER
  5
14
330
0
100
AcDbSymbolTable
 70
     7
  0
LAYER
  5
6
330
14
100
AcDbSymbolTableRecord
100
AcDbLayerTableRecord
  2
0
 70
     0
 62
     7
  6
Continuous
370
    -3
390
7
  0
LAYER
  5
2D
330
14
100
AcDbSymbolTableRecord
100
AcDbLayerTableRecord
  2
OBJ
 70
     0
 62
     7
  6
Continuous
370
    -3
390
7
  0
LAYER
  5
2F
330
14
100
AcDbSymbolTableRecord
100
AcDbLayerTableRecord
  2
NOTES
 70
     0
 62
     7
  6
Continuous
370
    -3
390
7
  0
LAYER
  5
26
330
14
100
AcDbSymbolTableRecord
100
AcDbLayerTableRecord
  2
DIM
 70
     0
 62
     3
  6
Continuous
370
    -3
390
7
  0
LAYER
  5
2B
330
14
100
AcDbSymbolTableRecord
100
AcDbLayerTableRecord
  2
HATCH
 70
     0
 62
     4
  6
Continuous
370
    -3
390
7
  0
LAYER
  5
53
330
14
100
AcDbSymbolTableRecord
100
AcDbLayerTableRecord
  2
CL
 70
     0
 62
     7
  6
CENTER2
370
    -3
390
7
  0
LAYER
  5
3A
330
14
100
AcDbSymbolTableRecord
100
AcDbLayerTableRecord
  2
Defpoints
 70
     0
 62
     7
  6
Continuous
290
     0
370
    -3
390
7
  0
ENDTAB
  0
TABLE
  2
STYLE
  5
15
330
0
100
AcDbSymbolTable
 70
     2
  0
STYLE
  5
16
330
15
100
AcDbSymbolTableRecord
100
AcDbTextStyleTableRecord
  2
Standard
 70
     0
 40
0.0
 41
1.0
 50
0.0
 71
     0
 42
0.2
  3
ARIAL.TTF
  4

1001
ACAD
1000
Arial
1071
       34
  0
STYLE
  5
27
330
15
100
AcDbSymbolTableRecord
100
AcDbTextStyleTableRecord
  2
NAME
 70
     0
 40
0.0
 41
1.0
 50
0.0
 71
     0
 42
0.33
  3
TT0007M_.TTF
  4

1001
ACAD
1000
Swis721 Blk BT
1071
       34
  0
ENDTAB
  0
TABLE
  2
VIEW
  5
1C
330
0
100
AcDbSymbolTable
 70
     0
  0
ENDTAB
  0
TABLE
  2
UCS
  5
1D
330
0
100
AcDbSymbolTable
 70
     0
  0
ENDTAB
  0
TABLE
  2
APPID
  5
20
330
0
100
AcDbSymbolTable
 70
     1
  0
APPID
  5
17
330
20
100
AcDbSymbolTableRecord
100
AcDbRegAppTableRecord
  2
ACAD
 70
     0
  0
ENDTAB
  0
TABLE
  2
DIMSTYLE
  5
21
330
0
100
AcDbSymbolTable
 70
     1
100
AcDbDimStyleTable
 71
     0
  0
DIMSTYLE
105
29
102
{ACAD_REACTORS
330
124
330
116
330
A1
330
3F
330
170
330
72
330
161
330
30
330
62
330
93
330
85
102
}
330
21
100
AcDbSymbolTableRecord
100
AcDbDimStyleTableRecord
  2
Standard
 70
     0
 41
0.12
 42
0.06
 44
0.07
140
0.1
147
0.04
271
     2
272
     2
340
16
  0
ENDTAB
  0
TABLE
  2
BLOCK_RECORD
  5
1
330
0
100
AcDbSymbolTable
 70
    23
  0
BLOCK_RECORD
  5
2
102
{ACAD_XDICTIONARY
360
3
102
}
330
1
100
AcDbSymbolTableRecord
100
AcDbBlockTableRecord
  2
*Model_Space
340
C
  0
BLOCK_RECORD
  5
E
102
{ACAD_XDICTIONARY
360
F
102
}
330
1
100
AcDbSymbolTableRecord
100
AcDbBlockTableRecord
  2
*Paper_Space
340
13
  0
BLOCK_RECORD
  5
DF
330
1
100
AcDbSymbolTableRecord
100
AcDbBlockTableRecord
  2
A$C266B4E3C
340
0
102
{BLKREFS
331
DE
331
195
102
}
  0
BLOCK_RECORD
  5
125
330
1
100
AcDbSymbolTableRecord
100
AcDbBlockTableRecord
  2
*D1
340
0
  0
BLOCK_RECORD
  5
117
330
1
100
AcDbSymbolTableRecord
100
AcDbBlockTableRecord
  2
*D2
340
0
  0
BLOCK_RECORD
  5
A2
330
1
100
AcDbSymbolTableRecord
100
AcDbBlockTableRecord
  2
*D3
340
0
  0
BLOCK_RECORD
  5
40
330
1
100
AcDbSymbolTableRecord
100
AcDbBlockTableRecord
  2
*D4
340
0
  0
BLOCK_RECORD
  5
171
330
1
100
AcDbSymbolTableRecord
100
AcDbBlockTableRecord
  2
*D5
340
0
  0
BLOCK_RECORD
  5
73
330
1
100
AcDbSymbolTableRecord
100
AcDbBlockTableRecord
  2
*D6
340
0
  0
BLOCK_RECORD
  5
162
330
1
100
AcDbSymbolTableRecord
100
AcDbBlockTableRecord
  2
*D7
340
0
  0
BLOCK_RECORD
  5
31
330
1
100
AcDbSymbolTableRecord
100
AcDbBlockTableRecord
  2
*D8
340
0
  0
BLOCK_RECORD
  5
63
330
1
100
AcDbSymbolTableRecord
100
AcDbBlockTableRecord
  2
*D9
340
0
  0
BLOCK_RECORD
  5
94
330
1
100
AcDbSymbolTableRecord
100
AcDbBlockTableRecord
  2
*D10
340
0
  0
BLOCK_RECORD
  5
86
330
1
100
AcDbSymbolTableRecord
100
AcDbBlockTableRecord
  2
*D11
340
0
  0
BLOCK_RECORD
  5
1C8
330
1
100
AcDbSymbolTableRecord
100
AcDbBlockTableRecord
  2
*D12
340
0
  0
BLOCK_RECORD
  5
1D5
330
1
100
AcDbSymbolTableRecord
100
AcDbBlockTableRecord
  2
*D13
340
0
  0
BLOCK_RECORD
  5
1E2
330
1
100
AcDbSymbolTableRecord
100
AcDbBlockTableRecord
  2
*D14
340
0
  0
BLOCK_RECORD
  5
1EF
330
1
100
AcDbSymbolTableRecord
100
AcDbBlockTableRecord
  2
*D15
340
0
  0
BLOCK_RECORD
  5
1FC
330
1
100
AcDbSymbolTableRecord
100
AcDbBlockTableRecord
  2
*D16
340
0
  0
BLOCK_RECORD
  5
209
330
1
100
AcDbSymbolTableRecord
100
AcDbBlockTableRecord
  2
*D17
340
0
  0
BLOCK_RECORD
  5
216
330
1
100
AcDbSymbolTableRecord
100
AcDbBlockTableRecord
  2
*D18
340
0
  0
BLOCK_RECORD
  5
223
330
1
100
AcDbSymbolTableRecord
100
AcDbBlockTableRecord
  2
*D19
340
0
  0
BLOCK_RECORD
  5
230
330
1
100
AcDbSymbolTableRecord
100
AcDbBlockTableRecord
  2
*D20
340
0
  0
BLOCK_RECORD
  5
23D
330
1
100
AcDbSymbolTableRecord
100
AcDbBlockTableRecord
  2
*D21
340
0
  0
BLOCK_RECORD
  5
24A
330
1
100
AcDbSymbolTableRecord
100
AcDbBlockTableRecord
  2
*D22
340
0
  0
ENDTAB
  0
ENDSEC
  0
SECTION
  2
BLOCKS
  0
BLOCK
  5
5
330
2
100
AcDbEntity
  8
0
100
AcDbBlockBegin
  2
*Model_Space
 70
     0
 10
0.0
 20
0.0
 30
0.0
  3
*Model_Space
  1

  0
ENDBLK
  5
B
330
2
100
AcDbEntity
  8
0
100
AcDbBlockEnd
  0
BLOCK
  5
11
330
E
100
AcDbEntity
 67
     1
  8
0
100
AcDbBlockBegin
  2
*Paper_Space
 70
     0
 10
0.0
 20
0.0
 30
0.0
  3
*Paper_Space
  1

  0
ENDBLK
  5
12
330
E
100
AcDbEntity
 67
     1
  8
0
100
AcDbBlockEnd
  0
BLOCK
  5
E2
330
DF
100
AcDbEntity
  8
0
100
AcDbBlockBegin
  2
A$C266B4E3C
 70
     0
 10
0.0
 20
0.0
 30
0.0
  3
A$C266B4E3C
  1

  0
MTEXT
  5
E0
330
DF
100
AcDbEntity
  8
NOTES
100
AcDbMText
 10
0.0531773608844617
 20
0.188115100644378
 30
0.0
 40
0.1
 41
0.0
 71
     2
 72
     5
  1
C
 73
     1
 44
1.0
1001
ACAD
1000
MTEXTBEGIN
1070
    73
1070
     1
1070
    44
1040
1.0
1070
    74
1070
     0
1000
MTEXTEND
1000
MTEXTBEGIN
1070
    73
1070
     1
1070
    44
1040
1.0
1070
    74
1070
     0
1000
MTEXTEND
1000
MTEXTBEGIN
1070
    73
1070
     1
1070
    44
1040
1.0
1070
    74
1070
     0
1000
MTEXTEND
1000
MTEXTBEGIN
1070
    73
1070
     1
1070
    44
1040
1.0
1070
    74
1070
     0
1000
MTEXTEND
1000
MTEXTBEGIN
1070
    73
1070
     1
1070
    44
1040
1.0
1070
    74
1070
     0
1000
MTEXTEND
1000
MTEXTBEGIN
1070
    73
1070
     1
1070
    44
1040
1.0
1070
    74
1070
     0
1000
MTEXTEND
  0
MTEXT
  5
E1
330
DF
100
AcDbEntity
  8
NOTES
100
AcDbMText
 10
0.0897735595015661
 20
0.1306408944278488
 30
0.0
 40
0.1
 41
0.0
 71
     2
 72
     5
  1
L
 73
     1
 44
1.0
1001
ACAD
1000
MTEXTBEGIN
1070
    73
1070
     1
1070
    44
1040
1.0
1070
    74
1070
     0
1000
MTEXTEND
1000
MTEXTBEGIN
1070
    73
1070
     1
1070
    44
1040
1.0
1070
    74
1070
     0
1000
MTEXTEND
1000
MTEXTBEGIN
1070
    73
1070
     1
1070
    44
1040
1.0
1070
    74
1070
     0
1000
MTEXTEND
1000
MTEXTBEGIN
1070
    73
1070
     1
1070
    44
1040
1.0
1070
    74
1070
     0
1000
MTEXTEND
1000
MTEXTBEGIN
1070
    73
1070
     1
1070
    44
1040
1.0
1070
    74
1070
     0
1000
MTEXTEND
1000
MTEXTBEGIN
1070
    73
1070
     1
1070
    44
1040
1.0
1070
    74
1070
     0
1000
MTEXTEND
  0
ENDBLK
  5
E3
330
DF
100
AcDbEntity
  8
0
100
AcDbBlockEnd
  0
BLOCK
  5
130
330
125
100
AcDbEntity
  8
0
100
AcDbBlockBegin
  2
*D1
 70
     1
 10
0.0
 20
0.0
 30
0.0
  3
*D1
  1

  0
LINE
  5
126
330
125
100
AcDbEntity
  8
DIM
 62
     0
370
    -2
100
AcDbLine
 10
2.494743250042429
 20
10.08174435364506
 30
0.0
 11
0.9415074138555327
 21
10.08174435364506
 31
0.0
  0
LINE
  5
127
330
125
100
AcDbEntity
  8
DIM
 62
     0
370
    -2
100
AcDbLine
 10
2.494743250042429
 20
8.336463524488321
 30
0.0
 11
0.9415074138555327
 21
8.336463524488321
 31
0.0
  0
LINE
  5
128
330
125
100
AcDbEntity
  8
DIM
 62
     0
370
    -2
100
AcDbLine
 10
1.011507413855533
 20
9.961744353645064
 30
0.0
 11
1.011507413855532
 21
9.396523220558279
 31
0.0
  0
LINE
  5
129
330
125
100
AcDbEntity
  8
DIM
 62
     0
370
    -2
100
AcDbLine
 10
1.011507413855532
 20
8.45646352448832
 30
0.0
 11
1.011507413855532
 21
9.021684657575102
 31
0.0
  0
SOLID
  5
12A
330
125
100
AcDbEntity
  8
DIM
 62
     0
100
AcDbTrace
 10
0.9915074138555331
 20
9.961744353645064
 30
0.0
 11
1.031507413855532
 21
9.961744353645064
 31
0.0
 12
1.011507413855533
 22
10.08174435364506
 32
0.0
 13
1.011507413855533
 23
10.08174435364506
 33
0.0
  0
SOLID
  5
12B
330
125
100
AcDbEntity
  8
DIM
 62
     0
100
AcDbTrace
 10
0.9915074138555327
 20
8.45646352448832
 30
0.0
 11
1.031507413855532
 21
8.45646352448832
 31
0.0
 12
1.011507413855532
 22
8.336463524488321
 32
0.0
 13
1.011507413855532
 23
8.336463524488321
 33
0.0
  0
MTEXT
  5
12C
330
125
100
AcDbEntity
  8
DIM
 62
     0
100
AcDbMText
 10
1.01150741385553
 20
9.209103939066693
 30
0.0
 40
0.1
 41
0.0
 71
     5
 72
     1
  1
\A1;1.75\PApprox.
 73
     1
 44
1.0
1001
ACAD
1000
MTEXTBEGIN
1070
    73
1070
     1
1070
    44
1040
1.0
1070
    74
1070
     0
1000
MTEXTEND
1000
MTEXTBEGIN
1070
    73
1070
     1
1070
    44
1040
1.0
1070
    74
1070
     0
1000
MTEXTEND
1000
MTEXTBEGIN
1070
    73
1070
     1
1070
    44
1040
1.0
1070
    74
1070
     0
1000
MTEXTEND
1000
MTEXTBEGIN
1070
    73
1070
     1
1070
    44
1040
1.0
1070
    74
1070
     0
1000
MTEXTEND
  0
POINT
  5
12D
330
125
100
AcDbEntity
  8
Defpoints
 62
     0
100
AcDbPoint
 10
2.554743250042429
 20
10.08174435364506
 30
0.0
  0
POINT
  5
12E
330
125
100
AcDbEntity
  8
Defpoints
 62
     0
100
AcDbPoint
 10
2.554743250042429
 20
8.336463524488321
 30
0.0
  0
POINT
  5
12F
330
125
100
AcDbEntity
  8
Defpoints
 62
     0
100
AcDbPoint
 10
1.011507413855532
 20
8.336463524488321
 30
0.0
  0
ENDBLK
  5
131
330
125
100
AcDbEntity
  8
0
100
AcDbBlockEnd
  0
BLOCK
  5
122
330
117
100
AcDbEntity
  8
0
100
AcDbBlockBegin
  2
*D2
 70
     1
 10
0.0
 20
0.0
 30
0.0
  3
*D2
  1

  0
LINE
  5
118
330
117
100
AcDbEntity
  8
DIM
 62
     0
370
    -2
100
AcDbLine
 10
1.849890885828664
 20
8.452598862950134
 30
0.0
 11
1.849890885828664
 21
7.97378882161838
 31
0.0
  0
LINE
  5
119
330
117
100
AcDbEntity
  8
DIM
 62
     0
370
    -2
100
AcDbLine
 10
3.259595614256209
 20
8.452598862950134
 30
0.0
 11
3.259595614256209
 21
7.97378882161838
 31
0.0
  0
LINE
  5
11A
330
117
100
AcDbEntity
  8
DIM
 62
     0
370
    -2
100
AcDbLine
 10
1.969890885828663
 20
8.043788821618379
 30
0.0
 11
2.605221973113565
 21
8.043788821618379
 31
0.0
  0
LINE
  5
11B
330
117
100
AcDbEntity
  8
DIM
 62
     0
370
    -2
100
AcDbLine
 10
3.139595614256209
 20
8.043788821618379
 30
0.0
 11
2.916258808038531
 21
8.043788821618379
 31
0.0
  0
SOLID
  5
11C
330
117
100
AcDbEntity
  8
DIM
 62
     0
100
AcDbTrace
 10
1.969890885828663
 20
8.063788821618381
 30
0.0
 11
1.969890885828663
 21
8.02378882161838
 31
0.0
 12
1.849890885828664
 22
8.043788821618379
 32
0.0
 13
1.849890885828664
 23
8.043788821618379
 33
0.0
  0
SOLID
  5
11D
330
117
100
AcDbEntity
  8
DIM
 62
     0
100
AcDbTrace
 10
3.139595614256209
 20
8.063788821618381
 30
0.0
 11
3.139595614256209
 21
8.02378882161838
 31
0.0
 12
3.259595614256209
 22
8.043788821618379
 32
0.0
 13
3.259595614256209
 23
8.043788821618379
 33
0.0
  0
MTEXT
  5
11E
330
117
100
AcDbEntity
  8
DIM
 62
     0
100
AcDbMText
 10
2.760740390576049
 20
8.043788821618379
 30
0.0
 40
0.1
 41
0.0
 71
     5
 72
     1
  1
\A1;1.41
 73
     1
 44
1.0
1001
ACAD
1000
MTEXTBEGIN
1070
    73
1070
     1
1070
    44
1040
1.0
1070
    74
1070
     0
1000
MTEXTEND
1000
MTEXTBEGIN
1070
    73
1070
     1
1070
    44
1040
1.0
1070
    74
1070
     0
1000
MTEXTEND
1000
MTEXTBEGIN
1070
    73
1070
     1
1070
    44
1040
1.0
1070
    74
1070
     0
1000
MTEXTEND
1000
MTEXTBEGIN
1070
    73
1070
     1
1070
    44
1040
1.0
1070
    74
1070
     0
1000
MTEXTEND
  0
POINT
  5
11F
330
117
100
AcDbEntity
  8
Defpoints
 62
     0
100
AcDbPoint
 10
1.849890885828664
 20
8.512598862950135
 30
0.0
  0
POINT
  5
120
330
117
100
AcDbEntity
  8
Defpoints
 62
     0
100
AcDbPoint
 10
3.259595614256209
 20
8.512598862950135
 30
0.0
  0
POINT
  5
121
330
117
100
AcDbEntity
  8
Defpoints
 62
     0
100
AcDbPoint
 10
3.259595614256209
 20
8.043788821618379
 30
0.0
  0
ENDBLK
  5
123
330
117
100
AcDbEntity
  8
0
100
AcDbBlockEnd
  0
BLOCK
  5
AD
330
A2
100
AcDbEntity
  8
0
100
AcDbBlockBegin
  2
*D3
 70
     1
 10
0.0
 20
0.0
 30
0.0
  3
*D3
  1

  0
LINE
  5
A3
330
A2
100
AcDbEntity
  8
DIM
 62
     0
370
    -2
100
AcDbLine
 10
1.554743250042426
 20
3.652521346477028
 30
0.0
 11
1.554743250042426
 21
3.341318653577368
 31
0.0
  0
LINE
  5
A4
330
A2
100
AcDbEntity
  8
DIM
 62
     0
370
    -2
100
AcDbLine
 10
3.554743250042431
 20
3.652521346477028
 30
0.0
 11
3.554743250042431
 21
3.341318653577368
 31
0.0
  0
LINE
  5
A5
330
A2
100
AcDbEntity
  8
DIM
 62
     0
370
    -2
100
AcDbLine
 10
1.674743250042426
 20
3.411318653577366
 30
0.0
 11
2.001747833778116
 21
3.411318653577366
 31
0.0
  0
LINE
  5
A6
330
A2
100
AcDbEntity
  8
DIM
 62
     0
370
    -2
100
AcDbLine
 10
3.434743250042431
 20
3.411318653577366
 30
0.0
 11
2.342866524091895
 21
3.411318653577366
 31
0.0
  0
SOLID
  5
A7
330
A2
100
AcDbEntity
  8
DIM
 62
     0
100
AcDbTrace
 10
1.674743250042426
 20
3.431318653577366
 30
0.0
 11
1.674743250042426
 21
3.391318653577366
 31
0.0
 12
1.554743250042426
 22
3.411318653577366
 32
0.0
 13
1.554743250042426
 23
3.411318653577366
 33
0.0
  0
SOLID
  5
A8
330
A2
100
AcDbEntity
  8
DIM
 62
     0
100
AcDbTrace
 10
3.434743250042431
 20
3.431318653577366
 30
0.0
 11
3.434743250042431
 21
3.391318653577366
 31
0.0
 12
3.554743250042431
 22
3.411318653577366
 32
0.0
 13
3.554743250042431
 23
3.411318653577366
 33
0.0
  0
MTEXT
  5
A9
330
A2
100
AcDbEntity
  8
DIM
 62
     0
100
AcDbMText
 10
2.172307178935005
 20
3.411318653577366
 30
0.0
 40
0.1
 41
0.0
 71
     5
 72
     1
  1
\A1;2.00
 73
     1
 44
1.0
1001
ACAD
1000
MTEXTBEGIN
1070
    73
1070
     1
1070
    44
1040
1.0
1070
    74
1070
     0
1000
MTEXTEND
1000
MTEXTBEGIN
1070
    73
1070
     1
1070
    44
1040
1.0
1070
    74
1070
     0
1000
MTEXTEND
1000
MTEXTBEGIN
1070
    73
1070
     1
1070
    44
1040
1.0
1070
    74
1070
     0
1000
MTEXTEND
1000
MTEXTBEGIN
1070
    73
1070
     1
1070
    44
1040
1.0
1070
    74
1070
     0
1000
MTEXTEND
  0
POINT
  5
AA
330
A2
100
AcDbEntity
  8
Defpoints
 62
     0
100
AcDbPoint
 10
1.554743250042426
 20
3.712521346477028
 30
0.0
  0
POINT
  5
AB
330
A2
100
AcDbEntity
  8
Defpoints
 62
     0
100
AcDbPoint
 10
3.554743250042431
 20
3.712521346477028
 30
0.0
  0
POINT
  5
AC
330
A2
100
AcDbEntity
  8
Defpoints
 62
     0
100
AcDbPoint
 10
3.554743250042431
 20
3.411318653577366
 30
0.0
  0
ENDBLK
  5
AE
330
A2
100
AcDbEntity
  8
0
100
AcDbBlockEnd
  0
BLOCK
  5
4B
330
40
100
AcDbEntity
  8
0
100
AcDbBlockBegin
  2
*D4
 70
     1
 10
0.0
 20
0.0
 30
0.0
  3
*D4
  1

  0
LINE
  5
41
330
40
100
AcDbEntity
  8
DIM
 62
     0
370
    -2
100
AcDbLine
 10
5.562100281655851
 20
3.652521346477028
 30
0.0
 11
5.562100281655851
 21
3.332813427291163
 31
0.0
  0
LINE
  5
42
330
40
100
AcDbEntity
  8
DIM
 62
     0
370
    -2
100
AcDbLine
 10
7.062478118056596
 20
3.652521346477028
 30
0.0
 11
7.062478118056596
 21
3.332813427291163
 31
0.0
  0
LINE
  5
43
330
40
100
AcDbEntity
  8
DIM
 62
     0
370
    -2
100
AcDbLine
 10
5.682100281655851
 20
3.402813427291163
 30
0.0
 11
5.871739114645115
 21
3.402813427291163
 31
0.0
  0
LINE
  5
44
330
40
100
AcDbEntity
  8
DIM
 62
     0
370
    -2
100
AcDbLine
 10
6.942478118056594
 20
3.402813427291163
 30
0.0
 11
6.201739114645115
 21
3.402813427291163
 31
0.0
  0
SOLID
  5
45
330
40
100
AcDbEntity
  8
DIM
 62
     0
100
AcDbTrace
 10
5.682100281655851
 20
3.422813427291163
 30
0.0
 11
5.682100281655851
 21
3.382813427291163
 31
0.0
 12
5.562100281655851
 22
3.402813427291163
 32
0.0
 13
5.562100281655851
 23
3.402813427291163
 33
0.0
  0
SOLID
  5
46
330
40
100
AcDbEntity
  8
DIM
 62
     0
100
AcDbTrace
 10
6.942478118056594
 20
3.422813427291163
 30
0.0
 11
6.942478118056594
 21
3.382813427291163
 31
0.0
 12
7.062478118056596
 22
3.402813427291163
 32
0.0
 13
7.062478118056596
 23
3.402813427291163
 33
0.0
  0
MTEXT
  5
47
330
40
100
AcDbEntity
  8
DIM
 62
     0
100
AcDbMText
 10
6.036739114645115
 20
3.402813427291163
 30
0.0
 40
0.1
 41
0.0
 71
     5
 72
     1
  1
\A1;1.50
 73
     1
 44
1.0
1001
ACAD
1000
MTEXTBEGIN
1070
    73
1070
     1
1070
    44
1040
1.0
1070
    74
1070
     0
1000
MTEXTEND
1000
MTEXTBEGIN
1070
    73
1070
     1
1070
    44
1040
1.0
1070
    74
1070
     0
1000
MTEXTEND
1000
MTEXTBEGIN
1070
    73
1070
     1
1070
    44
1040
1.0
1070
    74
1070
     0
1000
MTEXTEND
1000
MTEXTBEGIN
1070
    73
1070
     1
1070
    44
1040
1.0
1070
    74
1070
     0
1000
MTEXTEND
  0
POINT
  5
48
330
40
100
AcDbEntity
  8
Defpoints
 62
     0
100
AcDbPoint
 10
5.562100281655851
 20
3.712521346477028
 30
0.0
  0
POINT
  5
49
330
40
100
AcDbEntity
  8
Defpoints
 62
     0
100
AcDbPoint
 10
7.062478118056596
 20
3.712521346477028
 30
0.0
  0
POINT
  5
4A
330
40
100
AcDbEntity
  8
Defpoints
 62
     0
100
AcDbPoint
 10
7.062478118056596
 20
3.402813427291163
 30
0.0
  0
ENDBLK
  5
4C
330
40
100
AcDbEntity
  8
0
100
AcDbBlockEnd
  0
BLOCK
  5
17C
330
171
100
AcDbEntity
  8
0
100
AcDbBlockBegin
  2
*D5
 70
     1
 10
0.0
 20
0.0
 30
0.0
  3
*D5
  1

  0
LINE
  5
172
330
171
100
AcDbEntity
  8
DIM
 62
     0
370
    -2
100
AcDbLine
 10
3.105408977934393
 20
7.399586174318282
 30
0.0
 11
4.736542849603188
 21
7.399586174318282
 31
0.0
  0
LINE
  5
173
330
171
100
AcDbEntity
  8
DIM
 62
     0
370
    -2
100
AcDbLine
 10
4.220663511112377
 20
6.019586174318282
 30
0.0
 11
4.736542849603188
 21
6.019586174318282
 31
0.0
  0
LINE
  5
174
330
171
100
AcDbEntity
  8
DIM
 62
     0
370
    -2
100
AcDbLine
 10
4.666542849603188
 20
7.279586174318282
 30
0.0
 11
4.666542849603188
 21
6.800677579502456
 31
0.0
  0
LINE
  5
175
330
171
100
AcDbEntity
  8
DIM
 62
     0
370
    -2
100
AcDbLine
 10
4.666542849603188
 20
6.139586174318282
 30
0.0
 11
4.666542849603188
 21
6.618494769134107
 31
0.0
  0
SOLID
  5
176
330
171
100
AcDbEntity
  8
DIM
 62
     0
100
AcDbTrace
 10
4.646542849603188
 20
7.279586174318282
 30
0.0
 11
4.686542849603188
 21
7.279586174318282
 31
0.0
 12
4.666542849603188
 22
7.399586174318282
 32
0.0
 13
4.666542849603188
 23
7.399586174318282
 33
0.0
  0
SOLID
  5
177
330
171
100
AcDbEntity
  8
DIM
 62
     0
100
AcDbTrace
 10
4.646542849603188
 20
6.139586174318282
 30
0.0
 11
4.686542849603188
 21
6.139586174318282
 31
0.0
 12
4.666542849603188
 22
6.019586174318282
 32
0.0
 13
4.666542849603188
 23
6.019586174318282
 33
0.0
  0
MTEXT
  5
178
330
171
100
AcDbEntity
  8
DIM
 62
     0
100
AcDbMText
 10
4.666542849603186
 20
6.709586174318284
 30
0.0
 40
0.1
 41
0.0
 71
     5
 72
     1
  1
\A1;1.38
 73
     1
 44
1.0
1001
ACAD
1000
MTEXTBEGIN
1070
    73
1070
     1
1070
    44
1040
1.0
1070
    74
1070
     0
1000
MTEXTEND
1000
MTEXTBEGIN
1070
    73
1070
     1
1070
    44
1040
1.0
1070
    74
1070
     0
1000
MTEXTEND
1000
MTEXTBEGIN
1070
    73
1070
     1
1070
    44
1040
1.0
1070
    74
1070
     0
1000
MTEXTEND
1000
MTEXTBEGIN
1070
    73
1070
     1
1070
    44
1040
1.0
1070
    74
1070
     0
1000
MTEXTEND
  0
POINT
  5
179
330
171
100
AcDbEntity
  8
Defpoints
 62
     0
100
AcDbPoint
 10
3.045408977934393
 20
7.399586174318282
 30
0.0
  0
POINT
  5
17A
330
171
100
AcDbEntity
  8
Defpoints
 62
     0
100
AcDbPoint
 10
4.160663511112377
 20
6.019586174318282
 30
0.0
  0
POINT
  5
17B
330
171
100
AcDbEntity
  8
Defpoints
 62
     0
100
AcDbPoint
 10
4.666542849603188
 20
6.019586174318282
 30
0.0
  0
ENDBLK
  5
17D
330
171
100
AcDbEntity
  8
0
100
AcDbBlockEnd
  0
BLOCK
  5
7E
330
73
100
AcDbEntity
  8
0
100
AcDbBlockBegin
  2
*D6
 70
     1
 10
0.0
 20
0.0
 30
0.0
  3
*D6
  1

  0
LINE
  5
74
330
73
100
AcDbEntity
  8
DIM
 62
     0
370
    -2
100
AcDbLine
 10
3.614743250042431
 20
3.712521346477028
 30
0.0
 11
4.733355895706452
 21
3.712521346477028
 31
0.0
  0
LINE
  5
75
330
73
100
AcDbEntity
  8
DIM
 62
     0
370
    -2
100
AcDbLine
 10
4.220663511112377
 20
6.019586174318282
 30
0.0
 11
4.733355895706453
 21
6.019586174318282
 31
0.0
  0
LINE
  5
76
330
73
100
AcDbEntity
  8
DIM
 62
     0
370
    -2
100
AcDbLine
 10
4.663355895706452
 20
3.832521346477028
 30
0.0
 11
4.663355895706452
 21
4.774962355213481
 31
0.0
  0
LINE
  5
77
330
73
100
AcDbEntity
  8
DIM
 62
     0
370
    -2
100
AcDbLine
 10
4.663355895706452
 20
5.899586174318282
 30
0.0
 11
4.663355895706452
 21
4.957145165581829
 31
0.0
  0
SOLID
  5
78
330
73
100
AcDbEntity
  8
DIM
 62
     0
100
AcDbTrace
 10
4.643355895706451
 20
3.832521346477028
 30
0.0
 11
4.68335589570645
 21
3.832521346477028
 31
0.0
 12
4.663355895706452
 22
3.712521346477028
 32
0.0
 13
4.663355895706452
 23
3.712521346477028
 33
0.0
  0
SOLID
  5
79
330
73
100
AcDbEntity
  8
DIM
 62
     0
100
AcDbTrace
 10
4.643355895706451
 20
5.899586174318282
 30
0.0
 11
4.68335589570645
 21
5.899586174318282
 31
0.0
 12
4.663355895706453
 22
6.019586174318282
 32
0.0
 13
4.663355895706453
 23
6.019586174318282
 33
0.0
  0
MTEXT
  5
7A
330
73
100
AcDbEntity
  8
DIM
 62
     0
100
AcDbMText
 10
4.663355895706451
 20
4.866053760397655
 30
0.0
 40
0.1
 41
0.0
 71
     5
 72
     1
  1
\A1;2.31
 73
     1
 44
1.0
1001
ACAD
1000
MTEXTBEGIN
1070
    73
1070
     1
1070
    44
1040
1.0
1070
    74
1070
     0
1000
MTEXTEND
1000
MTEXTBEGIN
1070
    73
1070
     1
1070
    44
1040
1.0
1070
    74
1070
     0
1000
MTEXTEND
1000
MTEXTBEGIN
1070
    73
1070
     1
1070
    44
1040
1.0
1070
    74
1070
     0
1000
MTEXTEND
1000
MTEXTBEGIN
1070
    73
1070
     1
1070
    44
1040
1.0
1070
    74
1070
     0
1000
MTEXTEND
  0
POINT
  5
7B
330
73
100
AcDbEntity
  8
Defpoints
 62
     0
100
AcDbPoint
 10
3.554743250042431
 20
3.712521346477028
 30
0.0
  0
POINT
  5
7C
330
73
100
AcDbEntity
  8
Defpoints
 62
     0
100
AcDbPoint
 10
4.160663511112377
 20
6.019586174318282
 30
0.0
  0
POINT
  5
7D
330
73
100
AcDbEntity
  8
Defpoints
 62
     0
100
AcDbPoint
 10
4.663355895706453
 20
6.019586174318282
 30
0.0
  0
ENDBLK
  5
7F
330
73
100
AcDbEntity
  8
0
100
AcDbBlockEnd
  0
BLOCK
  5
16E
330
162
100
AcDbEntity
  8
0
100
AcDbBlockBegin
  2
*D7
 70
     1
 10
0.0
 20
0.0
 30
0.0
  3
*D7
  1

  0
LINE
  5
163
330
162
100
AcDbEntity
  8
DIM
 62
     0
370
    -2
100
AcDbLine
 10
4.100663511112379
 20
6.019586174318282
 30
0.0
 11
4.02995024166279
 21
6.019586174318282
 31
0.0
  0
LINE
  5
164
330
162
100
AcDbEntity
  8
DIM
 62
     0
370
    -2
100
AcDbLine
 10
4.077418048466064
 20
6.329586174318277
 30
0.0
 11
4.02995024166279
 21
6.329586174318277
 31
0.0
  0
LINE
  5
165
330
162
100
AcDbEntity
  8
DIM
 62
     0
370
    -2
100
AcDbLine
 10
4.09995024166279
 20
6.449586174318278
 30
0.0
 11
4.09995024166279
 21
6.569586174318278
 31
0.0
  0
LINE
  5
166
330
162
100
AcDbEntity
  8
DIM
 62
     0
370
    -2
100
AcDbLine
 10
4.099950241662789
 20
5.899586174318282
 30
0.0
 11
4.099950241662789
 21
5.656665463664944
 31
0.0
  0
LINE
  5
167
330
162
100
AcDbEntity
  8
DIM
 62
     0
370
    -2
100
AcDbLine
 10
4.099950241662789
 20
5.656665463664944
 30
0.0
 11
3.97995024166279
 21
5.656665463664944
 31
0.0
  0
SOLID
  5
168
330
162
100
AcDbEntity
  8
DIM
 62
     0
100
AcDbTrace
 10
4.079950241662792
 20
6.449586174318278
 30
0.0
 11
4.11995024166279
 21
6.449586174318278
 31
0.0
 12
4.09995024166279
 22
6.329586174318277
 32
0.0
 13
4.09995024166279
 23
6.329586174318277
 33
0.0
  0
SOLID
  5
169
330
162
100
AcDbEntity
  8
DIM
 62
     0
100
AcDbTrace
 10
4.07995024166279
 20
5.899586174318282
 30
0.0
 11
4.11995024166279
 21
5.899586174318282
 31
0.0
 12
4.09995024166279
 22
6.019586174318282
 32
0.0
 13
4.09995024166279
 23
6.019586174318282
 33
0.0
  0
MTEXT
  5
16A
330
162
100
AcDbEntity
  8
DIM
 62
     0
100
AcDbMText
 10
3.771600992003853
 20
5.656665463664946
 30
0.0
 40
0.1
 41
0.0
 71
     5
 72
     1
  1
\A1;\A1;Panel\Pto {\H0.7x;\S5/16;}"
 73
     1
 44
1.0
1001
ACAD
1000
MTEXTBEGIN
1070
    73
1070
     1
1070
    44
1040
1.0
1070
    74
1070
     0
1000
MTEXTEND
1000
MTEXTBEGIN
1070
    73
1070
     1
1070
    44
1040
1.0
1070
    74
1070
     0
1000
MTEXTEND
1000
MTEXTBEGIN
1070
    73
1070
     1
1070
    44
1040
1.0
1070
    74
1070
     0
1000
MTEXTEND
1000
MTEXTBEGIN
1070
    73
1070
     1
1070
    44
1040
1.0
1070
    74
1070
     0
1000
MTEXTEND
  0
POINT
  5
16B
330
162
100
AcDbEntity
  8
Defpoints
 62
     0
100
AcDbPoint
 10
4.160663511112377
 20
6.019586174318282
 30
0.0
  0
POINT
  5
16C
330
162
100
AcDbEntity
  8
Defpoints
 62
     0
100
AcDbPoint
 10
4.137418048466065
 20
6.329586174318277
 30
0.0
  0
POINT
  5
16D
330
162
100
AcDbEntity
  8
Defpoints
 62
     0
100
AcDbPoint
 10
4.09995024166279
 20
6.329586174318277
 30
0.0
  0
ENDBLK
  5
16F
330
162
100
AcDbEntity
  8
0
100
AcDbBlockEnd
  0
BLOCK
  5
3D
330
31
100
AcDbEntity
  8
0
100
AcDbBlockBegin
  2
*D8
 70
     1
 10
0.0
 20
0.0
 30
0.0
  3
*D8
  1

  0
LINE
  5
32
330
31
100
AcDbEntity
  8
DIM
 62
     0
370
    -2
100
AcDbLine
 10
5.719289199856222
 20
6.620792119108494
 30
0.0
 11
5.719289199856222
 21
6.931039443774379
 31
0.0
  0
LINE
  5
33
330
31
100
AcDbEntity
  8
DIM
 62
     0
370
    -2
100
AcDbLine
 10
6.905289199856222
 20
6.620792119108494
 30
0.0
 11
6.905289199856222
 21
6.931039443774379
 31
0.0
  0
LINE
  5
34
330
31
100
AcDbEntity
  8
DIM
 62
     0
370
    -2
100
AcDbLine
 10
5.839289199856223
 20
6.861039443774379
 30
0.0
 11
6.006395611861679
 21
6.861039443774379
 31
0.0
  0
LINE
  5
35
330
31
100
AcDbEntity
  8
DIM
 62
     0
370
    -2
100
AcDbLine
 10
6.785289199856222
 20
6.861039443774379
 30
0.0
 11
6.618182787850765
 21
6.861039443774379
 31
0.0
  0
SOLID
  5
36
330
31
100
AcDbEntity
  8
DIM
 62
     0
100
AcDbTrace
 10
5.839289199856223
 20
6.881039443774379
 30
0.0
 11
5.839289199856223
 21
6.841039443774381
 31
0.0
 12
5.719289199856222
 22
6.861039443774379
 32
0.0
 13
5.719289199856222
 23
6.861039443774379
 33
0.0
  0
SOLID
  5
37
330
31
100
AcDbEntity
  8
DIM
 62
     0
100
AcDbTrace
 10
6.785289199856222
 20
6.881039443774379
 30
0.0
 11
6.785289199856222
 21
6.841039443774381
 31
0.0
 12
6.905289199856222
 22
6.861039443774379
 32
0.0
 13
6.905289199856222
 23
6.861039443774379
 33
0.0
  0
MTEXT
  5
38
330
31
100
AcDbEntity
  8
DIM
 62
     0
100
AcDbMText
 10
6.312289199856222
 20
6.861039443774379
 30
0.0
 40
0.1
 41
0.0
 71
     5
 72
     1
  1
\A1;1.19 Dia.
 73
     1
 44
1.0
1001
ACAD
1000
MTEXTBEGIN
1070
    73
1070
     1
1070
    44
1040
1.0
1070
    74
1070
     0
1000
MTEXTEND
1000
MTEXTBEGIN
1070
    73
1070
     1
1070
    44
1040
1.0
1070
    74
1070
     0
1000
MTEXTEND
1000
MTEXTBEGIN
1070
    73
1070
     1
1070
    44
1040
1.0
1070
    74
1070
     0
1000
MTEXTEND
1000
MTEXTBEGIN
1070
    73
1070
     1
1070
    44
1040
1.0
1070
    74
1070
     0
1000
MTEXTEND
  0
POINT
  5
39
330
31
100
AcDbEntity
  8
Defpoints
 62
     0
100
AcDbPoint
 10
5.719289199856222
 20
6.560792119108494
 30
0.0
  0
POINT
  5
3B
330
31
100
AcDbEntity
  8
Defpoints
 62
     0
100
AcDbPoint
 10
6.905289199856222
 20
6.560792119108494
 30
0.0
  0
POINT
  5
3C
330
31
100
AcDbEntity
  8
Defpoints
 62
     0
100
AcDbPoint
 10
6.905289199856222
 20
6.861039443774379
 30
0.0
  0
ENDBLK
  5
3E
330
31
100
AcDbEntity
  8
0
100
AcDbBlockEnd
  0
BLOCK
  5
6E
330
63
100
AcDbEntity
  8
0
100
AcDbBlockBegin
  2
*D9
 70
     1
 10
0.0
 20
0.0
 30
0.0
  3
*D9
  1

  0
LINE
  5
64
330
63
100
AcDbEntity
  8
DIM
 62
     0
370
    -2
100
AcDbLine
 10
1.453775863051006
 20
4.635211978453262
 30
0.0
 11
0.7711898522633619
 21
4.635211978453262
 31
0.0
  0
LINE
  5
65
330
63
100
AcDbEntity
  8
DIM
 62
     0
370
    -2
100
AcDbLine
 10
1.005550646076335
 20
6.019586174318293
 30
0.0
 11
0.7711898522633624
 21
6.019586174318293
 31
0.0
  0
LINE
  5
66
330
63
100
AcDbEntity
  8
DIM
 62
     0
370
    -2
100
AcDbLine
 10
0.8411898522633618
 20
4.755211978453262
 30
0.0
 11
0.8411898522633618
 21
5.236307671201601
 31
0.0
  0
LINE
  5
67
330
63
100
AcDbEntity
  8
DIM
 62
     0
370
    -2
100
AcDbLine
 10
0.8411898522633622
 20
5.899586174318293
 30
0.0
 11
0.841189852263362
 21
5.418490481569952
 31
0.0
  0
SOLID
  5
68
330
63
100
AcDbEntity
  8
DIM
 62
     0
100
AcDbTrace
 10
0.8211898522633619
 20
4.755211978453262
 30
0.0
 11
0.8611898522633618
 21
4.755211978453262
 31
0.0
 12
0.8411898522633618
 22
4.635211978453262
 32
0.0
 13
0.8411898522633618
 23
4.635211978453262
 33
0.0
  0
SOLID
  5
69
330
63
100
AcDbEntity
  8
DIM
 62
     0
100
AcDbTrace
 10
0.8211898522633621
 20
5.899586174318293
 30
0.0
 11
0.8611898522633619
 21
5.899586174318293
 31
0.0
 12
0.8411898522633622
 22
6.019586174318293
 32
0.0
 13
0.8411898522633622
 23
6.019586174318293
 33
0.0
  0
MTEXT
  5
6A
330
63
100
AcDbEntity
  8
DIM
 62
     0
100
AcDbMText
 10
0.841189852263361
 20
5.327399076385777
 30
0.0
 40
0.1
 41
0.0
 71
     5
 72
     1
  1
\A1;1.38
 73
     1
 44
1.0
1001
ACAD
1000
MTEXTBEGIN
1070
    73
1070
     1
1070
    44
1040
1.0
1070
    74
1070
     0
1000
MTEXTEND
  0
POINT
  5
6B
330
63
100
AcDbEntity
  8
Defpoints
 62
     0
100
AcDbPoint
 10
1.513775863051006
 20
4.635211978453262
 30
0.0
  0
POINT
  5
6C
330
63
100
AcDbEntity
  8
Defpoints
 62
     0
100
AcDbPoint
 10
1.065550646076335
 20
6.019586174318293
 30
0.0
  0
POINT
  5
6D
330
63
100
AcDbEntity
  8
Defpoints
 62
     0
100
AcDbPoint
 10
0.8411898522633622
 20
6.019586174318293
 30
0.0
  0
ENDBLK
  5
6F
330
63
100
AcDbEntity
  8
0
100
AcDbBlockEnd
  0
BLOCK
  5
9F
330
94
100
AcDbEntity
  8
0
100
AcDbBlockBegin
  2
*D10
 70
     1
 10
0.0
 20
0.0
 30
0.0
  3
*D10
  1

  0
LINE
  5
95
330
94
100
AcDbEntity
  8
DIM
 62
     0
370
    -2
100
AcDbLine
 10
1.492769404283238
 20
4.599297176522123
 30
0.0
 11
1.492769404283238
 21
3.071021301841263
 31
0.0
  0
LINE
  5
96
330
94
100
AcDbEntity
  8
DIM
 62
     0
370
    -2
100
AcDbLine
 10
2.554743250042429
 20
3.240977366584615
 30
0.0
 11
2.554743250042429
 21
3.071021301841263
 31
0.0
  0
LINE
  5
97
330
94
100
AcDbEntity
  8
DIM
 62
     0
370
    -2
100
AcDbLine
 10
1.612769404283239
 20
3.141021301841263
 30
0.0
 11
1.858619901514811
 21
3.141021301841263
 31
0.0
  0
LINE
  5
98
330
94
100
AcDbEntity
  8
DIM
 62
     0
370
    -2
100
AcDbLine
 10
2.434743250042429
 20
3.141021301841263
 30
0.0
 11
2.188892752810855
 21
3.141021301841263
 31
0.0
  0
SOLID
  5
99
330
94
100
AcDbEntity
  8
DIM
 62
     0
100
AcDbTrace
 10
1.612769404283239
 20
3.161021301841262
 30
0.0
 11
1.612769404283239
 21
3.121021301841263
 31
0.0
 12
1.492769404283238
 22
3.141021301841263
 32
0.0
 13
1.492769404283238
 23
3.141021301841263
 33
0.0
  0
SOLID
  5
9A
330
94
100
AcDbEntity
  8
DIM
 62
     0
100
AcDbTrace
 10
2.434743250042429
 20
3.161021301841262
 30
0.0
 11
2.434743250042429
 21
3.121021301841263
 31
0.0
 12
2.554743250042429
 22
3.141021301841263
 32
0.0
 13
2.554743250042429
 23
3.141021301841263
 33
0.0
  0
MTEXT
  5
9B
330
94
100
AcDbEntity
  8
DIM
 62
     0
100
AcDbMText
 10
2.023756327162834
 20
3.141021301841263
 30
0.0
 40
0.1
 41
0.0
 71
     5
 72
     1
  1
\A1;1.06
 73
     1
 44
1.0
1001
ACAD
1000
MTEXTBEGIN
1070
    73
1070
     1
1070
    44
1040
1.0
1070
    74
1070
     0
1000
MTEXTEND
  0
POINT
  5
9C
330
94
100
AcDbEntity
  8
Defpoints
 62
     0
100
AcDbPoint
 10
1.492769404283238
 20
4.659297176522123
 30
0.0
  0
POINT
  5
9D
330
94
100
AcDbEntity
  8
Defpoints
 62
     0
100
AcDbPoint
 10
2.554743250042429
 20
3.300977366584615
 30
0.0
  0
POINT
  5
9E
330
94
100
AcDbEntity
  8
Defpoints
 62
     0
100
AcDbPoint
 10
2.554743250042429
 20
3.141021301841263
 30
0.0
  0
ENDBLK
  5
A0
330
94
100
AcDbEntity
  8
0
100
AcDbBlockEnd
  0
BLOCK
  5
91
330
86
100
AcDbEntity
  8
0
100
AcDbBlockBegin
  2
*D11
 70
     1
 10
0.0
 20
0.0
 30
0.0
  3
*D11
  1

  0
LINE
  5
87
330
86
100
AcDbEntity
  8
DIM
 62
     0
370
    -2
100
AcDbLine
 10
1.492800809507325
 20
4.600033838056721
 30
0.0
 11
1.492800809507324
 21
2.799970431225638
 31
0.0
  0
LINE
  5
88
330
86
100
AcDbEntity
  8
DIM
 62
     0
370
    -2
100
AcDbLine
 10
3.554743250042431
 20
3.652521346477028
 30
0.0
 11
3.554743250042431
 21
2.799970431225638
 31
0.0
  0
LINE
  5
89
330
86
100
AcDbEntity
  8
DIM
 62
     0
370
    -2
100
AcDbLine
 10
1.612800809507325
 20
2.869970431225638
 30
0.0
 11
2.353076258969966
 21
2.869970431225638
 31
0.0
  0
LINE
  5
8A
330
86
100
AcDbEntity
  8
DIM
 62
     0
370
    -2
100
AcDbLine
 10
3.434743250042431
 20
2.869970431225638
 30
0.0
 11
2.694467800579789
 21
2.869970431225638
 31
0.0
  0
SOLID
  5
8B
330
86
100
AcDbEntity
  8
DIM
 62
     0
100
AcDbTrace
 10
1.612800809507325
 20
2.889970431225638
 30
0.0
 11
1.612800809507325
 21
2.849970431225638
 31
0.0
 12
1.492800809507325
 22
2.869970431225638
 32
0.0
 13
1.492800809507325
 23
2.869970431225638
 33
0.0
  0
SOLID
  5
8C
330
86
100
AcDbEntity
  8
DIM
 62
     0
100
AcDbTrace
 10
3.434743250042431
 20
2.889970431225638
 30
0.0
 11
3.434743250042431
 21
2.849970431225638
 31
0.0
 12
3.554743250042431
 22
2.869970431225638
 32
0.0
 13
3.554743250042431
 23
2.869970431225638
 33
0.0
  0
MTEXT
  5
8D
330
86
100
AcDbEntity
  8
DIM
 62
     0
100
AcDbMText
 10
2.523772029774878
 20
2.869970431225638
 30
0.0
 40
0.1
 41
0.0
 71
     5
 72
     1
  1
\A1;2.06
 73
     1
 44
1.0
1001
ACAD
1000
MTEXTBEGIN
1070
    73
1070
     1
1070
    44
1040
1.0
1070
    74
1070
     0
1000
MTEXTEND
  0
POINT
  5
8E
330
86
100
AcDbEntity
  8
Defpoints
 62
     0
100
AcDbPoint
 10
1.492800809507325
 20
4.660033838056722
 30
0.0
  0
POINT
  5
8F
330
86
100
AcDbEntity
  8
Defpoints
 62
     0
100
AcDbPoint
 10
3.554743250042431
 20
3.712521346477028
 30
0.0
  0
POINT
  5
90
330
86
100
AcDbEntity
  8
Defpoints
 62
     0
100
AcDbPoint
 10
3.554743250042431
 20
2.869970431225638
 30
0.0
  0
ENDBLK
  5
92
330
86
100
AcDbEntity
  8
0
100
AcDbBlockEnd
  0
BLOCK
  5
1D3
330
1C8
100
AcDbEntity
  8
0
100
AcDbBlockBegin
  2
*D12
 70
     1
 10
0.0
 20
0.0
 30
0.0
  3
*D12
  1

  0
LINE
  5
1C9
330
1C8
100
AcDbEntity
  8
DIM
 62
     0
370
    -2
100
AcDbLine
 10
7.920979552724882
 20
1.302968480921817
 30
0.0
 11
7.920979552724882
 21
0.9832605617359531
 31
0.0
  0
LINE
  5
1CA
330
1C8
100
AcDbEntity
  8
DIM
 62
     0
370
    -2
100
AcDbLine
 10
9.421357389125628
 20
1.302968480921817
 30
0.0
 11
9.421357389125628
 21
0.9832605617359531
 31
0.0
  0
LINE
  5
1CB
330
1C8
100
AcDbEntity
  8
DIM
 62
     0
370
    -2
100
AcDbLine
 10
8.040979552724882
 20
1.053260561735953
 30
0.0
 11
8.230618385714148
 21
1.053260561735953
 31
0.0
  0
LINE
  5
1CC
330
1C8
100
AcDbEntity
  8
DIM
 62
     0
370
    -2
100
AcDbLine
 10
9.301357389125628
 20
1.053260561735953
 30
0.0
 11
8.560618385714146
 21
1.053260561735953
 31
0.0
  0
SOLID
  5
1CD
330
1C8
100
AcDbEntity
  8
DIM
 62
     0
100
AcDbTrace
 10
8.040979552724882
 20
1.073260561735953
 30
0.0
 11
8.040979552724882
 21
1.033260561735953
 31
0.0
 12
7.920979552724882
 22
1.053260561735953
 32
0.0
 13
7.920979552724882
 23
1.053260561735953
 33
0.0
  0
SOLID
  5
1CE
330
1C8
100
AcDbEntity
  8
DIM
 62
     0
100
AcDbTrace
 10
9.301357389125628
 20
1.073260561735953
 30
0.0
 11
9.301357389125628
 21
1.033260561735953
 31
0.0
 12
9.421357389125628
 22
1.053260561735953
 32
0.0
 13
9.421357389125628
 23
1.053260561735953
 33
0.0
  0
MTEXT
  5
1CF
330
1C8
100
AcDbEntity
  8
DIM
 62
     0
100
AcDbMText
 10
8.395618385714147
 20
1.053260561735953
 30
0.0
 40
0.1
 41
0.0
 71
     5
 72
     1
  1
\A1;1.50
 73
     1
 44
1.0
  0
POINT
  5
1D0
330
1C8
100
AcDbEntity
  8
Defpoints
 62
     0
100
AcDbPoint
 10
7.920979552724882
 20
1.362968480921817
 30
0.0
  0
POINT
  5
1D1
330
1C8
100
AcDbEntity
  8
Defpoints
 62
     0
100
AcDbPoint
 10
9.421357389125628
 20
1.362968480921817
 30
0.0
  0
POINT
  5
1D2
330
1C8
100
AcDbEntity
  8
Defpoints
 62
     0
100
AcDbPoint
 10
9.421357389125628
 20
1.053260561735953
 30
0.0
  0
ENDBLK
  5
1D4
330
1C8
100
AcDbEntity
  8
0
100
AcDbBlockEnd
  0
BLOCK
  5
1E0
330
1D5
100
AcDbEntity
  8
0
100
AcDbBlockBegin
  2
*D13
 70
     1
 10
0.0
 20
0.0
 30
0.0
  3
*D13
  1

  0
LINE
  5
1D6
330
1D5
100
AcDbEntity
  8
DIM
 62
     0
370
    -2
100
AcDbLine
 10
8.078168470925254
 20
4.271239253553283
 30
0.0
 11
8.078168470925254
 21
4.581486578219169
 31
0.0
  0
LINE
  5
1D7
330
1D5
100
AcDbEntity
  8
DIM
 62
     0
370
    -2
100
AcDbLine
 10
9.264168470925254
 20
4.271239253553283
 30
0.0
 11
9.264168470925254
 21
4.581486578219169
 31
0.0
  0
LINE
  5
1D8
330
1D5
100
AcDbEntity
  8
DIM
 62
     0
370
    -2
100
AcDbLine
 10
8.198168470925253
 20
4.511486578219169
 30
0.0
 11
8.365274882930711
 21
4.511486578219169
 31
0.0
  0
LINE
  5
1D9
330
1D5
100
AcDbEntity
  8
DIM
 62
     0
370
    -2
100
AcDbLine
 10
9.144168470925254
 20
4.511486578219169
 30
0.0
 11
8.977062058919797
 21
4.511486578219169
 31
0.0
  0
SOLID
  5
1DA
330
1D5
100
AcDbEntity
  8
DIM
 62
     0
100
AcDbTrace
 10
8.198168470925253
 20
4.531486578219168
 30
0.0
 11
8.198168470925253
 21
4.491486578219169
 31
0.0
 12
8.078168470925254
 22
4.511486578219169
 32
0.0
 13
8.078168470925254
 23
4.511486578219169
 33
0.0
  0
SOLID
  5
1DB
330
1D5
100
AcDbEntity
  8
DIM
 62
     0
100
AcDbTrace
 10
9.144168470925254
 20
4.531486578219168
 30
0.0
 11
9.144168470925254
 21
4.491486578219169
 31
0.0
 12
9.264168470925254
 22
4.511486578219169
 32
0.0
 13
9.264168470925254
 23
4.511486578219169
 33
0.0
  0
MTEXT
  5
1DC
330
1D5
100
AcDbEntity
  8
DIM
 62
     0
100
AcDbMText
 10
8.671168470925254
 20
4.511486578219169
 30
0.0
 40
0.1
 41
0.0
 71
     5
 72
     1
  1
\A1;1.19 Dia.
 73
     1
 44
1.0
  0
POINT
  5
1DD
330
1D5
100
AcDbEntity
  8
Defpoints
 62
     0
100
AcDbPoint
 10
8.078168470925254
 20
4.211239253553284
 30
0.0
  0
POINT
  5
1DE
330
1D5
100
AcDbEntity
  8
Defpoints
 62
     0
100
AcDbPoint
 10
9.264168470925254
 20
4.211239253553284
 30
0.0
  0
POINT
  5
1DF
330
1D5
100
AcDbEntity
  8
Defpoints
 62
     0
100
AcDbPoint
 10
9.264168470925254
 20
4.511486578219169
 30
0.0
  0
ENDBLK
  5
1E1
330
1D5
100
AcDbEntity
  8
0
100
AcDbBlockEnd
  0
BLOCK
  5
1ED
330
1E2
100
AcDbEntity
  8
0
100
AcDbBlockBegin
  2
*D14
 70
     1
 10
0.0
 20
0.0
 30
0.0
  3
*D14
  1

  0
LINE
  5
1E3
330
1E2
100
AcDbEntity
  8
DIM
 62
     0
370
    -2
100
AcDbLine
 10
5.973622521111462
 20
1.362968480921817
 30
0.0
 11
7.092235166775483
 21
1.362968480921817
 31
0.0
  0
LINE
  5
1E4
330
1E2
100
AcDbEntity
  8
DIM
 62
     0
370
    -2
100
AcDbLine
 10
6.579542782181408
 20
3.670033308763072
 30
0.0
 11
7.092235166775484
 21
3.670033308763071
 31
0.0
  0
LINE
  5
1E5
330
1E2
100
AcDbEntity
  8
DIM
 62
     0
370
    -2
100
AcDbLine
 10
7.022235166775483
 20
1.482968480921817
 30
0.0
 11
7.022235166775484
 21
2.425409489658269
 31
0.0
  0
LINE
  5
1E6
330
1E2
100
AcDbEntity
  8
DIM
 62
     0
370
    -2
100
AcDbLine
 10
7.022235166775484
 20
3.550033308763071
 30
0.0
 11
7.022235166775484
 21
2.607592300026619
 31
0.0
  0
SOLID
  5
1E7
330
1E2
100
AcDbEntity
  8
DIM
 62
     0
100
AcDbTrace
 10
7.002235166775483
 20
1.482968480921817
 30
0.0
 11
7.042235166775483
 21
1.482968480921817
 31
0.0
 12
7.022235166775483
 22
1.362968480921817
 32
0.0
 13
7.022235166775483
 23
1.362968480921817
 33
0.0
  0
SOLID
  5
1E8
330
1E2
100
AcDbEntity
  8
DIM
 62
     0
100
AcDbTrace
 10
7.002235166775484
 20
3.550033308763071
 30
0.0
 11
7.042235166775483
 21
3.550033308763071
 31
0.0
 12
7.022235166775484
 22
3.670033308763071
 32
0.0
 13
7.022235166775484
 23
3.670033308763071
 33
0.0
  0
MTEXT
  5
1E9
330
1E2
100
AcDbEntity
  8
DIM
 62
     0
100
AcDbMText
 10
7.022235166775483
 20
2.516500894842445
 30
0.0
 40
0.1
 41
0.0
 71
     5
 72
     1
  1
\A1;2.31
 73
     1
 44
1.0
  0
POINT
  5
1EA
330
1E2
100
AcDbEntity
  8
Defpoints
 62
     0
100
AcDbPoint
 10
5.913622521111462
 20
1.362968480921817
 30
0.0
  0
POINT
  5
1EB
330
1E2
100
AcDbEntity
  8
Defpoints
 62
     0
100
AcDbPoint
 10
6.519542782181408
 20
3.670033308763072
 30
0.0
  0
POINT
  5
1EC
330
1E2
100
AcDbEntity
  8
Defpoints
 62
     0
100
AcDbPoint
 10
7.022235166775484
 20
3.670033308763071
 30
0.0
  0
ENDBLK
  5
1EE
330
1E2
100
AcDbEntity
  8
0
100
AcDbBlockEnd
  0
BLOCK
  5
1FA
330
1EF
100
AcDbEntity
  8
0
100
AcDbBlockBegin
  2
*D15
 70
     1
 10
0.0
 20
0.0
 30
0.0
  3
*D15
  1

  0
LINE
  5
1F0
330
1EF
100
AcDbEntity
  8
DIM
 62
     0
370
    -2
100
AcDbLine
 10
3.812655134120037
 20
2.285659112898051
 30
0.0
 11
3.130069123332392
 21
2.285659112898051
 31
0.0
  0
LINE
  5
1F1
330
1EF
100
AcDbEntity
  8
DIM
 62
     0
370
    -2
100
AcDbLine
 10
3.364429917145366
 20
3.670033308763082
 30
0.0
 11
3.130069123332393
 21
3.670033308763082
 31
0.0
  0
LINE
  5
1F2
330
1EF
100
AcDbEntity
  8
DIM
 62
     0
370
    -2
100
AcDbLine
 10
3.200069123332392
 20
2.405659112898051
 30
0.0
 11
3.200069123332392
 21
2.886754805646392
 31
0.0
  0
LINE
  5
1F3
330
1EF
100
AcDbEntity
  8
DIM
 62
     0
370
    -2
100
AcDbLine
 10
3.200069123332393
 20
3.550033308763082
 30
0.0
 11
3.200069123332393
 21
3.068937616014741
 31
0.0
  0
SOLID
  5
1F4
330
1EF
100
AcDbEntity
  8
DIM
 62
     0
100
AcDbTrace
 10
3.180069123332392
 20
2.405659112898051
 30
0.0
 11
3.220069123332392
 21
2.405659112898051
 31
0.0
 12
3.200069123332392
 22
2.285659112898051
 32
0.0
 13
3.200069123332392
 23
2.285659112898051
 33
0.0
  0
SOLID
  5
1F5
330
1EF
100
AcDbEntity
  8
DIM
 62
     0
100
AcDbTrace
 10
3.180069123332393
 20
3.550033308763082
 30
0.0
 11
3.220069123332393
 21
3.550033308763082
 31
0.0
 12
3.200069123332393
 22
3.670033308763082
 32
0.0
 13
3.200069123332393
 23
3.670033308763082
 33
0.0
  0
MTEXT
  5
1F6
330
1EF
100
AcDbEntity
  8
DIM
 62
     0
100
AcDbMText
 10
3.200069123332392
 20
2.977846210830568
 30
0.0
 40
0.1
 41
0.0
 71
     5
 72
     1
  1
\A1;1.38
 73
     1
 44
1.0
  0
POINT
  5
1F7
330
1EF
100
AcDbEntity
  8
Defpoints
 62
     0
100
AcDbPoint
 10
3.872655134120037
 20
2.285659112898051
 30
0.0
  0
POINT
  5
1F8
330
1EF
100
AcDbEntity
  8
Defpoints
 62
     0
100
AcDbPoint
 10
3.424429917145366
 20
3.670033308763082
 30
0.0
  0
POINT
  5
1F9
330
1EF
100
AcDbEntity
  8
Defpoints
 62
     0
100
AcDbPoint
 10
3.200069123332393
 20
3.670033308763082
 30
0.0
  0
ENDBLK
  5
1FB
330
1EF
100
AcDbEntity
  8
0
100
AcDbBlockEnd
  0
BLOCK
  5
207
330
1FC
100
AcDbEntity
  8
0
100
AcDbBlockBegin
  2
*D16
 70
     1
 10
0.0
 20
0.0
 30
0.0
  3
*D16
  1

  0
LINE
  5
1FD
330
1FC
100
AcDbEntity
  8
DIM
 62
     0
370
    -2
100
AcDbLine
 10
3.913622521111457
 20
1.302968480921817
 30
0.0
 11
3.913622521111457
 21
0.9917657880221558
 31
0.0
  0
LINE
  5
1FE
330
1FC
100
AcDbEntity
  8
DIM
 62
     0
370
    -2
100
AcDbLine
 10
5.913622521111462
 20
1.302968480921817
 30
0.0
 11
5.913622521111462
 21
0.9917657880221558
 31
0.0
  0
LINE
  5
1FF
330
1FC
100
AcDbEntity
  8
DIM
 62
     0
370
    -2
100
AcDbLine
 10
4.033622521111457
 20
1.061765788022155
 30
0.0
 11
4.360627104847147
 21
1.061765788022155
 31
0.0
  0
LINE
  5
200
330
1FC
100
AcDbEntity
  8
DIM
 62
     0
370
    -2
100
AcDbLine
 10
5.793622521111462
 20
1.061765788022155
 30
0.0
 11
4.701745795160927
 21
1.061765788022155
 31
0.0
  0
SOLID
  5
201
330
1FC
100
AcDbEntity
  8
DIM
 62
     0
100
AcDbTrace
 10
4.033622521111457
 20
1.081765788022155
 30
0.0
 11
4.033622521111457
 21
1.041765788022155
 31
0.0
 12
3.913622521111457
 22
1.061765788022155
 32
0.0
 13
3.913622521111457
 23
1.061765788022155
 33
0.0
  0
SOLID
  5
202
330
1FC
100
AcDbEntity
  8
DIM
 62
     0
100
AcDbTrace
 10
5.793622521111462
 20
1.081765788022155
 30
0.0
 11
5.793622521111462
 21
1.041765788022155
 31
0.0
 12
5.913622521111462
 22
1.061765788022155
 32
0.0
 13
5.913622521111462
 23
1.061765788022155
 33
0.0
  0
MTEXT
  5
203
330
1FC
100
AcDbEntity
  8
DIM
 62
     0
100
AcDbMText
 10
4.531186450004037
 20
1.061765788022155
 30
0.0
 40
0.1
 41
0.0
 71
     5
 72
     1
  1
\A1;2.00
 73
     1
 44
1.0
  0
POINT
  5
204
330
1FC
100
AcDbEntity
  8
Defpoints
 62
     0
100
AcDbPoint
 10
3.913622521111457
 20
1.362968480921817
 30
0.0
  0
POINT
  5
205
330
1FC
100
AcDbEntity
  8
Defpoints
 62
     0
100
AcDbPoint
 10
5.913622521111462
 20
1.362968480921817
 30
0.0
  0
POINT
  5
206
330
1FC
100
AcDbEntity
  8
Defpoints
 62
     0
100
AcDbPoint
 10
5.913622521111462
 20
1.061765788022155
 30
0.0
  0
ENDBLK
  5
208
330
1FC
100
AcDbEntity
  8
0
100
AcDbBlockEnd
  0
BLOCK
  5
214
330
209
100
AcDbEntity
  8
0
100
AcDbBlockBegin
  2
*D17
 70
     1
 10
0.0
 20
0.0
 30
0.0
  3
*D17
  1

  0
LINE
  5
20A
330
209
100
AcDbEntity
  8
DIM
 62
     0
370
    -2
100
AcDbLine
 10
3.85164867535227
 20
2.249744310966912
 30
0.0
 11
3.85164867535227
 21
0.7214684362860526
 31
0.0
  0
LINE
  5
20B
330
209
100
AcDbEntity
  8
DIM
 62
     0
370
    -2
100
AcDbLine
 10
4.913622521111459
 20
0.8914245010294044
 30
0.0
 11
4.913622521111459
 21
0.7214684362860526
 31
0.0
  0
LINE
  5
20C
330
209
100
AcDbEntity
  8
DIM
 62
     0
370
    -2
100
AcDbLine
 10
3.97164867535227
 20
0.7914684362860527
 30
0.0
 11
4.217499172583842
 21
0.7914684362860527
 31
0.0
  0
LINE
  5
20D
330
209
100
AcDbEntity
  8
DIM
 62
     0
370
    -2
100
AcDbLine
 10
4.793622521111459
 20
0.7914684362860527
 30
0.0
 11
4.547772023879886
 21
0.7914684362860527
 31
0.0
  0
SOLID
  5
20E
330
209
100
AcDbEntity
  8
DIM
 62
     0
100
AcDbTrace
 10
3.97164867535227
 20
0.8114684362860526
 30
0.0
 11
3.97164867535227
 21
0.7714684362860527
 31
0.0
 12
3.85164867535227
 22
0.7914684362860527
 32
0.0
 13
3.85164867535227
 23
0.7914684362860527
 33
0.0
  0
SOLID
  5
20F
330
209
100
AcDbEntity
  8
DIM
 62
     0
100
AcDbTrace
 10
4.793622521111459
 20
0.8114684362860526
 30
0.0
 11
4.793622521111459
 21
0.7714684362860527
 31
0.0
 12
4.913622521111459
 22
0.7914684362860527
 32
0.0
 13
4.913622521111459
 23
0.7914684362860527
 33
0.0
  0
MTEXT
  5
210
330
209
100
AcDbEntity
  8
DIM
 62
     0
100
AcDbMText
 10
4.382635598231864
 20
0.7914684362860527
 30
0.0
 40
0.1
 41
0.0
 71
     5
 72
     1
  1
\A1;1.06
 73
     1
 44
1.0
  0
POINT
  5
211
330
209
100
AcDbEntity
  8
Defpoints
 62
     0
100
AcDbPoint
 10
3.85164867535227
 20
2.309744310966912
 30
0.0
  0
POINT
  5
212
330
209
100
AcDbEntity
  8
Defpoints
 62
     0
100
AcDbPoint
 10
4.913622521111459
 20
0.9514245010294043
 30
0.0
  0
POINT
  5
213
330
209
100
AcDbEntity
  8
Defpoints
 62
     0
100
AcDbPoint
 10
4.913622521111459
 20
0.7914684362860527
 30
0.0
  0
ENDBLK
  5
215
330
209
100
AcDbEntity
  8
0
100
AcDbBlockEnd
  0
BLOCK
  5
221
330
216
100
AcDbEntity
  8
0
100
AcDbBlockBegin
  2
*D18
 70
     1
 10
0.0
 20
0.0
 30
0.0
  3
*D18
  1

  0
LINE
  5
217
330
216
100
AcDbEntity
  8
DIM
 62
     0
370
    -2
100
AcDbLine
 10
3.851680080576356
 20
2.250480972501511
 30
0.0
 11
3.851680080576356
 21
0.4504175656704275
 31
0.0
  0
LINE
  5
218
330
216
100
AcDbEntity
  8
DIM
 62
     0
370
    -2
100
AcDbLine
 10
5.913622521111462
 20
1.302968480921817
 30
0.0
 11
5.913622521111462
 21
0.4504175656704275
 31
0.0
  0
LINE
  5
219
330
216
100
AcDbEntity
  8
DIM
 62
     0
370
    -2
100
AcDbLine
 10
3.971680080576356
 20
0.5204175656704276
 30
0.0
 11
4.711955530038997
 21
0.5204175656704276
 31
0.0
  0
LINE
  5
21A
330
216
100
AcDbEntity
  8
DIM
 62
     0
370
    -2
100
AcDbLine
 10
5.793622521111462
 20
0.5204175656704276
 30
0.0
 11
5.05334707164882
 21
0.5204175656704276
 31
0.0
  0
SOLID
  5
21B
330
216
100
AcDbEntity
  8
DIM
 62
     0
100
AcDbTrace
 10
3.971680080576356
 20
0.5404175656704276
 30
0.0
 11
3.971680080576356
 21
0.5004175656704275
 31
0.0
 12
3.851680080576356
 22
0.5204175656704276
 32
0.0
 13
3.851680080576356
 23
0.5204175656704276
 33
0.0
  0
SOLID
  5
21C
330
216
100
AcDbEntity
  8
DIM
 62
     0
100
AcDbTrace
 10
5.793622521111462
 20
0.5404175656704276
 30
0.0
 11
5.793622521111462
 21
0.5004175656704275
 31
0.0
 12
5.913622521111462
 22
0.5204175656704276
 32
0.0
 13
5.913622521111462
 23
0.5204175656704276
 33
0.0
  0
MTEXT
  5
21D
330
216
100
AcDbEntity
  8
DIM
 62
     0
100
AcDbMText
 10
4.882651300843908
 20
0.5204175656704276
 30
0.0
 40
0.1
 41
0.0
 71
     5
 72
     1
  1
\A1;2.06
 73
     1
 44
1.0
  0
POINT
  5
21E
330
216
100
AcDbEntity
  8
Defpoints
 62
     0
100
AcDbPoint
 10
3.851680080576356
 20
2.310480972501511
 30
0.0
  0
POINT
  5
21F
330
216
100
AcDbEntity
  8
Defpoints
 62
     0
100
AcDbPoint
 10
5.913622521111462
 20
1.362968480921817
 30
0.0
  0
POINT
  5
220
330
216
100
AcDbEntity
  8
Defpoints
 62
     0
100
AcDbPoint
 10
5.913622521111462
 20
0.5204175656704276
 30
0.0
  0
ENDBLK
  5
222
330
216
100
AcDbEntity
  8
0
100
AcDbBlockEnd
  0
BLOCK
  5
22E
330
223
100
AcDbEntity
  8
0
100
AcDbBlockBegin
  2
*D19
 70
     1
 10
0.0
 20
0.0
 30
0.0
  3
*D19
  1

  0
LINE
  5
224
330
223
100
AcDbEntity
  8
DIM
 62
     0
370
    -2
100
AcDbLine
 10
4.85362252111146
 20
7.732191488089849
 30
0.0
 11
3.300386684924563
 21
7.732191488089849
 31
0.0
  0
LINE
  5
225
330
223
100
AcDbEntity
  8
DIM
 62
     0
370
    -2
100
AcDbLine
 10
4.85362252111146
 20
5.98691065893311
 30
0.0
 11
3.300386684924563
 21
5.98691065893311
 31
0.0
  0
LINE
  5
226
330
223
100
AcDbEntity
  8
DIM
 62
     0
370
    -2
100
AcDbLine
 10
3.370386684924563
 20
7.612191488089849
 30
0.0
 11
3.370386684924563
 21
7.046970355003066
 31
0.0
  0
LINE
  5
227
330
223
100
AcDbEntity
  8
DIM
 62
     0
370
    -2
100
AcDbLine
 10
3.370386684924563
 20
6.10691065893311
 30
0.0
 11
3.370386684924563
 21
6.672131792019893
 31
0.0
  0
SOLID
  5
228
330
223
100
AcDbEntity
  8
DIM
 62
     0
100
AcDbTrace
 10
3.350386684924563
 20
7.612191488089849
 30
0.0
 11
3.390386684924563
 21
7.612191488089849
 31
0.0
 12
3.370386684924563
 22
7.732191488089849
 32
0.0
 13
3.370386684924563
 23
7.732191488089849
 33
0.0
  0
SOLID
  5
229
330
223
100
AcDbEntity
  8
DIM
 62
     0
100
AcDbTrace
 10
3.350386684924563
 20
6.10691065893311
 30
0.0
 11
3.390386684924563
 21
6.10691065893311
 31
0.0
 12
3.370386684924563
 22
5.98691065893311
 32
0.0
 13
3.370386684924563
 23
5.98691065893311
 33
0.0
  0
MTEXT
  5
22A
330
223
100
AcDbEntity
  8
DIM
 62
     0
100
AcDbMText
 10
3.370386684924562
 20
6.859551073511481
 30
0.0
 40
0.1
 41
0.0
 71
     5
 72
     1
  1
\A1;1.75\PApprox.
 73
     1
 44
1.0
  0
POINT
  5
22B
330
223
100
AcDbEntity
  8
Defpoints
 62
     0
100
AcDbPoint
 10
4.913622521111459
 20
7.732191488089849
 30
0.0
  0
POINT
  5
22C
330
223
100
AcDbEntity
  8
Defpoints
 62
     0
100
AcDbPoint
 10
4.913622521111459
 20
5.98691065893311
 30
0.0
  0
POINT
  5
22D
330
223
100
AcDbEntity
  8
Defpoints
 62
     0
100
AcDbPoint
 10
3.370386684924563
 20
5.98691065893311
 30
0.0
  0
ENDBLK
  5
22F
330
223
100
AcDbEntity
  8
0
100
AcDbBlockEnd
  0
BLOCK
  5
23B
330
230
100
AcDbEntity
  8
0
100
AcDbBlockBegin
  2
*D20
 70
     1
 10
0.0
 20
0.0
 30
0.0
  3
*D20
  1

  0
LINE
  5
231
330
230
100
AcDbEntity
  8
DIM
 62
     0
370
    -2
100
AcDbLine
 10
4.208770156897695
 20
6.103045997394924
 30
0.0
 11
4.208770156897695
 21
5.624235956063168
 31
0.0
  0
LINE
  5
232
330
230
100
AcDbEntity
  8
DIM
 62
     0
370
    -2
100
AcDbLine
 10
5.618474885325241
 20
6.103045997394924
 30
0.0
 11
5.618474885325241
 21
5.624235956063168
 31
0.0
  0
LINE
  5
233
330
230
100
AcDbEntity
  8
DIM
 62
     0
370
    -2
100
AcDbLine
 10
4.328770156897695
 20
5.694235956063169
 30
0.0
 11
4.964101244182597
 21
5.694235956063169
 31
0.0
  0
LINE
  5
234
330
230
100
AcDbEntity
  8
DIM
 62
     0
370
    -2
100
AcDbLine
 10
5.498474885325241
 20
5.694235956063169
 30
0.0
 11
5.275138079107563
 21
5.694235956063169
 31
0.0
  0
SOLID
  5
235
330
230
100
AcDbEntity
  8
DIM
 62
     0
100
AcDbTrace
 10
4.328770156897695
 20
5.714235956063168
 30
0.0
 11
4.328770156897695
 21
5.674235956063169
 31
0.0
 12
4.208770156897695
 22
5.694235956063169
 32
0.0
 13
4.208770156897695
 23
5.694235956063169
 33
0.0
  0
SOLID
  5
236
330
230
100
AcDbEntity
  8
DIM
 62
     0
100
AcDbTrace
 10
5.498474885325241
 20
5.714235956063168
 30
0.0
 11
5.498474885325241
 21
5.674235956063169
 31
0.0
 12
5.618474885325241
 22
5.694235956063169
 32
0.0
 13
5.618474885325241
 23
5.694235956063169
 33
0.0
  0
MTEXT
  5
237
330
230
100
AcDbEntity
  8
DIM
 62
     0
100
AcDbMText
 10
5.11961966164508
 20
5.694235956063169
 30
0.0
 40
0.1
 41
0.0
 71
     5
 72
     1
  1
\A1;1.41
 73
     1
 44
1.0
  0
POINT
  5
238
330
230
100
AcDbEntity
  8
Defpoints
 62
     0
100
AcDbPoint
 10
4.208770156897695
 20
6.163045997394924
 30
0.0
  0
POINT
  5
239
330
230
100
AcDbEntity
  8
Defpoints
 62
     0
100
AcDbPoint
 10
5.618474885325241
 20
6.163045997394924
 30
0.0
  0
POINT
  5
23A
330
230
100
AcDbEntity
  8
Defpoints
 62
     0
100
AcDbPoint
 10
5.618474885325241
 20
5.694235956063169
 30
0.0
  0
ENDBLK
  5
23C
330
230
100
AcDbEntity
  8
0
100
AcDbBlockEnd
  0
BLOCK
  5
248
330
23D
100
AcDbEntity
  8
0
100
AcDbBlockBegin
  2
*D21
 70
     1
 10
0.0
 20
0.0
 30
0.0
  3
*D21
  1

  0
LINE
  5
23E
330
23D
100
AcDbEntity
  8
DIM
 62
     0
370
    -2
100
AcDbLine
 10
5.464288249003423
 20
5.050033308763071
 30
0.0
 11
7.095422120672219
 21
5.050033308763071
 31
0.0
  0
LINE
  5
23F
330
23D
100
AcDbEntity
  8
DIM
 62
     0
370
    -2
100
AcDbLine
 10
6.579542782181408
 20
3.670033308763072
 30
0.0
 11
7.095422120672219
 21
3.670033308763071
 31
0.0
  0
LINE
  5
240
330
23D
100
AcDbEntity
  8
DIM
 62
     0
370
    -2
100
AcDbLine
 10
7.025422120672219
 20
4.93003330876307
 30
0.0
 11
7.025422120672219
 21
4.451124713947246
 31
0.0
  0
LINE
  5
241
330
23D
100
AcDbEntity
  8
DIM
 62
     0
370
    -2
100
AcDbLine
 10
7.025422120672219
 20
3.790033308763071
 30
0.0
 11
7.025422120672219
 21
4.268941903578896
 31
0.0
  0
SOLID
  5
242
330
23D
100
AcDbEntity
  8
DIM
 62
     0
100
AcDbTrace
 10
7.00542212067222
 20
4.93003330876307
 30
0.0
 11
7.045422120672219
 21
4.93003330876307
 31
0.0
 12
7.025422120672219
 22
5.050033308763071
 32
0.0
 13
7.025422120672219
 23
5.050033308763071
 33
0.0
  0
SOLID
  5
243
330
23D
100
AcDbEntity
  8
DIM
 62
     0
100
AcDbTrace
 10
7.00542212067222
 20
3.790033308763071
 30
0.0
 11
7.045422120672219
 21
3.790033308763071
 31
0.0
 12
7.025422120672219
 22
3.670033308763071
 32
0.0
 13
7.025422120672219
 23
3.670033308763071
 33
0.0
  0
MTEXT
  5
244
330
23D
100
AcDbEntity
  8
DIM
 62
     0
100
AcDbMText
 10
7.025422120672218
 20
4.360033308763073
 30
0.0
 40
0.1
 41
0.0
 71
     5
 72
     1
  1
\A1;1.38
 73
     1
 44
1.0
  0
POINT
  5
245
330
23D
100
AcDbEntity
  8
Defpoints
 62
     0
100
AcDbPoint
 10
5.404288249003424
 20
5.050033308763071
 30
0.0
  0
POINT
  5
246
330
23D
100
AcDbEntity
  8
Defpoints
 62
     0
100
AcDbPoint
 10
6.519542782181408
 20
3.670033308763072
 30
0.0
  0
POINT
  5
247
330
23D
100
AcDbEntity
  8
Defpoints
 62
     0
100
AcDbPoint
 10
7.025422120672219
 20
3.670033308763071
 30
0.0
  0
ENDBLK
  5
249
330
23D
100
AcDbEntity
  8
0
100
AcDbBlockEnd
  0
BLOCK
  5
256
330
24A
100
AcDbEntity
  8
0
100
AcDbBlockBegin
  2
*D22
 70
     1
 10
0.0
 20
0.0
 30
0.0
  3
*D22
  1

  0
LINE
  5
24B
330
24A
100
AcDbEntity
  8
DIM
 62
     0
370
    -2
100
AcDbLine
 10
6.459542782181409
 20
3.670033308763072
 30
0.0
 11
6.38882951273182
 21
3.670033308763072
 31
0.0
  0
LINE
  5
24C
330
24A
100
AcDbEntity
  8
DIM
 62
     0
370
    -2
100
AcDbLine
 10
6.436297319535096
 20
3.980033308763067
 30
0.0
 11
6.38882951273182
 21
3.980033308763067
 31
0.0
  0
LINE
  5
24D
330
24A
100
AcDbEntity
  8
DIM
 62
     0
370
    -2
100
AcDbLine
 10
6.458829512731821
 20
4.100033308763066
 30
0.0
 11
6.458829512731821
 21
4.220033308763066
 31
0.0
  0
LINE
  5
24E
330
24A
100
AcDbEntity
  8
DIM
 62
     0
370
    -2
100
AcDbLine
 10
6.458829512731821
 20
3.550033308763071
 30
0.0
 11
6.458829512731821
 21
3.307112598109735
 31
0.0
  0
LINE
  5
24F
330
24A
100
AcDbEntity
  8
DIM
 62
     0
370
    -2
100
AcDbLine
 10
6.458829512731821
 20
3.307112598109735
 30
0.0
 11
6.338829512731821
 21
3.307112598109735
 31
0.0
  0
SOLID
  5
250
330
24A
100
AcDbEntity
  8
DIM
 62
     0
100
AcDbTrace
 10
6.438829512731821
 20
4.100033308763066
 30
0.0
 11
6.47882951273182
 21
4.100033308763066
 31
0.0
 12
6.458829512731821
 22
3.980033308763067
 32
0.0
 13
6.458829512731821
 23
3.980033308763067
 33
0.0
  0
SOLID
  5
251
330
24A
100
AcDbEntity
  8
DIM
 62
     0
100
AcDbTrace
 10
6.438829512731821
 20
3.550033308763071
 30
0.0
 11
6.47882951273182
 21
3.550033308763071
 31
0.0
 12
6.458829512731821
 22
3.670033308763072
 32
0.0
 13
6.458829512731821
 23
3.670033308763072
 33
0.0
  0
MTEXT
  5
252
330
24A
100
AcDbEntity
  8
DIM
 62
     0
100
AcDbMText
 10
6.130480263072884
 20
3.307112598109736
 30
0.0
 40
0.1
 41
0.0
 71
     5
 72
     1
  1
\A1;\A1;Panel\Pto {\H0.7x;\S5/16;}"
 73
     1
 44
1.0
  0
POINT
  5
253
330
24A
100
AcDbEntity
  8
Defpoints
 62
     0
100
AcDbPoint
 10
6.519542782181408
 20
3.670033308763072
 30
0.0
  0
POINT
  5
254
330
24A
100
AcDbEntity
  8
Defpoints
 62
     0
100
AcDbPoint
 10
6.496297319535096
 20
3.980033308763067
 30
0.0
  0
POINT
  5
255
330
24A
100
AcDbEntity
  8
Defpoints
 62
     0
100
AcDbPoint
 10
6.458829512731821
 20
3.980033308763067
 30
0.0
  0
ENDBLK
  5
257
330
24A
100
AcDbEntity
  8
0
100
AcDbBlockEnd
  0
ENDSEC
  0
SECTION
  2
ENTITIES
  0
HATCH
  5
2A
330
2
100
AcDbEntity
  8
HATCH
100
AcDbHatch
 10
0.0
 20
0.0
 30
0.0
210
0.0
220
0.0
230
1.0
  2
SOLID
 70
     1
 71
     0
 91
        1
 92
        1
 93
        4
 72
     1
 10
7.850180768249644
 20
3.670033308763064
 11
9.595485135644626
 21
3.670033308763064
 72
     1
 10
9.595485135644626
 20
3.670033308763064
 11
9.595485135644626
 21
3.614200915773456
 72
     1
 10
9.595485135644626
 20
3.614200915773456
 11
7.850180768249644
 21
3.614200915773456
 72
     1
 10
7.850180768249644
 20
3.614200915773456
 11
7.850180768249644
 21
3.670033308763064
 97
        0
 75
     0
 76
     1
 98
        1
 10
2.358879271069031
 20
-2.34955286555521
  0
CIRCLE
  5
2C
330
2
100
AcDbEntity
  8
OBJ
100
AcDbCircle
 10
8.671168470925254
 20
6.160922364439578
 30
0.0
 40
0.595
  0
MTEXT
  5
2E
330
2
100
AcDbEntity
  8
NOTES
100
AcDbMText
 10
8.242672195731055
 20
7.755313778858939
 30
0.0
 40
0.12
 41
0.0
 71
     1
 72
     5
  1
{\fArial|b1|i0|c0|p34;Top View\P(Base Only)}
 73
     1
 44
1.0
1001
ACAD
1000
MTEXTBEGIN
1070
    73
1070
     1
1070
    44
1040
1.0
1070
    74
1070
     0
1000
MTEXTEND
1000
MTEXTBEGIN
1070
    73
1070
     1
1070
    44
1040
1.0
1070
    74
1070
     0
1000
MTEXTEND
1000
MTEXTBEGIN
1070
    73
1070
     1
1070
    44
1040
1.0
1070
    74
1070
     0
1000
MTEXTEND
1000
MTEXTBEGIN
1070
    73
1070
     1
1070
    44
1040
1.0
1070
    74
1070
     0
1000
MTEXTEND
1000
MTEXTBEGIN
1070
    73
1070
     1
1070
    44
1040
1.0
1070
    74
1070
     0
1000
MTEXTEND
1000
MTEXTBEGIN
1070
    73
1070
     1
1070
    44
1040
1.0
1070
    74
1070
     0
1000
MTEXTEND
1000
MTEXTBEGIN
1070
    73
1070
     1
1070
    44
1040
1.0
1070
    74
1070
     0
1000
MTEXTEND
  0
DIMENSION
  5
30
330
2
100
AcDbEntity
  8
DIM
100
AcDbDimension
  2
*D13
 10
9.264168470925254
 20
4.511486578219169
 30
0.0
 11
8.671168470925254
 21
4.511486578219169
 31
0.0
 70
    32
  1
1.19 Dia.
 71
     5
 42
1.185999999999999
  3
Standard
100
AcDbAlignedDimension
 13
8.078168470925254
 23
4.211239253553284
 33
0.0
 14
9.264168470925254
 24
4.211239253553284
 34
0.0
100
AcDbRotatedDimension
  0
DIMENSION
  5
3F
330
2
100
AcDbEntity
  8
DIM
100
AcDbDimension
  2
*D12
 10
9.421357389125628
 20
1.053260561735953
 30
0.0
 11
8.395618385714147
 21
1.053260561735953
 31
0.0
 70
   160
 71
     5
 42
1.500377836400745
  3
Standard
100
AcDbAlignedDimension
 13
7.920979552724882
 23
1.362968480921817
 33
0.0
 14
9.421357389125628
 24
1.362968480921817
 34
0.0
100
AcDbRotatedDimension
  0
LWPOLYLINE
  5
4D
330
2
100
AcDbEntity
  8
OBJ
100
AcDbPolyline
 90
        6
 70
     1
 43
0.0
 10
9.482105206388805
 20
6.032850435351779
 42
0.8998867597909681
 10
9.482882125370348
 20
6.283974187392097
 42
0.2964566470371394
 10
8.888200883900331
 20
6.952703735565954
 42
0.9550316243281372
 10
8.451351294699829
 20
6.951935143717403
 42
0.7600010293120965
 10
8.451351294699829
 20
5.369909585161749
 42
0.9550316243281372
 10
8.888200883900331
 20
5.369140993313198
 42
0.2947745873744857
  0
LINE
  5
4E
330
2
100
AcDbEntity
  8
OBJ
100
AcDbLine
 10
8.348292135728584
 20
2.491768516008552
 30
0.0
 11
8.381183305569464
 21
2.490634337738176
 31
0.0
  0
ARC
  5
4F
330
2
100
AcDbEntity
  8
OBJ
100
AcDbCircle
 10
8.321179012604089
 20
2.415684969089965
 30
0.0
 40
0.0569380008375
100
AcDbArc
 50
279.6357044346621
 51
357.6925139245452
  0
LINE
  5
50
330
2
100
AcDbEntity
  8
OBJ
100
AcDbLine
 10
7.920979552724882
 20
1.362968480921817
 30
0.0
 11
9.421357389125628
 21
1.362968480921817
 31
0.0
  0
CIRCLE
  5
51
330
2
100
AcDbEntity
  8
OBJ
100
AcDbCircle
 10
8.671168470925254
 20
6.160922364439578
 30
0.0
 40
0.5071034190389423
  0
LINE
  5
52
330
2
100
AcDbEntity
  8
CL
 48
0.5
100
AcDbLine
 10
7.675829565439372
 20
6.160922364439578
 30
0.0
 11
9.666507376411134
 21
6.160922364439578
 31
0.0
  0
LINE
  5
55
330
2
100
AcDbEntity
  8
OBJ
100
AcDbLine
 10
8.078168470925248
 20
3.672752450408321
 30
0.0
 11
9.264168470925248
 21
3.672752450408321
 31
0.0
  0
LINE
  5
56
330
2
100
AcDbEntity
  8
OBJ
100
AcDbLine
 10
8.185241347390093
 20
3.730469570411254
 30
0.0
 11
9.157095594460415
 21
3.730469570411254
 31
0.0
  0
LINE
  5
57
330
2
100
AcDbEntity
  8
OBJ
100
AcDbLine
 10
8.078168470925254
 20
3.785675192628327
 30
0.0
 11
9.264168470925254
 21
3.785675192628327
 31
0.0
  0
LINE
  5
58
330
2
100
AcDbEntity
  8
OBJ
100
AcDbLine
 10
8.185241347390093
 20
3.836932351713752
 30
0.0
 11
9.157095594460415
 21
3.836932351713752
 31
0.0
  0
LINE
  5
59
330
2
100
AcDbEntity
  8
OBJ
100
AcDbLine
 10
8.078168470925254
 20
3.892137973930826
 30
0.0
 11
9.264168470925254
 21
3.892137973930826
 31
0.0
  0
LINE
  5
5A
330
2
100
AcDbEntity
  8
OBJ
100
AcDbLine
 10
8.185241347390093
 20
3.943395133016251
 30
0.0
 11
9.157095594460415
 21
3.943395133016251
 31
0.0
  0
LINE
  5
5B
330
2
100
AcDbEntity
  8
OBJ
100
AcDbLine
 10
8.078168470925254
 20
3.998600755233333
 30
0.0
 11
9.264168470925254
 21
3.998600755233333
 31
0.0
  0
LINE
  5
5C
330
2
100
AcDbEntity
  8
OBJ
100
AcDbLine
 10
8.185241347390093
 20
4.049857914318757
 30
0.0
 11
9.157095594460415
 21
4.049857914318757
 31
0.0
  0
LINE
  5
5D
330
2
100
AcDbEntity
  8
OBJ
100
AcDbLine
 10
8.185241347390093
 20
4.156320695621253
 30
0.0
 11
9.157095594460415
 21
4.156320695621253
 31
0.0
  0
LINE
  5
5E
330
2
100
AcDbEntity
  8
OBJ
100
AcDbLine
 10
8.078168470925254
 20
4.10506353653583
 30
0.0
 11
9.264168470925254
 21
4.10506353653583
 31
0.0
  0
LWPOLYLINE
  5
5F
330
2
100
AcDbEntity
  8
OBJ
100
AcDbPolyline
 90
        4
 70
     1
 43
0.0
 10
8.078168470925248
 20
3.670033308763064
 10
9.264168470925248
 20
3.670033308763064
 10
9.264168470925254
 20
4.211239253553284
 10
8.078168470925254
 20
4.211239253553284
  0
LINE
  5
60
330
2
100
AcDbEntity
  8
OBJ
100
AcDbLine
 10
7.85018076824966
 20
3.247925935071298
 30
0.0
 11
9.595485135644629
 21
3.247925935071298
 31
0.0
  0
LWPOLYLINE
  5
61
330
2
100
AcDbEntity
  8
OBJ
100
AcDbPolyline
 90
        4
 70
     1
 43
0.0
 10
7.850180768249644
 20
3.670033308763064
 10
9.595485135644626
 20
3.670033308763064
 10
9.595485135644626
 20
3.614200915773456
 10
7.850180768249644
 20
3.614200915773456
  0
DIMENSION
  5
62
330
2
100
AcDbEntity
  8
DIM
100
AcDbDimension
  2
*D15
 10
3.200069123332393
 20
3.670033308763082
 30
0.0
 11
3.200069123332392
 21
2.977846210830568
 31
0.0
 70
    32
 71
     5
 42
1.384374195865031
  3
Standard
100
AcDbAlignedDimension
 13
3.872655134120037
 23
2.285659112898051
 33
0.0
 14
3.424429917145366
 24
3.670033308763082
 34
0.0
 50
90.0
100
AcDbRotatedDimension
  0
LINE
  5
70
330
2
100
AcDbEntity
  8
OBJ
100
AcDbLine
 10
5.618474885325181
 20
3.247925935071336
 30
0.0
 11
5.618474885325282
 21
1.362968480921856
 31
0.0
  0
LINE
  5
71
330
2
100
AcDbEntity
  8
OBJ
100
AcDbLine
 10
7.920979552724882
 20
1.362968480921817
 30
0.0
 11
7.920979552724882
 21
3.247925935071304
 31
0.0
  0
DIMENSION
  5
72
330
2
100
AcDbEntity
  8
DIM
100
AcDbDimension
  2
*D14
 10
7.022235166775484
 20
3.670033308763071
 30
0.0
 11
7.022235166775483
 21
2.516500894842445
 31
0.0
 70
    32
 71
     5
 42
2.307064827841254
  3
Standard
100
AcDbAlignedDimension
 13
5.913622521111462
 23
1.362968480921817
 33
0.0
 14
6.519542782181408
 24
3.670033308763072
 34
0.0
 50
90.0
100
AcDbRotatedDimension
  0
LINE
  5
80
330
2
100
AcDbEntity
  8
OBJ
100
AcDbLine
 10
5.913622521111461
 20
3.614200915773456
 30
0.0
 11
5.913622521111462
 21
2.368582256231294
 31
0.0
  0
LINE
  5
81
330
2
100
AcDbEntity
  8
OBJ
100
AcDbLine
 10
3.913622521111459
 20
3.61420091577347
 30
0.0
 11
3.913622521111462
 21
2.36858225623124
 31
0.0
  0
LINE
  5
82
330
2
100
AcDbEntity
  8
OBJ
100
AcDbLine
 10
4.208770156897695
 20
3.247925935071298
 30
0.0
 11
4.208770156897696
 21
1.362968480921817
 31
0.0
  0
LWPOLYLINE
  5
83
330
2
100
AcDbEntity
  8
OBJ
100
AcDbPolyline
 90
        2
 70
     0
 43
0.0
 10
3.913622521111459
 20
3.614200915773468
 10
3.913622521111462
 20
2.368582256231237
  0
LINE
  5
84
330
2
100
AcDbEntity
  8
CL
 48
0.5
100
AcDbLine
 10
4.913622521111459
 20
7.85800666346379
 30
0.0
 11
4.913622521111459
 21
0.9514245010294043
 31
0.0
  0
DIMENSION
  5
85
330
2
100
AcDbEntity
  8
DIM
100
AcDbDimension
  2
*D18
 10
5.913622521111462
 20
0.5204175656704276
 30
0.0
 11
4.882651300843908
 21
0.5204175656704276
 31
0.0
 70
    32
 71
     5
 42
2.061942440535106
  3
Standard
100
AcDbAlignedDimension
 13
3.851680080576356
 23
2.310480972501511
 33
0.0
 14
5.913622521111462
 24
1.362968480921817
 34
0.0
100
AcDbRotatedDimension
  0
DIMENSION
  5
93
330
2
100
AcDbEntity
  8
DIM
100
AcDbDimension
  2
*D17
 10
4.913622521111459
 20
0.7914684362860527
 30
0.0
 11
4.382635598231864
 21
0.7914684362860527
 31
0.0
 70
    32
 71
     5
 42
1.061973845759189
  3
Standard
100
AcDbAlignedDimension
 13
3.85164867535227
 23
2.309744310966912
 33
0.0
 14
4.913622521111459
 24
0.9514245010294043
 34
0.0
100
AcDbRotatedDimension
  0
DIMENSION
  5
A1
330
2
100
AcDbEntity
  8
DIM
100
AcDbDimension
  2
*D16
 10
5.913622521111462
 20
1.061765788022155
 30
0.0
 11
4.531186450004037
 21
1.061765788022155
 31
0.0
 70
   160
 71
     5
 42
2.000000000000005
  3
Standard
100
AcDbAlignedDimension
 13
3.913622521111457
 23
1.362968480921817
 33
0.0
 14
5.913622521111462
 24
1.362968480921817
 34
0.0
100
AcDbRotatedDimension
  0
LINE
  5
AF
330
2
100
AcDbEntity
  8
OBJ
100
AcDbLine
 10
5.36475049406508
 20
2.383491488163857
 30
0.0
 11
4.462494548157843
 21
2.38349148816385
 31
0.0
  0
LINE
  5
B0
330
2
100
AcDbEntity
  8
OBJ
100
AcDbLine
 10
4.462494548157843
 20
1.519056818450817
 30
0.0
 11
5.364750494065075
 21
1.519056818450822
 31
0.0
  0
LINE
  5
B1
330
2
100
AcDbEntity
  8
OBJ
100
AcDbLine
 10
4.913622521111459
 20
2.448183126869317
 30
0.0
 11
4.462494548157841
 21
2.448183126869325
 31
0.0
  0
LINE
  5
B2
330
2
100
AcDbEntity
  8
OBJ
100
AcDbLine
 10
3.913622521111457
 20
1.362968480921817
 30
0.0
 11
5.913622521111462
 21
1.362968480921817
 31
0.0
  0
LINE
  5
B3
330
2
100
AcDbEntity
  8
OBJ
100
AcDbLine
 10
3.913622521111462
 20
2.319067810999076
 30
0.0
 11
3.913622521111463
 21
1.362968480921817
 31
0.0
  0
LWPOLYLINE
  5
B4
330
2
100
AcDbEntity
  8
OBJ
100
AcDbPolyline
 90
        2
 70
     0
 43
0.0
 10
3.913622521111462
 20
2.319067810999075
 10
3.913622521111463
 20
1.362968480921822
  0
LINE
  5
B5
330
2
100
AcDbEntity
  8
CL
 48
0.25
100
AcDbLine
 10
4.074434884002007
 20
2.77529361967061
 30
0.0
 11
4.074434884002007
 21
2.153462477382836
 31
0.0
  0
LINE
  5
B6
330
2
100
AcDbEntity
  8
OBJ
100
AcDbLine
 10
4.055991197571354
 20
2.245701408306399
 30
0.0
 11
4.059945868218674
 21
2.283247579415182
 31
0.0
  0
LINE
  5
B7
330
2
100
AcDbEntity
  8
OBJ
100
AcDbLine
 10
4.092878570432664
 20
2.245701408306399
 30
0.0
 11
4.08892389978534
 21
2.28324757941519
 31
0.0
  0
ARC
  5
B8
330
2
100
AcDbEntity
  8
OBJ
100
AcDbCircle
 10
4.074434884002007
 20
2.354559752740267
 30
0.0
 40
0.1104097311020822
100
AcDbArc
 50
279.6162074951098
 51
349.8725825813207
  0
ARC
  5
B9
330
2
100
AcDbEntity
  8
OBJ
100
AcDbCircle
 10
4.074434884002007
 20
2.354559752740267
 30
0.0
 40
0.1104097311020822
100
AcDbArc
 50
190.18742566998
 51
260.3837925048899
  0
LINE
  5
BA
330
2
100
AcDbEntity
  8
OBJ
100
AcDbLine
 10
4.410561484107839
 20
2.331558424113854
 30
0.0
 11
4.410561484107839
 21
1.57098988250082
 31
0.0
  0
ARC
  5
BB
330
2
100
AcDbEntity
  8
OBJ
100
AcDbCircle
 10
4.462494548157843
 20
1.57098988250082
 30
0.0
 40
0.0519330640500044
100
AcDbArc
 50
180.0
 51
270.0
  0
LINE
  5
BC
330
2
100
AcDbEntity
  8
OBJ
100
AcDbLine
 10
4.18099360618566
 20
2.491768516008546
 30
0.0
 11
3.958236408044689
 21
2.491768516008556
 31
0.0
  0
ARC
  5
BD
330
2
100
AcDbEntity
  8
OBJ
100
AcDbCircle
 10
4.130256275880209
 20
2.632263485464654
 30
0.0
 40
0.0086555106749952
100
AcDbArc
 50
359.9999999999491
 51
90.0
  0
LINE
  5
BE
330
2
100
AcDbEntity
  8
OBJ
100
AcDbLine
 10
3.939218007121294
 20
2.335031722596911
 30
0.0
 11
4.180993606185659
 21
2.335031722596906
 31
0.0
  0
LINE
  5
BF
330
2
100
AcDbEntity
  8
OBJ
100
AcDbLine
 10
3.938236408044688
 20
2.390404252641362
 30
0.0
 11
3.854562163063813
 21
2.316220964217801
 31
0.0
  0
LINE
  5
C0
330
2
100
AcDbEntity
  8
OBJ
100
AcDbLine
 10
3.925950106060201
 20
2.32999710937551
 30
0.0
 11
3.878397157083495
 21
2.287837970322164
 31
0.0
  0
ARC
  5
C1
330
2
100
AcDbEntity
  8
OBJ
100
AcDbCircle
 10
3.86030418602727
 20
2.309744310966912
 30
0.0
 40
0.008655510675
100
AcDbArc
 50
131.5593157349362
 51
218.6761029172095
  0
ARC
  5
C2
330
2
100
AcDbEntity
  8
OBJ
100
AcDbCircle
 10
3.872655134120037
 20
2.294314623573051
 30
0.0
 40
0.008655510675
100
AcDbArc
 50
218.6761029172865
 51
311.559315734929
  0
LINE
  5
C3
330
2
100
AcDbEntity
  8
OBJ
100
AcDbLine
 10
3.853546905726793
 20
2.30433533435521
 30
0.0
 11
3.865897853819579
 21
2.288905646961341
 31
0.0
  0
ARC
  5
C4
330
2
100
AcDbEntity
  8
OBJ
100
AcDbCircle
 10
3.958236408044688
 20
2.471768516008555
 30
0.0
 40
0.02
100
AcDbArc
 50
89.99999999999788
 51
180.0
  0
ARC
  5
C5
330
2
100
AcDbEntity
  8
OBJ
100
AcDbCircle
 10
3.939218007121293
 20
2.315031722596912
 30
0.0
 40
0.02
100
AcDbArc
 50
89.99999999999849
 51
131.5593157349515
  0
LINE
  5
C6
330
2
100
AcDbEntity
  8
OBJ
100
AcDbLine
 10
3.938236408044688
 20
2.471768516008555
 30
0.0
 11
3.938236408044687
 21
2.335007619654435
 31
0.0
  0
LINE
  5
C7
330
2
100
AcDbEntity
  8
OBJ
100
AcDbLine
 10
4.059945868218674
 20
2.283247579415182
 30
0.0
 11
4.08892389978534
 21
2.28324757941519
 31
0.0
  0
LINE
  5
C8
330
2
100
AcDbEntity
  8
OBJ
100
AcDbLine
 10
4.130256275880209
 20
2.640918996139649
 30
0.0
 11
4.018613492123793
 21
2.640918996139657
 31
0.0
  0
LINE
  5
C9
330
2
100
AcDbEntity
  8
OBJ
100
AcDbLine
 10
4.009957981448797
 20
2.61485392608269
 30
0.0
 11
4.138911786555205
 21
2.614853926082691
 31
0.0
  0
LINE
  5
CA
330
2
100
AcDbEntity
  8
OBJ
100
AcDbLine
 10
4.009957981448797
 20
2.580231883382694
 30
0.0
 11
4.13891178655521
 21
2.580231883382694
 31
0.0
  0
LINE
  5
CB
330
2
100
AcDbEntity
  8
OBJ
100
AcDbLine
 10
4.009957981448797
 20
2.54560984068269
 30
0.0
 11
4.138911786555214
 21
2.54560984068269
 31
0.0
  0
LINE
  5
CC
330
2
100
AcDbEntity
  8
OBJ
100
AcDbLine
 10
4.009957981448797
 20
2.510987797982694
 30
0.0
 11
4.138911786555217
 21
2.510987797982694
 31
0.0
  0
ARC
  5
CD
330
2
100
AcDbEntity
  8
OBJ
100
AcDbCircle
 10
4.018613492123809
 20
2.632263485464654
 30
0.0
 40
0.0086555106750029
100
AcDbArc
 50
90.00000000010173
 51
180.0
  0
LINE
  5
CE
330
2
100
AcDbEntity
  8
OBJ
100
AcDbLine
 10
4.009957981448797
 20
2.632263485464654
 30
0.0
 11
4.009957981448797
 21
2.491768516008556
 31
0.0
  0
LINE
  5
CF
330
2
100
AcDbEntity
  8
OBJ
100
AcDbLine
 10
4.13891178655522
 20
2.491768516008556
 30
0.0
 11
4.138911786555204
 21
2.632263485464647
 31
0.0
  0
LINE
  5
D0
330
2
100
AcDbEntity
  8
OBJ
100
AcDbLine
 10
4.027344799814691
 20
2.632263485464654
 30
0.0
 11
4.121526155002143
 21
2.632263199624374
 31
0.0
  0
LINE
  5
D1
330
2
100
AcDbEntity
  8
OBJ
100
AcDbLine
 10
4.027344799814691
 20
2.597641442764658
 30
0.0
 11
4.121526155002143
 21
2.597641156924378
 31
0.0
  0
LINE
  5
D2
330
2
100
AcDbEntity
  8
OBJ
100
AcDbLine
 10
4.027344799814691
 20
2.563019400064654
 30
0.0
 11
4.121526155002143
 21
2.563019114224375
 31
0.0
  0
LINE
  5
D3
330
2
100
AcDbEntity
  8
OBJ
100
AcDbLine
 10
4.027344799814691
 20
2.528397357364658
 30
0.0
 11
4.121526155002143
 21
2.528397071524379
 31
0.0
  0
LINE
  5
D4
330
2
100
AcDbEntity
  8
OBJ
100
AcDbLine
 10
4.027344799814691
 20
2.493775314664655
 30
0.0
 11
4.121526155002143
 21
2.493775028824374
 31
0.0
  0
ARC
  5
D5
330
2
100
AcDbEntity
  8
OBJ
100
AcDbCircle
 10
4.180993606185659
 20
2.471768516008546
 30
0.0
 40
0.02
100
AcDbArc
 50
0.0
 51
89.99999999999792
  0
ARC
  5
D6
330
2
100
AcDbEntity
  8
OBJ
100
AcDbCircle
 10
4.18099360618566
 20
2.355031722596905
 30
0.0
 40
0.02
100
AcDbArc
 50
269.9999999999981
 51
0.0000000000001018
  0
LINE
  5
D7
330
2
100
AcDbEntity
  8
OBJ
100
AcDbLine
 10
4.200993606185661
 20
2.417917393926359
 30
0.0
 11
4.208770156897696
 21
2.41791739392636
 31
0.0
  0
LINE
  5
D8
330
2
100
AcDbEntity
  8
OBJ
100
AcDbLine
 10
4.200993606185661
 20
2.383163741224301
 30
0.0
 11
4.208770156897696
 21
2.383163741224301
 31
0.0
  0
LINE
  5
D9
330
2
100
AcDbEntity
  8
OBJ
100
AcDbLine
 10
4.200993606185661
 20
2.355031722596905
 30
0.0
 11
4.20099360618566
 21
2.471768516008546
 31
0.0
  0
ARC
  5
DA
330
2
100
AcDbEntity
  8
OBJ
100
AcDbCircle
 10
4.462494548157841
 20
2.33155842411385
 30
0.0
 40
0.0519330640500009
100
AcDbArc
 50
89.99999999999607
 51
179.9999999999959
  0
ARC
  5
DB
330
2
100
AcDbEntity
  8
OBJ
100
AcDbCircle
 10
4.462494548157841
 20
2.396250062819325
 30
0.0
 40
0.05193306405
100
AcDbArc
 50
90.0
 51
180.0
  0
LINE
  5
DC
330
2
100
AcDbEntity
  8
OBJ
100
AcDbLine
 10
4.410561484107837
 20
2.331558424113847
 30
0.0
 11
4.410561484107837
 21
2.396250062819325
 31
0.0
  0
LINE
  5
DD
330
2
100
AcDbEntity
  8
OBJ
100
AcDbLine
 10
5.913622521111461
 20
2.319067810999131
 30
0.0
 11
5.913622521111462
 21
1.362968480921817
 31
0.0
  0
INSERT
  5
DE
330
2
100
AcDbEntity
  8
CL
 48
0.5
100
AcDbBlockReference
  2
A$C266B4E3C
 10
4.870839673959148
 20
1.152120561393993
 30
0.0
  0
LINE
  5
E4
330
2
100
AcDbEntity
  8
OBJ
100
AcDbLine
 10
5.416683558115081
 20
2.331558424113854
 30
0.0
 11
5.416683558115081
 21
1.57098988250082
 31
0.0
  0
ARC
  5
E5
330
2
100
AcDbEntity
  8
OBJ
100
AcDbCircle
 10
5.364750494065075
 20
1.57098988250082
 30
0.0
 40
0.0519330640500044
100
AcDbArc
 50
270.0
 51
0.000000000000007
  0
ARC
  5
E6
330
2
100
AcDbEntity
  8
OBJ
100
AcDbCircle
 10
5.36475049406508
 20
2.33155842411385
 30
0.0
 40
0.0519330640500009
100
AcDbArc
 50
0.0000000000039255
 51
90.00000000000392
  0
LINE
  5
E7
330
2
100
AcDbEntity
  8
CL
 48
0.25
100
AcDbLine
 10
8.169310980567843
 20
2.77529361967061
 30
0.0
 11
8.169310980567843
 21
2.153462477382836
 31
0.0
  0
LINE
  5
E8
330
2
100
AcDbEntity
  8
OBJ
100
AcDbLine
 10
8.188827138070728
 20
2.245701408306394
 30
0.0
 11
8.184872467423407
 21
2.283247579415177
 31
0.0
  0
LINE
  5
E9
330
2
100
AcDbEntity
  8
OBJ
100
AcDbLine
 10
8.151939765209419
 20
2.245701408306394
 30
0.0
 11
8.15589443585674
 21
2.283247579415186
 31
0.0
  0
ARC
  5
EA
330
2
100
AcDbEntity
  8
OBJ
100
AcDbCircle
 10
8.170383451640073
 20
2.354559752740263
 30
0.0
 40
0.1104097311020822
100
AcDbArc
 50
220.2321873765668
 51
260.3837925048899
  0
ARC
  5
EB
330
2
100
AcDbEntity
  8
OBJ
100
AcDbCircle
 10
8.170383451640073
 20
2.354559752740263
 30
0.0
 40
0.1104097311020822
100
AcDbArc
 50
279.6162074951098
 51
319.7678126234328
  0
LINE
  5
EC
330
2
100
AcDbEntity
  8
OBJ
100
AcDbLine
 10
8.217473535827393
 20
2.424531229264649
 30
0.0
 11
8.123292180639939
 21
2.424530943424371
 31
0.0
  0
LINE
  5
ED
330
2
100
AcDbEntity
  8
OBJ
100
AcDbLine
 10
8.234860354193283
 20
2.44174371258269
 30
0.0
 11
8.105906549086865
 21
2.44174371258269
 31
0.0
  0
LINE
  5
EE
330
2
100
AcDbEntity
  8
OBJ
100
AcDbLine
 10
8.217473535827393
 20
2.459153271964654
 30
0.0
 11
8.123292180639939
 21
2.459152986124375
 31
0.0
  0
LINE
  5
EF
330
2
100
AcDbEntity
  8
OBJ
100
AcDbLine
 10
8.234860354193283
 20
2.476365755282687
 30
0.0
 11
8.105906549086869
 21
2.476365755282685
 31
0.0
  0
LINE
  5
F0
330
2
100
AcDbEntity
  8
OBJ
100
AcDbLine
 10
8.010057428881843
 20
2.417917393926357
 30
0.0
 11
8.330709474398307
 21
2.417917393926357
 31
0.0
  0
LINE
  5
F1
330
2
100
AcDbEntity
  8
OBJ
100
AcDbLine
 10
8.010057428881843
 20
2.283247579415182
 30
0.0
 11
8.330709474398307
 21
2.283247579415182
 31
0.0
  0
LINE
  5
F2
330
2
100
AcDbEntity
  8
OBJ
100
AcDbLine
 10
8.010057428881843
 20
2.313826168414139
 30
0.0
 11
8.330709474398307
 21
2.313826168414141
 31
0.0
  0
LINE
  5
F3
330
2
100
AcDbEntity
  8
OBJ
100
AcDbLine
 10
8.114562059761873
 20
2.640918996139645
 30
0.0
 11
8.226204843518289
 21
2.640918996139652
 31
0.0
  0
LINE
  5
F4
330
2
100
AcDbEntity
  8
OBJ
100
AcDbLine
 10
8.217473535827393
 20
2.63226348546465
 30
0.0
 11
8.123292180639939
 21
2.632263199624369
 31
0.0
  0
LINE
  5
F5
330
2
100
AcDbEntity
  8
OBJ
100
AcDbLine
 10
8.217473535827393
 20
2.597641442764652
 30
0.0
 11
8.123292180639939
 21
2.597641156924373
 31
0.0
  0
LINE
  5
F6
330
2
100
AcDbEntity
  8
OBJ
100
AcDbLine
 10
8.217473535827393
 20
2.563019400064649
 30
0.0
 11
8.123292180639939
 21
2.563019114224369
 31
0.0
  0
LINE
  5
F7
330
2
100
AcDbEntity
  8
OBJ
100
AcDbLine
 10
8.217473535827393
 20
2.528397357364654
 30
0.0
 11
8.123292180639939
 21
2.528397071524374
 31
0.0
  0
LINE
  5
F8
330
2
100
AcDbEntity
  8
OBJ
100
AcDbLine
 10
8.217473535827393
 20
2.493775314664649
 30
0.0
 11
8.123292180639939
 21
2.49377502882437
 31
0.0
  0
LINE
  5
F9
330
2
100
AcDbEntity
  8
OBJ
100
AcDbLine
 10
8.234860354193283
 20
2.614853926082685
 30
0.0
 11
8.105906549086878
 21
2.614853926082685
 31
0.0
  0
LINE
  5
FA
330
2
100
AcDbEntity
  8
OBJ
100
AcDbLine
 10
8.234860354193287
 20
2.58023188338269
 30
0.0
 11
8.105906549086874
 21
2.580231883382687
 31
0.0
  0
LINE
  5
FB
330
2
100
AcDbEntity
  8
OBJ
100
AcDbLine
 10
8.234860354193283
 20
2.545609840682687
 30
0.0
 11
8.105906549086869
 21
2.545609840682685
 31
0.0
  0
LINE
  5
FC
330
2
100
AcDbEntity
  8
OBJ
100
AcDbLine
 10
8.234860354193283
 20
2.51098779798269
 30
0.0
 11
8.105906549086865
 21
2.51098779798269
 31
0.0
  0
LINE
  5
FD
330
2
100
AcDbEntity
  8
OBJ
100
AcDbLine
 10
7.992474767551565
 20
2.491768516008554
 30
0.0
 11
7.995579537459545
 21
2.414717552086817
 31
0.0
  0
LINE
  5
FE
330
2
100
AcDbEntity
  8
OBJ
100
AcDbLine
 10
7.959583597710684
 20
2.490634337738177
 30
0.0
 11
7.962696058409435
 21
2.413392511736534
 31
0.0
  0
LINE
  5
FF
330
2
100
AcDbEntity
  8
OBJ
100
AcDbLine
 10
8.105906549086853
 20
2.417917393926357
 30
0.0
 11
8.105906549086878
 21
2.632263485464642
 31
0.0
  0
ARC
  5
100
330
2
100
AcDbEntity
  8
OBJ
100
AcDbCircle
 10
8.019587890676062
 20
2.415684969089965
 30
0.0
 40
0.024027836353425
100
AcDbArc
 50
182.3074860754546
 51
246.6315461245159
  0
ARC
  5
101
330
2
100
AcDbEntity
  8
OBJ
100
AcDbCircle
 10
8.019587890676062
 20
2.415684969089965
 30
0.0
 40
0.0569380008375
100
AcDbArc
 50
182.3074860754546
 51
260.3642955653376
  0
LINE
  5
102
330
2
100
AcDbEntity
  8
OBJ
100
AcDbLine
 10
8.010057428881843
 20
2.283247579415182
 30
0.0
 11
8.010057428881843
 21
2.417917393926357
 31
0.0
  0
LINE
  5
103
330
2
100
AcDbEntity
  8
OBJ
100
AcDbLine
 10
7.992474767551565
 20
2.491768516008552
 30
0.0
 11
7.959583597710684
 21
2.490634337738177
 31
0.0
  0
ARC
  5
104
330
2
100
AcDbEntity
  8
OBJ
100
AcDbCircle
 10
8.114562059761873
 20
2.63226348546465
 30
0.0
 40
0.0086555106749952
100
AcDbArc
 50
90.0
 51
180.0000000000507
  0
LINE
  5
105
330
2
100
AcDbEntity
  8
OBJ
100
AcDbLine
 10
8.348292135728584
 20
2.491768516008552
 30
0.0
 11
8.345187365820603
 21
2.414717552086817
 31
0.0
  0
LINE
  5
106
330
2
100
AcDbEntity
  8
OBJ
100
AcDbLine
 10
8.234860354193283
 20
2.63226348546465
 30
0.0
 11
8.234860354193287
 21
2.417917393926357
 31
0.0
  0
LINE
  5
107
330
2
100
AcDbEntity
  8
OBJ
100
AcDbLine
 10
8.184872467423407
 20
2.283247579415177
 30
0.0
 11
8.15589443585674
 21
2.283247579415186
 31
0.0
  0
ARC
  5
108
330
2
100
AcDbEntity
  8
OBJ
100
AcDbCircle
 10
8.321179012604089
 20
2.415684969089965
 30
0.0
 40
0.024027836353425
100
AcDbArc
 50
293.368453875484
 51
357.6925139245452
  0
LINE
  5
109
330
2
100
AcDbEntity
  8
OBJ
100
AcDbLine
 10
8.330709474398307
 20
2.417917393926357
 30
0.0
 11
8.330709474398307
 21
2.283247579415182
 31
0.0
  0
ARC
  5
10A
330
2
100
AcDbEntity
  8
OBJ
100
AcDbCircle
 10
8.226204843518273
 20
2.63226348546465
 30
0.0
 40
0.0086555106750029
100
AcDbArc
 50
0.0000000000000059
 51
89.99999999989823
  0
SPLINE
  5
10B
330
2
100
AcDbEntity
  8
OBJ
100
AcDbSpline
210
0.0
220
0.0
230
1.0
 70
    12
 71
     2
 72
     6
 73
     3
 74
     0
 42
0.0000000001
 43
0.0000000001
 40
0.0
 40
0.0
 40
0.0
 40
0.5807016679826571
 40
0.5807016679826571
 40
0.5807016679826571
 10
4.913622521111463
 20
4.153531677743098
 30
0.0
 41
1.0
 10
5.176717380862456
 20
4.262509136842611
 30
0.0
 41
1.082392200292382
 10
5.43981224061345
 20
4.153531677743098
 30
0.0
 41
1.0
  0
SPLINE
  5
10C
330
2
100
AcDbEntity
  8
OBJ
100
AcDbSpline
210
0.0
220
0.0
230
1.0
 70
    12
 71
     2
 72
     6
 73
     3
 74
     0
 42
0.0000000001
 43
0.0000000001
 40
0.0
 40
0.0
 40
0.0
 40
0.5807016679826586
 40
0.5807016679826586
 40
0.5807016679826586
 10
4.387432801609465
 20
4.153531677743098
 30
0.0
 41
1.0
 10
4.65052766136046
 20
4.262509136842611
 30
0.0
 41
1.082392200292416
 10
4.913622521111454
 20
4.153531677743098
 30
0.0
 41
1.0
  0
SPLINE
  5
10D
330
2
100
AcDbEntity
  8
OBJ
100
AcDbSpline
210
0.0
220
0.0
230
1.0
 70
    12
 71
     2
 72
     6
 73
     3
 74
     0
 42
0.0000000001
 43
0.0000000001
 40
0.0
 40
0.0
 40
0.0
 40
0.5807016679826579
 40
0.5807016679826579
 40
0.5807016679826579
 10
4.16947788341044
 20
4.153531677743098
 30
0.0
 41
1.0
 10
4.278455342509949
 20
4.262509136842611
 30
0.0
 41
1.082392200292382
 10
4.387432801609458
 20
4.153531677743098
 30
0.0
 41
1.0
  0
SPLINE
  5
10E
330
2
100
AcDbEntity
  8
OBJ
100
AcDbSpline
210
0.0
220
0.0
230
1.0
 70
    12
 71
     2
 72
     6
 73
     3
 74
     0
 42
0.0000000001
 43
0.0000000001
 40
0.0
 40
0.0
 40
0.0
 40
0.5807016679826576
 40
0.5807016679826576
 40
0.5807016679826576
 10
5.439812240613457
 20
4.153531677743098
 30
0.0
 41
1.0
 10
5.548789699712967
 20
4.262509136842611
 30
0.0
 41
1.082392200292382
 10
5.657767158812477
 20
4.153531677743098
 30
0.0
 41
1.0
  0
CIRCLE
  5
10F
330
2
100
AcDbEntity
  8
OBJ
100
AcDbCircle
 10
4.913622521111459
 20
6.807898361608705
 30
0.0
 40
0.7441446377010223
  0
CIRCLE
  5
110
330
2
100
AcDbEntity
  8
OBJ
100
AcDbCircle
 10
4.913622521111459
 20
6.807898361608705
 30
0.0
 40
0.5425987919419697
  0
CIRCLE
  5
111
330
2
100
AcDbEntity
  8
OBJ
100
AcDbCircle
 10
4.913622521111459
 20
6.807898361608705
 30
0.0
 40
0.6313124418880163
  0
LWPOLYLINE
  5
112
330
2
100
AcDbEntity
  8
OBJ
100
AcDbPolyline
 90
        8
 70
     1
 43
0.0
 10
4.169477883410437
 20
6.499663560305728
 10
4.605387719808483
 20
6.063753723907682
 10
5.221857322414436
 20
6.063753723907682
 10
5.657767158812482
 20
6.499663560305728
 10
5.657767158812482
 20
7.116133162911681
 10
5.221857322414437
 20
7.552042999309724
 10
4.605387719808484
 20
7.552042999309724
 10
4.169477883410436
 20
7.116133162911681
  0
HATCH
  5
113
330
2
100
AcDbEntity
  8
HATCH
100
AcDbHatch
 10
0.0
 20
0.0
 30
0.0
210
0.0
220
0.0
230
1.0
  2
SOLID
 70
     1
 71
     0
 91
        1
 92
        1
 93
        4
 72
     1
 10
4.043411129243826
 20
3.670033308763076
 11
5.783833912979095
 21
3.670033308763076
 72
     1
 10
5.783833912979095
 20
3.670033308763076
 11
5.783833912979095
 21
3.614200915773468
 72
     1
 10
5.783833912979095
 20
3.614200915773468
 11
4.043411129243821
 21
3.614200915773468
 72
     1
 10
4.043411129243821
 20
3.614200915773468
 11
4.043411129243827
 21
3.670033308763076
 97
        0
 75
     0
 76
     1
 98
        1
 10
2.358879271069031
 20
-2.34955286555521
  0
HATCH
  5
114
330
2
100
AcDbEntity
  8
HATCH
100
AcDbHatch
 10
0.0
 20
0.0
 30
0.0
210
0.0
220
0.0
230
1.0
  2
SOLID
 70
     1
 71
     0
 91
        1
 92
        1
 93
        4
 72
     1
 10
3.91362252111146
 20
3.980033308763078
 11
5.91362252111146
 21
3.980033308763078
 72
     1
 10
5.913622521111461
 20
3.980033308763078
 11
5.913622521111461
 21
4.026541067376673
 72
     1
 10
5.913622521111461
 20
4.026541067376673
 11
3.913622521111461
 21
4.026541067376673
 72
     1
 10
3.91362252111146
 20
4.026541067376673
 11
3.91362252111146
 21
3.980033308763078
 97
        0
 75
     0
 76
     1
 98
        1
 10
2.358879271069031
 20
-2.34955286555521
  0
HATCH
  5
115
330
2
100
AcDbEntity
  8
HATCH
100
AcDbHatch
 10
0.0
 20
0.0
 30
0.0
210
0.0
220
0.0
230
1.0
  2
ANSI31
 70
     0
 71
     0
 91
        1
 92
        1
 93
       12
 72
     1
 10
6.516881206785685
 20
3.951233019911957
 11
6.478204885139579
 21
3.835400626922355
 72
     1
 10
6.478204885139579
 20
3.835400626922355
 11
6.525475610919566
 21
3.788157832854231
 72
     1
 10
6.525475610919566
 20
3.788157832854231
 11
6.486799623283179
 21
3.749504860513134
 72
     1
 10
6.486799623283179
 20
3.749504860513134
 11
6.519542782181408
 21
3.670033308763072
 72
     1
 10
6.519542782181408
 20
3.670033308763072
 11
3.424429917145366
 21
3.670033308763082
 72
     1
 10
3.424429917145366
 20
3.670033308763082
 11
3.491553754837542
 21
3.732325662670173
 72
     1
 10
3.491553754837542
 20
3.732325662670173
 11
3.439985659985786
 21
3.758094459434614
 72
     1
 10
3.439985659985786
 20
3.758094459434614
 11
3.500148492981142
 21
3.805337030697191
 72
     1
 10
3.500148492981142
 20
3.805337030697191
 11
3.448580398129387
 21
3.843990225843835
 72
     1
 10
3.448580398129386
 20
3.843990225843835
 11
3.482959016694003
 21
3.980033308763075
 72
     1
 10
3.482959016694004
 20
3.980033308763075
 11
6.496297319535096
 21
3.980033308763067
 72
     1
 10
6.496297319535096
 20
3.980033308763067
 11
6.516881206785685
 21
3.951233019911957
 97
        0
 75
     0
 76
     1
 52
0.0
 41
0.5
 77
     0
 78
     1
 53
45.0
 43
2.358879271069031
 44
-2.34955286555521
 45
-0.0441941738241592
 46
0.0441941738241592
 79
     0
 98
        1
 10
2.358879271069031
 20
-2.34955286555521
  0
DIMENSION
  5
116
330
2
100
AcDbEntity
  8
DIM
100
AcDbDimension
  2
*D20
 10
5.618474885325241
 20
5.694235956063169
 30
0.0
 11
5.11961966164508
 21
5.694235956063169
 31
0.0
 70
   160
 71
     5
 42
1.409704728427546
  3
Standard
100
AcDbAlignedDimension
 13
4.208770156897695
 23
6.163045997394924
 33
0.0
 14
5.618474885325241
 24
6.163045997394924
 34
0.0
100
AcDbRotatedDimension
  0
DIMENSION
  5
124
330
2
100
AcDbEntity
  8
DIM
100
AcDbDimension
  2
*D19
 10
3.370386684924563
 20
5.98691065893311
 30
0.0
 11
3.370386684924562
 21
6.859551073511481
 31
0.0
 70
    32
  1
1.75\PApprox.
 71
     5
 42
1.745280829156738
  3
Standard
100
AcDbAlignedDimension
 13
4.913622521111459
 23
7.732191488089849
 33
0.0
 14
4.913622521111459
 24
5.98691065893311
 34
0.0
 50
90.0
100
AcDbRotatedDimension
  0
LWPOLYLINE
  5
132
330
2
100
AcDbEntity
  8
OBJ
100
AcDbPolyline
 90
       12
 70
     1
 43
0.0
 10
6.516881206785685
 20
3.951233019911957
 10
6.478204885139579
 20
3.835400626922355
 10
6.525475610919566
 20
3.788157832854231
 10
6.486799623283179
 20
3.749504860513134
 10
6.519542782181408
 20
3.670033308763072
 10
3.424429917145366
 20
3.670033308763082
 10
3.491553754837542
 20
3.732325662670173
 10
3.439985659985786
 20
3.758094459434614
 10
3.500148492981142
 20
3.805337030697191
 10
3.448580398129386
 20
3.843990225843835
 10
3.482959016694004
 20
3.980033308763075
 10
6.496297319535096
 20
3.980033308763067
  0
LWPOLYLINE
  5
133
330
2
100
AcDbEntity
  8
OBJ
100
AcDbPolyline
 90
        6
 70
     1
 43
0.0
 10
5.041694450199257
 20
7.618835097072256
 42
0.8998867597909681
 10
4.790570698158941
 20
7.619612016053801
 42
0.2964566470371394
 10
4.121841149985082
 20
7.024930774583781
 42
0.9550316243281372
 10
4.122609741833634
 20
6.588081185383281
 42
0.7600010293120965
 10
5.704635300389287
 20
6.588081185383281
 42
0.9550316243281372
 10
5.705403892237837
 20
7.024930774583781
 42
0.2947745873744857
  0
LINE
  5
134
330
2
100
AcDbEntity
  8
CL
 48
0.5
100
AcDbLine
 10
6.004805547050255
 20
6.807898361608705
 30
0.0
 11
3.83395750540742
 21
6.807898361608705
 31
0.0
  0
LINE
  5
135
330
2
100
AcDbEntity
  8
OBJ
100
AcDbLine
 10
5.913622521111461
 20
3.614200915773456
 30
0.0
 11
3.913622521111459
 21
3.61420091577347
 31
0.0
  0
LINE
  5
136
330
2
100
AcDbEntity
  8
OBJ
100
AcDbLine
 10
5.657767158812477
 20
4.101570258802325
 30
0.0
 11
4.169477883410439
 21
4.101570258802324
 31
0.0
  0
LINE
  5
137
330
2
100
AcDbEntity
  8
OBJ
100
AcDbLine
 10
5.588622521111457
 20
4.22267631544412
 30
0.0
 11
4.238622521111457
 21
4.22267631544412
 31
0.0
  0
LINE
  5
138
330
2
100
AcDbEntity
  8
OBJ
100
AcDbLine
 10
3.913622521111455
 20
3.247925935071298
 30
0.0
 11
5.913622521111459
 21
3.247925935071298
 31
0.0
  0
LWPOLYLINE
  5
139
330
2
100
AcDbEntity
  8
OBJ
100
AcDbPolyline
 90
        4
 70
     1
 43
0.0
 10
4.043411129243826
 20
3.670033308763076
 10
5.783833912979095
 20
3.670033308763076
 10
5.783833912979095
 20
3.614200915773468
 10
4.043411129243821
 20
3.614200915773468
  0
LWPOLYLINE
  5
13A
330
2
100
AcDbEntity
  8
OBJ
100
AcDbPolyline
 90
        4
 70
     1
 43
0.0
 10
3.91362252111146
 20
3.980033308763078
 10
5.913622521111461
 20
3.980033308763078
 10
5.913622521111461
 20
4.026541067376673
 10
3.91362252111146
 20
4.026541067376673
  0
LWPOLYLINE
  5
13B
330
2
100
AcDbEntity
  8
OBJ
100
AcDbPolyline
 90
        4
 70
     0
 43
0.0
 10
4.282310079223444
 20
4.223280335152511
 10
4.298411321964658
 20
4.508312134391177
 42
-0.3996471605613139
 10
4.350279515248468
 20
4.557650267402736
 10
4.913622521111456
 20
4.557650267402736
  0
LWPOLYLINE
  5
13C
330
2
100
AcDbEntity
  8
OBJ
100
AcDbPolyline
 90
        6
 70
     1
 43
0.0
 10
4.37102372916949
 20
4.558254287111127
 10
5.456221313053415
 20
4.558254287111127
 10
5.456221313053429
 20
4.998100244713065
 42
0.4142135623730951
 10
5.404288249003424
 20
5.050033308763071
 10
4.422956793219494
 20
5.050033308763071
 42
0.4142135623730951
 10
4.37102372916949
 20
4.998100244713065
  0
LINE
  5
13D
330
2
100
AcDbEntity
  8
CL
 48
0.25
100
AcDbLine
 10
4.074434884002007
 20
6.545785742510091
 30
0.0
 11
4.074434884002007
 21
6.073326080749497
 31
0.0
  0
LINE
  5
13E
330
2
100
AcDbEntity
  8
OBJ
100
AcDbLine
 10
4.12260974183364
 20
3.614200915773477
 30
0.0
 11
4.12260974183364
 21
3.247925935071298
 31
0.0
  0
LINE
  5
13F
330
2
100
AcDbEntity
  8
OBJ
100
AcDbLine
 10
4.238622521111459
 20
4.22267631544412
 30
0.0
 11
4.16947788341044
 21
4.153531677743099
 31
0.0
  0
LINE
  5
140
330
2
100
AcDbEntity
  8
OBJ
100
AcDbLine
 10
4.169477883410437
 20
4.153531677743098
 30
0.0
 11
4.169477883410439
 21
4.029122429186326
 31
0.0
  0
LINE
  5
141
330
2
100
AcDbEntity
  8
OBJ
100
AcDbLine
 10
4.387432801609458
 20
4.153531677743098
 30
0.0
 11
4.387432801609458
 21
4.101570258802324
 31
0.0
  0
LINE
  5
142
330
2
100
AcDbEntity
  8
OBJ
100
AcDbLine
 10
4.208888049031737
 20
6.159286588195355
 30
0.0
 11
3.851648675352269
 21
6.159286588195355
 31
0.0
  0
LINE
  5
143
330
2
100
AcDbEntity
  8
OBJ
100
AcDbLine
 10
4.215836826188207
 20
6.134795997394933
 30
0.0
 11
3.920988564720272
 21
6.134795997394931
 31
0.0
  0
CIRCLE
  5
144
330
2
100
AcDbEntity
  8
OBJ
  6
HIDDEN
 48
0.125
100
AcDbCircle
 10
4.074434884002007
 20
6.306256877658375
 30
0.0
 40
0.0820501560099554
  0
LINE
  5
146
330
2
100
AcDbEntity
  8
OBJ
100
AcDbLine
 10
3.920988564720272
 20
6.477717757921823
 30
0.0
 11
4.161956653259583
 21
6.477717757921823
 31
0.0
  0
LINE
  5
147
330
2
100
AcDbEntity
  8
OBJ
100
AcDbLine
 10
3.851648675352269
 20
6.453227167121394
 30
0.0
 11
4.173197540613438
 21
6.453227167121394
 31
0.0
  0
LINE
  5
148
330
2
100
AcDbEntity
  8
CL
 48
0.25
100
AcDbLine
 10
4.31064167766508
 20
6.306256877658375
 30
0.0
 11
3.838228090338935
 21
6.306256877658375
 31
0.0
  0
LINE
  5
149
330
2
100
AcDbEntity
  8
OBJ
100
AcDbLine
 10
3.851648675352269
 20
6.159286588195355
 30
0.0
 11
3.851648675352269
 21
6.453227167121394
 31
0.0
  0
CIRCLE
  5
14A
330
2
100
AcDbEntity
  8
OBJ
100
AcDbCircle
 10
4.074434884002007
 20
6.306256877658375
 30
0.0
 40
0.0516612835639881
  0
LINE
  5
14B
330
2
100
AcDbEntity
  8
OBJ
100
AcDbLine
 10
3.920988564720272
 20
6.134795997394931
 30
0.0
 11
3.920988564720272
 21
6.477717757921823
 31
0.0
  0
ARC
  5
14C
330
2
100
AcDbEntity
  8
OBJ
100
AcDbCircle
 10
4.268770156897694
 20
6.163045997394924
 30
0.0
 40
0.06
100
AcDbArc
 50
180.0
 51
270.0
  0
LINE
  5
14D
330
2
100
AcDbEntity
  8
OBJ
100
AcDbLine
 10
4.268770156897694
 20
6.103045997394923
 30
0.0
 11
4.492666522690256
 21
6.103045997394923
 31
0.0
  0
LINE
  5
14E
330
2
100
AcDbEntity
  8
OBJ
100
AcDbLine
 10
4.208770156897695
 20
6.163045997394924
 30
0.0
 11
4.208770156897695
 21
6.386942363187474
 31
0.0
  0
LINE
  5
14F
330
2
100
AcDbEntity
  8
CL
 48
0.25
100
AcDbLine
 10
4.074434884002007
 20
7.070010980707316
 30
0.0
 11
4.074434884002007
 21
7.542470642467911
 31
0.0
  0
LINE
  5
150
330
2
100
AcDbEntity
  8
OBJ
100
AcDbLine
 10
4.208770156897695
 20
7.228854360029938
 30
0.0
 11
4.208770156897695
 21
7.452750725822479
 31
0.0
  0
LINE
  5
151
330
2
100
AcDbEntity
  8
OBJ
100
AcDbLine
 10
3.851648675352269
 20
7.456510135022055
 30
0.0
 11
3.851648675352269
 21
7.162569556096014
 31
0.0
  0
LINE
  5
152
330
2
100
AcDbEntity
  8
OBJ
100
AcDbLine
 10
3.920988564720272
 20
7.481000725822479
 30
0.0
 11
3.920988564720272
 21
7.138078965295589
 31
0.0
  0
LINE
  5
153
330
2
100
AcDbEntity
  8
CL
 48
0.25
100
AcDbLine
 10
4.31064167766508
 20
7.309539845559033
 30
0.0
 11
3.838228090338935
 21
7.309539845559033
 31
0.0
  0
LINE
  5
154
330
2
100
AcDbEntity
  8
OBJ
100
AcDbLine
 10
3.851648675352269
 20
7.162569556096014
 30
0.0
 11
4.173197540613438
 21
7.162569556096014
 31
0.0
  0
LINE
  5
155
330
2
100
AcDbEntity
  8
OBJ
100
AcDbLine
 10
3.920988564720272
 20
7.138078965295589
 30
0.0
 11
4.161956653259583
 21
7.138078965295589
 31
0.0
  0
CIRCLE
  5
156
330
2
100
AcDbEntity
  8
OBJ
  6
HIDDEN
 48
0.125
100
AcDbCircle
 10
4.074434884002007
 20
7.309539845559033
 30
0.0
 40
0.0820501560099554
  0
ARC
  5
157
330
2
100
AcDbEntity
  8
OBJ
100
AcDbCircle
 10
3.973622521106554
 20
6.96493077458378
 30
0.0
 40
0.06
100
AcDbArc
 50
90.0
 51
180.0
  0
ARC
  5
158
330
2
100
AcDbEntity
  8
OBJ
100
AcDbCircle
 10
3.973622521106554
 20
6.648081185383281
 30
0.0
 40
0.06
100
AcDbArc
 50
180.0
 51
270.0
  0
LINE
  5
159
330
2
100
AcDbEntity
  8
OBJ
100
AcDbLine
 10
3.913622521106554
 20
6.648081185383281
 30
0.0
 11
3.913622521106554
 21
6.96493077458378
 31
0.0
  0
LINE
  5
15A
330
2
100
AcDbEntity
  8
OBJ
100
AcDbLine
 10
4.122609741833634
 20
6.588081185383281
 30
0.0
 11
3.973622521106554
 21
6.588081185383281
 31
0.0
  0
LINE
  5
15B
330
2
100
AcDbEntity
  8
OBJ
100
AcDbLine
 10
4.122609741833634
 20
7.024930774583781
 30
0.0
 11
3.973622521106554
 21
7.024930774583781
 31
0.0
  0
CIRCLE
  5
15C
330
2
100
AcDbEntity
  8
OBJ
100
AcDbCircle
 10
4.074434884002007
 20
7.309539845559033
 30
0.0
 40
0.0516612835639881
  0
LINE
  5
15D
330
2
100
AcDbEntity
  8
OBJ
100
AcDbLine
 10
4.215836826188207
 20
7.481000725822477
 30
0.0
 11
3.920988564720272
 21
7.481000725822479
 31
0.0
  0
LINE
  5
15E
330
2
100
AcDbEntity
  8
OBJ
100
AcDbLine
 10
4.208888049031737
 20
7.456510135022055
 30
0.0
 11
3.851648675352269
 21
7.456510135022055
 31
0.0
  0
LINE
  5
15F
330
2
100
AcDbEntity
  8
OBJ
100
AcDbLine
 10
4.268770156897693
 20
7.512750725822479
 30
0.0
 11
4.492666522690244
 21
7.512750725822479
 31
0.0
  0
ARC
  5
160
330
2
100
AcDbEntity
  8
OBJ
100
AcDbCircle
 10
4.268770156897694
 20
7.452750725822479
 30
0.0
 40
0.06
100
AcDbArc
 50
90.00000000000039
 51
180.0
  0
DIMENSION
  5
161
330
2
100
AcDbEntity
  8
DIM
100
AcDbDimension
  2
*D22
 10
6.458829512731821
 20
3.980033308763067
 30
0.0
 11
6.130480263072884
 21
3.307112598109736
 31
0.0
 70
   160
  1
\A1;Panel\Pto {\H0.7x;\S5/16;}"
 71
     5
 42
0.3099999999999952
  3
Standard
100
AcDbAlignedDimension
 13
6.519542782181408
 23
3.670033308763072
 33
0.0
 14
6.496297319535096
 24
3.980033308763067
 34
0.0
 50
90.0
100
AcDbRotatedDimension
  0
DIMENSION
  5
170
330
2
100
AcDbEntity
  8
DIM
100
AcDbDimension
  2
*D21
 10
7.025422120672219
 20
3.670033308763071
 30
0.0
 11
7.025422120672218
 21
4.360033308763073
 31
0.0
 70
    32
 71
     5
 42
1.379999999999999
  3
Standard
100
AcDbAlignedDimension
 13
5.404288249003424
 23
5.050033308763071
 33
0.0
 14
6.519542782181408
 24
3.670033308763072
 34
0.0
 50
90.0
100
AcDbRotatedDimension
  0
LWPOLYLINE
  5
17E
330
2
100
AcDbEntity
  8
OBJ
100
AcDbPolyline
 90
        4
 70
     0
 43
0.0
 10
5.544934962999471
 20
4.223280335152511
 10
5.528833720258271
 20
4.508312134391177
 42
0.3996471605613139
 10
5.476965526974462
 20
4.557650267402736
 10
4.913622521111456
 20
4.557650267402736
  0
LINE
  5
17F
330
2
100
AcDbEntity
  8
OBJ
100
AcDbLine
 10
4.913622521111461
 20
4.025937047668281
 30
0.0
 11
4.913622521111461
 21
4.153531677743098
 31
0.0
  0
LINE
  5
180
330
2
100
AcDbEntity
  8
OBJ
100
AcDbLine
 10
5.43981224061345
 20
4.153531677743098
 30
0.0
 11
5.43981224061345
 21
4.101570258802325
 31
0.0
  0
LINE
  5
181
330
2
100
AcDbEntity
  8
OBJ
100
AcDbLine
 10
5.704635300389278
 20
3.614200915773481
 30
0.0
 11
5.704635300389279
 21
3.247925935071303
 31
0.0
  0
LINE
  5
182
330
2
100
AcDbEntity
  8
OBJ
100
AcDbLine
 10
5.588622521111457
 20
4.22267631544412
 30
0.0
 11
5.657767158812477
 21
4.153531677743098
 31
0.0
  0
LINE
  5
183
330
2
100
AcDbEntity
  8
OBJ
100
AcDbLine
 10
5.657767158812477
 20
4.153531677743098
 30
0.0
 11
5.657767158812477
 21
4.029122429186326
 31
0.0
  0
LINE
  5
184
330
2
100
AcDbEntity
  8
OBJ
100
AcDbLine
 10
5.334578519532664
 20
6.103045997394923
 30
0.0
 11
5.558474885325241
 21
6.103045997394923
 31
0.0
  0
ARC
  5
185
330
2
100
AcDbEntity
  8
OBJ
100
AcDbCircle
 10
5.558474885325241
 20
6.163045997394924
 30
0.0
 40
0.06
100
AcDbArc
 50
270.0
 51
0.0000000000000127
  0
LINE
  5
186
330
2
100
AcDbEntity
  8
OBJ
100
AcDbLine
 10
5.618474885325243
 20
6.163045997394924
 30
0.0
 11
5.618474885325243
 21
6.386942363187499
 31
0.0
  0
LINE
  5
187
330
2
100
AcDbEntity
  8
OBJ
100
AcDbLine
 10
7.850180768249637
 20
3.614200915773456
 30
0.0
 11
7.85018076824966
 21
3.247925935071298
 31
0.0
  0
LINE
  5
188
330
2
100
AcDbEntity
  8
OBJ
100
AcDbLine
 10
5.334578519532668
 20
7.512750725822485
 30
0.0
 11
5.558474885325241
 21
7.512750725822485
 31
0.0
  0
POINT
  5
189
330
2
100
AcDbEntity
  8
OBJ
100
AcDbPoint
 10
4.913622521111459
 20
7.830369873402467
 30
0.0
  0
LINE
  5
18A
330
2
100
AcDbEntity
  8
OBJ
100
AcDbLine
 10
5.618474885325243
 20
7.228854360029911
 30
0.0
 11
5.618474885325243
 21
7.452750725822484
 31
0.0
  0
ARC
  5
18B
330
2
100
AcDbEntity
  8
OBJ
100
AcDbCircle
 10
5.853622521116365
 20
6.96493077458378
 30
0.0
 40
0.06
100
AcDbArc
 50
0.0
 51
90.0
  0
LINE
  5
18C
330
2
100
AcDbEntity
  8
OBJ
100
AcDbLine
 10
5.704635300389287
 20
6.588081185383281
 30
0.0
 11
5.853622521116365
 21
6.588081185383281
 31
0.0
  0
LINE
  5
18D
330
2
100
AcDbEntity
  8
OBJ
100
AcDbLine
 10
5.913622521116366
 20
6.648081185383281
 30
0.0
 11
5.913622521116366
 21
6.96493077458378
 31
0.0
  0
ARC
  5
18E
330
2
100
AcDbEntity
  8
OBJ
100
AcDbCircle
 10
5.853622521116365
 20
6.648081185383281
 30
0.0
 40
0.06
100
AcDbArc
 50
270.0
 51
0.0
  0
LINE
  5
18F
330
2
100
AcDbEntity
  8
OBJ
100
AcDbLine
 10
5.704635300389287
 20
7.024930774583781
 30
0.0
 11
5.853622521116365
 21
7.024930774583781
 31
0.0
  0
ARC
  5
190
330
2
100
AcDbEntity
  8
OBJ
100
AcDbCircle
 10
5.558474885325241
 20
7.452750725822484
 30
0.0
 40
0.06
100
AcDbArc
 50
0.0
 51
90.00000000000033
  0
LINE
  5
191
330
2
100
AcDbEntity
  8
OBJ
100
AcDbLine
 10
8.890985647150678
 20
3.247925935071304
 30
0.0
 11
8.890985647150678
 21
1.362968480921817
 31
0.0
  0
LINE
  5
192
330
2
100
AcDbEntity
  8
OBJ
100
AcDbLine
 10
9.421357389125628
 20
1.362968480921817
 30
0.0
 11
9.421357389125628
 21
3.247925935071304
 31
0.0
  0
LINE
  5
193
330
2
100
AcDbEntity
  8
OBJ
100
AcDbLine
 10
8.451351294699831
 20
3.247925935071304
 30
0.0
 11
8.451351294699831
 21
1.362968480921817
 31
0.0
  0
LINE
  5
194
330
2
100
AcDbEntity
  8
CL
 48
0.5
100
AcDbLine
 10
8.671168470925254
 20
7.259702383930356
 30
0.0
 11
8.671168470925254
 21
1.011424501029404
 31
0.0
  0
INSERT
  5
195
330
2
100
AcDbEntity
  8
CL
 48
0.5
100
AcDbBlockReference
  2
A$C266B4E3C
 10
8.628385623772938
 20
1.150706083993067
 30
0.0
  0
LINE
  5
196
330
2
100
AcDbEntity
  8
OBJ
100
AcDbLine
 10
9.333351984040895
 20
2.417917393926357
 30
0.0
 11
9.012699938524434
 21
2.417917393926359
 31
0.0
  0
LINE
  5
197
330
2
100
AcDbEntity
  8
OBJ
100
AcDbLine
 10
9.333351984040895
 20
2.313826168414141
 30
0.0
 11
9.012699938524434
 21
2.313826168414142
 31
0.0
  0
LINE
  5
198
330
2
100
AcDbEntity
  8
OBJ
100
AcDbLine
 10
9.333351984040895
 20
2.283247579415182
 30
0.0
 11
9.012699938524434
 21
2.283247579415182
 31
0.0
  0
LINE
  5
199
330
2
100
AcDbEntity
  8
OBJ
100
AcDbLine
 10
9.15458227485201
 20
2.245701408306396
 30
0.0
 11
9.158536945499331
 21
2.283247579415179
 31
0.0
  0
ARC
  5
19A
330
2
100
AcDbEntity
  8
OBJ
100
AcDbCircle
 10
9.173025961282665
 20
2.354559752740263
 30
0.0
 40
0.1104097311020822
100
AcDbArc
 50
220.232187376567
 51
260.3837925048899
  0
LINE
  5
19B
330
2
100
AcDbEntity
  8
OBJ
100
AcDbLine
 10
9.19146964771332
 20
2.245701408306396
 30
0.0
 11
9.187514977065998
 21
2.283247579415186
 31
0.0
  0
ARC
  5
19C
330
2
100
AcDbEntity
  8
OBJ
100
AcDbCircle
 10
9.173025961282665
 20
2.354559752740263
 30
0.0
 40
0.1104097311020822
100
AcDbArc
 50
279.6162074951098
 51
319.767812623433
  0
LINE
  5
19D
330
2
100
AcDbEntity
  8
CL
 48
0.25
100
AcDbLine
 10
9.173025961282665
 20
2.77529361967061
 30
0.0
 11
9.173025961282665
 21
2.153462477382836
 31
0.0
  0
LINE
  5
19E
330
2
100
AcDbEntity
  8
OBJ
100
AcDbLine
 10
8.381183305569464
 20
2.490634337738176
 30
0.0
 11
8.378070844870713
 21
2.413392511736534
 31
0.0
  0
LINE
  5
19F
330
2
100
AcDbEntity
  8
OBJ
100
AcDbLine
 10
8.995117277194154
 20
2.491768516008554
 30
0.0
 11
8.998222047102135
 21
2.414717552086817
 31
0.0
  0
LINE
  5
1A0
330
2
100
AcDbEntity
  8
OBJ
100
AcDbLine
 10
8.962226107353274
 20
2.490634337738177
 30
0.0
 11
8.965338568052025
 21
2.413392511736535
 31
0.0
  0
ARC
  5
1A1
330
2
100
AcDbEntity
  8
OBJ
100
AcDbCircle
 10
9.022230400318651
 20
2.415684969089965
 30
0.0
 40
0.0569380008375
100
AcDbArc
 50
182.3074860754546
 51
260.3642955653376
  0
ARC
  5
1A2
330
2
100
AcDbEntity
  8
OBJ
100
AcDbCircle
 10
9.022230400318651
 20
2.415684969089965
 30
0.0
 40
0.024027836353425
100
AcDbArc
 50
182.3074860754546
 51
246.6315461245159
  0
LINE
  5
1A3
330
2
100
AcDbEntity
  8
OBJ
100
AcDbLine
 10
9.012699938524432
 20
2.417917393926359
 30
0.0
 11
9.012699938524434
 21
2.283247579415182
 31
0.0
  0
LINE
  5
1A4
330
2
100
AcDbEntity
  8
OBJ
100
AcDbLine
 10
8.995117277194154
 20
2.491768516008554
 30
0.0
 11
8.962226107353274
 21
2.490634337738177
 31
0.0
  0
LINE
  5
1A5
330
2
100
AcDbEntity
  8
OBJ
100
AcDbLine
 10
9.237502863835885
 20
2.417917393926357
 30
0.0
 11
9.23750286383586
 21
2.632263485464645
 31
0.0
  0
LINE
  5
1A6
330
2
100
AcDbEntity
  8
OBJ
100
AcDbLine
 10
9.108549058729453
 20
2.632263485464651
 30
0.0
 11
9.108549058729453
 21
2.417917393926357
 31
0.0
  0
LINE
  5
1A7
330
2
100
AcDbEntity
  8
OBJ
100
AcDbLine
 10
9.108549058729453
 20
2.476365755282687
 30
0.0
 11
9.237502863835871
 21
2.476365755282687
 31
0.0
  0
LINE
  5
1A8
330
2
100
AcDbEntity
  8
OBJ
100
AcDbLine
 10
9.125935877095347
 20
2.459153271964655
 30
0.0
 11
9.220117232282801
 21
2.459152986124376
 31
0.0
  0
LINE
  5
1A9
330
2
100
AcDbEntity
  8
OBJ
100
AcDbLine
 10
9.108549058729453
 20
2.441743712582692
 30
0.0
 11
9.237502863835874
 21
2.441743712582692
 31
0.0
  0
LINE
  5
1AA
330
2
100
AcDbEntity
  8
OBJ
100
AcDbLine
 10
9.125935877095347
 20
2.424531229264651
 30
0.0
 11
9.220117232282801
 21
2.424530943424371
 31
0.0
  0
LINE
  5
1AB
330
2
100
AcDbEntity
  8
OBJ
100
AcDbLine
 10
9.158536945499331
 20
2.283247579415179
 30
0.0
 11
9.187514977065998
 21
2.283247579415186
 31
0.0
  0
LINE
  5
1AC
330
2
100
AcDbEntity
  8
OBJ
100
AcDbLine
 10
9.108549058729455
 20
2.614853926082687
 30
0.0
 11
9.237502863835864
 21
2.614853926082687
 31
0.0
  0
LINE
  5
1AD
330
2
100
AcDbEntity
  8
OBJ
100
AcDbLine
 10
9.125935877095347
 20
2.632263485464651
 30
0.0
 11
9.220117232282801
 21
2.63226319962437
 31
0.0
  0
LINE
  5
1AE
330
2
100
AcDbEntity
  8
OBJ
100
AcDbLine
 10
9.228847353160865
 20
2.640918996139645
 30
0.0
 11
9.117204569404449
 21
2.640918996139652
 31
0.0
  0
LINE
  5
1AF
330
2
100
AcDbEntity
  8
OBJ
100
AcDbLine
 10
9.108549058729453
 20
2.510987797982691
 30
0.0
 11
9.237502863835874
 21
2.510987797982691
 31
0.0
  0
LINE
  5
1B0
330
2
100
AcDbEntity
  8
OBJ
100
AcDbLine
 10
9.108549058729453
 20
2.545609840682687
 30
0.0
 11
9.237502863835871
 21
2.545609840682685
 31
0.0
  0
LINE
  5
1B1
330
2
100
AcDbEntity
  8
OBJ
100
AcDbLine
 10
9.108549058729453
 20
2.58023188338269
 30
0.0
 11
9.237502863835866
 21
2.580231883382687
 31
0.0
  0
LINE
  5
1B2
330
2
100
AcDbEntity
  8
OBJ
100
AcDbLine
 10
9.125935877095347
 20
2.56301940006465
 30
0.0
 11
9.220117232282801
 21
2.56301911422437
 31
0.0
  0
LINE
  5
1B3
330
2
100
AcDbEntity
  8
OBJ
100
AcDbLine
 10
9.125935877095347
 20
2.597641442764654
 30
0.0
 11
9.220117232282801
 21
2.597641156924374
 31
0.0
  0
LINE
  5
1B4
330
2
100
AcDbEntity
  8
OBJ
100
AcDbLine
 10
9.125935877095347
 20
2.49377531466465
 30
0.0
 11
9.220117232282801
 21
2.49377502882437
 31
0.0
  0
LINE
  5
1B5
330
2
100
AcDbEntity
  8
OBJ
100
AcDbLine
 10
9.125935877095347
 20
2.528397357364654
 30
0.0
 11
9.220117232282801
 21
2.528397071524374
 31
0.0
  0
ARC
  5
1B6
330
2
100
AcDbEntity
  8
OBJ
100
AcDbCircle
 10
9.117204569404464
 20
2.632263485464651
 30
0.0
 40
0.0086555106750029
100
AcDbArc
 50
90.00000000010173
 51
180.0
  0
ARC
  5
1B7
330
2
100
AcDbEntity
  8
OBJ
100
AcDbCircle
 10
9.228847353160865
 20
2.632263485464651
 30
0.0
 40
0.0086555106749952
100
AcDbArc
 50
359.9999999999491
 51
90.0
  0
LINE
  5
1B8
330
2
100
AcDbEntity
  8
OBJ
100
AcDbLine
 10
9.350934645371173
 20
2.491768516008556
 30
0.0
 11
9.347829875463192
 21
2.414717552086817
 31
0.0
  0
LINE
  5
1B9
330
2
100
AcDbEntity
  8
OBJ
100
AcDbLine
 10
9.383825815212052
 20
2.490634337738178
 30
0.0
 11
9.380713354513304
 21
2.413392511736535
 31
0.0
  0
LINE
  5
1BA
330
2
100
AcDbEntity
  8
OBJ
100
AcDbLine
 10
9.333351984040895
 20
2.283247579415182
 30
0.0
 11
9.333351984040895
 21
2.417917393926357
 31
0.0
  0
ARC
  5
1BB
330
2
100
AcDbEntity
  8
OBJ
100
AcDbCircle
 10
9.323821522246678
 20
2.415684969089965
 30
0.0
 40
0.024027836353425
100
AcDbArc
 50
293.368453875484
 51
357.6925139245452
  0
ARC
  5
1BC
330
2
100
AcDbEntity
  8
OBJ
100
AcDbCircle
 10
9.323821522246678
 20
2.415684969089965
 30
0.0
 40
0.0569380008375
100
AcDbArc
 50
279.6357044346621
 51
357.6925139245452
  0
LINE
  5
1BD
330
2
100
AcDbEntity
  8
OBJ
100
AcDbLine
 10
9.350934645371173
 20
2.491768516008554
 30
0.0
 11
9.383825815212052
 21
2.490634337738178
 31
0.0
  0
LINE
  5
1BE
330
2
100
AcDbEntity
  8
OBJ
100
AcDbLine
 10
8.451351294699831
 20
3.670033308763064
 30
0.0
 11
8.451351294699831
 21
3.247925935071298
 31
0.0
  0
LINE
  5
1BF
330
2
100
AcDbEntity
  8
OBJ
100
AcDbLine
 10
8.890985647150678
 20
3.670033308763064
 30
0.0
 11
8.890985647150678
 21
3.247925935071298
 31
0.0
  0
LINE
  5
1C0
330
2
100
AcDbEntity
  8
OBJ
100
AcDbLine
 10
9.482105206388805
 20
3.670033308763064
 30
0.0
 11
9.482105206388805
 21
3.247925935071298
 31
0.0
  0
LINE
  5
1C1
330
2
100
AcDbEntity
  8
OBJ
100
AcDbLine
 10
9.595485135644626
 20
3.614200915773456
 30
0.0
 11
9.595485135644629
 21
3.247925935071298
 31
0.0
  0
ENDSEC
  0
SECTION
  2
OBJECTS
  0
DICTIONARY
  5
9
330
0
100
AcDbDictionary
281
     1
  3
ACAD_GROUP
350
23
  3
ACAD_LAYOUT
350
D
  3
ACAD_MLINESTYLE
350
24
  3
ACAD_PLOTSETTINGS
350
25
  3
ACAD_PLOTSTYLENAME
350
8
  0
DICTIONARY
  5
3
330
2
100
AcDbDictionary
280
     1
281
     1
  3
ACAD_LAYOUTSELFREF
360
4
  0
DICTIONARY
  5
F
330
E
100
AcDbDictionary
280
     1
281
     1
  3
ACAD_LAYOUTSELFREF
360
10
  0
DICTIONARY
  5
23
102
{ACAD_REACTORS
330
9
102
}
330
9
100
AcDbDictionary
281
     1
  0
DICTIONARY
  5
D
102
{ACAD_REACTORS
330
9
102
}
330
9
100
AcDbDictionary
281
     1
  3
Layout1
350
13
  3
Model
350
C
  0
DICTIONARY
  5
24
102
{ACAD_REACTORS
330
9
102
}
330
9
100
AcDbDictionary
281
     1
  3
Standard
350
28
  0
DICTIONARY
  5
25
102
{ACAD_REACTORS
330
9
102
}
330
9
100
AcDbDictionary
281
     1
  0
ACDBDICTIONARYWDFLT
  5
8
102
{ACAD_REACTORS
330
9
102
}
330
9
100
AcDbDictionary
281
     1
  3
Normal
350
7
100
AcDbDictionaryWithDefault
340
7
  0
XRECORD
  5
4
102
{ACAD_REACTORS
330
3
102
}
330
3
100
AcDbXrecord
280
     1
340
2
  0
XRECORD
  5
10
102
{ACAD_REACTORS
330
F
102
}
330
F
100
AcDbXrecord
280
     1
340
E
  0
LAYOUT
  5
13
102
{ACAD_REACTORS
330
D
102
}
330
D
100
AcDbPlotSettings
  1

  2
\\FOFS01\Engr_HP5si
  4

  6

 40
0.0
 41
0.0
 42
0.0
 43
0.0
 44
0.0
 45
0.0
 46
0.0
 47
0.0
 48
0.0
 49
0.0
140
0.0
141
0.0
142
1.0
143
1.0
 70
   688
 72
     0
 73
     0
 74
     5
  7
acad.ctb
 75
    16
147
1.0
148
0.0
149
0.0
100
AcDbLayout
  1
Layout1
 70
     1
 71
     1
 10
0.0
 20
0.0
 11
12.0
 21
9.0
 12
0.0
 22
0.0
 32
0.0
 14
1.000000000000000E+20
 24
1.000000000000000E+20
 34
1.000000000000000E+20
 15
-1.000000000000000E+20
 25
-1.000000000000000E+20
 35
-1.000000000000000E+20
146
0.0
 13
0.0
 23
0.0
 33
0.0
 16
1.0
 26
0.0
 36
0.0
 17
0.0
 27
1.0
 37
0.0
 76
     0
330
E
  0
LAYOUT
  5
C
102
{ACAD_REACTORS
330
D
102
}
330
D
100
AcDbPlotSettings
  1

  2
HP5si-A.pc3
  4
Letter
  6

 40
7.143749713897705
 41
6.127734661102294
 42
7.14373779296875
 43
7.14373779296875
 44
215.8999938964842
 45
279.3999938964843
 46
-6.349999999999998
 47
-5.841999999999998
 48
0.0
 49
0.0
140
0.0
141
0.0
142
1.0
143
1.0
 70
 11956
 72
     0
 73
     0
 74
     1
  7
R14cfg-1-Default System Printer.ctb
 75
    16
147
1.0
148
0.0080555193093559
149
0.0017287030684557
100
AcDbLayout
  1
Model
 70
     1
 71
     0
 10
0.0
 20
0.0
 11
12.0
 21
9.0
 12
0.0
 22
0.0
 32
0.0
 14
0.0
 24
0.0
 34
0.0
 15
0.0
 25
0.0
 35
0.0
146
0.0
 13
0.0
 23
0.0
 33
0.0
 16
1.0
 26
0.0
 36
0.0
 17
0.0
 27
1.0
 37
0.0
 76
     0
330
2
  0
MLINESTYLE
  5
28
102
{ACAD_REACTORS
330
24
102
}
330
24
100
AcDbMlineStyle
  2
STANDARD
 70
     0
  3

 62
   256
 51
90.0
 52
90.0
 71
     2
 49
0.5
 62
   256
  6
BYLAYER
 49
-0.5
 62
   256
  6
BYLAYER
  0
ACDBPLACEHOLDER
  5
7
102
{ACAD_REACTORS
330
8
102
}
330
8
  0
ENDSEC
  0
EOF
