  0
SECTION
  2
HEADER
  9
$ACADVER
  1
AC1015
  9
$ACADMAINTVER
 70
    20
  9
$DWGCODEPAGE
  3
ANSI_1252
  9
$INSBASE
 10
0.0
 20
0.0
 30
0.0
  9
$EXTMIN
 10
180.6671463687289
 20
-18.05402292414487
 30
-0.0015258207003583
  9
$EXTMAX
 10
380.748780431632
 20
251.9783636991897
 30
0.0000000349246037
  9
$LIMMIN
 10
0.0
 20
0.0
  9
$LIMMAX
 10
594.0
 20
420.0
  9
$ORTHOMODE
 70
     1
  9
$REGENMODE
 70
     1
  9
$FILLMODE
 70
     1
  9
$QTEXTMODE
 70
     0
  9
$MIRRTEXT
 70
     0
  9
$LTSCALE
 40
32.67
  9
$ATTMODE
 70
     1
  9
$TEXTSIZE
 40
0.2
  9
$TRACEWID
 40
0.05
  9
$TEXTSTYLE
  7
Standard
  9
$CLAYER
  8
0
  9
$CELTYPE
  6
ByLayer
  9
$CECOLOR
 62
   256
  9
$CELTSCALE
 40
1.0
  9
$DISPSILH
 70
     0
  9
$DIMSCALE
 40
1.0
  9
$DIMASZ
 40
3.5
  9
$DIMEXO
 40
3.712499999999999
  9
$DIMDLI
 40
22.572
  9
$DIMRND
 40
0.0
  9
$DIMDLE
 40
0.0
  9
$DIMEXE
 40
10.692
  9
$DIMTP
 40
0.0
  9
$DIMTM
 40
0.0
  9
$DIMTXT
 40
0.18
  9
$DIMCEN
 40
5.346
  9
$DIMTSZ
 40
0.0
  9
$DIMTOL
 70
     0
  9
$DIMLIM
 70
     0
  9
$DIMTIH
 70
     1
  9
$DIMTOH
 70
     1
  9
$DIMSE1
 70
     0
  9
$DIMSE2
 70
     0
  9
$DIMTAD
 70
     0
  9
$DIMZIN
 70
     0
  9
$DIMBLK
  1

  9
$DIMASO
 70
     1
  9
$DIMSHO
 70
     1
  9
$DIMPOST
  1

  9
$DIMAPOST
  1

  9
$DIMALT
 70
     0
  9
$DIMALTD
 70
     2
  9
$DIMALTF
 40
25.4
  9
$DIMLFAC
 40
1.0
  9
$DIMTOFL
 70
     0
  9
$DIMTVP
 40
0.0
  9
$DIMTIX
 70
     0
  9
$DIMSOXD
 70
     0
  9
$DIMSAH
 70
     0
  9
$DIMBLK1
  1

  9
$DIMBLK2
  1

  9
$DIMSTYLE
  2
Standard
  9
$DIMCLRD
 70
     0
  9
$DIMCLRE
 70
     0
  9
$DIMCLRT
 70
     0
  9
$DIMTFAC
 40
1.0
  9
$DIMGAP
 40
0.09
  9
$DIMJUST
 70
     0
  9
$DIMSD1
 70
     0
  9
$DIMSD2
 70
     0
  9
$DIMTOLJ
 70
     1
  9
$DIMTZIN
 70
     0
  9
$DIMALTZ
 70
     0
  9
$DIMALTTZ
 70
     0
  9
$DIMUPT
 70
     0
  9
$DIMDEC
 70
     4
  9
$DIMTDEC
 70
     4
  9
$DIMALTU
 70
     2
  9
$DIMALTTD
 70
     2
  9
$DIMTXSTY
  7
Standard
  9
$DIMAUNIT
 70
     0
  9
$DIMADEC
 70
     0
  9
$DIMALTRND
 40
0.0
  9
$DIMAZIN
 70
     0
  9
$DIMDSEP
 70
    46
  9
$DIMATFIT
 70
     3
  9
$DIMFRAC
 70
     0
  9
$DIMLDRBLK
  1

  9
$DIMLUNIT
 70
     2
  9
$DIMLWD
 70
    -2
  9
$DIMLWE
 70
    -2
  9
$DIMTMOVE
 70
     0
  9
$LUNITS
 70
     2
  9
$LUPREC
 70
     4
  9
$SKETCHINC
 40
0.1
  9
$FILLETRAD
 40
0.0
  9
$AUNITS
 70
     0
  9
$AUPREC
 70
     0
  9
$MENU
  1
.
  9
$ELEVATION
 40
0.0
  9
$PELEVATION
 40
0.0
  9
$THICKNESS
 40
0.0
  9
$LIMCHECK
 70
     0
  9
$CHAMFERA
 40
0.0
  9
$CHAMFERB
 40
0.0
  9
$CHAMFERC
 40
0.0
  9
$CHAMFERD
 40
0.0
  9
$SKPOLY
 70
     0
  9
$TDCREATE
 40
2452842.552045173
  9
$TDUCREATE
 40
2452842.468711840
  9
$TDUPDATE
 40
2453944.583376447
  9
$TDUUPDATE
 40
2453944.500043113
  9
$TDINDWG
 40
1.3314508565
  9
$TDUSRTIMER
 40
1.3314442708
  9
$USRTIMER
 70
     1
  9
$ANGBASE
 50
0.0
  9
$ANGDIR
 70
     0
  9
$PDMODE
 70
     0
  9
$PDSIZE
 40
0.0
  9
$PLINEWID
 40
0.0
  9
$SPLFRAME
 70
     0
  9
$SPLINETYPE
 70
     6
  9
$SPLINESEGS
 70
     8
  9
$HANDSEED
  5
17BEE
  9
$SURFTAB1
 70
     6
  9
$SURFTAB2
 70
     6
  9
$SURFTYPE
 70
     6
  9
$SURFU
 70
     6
  9
$SURFV
 70
     6
  9
$UCSBASE
  2

  9
$UCSNAME
  2

  9
$UCSORG
 10
0.0
 20
0.0
 30
0.0
  9
$UCSXDIR
 10
1.0
 20
0.0
 30
0.0
  9
$UCSYDIR
 10
0.0
 20
1.0
 30
0.0
  9
$UCSORTHOREF
  2

  9
$UCSORTHOVIEW
 70
     0
  9
$UCSORGTOP
 10
0.0
 20
0.0
 30
0.0
  9
$UCSORGBOTTOM
 10
0.0
 20
0.0
 30
0.0
  9
$UCSORGLEFT
 10
0.0
 20
0.0
 30
0.0
  9
$UCSORGRIGHT
 10
0.0
 20
0.0
 30
0.0
  9
$UCSORGFRONT
 10
0.0
 20
0.0
 30
0.0
  9
$UCSORGBACK
 10
0.0
 20
0.0
 30
0.0
  9
$PUCSBASE
  2

  9
$PUCSNAME
  2

  9
$PUCSORG
 10
0.0
 20
0.0
 30
0.0
  9
$PUCSXDIR
 10
1.0
 20
0.0
 30
0.0
  9
$PUCSYDIR
 10
0.0
 20
1.0
 30
0.0
  9
$PUCSORTHOREF
  2

  9
$PUCSORTHOVIEW
 70
     0
  9
$PUCSORGTOP
 10
0.0
 20
0.0
 30
0.0
  9
$PUCSORGBOTTOM
 10
0.0
 20
0.0
 30
0.0
  9
$PUCSORGLEFT
 10
0.0
 20
0.0
 30
0.0
  9
$PUCSORGRIGHT
 10
0.0
 20
0.0
 30
0.0
  9
$PUCSORGFRONT
 10
0.0
 20
0.0
 30
0.0
  9
$PUCSORGBACK
 10
0.0
 20
0.0
 30
0.0
  9
$USERI1
 70
     0
  9
$USERI2
 70
     0
  9
$USERI3
 70
     0
  9
$USERI4
 70
     0
  9
$USERI5
 70
     0
  9
$USERR1
 40
0.0
  9
$USERR2
 40
0.0
  9
$USERR3
 40
0.0
  9
$USERR4
 40
0.0
  9
$USERR5
 40
0.0
  9
$WORLDVIEW
 70
     1
  9
$SHADEDGE
 70
     3
  9
$SHADEDIF
 70
    70
  9
$TILEMODE
 70
     1
  9
$MAXACTVP
 70
    64
  9
$PINSBASE
 10
0.0
 20
0.0
 30
0.0
  9
$PLIMCHECK
 70
     0
  9
$PEXTMIN
 10
1.000000000000000E+20
 20
1.000000000000000E+20
 30
1.000000000000000E+20
  9
$PEXTMAX
 10
-1.000000000000000E+20
 20
-1.000000000000000E+20
 30
-1.000000000000000E+20
  9
$PLIMMIN
 10
0.0
 20
0.0
  9
$PLIMMAX
 10
12.0
 20
9.0
  9
$UNITMODE
 70
     0
  9
$VISRETAIN
 70
     1
  9
$PLINEGEN
 70
     0
  9
$PSLTSCALE
 70
     1
  9
$TREEDEPTH
 70
  3020
  9
$CMLSTYLE
  2
Standard
  9
$CMLJUST
 70
     0
  9
$CMLSCALE
 40
1.0
  9
$PROXYGRAPHICS
 70
     1
  9
$MEASUREMENT
 70
     0
  9
$CELWEIGHT
370
    -1
  9
$ENDCAPS
280
     0
  9
$JOINSTYLE
280
     0
  9
$LWDISPLAY
290
     0
  9
$INSUNITS
 70
     0
  9
$HYPERLINKBASE
  1

  9
$STYLESHEET
  1
monochrome.ctb
  9
$XEDIT
290
     1
  9
$CEPSNTYPE
380
     0
  9
$PSTYLEMODE
290
     1
  9
$FINGERPRINTGUID
  2
{120036CA-264F-4224-96F9-35913E457107}
  9
$VERSIONGUID
  2
{47ED1D54-0864-49DE-B24E-6081875CBD31}
  9
$EXTNAMES
290
     1
  9
$PSVPSCALE
 40
0.0
  9
$OLESTARTUP
290
     0
  0
ENDSEC
  0
SECTION
  2
CLASSES
  0
CLASS
  1
ACDBDICTIONARYWDFLT
  2
AcDbDictionaryWithDefault
  3
ObjectDBX Classes
 90
        0
280
     0
281
     0
  0
CLASS
  1
DICTIONARYVAR
  2
AcDbDictionaryVar
  3
ObjectDBX Classes
 90
        0
280
     0
281
     0
  0
CLASS
  1
ACDBPLACEHOLDER
  2
AcDbPlaceHolder
  3
ObjectDBX Classes
 90
        0
280
     0
281
     0
  0
CLASS
  1
LAYOUT
  2
AcDbLayout
  3
ObjectDBX Classes
 90
        0
280
     0
281
     0
  0
CLASS
  1
MATERIAL
  2
AcDbMaterial
  3
ObjectDBX Classes
 90
     1024
280
     0
281
     0
  0
CLASS
  1
VISUALSTYLE
  2
AcDbVisualStyle
  3
ObjectDBX Classes
 90
     4095
280
     0
281
     0
  0
CLASS
  1
TABLESTYLE
  2
AcDbTableStyle
  3
ObjectDBX Classes
 90
     4095
280
     0
281
     0
  0
CLASS
  1
SORTENTSTABLE
  2
AcDbSortentsTable
  3
ObjectDBX Classes
 90
        0
280
     0
281
     0
  0
ENDSEC
  0
SECTION
  2
TABLES
  0
TABLE
  2
VPORT
  5
8
330
0
100
AcDbSymbolTable
 70
     1
  0
VPORT
  5
17BAE
330
8
100
AcDbSymbolTableRecord
100
AcDbViewportTableRecord
  2
*Active
 70
     0
 10
0.0
 20
0.0
 11
1.0
 21
1.0
 12
280.7079634001805
 22
116.9621703875224
 13
0.0
 23
0.0
 14
1.0
 24
1.0
 15
0.0
 25
0.0
 16
0.0
 26
0.0
 36
1.0
 17
0.0
 27
0.0
 37
0.0
 40
271.6992532074292
 41
1.918640576725025
 42
50.0
 43
0.0
 44
0.0
 50
0.0
 51
0.0
 71
     0
 72
   100
 73
     1
 74
     1
 75
     0
 76
     0
 77
     0
 78
     0
281
     0
 65
     1
110
0.0
120
0.0
130
0.0
111
1.0
121
0.0
131
0.0
112
0.0
122
1.0
132
0.0
 79
     0
146
0.0
  0
ENDTAB
  0
TABLE
  2
LTYPE
  5
5
330
0
100
AcDbSymbolTable
 70
     3
  0
LTYPE
  5
13
330
5
100
AcDbSymbolTableRecord
100
AcDbLinetypeTableRecord
  2
ByBlock
 70
     0
  3

 72
    65
 73
     0
 40
0.0
  0
LTYPE
  5
14
330
5
100
AcDbSymbolTableRecord
100
AcDbLinetypeTableRecord
  2
ByLayer
 70
     0
  3

 72
    65
 73
     0
 40
0.0
  0
LTYPE
  5
15
330
5
100
AcDbSymbolTableRecord
100
AcDbLinetypeTableRecord
  2
CONTINUOUS
 70
     0
  3
Solid line
 72
    65
 73
     0
 40
0.0
  0
LTYPE
  5
26
330
5
100
AcDbSymbolTableRecord
100
AcDbLinetypeTableRecord
  2
CENTER
 70
     0
  3
____ _ ____ _ ____ _ ____ _ ____ _ ____ _ ____
 72
    65
 73
     4
 40
0.6
 49
0.375
 74
     0
 49
-0.075
 74
     0
 49
0.075
 74
     0
 49
-0.075
 74
     0
  0
ENDTAB
  0
TABLE
  2
LAYER
  5
2
330
0
100
AcDbSymbolTable
 70
     6
  0
LAYER
  5
10
330
2
100
AcDbSymbolTableRecord
100
AcDbLayerTableRecord
  2
0
 70
     0
 62
     7
  6
CONTINUOUS
370
    -3
390
F
  0
LAYER
  5
2E
330
2
100
AcDbSymbolTableRecord
100
AcDbLayerTableRecord
  2
10000_FRONT
 70
     0
 62
     7
  6
CONTINUOUS
370
    -3
390
F
  0
LAYER
  5
2F
330
2
100
AcDbSymbolTableRecord
100
AcDbLayerTableRecord
  2
10100_FRONT_DIM
 70
     0
 62
     7
  6
CONTINUOUS
370
    -3
390
F
  0
LAYER
  5
3A
330
2
100
AcDbSymbolTableRecord
100
AcDbLayerTableRecord
  2
90000_FRAME
 70
     0
 62
     7
  6
CONTINUOUS
370
    -3
390
F
  0
LAYER
  5
3B
330
2
100
AcDbSymbolTableRecord
100
AcDbLayerTableRecord
  2
91000_TIP
 70
     0
 62
     7
  6
CONTINUOUS
370
    -3
390
F
  0
LAYER
  5
131D9
330
2
100
AcDbSymbolTableRecord
100
AcDbLayerTableRecord
  2
DEFPOINTS
 70
     0
 62
     7
  6
CONTINUOUS
290
     0
370
    -3
390
F
  0
ENDTAB
  0
TABLE
  2
STYLE
  5
3
330
0
100
AcDbSymbolTable
 70
     1
  0
STYLE
  5
11
330
3
100
AcDbSymbolTableRecord
100
AcDbTextStyleTableRecord
  2
Standard
 70
     0
 40
0.0
 41
1.0
 50
0.0
 71
     0
 42
0.2
  3
txt
  4

  0
ENDTAB
  0
TABLE
  2
VIEW
  5
6
330
0
100
AcDbSymbolTable
 70
     0
  0
ENDTAB
  0
TABLE
  2
UCS
  5
7
330
0
100
AcDbSymbolTable
 70
     0
  0
ENDTAB
  0
TABLE
  2
APPID
  5
9
330
0
100
AcDbSymbolTable
 70
     2
  0
APPID
  5
12
330
9
100
AcDbSymbolTableRecord
100
AcDbRegAppTableRecord
  2
ACAD
 70
     0
  0
APPID
  5
17BD5
330
9
100
AcDbSymbolTableRecord
100
AcDbRegAppTableRecord
  2
ACAD_EXEMPT_FROM_CAD_STANDARDS
 70
     0
  0
ENDTAB
  0
TABLE
  2
DIMSTYLE
  5
A
330
0
100
AcDbSymbolTable
 70
     3
100
AcDbDimStyleTable
 71
     2
340
13123
340
131DD
  0
DIMSTYLE
105
13123
330
A
100
AcDbSymbolTableRecord
100
AcDbDimStyleTableRecord
  2
Standard
 70
     0
340
11
  0
DIMSTYLE
105
131DD
102
{ACAD_REACTORS
330
147F0
330
147F1
330
176AA
330
179A2
330
17A3E
102
}
330
A
100
AcDbSymbolTableRecord
100
AcDbDimStyleTableRecord
  2
DSTYLE1
 70
     0
 41
3.0
 42
0.0
 44
1.0
 73
     0
 74
     0
 77
     1
 78
     3
140
2.5
143
0.039370079
147
1.0
271
     3
272
     3
274
     0
279
     2
340
11
  0
ENDTAB
  0
TABLE
  2
BLOCK_RECORD
  5
1
330
0
100
AcDbSymbolTable
 70
     7
  0
BLOCK_RECORD
  5
20
102
{ACAD_XDICTIONARY
360
17BD2
102
}
330
1
100
AcDbSymbolTableRecord
100
AcDbBlockTableRecord
  2
*Model_Space
340
23
  0
BLOCK_RECORD
  5
1C
330
1
100
AcDbSymbolTableRecord
100
AcDbBlockTableRecord
  2
*Paper_Space
340
1F
  0
BLOCK_RECORD
  5
1316D
330
1
100
AcDbSymbolTableRecord
100
AcDbBlockTableRecord
  2
SIEMENS_OUTLINE_BL0
340
0
102
{BLKREFS
331
13306
102
}
  0
BLOCK_RECORD
  5
147F4
330
1
100
AcDbSymbolTableRecord
100
AcDbBlockTableRecord
  2
*D1
340
0
  0
BLOCK_RECORD
  5
14801
330
1
100
AcDbSymbolTableRecord
100
AcDbBlockTableRecord
  2
*D2
340
0
  0
BLOCK_RECORD
  5
176AB
330
1
100
AcDbSymbolTableRecord
100
AcDbBlockTableRecord
  2
*D3
340
0
  0
BLOCK_RECORD
  5
17A3F
330
1
100
AcDbSymbolTableRecord
100
AcDbBlockTableRecord
  2
*D4
340
0
  0
BLOCK_RECORD
  5
17A4C
330
1
100
AcDbSymbolTableRecord
100
AcDbBlockTableRecord
  2
*D5
340
0
  0
ENDTAB
  0
ENDSEC
  0
SECTION
  2
BLOCKS
  0
BLOCK
  5
21
330
20
100
AcDbEntity
  8
0
100
AcDbBlockBegin
  2
*Model_Space
 70
     0
 10
0.0
 20
0.0
 30
0.0
  3
*Model_Space
  1

  0
ENDBLK
  5
22
330
20
100
AcDbEntity
  8
0
100
AcDbBlockEnd
  0
BLOCK
  5
1D
330
1C
100
AcDbEntity
 67
     1
  8
0
100
AcDbBlockBegin
  2
*Paper_Space
 70
     0
 10
0.0
 20
0.0
 30
0.0
  3
*Paper_Space
  1

  0
ENDBLK
  5
1E
330
1C
100
AcDbEntity
 67
     1
  8
0
100
AcDbBlockEnd
  0
BLOCK
  5
1316E
330
1316D
100
AcDbEntity
  8
0
  6
Continuous
 62
     7
100
AcDbBlockBegin
  2
SIEMENS_OUTLINE_BL0
 70
     0
 10
0.0
 20
0.0
 30
0.0
  3
SIEMENS_OUTLINE_BL0
  1

  0
LINE
  5
1316F
330
1316D
100
AcDbEntity
  8
0
  6
Continuous
 62
     7
100
AcDbLine
 10
79.186200508
 20
21.4145478991
 30
0.0
 11
79.186200508
 21
16.6612788158
 31
0.0
  0
LINE
  5
13170
330
1316D
100
AcDbEntity
  8
0
  6
Continuous
 62
     7
100
AcDbLine
 10
80.61218123299999
 20
21.4145478991
 30
0.0
 11
80.61218123299999
 21
16.6612788158
 31
0.0
  0
LINE
  5
13171
330
1316D
100
AcDbEntity
  8
0
  6
Continuous
 62
     7
100
AcDbLine
 10
79.186200508
 20
16.6612788158
 30
0.0
 11
80.61218123299999
 21
16.6612788158
 31
0.0
  0
LINE
  5
13172
330
1316D
100
AcDbEntity
  8
0
  6
Continuous
 62
     7
100
AcDbLine
 10
79.186200508
 20
21.4145478991
 30
0.0
 11
80.61218123299999
 21
21.4145478991
 31
0.0
  0
LINE
  5
13173
330
1316D
100
AcDbEntity
  8
0
  6
Continuous
 62
     7
100
AcDbLine
 10
81.7054331221
 20
21.4145478991
 30
0.0
 11
81.7054331221
 21
16.6612788158
 31
0.0
  0
LINE
  5
13174
330
1316D
100
AcDbEntity
  8
0
  6
Continuous
 62
     7
100
AcDbLine
 10
81.7054331221
 20
16.6612788158
 30
0.0
 11
85.2703849346
 21
16.6612788158
 31
0.0
  0
LINE
  5
13175
330
1316D
100
AcDbEntity
  8
0
  6
Continuous
 62
     7
100
AcDbLine
 10
85.2703849346
 20
17.5643999417
 30
0.0
 11
83.0838811563
 21
17.5643999417
 31
0.0
  0
LINE
  5
13176
330
1316D
100
AcDbEntity
  8
0
  6
Continuous
 62
     7
100
AcDbLine
 10
85.2703849346
 20
17.5643999417
 30
0.0
 11
85.2703849346
 21
16.6612788158
 31
0.0
  0
LINE
  5
13177
330
1316D
100
AcDbEntity
  8
0
  6
Continuous
 62
     7
100
AcDbLine
 10
85.2228522438
 20
21.4145478991
 30
0.0
 11
81.7054331221
 21
21.4145478991
 31
0.0
  0
LINE
  5
13178
330
1316D
100
AcDbEntity
  8
0
  6
Continuous
 62
     7
100
AcDbLine
 10
85.2228522438
 20
20.5351931187
 30
0.0
 11
83.0838811563
 21
20.5351931187
 31
0.0
  0
LINE
  5
13179
330
1316D
100
AcDbEntity
  8
0
  6
Continuous
 62
     7
100
AcDbLine
 10
85.2228522438
 20
21.4145478991
 30
0.0
 11
85.2228522438
 21
20.5351931187
 31
0.0
  0
LINE
  5
1317A
330
1316D
100
AcDbEntity
  8
0
  6
Continuous
 62
     7
100
AcDbLine
 10
84.9376560988
 20
18.68141817619999
 30
0.0
 11
83.0838811563
 21
18.68141817619999
 31
0.0
  0
LINE
  5
1317B
330
1316D
100
AcDbEntity
  8
0
  6
Continuous
 62
     7
100
AcDbLine
 10
84.9376560988
 20
19.465707575
 30
0.0
 11
84.9376560988
 21
18.68141817619999
 31
0.0
  0
LINE
  5
1317C
330
1316D
100
AcDbEntity
  8
0
  6
Continuous
 62
     7
100
AcDbLine
 10
84.9376560988
 20
19.465707575
 30
0.0
 11
83.0838811563
 21
19.465707575
 31
0.0
  0
LINE
  5
1317D
330
1316D
100
AcDbEntity
  8
0
  6
Continuous
 62
     7
100
AcDbLine
 10
83.0838811563
 20
20.5351931187
 30
0.0
 11
83.0838811563
 21
19.465707575
 31
0.0
  0
LINE
  5
1317E
330
1316D
100
AcDbEntity
  8
0
  6
Continuous
 62
     7
100
AcDbLine
 10
83.0838811563
 20
18.68141817619999
 30
0.0
 11
83.0838811563
 21
17.5643999417
 31
0.0
  0
LINE
  5
1317F
330
1316D
100
AcDbEntity
  8
0
  6
Continuous
 62
     7
100
AcDbLine
 10
86.0784406788
 20
16.6612788158
 30
0.0
 11
86.0784406788
 21
21.4145478991
 31
0.0
  0
LINE
  5
13180
330
1316D
100
AcDbEntity
  8
0
  6
Continuous
 62
     7
100
AcDbLine
 10
86.0784406788
 20
16.6612788158
 30
0.0
 11
87.02909449539999
 21
16.6612788158
 31
0.0
  0
LINE
  5
13181
330
1316D
100
AcDbEntity
  8
0
  6
Continuous
 62
     7
100
AcDbLine
 10
91.92496165120001
 20
21.4145478991
 30
0.0
 11
91.92496165120001
 21
16.6612788158
 31
0.0
  0
LINE
  5
13182
330
1316D
100
AcDbEntity
  8
0
  6
Continuous
 62
     7
100
AcDbLine
 10
91.92496165120001
 20
16.6612788158
 30
0.0
 11
90.54651361700001
 21
16.6612788158
 31
0.0
  0
LINE
  5
13183
330
1316D
100
AcDbEntity
  8
0
  6
Continuous
 62
     7
100
AcDbLine
 10
88.3600098387
 20
16.613746125
 30
0.0
 11
89.21559827370002
 21
16.613746125
 31
0.0
  0
LINE
  5
13184
330
1316D
100
AcDbEntity
  8
0
  6
Continuous
 62
     7
100
AcDbLine
 10
88.3600098387
 20
16.613746125
 30
0.0
 11
87.02909449539999
 21
19.7033710291
 31
0.0
  0
LINE
  5
13185
330
1316D
100
AcDbEntity
  8
0
  6
Continuous
 62
     7
100
AcDbLine
 10
87.02909449539999
 20
16.6612788158
 30
0.0
 11
87.02909449539999
 21
19.7033710291
 31
0.0
  0
LINE
  5
13186
330
1316D
100
AcDbEntity
  8
0
  6
Continuous
 62
     7
100
AcDbLine
 10
90.54651361700001
 20
19.75090372
 30
0.0
 11
89.21559827370002
 21
16.613746125
 31
0.0
  0
LINE
  5
13187
330
1316D
100
AcDbEntity
  8
0
  6
Continuous
 62
     7
100
AcDbLine
 10
87.78961754870001
 20
21.4145478991
 30
0.0
 11
86.0784406788
 21
21.4145478991
 31
0.0
  0
LINE
  5
13188
330
1316D
100
AcDbEntity
  8
0
  6
Continuous
 62
     7
100
AcDbLine
 10
91.92496165120001
 20
21.4145478991
 30
0.0
 11
90.2137847812
 21
21.4145478991
 31
0.0
  0
LINE
  5
13189
330
1316D
100
AcDbEntity
  8
0
  6
Continuous
 62
     7
100
AcDbLine
 10
87.78961754870001
 20
21.4145478991
 30
0.0
 11
89.0254675104
 21
18.5150537583
 31
0.0
  0
LINE
  5
1318A
330
1316D
100
AcDbEntity
  8
0
  6
Continuous
 62
     7
100
AcDbLine
 10
90.2137847812
 20
21.4145478991
 30
0.0
 11
89.0254675104
 21
18.5150537583
 31
0.0
  0
LINE
  5
1318B
330
1316D
100
AcDbEntity
  8
0
  6
Continuous
 62
     7
100
AcDbLine
 10
90.54651361700001
 20
19.75090372
 30
0.0
 11
90.54651361700001
 21
16.6612788158
 31
0.0
  0
LINE
  5
1318C
330
1316D
100
AcDbEntity
  8
0
  6
Continuous
 62
     7
100
AcDbLine
 10
93.01821354030002
 20
21.4145478991
 30
0.0
 11
93.01821354030002
 21
16.6612788158
 31
0.0
  0
LINE
  5
1318D
330
1316D
100
AcDbEntity
  8
0
  6
Continuous
 62
     7
100
AcDbLine
 10
93.01821354030002
 20
16.6612788158
 30
0.0
 11
96.5831653528
 21
16.6612788158
 31
0.0
  0
LINE
  5
1318E
330
1316D
100
AcDbEntity
  8
0
  6
Continuous
 62
     7
100
AcDbLine
 10
96.5831653528
 20
17.5643999417
 30
0.0
 11
94.3966615745
 21
17.5643999417
 31
0.0
  0
LINE
  5
1318F
330
1316D
100
AcDbEntity
  8
0
  6
Continuous
 62
     7
100
AcDbLine
 10
96.5831653528
 20
17.5643999417
 30
0.0
 11
96.5831653528
 21
16.6612788158
 31
0.0
  0
LINE
  5
13190
330
1316D
100
AcDbEntity
  8
0
  6
Continuous
 62
     7
100
AcDbLine
 10
96.53563266200002
 20
21.4145478991
 30
0.0
 11
93.01821354030002
 21
21.4145478991
 31
0.0
  0
LINE
  5
13191
330
1316D
100
AcDbEntity
  8
0
  6
Continuous
 62
     7
100
AcDbLine
 10
96.53563266200002
 20
20.5351931187
 30
0.0
 11
94.3966615745
 21
20.5351931187
 31
0.0
  0
LINE
  5
13192
330
1316D
100
AcDbEntity
  8
0
  6
Continuous
 62
     7
100
AcDbLine
 10
96.53563266200002
 20
21.4145478991
 30
0.0
 11
96.53563266200002
 21
20.5351931187
 31
0.0
  0
LINE
  5
13193
330
1316D
100
AcDbEntity
  8
0
  6
Continuous
 62
     7
100
AcDbLine
 10
96.25043651700002
 20
18.68141817619999
 30
0.0
 11
94.3966615745
 21
18.68141817619999
 31
0.0
  0
LINE
  5
13194
330
1316D
100
AcDbEntity
  8
0
  6
Continuous
 62
     7
100
AcDbLine
 10
96.25043651700002
 20
19.465707575
 30
0.0
 11
96.25043651700002
 21
18.68141817619999
 31
0.0
  0
LINE
  5
13195
330
1316D
100
AcDbEntity
  8
0
  6
Continuous
 62
     7
100
AcDbLine
 10
96.25043651700002
 20
19.465707575
 30
0.0
 11
94.3966615745
 21
19.465707575
 31
0.0
  0
LINE
  5
13196
330
1316D
100
AcDbEntity
  8
0
  6
Continuous
 62
     7
100
AcDbLine
 10
94.3966615745
 20
20.5351931187
 30
0.0
 11
94.3966615745
 21
19.465707575
 31
0.0
  0
LINE
  5
13197
330
1316D
100
AcDbEntity
  8
0
  6
Continuous
 62
     7
100
AcDbLine
 10
94.3966615745
 20
18.68141817619999
 30
0.0
 11
94.3966615745
 21
17.5643999417
 31
0.0
  0
LINE
  5
13198
330
1316D
100
AcDbEntity
  8
0
  6
Continuous
 62
     7
100
AcDbLine
 10
97.3674547515
 20
16.6612788158
 30
0.0
 11
97.3674547515
 21
21.4145478991
 31
0.0
  0
LINE
  5
13199
330
1316D
100
AcDbEntity
  8
0
  6
Continuous
 62
     7
100
AcDbLine
 10
101.5503315448
 20
21.4145478991
 30
0.0
 11
101.5503315448
 21
16.6612788158
 31
0.0
  0
LINE
  5
1319A
330
1316D
100
AcDbEntity
  8
0
  6
Continuous
 62
     7
100
AcDbLine
 10
97.3674547515
 20
16.6612788158
 30
0.0
 11
98.3181085682
 21
16.6612788158
 31
0.0
  0
LINE
  5
1319B
330
1316D
100
AcDbEntity
  8
0
  6
Continuous
 62
     7
100
AcDbLine
 10
101.5503315448
 20
21.4145478991
 30
0.0
 11
100.5996777282
 21
21.4145478991
 31
0.0
  0
LINE
  5
1319C
330
1316D
100
AcDbEntity
  8
0
  6
Continuous
 62
     7
100
AcDbLine
 10
98.91226720360002
 20
21.4145478991
 30
0.0
 11
97.3674547515
 21
21.4145478991
 31
0.0
  0
LINE
  5
1319D
330
1316D
100
AcDbEntity
  8
0
  6
Continuous
 62
     7
100
AcDbLine
 10
101.5503315448
 20
16.6612788158
 30
0.0
 11
100.0292854382
 21
16.6612788158
 31
0.0
  0
LINE
  5
1319E
330
1316D
100
AcDbEntity
  8
0
  6
Continuous
 62
     7
100
AcDbLine
 10
100.0292854382
 20
16.6612788158
 30
0.0
 11
98.3181085682
 21
19.7033710291
 31
0.0
  0
LINE
  5
1319F
330
1316D
100
AcDbEntity
  8
0
  6
Continuous
 62
     7
100
AcDbLine
 10
98.91226720360002
 20
21.4145478991
 30
0.0
 11
100.5996777282
 21
18.4675210675
 31
0.0
  0
LINE
  5
131A0
330
1316D
100
AcDbEntity
  8
0
  6
Continuous
 62
     7
100
AcDbLine
 10
100.5996777282
 20
21.4145478991
 30
0.0
 11
100.5996777282
 21
18.4675210675
 31
0.0
  0
LINE
  5
131A1
330
1316D
100
AcDbEntity
  8
0
  6
Continuous
 62
     7
100
AcDbLine
 10
98.3181085682
 20
16.6612788158
 30
0.0
 11
98.3181085682
 21
19.7033710291
 31
0.0
  0
LINE
  5
131A2
330
1316D
100
AcDbEntity
  8
0
  6
Continuous
 62
     7
100
AcDbLine
 10
102.358387289
 20
16.7563441975
 30
0.0
 11
102.358387289
 21
17.7069980142
 31
0.0
  0
LINE
  5
131A3
330
1316D
100
AcDbEntity
  8
0
  6
Continuous
 62
     7
100
AcDbLine
 10
105.6856756473
 20
20.4163613916
 30
0.0
 11
105.6856756473
 21
21.3670152083
 31
0.0
  0
ARC
  5
131A4
330
1316D
100
AcDbEntity
  8
0
  6
Continuous
 62
     7
100
AcDbCircle
 10
104.063028414
 20
18.6184373609
 30
0.0
 40
1.111619360599997
100
AcDbArc
 50
277.7099956934
 51
295.6884927746
  0
ARC
  5
131A5
330
1316D
100
AcDbEntity
  8
0
  6
Continuous
 62
     7
100
AcDbCircle
 10
104.3473383967
 20
17.8936115972
 30
0.0
 40
0.3401689265
100
AcDbArc
 50
305.503221255
 51
72.46528985229999
  0
ARC
  5
131A6
330
1316D
100
AcDbEntity
  8
0
  6
Continuous
 62
     7
100
AcDbCircle
 10
103.7813445886
 20
21.2953185068
 30
0.0
 40
4.756794641099999
100
AcDbArc
 50
252.5939200548001
 51
280.9816604256
  0
ARC
  5
131A7
330
1316D
100
AcDbEntity
  8
0
  6
Continuous
 62
     7
100
AcDbCircle
 10
104.2361799517
 20
18.6773047703
 30
0.0
 40
2.100726595299998
100
AcDbArc
 50
282.405835852
 51
311.8644433928
  0
ARC
  5
131A8
330
1316D
100
AcDbEntity
  8
0
  6
Continuous
 62
     7
100
AcDbCircle
 10
103.9626156046
 20
20.2856464918
 30
0.0
 40
0.3029626476
100
AcDbArc
 50
154.4400348282
 51
221.8201698801
  0
ARC
  5
131A9
330
1316D
100
AcDbEntity
  8
0
  6
Continuous
 62
     7
100
AcDbCircle
 10
104.0418367559
 20
20.2064253405
 30
0.0
 40
0.4103089737
100
AcDbArc
 50
102.8287828681
 51
149.2259639003
  0
ARC
  5
131AA
330
1316D
100
AcDbEntity
  8
0
  6
Continuous
 62
     7
100
AcDbCircle
 10
104.4588635916
 20
18.4640900106
 30
0.0
 40
2.201836557
100
AcDbArc
 50
84.0400061857
 51
103.3427657870999
  0
ARC
  5
131AB
330
1316D
100
AcDbEntity
  8
0
  6
Continuous
 62
     7
100
AcDbCircle
 10
104.1178997669
 20
16.0467260867
 30
0.0
 40
4.642373736499997
100
AcDbArc
 50
70.2625858546
 51
82.95241863799999
  0
ARC
  5
131AC
330
1316D
100
AcDbEntity
  8
0
  6
Continuous
 62
     7
100
AcDbCircle
 10
103.6038815647
 20
20.7183489764
 30
0.0
 40
3.258755990899997
100
AcDbArc
 50
247.5300206145
 51
280.7579522143
  0
ARC
  5
131AD
330
1316D
100
AcDbEntity
  8
0
  6
Continuous
 62
     7
100
AcDbCircle
 10
97.21891509270001
 20
2.4668290159
 30
0.0
 40
17.3316084133
100
AcDbArc
 50
65.34146746500001
 51
67.39977707359999
  0
ARC
  5
131AE
330
1316D
100
AcDbEntity
  8
0
  6
Continuous
 62
     7
100
AcDbCircle
 10
108.0147774981
 20
28.259255379
 30
0.0
 40
10.6291642039
100
AcDbArc
 50
242.8620101252001
 51
247.1042029186
  0
ARC
  5
131AF
330
1316D
100
AcDbEntity
  8
0
  6
Continuous
 62
     7
100
AcDbCircle
 10
104.1598762715
 20
20.725323882
 30
0.0
 40
2.166291629199998
100
AcDbArc
 50
227.3119280794
 51
242.7040315235
  0
ARC
  5
131B0
330
1316D
100
AcDbEntity
  8
0
  6
Continuous
 62
     7
100
AcDbCircle
 10
103.5558454619
 20
20.0196462412
 30
0.0
 40
1.238521734
100
AcDbArc
 50
194.7952194236
 51
225.7176549047
  0
ARC
  5
131B1
330
1316D
100
AcDbEntity
  8
0
  6
Continuous
 62
     7
100
AcDbCircle
 10
103.6180035961
 20
20.0598662104
 30
0.0
 40
1.309092072899999
100
AcDbArc
 50
164.1974860461
 51
195.8025139539
  0
ARC
  5
131B2
330
1316D
100
AcDbEntity
  8
0
  6
Continuous
 62
     7
100
AcDbCircle
 10
104.1750273167
 20
19.1715990505
 30
0.0
 40
2.366924815299999
100
AcDbArc
 50
86.22180229280001
 51
120.4272602309
  0
ARC
  5
131B3
330
1316D
100
AcDbEntity
  8
0
  6
Continuous
 62
     7
100
AcDbCircle
 10
103.9061705342
 20
12.4754312294
 30
0.0
 40
9.0679051661
100
AcDbArc
 50
78.68270492259998
 51
87.3147599624
  0
ARC
  5
131B4
330
1316D
100
AcDbEntity
  8
0
  6
Continuous
 62
     7
100
AcDbCircle
 10
103.4501013558
 20
20.1673739729
 30
0.0
 40
1.119747444
100
AcDbArc
 50
142.813917903
 51
167.1522951417
  0
ARC
  5
131B5
330
1316D
100
AcDbEntity
  8
0
  6
Continuous
 62
     7
100
AcDbCircle
 10
103.7954106974
 20
19.8607922762
 30
0.0
 40
1.580546684499998
100
AcDbArc
 50
121.2140948535
 51
141.5254768286
  0
ARC
  5
131B6
330
1316D
100
AcDbEntity
  8
0
  6
Continuous
 62
     7
100
AcDbCircle
 10
104.372585063
 20
20.6718496049
 30
0.0
 40
0.8661276051999998
100
AcDbArc
 50
222.7760387596
 51
239.0362434679
  0
ARC
  5
131B7
330
1316D
100
AcDbEntity
  8
0
  6
Continuous
 62
     7
100
AcDbCircle
 10
101.8658754847
 20
13.3415774063
 30
0.0
 40
6.858773576299999
100
AcDbArc
 50
59.90202725599999
 51
68.2036481279
  0
ARC
  5
131B8
330
1316D
100
AcDbEntity
  8
0
  6
Continuous
 62
     7
100
AcDbCircle
 10
105.2743699785
 20
22.2674639135
 30
0.0
 40
2.698741017099999
100
AcDbArc
 50
240.0481997804
 51
251.3779673736999
  0
ARC
  5
131B9
330
1316D
100
AcDbEntity
  8
0
  6
Continuous
 62
     7
100
AcDbCircle
 10
104.6089128117
 20
18.1105652982
 30
0.0
 40
1.4334474881
100
AcDbArc
 50
315.8904553224
 51
333.5229264373
  0
ARC
  5
131BA
330
1316D
100
AcDbEntity
  8
0
  6
Continuous
 62
     7
100
AcDbCircle
 10
104.6135510555
 20
18.057158148
 30
0.0
 40
1.406228711899998
100
AcDbArc
 50
335.3867972702
 51
24.3915119402
  0
ARC
  5
131BB
330
1316D
100
AcDbEntity
  8
0
  6
Continuous
 62
     7
100
AcDbCircle
 10
104.5413461519
 20
17.9793014562
 30
0.0
 40
1.504702514799999
100
AcDbArc
 50
25.95629166050001
 51
59.4834829668
  0
LINE
  5
131BC
330
1316D
100
AcDbEntity
  8
0
  6
Continuous
 62
     7
100
AcDbLine
 10
74.7656602606
 20
16.7563441975
 30
0.0
 11
74.7656602606
 21
17.7069980142
 31
0.0
  0
LINE
  5
131BD
330
1316D
100
AcDbEntity
  8
0
  6
Continuous
 62
     7
100
AcDbLine
 10
78.09294861879997
 20
20.4163613916
 30
0.0
 11
78.09294861879997
 21
21.3670152083
 31
0.0
  0
ARC
  5
131BE
330
1316D
100
AcDbEntity
  8
0
  6
Continuous
 62
     7
100
AcDbCircle
 10
76.4703013855
 20
18.6184373609
 30
0.0
 40
1.111619360599997
100
AcDbArc
 50
277.7099956934
 51
295.6884927746
  0
ARC
  5
131BF
330
1316D
100
AcDbEntity
  8
0
  6
Continuous
 62
     7
100
AcDbCircle
 10
76.7546113683
 20
17.8936115972
 30
0.0
 40
0.3401689265
100
AcDbArc
 50
305.5032212556
 51
72.4652898515
  0
ARC
  5
131C0
330
1316D
100
AcDbEntity
  8
0
  6
Continuous
 62
     7
100
AcDbCircle
 10
76.1886175602
 20
21.2953185068
 30
0.0
 40
4.756794641099999
100
AcDbArc
 50
252.5939200545
 51
280.9816604253
  0
ARC
  5
131C1
330
1316D
100
AcDbEntity
  8
0
  6
Continuous
 62
     7
100
AcDbCircle
 10
76.64345292330001
 20
18.6773047703
 30
0.0
 40
2.100726595299998
100
AcDbArc
 50
282.4058358513
 51
311.8644433923
  0
ARC
  5
131C2
330
1316D
100
AcDbEntity
  8
0
  6
Continuous
 62
     7
100
AcDbCircle
 10
76.3698885762
 20
20.2856464918
 30
0.0
 40
0.3029626476
100
AcDbArc
 50
154.4400348282
 51
221.8201698801
  0
ARC
  5
131C3
330
1316D
100
AcDbEntity
  8
0
  6
Continuous
 62
     7
100
AcDbCircle
 10
76.4491097276
 20
20.2064253405
 30
0.0
 40
0.4103089737
100
AcDbArc
 50
102.8287828727
 51
149.2259639027
  0
ARC
  5
131C4
330
1316D
100
AcDbEntity
  8
0
  6
Continuous
 62
     7
100
AcDbCircle
 10
76.8661365632
 20
18.4640900106
 30
0.0
 40
2.201836557
100
AcDbArc
 50
84.0400061859
 51
103.3427657872
  0
ARC
  5
131C5
330
1316D
100
AcDbEntity
  8
0
  6
Continuous
 62
     7
100
AcDbCircle
 10
76.5251727384
 20
16.0467260867
 30
0.0
 40
4.642373736499997
100
AcDbArc
 50
70.2625858546
 51
82.9524186379
  0
ARC
  5
131C6
330
1316D
100
AcDbEntity
  8
0
  6
Continuous
 62
     7
100
AcDbCircle
 10
76.0111545363
 20
20.7183489764
 30
0.0
 40
3.258755990899997
100
AcDbArc
 50
247.5300206148
 51
280.7579522145
  0
ARC
  5
131C7
330
1316D
100
AcDbEntity
  8
0
  6
Continuous
 62
     7
100
AcDbCircle
 10
69.6261880643
 20
2.4668290159
 30
0.0
 40
17.3316084133
100
AcDbArc
 50
65.34146746500001
 51
67.39977707359999
  0
ARC
  5
131C8
330
1316D
100
AcDbEntity
  8
0
  6
Continuous
 62
     7
100
AcDbCircle
 10
80.4220504697
 20
28.259255379
 30
0.0
 40
10.6291642039
100
AcDbArc
 50
242.8620101252001
 51
247.1042029185
  0
ARC
  5
131C9
330
1316D
100
AcDbEntity
  8
0
  6
Continuous
 62
     7
100
AcDbCircle
 10
76.56714924310001
 20
20.725323882
 30
0.0
 40
2.166291629199998
100
AcDbArc
 50
227.3119280794
 51
242.7040315235
  0
ARC
  5
131CA
330
1316D
100
AcDbEntity
  8
0
  6
Continuous
 62
     7
100
AcDbCircle
 10
75.9631184335
 20
20.0196462412
 30
0.0
 40
1.238521734
100
AcDbArc
 50
194.7952194234
 51
225.7176549042
  0
ARC
  5
131CB
330
1316D
100
AcDbEntity
  8
0
  6
Continuous
 62
     7
100
AcDbCircle
 10
76.58230028830002
 20
19.1715990505
 30
0.0
 40
2.366924815299999
100
AcDbArc
 50
86.22180229280001
 51
120.4272602309
  0
ARC
  5
131CC
330
1316D
100
AcDbEntity
  8
0
  6
Continuous
 62
     7
100
AcDbCircle
 10
76.3134435058
 20
12.4754312294
 30
0.0
 40
9.0679051661
100
AcDbArc
 50
78.68270492259998
 51
87.3147599624
  0
ARC
  5
131CD
330
1316D
100
AcDbEntity
  8
0
  6
Continuous
 62
     7
100
AcDbCircle
 10
76.20268366899998
 20
19.8607922762
 30
0.0
 40
1.580546684599998
100
AcDbArc
 50
121.2140948541
 51
141.525476829
  0
ARC
  5
131CE
330
1316D
100
AcDbEntity
  8
0
  6
Continuous
 62
     7
100
AcDbCircle
 10
76.7798580346
 20
20.6718496049
 30
0.0
 40
0.8661276051999998
100
AcDbArc
 50
222.7760387596
 51
239.0362434679
  0
ARC
  5
131CF
330
1316D
100
AcDbEntity
  8
0
  6
Continuous
 62
     7
100
AcDbCircle
 10
74.2731484563
 20
13.3415774063
 30
0.0
 40
6.858773576299999
100
AcDbArc
 50
59.90202725620001
 51
68.20364812820002
  0
ARC
  5
131D0
330
1316D
100
AcDbEntity
  8
0
  6
Continuous
 62
     7
100
AcDbCircle
 10
77.6816429501
 20
22.2674639135
 30
0.0
 40
2.698741017099999
100
AcDbArc
 50
240.0481997804
 51
251.3779673734
  0
ARC
  5
131D1
330
1316D
100
AcDbEntity
  8
0
  6
Continuous
 62
     7
100
AcDbCircle
 10
77.0161857833
 20
18.1105652982
 30
0.0
 40
1.4334474881
100
AcDbArc
 50
315.8904553226
 51
333.5229264375
  0
ARC
  5
131D2
330
1316D
100
AcDbEntity
  8
0
  6
Continuous
 62
     7
100
AcDbCircle
 10
77.020824027
 20
18.057158148
 30
0.0
 40
1.406228711899998
100
AcDbArc
 50
335.3867972703
 51
24.3915119403
  0
ARC
  5
131D3
330
1316D
100
AcDbEntity
  8
0
  6
Continuous
 62
     7
100
AcDbCircle
 10
76.94861912350001
 20
17.9793014562
 30
0.0
 40
1.504702514699999
100
AcDbArc
 50
25.9562916611
 51
59.4834829676
  0
LINE
  5
131D4
330
1316D
100
AcDbEntity
  8
0
  6
Continuous
 62
     7
100
AcDbLine
 10
74.9574888499
 20
20.8337423583
 30
0.0
 11
75.2315546745
 21
21.1078154358
 31
0.0
  0
ARC
  5
131D5
330
1316D
100
AcDbEntity
  8
0
  6
Continuous
 62
     7
100
AcDbCircle
 10
76.0252765676
 20
20.0598662104
 30
0.0
 40
1.309092072899999
100
AcDbArc
 50
164.1974860461
 51
195.8025139539
  0
ARC
  5
131D6
330
1316D
100
AcDbEntity
  8
0
  6
Continuous
 62
     7
100
AcDbCircle
 10
75.8573743274
 20
20.1673739729
 30
0.0
 40
1.119747444
100
AcDbArc
 50
142.813917903
 51
167.1522951417
  0
ENDBLK
  5
131D7
330
1316D
100
AcDbEntity
  8
0
100
AcDbBlockEnd
  0
BLOCK
  5
147FF
330
147F4
100
AcDbEntity
  8
0
100
AcDbBlockBegin
  2
*D1
 70
     1
 10
0.0
 20
0.0
 30
0.0
  3
*D1
  1

  0
LINE
  5
17B66
330
147F4
100
AcDbEntity
  8
10100_FRONT_DIM
  6
Continuous
 62
     0
370
    -2
100
AcDbLine
 10
260.0348045206549
 20
122.5537649002066
 30
0.0
 11
256.3191951873216
 21
122.5537649002066
 31
0.0
  0
LINE
  5
17B67
330
147F4
100
AcDbEntity
  8
10100_FRONT_DIM
  6
Continuous
 62
     0
370
    -2
100
AcDbLine
 10
273.518546520655
 20
93.5700249002067
 30
0.0
 11
256.3191951873216
 21
93.5700249002067
 31
0.0
  0
LINE
  5
17B68
330
147F4
100
AcDbEntity
  8
10100_FRONT_DIM
  6
Continuous
 62
     0
370
    -2
100
AcDbLine
 10
257.3191951873216
 20
120.5537649002066
 30
0.0
 11
257.3191951873216
 21
111.1370982335398
 31
0.0
  0
LINE
  5
17B69
330
147F4
100
AcDbEntity
  8
10100_FRONT_DIM
  6
Continuous
 62
     0
370
    -2
100
AcDbLine
 10
257.3191951873216
 20
95.5700249002067
 30
0.0
 11
257.3191951873216
 21
104.9704315668732
 31
0.0
  0
MTEXT
  5
17B6A
330
147F4
100
AcDbEntity
  8
10100_FRONT_DIM
  6
Continuous
 62
     0
370
    13
100
AcDbMText
 10
257.2701910834498
 20
108.0537649002066
 30
0.0
 40
2.5
 41
0.0
 71
     5
 72
     1
  1
\A1;29
 11
0.0000000000000001
 21
1.0
 31
0.0
 73
     1
 44
1.0
1001
ACAD
1000
MTEXTBEGIN
1070
    73
1070
     1
1070
    44
1040
1.0
1070
    74
1070
     0
1000
MTEXTEND
  0
SOLID
  5
17B6B
330
147F4
100
AcDbEntity
  8
10100_FRONT_DIM
  6
Continuous
 62
     0
100
AcDbTrace
 10
256.9858618539883
 20
120.5537649002066
 30
0.0
 11
257.6525285206549
 21
120.5537649002066
 31
0.0
 12
257.3191951873216
 22
122.5537649002066
 32
0.0
 13
257.3191951873216
 23
122.5537649002066
 33
0.0
  0
SOLID
  5
17B6C
330
147F4
100
AcDbEntity
  8
10100_FRONT_DIM
  6
Continuous
 62
     0
100
AcDbTrace
 10
256.9858618539883
 20
95.5700249002067
 30
0.0
 11
257.6525285206549
 21
95.5700249002067
 31
0.0
 12
257.3191951873216
 22
93.5700249002067
 32
0.0
 13
257.3191951873216
 23
93.5700249002067
 33
0.0
  0
POINT
  5
17B6D
330
147F4
100
AcDbEntity
  8
DEFPOINTS
  6
Continuous
 62
     0
100
AcDbPoint
 10
261.0348045206549
 20
122.5537649002066
 30
0.0
  0
POINT
  5
17B6E
330
147F4
100
AcDbEntity
  8
DEFPOINTS
  6
Continuous
 62
     0
100
AcDbPoint
 10
274.518546520655
 20
93.5700249002067
 30
0.0
  0
POINT
  5
17B6F
330
147F4
100
AcDbEntity
  8
DEFPOINTS
  6
Continuous
 62
     0
100
AcDbPoint
 10
257.3191951873216
 20
93.5700249002067
 30
0.0
  0
ENDBLK
  5
14800
330
147F4
100
AcDbEntity
  8
0
100
AcDbBlockEnd
  0
BLOCK
  5
1480C
330
14801
100
AcDbEntity
  8
0
100
AcDbBlockBegin
  2
*D2
 70
     1
 10
0.0
 20
0.0
 30
0.0
  3
*D2
  1

  0
LINE
  5
17B70
330
14801
100
AcDbEntity
  8
10100_FRONT_DIM
  6
Continuous
 62
     0
370
    -2
100
AcDbLine
 10
307.0348045206549
 20
122.5537649002066
 30
0.0
 11
313.7674765206551
 21
122.5537649002066
 31
0.0
  0
LINE
  5
17B71
330
14801
100
AcDbEntity
  8
10100_FRONT_DIM
  6
Continuous
 62
     0
370
    -2
100
AcDbLine
 10
299.034804520655
 20
102.5537649002066
 30
0.0
 11
313.7674765206551
 21
102.5537649002066
 31
0.0
  0
LINE
  5
17B72
330
14801
100
AcDbEntity
  8
10100_FRONT_DIM
  6
Continuous
 62
     0
370
    -2
100
AcDbLine
 10
312.7674765206551
 20
124.5537649002066
 30
0.0
 11
312.7674765206551
 21
126.5537649002066
 31
0.0
  0
LINE
  5
17B73
330
14801
100
AcDbEntity
  8
10100_FRONT_DIM
  6
Continuous
 62
     0
370
    -2
100
AcDbLine
 10
312.7674765206551
 20
100.5537649002066
 30
0.0
 11
312.7674765206551
 21
98.5537649002066
 31
0.0
  0
MTEXT
  5
17B74
330
14801
100
AcDbEntity
  8
10100_FRONT_DIM
  6
Continuous
 62
     0
370
    13
100
AcDbMText
 10
312.7674765206549
 20
111.7242649002065
 30
0.0
 40
2.5
 41
0.0
 71
     5
 72
     1
  1
\A1;max. 24
 11
0.0000000000000001
 21
1.0
 31
0.0
 73
     1
 44
1.0
1001
ACAD
1000
MTEXTBEGIN
1070
    73
1070
     1
1070
    44
1040
1.0
1070
    74
1070
     0
1000
MTEXTEND
  0
SOLID
  5
17B75
330
14801
100
AcDbEntity
  8
10100_FRONT_DIM
  6
Continuous
 62
     0
100
AcDbTrace
 10
312.4341431873218
 20
124.5537649002066
 30
0.0
 11
313.1008098539884
 21
124.5537649002066
 31
0.0
 12
312.7674765206551
 22
122.5537649002066
 32
0.0
 13
312.7674765206551
 23
122.5537649002066
 33
0.0
  0
SOLID
  5
17B76
330
14801
100
AcDbEntity
  8
10100_FRONT_DIM
  6
Continuous
 62
     0
100
AcDbTrace
 10
312.4341431873218
 20
100.5537649002066
 30
0.0
 11
313.1008098539884
 21
100.5537649002066
 31
0.0
 12
312.7674765206551
 22
102.5537649002066
 32
0.0
 13
312.7674765206551
 23
102.5537649002066
 33
0.0
  0
POINT
  5
17B77
330
14801
100
AcDbEntity
  8
DEFPOINTS
  6
Continuous
 62
     0
100
AcDbPoint
 10
306.0348045206549
 20
122.5537649002066
 30
0.0
  0
POINT
  5
17B78
330
14801
100
AcDbEntity
  8
DEFPOINTS
  6
Continuous
 62
     0
100
AcDbPoint
 10
298.034804520655
 20
102.5537649002066
 30
0.0
  0
POINT
  5
17B79
330
14801
100
AcDbEntity
  8
DEFPOINTS
  6
Continuous
 62
     0
100
AcDbPoint
 10
312.7674765206551
 20
102.5537649002066
 30
0.0
  0
ENDBLK
  5
1480D
330
14801
100
AcDbEntity
  8
0
100
AcDbBlockEnd
  0
BLOCK
  5
176B6
330
176AB
100
AcDbEntity
  8
0
100
AcDbBlockBegin
  2
*D3
 70
     1
 10
0.0
 20
0.0
 30
0.0
  3
*D3
  1

  0
LINE
  5
17B5C
330
176AB
100
AcDbEntity
  8
10100_FRONT_DIM
  6
Continuous
 62
     0
370
    -2
100
AcDbLine
 10
260.0348045206549
 20
122.5537649002066
 30
0.0
 11
249.4831399568762
 21
122.5537649002066
 31
0.0
  0
LINE
  5
17B5D
330
176AB
100
AcDbEntity
  8
10100_FRONT_DIM
  6
Continuous
 62
     0
370
    -2
100
AcDbLine
 10
282.0347995206549
 20
73.45376489020669
 30
0.0
 11
249.4831399568762
 21
73.45376489020669
 31
0.0
  0
LINE
  5
17B5E
330
176AB
100
AcDbEntity
  8
10100_FRONT_DIM
  6
Continuous
 62
     0
370
    -2
100
AcDbLine
 10
250.4831399568762
 20
120.5537649002066
 30
0.0
 11
250.4831399568762
 21
101.2046188580955
 31
0.0
  0
LINE
  5
17B5F
330
176AB
100
AcDbEntity
  8
10100_FRONT_DIM
  6
Continuous
 62
     0
370
    -2
100
AcDbLine
 10
250.4831399568762
 20
75.45376489020668
 30
0.0
 11
250.4831399568762
 21
95.03795219142885
 31
0.0
  0
MTEXT
  5
17B60
330
176AB
100
AcDbEntity
  8
10100_FRONT_DIM
  6
Continuous
 62
     0
370
    13
100
AcDbMText
 10
250.4831399568762
 20
98.12128552476224
 30
0.0
 40
2.5
 41
0.0
 71
     5
 72
     1
  1
\A1;49
 11
0.0000000000000001
 21
1.0
 31
0.0
 73
     1
 44
1.0
1001
ACAD
1000
MTEXTBEGIN
1070
    73
1070
     1
1070
    44
1040
1.0
1070
    74
1070
     0
1000
MTEXTEND
  0
SOLID
  5
17B61
330
176AB
100
AcDbEntity
  8
10100_FRONT_DIM
  6
Continuous
 62
     0
100
AcDbTrace
 10
250.1498066235428
 20
120.5537649002066
 30
0.0
 11
250.8164732902095
 21
120.5537649002066
 31
0.0
 12
250.4831399568762
 22
122.5537649002066
 32
0.0
 13
250.4831399568762
 23
122.5537649002066
 33
0.0
  0
SOLID
  5
17B62
330
176AB
100
AcDbEntity
  8
10100_FRONT_DIM
  6
Continuous
 62
     0
100
AcDbTrace
 10
250.1498066235428
 20
75.45376489020668
 30
0.0
 11
250.8164732902095
 21
75.45376489020668
 31
0.0
 12
250.4831399568762
 22
73.45376489020669
 32
0.0
 13
250.4831399568762
 23
73.45376489020669
 33
0.0
  0
POINT
  5
17B63
330
176AB
100
AcDbEntity
  8
DEFPOINTS
  6
Continuous
 62
     0
100
AcDbPoint
 10
261.0348045206549
 20
122.5537649002066
 30
0.0
  0
POINT
  5
17B64
330
176AB
100
AcDbEntity
  8
DEFPOINTS
  6
Continuous
 62
     0
100
AcDbPoint
 10
283.0347995206549
 20
73.45376489020669
 30
0.0
  0
POINT
  5
17B65
330
176AB
100
AcDbEntity
  8
DEFPOINTS
  6
Continuous
 62
     0
100
AcDbPoint
 10
250.4831399568762
 20
73.45376489020669
 30
0.0
  0
ENDBLK
  5
176B7
330
176AB
100
AcDbEntity
  8
0
100
AcDbBlockEnd
  0
BLOCK
  5
17A4A
330
17A3F
100
AcDbEntity
  8
0
100
AcDbBlockBegin
  2
*D4
 70
     1
 10
0.0
 20
0.0
 30
0.0
  3
*D4
  1

  0
LINE
  5
17B52
330
17A3F
100
AcDbEntity
  8
10100_FRONT_DIM
  6
Continuous
 62
     0
370
    -2
100
AcDbLine
 10
260.0348045206549
 20
122.5537649002066
 30
0.0
 11
256.3191951873216
 21
122.5537649002066
 31
0.0
  0
LINE
  5
17B53
330
17A3F
100
AcDbEntity
  8
10100_FRONT_DIM
  6
Continuous
 62
     0
370
    -2
100
AcDbLine
 10
282.5059511786326
 20
134.0518372475779
 30
0.0
 11
256.3191951873216
 21
134.0518372475779
 31
0.0
  0
LINE
  5
17B54
330
17A3F
100
AcDbEntity
  8
10100_FRONT_DIM
  6
Continuous
 62
     0
370
    -2
100
AcDbLine
 10
257.3191951873216
 20
124.5537649002066
 30
0.0
 11
257.3191951873216
 21
126.0537699002064
 31
0.0
  0
LINE
  5
17B55
330
17A3F
100
AcDbEntity
  8
10100_FRONT_DIM
  6
Continuous
 62
     0
370
    -2
100
AcDbLine
 10
257.3191951873216
 20
132.0518372475779
 30
0.0
 11
257.3191951873216
 21
130.5537699002065
 31
0.0
  0
MTEXT
  5
17B56
330
17A3F
100
AcDbEntity
  8
10100_FRONT_DIM
  6
Continuous
 62
     0
370
    13
100
AcDbMText
 10
257.4386524381456
 20
128.3037699002065
 30
0.0
 40
2.5
 41
0.0
 71
     5
 72
     1
  1
\A1;11
 11
0.0000000000000001
 21
1.0
 31
0.0
 73
     1
 44
1.0
1001
ACAD
1000
MTEXTBEGIN
1070
    73
1070
     1
1070
    44
1040
1.0
1070
    74
1070
     0
1000
MTEXTEND
  0
SOLID
  5
17B57
330
17A3F
100
AcDbEntity
  8
10100_FRONT_DIM
  6
Continuous
 62
     0
100
AcDbTrace
 10
256.9858618539882
 20
124.5537649002066
 30
0.0
 11
257.6525285206549
 21
124.5537649002066
 31
0.0
 12
257.3191951873216
 22
122.5537649002066
 32
0.0
 13
257.3191951873216
 23
122.5537649002066
 33
0.0
  0
SOLID
  5
17B58
330
17A3F
100
AcDbEntity
  8
10100_FRONT_DIM
  6
Continuous
 62
     0
100
AcDbTrace
 10
256.9858618539883
 20
132.0518372475779
 30
0.0
 11
257.6525285206549
 21
132.0518372475779
 31
0.0
 12
257.3191951873216
 22
134.0518372475779
 32
0.0
 13
257.3191951873216
 23
134.0518372475779
 33
0.0
  0
POINT
  5
17B59
330
17A3F
100
AcDbEntity
  8
DEFPOINTS
  6
Continuous
 62
     0
100
AcDbPoint
 10
261.0348045206549
 20
122.5537649002066
 30
0.0
  0
POINT
  5
17B5A
330
17A3F
100
AcDbEntity
  8
DEFPOINTS
  6
Continuous
 62
     0
100
AcDbPoint
 10
283.5059511786326
 20
134.0518372475779
 30
0.0
  0
POINT
  5
17B5B
330
17A3F
100
AcDbEntity
  8
DEFPOINTS
  6
Continuous
 62
     0
100
AcDbPoint
 10
257.3191951873216
 20
134.0518372475779
 30
0.0
  0
ENDBLK
  5
17A4B
330
17A3F
100
AcDbEntity
  8
0
100
AcDbBlockEnd
  0
BLOCK
  5
17A57
330
17A4C
100
AcDbEntity
  8
0
100
AcDbBlockBegin
  2
*D5
 70
     1
 10
0.0
 20
0.0
 30
0.0
  3
*D5
  1

  0
LINE
  5
17B8E
330
17A4C
100
AcDbEntity
  8
10100_FRONT_DIM
  6
Continuous
 62
     0
370
    -2
100
AcDbLine
 10
269.5358045206549
 20
130.3023899002067
 30
0.0
 11
269.5358045206549
 21
141.5222499002064
 31
0.0
  0
LINE
  5
17B8F
330
17A4C
100
AcDbEntity
  8
10100_FRONT_DIM
  6
Continuous
 62
     0
370
    -2
100
AcDbLine
 10
297.5338045206549
 20
130.3023899002067
 30
0.0
 11
297.5338045206549
 21
141.5222499002064
 31
0.0
  0
LINE
  5
17B90
330
17A4C
100
AcDbEntity
  8
10100_FRONT_DIM
  6
Continuous
 62
     0
370
    -2
100
AcDbLine
 10
271.5358045206549
 20
140.5222499002064
 30
0.0
 11
280.4514711873217
 21
140.5222499002064
 31
0.0
  0
LINE
  5
17B91
330
17A4C
100
AcDbEntity
  8
10100_FRONT_DIM
  6
Continuous
 62
     0
370
    -2
100
AcDbLine
 10
295.5338045206549
 20
140.5222499002064
 30
0.0
 11
286.6181378539883
 21
140.5222499002064
 31
0.0
  0
MTEXT
  5
17B92
330
17A4C
100
AcDbEntity
  8
10100_FRONT_DIM
  6
Continuous
 62
     0
370
    13
100
AcDbMText
 10
283.534804520655
 20
140.5222499002064
 30
0.0
 40
2.5
 41
0.0
 71
     5
 72
     1
  1
\A1;28
 73
     1
 44
1.0
1001
ACAD
1000
MTEXTBEGIN
1070
    73
1070
     1
1070
    44
1040
1.0
1070
    74
1070
     0
1000
MTEXTEND
  0
SOLID
  5
17B93
330
17A4C
100
AcDbEntity
  8
10100_FRONT_DIM
  6
Continuous
 62
     0
100
AcDbTrace
 10
271.5358045206549
 20
140.8555832335397
 30
0.0
 11
271.5358045206549
 21
140.188916566873
 31
0.0
 12
269.5358045206549
 22
140.5222499002064
 32
0.0
 13
269.5358045206549
 23
140.5222499002064
 33
0.0
  0
SOLID
  5
17B94
330
17A4C
100
AcDbEntity
  8
10100_FRONT_DIM
  6
Continuous
 62
     0
100
AcDbTrace
 10
295.5338045206549
 20
140.8555832335397
 30
0.0
 11
295.5338045206549
 21
140.188916566873
 31
0.0
 12
297.5338045206549
 22
140.5222499002064
 32
0.0
 13
297.5338045206549
 23
140.5222499002064
 33
0.0
  0
POINT
  5
17B95
330
17A4C
100
AcDbEntity
  8
DEFPOINTS
  6
Continuous
 62
     0
100
AcDbPoint
 10
269.5358045206549
 20
129.3023899002067
 30
0.0
  0
POINT
  5
17B96
330
17A4C
100
AcDbEntity
  8
DEFPOINTS
  6
Continuous
 62
     0
100
AcDbPoint
 10
297.5338045206549
 20
129.3023899002067
 30
0.0
  0
POINT
  5
17B97
330
17A4C
100
AcDbEntity
  8
DEFPOINTS
  6
Continuous
 62
     0
100
AcDbPoint
 10
297.5338045206549
 20
140.5222499002064
 30
0.0
  0
ENDBLK
  5
17A58
330
17A4C
100
AcDbEntity
  8
0
100
AcDbBlockEnd
  0
ENDSEC
  0
SECTION
  2
ENTITIES
  0
INSERT
  5
13306
330
20
100
AcDbEntity
  8
90000_FRAME
  6
Continuous
 62
     7
100
AcDbBlockReference
  2
SIEMENS_OUTLINE_BL0
 10
170.7053972021374
 20
-18.0406560040808
 30
0.0
  0
LINE
  5
13307
330
20
100
AcDbEntity
  8
90000_FRAME
  6
Continuous
 62
     7
100
AcDbLine
 10
235.7053972021374
 20
-8.040656004080801
 30
0.0
 11
370.7053972021374
 21
-8.040656004080801
 31
0.0
  0
LINE
  5
13308
330
20
100
AcDbEntity
  8
90000_FRAME
  6
Continuous
 62
     7
100
AcDbLine
 10
235.7053972021374
 20
-8.040656004080801
 30
0.0
 11
235.7053972021374
 21
9.959343995919198
 31
0.0
  0
LINE
  5
13309
330
20
100
AcDbEntity
  8
90000_FRAME
  6
Continuous
 62
     7
100
AcDbLine
 10
285.7053972021374
 20
-2.040656004080799
 30
0.0
 11
370.7053972021374
 21
-2.040656004080799
 31
0.0
  0
LINE
  5
1330A
330
20
100
AcDbEntity
  8
90000_FRAME
  6
Continuous
 62
     7
100
AcDbLine
 10
235.7053972021374
 20
9.959343995919198
 30
0.0
 11
370.7053972021374
 21
9.959343995919198
 31
0.0
  0
LINE
  5
1330B
330
20
100
AcDbEntity
  8
90000_FRAME
  6
Continuous
 62
     7
100
AcDbLine
 10
285.7053972021374
 20
-8.040656004080801
 30
0.0
 11
285.7053972021374
 21
9.959343995919198
 31
0.0
  0
LINE
  5
1330C
330
20
100
AcDbEntity
  8
90000_FRAME
  6
Continuous
 62
     7
100
AcDbLine
 10
328.2053972021373
 20
-8.040656004080801
 30
0.0
 11
328.2053972021373
 21
-2.040656004080799
 31
0.0
  0
LINE
  5
1330D
330
20
100
AcDbEntity
  8
90000_FRAME
  6
Continuous
 62
     7
100
AcDbLine
 10
370.7053972021374
 20
-8.040656004080801
 30
0.0
 11
370.7053972021374
 21
9.959343995919198
 31
0.0
  0
TEXT
  5
1330E
330
20
100
AcDbEntity
  8
90000_FRAME
  6
Continuous
 62
     7
100
AcDbText
 10
286.3653972021374
 20
-6.140656004080796
 30
0.0
 40
2.2
  1
Format / Size: DIN A4
 41
0.803258145363636
 72
     5
 11
319.9415876783374
 21
-6.140656004080796
 31
0.0
100
AcDbText
  0
TEXT
  5
1330F
330
20
100
AcDbEntity
  8
90000_FRAME
  6
Continuous
 62
     7
100
AcDbText
 10
328.8653972021374
 20
-6.140656004080796
 30
0.0
 40
2.2
  1
Massstab / Scale: 1:1
 41
0.7732634338148463
 72
     5
 11
359.7701591069374
 21
-6.140656004080796
 31
0.0
100
AcDbText
  0
TEXT
  5
13310
330
20
100
AcDbEntity
  8
90000_FRAME
  6
Continuous
 62
     7
100
AcDbText
 10
295.5220486858127
 20
2.209343995919198
 30
0.0
 40
3.5
  1
3SB3244_00000084_000_ALL
 41
0.7772550976628293
 72
     5
 11
355.8240900128205
 21
2.209343995919198
 31
0.0
100
AcDbText
  0
LINE
  5
13311
330
20
100
AcDbEntity
  8
90000_FRAME
  6
Continuous
 62
     7
100
AcDbLine
 10
380.7053972021374
 20
-18.0406560040808
 30
0.0
 11
180.7053972021374
 21
-18.0406560040808
 31
0.0
  0
LINE
  5
13312
330
20
100
AcDbEntity
  8
90000_FRAME
  6
Continuous
 62
     7
100
AcDbLine
 10
380.7053972021374
 20
-18.0406560040808
 30
0.0
 11
380.7053972021374
 21
251.9593439959192
 31
0.0
  0
TEXT
  5
13313
330
20
100
AcDbEntity
  8
91000_TIP
  6
Continuous
 62
     7
100
AcDbText
 10
236.2649378033692
 20
14.86607050513436
 30
0.0
 40
2.2
  1
Alle Bemassungswerte sind in Millimeter (mm) angegeben.
 41
0.8250311332499997
 72
     5
 11
324.5982711366691
 21
14.86607050513436
 31
0.0
100
AcDbText
  0
TEXT
  5
13314
330
20
100
AcDbEntity
  8
91000_TIP
  6
Continuous
 62
     7
100
AcDbText
 10
236.2649378033692
 20
11.73704810128862
 30
0.0
 40
2.2
  1
All dimensions are in millimeters (mm)
 50
360.0
 41
0.9608678382598299
 72
     5
 11
303.2053972021373
 21
11.73704810128859
 31
0.0
100
AcDbText
  0
CIRCLE
  5
13315
330
20
100
AcDbEntity
  8
91000_TIP
  6
Continuous
 62
     7
100
AcDbCircle
 10
223.5848577020511
 20
0.6694350047815476
 30
0.0
 40
2.499999948899997
  0
CIRCLE
  5
13316
330
20
100
AcDbEntity
  8
91000_TIP
  6
Continuous
 62
     7
100
AcDbCircle
 10
223.5848577020511
 20
0.6694350047815476
 30
0.0
 40
4.9999998979
  0
LINE
  5
13317
330
20
100
AcDbEntity
  8
91000_TIP
  6
CENTER
 62
     7
100
AcDbLine
 10
223.5848577020511
 20
-5.052046201618452
 30
0.0
 11
223.5848577020511
 21
6.231339798381553
 31
0.0
  0
LINE
  5
13318
330
20
100
AcDbEntity
  8
91000_TIP
  6
Continuous
 62
     7
100
AcDbLine
 10
217.0848578348511
 20
5.669434902681557
 30
0.0
 11
217.0848578348511
 21
-4.330564893118463
 31
0.0
  0
LINE
  5
13319
330
20
100
AcDbEntity
  8
91000_TIP
  6
Continuous
 62
     7
100
AcDbLine
 10
207.084858039051
 20
3.169434953681528
 30
0.0
 11
207.084858039051
 21
-1.830564944118463
 31
0.0
  0
LINE
  5
1331A
330
20
100
AcDbEntity
  8
91000_TIP
  6
Continuous
 62
     7
100
AcDbLine
 10
207.084858039051
 20
-1.830564944118463
 30
0.0
 11
217.0848578348511
 21
-4.330564893118463
 31
0.0
  0
LINE
  5
1331B
330
20
100
AcDbEntity
  8
91000_TIP
  6
CENTER
 62
     7
100
AcDbLine
 10
205.8053475670511
 20
0.6694350047815476
 30
0.0
 11
229.4073368311511
 21
0.6694350047815476
 31
0.0
  0
LINE
  5
1331C
330
20
100
AcDbEntity
  8
91000_TIP
  6
Continuous
 62
     7
100
AcDbLine
 10
207.084858039051
 20
3.169434953681528
 30
0.0
 11
217.0848578348511
 21
5.669434902681557
 31
0.0
  0
LINE
  5
1331D
330
20
100
AcDbEntity
  8
90000_FRAME
  6
Continuous
 62
     7
100
AcDbLine
 10
380.7053972021374
 20
251.9593439959192
 30
0.0
 11
180.7053972021374
 21
251.9593439959192
 31
0.0
  0
LINE
  5
1331E
330
20
100
AcDbEntity
  8
90000_FRAME
  6
Continuous
 62
     7
100
AcDbLine
 10
180.7053972021374
 20
-18.0406560040808
 30
0.0
 11
180.7053972021374
 21
251.9593439959192
 31
0.0
  0
LINE
  5
1473E
330
20
100
AcDbEntity
  8
10000_FRONT
  6
Continuous
 62
     7
370
    13
100
AcDbLine
 10
261.0348045206549
 20
122.5537649002066
 30
0.0
 11
272.0348045206549
 21
122.5537649002066
 31
0.0
  0
LINE
  5
1473F
330
20
100
AcDbEntity
  8
10000_FRONT
  6
Continuous
 62
     7
370
    13
100
AcDbLine
 10
273.034804520655
 20
119.5537649002066
 30
0.0
 11
273.034804520655
 21
122.5537649002066
 31
0.0
  0
LINE
  5
14741
330
20
100
AcDbEntity
  8
10000_FRONT
  6
Continuous
 62
     7
370
    13
100
AcDbLine
 10
272.0348045206549
 20
119.5537649002066
 30
0.0
 11
272.0348045206549
 21
122.5537649002066
 31
0.0
  0
LINE
  5
14742
330
20
100
AcDbEntity
  8
10000_FRONT
  6
Continuous
 62
     7
370
    13
100
AcDbLine
 10
272.0348045206549
 20
119.5537649002066
 30
0.0
 11
272.0348045206549
 21
122.5537649002066
 31
0.0
  0
LINE
  5
1474F
330
20
100
AcDbEntity
  8
10000_FRONT
  6
Continuous
 62
     7
370
    13
100
AcDbLine
 10
274.5185545206551
 20
93.5700149002065
 30
0.0
 11
274.5348015206551
 21
93.55376490020658
 31
0.0
  0
LINE
  5
14756
330
20
100
AcDbEntity
  8
10000_FRONT
  6
Continuous
 62
     7
370
    50
100
AcDbLine
 10
268.5348045206549
 20
102.5537649002066
 30
0.0
 11
268.5348045206549
 21
119.5537649002066
 31
0.0
  0
LINE
  5
14757
330
20
100
AcDbEntity
  8
10000_FRONT
  6
Continuous
 62
     7
370
    13
100
AcDbLine
 10
268.5348045206549
 20
105.6537649002067
 30
0.0
 11
268.534414520655
 21
105.6537649002067
 31
0.0
  0
LINE
  5
14759
330
20
100
AcDbEntity
  8
10000_FRONT
  6
Continuous
 62
     7
370
    50
100
AcDbLine
 10
272.4348015206493
 20
102.553769259177
 30
0.0
 11
268.5348045206549
 21
102.5537649002066
 31
0.0
  0
LINE
  5
1475A
330
20
100
AcDbEntity
  8
10000_FRONT
  6
Continuous
 62
     7
370
    13
100
AcDbLine
 10
261.0348045206549
 20
119.5537649002066
 30
0.0
 11
272.0348045206549
 21
119.5537649002066
 31
0.0
  0
LINE
  5
14764
330
20
100
AcDbEntity
  8
10000_FRONT
  6
Continuous
 62
     7
370
    50
100
AcDbLine
 10
261.0348045206549
 20
122.5537649002066
 30
0.0
 11
261.9716455206549
 21
121.2109749002066
 31
0.0
  0
LINE
  5
14765
330
20
100
AcDbEntity
  8
10000_FRONT
  6
Continuous
 62
     7
370
    50
100
AcDbLine
 10
261.9716455206549
 20
121.2109749002066
 30
0.0
 11
261.0348045206549
 21
119.5537649002066
 31
0.0
  0
LINE
  5
14766
330
20
100
AcDbEntity
  8
10000_FRONT
  6
Continuous
 62
     7
370
    50
100
AcDbLine
 10
269.5358045206549
 20
122.5537099002066
 30
0.0
 11
261.0348045206549
 21
122.5537649002066
 31
0.0
  0
LINE
  5
14767
330
20
100
AcDbEntity
  8
10000_FRONT
  6
Continuous
 62
     7
370
    50
100
AcDbLine
 10
261.0348045206549
 20
122.5537649002066
 30
0.0
 11
261.9716455206549
 21
121.2109749002066
 31
0.0
  0
LINE
  5
14768
330
20
100
AcDbEntity
  8
10000_FRONT
  6
Continuous
 62
     7
370
    50
100
AcDbLine
 10
261.9716455206549
 20
121.2109749002066
 30
0.0
 11
261.0348045206549
 21
119.5537649002066
 31
0.0
  0
LINE
  5
14769
330
20
100
AcDbEntity
  8
10000_FRONT
  6
Continuous
 62
     7
370
    50
100
AcDbLine
 10
261.0348045206549
 20
119.5537649002066
 30
0.0
 11
268.5348045206549
 21
119.5537649002066
 31
0.0
  0
LINE
  5
1476A
330
20
100
AcDbEntity
  8
10000_FRONT
  6
Continuous
 62
     7
370
    13
100
AcDbLine
 10
272.0348045206549
 20
119.5537649002066
 30
0.0
 11
272.0348045206549
 21
122.5537649002066
 31
0.0
  0
LINE
  5
1476E
330
20
100
AcDbEntity
  8
10000_FRONT
  6
Continuous
 62
     7
370
    13
100
AcDbLine
 10
294.0348045206548
 20
119.5537649002066
 30
0.0
 11
294.0348045206548
 21
122.5537649002066
 31
0.0
  0
LINE
  5
147AD
330
20
100
AcDbEntity
  8
10000_FRONT
  6
Continuous
 62
     7
370
    13
100
AcDbLine
 10
268.5348045206549
 20
119.5537649002066
 30
0.0
 11
298.5348045206549
 21
102.5537649002066
 31
0.0
  0
LINE
  5
147AE
330
20
100
AcDbEntity
  8
10000_FRONT
  6
Continuous
 62
     7
370
    13
100
AcDbLine
 10
298.5348045206549
 20
119.5537649002066
 30
0.0
 11
268.5348045206549
 21
102.5537649002066
 31
0.0
  0
LINE
  5
147AF
330
20
100
AcDbEntity
  8
10000_FRONT
  6
Continuous
 62
     7
370
    50
100
AcDbLine
 10
298.5348045206549
 20
119.5537649002066
 30
0.0
 11
298.5348045206549
 21
102.5537649002066
 31
0.0
  0
LINE
  5
147B0
330
20
100
AcDbEntity
  8
10000_FRONT
  6
Continuous
 62
     7
370
    13
100
AcDbLine
 10
272.4348015206493
 20
102.553769259177
 30
0.0
 11
294.6348025206549
 21
102.5537649002066
 31
0.0
  0
LINE
  5
147B3
330
20
100
AcDbEntity
  8
10000_FRONT
  6
Continuous
 62
     7
370
    50
100
AcDbLine
 10
294.6347995206549
 20
98.65376490020672
 30
0.0
 11
294.6348025206549
 21
102.5537649002066
 31
0.0
  0
LINE
  5
147B4
330
20
100
AcDbEntity
  8
10000_FRONT
  6
Continuous
 62
     7
370
    50
100
AcDbLine
 10
298.5348045206549
 20
102.5537649002066
 30
0.0
 11
294.6348025206549
 21
102.5537649002066
 31
0.0
  0
LINE
  5
147B5
330
20
100
AcDbEntity
  8
10000_FRONT
  6
Continuous
 62
     7
370
    13
100
AcDbLine
 10
295.0348045206549
 20
122.5537649002066
 30
0.0
 11
306.0348045206549
 21
122.5537649002066
 31
0.0
  0
LINE
  5
147B6
330
20
100
AcDbEntity
  8
10000_FRONT
  6
Continuous
 62
     7
370
    13
100
AcDbLine
 10
269.2848045206549
 20
122.5537649002066
 30
0.0
 11
297.7848045206549
 21
122.5537649002066
 31
0.0
  0
LINE
  5
147B7
330
20
100
AcDbEntity
  8
10000_FRONT
  6
Continuous
 62
     7
370
    13
100
AcDbLine
 10
295.0348045206549
 20
119.5537649002066
 30
0.0
 11
306.0348045206549
 21
119.5537649002066
 31
0.0
  0
LINE
  5
147B8
330
20
100
AcDbEntity
  8
10000_FRONT
  6
Continuous
 62
     7
370
    13
100
AcDbLine
 10
272.0348045206549
 20
119.5537649002066
 30
0.0
 11
295.0348045206549
 21
119.5537649002066
 31
0.0
  0
LINE
  5
147B9
330
20
100
AcDbEntity
  8
10000_FRONT
  6
Continuous
 62
     7
370
    13
100
AcDbLine
 10
295.0348045206549
 20
119.5537649002066
 30
0.0
 11
295.0348045206549
 21
122.5537649002066
 31
0.0
  0
LINE
  5
147E7
330
20
100
AcDbEntity
  8
10000_FRONT
  6
Continuous
 62
     7
370
    50
100
AcDbLine
 10
306.0348045206549
 20
122.5537649002066
 30
0.0
 11
305.2624665206549
 21
121.1667949002068
 31
0.0
  0
LINE
  5
147E8
330
20
100
AcDbEntity
  8
10000_FRONT
  6
Continuous
 62
     7
370
    50
100
AcDbLine
 10
305.2624665206549
 20
121.1667949002068
 30
0.0
 11
306.0348045206549
 21
119.5537649002066
 31
0.0
  0
LINE
  5
147E9
330
20
100
AcDbEntity
  8
10000_FRONT
  6
Continuous
 62
     7
370
    13
100
AcDbLine
 10
295.0348045206549
 20
122.5537649002066
 30
0.0
 11
295.0348045206549
 21
119.5537649002066
 31
0.0
  0
LINE
  5
147EA
330
20
100
AcDbEntity
  8
10000_FRONT
  6
Continuous
 62
     7
370
    50
100
AcDbLine
 10
298.5348045206549
 20
119.5537649002066
 30
0.0
 11
306.0348045206549
 21
119.5537649002066
 31
0.0
  0
LINE
  5
147EB
330
20
100
AcDbEntity
  8
10000_FRONT
  6
Continuous
 62
     7
370
    50
100
AcDbLine
 10
306.0348045206549
 20
119.5537649002066
 30
0.0
 11
305.2624665206549
 21
121.1667949002068
 31
0.0
  0
LINE
  5
147EC
330
20
100
AcDbEntity
  8
10000_FRONT
  6
Continuous
 62
     7
370
    50
100
AcDbLine
 10
305.2624665206549
 20
121.1667949002068
 30
0.0
 11
306.0348045206549
 21
122.5537649002066
 31
0.0
  0
LINE
  5
147ED
330
20
100
AcDbEntity
  8
10000_FRONT
  6
Continuous
 62
     7
370
    50
100
AcDbLine
 10
306.0348045206549
 20
122.5537649002066
 30
0.0
 11
297.5338045206549
 21
122.5538199002065
 31
0.0
  0
DIMENSION
  5
147F0
330
20
100
AcDbEntity
  8
10100_FRONT_DIM
  6
Continuous
 62
     7
370
    13
100
AcDbDimension
  2
*D1
 10
257.3191951873216
 20
93.5700249002067
 30
0.0
 11
257.2701910834498
 21
108.0537649002066
 31
0.0
 70
   160
 71
     5
 42
28.98373999999988
  3
DSTYLE1
100
AcDbAlignedDimension
 13
261.0348045206549
 23
122.5537649002066
 33
0.0
 14
274.518546520655
 24
93.5700249002067
 34
0.0
 50
90.0
100
AcDbRotatedDimension
1001
ACAD
1000
DSTYLE
1002
{
1070
    41
1040
2.0
1070
    42
1040
1.0
1070
    43
1040
1.0
1070
    44
1040
1.0
1070
    45
1040
0.0
1070
    47
1040
0.005
1070
    48
1040
-0.005
1070
    77
1070
     0
1070
    78
1070
     0
1070
   140
1040
2.5
1070
   143
1040
25.4
1070
   147
1040
1.0
1070
   171
1070
     0
1070
   172
1070
     1
1070
   271
1070
     0
1070
   272
1070
     1
1070
   274
1070
     0
1070
   277
1070
     6
1002
}
  0
DIMENSION
  5
147F1
330
20
100
AcDbEntity
  8
10100_FRONT_DIM
  6
Continuous
 62
     7
370
    13
100
AcDbDimension
  2
*D2
 10
312.7674765206551
 20
102.5537649002066
 30
0.0
 11
312.7674765206549
 21
111.7242649002065
 31
0.0
 70
   160
  1
max. 24
 71
     5
 42
20.0
  3
DSTYLE1
100
AcDbAlignedDimension
 13
306.0348045206549
 23
122.5537649002066
 33
0.0
 14
298.034804520655
 24
102.5537649002066
 34
0.0
 50
90.0
100
AcDbRotatedDimension
1001
ACAD
1000
DSTYLE
1002
{
1070
    41
1040
2.0
1070
    42
1040
1.0
1070
    43
1040
1.0
1070
    44
1040
1.0
1070
    45
1040
0.0
1070
    47
1040
0.005
1070
    48
1040
-0.005
1070
    77
1070
     0
1070
    78
1070
     0
1070
   140
1040
2.5
1070
   143
1040
25.4
1070
   147
1040
1.0
1070
   171
1070
     0
1070
   271
1070
     0
1070
   272
1070
     1
1070
   274
1070
     0
1070
   277
1070
     6
1002
}
  0
LINE
  5
14B93
330
20
100
AcDbEntity
  8
10000_FRONT
  6
Continuous
 62
     7
370
    13
100
AcDbLine
 10
303.4572984077759
 20
119.5537627873276
 30
0.0
 11
305.5039026335339
 21
121.6003670130856
 31
0.0
  0
LINE
  5
14B94
330
20
100
AcDbEntity
  8
10000_FRONT
  6
Continuous
 62
     7
370
    13
100
AcDbLine
 10
300.1937287816728
 20
119.5537627873276
 30
0.0
 11
303.1937286451344
 21
122.553762696943
 31
0.0
  0
LINE
  5
14B95
330
20
100
AcDbEntity
  8
10000_FRONT
  6
Continuous
 62
     7
370
    13
100
AcDbLine
 10
296.9301590171081
 20
119.5537627873276
 30
0.0
 11
299.9301589421082
 21
122.553762696943
 31
0.0
  0
LINE
  5
14B96
330
20
100
AcDbEntity
  8
10000_FRONT
  6
Continuous
 62
     7
370
    13
100
AcDbLine
 10
295.0348044491073
 20
120.9219778608146
 30
0.0
 11
296.6665893313897
 21
122.553762696943
 31
0.0
  0
LINE
  5
14B97
330
20
100
AcDbEntity
  8
10000_FRONT
  6
Continuous
 62
     7
370
    13
100
AcDbLine
 10
270.6665889839115
 20
119.553767363463
 30
0.0
 11
272.0348040573985
 21
120.92198243695
 31
0.0
  0
LINE
  5
14B98
330
20
100
AcDbEntity
  8
10000_FRONT
  6
Continuous
 62
     7
370
    13
100
AcDbLine
 10
267.4030192347315
 20
119.553767363463
 30
0.0
 11
270.40301922127
 21
122.5537673038477
 31
0.0
  0
LINE
  5
14B99
330
20
100
AcDbEntity
  8
10000_FRONT
  6
Continuous
 62
     7
370
    13
100
AcDbLine
 10
264.139449624013
 20
119.553767363463
 30
0.0
 11
267.1394495490131
 21
122.5537673038477
 31
0.0
  0
LINE
  5
14B9A
330
20
100
AcDbEntity
  8
10000_FRONT
  6
Continuous
 62
     7
370
    13
100
AcDbLine
 10
261.2414863118467
 20
119.9193738004767
 30
0.0
 11
263.8758799382946
 21
122.5537673038477
 31
0.0
  0
LINE
  5
1760C
330
20
100
AcDbEntity
  8
10000_FRONT
 62
     7
370
    13
100
AcDbLine
 10
276.414051520655
 20
93.55376490020658
 30
0.0
 11
290.6555525206549
 21
93.55376490020658
 31
0.0
  0
LINE
  5
1760D
330
20
100
AcDbEntity
  8
10000_FRONT
  6
Continuous
 62
     7
370
    13
100
AcDbLine
 10
293.5348025206549
 20
93.55376490020658
 30
0.0
 11
292.6753976172338
 21
93.55376490020658
 31
0.0
  0
CIRCLE
  5
1760E
330
20
100
AcDbEntity
  8
10000_FRONT
  6
Continuous
 62
     7
370
    13
100
AcDbCircle
 10
297.5374700844339
 20
84.10382755400659
 30
0.0
 40
1.102387
  0
LINE
  5
1760F
330
20
100
AcDbEntity
  8
10000_FRONT
  6
Continuous
 62
     7
370
    13
100
AcDbLine
 10
273.5347995206549
 20
93.55376490020658
 30
0.0
 11
273.5347995206549
 21
96.85376490020658
 31
0.0
  0
LINE
  5
17610
330
20
100
AcDbEntity
  8
10000_FRONT
  6
Continuous
 62
     7
370
    50
100
AcDbLine
 10
268.5347995206549
 20
98.5537649002066
 30
0.0
 11
268.5347995206549
 21
93.55376490020658
 31
0.0
  0
ARC
  5
17611
330
20
100
AcDbEntity
  8
10000_FRONT
  6
Continuous
 62
     7
370
    13
100
AcDbCircle
 10
268.5347995206549
 20
91.15376490020649
 30
0.0
 40
2.0
100
AcDbArc
 50
0.0000000550023244
 51
90.0
  0
LINE
  5
17612
330
20
100
AcDbEntity
  8
10000_FRONT
  6
Continuous
 62
     7
370
    13
100
AcDbLine
 10
270.5347995206549
 20
91.15376490020649
 30
0.0
 11
270.5347995206549
 21
88.84493490020657
 31
0.0
  0
LINE
  5
17613
330
20
100
AcDbEntity
  8
10000_FRONT
  6
Continuous
 62
     7
370
    13
100
AcDbLine
 10
270.5347995206549
 20
88.84493490020657
 30
0.0
 11
274.5347995206549
 21
87.54525490020652
 31
0.0
  0
ARC
  5
17614
330
20
100
AcDbEntity
  8
10000_FRONT
  6
Continuous
 62
     7
370
    13
100
AcDbCircle
 10
275.134799520655
 20
97.35376490020659
 30
0.0
 40
0.5
100
AcDbArc
 50
269.999979999998
 51
323.1301000000011
  0
LINE
  5
17615
330
20
100
AcDbEntity
  8
10000_FRONT
  6
Continuous
 62
     7
370
    13
100
AcDbLine
 10
273.5347995206549
 20
96.85376490020658
 30
0.0
 11
275.134799520655
 21
96.85376490020658
 31
0.0
  0
ARC
  5
17616
330
20
100
AcDbEntity
  8
10000_FRONT
  6
Continuous
 62
     7
370
    50
100
AcDbCircle
 10
271.5347995206549
 20
97.05376490020659
 30
0.0
 40
1.7
100
AcDbArc
 50
61.92751299999746
 51
118.0724899999995
  0
LINE
  5
17617
330
20
100
AcDbEntity
  8
10000_FRONT
  6
Continuous
 62
     7
370
    50
100
AcDbLine
 10
274.634799520655
 20
98.5537649002066
 30
0.0
 11
272.334799520655
 21
98.5537649002066
 31
0.0
  0
LINE
  5
17618
330
20
100
AcDbEntity
  8
10000_FRONT
  6
Continuous
 62
     7
370
    50
100
AcDbLine
 10
270.734799520655
 20
98.5537649002066
 30
0.0
 11
268.5347995206549
 21
98.5537649002066
 31
0.0
  0
CIRCLE
  5
17619
330
20
100
AcDbEntity
  8
10000_FRONT
  6
Continuous
 62
     7
370
    13
100
AcDbCircle
 10
271.5347995206549
 20
97.05376490020659
 30
0.0
 40
0.575
  0
LINE
  5
1761A
330
20
100
AcDbEntity
  8
10000_FRONT
  6
Continuous
 62
     7
370
    13
100
AcDbLine
 10
274.0347105206549
 20
94.05376490020659
 30
0.0
 11
274.5185425206549
 21
93.57002490020649
 31
0.0
  0
LINE
  5
1761B
330
20
100
AcDbEntity
  8
10000_FRONT
  6
Continuous
 62
     7
370
    13
100
AcDbLine
 10
273.5347995206549
 20
94.55376490020659
 30
0.0
 11
274.0347105206549
 21
94.05376490020659
 31
0.0
  0
LINE
  5
1761C
330
20
100
AcDbEntity
  8
10000_FRONT
  6
Continuous
 62
     7
370
    50
100
AcDbLine
 10
274.5347995206549
 20
98.65376490020651
 30
0.0
 11
274.634799520655
 21
98.55376490020651
 31
0.0
  0
LINE
  5
1761D
330
20
100
AcDbEntity
  8
10000_FRONT
  6
Continuous
 62
     7
370
    13
100
AcDbLine
 10
275.5347995206549
 20
97.65376490020649
 30
0.0
 11
275.5347995206549
 21
96.55376490020659
 31
0.0
  0
LINE
  5
1761E
330
20
100
AcDbEntity
  8
10000_FRONT
  6
Continuous
 62
     7
370
    13
100
AcDbLine
 10
275.5347995206549
 20
96.55376490020659
 30
0.0
 11
273.5347995206549
 21
96.55376490020659
 31
0.0
  0
LINE
  5
1761F
330
20
100
AcDbEntity
  8
10000_FRONT
  6
Continuous
 62
     7
370
    50
100
AcDbLine
 10
272.4347995206549
 20
98.65376490020651
 30
0.0
 11
274.5347995206549
 21
98.65376490020651
 31
0.0
  0
LINE
  5
17620
330
20
100
AcDbEntity
  8
10000_FRONT
  6
Continuous
 62
     7
370
    13
100
AcDbLine
 10
274.883657520655
 20
93.55376490020658
 30
0.0
 11
274.534796520655
 21
93.55377490020659
 31
0.0
  0
LINE
  5
17621
330
20
100
AcDbEntity
  8
10000_FRONT
  6
Continuous
 62
     7
370
    13
100
AcDbLine
 10
274.534796520655
 20
93.55377490020659
 30
0.0
 11
273.5347955206549
 21
93.55377490020659
 31
0.0
  0
LINE
  5
17622
330
20
100
AcDbEntity
  8
10000_FRONT
  6
Continuous
 62
     7
370
    50
100
AcDbLine
 10
272.4348065206549
 20
98.65376490020651
 30
0.0
 11
272.4348015206549
 21
102.5537649002066
 31
0.0
  0
LINE
  5
17623
330
20
100
AcDbEntity
  8
10000_FRONT
  6
Continuous
 62
     7
370
    50
100
AcDbLine
 10
266.0347995206549
 20
93.55376490020658
 30
0.0
 11
266.6854695206549
 21
93.55376490020658
 31
0.0
  0
CIRCLE
  5
17624
330
20
100
AcDbEntity
  8
10000_FRONT
  6
Continuous
 62
     7
370
    13
100
AcDbCircle
 10
268.5347995206549
 20
89.15376490020651
 30
0.0
 40
0.7
  0
LINE
  5
17625
330
20
100
AcDbEntity
  8
10000_FRONT
  6
Continuous
 62
     7
370
    50
100
AcDbLine
 10
265.5347965206549
 20
87.35377490020651
 30
0.0
 11
265.5347995206549
 21
93.05376490020659
 31
0.0
  0
ARC
  5
17626
330
20
100
AcDbEntity
  8
10000_FRONT
  6
Continuous
 62
     7
370
    50
100
AcDbCircle
 10
266.0347995206549
 20
93.05376490020659
 30
0.0
 40
0.4999999800000002
100
AcDbArc
 50
90.0
 51
180.0
  0
LINE
  5
17627
330
20
100
AcDbEntity
  8
10000_FRONT
  6
Continuous
 62
     7
370
    50
100
AcDbLine
 10
266.6854695206549
 20
93.55376490020658
 30
0.0
 11
268.5347995206549
 21
93.55376490020658
 31
0.0
  0
LINE
  5
17628
330
20
100
AcDbEntity
  8
10000_FRONT
  6
Continuous
 62
     7
370
    50
100
AcDbLine
 10
265.5347995206549
 20
87.35376490020659
 30
0.0
 11
265.5347995206549
 21
74.8537649002066
 31
0.0
  0
CIRCLE
  5
17629
330
20
100
AcDbEntity
  8
10000_FRONT
  6
Continuous
 62
     7
370
    13
100
AcDbCircle
 10
267.0347995206549
 20
75.95376490020669
 30
0.0
 40
0.7
  0
ARC
  5
1762A
330
20
100
AcDbEntity
  8
10000_FRONT
  6
Continuous
 62
     7
370
    50
100
AcDbCircle
 10
266.0347995206549
 20
74.8537649002066
 30
0.0
 40
0.5000000100000001
100
AcDbArc
 50
180.0
 51
270.0
  0
LINE
  5
1762C
330
20
100
AcDbEntity
  8
10000_FRONT
  6
Continuous
 62
     7
370
    13
100
AcDbLine
 10
280.1347895206548
 20
98.55377490020657
 30
0.0
 11
286.934809520655
 21
98.55377490020664
 31
0.0
  0
LINE
  5
1762D
330
20
100
AcDbEntity
  8
10000_FRONT
  6
Continuous
 62
     7
370
    13
100
AcDbLine
 10
286.1348005206549
 20
100.2537749002065
 30
0.0
 11
286.1348005206549
 21
98.55377490020659
 31
0.0
  0
LINE
  5
1762E
330
20
100
AcDbEntity
  8
10000_FRONT
  6
Continuous
 62
     7
370
    13
100
AcDbLine
 10
280.9348005206549
 20
100.2537749002065
 30
0.0
 11
280.9348005206549
 21
98.55377490020659
 31
0.0
  0
LINE
  5
1762F
330
20
100
AcDbEntity
  8
10000_FRONT
  6
Continuous
 62
     7
370
    13
100
AcDbLine
 10
286.934809520655
 20
98.55377490020664
 30
0.0
 11
286.934809520655
 21
93.55373490020673
 31
0.0
  0
LINE
  5
17630
330
20
100
AcDbEntity
  8
10000_FRONT
  6
Continuous
 62
     7
370
    13
100
AcDbLine
 10
280.1347895206549
 20
93.55373490020673
 30
0.0
 11
280.1347895206549
 21
98.55377490020664
 31
0.0
  0
CIRCLE
  5
17631
330
20
100
AcDbEntity
  8
10000_FRONT
  6
Continuous
 62
     7
370
    13
100
AcDbCircle
 10
292.5348025206549
 20
89.55376490020659
 30
0.0
 40
1.05
  0
LINE
  5
17632
330
20
100
AcDbEntity
  8
10000_FRONT
  6
Continuous
 62
     7
370
    13
100
AcDbLine
 10
279.8708935206549
 20
90.8728949002065
 30
0.0
 11
284.307341520655
 21
89.43140490020651
 31
0.0
  0
ARC
  5
17633
330
20
100
AcDbEntity
  8
10000_FRONT
  6
Continuous
 62
     7
370
    13
100
AcDbCircle
 10
280.0254015206549
 20
91.34842490020657
 30
0.0
 40
0.5
100
AcDbArc
 50
161.9999999999943
 51
252.0000000000044
  0
LINE
  5
17634
330
20
100
AcDbEntity
  8
10000_FRONT
  6
Continuous
 62
     7
370
    13
100
AcDbLine
 10
279.549873520655
 20
91.50293490020651
 30
0.0
 11
279.7802205206549
 21
92.21187490020636
 31
0.0
  0
ARC
  5
17635
330
20
100
AcDbEntity
  8
10000_FRONT
  6
Continuous
 62
     7
370
    13
100
AcDbCircle
 10
279.3046925206549
 20
92.36637490020651
 30
0.0
 40
0.50000002
100
AcDbArc
 50
341.9999999999943
 51
55.84036000000078
  0
LINE
  5
17636
330
20
100
AcDbEntity
  8
10000_FRONT
  6
Continuous
 62
     7
370
    13
100
AcDbLine
 10
279.5854425206548
 20
92.7801149002065
 30
0.0
 11
279.0347995206549
 21
93.15376490020652
 31
0.0
  0
LINE
  5
17637
330
20
100
AcDbEntity
  8
10000_FRONT
  6
Continuous
 62
     7
370
    13
100
AcDbLine
 10
279.0347995206549
 20
93.15376490020652
 30
0.0
 11
273.5347995206549
 21
93.55376490020658
 31
0.0
  0
LINE
  5
17638
330
20
100
AcDbEntity
  8
10000_FRONT
  6
Continuous
 62
     7
370
    13
100
AcDbLine
 10
274.5347995206549
 20
87.54525490020652
 30
0.0
 11
277.5347995206549
 21
87.54525490020652
 31
0.0
  0
LINE
  5
17639
330
20
100
AcDbEntity
  8
10000_FRONT
  6
Continuous
 62
     7
370
    13
100
AcDbLine
 10
277.5347995206549
 20
87.54525490020652
 30
0.0
 11
283.5347995206549
 21
84.55376490020659
 31
0.0
  0
LINE
  5
1763A
330
20
100
AcDbEntity
  8
10000_FRONT
  6
Continuous
 62
     7
370
    13
100
AcDbLine
 10
283.5347995206549
 20
84.55376490020659
 30
0.0
 11
283.5347995206549
 21
85.25376490020668
 31
0.0
  0
LINE
  5
1763B
330
20
100
AcDbEntity
  8
10000_FRONT
  6
Continuous
 62
     7
370
    13
100
AcDbLine
 10
283.5347995206549
 20
85.25376490020668
 30
0.0
 11
282.336846520655
 21
85.85104490020659
 31
0.0
  0
ARC
  5
1763C
330
20
100
AcDbEntity
  8
10000_FRONT
  6
Continuous
 62
     7
370
    13
100
AcDbCircle
 10
283.5347995206549
 20
86.75376490020658
 30
0.0
 40
1.5
100
AcDbArc
 50
287.9671699999983
 51
217.0000000000044
  0
LINE
  5
1763D
330
20
100
AcDbEntity
  8
10000_FRONT
  6
Continuous
 62
     7
370
    13
100
AcDbLine
 10
283.9975075206548
 20
85.32691490020658
 30
0.0
 11
284.1818475206549
 21
84.63895490020659
 31
0.0
  0
ARC
  5
1763E
330
20
100
AcDbEntity
  8
10000_FRONT
  6
Continuous
 62
     7
370
    13
100
AcDbCircle
 10
283.5347995206549
 20
87.05376490020659
 30
0.0
 40
2.5
100
AcDbArc
 50
56.74683700000086
 51
72.00000000000128
  0
ARC
  5
1763F
330
20
100
AcDbEntity
  8
10000_FRONT
  6
Continuous
 62
     7
370
    13
100
AcDbCircle
 10
291.934802520655
 20
97.35376490020659
 30
0.0
 40
0.5
100
AcDbArc
 50
216.8698899999992
 51
270.000020000002
  0
LINE
  5
17640
330
20
100
AcDbEntity
  8
10000_FRONT
  6
Continuous
 62
     7
370
    13
100
AcDbLine
 10
291.934802520655
 20
96.85376490020658
 30
0.0
 11
293.5348025206549
 21
96.85376490020658
 31
0.0
  0
LINE
  5
17641
330
20
100
AcDbEntity
  8
10000_FRONT
  6
Continuous
 62
     7
370
    13
100
AcDbLine
 10
293.5348025206549
 20
96.85376490020658
 30
0.0
 11
293.5348025206549
 21
93.55376490020658
 31
0.0
  0
LINE
  5
17642
330
20
100
AcDbEntity
  8
10000_FRONT
  6
Continuous
 62
     7
370
    13
100
AcDbLine
 10
293.5348025206549
 20
93.55376490020658
 30
0.0
 11
288.0348025206549
 21
93.15376490020652
 31
0.0
  0
LINE
  5
17643
330
20
100
AcDbEntity
  8
10000_FRONT
  6
Continuous
 62
     7
370
    13
100
AcDbLine
 10
288.0348025206549
 20
93.15376490020652
 30
0.0
 11
287.5000735206549
 21
92.84504490020649
 31
0.0
  0
ARC
  5
17644
330
20
100
AcDbEntity
  8
10000_FRONT
  6
Continuous
 62
     7
370
    13
100
AcDbCircle
 10
287.7500725206548
 20
92.4120349002065
 30
0.0
 40
0.49999997
100
AcDbArc
 50
119.9999900000042
 51
198.0000000000057
  0
LINE
  5
17645
330
20
100
AcDbEntity
  8
10000_FRONT
  6
Continuous
 62
     7
370
    13
100
AcDbLine
 10
287.2745455206549
 20
92.25752490020649
 30
0.0
 11
287.5575365206549
 21
91.3865649002067
 31
0.0
  0
ARC
  5
17646
330
20
100
AcDbEntity
  8
10000_FRONT
  6
Continuous
 62
     7
370
    13
100
AcDbCircle
 10
287.082007520655
 20
91.23205490020668
 30
0.0
 40
0.5
100
AcDbArc
 50
287.9999999999956
 51
18.00000000000568
  0
ARC
  5
17647
330
20
100
AcDbEntity
  8
10000_FRONT
  6
Continuous
 62
     7
370
    13
100
AcDbCircle
 10
298.5348025206548
 20
91.15376490020649
 30
0.0
 40
2.0
100
AcDbArc
 50
90.0
 51
180.0
  0
LINE
  5
17648
330
20
100
AcDbEntity
  8
10000_FRONT
  6
Continuous
 62
     7
370
    13
100
AcDbLine
 10
296.5348025206548
 20
88.85344490020669
 30
0.0
 11
296.5348025206548
 21
91.15376490020649
 31
0.0
  0
LINE
  5
17649
330
20
100
AcDbEntity
  8
10000_FRONT
  6
Continuous
 62
     7
370
    13
100
AcDbLine
 10
292.5348025206549
 20
87.55376490020658
 30
0.0
 11
296.5348025206548
 21
88.85344490020669
 31
0.0
  0
LINE
  5
1764A
330
20
100
AcDbEntity
  8
10000_FRONT
  6
Continuous
 62
     7
370
    13
100
AcDbLine
 10
289.5348025206549
 20
87.55376490020658
 30
0.0
 11
292.5348025206549
 21
87.55376490020658
 31
0.0
  0
LINE
  5
1764B
330
20
100
AcDbEntity
  8
10000_FRONT
  6
Continuous
 62
     7
370
    13
100
AcDbLine
 10
288.7275225206549
 20
85.2411249002065
 30
0.0
 11
289.5348025206549
 21
87.55376490020658
 31
0.0
  0
ARC
  5
1764C
330
20
100
AcDbEntity
  8
10000_FRONT
  6
Continuous
 62
     7
370
    13
100
AcDbCircle
 10
283.5347995206549
 20
87.05376490020659
 30
0.0
 40
5.5
100
AcDbArc
 50
223.6137200000076
 51
340.7572799999934
  0
LINE
  5
1764D
330
20
100
AcDbEntity
  8
10000_FRONT
  6
Continuous
 62
     7
370
    13
100
AcDbLine
 10
283.5348565206548
 20
84.55376490020659
 30
0.0
 11
279.5527625206549
 21
83.25990490020659
 31
0.0
  0
ARC
  5
1764E
330
20
100
AcDbEntity
  8
10000_FRONT
  6
Continuous
 62
     7
370
    13
100
AcDbCircle
 10
283.5347995206549
 20
87.05376490020659
 30
0.0
 40
2.5
100
AcDbArc
 50
270.0013199999962
 51
56.74683999999743
  0
ARC
  5
1764F
330
20
100
AcDbEntity
  8
10000_FRONT
  6
Continuous
 62
     7
370
    13
100
AcDbCircle
 10
285.179817520655
 20
89.56253490020651
 30
0.0
 40
0.5
100
AcDbArc
 50
107.9999999999987
 51
236.7468399999974
  0
LINE
  5
17650
330
20
100
AcDbEntity
  8
10000_FRONT
  6
Continuous
 62
     7
370
    13
100
AcDbLine
 10
287.2365165206549
 20
90.75652490020649
 30
0.0
 11
285.025309520655
 21
90.0380649002067
 31
0.0
  0
CIRCLE
  5
17651
330
20
100
AcDbEntity
  8
10000_FRONT
  6
Continuous
 62
     7
370
    13
100
AcDbCircle
 10
295.5348025206549
 20
97.05376490020659
 30
0.0
 40
0.9
  0
LINE
  5
17652
330
20
100
AcDbEntity
  8
10000_FRONT
  6
Continuous
 62
     7
370
    13
100
AcDbLine
 10
298.5348025206548
 20
93.15376490020652
 30
0.0
 11
298.5348025206548
 21
93.55376490020658
 31
0.0
  0
ARC
  5
17653
330
20
100
AcDbEntity
  8
10000_FRONT
  6
Continuous
 62
     7
370
    50
100
AcDbCircle
 10
295.5348025206549
 20
97.05376490020659
 30
0.0
 40
1.7
100
AcDbArc
 50
61.92751299999746
 51
118.0724899999995
  0
LINE
  5
17654
330
20
100
AcDbEntity
  8
10000_FRONT
  6
Continuous
 62
     7
370
    50
100
AcDbLine
 10
298.5348025206548
 20
98.5537649002066
 30
0.0
 11
296.3348025206549
 21
98.5537649002066
 31
0.0
  0
LINE
  5
17655
330
20
100
AcDbEntity
  8
10000_FRONT
  6
Continuous
 62
     7
370
    50
100
AcDbLine
 10
294.7348025206549
 20
98.5537649002066
 30
0.0
 11
292.4348025206549
 21
98.5537649002066
 31
0.0
  0
LINE
  5
17656
330
20
100
AcDbEntity
  8
10000_FRONT
  6
Continuous
 62
     7
370
    13
100
AcDbLine
 10
276.414044520655
 20
98.65376490020651
 30
0.0
 11
280.034799520655
 21
98.65376490020651
 31
0.0
  0
LINE
  5
17657
330
20
100
AcDbEntity
  8
10000_FRONT
  6
Continuous
 62
     7
370
    13
100
AcDbLine
 10
287.0347995206549
 20
98.65376490020651
 30
0.0
 11
290.6555525206549
 21
98.65376490020651
 31
0.0
  0
LINE
  5
17658
330
20
100
AcDbEntity
  8
10000_FRONT
  6
Continuous
 62
     7
370
    13
100
AcDbLine
 10
280.034799520655
 20
98.65376490020651
 30
0.0
 11
280.5347995206549
 21
99.15376490020651
 31
0.0
  0
LINE
  5
17659
330
20
100
AcDbEntity
  8
10000_FRONT
  6
Continuous
 62
     7
370
    13
100
AcDbLine
 10
280.534804520655
 20
100.2537749002065
 30
0.0
 11
286.5347965206549
 21
100.2537749002065
 31
0.0
  0
LINE
  5
1765A
330
20
100
AcDbEntity
  8
10000_FRONT
  6
Continuous
 62
     7
370
    13
100
AcDbLine
 10
286.5347995206549
 20
99.15376490020651
 30
0.0
 11
287.0347995206549
 21
98.65376490020651
 31
0.0
  0
LINE
  5
1765B
330
20
100
AcDbEntity
  8
10000_FRONT
  6
Continuous
 62
     7
370
    13
100
AcDbLine
 10
292.5510525206549
 20
93.57002490020649
 30
0.0
 11
293.0349525206549
 21
94.05376490020659
 31
0.0
  0
LINE
  5
1765C
330
20
100
AcDbEntity
  8
10000_FRONT
  6
Continuous
 62
     7
370
    13
100
AcDbLine
 10
293.0349525206549
 20
94.05376490020659
 30
0.0
 11
293.5348025206549
 21
94.55376490020659
 31
0.0
  0
LINE
  5
1765D
330
20
100
AcDbEntity
  8
10000_FRONT
  6
Continuous
 62
     7
370
    13
100
AcDbLine
 10
292.5348025206549
 20
93.55377490020659
 30
0.0
 11
292.5510525206549
 21
93.57001490020669
 31
0.0
  0
LINE
  5
1765E
330
20
100
AcDbEntity
  8
10000_FRONT
  6
Continuous
 62
     7
370
    13
100
AcDbLine
 10
293.5348025206549
 20
96.55376490020659
 30
0.0
 11
291.5348025206549
 21
96.55376490020659
 31
0.0
  0
LINE
  5
1765F
330
20
100
AcDbEntity
  8
10000_FRONT
  6
Continuous
 62
     7
370
    13
100
AcDbLine
 10
291.5348025206549
 20
96.55376490020659
 30
0.0
 11
291.5348025206549
 21
97.65376490020649
 31
0.0
  0
LINE
  5
17660
330
20
100
AcDbEntity
  8
10000_FRONT
  6
Continuous
 62
     7
370
    13
100
AcDbLine
 10
291.5348025206549
 20
97.65376490020649
 30
0.0
 11
292.4348025206549
 21
98.5537649002066
 31
0.0
  0
LINE
  5
17661
330
20
100
AcDbEntity
  8
10000_FRONT
  6
Continuous
 62
     7
370
    50
100
AcDbLine
 10
292.5348025206549
 20
98.65376490020651
 30
0.0
 11
294.6348025206549
 21
98.65376490020651
 31
0.0
  0
LINE
  5
17662
330
20
100
AcDbEntity
  8
10000_FRONT
  6
Continuous
 62
     7
370
    13
100
AcDbLine
 10
276.414051520655
 20
93.55376490020658
 30
0.0
 11
274.883657520655
 21
93.55376490020658
 31
0.0
  0
LINE
  5
17663
330
20
100
AcDbEntity
  8
10000_FRONT
  6
Continuous
 62
     7
370
    13
100
AcDbLine
 10
291.4056325206551
 20
93.55376490020658
 30
0.0
 11
290.6555525206549
 21
93.55376490020658
 31
0.0
  0
LINE
  5
17664
330
20
100
AcDbEntity
  8
10000_FRONT
  6
Continuous
 62
     7
370
    13
100
AcDbLine
 10
292.5348025206549
 20
93.55377490020659
 30
0.0
 11
292.1859425206548
 21
93.55377490020659
 31
0.0
  0
LINE
  5
17665
330
20
100
AcDbEntity
  8
10000_FRONT
  6
Continuous
 62
     7
370
    13
100
AcDbLine
 10
292.1859425206548
 20
93.55377490020659
 30
0.0
 11
291.4056325206551
 21
93.55376490020658
 31
0.0
  0
LINE
  5
17666
330
20
100
AcDbEntity
  8
10000_FRONT
  6
Continuous
 62
     7
370
    13
100
AcDbLine
 10
276.414051520655
 20
93.55376490020658
 30
0.0
 11
276.414051520655
 21
98.65376490020651
 31
0.0
  0
LINE
  5
17667
330
20
100
AcDbEntity
  8
10000_FRONT
  6
Continuous
 62
     7
370
    13
100
AcDbLine
 10
290.6555525206549
 20
98.65376490020651
 30
0.0
 11
290.6555525206549
 21
93.55376490020658
 31
0.0
  0
LINE
  5
17668
330
20
100
AcDbEntity
  8
10000_FRONT
  6
Continuous
 62
     7
370
    13
100
AcDbLine
 10
280.534804520655
 20
99.15376490020651
 30
0.0
 11
280.534804520655
 21
102.5537649002066
 31
0.0
  0
LINE
  5
17669
330
20
100
AcDbEntity
  8
10000_FRONT
  6
Continuous
 62
     7
370
    13
100
AcDbLine
 10
286.5347965206549
 20
102.5537649002066
 30
0.0
 11
286.5347965206549
 21
99.15376490020651
 31
0.0
  0
LINE
  5
1766A
330
20
100
AcDbEntity
  8
10000_FRONT
  6
Continuous
 62
     7
370
    50
100
AcDbLine
 10
294.6347925206548
 20
98.65376490020651
 30
0.0
 11
294.6348025206549
 21
102.5537649002066
 31
0.0
  0
CIRCLE
  5
1766B
330
20
100
AcDbEntity
  8
10000_FRONT
  6
Continuous
 62
     7
370
    13
100
AcDbCircle
 10
278.5347995206549
 20
76.95376490020669
 30
0.0
 40
0.7
  0
ARC
  5
1766C
330
20
100
AcDbEntity
  8
10000_FRONT
  6
Continuous
 62
     7
370
    13
100
AcDbCircle
 10
287.9348025206549
 20
83.85376490020659
 30
0.0
 40
0.7
100
AcDbArc
 50
235.1762800000011
 51
52.76897999999746
  0
CIRCLE
  5
1766D
330
20
100
AcDbEntity
  8
10000_FRONT
  6
Continuous
 62
     7
370
    13
100
AcDbCircle
 10
300.0348025206549
 20
75.95376490020669
 30
0.0
 40
1.024999999999999
  0
LINE
  5
1766E
330
20
100
AcDbEntity
  8
10000_FRONT
  6
Continuous
 62
     7
370
    50
100
AcDbLine
 10
284.234799520655
 20
73.45376490020669
 30
0.0
 11
284.234799520655
 21
74.50376490020669
 31
0.0
  0
LINE
  5
1766F
330
20
100
AcDbEntity
  8
10000_FRONT
  6
Continuous
 62
     7
370
    50
100
AcDbLine
 10
282.834799520655
 20
74.50376490020669
 30
0.0
 11
282.834799520655
 21
73.45376490020669
 31
0.0
  0
LINE
  5
17670
330
20
100
AcDbEntity
  8
10000_FRONT
  6
Continuous
 62
     7
370
    50
100
AcDbLine
 10
283.9847995206548
 20
74.75376490020669
 30
0.0
 11
283.0847995206549
 21
74.75376490020669
 31
0.0
  0
LINE
  5
17671
330
20
100
AcDbEntity
  8
10000_FRONT
  6
Continuous
 62
     7
370
    50
100
AcDbLine
 10
284.234799520655
 20
74.50376490020669
 30
0.0
 11
283.9847995206548
 21
74.75376490020669
 31
0.0
  0
LINE
  5
17672
330
20
100
AcDbEntity
  8
10000_FRONT
  6
Continuous
 62
     7
370
    50
100
AcDbLine
 10
283.0847995206549
 20
74.75376490020669
 30
0.0
 11
282.834799520655
 21
74.50376490020669
 31
0.0
  0
LINE
  5
17673
330
20
100
AcDbEntity
  8
10000_FRONT
  6
Continuous
 62
     7
370
    13
100
AcDbLine
 10
277.3347995206549
 20
87.35376490020659
 30
0.0
 11
265.5347995206549
 21
87.35376490020659
 31
0.0
  0
CIRCLE
  5
17674
330
20
100
AcDbEntity
  8
10000_FRONT
  6
Continuous
 62
     7
370
    13
100
AcDbCircle
 10
288.534802520655
 20
76.95376490020669
 30
0.0
 40
0.7
  0
CIRCLE
  5
17675
330
20
100
AcDbEntity
  8
10000_FRONT
  6
Continuous
 62
     7
370
    13
100
AcDbCircle
 10
279.134799520655
 20
83.85376490020659
 30
0.0
 40
0.7
  0
ARC
  5
17676
330
20
100
AcDbEntity
  8
10000_FRONT
  6
Continuous
 62
     7
370
    50
100
AcDbCircle
 10
281.4847995206548
 20
74.95376490020669
 30
0.0
 40
0.5
100
AcDbArc
 50
347.3196199999977
 51
90.0
  0
ARC
  5
17677
330
20
100
AcDbEntity
  8
10000_FRONT
  6
Continuous
 62
     7
370
    50
100
AcDbCircle
 10
285.5847995206549
 20
74.95376490020669
 30
0.0
 40
0.5
100
AcDbArc
 50
90.0
 51
192.6803800000023
  0
LINE
  5
17678
330
20
100
AcDbEntity
  8
10000_FRONT
  6
Continuous
 62
     7
370
    50
100
AcDbLine
 10
301.0348025206549
 20
74.3537649002066
 30
0.0
 11
290.3848025206548
 21
74.3537649002066
 31
0.0
  0
LINE
  5
17679
330
20
100
AcDbEntity
  8
10000_FRONT
  6
Continuous
 62
     7
370
    50
100
AcDbLine
 10
290.3848025206548
 20
74.3537649002066
 30
0.0
 11
287.2430895206548
 21
74.3537649002066
 31
0.0
  0
LINE
  5
1767A
330
20
100
AcDbEntity
  8
10000_FRONT
  6
Continuous
 62
     7
370
    50
100
AcDbLine
 10
279.8265095206549
 20
74.3537649002066
 30
0.0
 11
276.6847995206549
 21
74.3537649002066
 31
0.0
  0
LINE
  5
1767B
330
20
100
AcDbEntity
  8
10000_FRONT
  6
Continuous
 62
     7
370
    50
100
AcDbLine
 10
266.0347995206549
 20
74.3537649002066
 30
0.0
 11
276.6847995206549
 21
74.3537649002066
 31
0.0
  0
ARC
  5
1767C
330
20
100
AcDbEntity
  8
10000_FRONT
  6
Continuous
 62
     7
370
    50
100
AcDbCircle
 10
286.4347995206549
 20
75.15376490020648
 30
0.0
 40
0.3
100
AcDbArc
 50
30.00000000000197
 51
90.0
  0
LINE
  5
1767D
330
20
100
AcDbEntity
  8
10000_FRONT
  6
Continuous
 62
     7
370
    50
100
AcDbLine
 10
287.2430895206548
 20
74.3537649002066
 30
0.0
 11
286.6946075206548
 21
75.30376490020659
 31
0.0
  0
LINE
  5
1767E
330
20
100
AcDbEntity
  8
10000_FRONT
  6
Continuous
 62
     7
370
    50
100
AcDbLine
 10
280.374991520655
 20
75.30376490020659
 30
0.0
 11
279.8265095206549
 21
74.3537649002066
 31
0.0
  0
ARC
  5
1767F
330
20
100
AcDbEntity
  8
10000_FRONT
  6
Continuous
 62
     7
370
    50
100
AcDbCircle
 10
280.634799520655
 20
75.15376490020648
 30
0.0
 40
0.3
100
AcDbArc
 50
90.0
 51
149.999999999998
  0
LINE
  5
17680
330
20
100
AcDbEntity
  8
10000_FRONT
  6
Continuous
 62
     7
370
    50
100
AcDbLine
 10
281.4847995206548
 20
75.45376490020669
 30
0.0
 11
280.634799520655
 21
75.45376490020669
 31
0.0
  0
LINE
  5
17681
330
20
100
AcDbEntity
  8
10000_FRONT
  6
Continuous
 62
     7
370
    50
100
AcDbLine
 10
281.7347995206548
 20
73.75376490020669
 30
0.0
 11
281.9726045206548
 21
74.84401490020656
 31
0.0
  0
ARC
  5
17682
330
20
100
AcDbEntity
  8
10000_FRONT
  6
Continuous
 62
     7
370
    50
100
AcDbCircle
 10
282.0347995206549
 20
73.75376490020669
 30
0.0
 40
0.30000001
100
AcDbArc
 50
180.0
 51
270.0
  0
LINE
  5
17683
330
20
100
AcDbEntity
  8
10000_FRONT
  6
Continuous
 62
     7
370
    50
100
AcDbLine
 10
282.834799520655
 20
73.45376490020669
 30
0.0
 11
282.0347995206549
 21
73.45376490020669
 31
0.0
  0
LINE
  5
17684
330
20
100
AcDbEntity
  8
10000_FRONT
  6
Continuous
 62
     7
370
    50
100
AcDbLine
 10
285.0347995206549
 20
73.45376490020669
 30
0.0
 11
284.234799520655
 21
73.45376490020669
 31
0.0
  0
ARC
  5
17685
330
20
100
AcDbEntity
  8
10000_FRONT
  6
Continuous
 62
     7
370
    50
100
AcDbCircle
 10
285.0347995206549
 20
73.75376490020669
 30
0.0
 40
0.30000002
100
AcDbArc
 50
270.0
 51
12.68038000000233
  0
LINE
  5
17686
330
20
100
AcDbEntity
  8
10000_FRONT
  6
Continuous
 62
     7
370
    50
100
AcDbLine
 10
285.096994520655
 20
74.84401490020656
 30
0.0
 11
285.327482520655
 21
73.81962490020659
 31
0.0
  0
LINE
  5
17687
330
20
100
AcDbEntity
  8
10000_FRONT
  6
Continuous
 62
     7
370
    50
100
AcDbLine
 10
286.4347995206549
 20
75.45376490020669
 30
0.0
 11
285.5847995206549
 21
75.45376490020669
 31
0.0
  0
LINE
  5
17688
330
20
100
AcDbEntity
  8
10000_FRONT
  6
Continuous
 62
     7
370
    13
100
AcDbLine
 10
289.7348025206548
 20
87.35376490020659
 30
0.0
 11
289.7348025206548
 21
78.3617849002065
 31
0.0
  0
LINE
  5
17689
330
20
100
AcDbEntity
  8
10000_FRONT
  6
Continuous
 62
     7
370
    13
100
AcDbLine
 10
301.5348025206549
 20
87.35376490020659
 30
0.0
 11
289.7348025206548
 21
87.35376490020659
 31
0.0
  0
LINE
  5
1768A
330
20
100
AcDbEntity
  8
10000_FRONT
  6
Continuous
 62
     7
370
    13
100
AcDbLine
 10
277.3347995206549
 20
78.3617849002065
 30
0.0
 11
277.3347995206549
 21
87.35376490020659
 31
0.0
  0
ARC
  5
1768B
330
20
100
AcDbEntity
  8
10000_FRONT
  6
Continuous
 62
     7
370
    13
100
AcDbCircle
 10
278.5347995206549
 20
76.95376490020669
 30
0.0
 40
1.85
100
AcDbArc
 50
130.4397900000061
 51
180.0
  0
LINE
  5
1768C
330
20
100
AcDbEntity
  8
10000_FRONT
  6
Continuous
 62
     7
370
    13
100
AcDbLine
 10
276.6847995206549
 20
74.3537649002066
 30
0.0
 11
276.6847995206549
 21
76.95376490020669
 31
0.0
  0
LINE
  5
1768D
330
20
100
AcDbEntity
  8
10000_FRONT
  6
Continuous
 62
     7
370
    13
100
AcDbLine
 10
290.3848025206548
 20
76.95376490020669
 30
0.0
 11
290.3848025206548
 21
74.3537649002066
 31
0.0
  0
ARC
  5
1768E
330
20
100
AcDbEntity
  8
10000_FRONT
  6
Continuous
 62
     7
370
    13
100
AcDbCircle
 10
288.534802520655
 20
76.95376490020669
 30
0.0
 40
1.85
100
AcDbArc
 50
0.0000004862012673
 51
49.56020700000148
  0
ARC
  5
1768F
330
20
100
AcDbEntity
  8
10000_FRONT
  6
Continuous
 62
     7
370
    50
100
AcDbCircle
 10
301.0348025206549
 20
74.8537649002066
 30
0.0
 40
0.5
100
AcDbArc
 50
270.0
 51
0.0
  0
CIRCLE
  5
17690
330
20
100
AcDbEntity
  8
10000_FRONT
  6
Continuous
 62
     7
370
    13
100
AcDbCircle
 10
298.5348025206548
 20
89.15376490020651
 30
0.0
 40
0.7
  0
LINE
  5
17691
330
20
100
AcDbEntity
  8
10000_FRONT
  6
Continuous
 62
     7
370
    50
100
AcDbLine
 10
301.5348025206549
 20
93.05376490020659
 30
0.0
 11
301.5348025206549
 21
87.35376490020659
 31
0.0
  0
LINE
  5
17692
330
20
100
AcDbEntity
  8
10000_FRONT
  6
Continuous
 62
     7
370
    50
100
AcDbLine
 10
301.5348025206549
 20
74.8537649002066
 30
0.0
 11
301.5348025206549
 21
87.35376490020659
 31
0.0
  0
ARC
  5
17693
330
20
100
AcDbEntity
  8
10000_FRONT
  6
Continuous
 62
     7
370
    50
100
AcDbCircle
 10
301.0348025206549
 20
93.05376490020659
 30
0.0
 40
0.50000002
100
AcDbArc
 50
0.0000010506981219
 51
89.9999989999986
  0
LINE
  5
17696
330
20
100
AcDbEntity
  8
10000_FRONT
  6
Continuous
 62
     7
370
    50
100
AcDbLine
 10
298.5348025206548
 20
93.55376490020658
 30
0.0
 11
301.0348025206549
 21
93.55376490020658
 31
0.0
  0
LINE
  5
17697
330
20
100
AcDbEntity
  8
10000_FRONT
  6
Continuous
 62
     7
370
    50
100
AcDbLine
 10
294.6347925206548
 20
99.35376490020649
 30
0.0
 11
294.6348025206549
 21
102.5537649002066
 31
0.0
  0
DIMENSION
  5
176AA
330
20
100
AcDbEntity
  8
10100_FRONT_DIM
  6
Continuous
 62
     7
370
    13
100
AcDbDimension
  2
*D3
 10
250.4831399568762
 20
73.45376489020669
 30
0.0
 11
250.4831399568762
 21
98.12128552476224
 31
0.0
 70
   160
 71
     5
 42
49.10000000999989
  3
DSTYLE1
100
AcDbAlignedDimension
 13
261.0348045206549
 23
122.5537649002066
 33
0.0
 14
283.0347995206549
 24
73.45376489020669
 34
0.0
 50
90.0
100
AcDbRotatedDimension
1001
ACAD
1000
DSTYLE
1002
{
1070
    41
1040
2.0
1070
    42
1040
1.0
1070
    43
1040
1.0
1070
    47
1040
0.005
1070
    48
1040
-0.005
1070
    77
1070
     0
1070
    78
1070
     0
1070
   143
1040
25.4
1070
   171
1070
     0
1070
   172
1070
     1
1070
   271
1070
     0
1070
   272
1070
     1
1070
   277
1070
     6
1002
}
  0
DIMENSION
  5
179A2
330
20
100
AcDbEntity
  8
10100_FRONT_DIM
  6
Continuous
 62
     7
370
    13
100
AcDbDimension
  2
*D4
 10
257.3191951873216
 20
134.0518372475779
 30
0.0
 11
257.4386524381456
 21
128.3037699002065
 31
0.0
 70
   160
 71
     5
 42
11.49807234737132
  3
DSTYLE1
100
AcDbAlignedDimension
 13
261.0348045206549
 23
122.5537649002066
 33
0.0
 14
283.5059511786326
 24
134.0518372475779
 34
0.0
 50
90.0
100
AcDbRotatedDimension
1001
ACAD
1000
DSTYLE
1002
{
1070
    41
1040
2.0
1070
    42
1040
1.0
1070
    43
1040
1.0
1070
    47
1040
0.005
1070
    48
1040
-0.005
1070
    77
1070
     0
1070
    78
1070
     0
1070
   143
1040
25.4
1070
   171
1070
     0
1070
   172
1070
     1
1070
   271
1070
     0
1070
   272
1070
     1
1070
   277
1070
     6
1002
}
  0
LINE
  5
179A3
330
20
100
AcDbEntity
  8
10000_FRONT
  6
Continuous
 62
     7
370
    13
100
AcDbLine
 10
297.1796445206548
 20
129.4914799002065
 30
0.0
 11
297.196994520655
 21
129.4914799002065
 31
0.0
  0
LINE
  5
179A4
330
20
100
AcDbEntity
  8
10000_FRONT
  6
Continuous
 62
     7
370
    13
100
AcDbLine
 10
269.872604520655
 20
129.4914799002065
 30
0.0
 11
269.889964520655
 21
129.4914799002065
 31
0.0
  0
LINE
  5
179A5
330
20
100
AcDbEntity
  8
10000_FRONT
  6
Continuous
 62
     7
370
    13
100
AcDbLine
 10
269.793684520655
 20
129.4914799002065
 30
0.0
 11
269.7994745206549
 21
129.4914799002065
 31
0.0
  0
LINE
  5
179A6
330
20
100
AcDbEntity
  8
10000_FRONT
  6
Continuous
 62
     7
370
    13
100
AcDbLine
 10
297.270124520655
 20
129.4914799002065
 30
0.0
 11
297.2759145206548
 21
129.4914799002065
 31
0.0
  0
SPLINE
  5
179A7
330
20
100
AcDbEntity
  8
10000_FRONT
  6
Continuous
 62
     7
370
    13
100
AcDbSpline
210
0.0
220
0.0
230
1.0
 70
     8
 71
     3
 72
    15
 73
    11
 74
     0
 42
0.0000000001
 43
0.0000000001
 40
0.0
 40
0.0
 40
0.0
 40
0.0
 40
0.023802873
 40
0.023802873
 40
0.57926055
 40
0.57926055
 40
0.57926055
 40
0.92944499
 40
0.92944499
 40
1.1540386
 40
1.1540386
 40
1.1540386
 40
1.1540386
 10
281.992134520655
 20
129.4914799002065
 30
0.0
 10
281.9954345206549
 20
129.4870699002065
 30
0.0
 10
281.998874520655
 20
129.4826999002064
 30
0.0
 10
282.0858545206549
 20
129.3772299002065
 30
0.0
 10
282.2410545206549
 20
129.3023899002067
 30
0.0
 10
282.436454520655
 20
129.3023899002067
 30
0.0
 10
282.558234520655
 20
129.3023899002067
 30
0.0
 10
282.6743345206549
 20
129.3321799002066
 30
0.0
 10
282.831274520655
 20
129.4125899002065
 30
0.0
 10
282.8808845206549
 20
129.4495899002066
 30
0.0
 10
282.921234520655
 20
129.4914799002065
 30
0.0
  0
SPLINE
  5
179A8
330
20
100
AcDbEntity
  8
10000_FRONT
  6
Continuous
 62
     7
370
    13
100
AcDbSpline
210
0.0
220
0.0
230
1.0
 70
     8
 71
     3
 72
    15
 73
    11
 74
     0
 42
0.0000000001
 43
0.0000000001
 40
0.0
 40
0.0
 40
0.0
 40
0.0
 40
0.023799158
 40
0.023799158
 40
0.5792595600000002
 40
0.5792595600000002
 40
0.5792595600000002
 40
0.9294493599999999
 40
0.9294493599999999
 40
1.1540375
 40
1.1540375
 40
1.1540375
 40
1.1540375
 10
283.068814520655
 20
129.4914799002065
 30
0.0
 10
283.0726045206549
 20
129.4870699002065
 30
0.0
 10
283.0765245206549
 20
129.4826999002064
 30
0.0
 10
283.1751345206549
 20
129.3772299002065
 30
0.0
 10
283.3387945206549
 20
129.3023899002067
 30
0.0
 10
283.534804520655
 20
129.3023899002067
 30
0.0
 10
283.6569645206548
 20
129.3023899002067
 30
0.0
 10
283.7702445206549
 20
129.3321799002066
 30
0.0
 10
283.9190545206549
 20
129.4125899002065
 30
0.0
 10
283.9648345206549
 20
129.4495899002066
 30
0.0
 10
284.0007845206549
 20
129.4914799002065
 30
0.0
  0
LINE
  5
179A9
330
20
100
AcDbEntity
  8
10000_FRONT
  6
Continuous
 62
     7
370
    13
100
AcDbLine
 10
284.0007945206549
 20
125.1639999002066
 30
0.0
 11
284.0007945206549
 21
129.4914899002066
 31
0.0
  0
SPLINE
  5
179AA
330
20
100
AcDbEntity
  8
10000_FRONT
  6
Continuous
 62
     7
370
    13
100
AcDbSpline
210
0.0
220
0.0
230
1.0
 70
     8
 71
     3
 72
    15
 73
    11
 74
     0
 42
0.0000000001
 43
0.0000000001
 40
0.0
 40
0.0
 40
0.0
 40
0.0
 40
0.023810007
 40
0.023810007
 40
0.57926477
 40
0.57926477
 40
0.57926477
 40
0.92944171
 40
0.92944171
 40
1.154041099999999
 40
1.154041099999999
 40
1.154041099999999
 40
1.154041099999999
 10
279.873884520655
 20
129.4914799002065
 30
0.0
 10
279.876164520655
 20
129.4870699002065
 30
0.0
 10
279.878574520655
 20
129.4826899002067
 30
0.0
 10
279.940744520655
 20
129.3772299002065
 30
0.0
 10
280.0762145206549
 20
129.3023899002067
 30
0.0
 10
280.266804520655
 20
129.3023899002067
 30
0.0
 10
280.385584520655
 20
129.3023899002067
 30
0.0
 10
280.5051545206549
 20
129.3321799002066
 30
0.0
 10
280.675424520655
 20
129.4125899002065
 30
0.0
 10
280.7317445206549
 20
129.4495899002066
 30
0.0
 10
280.780114520655
 20
129.4914799002065
 30
0.0
  0
SPLINE
  5
179AB
330
20
100
AcDbEntity
  8
10000_FRONT
  6
Continuous
 62
     7
370
    13
100
AcDbSpline
210
0.0
220
0.0
230
1.0
 70
     8
 71
     3
 72
    15
 73
    11
 74
     0
 42
0.0000000001
 43
0.0000000001
 40
0.0
 40
0.0
 40
0.0
 40
0.0
 40
0.023817132
 40
0.023817132
 40
0.5792666600000002
 40
0.5792666600000002
 40
0.5792666600000002
 40
0.9294331599999999
 40
0.9294331599999999
 40
1.1540433
 40
1.1540433
 40
1.1540433
 40
1.1540433
 10
277.845784520655
 20
129.4914799002065
 30
0.0
 10
277.8469745206549
 20
129.4870699002065
 30
0.0
 10
277.848304520655
 20
129.4826899002067
 30
0.0
 10
277.884134520655
 20
129.3772299002065
 30
0.0
 10
277.9965445206549
 20
129.3023899002067
 30
0.0
 10
278.1776145206549
 20
129.3023899002067
 30
0.0
 10
278.290474520655
 20
129.3023899002067
 30
0.0
 10
278.410564520655
 20
129.3321699002065
 30
0.0
 10
278.589984520655
 20
129.4125899002065
 30
0.0
 10
278.651614520655
 20
129.4495799002064
 30
0.0
 10
278.706824520655
 20
129.4914799002065
 30
0.0
  0
SPLINE
  5
179AC
330
20
100
AcDbEntity
  8
10000_FRONT
  6
Continuous
 62
     7
370
    13
100
AcDbSpline
210
0.0
220
0.0
230
1.0
 70
     8
 71
     3
 72
    15
 73
    11
 74
     0
 42
0.0000000001
 43
0.0000000001
 40
0.0
 40
0.0
 40
0.0
 40
0.0
 40
0.02382447
 40
0.02382447
 40
0.5792639400000003
 40
0.5792639400000003
 40
0.5792639400000003
 40
0.9294318199999999
 40
0.9294318199999999
 40
1.154045399999998
 40
1.154045399999998
 40
1.154045399999998
 40
1.154045399999998
 10
275.957764520655
 20
129.4914799002065
 30
0.0
 10
275.9578345206549
 20
129.4870699002065
 30
0.0
 10
275.958044520655
 20
129.4826899002067
 30
0.0
 10
275.9666545206549
 20
129.3772199002065
 30
0.0
 10
276.053234520655
 20
129.3023899002067
 30
0.0
 10
276.220334520655
 20
129.3023899002067
 30
0.0
 10
276.324484520655
 20
129.3023899002067
 30
0.0
 10
276.4421545206549
 20
129.3321699002065
 30
0.0
 10
276.6262945206549
 20
129.4125899002065
 30
0.0
 10
276.6917245206549
 20
129.4495799002064
 30
0.0
 10
276.7524045206549
 20
129.4914799002065
 30
0.0
  0
SPLINE
  5
179AD
330
20
100
AcDbEntity
  8
10000_FRONT
  6
Continuous
 62
     7
370
    13
100
AcDbSpline
210
0.0
220
0.0
230
1.0
 70
     8
 71
     3
 72
    15
 73
    11
 74
     0
 42
0.0000000001
 43
0.0000000001
 40
0.0
 40
0.0
 40
0.0
 40
0.0
 40
0.023831329
 40
0.023831329
 40
0.5792704300000004
 40
0.5792704300000004
 40
0.5792704300000004
 40
0.9294158799999999
 40
0.9294158799999999
 40
1.154047699999998
 40
1.154047699999998
 40
1.154047699999998
 40
1.154047699999998
 10
274.256314520655
 20
129.4914799002065
 30
0.0
 10
274.255264520655
 20
129.4870699002065
 30
0.0
 10
274.2543545206549
 20
129.4826899002067
 30
0.0
 10
274.2355245206549
 20
129.3772199002065
 30
0.0
 10
274.294144520655
 20
129.3023899002067
 30
0.0
 10
274.4431845206549
 20
129.3023899002067
 30
0.0
 10
274.536064520655
 20
129.3023899002067
 30
0.0
 10
274.6483945206549
 20
129.3321699002065
 30
0.0
 10
274.832714520655
 20
129.4125799002066
 30
0.0
 10
274.9003345206549
 20
129.4495799002064
 30
0.0
 10
274.9649945206549
 20
129.4914799002065
 30
0.0
  0
SPLINE
  5
179AE
330
20
100
AcDbEntity
  8
10000_FRONT
  6
Continuous
 62
     7
370
    13
100
AcDbSpline
210
0.0
220
0.0
230
1.0
 70
     8
 71
     3
 72
    15
 73
    11
 74
     0
 42
0.0000000001
 43
0.0000000001
 40
0.0
 40
0.0
 40
0.0
 40
0.0
 40
0.023838842
 40
0.023838842
 40
0.57926777
 40
0.57926777
 40
0.57926777
 40
0.92941418
 40
0.92941418
 40
1.154049899999997
 40
1.154049899999997
 40
1.154049899999997
 40
1.154049899999997
 10
272.783334520655
 20
129.4914799002065
 30
0.0
 10
272.781194520655
 20
129.4870599002066
 30
0.0
 10
272.7791845206549
 20
129.4826799002065
 30
0.0
 10
272.733374520655
 20
129.3772199002065
 30
0.0
 10
272.7625945206549
 20
129.3023899002067
 30
0.0
 10
272.889874520655
 20
129.3023899002067
 30
0.0
 10
272.969194520655
 20
129.3023899002067
 30
0.0
 10
273.073444520655
 20
129.3321699002065
 30
0.0
 10
273.2534045206549
 20
129.4125799002066
 30
0.0
 10
273.321554520655
 20
129.4495799002064
 30
0.0
 10
273.388604520655
 20
129.4914799002065
 30
0.0
  0
SPLINE
  5
179AF
330
20
100
AcDbEntity
  8
10000_FRONT
  6
Continuous
 62
     7
370
    13
100
AcDbSpline
210
0.0
220
0.0
230
1.0
 70
     8
 71
     3
 72
    15
 73
    11
 74
     0
 42
0.0000000001
 43
0.0000000001
 40
0.0
 40
0.0
 40
0.0
 40
0.0
 40
0.023846065
 40
0.023846065
 40
0.57927436
 40
0.57927436
 40
0.57927436
 40
0.92939764
 40
0.92939764
 40
1.1540523
 40
1.1540523
 40
1.1540523
 40
1.1540523
 10
271.5750845206549
 20
129.4914799002065
 30
0.0
 10
271.571904520655
 20
129.4870599002066
 30
0.0
 10
271.568844520655
 20
129.4826799002065
 30
0.0
 10
271.4971945206549
 20
129.3772099002066
 30
0.0
 10
271.4962945206549
 20
129.3023899002067
 30
0.0
 10
271.5986945206549
 20
129.3023899002067
 30
0.0
 10
271.662504520655
 20
129.3023899002067
 30
0.0
 10
271.7560845206549
 20
129.3321699002065
 30
0.0
 10
271.9272645206549
 20
129.4125699002065
 30
0.0
 10
271.994254520655
 20
129.4495799002064
 30
0.0
 10
272.0620545206549
 20
129.4914799002065
 30
0.0
  0
SPLINE
  5
179B0
330
20
100
AcDbEntity
  8
10000_FRONT
  6
Continuous
 62
     7
370
    13
100
AcDbSpline
210
0.0
220
0.0
230
1.0
 70
     8
 71
     3
 72
    15
 73
    11
 74
     0
 42
0.0000000001
 43
0.0000000001
 40
0.0
 40
0.0
 40
0.0
 40
0.0
 40
0.02385389
 40
0.02385389
 40
0.5792764500000001
 40
0.5792764500000001
 40
0.5792764500000001
 40
0.9293878299999999
 40
0.9293878299999999
 40
1.154054699999998
 40
1.154054699999998
 40
1.154054699999998
 40
1.154054699999998
 10
270.661334520655
 20
129.4914799002065
 30
0.0
 10
270.6571845206549
 20
129.4870599002066
 30
0.0
 10
270.653144520655
 20
129.4826799002065
 30
0.0
 10
270.557414520655
 20
129.3772099002066
 30
0.0
 10
270.5264145206549
 20
129.3023899002067
 30
0.0
 10
270.601414520655
 20
129.3023899002067
 30
0.0
 10
270.648154520655
 20
129.3023899002067
 30
0.0
 10
270.728754520655
 20
129.3321599002066
 30
0.0
 10
270.8869345206549
 20
129.4125699002065
 30
0.0
 10
270.9511245206549
 20
129.4495699002065
 30
0.0
 10
271.0179845206549
 20
129.4914799002065
 30
0.0
  0
LINE
  5
179B1
330
20
100
AcDbEntity
  8
10000_FRONT
  6
Continuous
 62
     7
370
    13
100
AcDbLine
 10
270.5595445206549
 20
129.3329599002065
 30
0.0
 11
270.5595445206549
 21
125.1639999002066
 31
0.0
  0
LINE
  5
179B2
330
20
100
AcDbEntity
  8
10000_FRONT
  6
Continuous
 62
     7
370
    13
100
AcDbLine
 10
271.0179845206549
 20
129.4014899002064
 30
0.0
 11
271.0179845206549
 21
129.4914799002065
 31
0.0
  0
SPLINE
  5
179B3
330
20
100
AcDbEntity
  8
10000_FRONT
  6
Continuous
 62
     7
370
    13
100
AcDbSpline
210
0.0
220
0.0
230
1.0
 70
     8
 71
     3
 72
    15
 73
    11
 74
     0
 42
0.0000000001
 43
0.0000000001
 40
0.0
 40
0.0
 40
0.0
 40
0.0
 40
0.023862183
 40
0.023862183
 40
0.57927867
 40
0.57927867
 40
0.57927867
 40
0.92937735
 40
0.92937735
 40
1.1540573
 40
1.1540573
 40
1.1540573
 40
1.1540573
 10
270.0645645206549
 20
129.4914799002065
 30
0.0
 10
270.0595545206549
 20
129.4870599002066
 30
0.0
 10
270.0546345206549
 20
129.4826799002065
 30
0.0
 10
269.937174520655
 20
129.3772099002066
 30
0.0
 10
269.876844520655
 20
129.3023899002067
 30
0.0
 10
269.922594520655
 20
129.3023899002067
 30
0.0
 10
269.9511045206549
 20
129.3023899002067
 30
0.0
 10
270.016764520655
 20
129.3321599002066
 30
0.0
 10
270.1580345206549
 20
129.4125599002066
 30
0.0
 10
270.217844520655
 20
129.4495699002065
 30
0.0
 10
270.2821345206549
 20
129.4914799002065
 30
0.0
  0
LINE
  5
179B4
330
20
100
AcDbEntity
  8
10000_FRONT
  6
Continuous
 62
     7
370
    13
100
AcDbLine
 10
269.9073945206549
 20
129.3135999002067
 30
0.0
 11
269.9073945206549
 21
125.1639999002066
 31
0.0
  0
LINE
  5
179B5
330
20
100
AcDbEntity
  8
10000_FRONT
  6
Continuous
 62
     7
370
    13
100
AcDbLine
 10
270.2821345206549
 20
129.4513599002064
 30
0.0
 11
270.2821345206549
 21
129.4914799002065
 31
0.0
  0
SPLINE
  5
179B6
330
20
100
AcDbEntity
  8
10000_FRONT
  6
Continuous
 62
     7
370
    13
100
AcDbSpline
210
0.0
220
0.0
230
1.0
 70
     8
 71
     3
 72
    15
 73
    11
 74
     0
 42
0.0000000001
 43
0.0000000001
 40
0.0
 40
0.0
 40
0.0
 40
0.0
 40
0.02387136
 40
0.02387136
 40
0.57927649
 40
0.57927649
 40
0.57927649
 40
0.9293732099999999
 40
0.9293732099999999
 40
1.154060099999999
 40
1.154060099999999
 40
1.154060099999999
 40
1.154060099999999
 10
269.799484520655
 20
129.4914799002065
 30
0.0
 10
269.793724520655
 20
129.4870599002066
 30
0.0
 10
269.788044520655
 20
129.4826699002066
 30
0.0
 10
269.6517545206549
 20
129.3772099002066
 30
0.0
 10
269.5635845206549
 20
129.3023899002067
 30
0.0
 10
269.5789545206549
 20
129.3023899002067
 30
0.0
 10
269.588534520655
 20
129.3023899002067
 30
0.0
 10
269.6376245206549
 20
129.3321599002066
 30
0.0
 10
269.758524520655
 20
129.4125599002066
 30
0.0
 10
269.812474520655
 20
129.4495699002065
 30
0.0
 10
269.872604520655
 20
129.4914799002065
 30
0.0
  0
SPLINE
  5
179B7
330
20
100
AcDbEntity
  8
10000_FRONT
  6
Continuous
 62
     7
370
    13
100
AcDbSpline
210
0.0
220
0.0
230
1.0
 70
     8
 71
     3
 72
     8
 73
     4
 74
     0
 42
0.0000000001
 43
0.0000000001
 40
1.1452636
 40
1.1452636
 40
1.1452636
 40
1.1452636
 40
1.154029399999997
 40
1.154029399999997
 40
1.154029399999997
 40
1.154029399999997
 10
269.793684520655
 20
129.4869399002066
 30
0.0
 10
269.795244520655
 20
129.4882199002066
 30
0.0
 10
269.7973545206549
 20
129.4898499002066
 30
0.0
 10
269.799484520655
 20
129.4914799002065
 30
0.0
  0
SPLINE
  5
179B8
330
20
100
AcDbEntity
  8
10000_FRONT
  6
Continuous
 62
     7
370
    13
100
AcDbSpline
210
0.0
220
0.0
230
1.0
 70
     8
 71
     3
 72
    15
 73
    11
 74
     0
 42
0.0000000001
 43
0.0000000001
 40
0.0
 40
0.0
 40
0.0
 40
0.0
 40
0.023827157
 40
0.023827157
 40
0.5792673200000003
 40
0.5792673200000003
 40
0.5792673200000003
 40
0.9294168299999999
 40
0.9294168299999999
 40
1.154046899999997
 40
1.154046899999997
 40
1.154046899999997
 40
1.154046899999997
 10
297.196994520655
 20
129.4914799002065
 30
0.0
 10
297.2033345206549
 20
129.4870699002065
 30
0.0
 10
297.2096245206549
 20
129.4826899002067
 30
0.0
 10
297.3613845206548
 20
129.3772199002065
 30
0.0
 10
297.4752645206549
 20
129.3023899002067
 30
0.0
 10
297.4906445206549
 20
129.3023899002067
 30
0.0
 10
297.500224520655
 20
129.3023899002067
 30
0.0
 10
297.4688945206549
 20
129.3321699002065
 30
0.0
 10
297.371344520655
 20
129.4125799002066
 30
0.0
 10
297.3245945206548
 20
129.4495799002064
 30
0.0
 10
297.2701145206549
 20
129.4914799002065
 30
0.0
  0
SPLINE
  5
179B9
330
20
100
AcDbEntity
  8
10000_FRONT
  6
Continuous
 62
     7
370
    13
100
AcDbSpline
210
0.0
220
0.0
230
1.0
 70
     8
 71
     3
 72
    15
 73
    11
 74
     0
 42
0.0000000001
 43
0.0000000001
 40
0.0
 40
0.0
 40
0.0
 40
0.0
 40
0.023834344
 40
0.023834344
 40
0.5792692600000004
 40
0.5792692600000004
 40
0.5792692600000004
 40
0.9294081
 40
0.9294081
 40
1.154049199999997
 40
1.154049199999997
 40
1.154049199999997
 40
1.154049199999997
 10
296.7874645206549
 20
129.4914799002065
 30
0.0
 10
296.7942445206548
 20
129.4870699002065
 30
0.0
 10
296.8009945206548
 20
129.4826899002067
 30
0.0
 10
296.9645045206549
 20
129.3772199002065
 30
0.0
 10
297.1012545206549
 20
129.3023899002067
 30
0.0
 10
297.1470045206549
 20
129.3023899002067
 30
0.0
 10
297.175524520655
 20
129.3023899002067
 30
0.0
 10
297.162734520655
 20
129.3321699002065
 30
0.0
 10
297.0909345206548
 20
129.4125799002066
 30
0.0
 10
297.0525245206549
 20
129.4495799002064
 30
0.0
 10
297.0050345206549
 20
129.4914799002065
 30
0.0
  0
LINE
  5
179BA
330
20
100
AcDbEntity
  8
10000_FRONT
  6
Continuous
 62
     7
370
    13
100
AcDbLine
 10
296.7874645206549
 20
129.4914899002066
 30
0.0
 11
296.7874645206549
 21
129.4514299002065
 31
0.0
  0
SPLINE
  5
179BB
330
20
100
AcDbEntity
  8
10000_FRONT
  6
Continuous
 62
     7
370
    13
100
AcDbSpline
210
0.0
220
0.0
230
1.0
 70
     8
 71
     3
 72
    15
 73
    11
 74
     0
 42
0.0000000001
 43
0.0000000001
 40
0.0
 40
0.0
 40
0.0
 40
0.0
 40
0.023841685
 40
0.023841685
 40
0.57927123
 40
0.57927123
 40
0.57927123
 40
0.9293990799999999
 40
0.9293990799999999
 40
1.1540515
 40
1.1540515
 40
1.1540515
 40
1.1540515
 10
296.051614520655
 20
129.4914799002065
 30
0.0
 10
296.058664520655
 20
129.4870599002066
 30
0.0
 10
296.0657145206549
 20
129.4826799002065
 30
0.0
 10
296.2369345206549
 20
129.3772199002065
 30
0.0
 10
296.393194520655
 20
129.3023899002067
 30
0.0
 10
296.4681945206549
 20
129.3023899002067
 30
0.0
 10
296.5149345206549
 20
129.3023899002067
 30
0.0
 10
296.5210045206548
 20
129.3321699002065
 30
0.0
 10
296.4767345206549
 20
129.4125699002065
 30
0.0
 10
296.4476045206549
 20
129.4495799002064
 30
0.0
 10
296.4082645206549
 20
129.4914799002065
 30
0.0
  0
LINE
  5
179BC
330
20
100
AcDbEntity
  8
10000_FRONT
  6
Continuous
 62
     7
370
    13
100
AcDbLine
 10
296.051614520655
 20
129.4914899002066
 30
0.0
 11
296.051614520655
 21
129.4016199002065
 31
0.0
  0
SPLINE
  5
179BD
330
20
100
AcDbEntity
  8
10000_FRONT
  6
Continuous
 62
     7
370
    13
100
AcDbSpline
210
0.0
220
0.0
230
1.0
 70
     8
 71
     3
 72
    15
 73
    11
 74
     0
 42
0.0000000001
 43
0.0000000001
 40
0.0
 40
0.0
 40
0.0
 40
0.0
 40
0.023849278
 40
0.023849278
 40
0.57927327
 40
0.57927327
 40
0.57927327
 40
0.92938963
 40
0.92938963
 40
1.154053899999998
 40
1.154053899999998
 40
1.154053899999998
 40
1.154053899999998
 10
295.0075545206549
 20
129.4914799002065
 30
0.0
 10
295.0147045206549
 20
129.4870599002066
 30
0.0
 10
295.0218745206549
 20
129.4826799002065
 30
0.0
 10
295.1965945206548
 20
129.3772099002066
 30
0.0
 10
295.3685145206549
 20
129.3023899002067
 30
0.0
 10
295.470914520655
 20
129.3023899002067
 30
0.0
 10
295.534724520655
 20
129.3023899002067
 30
0.0
 10
295.5595145206549
 20
129.3321599002066
 30
0.0
 10
295.5438545206549
 20
129.4125699002065
 30
0.0
 10
295.524724520655
 20
129.4495699002065
 30
0.0
 10
295.494514520655
 20
129.4914799002065
 30
0.0
  0
SPLINE
  5
179BE
330
20
100
AcDbEntity
  8
10000_FRONT
  6
Continuous
 62
     7
370
    13
100
AcDbSpline
210
0.0
220
0.0
230
1.0
 70
     8
 71
     3
 72
    15
 73
    11
 74
     0
 42
0.0000000001
 43
0.0000000001
 40
0.0
 40
0.0
 40
0.0
 40
0.0
 40
0.02385724
 40
0.02385724
 40
0.5792754000000003
 40
0.5792754000000003
 40
0.5792754000000003
 40
0.9293796199999999
 40
0.9293796199999999
 40
1.154056399999997
 40
1.154056399999997
 40
1.154056399999997
 40
1.154056399999997
 10
293.6809945206548
 20
129.4914799002065
 30
0.0
 10
293.688074520655
 20
129.4870599002066
 30
0.0
 10
293.695194520655
 20
129.4826799002065
 30
0.0
 10
293.869114520655
 20
129.3772099002066
 30
0.0
 10
294.052454520655
 20
129.3023899002067
 30
0.0
 10
294.179724520655
 20
129.3023899002067
 30
0.0
 10
294.2590345206548
 20
129.3023899002067
 30
0.0
 10
294.3019245206548
 20
129.3321599002066
 30
0.0
 10
294.3152745206548
 20
129.4125699002065
 30
0.0
 10
294.306614520655
 20
129.4495699002065
 30
0.0
 10
294.286264520655
 20
129.4914799002065
 30
0.0
  0
SPLINE
  5
179BF
330
20
100
AcDbEntity
  8
10000_FRONT
  6
Continuous
 62
     7
370
    13
100
AcDbSpline
210
0.0
220
0.0
230
1.0
 70
     8
 71
     3
 72
    15
 73
    11
 74
     0
 42
0.0000000001
 43
0.0000000001
 40
0.0
 40
0.0
 40
0.0
 40
0.0
 40
0.023865707
 40
0.023865707
 40
0.57927766
 40
0.57927766
 40
0.57927766
 40
0.92936885
 40
0.92936885
 40
1.1540591
 40
1.1540591
 40
1.1540591
 40
1.1540591
 10
292.104604520655
 20
129.4914799002065
 30
0.0
 10
292.1114345206549
 20
129.4870599002066
 30
0.0
 10
292.1183245206549
 20
129.4826699002066
 30
0.0
 10
292.2871545206549
 20
129.3772099002066
 30
0.0
 10
292.4774145206549
 20
129.3023899002067
 30
0.0
 10
292.6264245206549
 20
129.3023899002067
 30
0.0
 10
292.7192845206548
 20
129.3023899002067
 30
0.0
 10
292.779214520655
 20
129.3321599002066
 30
0.0
 10
292.8212345206548
 20
129.4125599002066
 30
0.0
 10
292.8232645206549
 20
129.4495699002065
 30
0.0
 10
292.8132845206548
 20
129.4914799002065
 30
0.0
  0
SPLINE
  5
179C0
330
20
100
AcDbEntity
  8
10000_FRONT
  6
Continuous
 62
     7
370
    13
100
AcDbSpline
210
0.0
220
0.0
230
1.0
 70
     8
 71
     3
 72
    15
 73
    11
 74
     0
 42
0.0000000001
 43
0.0000000001
 40
0.0
 40
0.0
 40
0.0
 40
0.0
 40
0.023769009
 40
0.023769009
 40
0.57927303
 40
0.57927303
 40
0.57927303
 40
0.9293500099999999
 40
0.9293500099999999
 40
1.154054799999999
 40
1.154054799999999
 40
1.154054799999999
 40
1.154054799999999
 10
290.317194520655
 20
129.4914799002065
 30
0.0
 10
290.3235745206549
 20
129.4870799002066
 30
0.0
 10
290.3300445206548
 20
129.4827099002066
 30
0.0
 10
290.4896145206549
 20
129.3772399002067
 30
0.0
 10
290.682134520655
 20
129.3023899002067
 30
0.0
 10
290.849254520655
 20
129.3023899002067
 30
0.0
 10
290.953384520655
 20
129.3023899002067
 30
0.0
 10
291.028874520655
 20
129.3321599002066
 30
0.0
 10
291.0985345206549
 20
129.4125599002066
 30
0.0
 10
291.1112045206548
 20
129.4495699002065
 30
0.0
 10
291.1118345206548
 20
129.4914799002065
 30
0.0
  0
SPLINE
  5
179C1
330
20
100
AcDbEntity
  8
10000_FRONT
  6
Continuous
 62
     7
370
    13
100
AcDbSpline
210
0.0
220
0.0
230
1.0
 70
     8
 71
     3
 72
    15
 73
    11
 74
     0
 42
0.0000000001
 43
0.0000000001
 40
0.0
 40
0.0
 40
0.0
 40
0.0
 40
0.023779183
 40
0.023779183
 40
0.57925425
 40
0.57925425
 40
0.57925425
 40
0.9294724
 40
0.9294724
 40
1.154031199999999
 40
1.154031199999999
 40
1.154031199999999
 40
1.154031199999999
 10
288.3627745206549
 20
129.4914799002065
 30
0.0
 10
288.3685945206549
 20
129.4870799002066
 30
0.0
 10
288.374504520655
 20
129.4827099002066
 30
0.0
 10
288.5208945206549
 20
129.3772399002067
 30
0.0
 10
288.7108845206549
 20
129.3023899002067
 30
0.0
 10
288.891984520655
 20
129.3023899002067
 30
0.0
 10
289.0048545206549
 20
129.3023899002067
 30
0.0
 10
289.094084520655
 20
129.3321799002066
 30
0.0
 10
289.189614520655
 20
129.4125999002065
 30
0.0
 10
289.212594520655
 20
129.4495899002066
 30
0.0
 10
289.2238145206548
 20
129.4914799002065
 30
0.0
  0
SPLINE
  5
179C2
330
20
100
AcDbEntity
  8
10000_FRONT
  6
Continuous
 62
     7
370
    13
100
AcDbSpline
210
0.0
220
0.0
230
1.0
 70
     8
 71
     3
 72
    15
 73
    11
 74
     0
 42
0.0000000001
 43
0.0000000001
 40
0.0
 40
0.0
 40
0.0
 40
0.0
 40
0.023787518
 40
0.023787518
 40
0.57925647
 40
0.57925647
 40
0.57925647
 40
0.9294628799999999
 40
0.9294628799999999
 40
1.154033799999998
 40
1.154033799999998
 40
1.154033799999998
 40
1.154033799999998
 10
286.289484520655
 20
129.4914799002065
 30
0.0
 10
286.2945845206549
 20
129.4870699002065
 30
0.0
 10
286.2997945206549
 20
129.4826999002064
 30
0.0
 10
286.429404520655
 20
129.3772399002067
 30
0.0
 10
286.6122045206548
 20
129.3023899002067
 30
0.0
 10
286.8028045206549
 20
129.3023899002067
 30
0.0
 10
286.921594520655
 20
129.3023899002067
 30
0.0
 10
287.0223345206548
 20
129.3321799002066
 30
0.0
 10
287.141434520655
 20
129.4125999002065
 30
0.0
 10
287.1741745206549
 20
129.4495899002066
 30
0.0
 10
287.1957145206549
 20
129.4914799002065
 30
0.0
  0
SPLINE
  5
179C3
330
20
100
AcDbEntity
  8
10000_FRONT
  6
Continuous
 62
     7
370
    13
100
AcDbSpline
210
0.0
220
0.0
230
1.0
 70
     8
 71
     3
 72
    15
 73
    11
 74
     0
 42
0.0000000001
 43
0.0000000001
 40
0.0
 40
0.0
 40
0.0
 40
0.0
 40
0.023795371
 40
0.023795371
 40
0.57925856
 40
0.57925856
 40
0.57925856
 40
0.9294537899999999
 40
0.9294537899999999
 40
1.1540363
 40
1.1540363
 40
1.1540363
 40
1.1540363
 10
284.148364520655
 20
129.4914799002065
 30
0.0
 10
284.152614520655
 20
129.4870699002065
 30
0.0
 10
284.1569945206548
 20
129.4826999002064
 30
0.0
 10
284.2666345206549
 20
129.3772399002067
 30
0.0
 10
284.4377445206549
 20
129.3023899002067
 30
0.0
 10
284.633144520655
 20
129.3023899002067
 30
0.0
 10
284.7549345206548
 20
129.3023899002067
 30
0.0
 10
284.864704520655
 20
129.3321799002066
 30
0.0
 10
285.004454520655
 20
129.4125999002065
 30
0.0
 10
285.046134520655
 20
129.4495899002066
 30
0.0
 10
285.077464520655
 20
129.4914799002065
 30
0.0
  0
SPLINE
  5
179C4
330
20
100
AcDbEntity
  8
10000_FRONT
  6
Continuous
 62
     7
370
    13
100
AcDbSpline
210
0.0
220
0.0
230
1.0
 70
     8
 71
     3
 72
    15
 73
    11
 74
     0
 42
0.0000000001
 43
0.0000000001
 40
0.0
 40
0.0
 40
0.0
 40
0.0
 40
0.023791496
 40
0.023791496
 40
0.5792575300000001
 40
0.5792575300000001
 40
0.5792575300000001
 40
0.9294582899999999
 40
0.9294582899999999
 40
1.154035099999997
 40
1.154035099999997
 40
1.154035099999997
 40
1.154035099999997
 10
285.2241345206548
 20
129.4914799002065
 30
0.0
 10
285.2288245206549
 20
129.4870699002065
 30
0.0
 10
285.233624520655
 20
129.4826999002064
 30
0.0
 10
285.353624520655
 20
129.3772399002067
 30
0.0
 10
285.531124520655
 20
129.3023899002067
 30
0.0
 10
285.7247245206549
 20
129.3023899002067
 30
0.0
 10
285.845384520655
 20
129.3023899002067
 30
0.0
 10
285.950964520655
 20
129.3321799002066
 30
0.0
 10
286.080794520655
 20
129.4125999002065
 30
0.0
 10
286.118114520655
 20
129.4495899002066
 30
0.0
 10
286.144634520655
 20
129.4914799002065
 30
0.0
  0
LINE
  5
179C5
330
20
100
AcDbEntity
  8
10000_FRONT
  6
Continuous
 62
     7
370
    13
100
AcDbLine
 10
286.144634520655
 20
125.1639999002066
 30
0.0
 11
286.144634520655
 21
129.4914899002066
 31
0.0
  0
SPLINE
  5
179C6
330
20
100
AcDbEntity
  8
10000_FRONT
  6
Continuous
 62
     7
370
    13
100
AcDbSpline
210
0.0
220
0.0
230
1.0
 70
     8
 71
     3
 72
    15
 73
    11
 74
     0
 42
0.0000000001
 43
0.0000000001
 40
0.0
 40
0.0
 40
0.0
 40
0.0
 40
0.02378342
 40
0.02378342
 40
0.5792553800000002
 40
0.5792553800000002
 40
0.5792553800000002
 40
0.92946758
 40
0.92946758
 40
1.1540325
 40
1.1540325
 40
1.1540325
 40
1.1540325
 10
287.3378545206549
 20
129.4914799002065
 30
0.0
 10
287.3433245206548
 20
129.4870799002066
 30
0.0
 10
287.348904520655
 20
129.4826999002064
 30
0.0
 10
287.4873345206549
 20
129.3772399002067
 30
0.0
 10
287.674304520655
 20
129.3023899002067
 30
0.0
 10
287.860724520655
 20
129.3023899002067
 30
0.0
 10
287.976914520655
 20
129.3023899002067
 30
0.0
 10
288.072194520655
 20
129.3321799002066
 30
0.0
 10
288.1798445206548
 20
129.4125999002065
 30
0.0
 10
288.2077845206548
 20
129.4495899002066
 30
0.0
 10
288.2242245206549
 20
129.4914799002065
 30
0.0
  0
LINE
  5
179C7
330
20
100
AcDbEntity
  8
10000_FRONT
  6
Continuous
 62
     7
370
    13
100
AcDbLine
 10
288.2242245206549
 20
125.1639999002066
 30
0.0
 11
288.2242245206549
 21
129.4914899002066
 31
0.0
  0
SPLINE
  5
179C8
330
20
100
AcDbEntity
  8
10000_FRONT
  6
Continuous
 62
     7
370
    13
100
AcDbSpline
210
0.0
220
0.0
230
1.0
 70
     8
 71
     3
 72
    15
 73
    11
 74
     0
 42
0.0000000001
 43
0.0000000001
 40
0.0
 40
0.0
 40
0.0
 40
0.0
 40
0.023774786
 40
0.023774786
 40
0.57925308
 40
0.57925308
 40
0.57925308
 40
0.92947736
 40
0.92947736
 40
1.154029799999997
 40
1.154029799999997
 40
1.154029799999997
 40
1.154029799999997
 10
289.3579445206549
 20
129.4914799002065
 30
0.0
 10
289.364054520655
 20
129.4870799002066
 30
0.0
 10
289.370264520655
 20
129.4827099002066
 30
0.0
 10
289.5237045206549
 20
129.3772399002067
 30
0.0
 10
289.715554520655
 20
129.3023899002067
 30
0.0
 10
289.8902145206549
 20
129.3023899002067
 30
0.0
 10
289.999064520655
 20
129.3023899002067
 30
0.0
 10
290.0816945206549
 20
129.3321799002066
 30
0.0
 10
290.1645245206549
 20
129.4126099002065
 30
0.0
 10
290.1823945206548
 20
129.4495899002066
 30
0.0
 10
290.1883445206549
 20
129.4914799002065
 30
0.0
  0
LINE
  5
179C9
330
20
100
AcDbEntity
  8
10000_FRONT
  6
Continuous
 62
     7
370
    13
100
AcDbLine
 10
290.1883345206548
 20
125.1639999002066
 30
0.0
 11
290.1883345206548
 21
129.4914899002066
 31
0.0
  0
SPLINE
  5
179CA
330
20
100
AcDbEntity
  8
10000_FRONT
  6
Continuous
 62
     7
370
    13
100
AcDbSpline
210
0.0
220
0.0
230
1.0
 70
     8
 71
     3
 72
    15
 73
    11
 74
     0
 42
0.0000000001
 43
0.0000000001
 40
0.0
 40
0.0
 40
0.0
 40
0.0
 40
0.02387018
 40
0.02387018
 40
0.5792788500000004
 40
0.5792788500000004
 40
0.5792788500000004
 40
0.92936311
 40
0.92936311
 40
1.154060399999998
 40
1.154060399999998
 40
1.154060399999998
 40
1.154060399999998
 10
291.234634520655
 20
129.4914799002065
 30
0.0
 10
291.241274520655
 20
129.4870599002066
 30
0.0
 10
291.247994520655
 20
129.4826699002066
 30
0.0
 10
291.4127145206549
 20
129.3772099002066
 30
0.0
 10
291.6046645206549
 20
129.3023899002067
 30
0.0
 10
291.763204520655
 20
129.3023899002067
 30
0.0
 10
291.862004520655
 20
129.3023899002067
 30
0.0
 10
291.9299245206549
 20
129.3321599002066
 30
0.0
 10
291.9859345206548
 20
129.4125599002066
 30
0.0
 10
291.9933145206548
 20
129.4495699002065
 30
0.0
 10
291.9886245206549
 20
129.4914799002065
 30
0.0
  0
LINE
  5
179CB
330
20
100
AcDbEntity
  8
10000_FRONT
  6
Continuous
 62
     7
370
    13
100
AcDbLine
 10
291.9899045206549
 20
125.1639999002066
 30
0.0
 11
291.9899045206549
 21
129.4688899002066
 31
0.0
  0
SPLINE
  5
179CC
330
20
100
AcDbEntity
  8
10000_FRONT
  6
Continuous
 62
     7
370
    13
100
AcDbSpline
210
0.0
220
0.0
230
1.0
 70
     8
 71
     3
 72
    15
 73
    11
 74
     0
 42
0.0000000001
 43
0.0000000001
 40
0.0
 40
0.0
 40
0.0
 40
0.0
 40
0.023861401
 40
0.023861401
 40
0.5792765100000004
 40
0.5792765100000004
 40
0.5792765100000004
 40
0.92937434
 40
0.92937434
 40
1.154057699999998
 40
1.154057699999998
 40
1.154057699999998
 40
1.154057699999998
 10
292.9217345206549
 20
129.4914799002065
 30
0.0
 10
292.9287045206549
 20
129.4870599002066
 30
0.0
 10
292.935734520655
 20
129.4826799002065
 30
0.0
 10
293.1076445206548
 20
129.3772099002066
 30
0.0
 10
293.2950145206549
 20
129.3023899002067
 30
0.0
 10
293.4335845206549
 20
129.3023899002067
 30
0.0
 10
293.519944520655
 20
129.3023899002067
 30
0.0
 10
293.571514520655
 20
129.3321599002066
 30
0.0
 10
293.5992745206549
 20
129.4125599002066
 30
0.0
 10
293.595954520655
 20
129.4495699002065
 30
0.0
 10
293.580744520655
 20
129.4914799002065
 30
0.0
  0
LINE
  5
179CD
330
20
100
AcDbEntity
  8
10000_FRONT
  6
Continuous
 62
     7
370
    13
100
AcDbLine
 10
293.594664520655
 20
125.1639999002066
 30
0.0
 11
293.594664520655
 21
129.4211199002064
 31
0.0
  0
SPLINE
  5
179CE
330
20
100
AcDbEntity
  8
10000_FRONT
  6
Continuous
 62
     7
370
    13
100
AcDbSpline
210
0.0
220
0.0
230
1.0
 70
     8
 71
     3
 72
    15
 73
    11
 74
     0
 42
0.0000000001
 43
0.0000000001
 40
0.0
 40
0.0
 40
0.0
 40
0.0
 40
0.023853206
 40
0.023853206
 40
0.5792743200000002
 40
0.5792743200000002
 40
0.5792743200000002
 40
0.92938471
 40
0.92938471
 40
1.154055199999999
 40
1.154055199999999
 40
1.154055199999999
 40
1.154055199999999
 10
294.3776945206549
 20
129.4914799002065
 30
0.0
 10
294.3848345206549
 20
129.4870599002066
 30
0.0
 10
294.3920045206549
 20
129.4826799002065
 30
0.0
 10
294.566864520655
 20
129.3772099002066
 30
0.0
 10
294.7450345206549
 20
129.3023899002067
 30
0.0
 10
294.8602245206549
 20
129.3023899002067
 30
0.0
 10
294.932014520655
 20
129.3023899002067
 30
0.0
 10
294.9659545206549
 20
129.3321599002066
 30
0.0
 10
294.964794520655
 20
129.4125699002065
 30
0.0
 10
294.950864520655
 20
129.4495699002065
 30
0.0
 10
294.9255045206548
 20
129.4914799002065
 30
0.0
  0
LINE
  5
179CF
330
20
100
AcDbEntity
  8
10000_FRONT
  6
Continuous
 62
     7
370
    13
100
AcDbLine
 10
294.9652645206549
 20
125.1639999002066
 30
0.0
 11
294.9652645206549
 21
129.3798199002066
 31
0.0
  0
SPLINE
  5
179D0
330
20
100
AcDbEntity
  8
10000_FRONT
  6
Continuous
 62
     7
370
    13
100
AcDbSpline
210
0.0
220
0.0
230
1.0
 70
     8
 71
     3
 72
    15
 73
    11
 74
     0
 42
0.0000000001
 43
0.0000000001
 40
0.0
 40
0.0
 40
0.0
 40
0.0
 40
0.023845443
 40
0.023845443
 40
0.57927224
 40
0.57927224
 40
0.57927224
 40
0.92939442
 40
0.92939442
 40
1.1540527
 40
1.1540527
 40
1.1540527
 40
1.1540527
 10
295.5666745206549
 20
129.4914799002065
 30
0.0
 10
295.573794520655
 20
129.4870599002066
 30
0.0
 10
295.5809345206549
 20
129.4826799002065
 30
0.0
 10
295.7544345206549
 20
129.3772199002065
 30
0.0
 10
295.9190245206549
 20
129.3023899002067
 30
0.0
 10
296.0080045206549
 20
129.3023899002067
 30
0.0
 10
296.0634445206549
 20
129.3023899002067
 30
0.0
 10
296.0789245206549
 20
129.3321599002066
 30
0.0
 10
296.0488745206549
 20
129.4125699002065
 30
0.0
 10
296.0246645206549
 20
129.4495799002064
 30
0.0
 10
295.9897845206549
 20
129.4914799002065
 30
0.0
  0
LINE
  5
179D1
330
20
100
AcDbEntity
  8
10000_FRONT
  6
Continuous
 62
     7
370
    13
100
AcDbLine
 10
296.067944520655
 20
125.1639999002066
 30
0.0
 11
296.067944520655
 21
129.3462599002067
 31
0.0
  0
SPLINE
  5
179D2
330
20
100
AcDbEntity
  8
10000_FRONT
  6
Continuous
 62
     7
370
    13
100
AcDbSpline
210
0.0
220
0.0
230
1.0
 70
     8
 71
     3
 72
    15
 73
    11
 74
     0
 42
0.0000000001
 43
0.0000000001
 40
0.0
 40
0.0
 40
0.0
 40
0.0
 40
0.023837989
 40
0.023837989
 40
0.5792702400000001
 40
0.5792702400000001
 40
0.5792702400000001
 40
0.92940363
 40
0.92940363
 40
1.154050399999998
 40
1.154050399999998
 40
1.154050399999998
 40
1.154050399999998
 10
296.459384520655
 20
129.4914799002065
 30
0.0
 10
296.4663145206549
 20
129.4870699002065
 30
0.0
 10
296.4732445206549
 20
129.4826799002065
 30
0.0
 10
296.6411145206549
 20
129.3772199002065
 30
0.0
 10
296.7880745206548
 20
129.3023899002067
 30
0.0
 10
296.8486445206549
 20
129.3023899002067
 30
0.0
 10
296.886384520655
 20
129.3023899002067
 30
0.0
 10
296.8830145206549
 20
129.3321699002065
 30
0.0
 10
296.824804520655
 20
129.4125799002066
 30
0.0
 10
296.790924520655
 20
129.4495799002064
 30
0.0
 10
296.7473745206549
 20
129.4914799002065
 30
0.0
  0
LINE
  5
179D3
330
20
100
AcDbEntity
  8
10000_FRONT
  6
Continuous
 62
     7
370
    13
100
AcDbLine
 10
296.8755545206549
 20
125.1639999002066
 30
0.0
 11
296.8755545206549
 21
129.3217699002065
 31
0.0
  0
LINE
  5
179D4
330
20
100
AcDbEntity
  8
10000_FRONT
  6
Continuous
 62
     7
370
    13
100
AcDbLine
 10
296.459384520655
 20
129.4914899002066
 30
0.0
 11
296.459384520655
 21
129.4324299002065
 31
0.0
  0
SPLINE
  5
179D5
330
20
100
AcDbEntity
  8
10000_FRONT
  6
Continuous
 62
     7
370
    13
100
AcDbSpline
210
0.0
220
0.0
230
1.0
 70
     8
 71
     3
 72
    15
 73
    11
 74
     0
 42
0.0000000001
 43
0.0000000001
 40
0.0
 40
0.0
 40
0.0
 40
0.0
 40
0.023830737
 40
0.023830737
 40
0.57926829
 40
0.57926829
 40
0.57926829
 40
0.9294124999999999
 40
0.9294124999999999
 40
1.1540481
 40
1.1540481
 40
1.1540481
 40
1.1540481
 10
297.0338445206548
 20
129.4914799002065
 30
0.0
 10
297.0404245206549
 20
129.4870699002065
 30
0.0
 10
297.0469645206549
 20
129.4826899002067
 30
0.0
 10
297.2050845206549
 20
129.3772199002065
 30
0.0
 10
297.3307945206549
 20
129.3023899002067
 30
0.0
 10
297.361444520655
 20
129.3023899002067
 30
0.0
 10
297.3805545206549
 20
129.3023899002067
 30
0.0
 10
297.358434520655
 20
129.3321699002065
 30
0.0
 10
297.2734945206549
 20
129.4125799002066
 30
0.0
 10
297.2307745206549
 20
129.4495799002064
 30
0.0
 10
297.1796345206549
 20
129.4914799002065
 30
0.0
  0
LINE
  5
179D6
330
20
100
AcDbEntity
  8
10000_FRONT
  6
Continuous
 62
     7
370
    13
100
AcDbLine
 10
297.0338445206548
 20
129.4914899002066
 30
0.0
 11
297.0338445206548
 21
129.4656399002065
 31
0.0
  0
SPLINE
  5
179D7
330
20
100
AcDbEntity
  8
10000_FRONT
  6
Continuous
 62
     7
370
    13
100
AcDbSpline
210
0.0
220
0.0
230
1.0
 70
     8
 71
     3
 72
    10
 73
     6
 74
     0
 42
0.0000000001
 43
0.0000000001
 40
0.0
 40
0.0
 40
0.0
 40
0.0
 40
0.023823591
 40
0.023823591
 40
0.57926636
 40
0.57926636
 40
0.57926636
 40
0.57926636
 10
297.2759145206548
 20
129.4914799002065
 30
0.0
 10
297.281974520655
 20
129.4870699002065
 30
0.0
 10
297.2879745206549
 20
129.4826899002067
 30
0.0
 10
297.4324445206549
 20
129.3772199002065
 30
0.0
 10
297.5338045206549
 20
129.3023899002067
 30
0.0
 10
297.5338045206549
 20
129.3023899002067
 30
0.0
  0
LINE
  5
179D8
330
20
100
AcDbEntity
  8
10000_FRONT
  6
Continuous
 62
     7
370
    50
100
AcDbLine
 10
297.5338045206549
 20
125.1639999002066
 30
0.0
 11
297.5338045206549
 21
129.3023899002067
 31
0.0
  0
SPLINE
  5
179D9
330
20
100
AcDbEntity
  8
10000_FRONT
  6
Continuous
 62
     7
370
    13
100
AcDbSpline
210
0.0
220
0.0
230
1.0
 70
     8
 71
     3
 72
     8
 73
     4
 74
     0
 42
0.0000000001
 43
0.0000000001
 40
1.1252514
 40
1.1252514
 40
1.1252514
 40
1.1252514
 40
1.154030799999999
 40
1.154030799999999
 40
1.154030799999999
 40
1.154030799999999
 10
269.872604520655
 20
129.4766599002067
 30
0.0
 10
269.876994520655
 20
129.4808299002064
 30
0.0
 10
269.8834045206549
 20
129.4861199002064
 30
0.0
 10
269.889964520655
 20
129.4914799002065
 30
0.0
  0
SPLINE
  5
179DA
330
20
100
AcDbEntity
  8
10000_FRONT
  6
Continuous
 62
     7
370
    13
100
AcDbSpline
210
0.0
220
0.0
230
1.0
 70
     8
 71
     3
 72
    10
 73
     6
 74
     0
 42
0.0000000001
 43
0.0000000001
 40
0.5792518
 40
0.5792518
 40
0.5792518
 40
0.5792518
 40
0.92932629
 40
0.92932629
 40
1.154033199999997
 40
1.154033199999997
 40
1.154033199999997
 40
1.154033199999997
 10
269.5358045206549
 20
129.3023899002067
 30
0.0
 10
269.5358045206549
 20
129.3023899002067
 30
0.0
 10
269.5761245206549
 20
129.3321599002066
 30
0.0
 10
269.6856745206549
 20
129.4125599002066
 30
0.0
 10
269.736194520655
 20
129.4495699002065
 30
0.0
 10
269.793684520655
 20
129.4914799002065
 30
0.0
  0
LINE
  5
179DB
330
20
100
AcDbEntity
  8
10000_FRONT
  6
Continuous
 62
     7
370
    50
100
AcDbLine
 10
269.5358045206549
 20
129.3023899002067
 30
0.0
 11
269.5358045206549
 21
125.1639999002066
 31
0.0
  0
SPLINE
  5
179DC
330
20
100
AcDbEntity
  8
10000_FRONT
  6
Continuous
 62
     7
370
    13
100
AcDbSpline
210
0.0
220
0.0
230
1.0
 70
     8
 71
     3
 72
    15
 73
    11
 74
     0
 42
0.0000000001
 43
0.0000000001
 40
0.0
 40
0.0
 40
0.0
 40
0.0
 40
0.023866552
 40
0.023866552
 40
0.57927985
 40
0.57927985
 40
0.57927985
 40
0.9293717799999999
 40
0.9293717799999999
 40
1.154058699999997
 40
1.154058699999997
 40
1.154058699999997
 40
1.154058699999997
 10
269.889964520655
 20
129.4914799002065
 30
0.0
 10
269.8845645206549
 20
129.4870599002066
 30
0.0
 10
269.879244520655
 20
129.4826699002066
 30
0.0
 10
269.7519745206549
 20
129.3772099002066
 30
0.0
 10
269.6774945206549
 20
129.3023899002067
 30
0.0
 10
269.7081545206549
 20
129.3023899002067
 30
0.0
 10
269.727254520655
 20
129.3023899002067
 30
0.0
 10
269.784804520655
 20
129.3321599002066
 30
0.0
 10
269.916294520655
 20
129.4125599002066
 30
0.0
 10
269.973354520655
 20
129.4495699002065
 30
0.0
 10
270.035754520655
 20
129.4914799002065
 30
0.0
  0
LINE
  5
179DD
330
20
100
AcDbEntity
  8
10000_FRONT
  6
Continuous
 62
     7
370
    13
100
AcDbLine
 10
270.035754520655
 20
129.4656099002067
 30
0.0
 11
270.035754520655
 21
129.4914799002065
 31
0.0
  0
SPLINE
  5
179DE
330
20
100
AcDbEntity
  8
10000_FRONT
  6
Continuous
 62
     7
370
    13
100
AcDbSpline
210
0.0
220
0.0
230
1.0
 70
     8
 71
     3
 72
    15
 73
    11
 74
     0
 42
0.0000000001
 43
0.0000000001
 40
0.0
 40
0.0
 40
0.0
 40
0.0
 40
0.023858229
 40
0.023858229
 40
0.57927296
 40
0.57927296
 40
0.57927296
 40
0.9293899299999999
 40
0.9293899299999999
 40
1.154055899999999
 40
1.154055899999999
 40
1.154055899999999
 40
1.154055899999999
 10
270.3222245206549
 20
129.4914799002065
 30
0.0
 10
270.3176245206549
 20
129.4870599002066
 30
0.0
 10
270.3131245206549
 20
129.4826799002065
 30
0.0
 10
270.2062145206549
 20
129.3772099002066
 30
0.0
 10
270.1604045206549
 20
129.3023899002067
 30
0.0
 10
270.2209545206549
 20
129.3023899002067
 30
0.0
 10
270.258694520655
 20
129.3023899002067
 30
0.0
 10
270.3320645206549
 20
129.3321599002066
 30
0.0
 10
270.4822545206549
 20
129.4125699002065
 30
0.0
 10
270.544434520655
 20
129.4495699002065
 30
0.0
 10
270.6102145206549
 20
129.4914799002065
 30
0.0
  0
LINE
  5
179DF
330
20
100
AcDbEntity
  8
10000_FRONT
  6
Continuous
 62
     7
370
    13
100
AcDbLine
 10
270.6102145206549
 20
129.4322999002065
 30
0.0
 11
270.6102145206549
 21
129.4914799002065
 31
0.0
  0
SPLINE
  5
179E0
330
20
100
AcDbEntity
  8
10000_FRONT
  6
Continuous
 62
     7
370
    13
100
AcDbSpline
210
0.0
220
0.0
230
1.0
 70
     8
 71
     3
 72
    15
 73
    11
 74
     0
 42
0.0000000001
 43
0.0000000001
 40
0.0
 40
0.0
 40
0.0
 40
0.0
 40
0.023849928
 40
0.023849928
 40
0.57927539
 40
0.57927539
 40
0.57927539
 40
0.9293928099999998
 40
0.9293928099999998
 40
1.1540535
 40
1.1540535
 40
1.1540535
 40
1.1540535
 10
271.0798145206549
 20
129.4914799002065
 30
0.0
 10
271.076144520655
 20
129.4870599002066
 30
0.0
 10
271.0725745206549
 20
129.4826799002065
 30
0.0
 10
270.9886245206549
 20
129.3772099002066
 30
0.0
 10
270.972624520655
 20
129.3023899002067
 30
0.0
 10
271.0616045206549
 20
129.3023899002067
 30
0.0
 10
271.1170545206549
 20
129.3023899002067
 30
0.0
 10
271.2044145206549
 20
129.3321599002066
 30
0.0
 10
271.3695945206549
 20
129.4125699002065
 30
0.0
 10
271.435384520655
 20
129.4495799002064
 30
0.0
 10
271.502924520655
 20
129.4914799002065
 30
0.0
  0
LINE
  5
179E1
330
20
100
AcDbEntity
  8
10000_FRONT
  6
Continuous
 62
     7
370
    13
100
AcDbLine
 10
271.502924520655
 20
125.1639999002066
 30
0.0
 11
271.502924520655
 21
129.4914799002065
 31
0.0
  0
SPLINE
  5
179E2
330
20
100
AcDbEntity
  8
10000_FRONT
  6
Continuous
 62
     7
370
    13
100
AcDbSpline
210
0.0
220
0.0
230
1.0
 70
     8
 71
     3
 72
    15
 73
    11
 74
     0
 42
0.0000000001
 43
0.0000000001
 40
0.0
 40
0.0
 40
0.0
 40
0.0
 40
0.023842548
 40
0.023842548
 40
0.5792687600000001
 40
0.5792687600000001
 40
0.5792687600000001
 40
0.9294095799999999
 40
0.9294095799999999
 40
1.154050999999999
 40
1.154050999999999
 40
1.154050999999999
 40
1.154050999999999
 10
272.144094520655
 20
129.4914799002065
 30
0.0
 10
272.1414245206549
 20
129.4870599002066
 30
0.0
 10
272.138884520655
 20
129.4826799002065
 30
0.0
 10
272.079974520655
 20
129.3772199002065
 30
0.0
 10
272.0941745206549
 20
129.3023899002067
 30
0.0
 10
272.2093645206549
 20
129.3023899002067
 30
0.0
 10
272.281164520655
 20
129.3023899002067
 30
0.0
 10
272.3803745206549
 20
129.3321699002065
 30
0.0
 10
272.5564945206549
 20
129.4125799002066
 30
0.0
 10
272.624274520655
 20
129.4495799002064
 30
0.0
 10
272.6919045206549
 20
129.4914799002065
 30
0.0
  0
LINE
  5
179E3
330
20
100
AcDbEntity
  8
10000_FRONT
  6
Continuous
 62
     7
370
    13
100
AcDbLine
 10
272.6919045206549
 20
125.1639999002066
 30
0.0
 11
272.6919045206549
 21
129.4914799002065
 31
0.0
  0
SPLINE
  5
179E4
330
20
100
AcDbEntity
  8
10000_FRONT
  6
Continuous
 62
     7
370
    13
100
AcDbSpline
210
0.0
220
0.0
230
1.0
 70
     8
 71
     3
 72
    15
 73
    11
 74
     0
 42
0.0000000001
 43
0.0000000001
 40
0.0
 40
0.0
 40
0.0
 40
0.0
 40
0.023835193
 40
0.023835193
 40
0.5792668000000001
 40
0.5792668000000001
 40
0.5792668000000001
 40
0.92941868
 40
0.92941868
 40
1.154048699999999
 40
1.154048699999999
 40
1.154048699999999
 40
1.154048699999999
 10
273.4888545206549
 20
129.4914799002065
 30
0.0
 10
273.487254520655
 20
129.4870699002065
 30
0.0
 10
273.4857945206549
 20
129.4826899002067
 30
0.0
 10
273.4533745206549
 20
129.3772199002065
 30
0.0
 10
273.497424520655
 20
129.3023899002067
 30
0.0
 10
273.6360045206549
 20
129.3023899002067
 30
0.0
 10
273.7223745206549
 20
129.3023899002067
 30
0.0
 10
273.831004520655
 20
129.3321699002065
 30
0.0
 10
274.0137145206549
 20
129.4125799002066
 30
0.0
 10
274.0818045206549
 20
129.4495799002064
 30
0.0
 10
274.1478645206549
 20
129.4914799002065
 30
0.0
  0
LINE
  5
179E5
330
20
100
AcDbEntity
  8
10000_FRONT
  6
Continuous
 62
     7
370
    13
100
AcDbLine
 10
274.1478645206549
 20
125.1639999002066
 30
0.0
 11
274.1478645206549
 21
129.4914799002065
 31
0.0
  0
SPLINE
  5
179E6
330
20
100
AcDbEntity
  8
10000_FRONT
  6
Continuous
 62
     7
370
    13
100
AcDbSpline
210
0.0
220
0.0
230
1.0
 70
     8
 71
     3
 72
    15
 73
    11
 74
     0
 42
0.0000000001
 43
0.0000000001
 40
0.0
 40
0.0
 40
0.0
 40
0.0
 40
0.023828018
 40
0.023828018
 40
0.5792648900000003
 40
0.5792648900000003
 40
0.5792648900000003
 40
0.9294274899999999
 40
0.9294274899999999
 40
1.154046499999997
 40
1.154046499999997
 40
1.154046499999997
 40
1.154046499999997
 10
275.0809745206549
 20
129.4914799002065
 30
0.0
 10
275.0804945206549
 20
129.4870699002065
 30
0.0
 10
275.080144520655
 20
129.4826899002067
 30
0.0
 10
275.0750145206549
 20
129.3772199002065
 30
0.0
 10
275.147834520655
 20
129.3023899002067
 30
0.0
 10
275.3063945206549
 20
129.3023899002067
 30
0.0
 10
275.405214520655
 20
129.3023899002067
 30
0.0
 10
275.520574520655
 20
129.3321699002065
 30
0.0
 10
275.7053645206549
 20
129.4125799002066
 30
0.0
 10
275.7720945206549
 20
129.4495799002064
 30
0.0
 10
275.834964520655
 20
129.4914799002065
 30
0.0
  0
LINE
  5
179E7
330
20
100
AcDbEntity
  8
10000_FRONT
  6
Continuous
 62
     7
370
    13
100
AcDbLine
 10
275.834964520655
 20
125.1639999002066
 30
0.0
 11
275.834964520655
 21
129.4914799002065
 31
0.0
  0
SPLINE
  5
179E8
330
20
100
AcDbEntity
  8
10000_FRONT
  6
Continuous
 62
     7
370
    13
100
AcDbSpline
210
0.0
220
0.0
230
1.0
 70
     8
 71
     3
 72
    15
 73
    11
 74
     0
 42
0.0000000001
 43
0.0000000001
 40
0.0
 40
0.0
 40
0.0
 40
0.0
 40
0.023820671
 40
0.023820671
 40
0.5792676000000001
 40
0.5792676000000001
 40
0.5792676000000001
 40
0.92942888
 40
0.92942888
 40
1.154044399999998
 40
1.154044399999998
 40
1.154044399999998
 40
1.154044399999998
 10
276.881264520655
 20
129.4914799002065
 30
0.0
 10
276.8818945206549
 20
129.4870699002065
 30
0.0
 10
276.8826645206549
 20
129.4826899002067
 30
0.0
 10
276.904954520655
 20
129.3772199002065
 30
0.0
 10
277.0047545206549
 20
129.3023899002067
 30
0.0
 10
277.1793945206549
 20
129.3023899002067
 30
0.0
 10
277.288224520655
 20
129.3023899002067
 30
0.0
 10
277.407474520655
 20
129.3321699002065
 30
0.0
 10
277.5898145206549
 20
129.4125899002065
 30
0.0
 10
277.6535345206549
 20
129.4495799002064
 30
0.0
 10
277.7116645206549
 20
129.4914799002065
 30
0.0
  0
LINE
  5
179E9
330
20
100
AcDbEntity
  8
10000_FRONT
  6
Continuous
 62
     7
370
    13
100
AcDbLine
 10
277.7116645206549
 20
125.1639999002066
 30
0.0
 11
277.7116645206549
 21
129.4914799002065
 31
0.0
  0
SPLINE
  5
179EA
330
20
100
AcDbEntity
  8
10000_FRONT
  6
Continuous
 62
     7
370
    13
100
AcDbSpline
210
0.0
220
0.0
230
1.0
 70
     8
 71
     3
 72
    15
 73
    11
 74
     0
 42
0.0000000001
 43
0.0000000001
 40
0.0
 40
0.0
 40
0.0
 40
0.0
 40
0.023813841
 40
0.023813841
 40
0.57926112
 40
0.57926112
 40
0.57926112
 40
0.92944466
 40
0.92944466
 40
1.1540421
 40
1.1540421
 40
1.1540421
 40
1.1540421
 10
278.8453845206549
 20
129.4914799002065
 30
0.0
 10
278.8471145206549
 20
129.4870699002065
 30
0.0
 10
278.8489945206549
 20
129.4826899002067
 30
0.0
 10
278.8981445206549
 20
129.3772299002065
 30
0.0
 10
279.022464520655
 20
129.3023899002067
 30
0.0
 10
279.2088645206549
 20
129.3023899002067
 30
0.0
 10
279.3250445206549
 20
129.3023899002067
 30
0.0
 10
279.445254520655
 20
129.3321699002065
 30
0.0
 10
279.620644520655
 20
129.4125899002065
 30
0.0
 10
279.679794520655
 20
129.4495899002066
 30
0.0
 10
279.7317445206549
 20
129.4914799002065
 30
0.0
  0
LINE
  5
179EB
330
20
100
AcDbEntity
  8
10000_FRONT
  6
Continuous
 62
     7
370
    13
100
AcDbLine
 10
279.7317445206549
 20
125.1639999002066
 30
0.0
 11
279.7317445206549
 21
129.4914799002065
 31
0.0
  0
SPLINE
  5
179EC
330
20
100
AcDbEntity
  8
10000_FRONT
  6
Continuous
 62
     7
370
    13
100
AcDbSpline
210
0.0
220
0.0
230
1.0
 70
     8
 71
     3
 72
    15
 73
    11
 74
     0
 42
0.0000000001
 43
0.0000000001
 40
0.0
 40
0.0
 40
0.0
 40
0.0
 40
0.023806659
 40
0.023806659
 40
0.57925922
 40
0.57925922
 40
0.57925922
 40
0.9294532199999999
 40
0.9294532199999999
 40
1.154039899999999
 40
1.154039899999999
 40
1.154039899999999
 40
1.154039899999999
 10
280.9249645206549
 20
129.4914799002065
 30
0.0
 10
280.9277645206549
 20
129.4870699002065
 30
0.0
 10
280.930694520655
 20
129.4826999002064
 30
0.0
 10
281.005504520655
 20
129.3772299002065
 30
0.0
 10
281.1512845206549
 20
129.3023899002067
 30
0.0
 10
281.3448645206549
 20
129.3023899002067
 30
0.0
 10
281.465524520655
 20
129.3023899002067
 30
0.0
 10
281.5837345206548
 20
129.3321799002066
 30
0.0
 10
281.747844520655
 20
129.4125899002065
 30
0.0
 10
281.800974520655
 20
129.4495899002066
 30
0.0
 10
281.845464520655
 20
129.4914799002065
 30
0.0
  0
LINE
  5
179ED
330
20
100
AcDbEntity
  8
10000_FRONT
  6
Continuous
 62
     7
370
    13
100
AcDbLine
 10
281.845464520655
 20
125.1639999002066
 30
0.0
 11
281.845464520655
 21
129.4914799002065
 31
0.0
  0
LINE
  5
179EE
330
20
100
AcDbEntity
  8
10000_FRONT
  6
Continuous
 62
     7
370
    13
100
AcDbLine
 10
281.845464520655
 20
129.4914799002065
 30
0.0
 11
281.992134520655
 21
129.4914799002065
 31
0.0
  0
LINE
  5
179EF
330
20
100
AcDbEntity
  8
10000_FRONT
  6
Continuous
 62
     7
370
    13
100
AcDbLine
 10
282.921234520655
 20
129.4914799002065
 30
0.0
 11
283.068814520655
 21
129.4914799002065
 31
0.0
  0
LINE
  5
179F0
330
20
100
AcDbEntity
  8
10000_FRONT
  6
Continuous
 62
     7
370
    13
100
AcDbLine
 10
284.0007945206549
 20
129.4914799002065
 30
0.0
 11
284.148364520655
 21
129.4914799002065
 31
0.0
  0
LINE
  5
179F1
330
20
100
AcDbEntity
  8
10000_FRONT
  6
Continuous
 62
     7
370
    13
100
AcDbLine
 10
297.0050345206549
 20
129.4914799002065
 30
0.0
 11
297.0338445206548
 21
129.4914799002065
 31
0.0
  0
LINE
  5
179F2
330
20
100
AcDbEntity
  8
10000_FRONT
  6
Continuous
 62
     7
370
    13
100
AcDbLine
 10
296.7473745206549
 20
129.4914799002065
 30
0.0
 11
296.7874645206549
 21
129.4914799002065
 31
0.0
  0
LINE
  5
179F3
330
20
100
AcDbEntity
  8
10000_FRONT
  6
Continuous
 62
     7
370
    13
100
AcDbLine
 10
296.4082645206549
 20
129.4914799002065
 30
0.0
 11
296.459384520655
 21
129.4914799002065
 31
0.0
  0
LINE
  5
179F4
330
20
100
AcDbEntity
  8
10000_FRONT
  6
Continuous
 62
     7
370
    13
100
AcDbLine
 10
295.9897845206549
 20
129.4914799002065
 30
0.0
 11
296.051614520655
 21
129.4914799002065
 31
0.0
  0
LINE
  5
179F5
330
20
100
AcDbEntity
  8
10000_FRONT
  6
Continuous
 62
     7
370
    13
100
AcDbLine
 10
295.4945045206549
 20
129.4914799002065
 30
0.0
 11
295.5666745206549
 21
129.4914799002065
 31
0.0
  0
LINE
  5
179F6
330
20
100
AcDbEntity
  8
10000_FRONT
  6
Continuous
 62
     7
370
    13
100
AcDbLine
 10
294.9255045206548
 20
129.4914799002065
 30
0.0
 11
295.0075545206549
 21
129.4914799002065
 31
0.0
  0
LINE
  5
179F7
330
20
100
AcDbEntity
  8
10000_FRONT
  6
Continuous
 62
     7
370
    13
100
AcDbLine
 10
294.286264520655
 20
129.4914799002065
 30
0.0
 11
294.3776945206549
 21
129.4914799002065
 31
0.0
  0
LINE
  5
179F8
330
20
100
AcDbEntity
  8
10000_FRONT
  6
Continuous
 62
     7
370
    13
100
AcDbLine
 10
293.580744520655
 20
129.4914799002065
 30
0.0
 11
293.6809945206548
 21
129.4914799002065
 31
0.0
  0
LINE
  5
179F9
330
20
100
AcDbEntity
  8
10000_FRONT
  6
Continuous
 62
     7
370
    13
100
AcDbLine
 10
292.8132845206548
 20
129.4914799002065
 30
0.0
 11
292.9217345206549
 21
129.4914799002065
 31
0.0
  0
LINE
  5
179FA
330
20
100
AcDbEntity
  8
10000_FRONT
  6
Continuous
 62
     7
370
    13
100
AcDbLine
 10
291.9886245206549
 20
129.4914799002065
 30
0.0
 11
292.104604520655
 21
129.4914799002065
 31
0.0
  0
LINE
  5
179FB
330
20
100
AcDbEntity
  8
10000_FRONT
  6
Continuous
 62
     7
370
    13
100
AcDbLine
 10
291.1118345206548
 20
129.4914799002065
 30
0.0
 11
291.234634520655
 21
129.4914799002065
 31
0.0
  0
LINE
  5
179FC
330
20
100
AcDbEntity
  8
10000_FRONT
  6
Continuous
 62
     7
370
    13
100
AcDbLine
 10
290.1883345206548
 20
129.4914799002065
 30
0.0
 11
290.317194520655
 21
129.4914799002065
 31
0.0
  0
LINE
  5
179FD
330
20
100
AcDbEntity
  8
10000_FRONT
  6
Continuous
 62
     7
370
    13
100
AcDbLine
 10
289.2238145206548
 20
129.4914799002065
 30
0.0
 11
289.357934520655
 21
129.4914799002065
 31
0.0
  0
LINE
  5
179FE
330
20
100
AcDbEntity
  8
10000_FRONT
  6
Continuous
 62
     7
370
    13
100
AcDbLine
 10
288.2242245206549
 20
129.4914799002065
 30
0.0
 11
288.3627845206549
 21
129.4914799002065
 31
0.0
  0
LINE
  5
179FF
330
20
100
AcDbEntity
  8
10000_FRONT
  6
Continuous
 62
     7
370
    13
100
AcDbLine
 10
287.1957145206549
 20
129.4914799002065
 30
0.0
 11
287.3378545206549
 21
129.4914799002065
 31
0.0
  0
LINE
  5
17A00
330
20
100
AcDbEntity
  8
10000_FRONT
  6
Continuous
 62
     7
370
    13
100
AcDbLine
 10
286.144634520655
 20
129.4914799002065
 30
0.0
 11
286.289484520655
 21
129.4914799002065
 31
0.0
  0
LINE
  5
17A01
330
20
100
AcDbEntity
  8
10000_FRONT
  6
Continuous
 62
     7
370
    13
100
AcDbLine
 10
285.077464520655
 20
129.4914799002065
 30
0.0
 11
285.2241345206548
 21
129.4914799002065
 31
0.0
  0
LINE
  5
17A02
330
20
100
AcDbEntity
  8
10000_FRONT
  6
Continuous
 62
     7
370
    13
100
AcDbLine
 10
280.780114520655
 20
129.4914799002065
 30
0.0
 11
280.9249645206549
 21
129.4914799002065
 31
0.0
  0
LINE
  5
17A03
330
20
100
AcDbEntity
  8
10000_FRONT
  6
Continuous
 62
     7
370
    13
100
AcDbLine
 10
279.7317445206549
 20
129.4914799002065
 30
0.0
 11
279.873884520655
 21
129.4914799002065
 31
0.0
  0
LINE
  5
17A04
330
20
100
AcDbEntity
  8
10000_FRONT
  6
Continuous
 62
     7
370
    13
100
AcDbLine
 10
278.706824520655
 20
129.4914799002065
 30
0.0
 11
278.8453745206549
 21
129.4914799002065
 31
0.0
  0
LINE
  5
17A05
330
20
100
AcDbEntity
  8
10000_FRONT
  6
Continuous
 62
     7
370
    13
100
AcDbLine
 10
277.7116645206549
 20
129.4914799002065
 30
0.0
 11
277.845784520655
 21
129.4914799002065
 31
0.0
  0
LINE
  5
17A06
330
20
100
AcDbEntity
  8
10000_FRONT
  6
Continuous
 62
     7
370
    13
100
AcDbLine
 10
276.7524045206549
 20
129.4914799002065
 30
0.0
 11
276.881264520655
 21
129.4914799002065
 31
0.0
  0
LINE
  5
17A07
330
20
100
AcDbEntity
  8
10000_FRONT
  6
Continuous
 62
     7
370
    13
100
AcDbLine
 10
275.834964520655
 20
129.4914799002065
 30
0.0
 11
275.957764520655
 21
129.4914799002065
 31
0.0
  0
LINE
  5
17A08
330
20
100
AcDbEntity
  8
10000_FRONT
  6
Continuous
 62
     7
370
    13
100
AcDbLine
 10
274.9649945206549
 20
129.4914799002065
 30
0.0
 11
275.0809845206549
 21
129.4914799002065
 31
0.0
  0
LINE
  5
17A09
330
20
100
AcDbEntity
  8
10000_FRONT
  6
Continuous
 62
     7
370
    13
100
AcDbLine
 10
274.1478645206549
 20
129.4914799002065
 30
0.0
 11
274.256314520655
 21
129.4914799002065
 31
0.0
  0
LINE
  5
17A0A
330
20
100
AcDbEntity
  8
10000_FRONT
  6
Continuous
 62
     7
370
    13
100
AcDbLine
 10
273.388604520655
 20
129.4914799002065
 30
0.0
 11
273.4888545206549
 21
129.4914799002065
 31
0.0
  0
LINE
  5
17A0B
330
20
100
AcDbEntity
  8
10000_FRONT
  6
Continuous
 62
     7
370
    13
100
AcDbLine
 10
272.6919045206549
 20
129.4914799002065
 30
0.0
 11
272.783334520655
 21
129.4914799002065
 31
0.0
  0
LINE
  5
17A0C
330
20
100
AcDbEntity
  8
10000_FRONT
  6
Continuous
 62
     7
370
    13
100
AcDbLine
 10
272.0620445206549
 20
129.4914799002065
 30
0.0
 11
272.144104520655
 21
129.4914799002065
 31
0.0
  0
LINE
  5
17A0D
330
20
100
AcDbEntity
  8
10000_FRONT
  6
Continuous
 62
     7
370
    13
100
AcDbLine
 10
271.502924520655
 20
129.4914799002065
 30
0.0
 11
271.5750945206549
 21
129.4914799002065
 31
0.0
  0
LINE
  5
17A0E
330
20
100
AcDbEntity
  8
10000_FRONT
  6
Continuous
 62
     7
370
    13
100
AcDbLine
 10
271.0179845206549
 20
129.4914799002065
 30
0.0
 11
271.0798145206549
 21
129.4914799002065
 31
0.0
  0
LINE
  5
17A0F
330
20
100
AcDbEntity
  8
10000_FRONT
  6
Continuous
 62
     7
370
    13
100
AcDbLine
 10
270.6102145206549
 20
129.4914799002065
 30
0.0
 11
270.661334520655
 21
129.4914799002065
 31
0.0
  0
LINE
  5
17A10
330
20
100
AcDbEntity
  8
10000_FRONT
  6
Continuous
 62
     7
370
    13
100
AcDbLine
 10
270.2821345206549
 20
129.4914799002065
 30
0.0
 11
270.3222245206549
 21
129.4914799002065
 31
0.0
  0
LINE
  5
17A11
330
20
100
AcDbEntity
  8
10000_FRONT
  6
Continuous
 62
     7
370
    13
100
AcDbLine
 10
270.035754520655
 20
129.4914799002065
 30
0.0
 11
270.0645645206549
 21
129.4914799002065
 31
0.0
  0
LINE
  5
17A12
330
20
100
AcDbEntity
  8
10000_FRONT
  6
Continuous
 62
     7
370
    50
100
AcDbLine
 10
297.5338045206549
 20
122.5538199002065
 30
0.0
 11
297.5338045206549
 21
125.1639999002066
 31
0.0
  0
LINE
  5
17A13
330
20
100
AcDbEntity
  8
10000_FRONT
  6
Continuous
 62
     7
370
    50
100
AcDbLine
 10
269.5358045206549
 20
125.1639999002066
 30
0.0
 11
269.5358045206549
 21
122.5537099002066
 31
0.0
  0
LINE
  5
17A14
330
20
100
AcDbEntity
  8
10000_FRONT
  6
Continuous
 62
     7
370
    13
100
AcDbLine
 10
297.5338045206549
 20
125.1639999002066
 30
0.0
 11
297.4906445206549
 21
125.1639999002066
 31
0.0
  0
LINE
  5
17A15
330
20
100
AcDbEntity
  8
10000_FRONT
  6
Continuous
 62
     7
370
    13
100
AcDbLine
 10
297.4906445206549
 20
125.1639999002066
 30
0.0
 11
297.361444520655
 21
125.1639999002066
 31
0.0
  0
LINE
  5
17A16
330
20
100
AcDbEntity
  8
10000_FRONT
  6
Continuous
 62
     7
370
    13
100
AcDbLine
 10
297.361444520655
 20
125.1639999002066
 30
0.0
 11
297.1470045206549
 21
125.1639999002066
 31
0.0
  0
LINE
  5
17A17
330
20
100
AcDbEntity
  8
10000_FRONT
  6
Continuous
 62
     7
370
    13
100
AcDbLine
 10
297.1470045206549
 20
125.1639999002066
 30
0.0
 11
296.8486445206549
 21
125.1639999002066
 31
0.0
  0
LINE
  5
17A18
330
20
100
AcDbEntity
  8
10000_FRONT
  6
Continuous
 62
     7
370
    13
100
AcDbLine
 10
296.8486445206549
 20
125.1639999002066
 30
0.0
 11
296.4681945206549
 21
125.1639999002066
 31
0.0
  0
LINE
  5
17A19
330
20
100
AcDbEntity
  8
10000_FRONT
  6
Continuous
 62
     7
370
    13
100
AcDbLine
 10
296.4681945206549
 20
125.1639999002066
 30
0.0
 11
296.0080045206549
 21
125.1639999002066
 31
0.0
  0
LINE
  5
17A1A
330
20
100
AcDbEntity
  8
10000_FRONT
  6
Continuous
 62
     7
370
    13
100
AcDbLine
 10
296.0080045206549
 20
125.1639999002066
 30
0.0
 11
295.470914520655
 21
125.1639999002066
 31
0.0
  0
LINE
  5
17A1B
330
20
100
AcDbEntity
  8
10000_FRONT
  6
Continuous
 62
     7
370
    13
100
AcDbLine
 10
295.470914520655
 20
125.1639999002066
 30
0.0
 11
294.8602245206549
 21
125.1639999002066
 31
0.0
  0
LINE
  5
17A1C
330
20
100
AcDbEntity
  8
10000_FRONT
  6
Continuous
 62
     7
370
    13
100
AcDbLine
 10
294.8602245206549
 20
125.1639999002066
 30
0.0
 11
294.179724520655
 21
125.1639999002066
 31
0.0
  0
LINE
  5
17A1D
330
20
100
AcDbEntity
  8
10000_FRONT
  6
Continuous
 62
     7
370
    13
100
AcDbLine
 10
294.179724520655
 20
125.1639999002066
 30
0.0
 11
293.4335845206549
 21
125.1639999002066
 31
0.0
  0
LINE
  5
17A1E
330
20
100
AcDbEntity
  8
10000_FRONT
  6
Continuous
 62
     7
370
    13
100
AcDbLine
 10
293.4335845206549
 20
125.1639999002066
 30
0.0
 11
292.6264245206549
 21
125.1639999002066
 31
0.0
  0
LINE
  5
17A1F
330
20
100
AcDbEntity
  8
10000_FRONT
  6
Continuous
 62
     7
370
    13
100
AcDbLine
 10
292.6264245206549
 20
125.1639999002066
 30
0.0
 11
291.763204520655
 21
125.1639999002066
 31
0.0
  0
LINE
  5
17A20
330
20
100
AcDbEntity
  8
10000_FRONT
  6
Continuous
 62
     7
370
    13
100
AcDbLine
 10
291.763204520655
 20
125.1639999002066
 30
0.0
 11
290.849254520655
 21
125.1639999002066
 31
0.0
  0
LINE
  5
17A21
330
20
100
AcDbEntity
  8
10000_FRONT
  6
Continuous
 62
     7
370
    13
100
AcDbLine
 10
290.849254520655
 20
125.1639999002066
 30
0.0
 11
289.8902145206549
 21
125.1639999002066
 31
0.0
  0
LINE
  5
17A22
330
20
100
AcDbEntity
  8
10000_FRONT
  6
Continuous
 62
     7
370
    13
100
AcDbLine
 10
289.8902145206549
 20
125.1639999002066
 30
0.0
 11
288.891984520655
 21
125.1639999002066
 31
0.0
  0
LINE
  5
17A23
330
20
100
AcDbEntity
  8
10000_FRONT
  6
Continuous
 62
     7
370
    13
100
AcDbLine
 10
288.891984520655
 20
125.1639999002066
 30
0.0
 11
287.860724520655
 21
125.1639999002066
 31
0.0
  0
LINE
  5
17A24
330
20
100
AcDbEntity
  8
10000_FRONT
  6
Continuous
 62
     7
370
    13
100
AcDbLine
 10
287.860724520655
 20
125.1639999002066
 30
0.0
 11
286.8028045206549
 21
125.1639999002066
 31
0.0
  0
LINE
  5
17A25
330
20
100
AcDbEntity
  8
10000_FRONT
  6
Continuous
 62
     7
370
    13
100
AcDbLine
 10
286.8028045206549
 20
125.1639999002066
 30
0.0
 11
285.7247245206549
 21
125.1639999002066
 31
0.0
  0
LINE
  5
17A26
330
20
100
AcDbEntity
  8
10000_FRONT
  6
Continuous
 62
     7
370
    13
100
AcDbLine
 10
285.7247245206549
 20
125.1639999002066
 30
0.0
 11
284.633144520655
 21
125.1639999002066
 31
0.0
  0
LINE
  5
17A27
330
20
100
AcDbEntity
  8
10000_FRONT
  6
Continuous
 62
     7
370
    13
100
AcDbLine
 10
284.633144520655
 20
125.1639999002066
 30
0.0
 11
283.534804520655
 21
125.1639999002066
 31
0.0
  0
LINE
  5
17A28
330
20
100
AcDbEntity
  8
10000_FRONT
  6
Continuous
 62
     7
370
    13
100
AcDbLine
 10
283.534804520655
 20
125.1639999002066
 30
0.0
 11
282.436454520655
 21
125.1639999002066
 31
0.0
  0
LINE
  5
17A29
330
20
100
AcDbEntity
  8
10000_FRONT
  6
Continuous
 62
     7
370
    13
100
AcDbLine
 10
282.436454520655
 20
125.1639999002066
 30
0.0
 11
281.3448745206549
 21
125.1639999002066
 31
0.0
  0
LINE
  5
17A2A
330
20
100
AcDbEntity
  8
10000_FRONT
  6
Continuous
 62
     7
370
    13
100
AcDbLine
 10
281.3448745206549
 20
125.1639999002066
 30
0.0
 11
280.266794520655
 21
125.1639999002066
 31
0.0
  0
LINE
  5
17A2B
330
20
100
AcDbEntity
  8
10000_FRONT
  6
Continuous
 62
     7
370
    13
100
AcDbLine
 10
280.266794520655
 20
125.1639999002066
 30
0.0
 11
279.2088745206549
 21
125.1639999002066
 31
0.0
  0
LINE
  5
17A2C
330
20
100
AcDbEntity
  8
10000_FRONT
  6
Continuous
 62
     7
370
    13
100
AcDbLine
 10
279.2088745206549
 20
125.1639999002066
 30
0.0
 11
278.1776145206549
 21
125.1639999002066
 31
0.0
  0
LINE
  5
17A2D
330
20
100
AcDbEntity
  8
10000_FRONT
  6
Continuous
 62
     7
370
    13
100
AcDbLine
 10
278.1776145206549
 20
125.1639999002066
 30
0.0
 11
277.1793845206549
 21
125.1639999002066
 31
0.0
  0
LINE
  5
17A2E
330
20
100
AcDbEntity
  8
10000_FRONT
  6
Continuous
 62
     7
370
    13
100
AcDbLine
 10
277.1793845206549
 20
125.1639999002066
 30
0.0
 11
276.220344520655
 21
125.1639999002066
 31
0.0
  0
LINE
  5
17A2F
330
20
100
AcDbEntity
  8
10000_FRONT
  6
Continuous
 62
     7
370
    13
100
AcDbLine
 10
276.220344520655
 20
125.1639999002066
 30
0.0
 11
275.3063945206549
 21
125.1639999002066
 31
0.0
  0
LINE
  5
17A30
330
20
100
AcDbEntity
  8
10000_FRONT
  6
Continuous
 62
     7
370
    13
100
AcDbLine
 10
275.3063945206549
 20
125.1639999002066
 30
0.0
 11
274.443174520655
 21
125.1639999002066
 31
0.0
  0
LINE
  5
17A31
330
20
100
AcDbEntity
  8
10000_FRONT
  6
Continuous
 62
     7
370
    13
100
AcDbLine
 10
274.443174520655
 20
125.1639999002066
 30
0.0
 11
273.6360145206549
 21
125.1639999002066
 31
0.0
  0
LINE
  5
17A32
330
20
100
AcDbEntity
  8
10000_FRONT
  6
Continuous
 62
     7
370
    13
100
AcDbLine
 10
273.6360145206549
 20
125.1639999002066
 30
0.0
 11
272.889874520655
 21
125.1639999002066
 31
0.0
  0
LINE
  5
17A33
330
20
100
AcDbEntity
  8
10000_FRONT
  6
Continuous
 62
     7
370
    13
100
AcDbLine
 10
272.889874520655
 20
125.1639999002066
 30
0.0
 11
272.2093745206549
 21
125.1639999002066
 31
0.0
  0
LINE
  5
17A34
330
20
100
AcDbEntity
  8
10000_FRONT
  6
Continuous
 62
     7
370
    13
100
AcDbLine
 10
272.2093745206549
 20
125.1639999002066
 30
0.0
 11
271.5986945206549
 21
125.1639999002066
 31
0.0
  0
LINE
  5
17A35
330
20
100
AcDbEntity
  8
10000_FRONT
  6
Continuous
 62
     7
370
    13
100
AcDbLine
 10
271.5986945206549
 20
125.1639999002066
 30
0.0
 11
271.0616045206549
 21
125.1639999002066
 31
0.0
  0
LINE
  5
17A36
330
20
100
AcDbEntity
  8
10000_FRONT
  6
Continuous
 62
     7
370
    13
100
AcDbLine
 10
271.0616045206549
 20
125.1639999002066
 30
0.0
 11
270.601414520655
 21
125.1639999002066
 31
0.0
  0
LINE
  5
17A37
330
20
100
AcDbEntity
  8
10000_FRONT
  6
Continuous
 62
     7
370
    13
100
AcDbLine
 10
270.601414520655
 20
125.1639999002066
 30
0.0
 11
270.220964520655
 21
125.1639999002066
 31
0.0
  0
LINE
  5
17A38
330
20
100
AcDbEntity
  8
10000_FRONT
  6
Continuous
 62
     7
370
    13
100
AcDbLine
 10
270.220964520655
 20
125.1639999002066
 30
0.0
 11
269.922594520655
 21
125.1639999002066
 31
0.0
  0
LINE
  5
17A39
330
20
100
AcDbEntity
  8
10000_FRONT
  6
Continuous
 62
     7
370
    13
100
AcDbLine
 10
269.922594520655
 20
125.1639999002066
 30
0.0
 11
269.7081545206549
 21
125.1639999002066
 31
0.0
  0
LINE
  5
17A3A
330
20
100
AcDbEntity
  8
10000_FRONT
  6
Continuous
 62
     7
370
    13
100
AcDbLine
 10
269.7081545206549
 20
125.1639999002066
 30
0.0
 11
269.5789545206549
 21
125.1639999002066
 31
0.0
  0
LINE
  5
17A3B
330
20
100
AcDbEntity
  8
10000_FRONT
  6
Continuous
 62
     7
370
    13
100
AcDbLine
 10
269.5789545206549
 20
125.1639999002066
 30
0.0
 11
269.5358045206549
 21
125.1639999002066
 31
0.0
  0
ARC
  5
17A3C
330
20
100
AcDbEntity
  8
10000_FRONT
  6
Continuous
 62
     7
370
    50
100
AcDbCircle
 10
283.534804520655
 20
111.0554099002067
 30
0.0
 40
22.998357
100
AcDbArc
 50
52.50475000000378
 51
90.0
  0
ARC
  5
17A3D
330
20
100
AcDbEntity
  8
10000_FRONT
  6
Continuous
 62
     7
370
    50
100
AcDbCircle
 10
283.534804520655
 20
111.0554099002067
 30
0.0
 40
22.998357
100
AcDbArc
 50
90.0
 51
127.4952499999962
  0
DIMENSION
  5
17A3E
330
20
100
AcDbEntity
  8
10100_FRONT_DIM
  6
Continuous
 62
     7
370
    13
100
AcDbDimension
  2
*D5
 10
297.5338045206549
 20
140.5222499002064
 30
0.0
 11
283.534804520655
 21
140.5222499002064
 31
0.0
 70
   160
 71
     5
 42
27.99799999999999
  3
DSTYLE1
100
AcDbAlignedDimension
 13
269.5358045206549
 23
129.3023899002067
 33
0.0
 14
297.5338045206549
 24
129.3023899002067
 34
0.0
100
AcDbRotatedDimension
1001
ACAD
1000
DSTYLE
1002
{
1070
    41
1040
2.0
1070
    42
1040
1.0
1070
    43
1040
1.0
1070
    47
1040
0.005
1070
    48
1040
-0.005
1070
    77
1070
     0
1070
    78
1070
     0
1070
   143
1040
25.4
1070
   171
1070
     0
1070
   172
1070
     1
1070
   271
1070
     0
1070
   272
1070
     1
1070
   277
1070
     6
1002
}
  0
LINE
  5
17BD1
330
20
100
AcDbEntity
  8
10000_FRONT
  6
Continuous
 62
     7
370
    50
100
AcDbLine
 10
298.5348025206548
 20
93.55376490020658
 30
0.0
 11
298.5348025206548
 21
98.5537649002066
 31
0.0
  0
LINE
  5
17BDB
330
20
100
AcDbEntity
  8
10000_FRONT
  6
Continuous
 62
     7
370
    50
100
AcDbLine
 10
292.4348025206549
 20
98.55376490020654
 30
0.0
 11
292.5348025206549
 21
98.65376490020651
 31
0.0
  0
LINE
  5
17BDC
330
20
100
AcDbEntity
  8
10000_FRONT
  6
Continuous
 62
     7
370
    13
100
AcDbLine
 10
268.5347995206549
 20
93.55376490020658
 30
0.0
 11
268.5347995206549
 21
93.15376490020652
 31
0.0
  0
LINE
  5
17BDD
330
20
100
AcDbEntity
  8
10000_FRONT
  6
Continuous
 62
     7
370
    13
100
AcDbLine
 10
274.634799520655
 20
98.55376490020651
 30
0.0
 11
275.5347995206549
 21
97.65376490020649
 31
0.0
  0
ENDSEC
  0
SECTION
  2
OBJECTS
  0
DICTIONARY
  5
C
330
0
100
AcDbDictionary
281
     1
  3
ACAD_COLOR
350
1B
  3
ACAD_GROUP
350
D
  3
ACAD_LAYOUT
350
19
  3
ACAD_MATERIAL
350
1A
  3
ACAD_MLINESTYLE
350
16
  3
ACAD_PLOTSETTINGS
350
18
  3
ACAD_PLOTSTYLENAME
350
E
  3
ACAD_TABLESTYLE
350
17BCE
  3
ACAD_VISUALSTYLE
350
17BBD
  3
AcDbVariableDictionary
350
17B9E
  3
DWGPROPS
350
17BE1
  0
DICTIONARY
  5
17BD2
330
20
100
AcDbDictionary
280
     1
281
     1
  3
ACAD_SORTENTS
360
17BD3
  0
DICTIONARY
  5
1B
102
{ACAD_REACTORS
330
C
102
}
330
C
100
AcDbDictionary
281
     1
  0
DICTIONARY
  5
D
102
{ACAD_REACTORS
330
C
102
}
330
C
100
AcDbDictionary
281
     1
  0
DICTIONARY
  5
19
102
{ACAD_REACTORS
330
C
102
}
330
C
100
AcDbDictionary
281
     1
  3
Layout1
350
1F
  3
Model
350
23
  0
DICTIONARY
  5
1A
102
{ACAD_REACTORS
330
C
102
}
330
C
100
AcDbDictionary
281
     1
  3
ByBlock
350
17BBB
  3
ByLayer
350
17BBA
  3
Global
350
17BBC
  0
DICTIONARY
  5
16
102
{ACAD_REACTORS
330
C
102
}
330
C
100
AcDbDictionary
281
     1
  3
Standard
350
17
  0
DICTIONARY
  5
18
102
{ACAD_REACTORS
330
C
102
}
330
C
100
AcDbDictionary
281
     1
  0
ACDBDICTIONARYWDFLT
  5
E
102
{ACAD_REACTORS
330
C
102
}
330
C
100
AcDbDictionary
281
     1
  3
Normal
350
F
100
AcDbDictionaryWithDefault
340
F
  0
DICTIONARY
  5
17BCE
102
{ACAD_REACTORS
330
C
102
}
330
C
100
AcDbDictionary
281
     1
  3
Standard
350
17BCF
  0
DICTIONARY
  5
17BBD
102
{ACAD_REACTORS
330
C
102
}
330
C
100
AcDbDictionary
281
     1
  3
2dWireframe
350
17BC3
  3
3D Hidden
350
17BC5
  3
3dWireframe
350
17BC4
  3
Basic
350
17BC2
  3
Brighten
350
17BC9
  3
ColorChange
350
17BCD
  3
Conceptual
350
17BC6
  3
Dim
350
17BC8
  3
Facepattern
350
17BCC
  3
Flat
350
17BBE
  3
FlatWithEdges
350
17BBF
  3
Gouraud
350
17BC0
  3
GouraudWithEdges
350
17BC1
  3
Linepattern
350
17BCB
  3
Realistic
350
17BC7
  3
Thicken
350
17BCA
  0
DICTIONARY
  5
17B9E
102
{ACAD_REACTORS
330
C
102
}
330
C
100
AcDbDictionary
281
     1
  3
CTABLESTYLE
350
17BDE
  3
DIMASSOC
350
17B9F
  3
INDEXCTL
350
17BE0
  3
PROJECTNAME
350
17BA0
  3
SORTENTS
350
17BDF
  0
XRECORD
  5
17BE1
102
{ACAD_REACTORS
330
C
102
}
330
C
100
AcDbXrecord
280
     1
  1
DWGPROPS COOKIE
  2

  3

  4

  6

  7

  8
adgiro3
  9

300
=
301
=
302
=
303
=
304
=
305
=
306
=
307
=
308
=
309
=
 40
1.331450856481481
 41
2452842.552045173
 42
2453944.583376447
  1

 90
        0
  0
SORTENTSTABLE
  5
17BD3
102
{ACAD_REACTORS
330
17BD2
102
}
330
17BD2
100
AcDbSortentsTable
330
20
331
17A2E
  5
17A32
331
17A0C
  5
17A10
331
179EA
  5
179EE
331
179C8
  5
179CC
331
17628
  5
1762A
331
17649
  5
1764B
331
1766B
  5
1766F
331
1768D
  5
17691
331
147ED
  5
147ED
331
1475A
  5
1475A
331
179BF
  5
179C3
331
17A1D
  5
17A21
331
179FB
  5
179FF
331
179D9
  5
179DD
331
17639
  5
1763B
331
17617
  5
17618
331
179AE
  5
179B2
331
179A5
  5
179A9
331
1767C
  5
17680
331
1765A
  5
1765D
331
17BD1
  5
17655
331
1330F
  5
1330F
331
13306
  5
13306
331
17A2C
  5
17A30
331
17A0A
  5
17A0E
331
179E8
  5
179EC
331
17669
  5
1766D
331
17647
  5
17649
331
1768B
  5
1768F
331
179BD
  5
179C1
331
17A1B
  5
17A1F
331
179F9
  5
179FD
331
179D7
  5
179DB
331
17637
  5
17639
331
17615
  5
17616
331
147EB
  5
147EB
331
1331E
  5
1331E
331
179AC
  5
179B0
331
179A3
  5
179A7
331
1767A
  5
1767E
331
17658
  5
1765B
331
17626
  5
17628
331
1330D
  5
1330D
331
17A2A
  5
17A2E
331
17A08
  5
17A0C
331
17645
  5
17647
331
17667
  5
1766B
331
147F0
  5
147F0
331
17689
  5
1768D
331
179BB
  5
179BF
331
17A19
  5
17A1D
331
179F7
  5
179FB
331
179D5
  5
179D9
331
17635
  5
17637
331
17613
  5
17614
331
147E9
  5
147E9
331
14756
  5
14756
331
1331C
  5
1331C
331
17656
  5
17659
331
17678
  5
1767C
331
179AA
  5
179AE
331
179E6
  5
179EA
331
17624
  5
17626
331
14B9A
  5
14B9A
331
147B8
  5
147B8
331
14767
  5
14767
331
1330B
  5
1330B
331
17A28
  5
17A2C
331
17643
  5
17645
331
17665
  5
17669
331
17BDC
  5
17611
331
17687
  5
1768B
331
179B9
  5
179BD
331
17A17
  5
17A1B
331
179F5
  5
179F9
331
179D3
  5
179D7
331
17633
  5
17635
331
17611
  5
17612
331
147E7
  5
147E7
331
1331A
  5
1331A
331
17654
  5
17657
331
17676
  5
1767A
331
179A8
  5
179AC
331
17A06
  5
17A0A
331
179E4
  5
179E8
331
17622
  5
17624
331
14B98
  5
14B98
331
147B6
  5
147B6
331
14765
  5
14765
331
13309
  5
13309
331
17A3E
  5
17BDD
331
17685
  5
17689
331
17663
  5
17667
331
17641
  5
17643
331
179B7
  5
179BB
331
17A37
  5
17A3B
331
17A15
  5
17A19
331
179F3
  5
179F7
331
179D1
  5
179D5
331
17631
  5
17633
331
1760F
  5
1760F
331
17652
  5
17654
331
17674
  5
17678
331
17696
  5
179A3
331
17A26
  5
17A2A
331
17A04
  5
17A08
331
179E2
  5
179E6
331
17620
  5
17622
331
14B96
  5
14B96
331
147B4
  5
147B4
331
14741
  5
14741
331
13318
  5
13318
331
17A3C
  5
17BDB
331
17683
  5
17687
331
17661
  5
17665
331
179B5
  5
179B9
331
17A35
  5
17A39
331
17A13
  5
17A17
331
179F1
  5
179F5
331
179CF
  5
179D3
331
1762F
  5
17631
331
1760D
  5
1760D
331
14769
  5
14769
331
17672
  5
17676
331
17650
  5
17652
331
17A24
  5
17A28
331
17A02
  5
17A06
331
179E0
  5
179E4
331
179C6
  5
179CA
331
1761E
  5
17620
331
14B94
  5
14B94
331
1473F
  5
1473F
331
13316
  5
13316
331
17A3A
  5
17A3E
331
17681
  5
17685
331
179B3
  5
179B7
331
17A33
  5
17A37
331
17A11
  5
17A15
331
179EF
  5
179F3
331
179CD
  5
179D1
331
1762D
  5
1762F
331
1764E
  5
17650
331
17692
  5
176AA
331
17670
  5
17674
331
179C4
  5
179C8
331
17A22
  5
17A26
331
17A00
  5
17A04
331
179DE
  5
179E2
331
1763E
  5
17640
331
1761C
  5
1761D
331
147B0
  5
147B0
331
1765F
  5
17662
331
13314
  5
13314
331
17A38
  5
17A3C
331
17A31
  5
17A35
331
17A0F
  5
17A13
331
179ED
  5
179F1
331
179CB
  5
179CF
331
179B1
  5
179B5
331
1764C
  5
1764E
331
17690
  5
17696
331
1766E
  5
17672
331
179C2
  5
179C6
331
17A20
  5
17A24
331
179FE
  5
17A02
331
179DC
  5
179E0
331
1763C
  5
1763E
331
1761A
  5
1761B
331
147AE
  5
147AE
331
1767F
  5
17683
331
1765D
  5
17660
331
13312
  5
13312
331
17A2F
  5
17A33
331
17A0D
  5
17A11
331
179EB
  5
179EF
331
179C9
  5
179CD
331
17629
  5
1762C
331
1768E
  5
17692
331
1766C
  5
17670
331
1764A
  5
1764C
331
179C0
  5
179C4
331
17A1E
  5
17A22
331
179FC
  5
17A00
331
179DA
  5
179DE
331
1763A
  5
1763C
331
17618
  5
17619
331
179AF
  5
179B3
331
179A6
  5
179AA
331
1767D
  5
17681
331
1765B
  5
1765E
331
13310
  5
13310
331
13307
  5
13307
331
17A2D
  5
17A31
331
17A0B
  5
17A0F
331
179E9
  5
179ED
331
17648
  5
1764A
331
1766A
  5
1766E
331
1768C
  5
17690
331
179BE
  5
179C2
331
17A1C
  5
17A20
331
179FA
  5
179FE
331
179D8
  5
179DC
331
17638
  5
1763A
331
17616
  5
17617
331
147EC
  5
147EC
331
14759
  5
14759
331
179AD
  5
179B1
331
179A4
  5
179A8
331
1767B
  5
1767F
331
17659
  5
1765C
331
17627
  5
17629
331
1330E
  5
1330E
331
17A2B
  5
17A2F
331
17A09
  5
17A0D
331
17646
  5
17648
331
17668
  5
1766C
331
147F1
  5
147F1
331
1768A
  5
1768E
331
179BC
  5
179C0
331
17A1A
  5
17A1E
331
179F8
  5
179FC
331
179D6
  5
179DA
331
17636
  5
17638
331
17614
  5
17615
331
147EA
  5
147EA
331
14757
  5
14757
331
1331D
  5
1331D
331
17657
  5
1765A
331
179AB
  5
179AF
331
179A2
  5
179A6
331
17679
  5
1767D
331
179E7
  5
179EB
331
17625
  5
17627
331
147B9
  5
147B9
331
1330C
  5
1330C
331
17A29
  5
17A2D
331
17644
  5
17646
331
17BDD
  5
1761E
331
17666
  5
1766A
331
17688
  5
1768C
331
179BA
  5
179BE
331
17A18
  5
17A1C
331
179F6
  5
179FA
331
179D4
  5
179D8
331
17634
  5
17636
331
17612
  5
17613
331
147E8
  5
147E8
331
1476E
  5
1476E
331
1331B
  5
1331B
331
17655
  5
17658
331
17677
  5
1767B
331
179A9
  5
179AD
331
17A07
  5
17A0B
331
179E5
  5
179E9
331
17623
  5
17625
331
14B99
  5
14B99
331
147B7
  5
147B7
331
14766
  5
14766
331
1330A
  5
1330A
331
17686
  5
1768A
331
17664
  5
17668
331
17BDB
  5
17664
331
17642
  5
17644
331
179B8
  5
179BC
331
17A16
  5
17A1A
331
179F4
  5
179F8
331
179D2
  5
179D6
331
17632
  5
17634
331
17610
  5
17610
331
13319
  5
13319
331
17653
  5
17656
331
17675
  5
17679
331
17697
  5
179A4
331
17A27
  5
17A2B
331
17A05
  5
17A09
331
179E3
  5
179E7
331
17621
  5
17623
331
14B97
  5
14B97
331
147B5
  5
147B5
331
14764
  5
14764
331
14742
  5
14742
331
13308
  5
13308
331
17640
  5
17642
331
17A3D
  5
17BDC
331
17684
  5
17688
331
17662
  5
17666
331
179B6
  5
179BA
331
17A36
  5
17A3A
331
17A14
  5
17A18
331
179F2
  5
179F6
331
179D0
  5
179D4
331
17630
  5
17632
331
17651
  5
17653
331
1760E
  5
1760E
331
17673
  5
17677
331
17A25
  5
17A29
331
17A03
  5
17A07
331
179E1
  5
179E5
331
179C7
  5
179CB
331
1761F
  5
17621
331
14B95
  5
14B95
331
147B3
  5
147B3
331
1476A
  5
1476A
331
13317
  5
13317
331
17A3B
  5
17BD1
331
17682
  5
17686
331
17660
  5
17663
331
179B4
  5
179B8
331
17A34
  5
17A38
331
17A12
  5
17A16
331
179F0
  5
179F4
331
179CE
  5
179D2
331
1762E
  5
17630
331
1760C
  5
1760C
331
14768
  5
14768
331
176AA
  5
179A5
331
17671
  5
17675
331
1764F
  5
17651
331
17693
  5
179A2
331
179C5
  5
179C9
331
1761D
  5
1761F
331
17A23
  5
17A27
331
17A01
  5
17A05
331
179DF
  5
179E3
331
1763F
  5
17641
331
14B93
  5
14B93
331
1473E
  5
1473E
331
1474F
  5
1474F
331
13315
  5
13315
331
17A39
  5
17A3D
331
17680
  5
17684
331
179B2
  5
179B6
331
17A32
  5
17A36
331
17A10
  5
17A14
331
179EE
  5
179F2
331
179CC
  5
179D0
331
1762C
  5
1762E
331
1764D
  5
1764F
331
17691
  5
17697
331
1766F
  5
17673
331
179C3
  5
179C7
331
17A21
  5
17A25
331
179FF
  5
17A03
331
179DD
  5
179E1
331
1763D
  5
1763F
331
1761B
  5
1761C
331
147AF
  5
147AF
331
1765E
  5
17661
331
13313
  5
13313
331
179B0
  5
179B4
331
17A30
  5
17A34
331
17A0E
  5
17A12
331
179EC
  5
179F0
331
179CA
  5
179CE
331
1762A
  5
1762D
331
1764B
  5
1764D
331
1768F
  5
17693
331
1766D
  5
17671
331
179C1
  5
179C5
331
17A1F
  5
17A23
331
179FD
  5
17A01
331
179DB
  5
179DF
331
1763B
  5
1763D
331
17619
  5
1761A
331
147AD
  5
147AD
331
179A7
  5
179AB
331
1767E
  5
17682
331
1765C
  5
1765F
331
13311
  5
13311
  0
LAYOUT
  5
1F
102
{ACAD_XDICTIONARY
360
17BE2
102
}
102
{ACAD_REACTORS
330
19
102
}
330
19
100
AcDbPlotSettings
  1

  2
HP LaserJet 5000 Series PS
  4

  6

 40
0.0
 41
0.0
 42
0.0
 43
0.0
 44
0.0
 45
0.0
 46
0.0
 47
0.0
 48
0.0
 49
0.0
140
0.0
141
0.0
142
1.0
143
1.0
 70
   688
 72
     0
 73
     0
 74
     5
  7
monochrome.ctb
 75
    16
147
1.0
148
0.0
149
0.0
100
AcDbLayout
  1
Layout1
 70
     1
 71
     1
 10
0.0
 20
0.0
 11
12.0
 21
9.0
 12
0.0
 22
0.0
 32
0.0
 14
1.000000000000000E+20
 24
1.000000000000000E+20
 34
1.000000000000000E+20
 15
-1.000000000000000E+20
 25
-1.000000000000000E+20
 35
-1.000000000000000E+20
146
0.0
 13
0.0
 23
0.0
 33
0.0
 16
1.0
 26
0.0
 36
0.0
 17
0.0
 27
1.0
 37
0.0
 76
     0
330
1C
  0
LAYOUT
  5
23
102
{ACAD_XDICTIONARY
360
17BE4
102
}
102
{ACAD_REACTORS
330
19
102
}
330
19
100
AcDbPlotSettings
  1

  2
\\AMBW779A\A_P00873 (Canon iR2200-3300 PCL6)
  4
A4
  6

 40
4.815416812896728
 41
4.815412044525146
 42
4.815414428710936
 43
4.8154296875
 44
209.9733276367186
 45
296.9259948730469
 46
0.0
 47
0.0
 48
0.0
 49
0.0
140
0.0
141
0.0
142
1.0
143
1.0
 70
 28336
 72
     1
 73
     0
 74
     1
  7
monochrome.ctb
 75
    16
147
1.0
148
-180.6671463687289
149
18.06738362238002
100
AcDbLayout
  1
Model
 70
     1
 71
     0
 10
0.0
 20
0.0
 11
12.0
 21
9.0
 12
0.0
 22
0.0
 32
0.0
 14
0.0
 24
0.0
 34
0.0
 15
0.0
 25
0.0
 35
0.0
146
0.0
 13
0.0
 23
0.0
 33
0.0
 16
1.0
 26
0.0
 36
0.0
 17
0.0
 27
1.0
 37
0.0
 76
     0
330
20
331
17BAE
  0
MATERIAL
  5
17BBB
102
{ACAD_XDICTIONARY
360
17BE8
102
}
102
{ACAD_REACTORS
330
1A
102
}
330
1A
100
AcDbMaterial
  1
ByBlock
  0
MATERIAL
  5
17BBA
102
{ACAD_XDICTIONARY
360
17BE6
102
}
102
{ACAD_REACTORS
330
1A
102
}
330
1A
100
AcDbMaterial
  1
ByLayer
  0
MATERIAL
  5
17BBC
102
{ACAD_XDICTIONARY
360
17BEA
102
}
102
{ACAD_REACTORS
330
1A
102
}
330
1A
100
AcDbMaterial
  1
Global
  0
MLINESTYLE
  5
17
102
{ACAD_REACTORS
330
16
102
}
330
16
100
AcDbMlineStyle
  2
STANDARD
 70
     0
  3

 62
   256
 51
90.0
 52
90.0
 71
     2
 49
0.5
 62
   256
  6
BYLAYER
 49
-0.5
 62
   256
  6
BYLAYER
  0
ACDBPLACEHOLDER
  5
F
102
{ACAD_REACTORS
330
E
102
}
330
E
  0
TABLESTYLE
  5
17BCF
102
{ACAD_XDICTIONARY
360
17BEC
102
}
102
{ACAD_REACTORS
330
17BCE
102
}
330
17BCE
100
AcDbTableStyle
  3
Standard
 70
     0
 71
     0
 40
0.06
 41
0.06
280
     0
281
     0
  7
Standard
140
0.18
170
     2
 62
     0
 63
     7
283
     0
274
    -2
284
     1
 64
     0
275
    -2
285
     1
 65
     0
276
    -2
286
     1
 66
     0
277
    -2
287
     1
 67
     0
278
    -2
288
     1
 68
     0
279
    -2
289
     1
 69
     0
  7
Standard
140
0.25
170
     5
 62
     0
 63
     7
283
     0
274
    -2
284
     1
 64
     0
275
    -2
285
     1
 65
     0
276
    -2
286
     1
 66
     0
277
    -2
287
     1
 67
     0
278
    -2
288
     1
 68
     0
279
    -2
289
     1
 69
     0
  7
Standard
140
0.18
170
     5
 62
     0
 63
     7
283
     0
274
    -2
284
     1
 64
     0
275
    -2
285
     1
 65
     0
276
    -2
286
     1
 66
     0
277
    -2
287
     1
 67
     0
278
    -2
288
     1
 68
     0
279
    -2
289
     1
 69
     0
  0
VISUALSTYLE
  5
17BC3
102
{ACAD_REACTORS
330
17BBD
102
}
330
17BBD
100
AcDbVisualStyle
  2
2dWireframe
 70
     4
 71
     0
 72
     2
 73
     0
 90
        0
 40
-0.6
 41
-30.0
 62
     5
 63
     7
 74
     1
 91
        4
 64
     7
 65
   257
 75
     1
175
     1
 42
1.0
 92
        0
 66
   257
 43
1.0
 76
     1
 77
     6
 78
     2
 67
     7
 79
     5
170
     0
171
     0
290
     0
174
     0
 93
        1
 44
0.0
173
     0
291
     0
 45
0.0
1001
ACAD
1000
AcDbSavedByObjectVersion
1070
     0
  0
VISUALSTYLE
  5
17BC5
102
{ACAD_REACTORS
330
17BBD
102
}
330
17BBD
100
AcDbVisualStyle
  2
3D Hidden
 70
     6
 71
     1
 72
     2
 73
     2
 90
        0
 40
-0.6
 41
-30.0
 62
     5
 63
     7
 74
     2
 91
        2
 64
     7
 65
   257
 75
     2
175
     1
 42
40.0
 92
        0
 66
   257
 43
1.0
 76
     1
 77
     6
 78
     2
 67
     7
 79
     3
170
     0
171
     0
290
     0
174
     0
 93
        1
 44
0.0
173
     0
291
     0
 45
0.0
1001
ACAD
1000
AcDbSavedByObjectVersion
1070
     0
  0
VISUALSTYLE
  5
17BC4
102
{ACAD_REACTORS
330
17BBD
102
}
330
17BBD
100
AcDbVisualStyle
  2
3dWireframe
 70
     5
 71
     0
 72
     2
 73
     0
 90
        0
 40
-0.6
 41
-30.0
 62
     5
 63
     7
 74
     1
 91
        4
 64
     7
 65
   257
 75
     1
175
     1
 42
1.0
 92
        0
 66
   257
 43
1.0
 76
     1
 77
     6
 78
     2
 67
     7
 79
     5
170
     0
171
     0
290
     0
174
     0
 93
        1
 44
0.0
173
     0
291
     0
 45
0.0
1001
ACAD
1000
AcDbSavedByObjectVersion
1070
     0
  0
VISUALSTYLE
  5
17BC2
102
{ACAD_REACTORS
330
17BBD
102
}
330
17BBD
100
AcDbVisualStyle
  2
Basic
 70
     7
 71
     1
 72
     0
 73
     1
 90
        0
 40
-0.6
 41
-30.0
 62
     5
 63
     7
 74
     0
 91
        4
 64
     7
 65
   257
 75
     1
175
     1
 42
1.0
 92
        8
 66
     7
 43
1.0
 76
     1
 77
     6
 78
     2
 67
     7
 79
     5
170
     0
171
     0
290
     0
174
     0
 93
        1
 44
0.0
173
     0
291
     1
 45
0.0
1001
ACAD
1000
AcDbSavedByObjectVersion
1070
     0
  0
VISUALSTYLE
  5
17BC9
102
{ACAD_REACTORS
330
17BBD
102
}
330
17BBD
100
AcDbVisualStyle
  2
Brighten
 70
    12
 71
     2
 72
     2
 73
     0
 90
        0
 40
-0.6
 41
-30.0
 62
     5
 63
     7
 74
     1
 91
        4
 64
     7
 65
   257
 75
     1
175
     1
 42
1.0
 92
        8
 66
     7
 43
1.0
 76
     1
 77
     6
 78
     2
 67
     7
 79
     5
170
     0
171
     0
290
     0
174
     0
 93
        1
 44
50.0
173
     0
291
     1
 45
0.0
1001
ACAD
1000
AcDbSavedByObjectVersion
1070
     0
  0
VISUALSTYLE
  5
17BCD
102
{ACAD_REACTORS
330
17BBD
102
}
330
17BBD
100
AcDbVisualStyle
  2
ColorChange
 70
    16
 71
     2
 72
     2
 73
     3
 90
        0
 40
-0.6
 41
-30.0
 62
     5
 63
     8
 74
     1
 91
        4
 64
     7
 65
   257
 75
     1
175
     1
 42
1.0
 92
        8
 66
     8
 43
1.0
 76
     1
 77
     6
 78
     2
 67
     7
 79
     5
170
     0
171
     0
290
     0
174
     0
 93
        1
 44
0.0
173
     0
291
     1
 45
0.0
1001
ACAD
1000
AcDbSavedByObjectVersion
1070
     0
  0
VISUALSTYLE
  5
17BC6
102
{ACAD_REACTORS
330
17BBD
102
}
330
17BBD
100
AcDbVisualStyle
  2
Conceptual
 70
     9
 71
     3
 72
     2
 73
     0
 90
        0
 40
-0.6
 41
-30.0
 62
     5
 63
     7
 74
     2
 91
        2
 64
     7
 65
   257
 75
     1
175
     1
 42
40.0
 92
        8
 66
     7
 43
1.0
 76
     1
 77
     6
 78
     2
 67
     7
 79
     3
170
     0
171
     0
290
     0
174
     0
 93
        1
 44
0.0
173
     0
291
     0
 45
0.0
1001
ACAD
1000
AcDbSavedByObjectVersion
1070
     0
  0
VISUALSTYLE
  5
17BC8
102
{ACAD_REACTORS
330
17BBD
102
}
330
17BBD
100
AcDbVisualStyle
  2
Dim
 70
    11
 71
     2
 72
     2
 73
     0
 90
        0
 40
-0.6
 41
-30.0
 62
     5
 63
     7
 74
     1
 91
        4
 64
     7
 65
   257
 75
     1
175
     1
 42
1.0
 92
        8
 66
     7
 43
1.0
 76
     1
 77
     6
 78
     2
 67
     7
 79
     5
170
     0
171
     0
290
     0
174
     0
 93
        1
 44
-50.0
173
     0
291
     1
 45
0.0
1001
ACAD
1000
AcDbSavedByObjectVersion
1070
     0
  0
VISUALSTYLE
  5
17BCC
102
{ACAD_REACTORS
330
17BBD
102
}
330
17BBD
100
AcDbVisualStyle
  2
Facepattern
 70
    15
 71
     2
 72
     2
 73
     0
 90
        0
 40
-0.6
 41
-30.0
 62
     5
 63
     7
 74
     1
 91
        4
 64
     7
 65
   257
 75
     1
175
     1
 42
1.0
 92
        8
 66
     7
 43
1.0
 76
     1
 77
     6
 78
     2
 67
     7
 79
     5
170
     0
171
     0
290
     0
174
     0
 93
        1
 44
0.0
173
     0
291
     1
 45
0.0
1001
ACAD
1000
AcDbSavedByObjectVersion
1070
     0
  0
VISUALSTYLE
  5
17BBE
102
{ACAD_REACTORS
330
17BBD
102
}
330
17BBD
100
AcDbVisualStyle
  2
Flat
 70
     0
 71
     2
 72
     1
 73
     1
 90
        2
 40
-0.6
 41
30.0
 62
     5
 63
     7
 74
     0
 91
        4
 64
     7
 65
   257
 75
     1
175
     1
 42
1.0
 92
        8
 66
     7
 43
1.0
 76
     1
 77
     6
 78
     2
 67
     7
 79
     5
170
     0
171
     0
290
     0
174
     0
 93
       13
 44
0.0
173
     0
291
     1
 45
0.0
1001
ACAD
1000
AcDbSavedByObjectVersion
1070
     0
  0
VISUALSTYLE
  5
17BBF
102
{ACAD_REACTORS
330
17BBD
102
}
330
17BBD
100
AcDbVisualStyle
  2
FlatWithEdges
 70
     1
 71
     2
 72
     1
 73
     1
 90
        2
 40
-0.6
 41
30.0
 62
     5
 63
     7
 74
     1
 91
        4
 64
     7
 65
   257
 75
     1
175
     1
 42
1.0
 92
        0
 66
   257
 43
1.0
 76
     1
 77
     6
 78
     2
 67
     7
 79
     5
170
     0
171
     0
290
     0
174
     0
 93
       13
 44
0.0
173
     0
291
     1
 45
0.0
1001
ACAD
1000
AcDbSavedByObjectVersion
1070
     0
  0
VISUALSTYLE
  5
17BC0
102
{ACAD_REACTORS
330
17BBD
102
}
330
17BBD
100
AcDbVisualStyle
  2
Gouraud
 70
     2
 71
     2
 72
     2
 73
     1
 90
        2
 40
-0.6
 41
30.0
 62
     5
 63
     7
 74
     0
 91
        4
 64
     7
 65
   257
 75
     1
175
     1
 42
1.0
 92
        0
 66
     7
 43
1.0
 76
     1
 77
     6
 78
     2
 67
     7
 79
     5
170
     0
171
     0
290
     0
174
     0
 93
       13
 44
0.0
173
     0
291
     1
 45
0.0
1001
ACAD
1000
AcDbSavedByObjectVersion
1070
     0
  0
VISUALSTYLE
  5
17BC1
102
{ACAD_REACTORS
330
17BBD
102
}
330
17BBD
100
AcDbVisualStyle
  2
GouraudWithEdges
 70
     3
 71
     2
 72
     2
 73
     1
 90
        2
 40
-0.6
 41
30.0
 62
     5
 63
     7
 74
     1
 91
        4
 64
     7
 65
   257
 75
     1
175
     1
 42
1.0
 92
        0
 66
   257
 43
1.0
 76
     1
 77
     6
 78
     2
 67
     7
 79
     5
170
     0
171
     0
290
     0
174
     0
 93
       13
 44
0.0
173
     0
291
     1
 45
0.0
1001
ACAD
1000
AcDbSavedByObjectVersion
1070
     0
  0
VISUALSTYLE
  5
17BCB
102
{ACAD_REACTORS
330
17BBD
102
}
330
17BBD
100
AcDbVisualStyle
  2
Linepattern
 70
    14
 71
     2
 72
     2
 73
     0
 90
        0
 40
-0.6
 41
-30.0
 62
     5
 63
     7
 74
     1
 91
        4
 64
     7
 65
   257
 75
     7
175
     7
 42
1.0
 92
        8
 66
     7
 43
1.0
 76
     1
 77
     6
 78
     2
 67
     7
 79
     5
170
     0
171
     0
290
     0
174
     0
 93
        1
 44
0.0
173
     0
291
     1
 45
0.0
1001
ACAD
1000
AcDbSavedByObjectVersion
1070
     0
  0
VISUALSTYLE
  5
17BC7
102
{ACAD_REACTORS
330
17BBD
102
}
330
17BBD
100
AcDbVisualStyle
  2
Realistic
 70
     8
 71
     2
 72
     2
 73
     0
 90
        0
 40
-0.6
 41
-30.0
 62
     5
 63
     7
 74
     1
 91
        0
 64
     7
 65
   257
 75
     1
175
     1
 42
1.0
 92
        8
 66
     8
 43
1.0
 76
     1
 77
     6
 78
     2
 67
     7
 79
     5
170
     0
171
     0
290
     0
174
     0
 93
       13
 44
0.0
173
     0
291
     0
 45
0.0
1001
ACAD
1000
AcDbSavedByObjectVersion
1070
     0
  0
VISUALSTYLE
  5
17BCA
102
{ACAD_REACTORS
330
17BBD
102
}
330
17BBD
100
AcDbVisualStyle
  2
Thicken
 70
    13
 71
     2
 72
     2
 73
     0
 90
        0
 40
-0.6
 41
-30.0
 62
     5
 63
     7
 74
     1
 91
        4
 64
     7
 65
   257
 75
     1
175
     1
 42
1.0
 92
       12
 66
     7
 43
1.0
 76
     1
 77
     6
 78
     2
 67
     7
 79
     5
170
     0
171
     0
290
     0
174
     0
 93
        1
 44
0.0
173
     0
291
     1
 45
0.0
1001
ACAD
1000
AcDbSavedByObjectVersion
1070
     0
  0
DICTIONARYVAR
  5
17BDE
102
{ACAD_REACTORS
330
17B9E
102
}
330
17B9E
100
DictionaryVariables
280
     0
  1
STANDARD
  0
DICTIONARYVAR
  5
17B9F
102
{ACAD_REACTORS
330
17B9E
102
}
330
17B9E
100
DictionaryVariables
280
     0
  1
1
  0
DICTIONARYVAR
  5
17BE0
102
{ACAD_REACTORS
330
17B9E
102
}
330
17B9E
100
DictionaryVariables
280
     0
  1
0
  0
DICTIONARYVAR
  5
17BA0
102
{ACAD_REACTORS
330
17B9E
102
}
330
17B9E
100
DictionaryVariables
280
     0
  1

  0
DICTIONARYVAR
  5
17BDF
102
{ACAD_REACTORS
330
17B9E
102
}
330
17B9E
100
DictionaryVariables
280
     0
  1
127
  0
DICTIONARY
  5
17BE2
330
1F
100
AcDbDictionary
280
     1
281
     1
  3
ACAD_XREC_ROUNDTRIP
360
17BE3
  0
DICTIONARY
  5
17BE4
330
23
100
AcDbDictionary
280
     1
281
     1
  3
ACAD_XREC_ROUNDTRIP
360
17BE5
  0
DICTIONARY
  5
17BE8
330
17BBB
100
AcDbDictionary
280
     1
281
     1
  3
ACAD_XREC_ROUNDTRIP
360
17BE9
  0
DICTIONARY
  5
17BE6
330
17BBA
100
AcDbDictionary
280
     1
281
     1
  3
ACAD_XREC_ROUNDTRIP
360
17BE7
  0
DICTIONARY
  5
17BEA
330
17BBC
100
AcDbDictionary
280
     1
281
     1
  3
ACAD_XREC_ROUNDTRIP
360
17BEB
  0
DICTIONARY
  5
17BEC
330
17BCF
100
AcDbDictionary
280
     1
281
     1
  3
ACAD_XREC_ROUNDTRIP
360
17BED
  0
XRECORD
  5
17BE3
102
{ACAD_REACTORS
330
17BE2
102
}
330
17BE2
100
AcDbXrecord
280
     1
102
SHADEPLOT
 70
     0
102
SHADEPLOTRESLEVEL
 70
     2
102
SHADEPLOTCUSTOMDPI
 70
   300
  0
XRECORD
  5
17BE5
102
{ACAD_REACTORS
330
17BE4
102
}
330
17BE4
100
AcDbXrecord
280
     1
102
SHADEPLOT
 70
     1
102
SHADEPLOTRESLEVEL
 70
     2
102
SHADEPLOTCUSTOMDPI
 70
   300
  0
XRECORD
  5
17BE9
102
{ACAD_REACTORS
330
17BE8
102
}
330
17BE8
100
AcDbXrecord
280
     1
102
MATERIAL
148
0.0
149
0.0
149
0.0
 93
        0
 94
       63
282
     0
 72
     1
 77
     1
171
     1
175
     1
179
     1
273
     0
  0
XRECORD
  5
17BE7
102
{ACAD_REACTORS
330
17BE6
102
}
330
17BE6
100
AcDbXrecord
280
     1
102
MATERIAL
148
0.0
149
0.0
149
0.0
 93
        0
 94
       63
282
     0
 72
     1
 77
     1
171
     1
175
     1
179
     1
273
     0
  0
XRECORD
  5
17BEB
102
{ACAD_REACTORS
330
17BEA
102
}
330
17BEA
100
AcDbXrecord
280
     1
102
MATERIAL
148
0.0
149
0.0
149
0.0
 93
        0
 94
       63
282
     0
 72
     1
 77
     1
171
     1
175
     1
179
     1
273
     0
  0
XRECORD
  5
17BED
102
{ACAD_REACTORS
330
17BEC
102
}
330
17BEC
100
AcDbXrecord
280
     1
102
ACAD_ROUNDTRIP_PRE2007_TABLESTYLE
 90
      512
 91
        0
  1

 92
      512
 93
        0
  2

 94
      512
 95
        0
  3

  0
ENDSEC
  0
EOF
