  0
SECTION
  2
HEADER
  9
$ACADVER
  1
AC1015
  9
$ACADMAINTVER
 70
    20
  9
$DWGCODEPAGE
  3
ANSI_1252
  9
$INSBASE
 10
0.0
 20
0.0
 30
0.0
  9
$EXTMIN
 10
180.6671463687289
 20
-18.05402292414487
 30
-0.0015258207003583
  9
$EXTMAX
 10
380.748780431632
 20
251.9783636991897
 30
0.0000000349246037
  9
$LIMMIN
 10
0.0
 20
0.0
  9
$LIMMAX
 10
594.0
 20
420.0
  9
$ORTHOMODE
 70
     0
  9
$REGENMODE
 70
     1
  9
$FILLMODE
 70
     1
  9
$QTEXTMODE
 70
     0
  9
$MIRRTEXT
 70
     0
  9
$LTSCALE
 40
32.67
  9
$ATTMODE
 70
     1
  9
$TEXTSIZE
 40
0.2
  9
$TRACEWID
 40
0.05
  9
$TEXTSTYLE
  7
Standard
  9
$CLAYER
  8
0
  9
$CELTYPE
  6
ByLayer
  9
$CECOLOR
 62
   256
  9
$CELTSCALE
 40
1.0
  9
$DISPSILH
 70
     0
  9
$DIMSCALE
 40
1.0
  9
$DIMASZ
 40
3.5
  9
$DIMEXO
 40
3.712499999999999
  9
$DIMDLI
 40
22.572
  9
$DIMRND
 40
0.0
  9
$DIMDLE
 40
0.0
  9
$DIMEXE
 40
10.692
  9
$DIMTP
 40
0.0
  9
$DIMTM
 40
0.0
  9
$DIMTXT
 40
0.18
  9
$DIMCEN
 40
5.346
  9
$DIMTSZ
 40
0.0
  9
$DIMTOL
 70
     0
  9
$DIMLIM
 70
     0
  9
$DIMTIH
 70
     1
  9
$DIMTOH
 70
     1
  9
$DIMSE1
 70
     0
  9
$DIMSE2
 70
     0
  9
$DIMTAD
 70
     0
  9
$DIMZIN
 70
     0
  9
$DIMBLK
  1

  9
$DIMASO
 70
     1
  9
$DIMSHO
 70
     1
  9
$DIMPOST
  1

  9
$DIMAPOST
  1

  9
$DIMALT
 70
     0
  9
$DIMALTD
 70
     2
  9
$DIMALTF
 40
25.4
  9
$DIMLFAC
 40
1.0
  9
$DIMTOFL
 70
     0
  9
$DIMTVP
 40
0.0
  9
$DIMTIX
 70
     0
  9
$DIMSOXD
 70
     0
  9
$DIMSAH
 70
     0
  9
$DIMBLK1
  1

  9
$DIMBLK2
  1

  9
$DIMSTYLE
  2
Standard
  9
$DIMCLRD
 70
     0
  9
$DIMCLRE
 70
     0
  9
$DIMCLRT
 70
     0
  9
$DIMTFAC
 40
1.0
  9
$DIMGAP
 40
0.09
  9
$DIMJUST
 70
     0
  9
$DIMSD1
 70
     0
  9
$DIMSD2
 70
     0
  9
$DIMTOLJ
 70
     1
  9
$DIMTZIN
 70
     0
  9
$DIMALTZ
 70
     0
  9
$DIMALTTZ
 70
     0
  9
$DIMUPT
 70
     0
  9
$DIMDEC
 70
     4
  9
$DIMTDEC
 70
     4
  9
$DIMALTU
 70
     2
  9
$DIMALTTD
 70
     2
  9
$DIMTXSTY
  7
Standard
  9
$DIMAUNIT
 70
     0
  9
$DIMADEC
 70
     0
  9
$DIMALTRND
 40
0.0
  9
$DIMAZIN
 70
     0
  9
$DIMDSEP
 70
    46
  9
$DIMATFIT
 70
     3
  9
$DIMFRAC
 70
     0
  9
$DIMLDRBLK
  1

  9
$DIMLUNIT
 70
     2
  9
$DIMLWD
 70
    -2
  9
$DIMLWE
 70
    -2
  9
$DIMTMOVE
 70
     0
  9
$LUNITS
 70
     2
  9
$LUPREC
 70
     4
  9
$SKETCHINC
 40
0.1
  9
$FILLETRAD
 40
0.0
  9
$AUNITS
 70
     0
  9
$AUPREC
 70
     0
  9
$MENU
  1
.
  9
$ELEVATION
 40
0.0
  9
$PELEVATION
 40
0.0
  9
$THICKNESS
 40
0.0
  9
$LIMCHECK
 70
     0
  9
$CHAMFERA
 40
0.0
  9
$CHAMFERB
 40
0.0
  9
$CHAMFERC
 40
0.0
  9
$CHAMFERD
 40
0.0
  9
$SKPOLY
 70
     0
  9
$TDCREATE
 40
2452842.552045173
  9
$TDUCREATE
 40
2452842.468711840
  9
$TDUPDATE
 40
2453944.352600637
  9
$TDUUPDATE
 40
2453944.269267303
  9
$TDINDWG
 40
1.5384693519
  9
$TDUSRTIMER
 40
1.5384584606
  9
$USRTIMER
 70
     1
  9
$ANGBASE
 50
0.0
  9
$ANGDIR
 70
     0
  9
$PDMODE
 70
     0
  9
$PDSIZE
 40
0.0
  9
$PLINEWID
 40
0.0
  9
$SPLFRAME
 70
     0
  9
$SPLINETYPE
 70
     6
  9
$SPLINESEGS
 70
     8
  9
$HANDSEED
  5
17B8F
  9
$SURFTAB1
 70
     6
  9
$SURFTAB2
 70
     6
  9
$SURFTYPE
 70
     6
  9
$SURFU
 70
     6
  9
$SURFV
 70
     6
  9
$UCSBASE
  2

  9
$UCSNAME
  2

  9
$UCSORG
 10
0.0
 20
0.0
 30
0.0
  9
$UCSXDIR
 10
1.0
 20
0.0
 30
0.0
  9
$UCSYDIR
 10
0.0
 20
1.0
 30
0.0
  9
$UCSORTHOREF
  2

  9
$UCSORTHOVIEW
 70
     0
  9
$UCSORGTOP
 10
0.0
 20
0.0
 30
0.0
  9
$UCSORGBOTTOM
 10
0.0
 20
0.0
 30
0.0
  9
$UCSORGLEFT
 10
0.0
 20
0.0
 30
0.0
  9
$UCSORGRIGHT
 10
0.0
 20
0.0
 30
0.0
  9
$UCSORGFRONT
 10
0.0
 20
0.0
 30
0.0
  9
$UCSORGBACK
 10
0.0
 20
0.0
 30
0.0
  9
$PUCSBASE
  2

  9
$PUCSNAME
  2

  9
$PUCSORG
 10
0.0
 20
0.0
 30
0.0
  9
$PUCSXDIR
 10
1.0
 20
0.0
 30
0.0
  9
$PUCSYDIR
 10
0.0
 20
1.0
 30
0.0
  9
$PUCSORTHOREF
  2

  9
$PUCSORTHOVIEW
 70
     0
  9
$PUCSORGTOP
 10
0.0
 20
0.0
 30
0.0
  9
$PUCSORGBOTTOM
 10
0.0
 20
0.0
 30
0.0
  9
$PUCSORGLEFT
 10
0.0
 20
0.0
 30
0.0
  9
$PUCSORGRIGHT
 10
0.0
 20
0.0
 30
0.0
  9
$PUCSORGFRONT
 10
0.0
 20
0.0
 30
0.0
  9
$PUCSORGBACK
 10
0.0
 20
0.0
 30
0.0
  9
$USERI1
 70
     0
  9
$USERI2
 70
     0
  9
$USERI3
 70
     0
  9
$USERI4
 70
     0
  9
$USERI5
 70
     0
  9
$USERR1
 40
0.0
  9
$USERR2
 40
0.0
  9
$USERR3
 40
0.0
  9
$USERR4
 40
0.0
  9
$USERR5
 40
0.0
  9
$WORLDVIEW
 70
     1
  9
$SHADEDGE
 70
     3
  9
$SHADEDIF
 70
    70
  9
$TILEMODE
 70
     1
  9
$MAXACTVP
 70
    64
  9
$PINSBASE
 10
0.0
 20
0.0
 30
0.0
  9
$PLIMCHECK
 70
     0
  9
$PEXTMIN
 10
1.000000000000000E+20
 20
1.000000000000000E+20
 30
1.000000000000000E+20
  9
$PEXTMAX
 10
-1.000000000000000E+20
 20
-1.000000000000000E+20
 30
-1.000000000000000E+20
  9
$PLIMMIN
 10
0.0
 20
0.0
  9
$PLIMMAX
 10
12.0
 20
9.0
  9
$UNITMODE
 70
     0
  9
$VISRETAIN
 70
     1
  9
$PLINEGEN
 70
     0
  9
$PSLTSCALE
 70
     1
  9
$TREEDEPTH
 70
  3020
  9
$CMLSTYLE
  2
Standard
  9
$CMLJUST
 70
     0
  9
$CMLSCALE
 40
1.0
  9
$PROXYGRAPHICS
 70
     1
  9
$MEASUREMENT
 70
     0
  9
$CELWEIGHT
370
    -1
  9
$ENDCAPS
280
     0
  9
$JOINSTYLE
280
     0
  9
$LWDISPLAY
290
     0
  9
$INSUNITS
 70
     0
  9
$HYPERLINKBASE
  1

  9
$STYLESHEET
  1
monochrome.ctb
  9
$XEDIT
290
     1
  9
$CEPSNTYPE
380
     0
  9
$PSTYLEMODE
290
     1
  9
$FINGERPRINTGUID
  2
{120036CA-264F-4224-96F9-35913E457107}
  9
$VERSIONGUID
  2
{6203E510-CDB4-45C4-8D55-EBFF5E7F8AF6}
  9
$EXTNAMES
290
     1
  9
$PSVPSCALE
 40
0.0
  9
$OLESTARTUP
290
     0
  0
ENDSEC
  0
SECTION
  2
CLASSES
  0
CLASS
  1
ACDBDICTIONARYWDFLT
  2
AcDbDictionaryWithDefault
  3
ObjectDBX Classes
 90
        0
280
     0
281
     0
  0
CLASS
  1
DICTIONARYVAR
  2
AcDbDictionaryVar
  3
ObjectDBX Classes
 90
        0
280
     0
281
     0
  0
CLASS
  1
ACDBPLACEHOLDER
  2
AcDbPlaceHolder
  3
ObjectDBX Classes
 90
        0
280
     0
281
     0
  0
CLASS
  1
LAYOUT
  2
AcDbLayout
  3
ObjectDBX Classes
 90
        0
280
     0
281
     0
  0
CLASS
  1
MATERIAL
  2
AcDbMaterial
  3
ObjectDBX Classes
 90
     1024
280
     0
281
     0
  0
CLASS
  1
VISUALSTYLE
  2
AcDbVisualStyle
  3
ObjectDBX Classes
 90
     4095
280
     0
281
     0
  0
CLASS
  1
TABLESTYLE
  2
AcDbTableStyle
  3
ObjectDBX Classes
 90
     4095
280
     0
281
     0
  0
CLASS
  1
SORTENTSTABLE
  2
AcDbSortentsTable
  3
ObjectDBX Classes
 90
        0
280
     0
281
     0
  0
ENDSEC
  0
SECTION
  2
TABLES
  0
TABLE
  2
VPORT
  5
8
330
0
100
AcDbSymbolTable
 70
     1
  0
VPORT
  5
17B49
330
8
100
AcDbSymbolTableRecord
100
AcDbViewportTableRecord
  2
*Active
 70
     0
 10
0.0
 20
0.0
 11
1.0
 21
1.0
 12
280.7079634001805
 22
116.9621703875224
 13
0.0
 23
0.0
 14
1.0
 24
1.0
 15
0.0
 25
0.0
 16
0.0
 26
0.0
 36
1.0
 17
0.0
 27
0.0
 37
0.0
 40
271.6992532074292
 41
1.918640576725025
 42
50.0
 43
0.0
 44
0.0
 50
0.0
 51
0.0
 71
     0
 72
   100
 73
     1
 74
     1
 75
     0
 76
     0
 77
     0
 78
     0
281
     0
 65
     1
110
0.0
120
0.0
130
0.0
111
1.0
121
0.0
131
0.0
112
0.0
122
1.0
132
0.0
 79
     0
146
0.0
  0
ENDTAB
  0
TABLE
  2
LTYPE
  5
5
330
0
100
AcDbSymbolTable
 70
     3
  0
LTYPE
  5
13
330
5
100
AcDbSymbolTableRecord
100
AcDbLinetypeTableRecord
  2
ByBlock
 70
     0
  3

 72
    65
 73
     0
 40
0.0
  0
LTYPE
  5
14
330
5
100
AcDbSymbolTableRecord
100
AcDbLinetypeTableRecord
  2
ByLayer
 70
     0
  3

 72
    65
 73
     0
 40
0.0
  0
LTYPE
  5
15
330
5
100
AcDbSymbolTableRecord
100
AcDbLinetypeTableRecord
  2
CONTINUOUS
 70
     0
  3
Solid line
 72
    65
 73
     0
 40
0.0
  0
LTYPE
  5
26
330
5
100
AcDbSymbolTableRecord
100
AcDbLinetypeTableRecord
  2
CENTER
 70
     0
  3
____ _ ____ _ ____ _ ____ _ ____ _ ____ _ ____
 72
    65
 73
     4
 40
0.6
 49
0.375
 74
     0
 49
-0.075
 74
     0
 49
0.075
 74
     0
 49
-0.075
 74
     0
  0
ENDTAB
  0
TABLE
  2
LAYER
  5
2
330
0
100
AcDbSymbolTable
 70
     6
  0
LAYER
  5
10
330
2
100
AcDbSymbolTableRecord
100
AcDbLayerTableRecord
  2
0
 70
     0
 62
     7
  6
CONTINUOUS
370
    -3
390
F
  0
LAYER
  5
2E
330
2
100
AcDbSymbolTableRecord
100
AcDbLayerTableRecord
  2
10000_FRONT
 70
     0
 62
     7
  6
CONTINUOUS
370
    -3
390
F
  0
LAYER
  5
2F
330
2
100
AcDbSymbolTableRecord
100
AcDbLayerTableRecord
  2
10100_FRONT_DIM
 70
     0
 62
     7
  6
CONTINUOUS
370
    -3
390
F
  0
LAYER
  5
3A
330
2
100
AcDbSymbolTableRecord
100
AcDbLayerTableRecord
  2
90000_FRAME
 70
     0
 62
     7
  6
CONTINUOUS
370
    -3
390
F
  0
LAYER
  5
3B
330
2
100
AcDbSymbolTableRecord
100
AcDbLayerTableRecord
  2
91000_TIP
 70
     0
 62
     7
  6
CONTINUOUS
370
    -3
390
F
  0
LAYER
  5
131D9
330
2
100
AcDbSymbolTableRecord
100
AcDbLayerTableRecord
  2
DEFPOINTS
 70
     0
 62
     7
  6
CONTINUOUS
290
     0
370
    -3
390
F
  0
ENDTAB
  0
TABLE
  2
STYLE
  5
3
330
0
100
AcDbSymbolTable
 70
     1
  0
STYLE
  5
11
330
3
100
AcDbSymbolTableRecord
100
AcDbTextStyleTableRecord
  2
Standard
 70
     0
 40
0.0
 41
1.0
 50
0.0
 71
     0
 42
0.2
  3
txt
  4

  0
ENDTAB
  0
TABLE
  2
VIEW
  5
6
330
0
100
AcDbSymbolTable
 70
     0
  0
ENDTAB
  0
TABLE
  2
UCS
  5
7
330
0
100
AcDbSymbolTable
 70
     0
  0
ENDTAB
  0
TABLE
  2
APPID
  5
9
330
0
100
AcDbSymbolTable
 70
     2
  0
APPID
  5
12
330
9
100
AcDbSymbolTableRecord
100
AcDbRegAppTableRecord
  2
ACAD
 70
     0
  0
APPID
  5
17B70
330
9
100
AcDbSymbolTableRecord
100
AcDbRegAppTableRecord
  2
ACAD_EXEMPT_FROM_CAD_STANDARDS
 70
     0
  0
ENDTAB
  0
TABLE
  2
DIMSTYLE
  5
A
330
0
100
AcDbSymbolTable
 70
     3
100
AcDbDimStyleTable
 71
     2
340
13123
340
131DD
  0
DIMSTYLE
105
13123
330
A
100
AcDbSymbolTableRecord
100
AcDbDimStyleTableRecord
  2
Standard
 70
     0
340
11
  0
DIMSTYLE
105
131DD
102
{ACAD_REACTORS
330
17A45
330
17A46
330
17A47
102
}
330
A
100
AcDbSymbolTableRecord
100
AcDbDimStyleTableRecord
  2
DSTYLE1
 70
     0
 41
3.0
 42
0.0
 44
1.0
 73
     0
 74
     0
 77
     1
 78
     3
140
2.5
143
0.039370079
147
1.0
271
     3
272
     3
274
     0
279
     2
340
11
  0
ENDTAB
  0
TABLE
  2
BLOCK_RECORD
  5
1
330
0
100
AcDbSymbolTable
 70
     5
  0
BLOCK_RECORD
  5
20
102
{ACAD_XDICTIONARY
360
17B6D
102
}
330
1
100
AcDbSymbolTableRecord
100
AcDbBlockTableRecord
  2
*Model_Space
340
23
  0
BLOCK_RECORD
  5
1C
330
1
100
AcDbSymbolTableRecord
100
AcDbBlockTableRecord
  2
*Paper_Space
340
1F
  0
BLOCK_RECORD
  5
1316D
330
1
100
AcDbSymbolTableRecord
100
AcDbBlockTableRecord
  2
SIEMENS_OUTLINE_BL0
340
0
102
{BLKREFS
331
13306
102
}
  0
BLOCK_RECORD
  5
17A48
330
1
100
AcDbSymbolTableRecord
100
AcDbBlockTableRecord
  2
*D1
340
0
  0
BLOCK_RECORD
  5
17A55
330
1
100
AcDbSymbolTableRecord
100
AcDbBlockTableRecord
  2
*D2
340
0
  0
BLOCK_RECORD
  5
17A62
330
1
100
AcDbSymbolTableRecord
100
AcDbBlockTableRecord
  2
*D3
340
0
  0
ENDTAB
  0
ENDSEC
  0
SECTION
  2
BLOCKS
  0
BLOCK
  5
21
330
20
100
AcDbEntity
  8
0
100
AcDbBlockBegin
  2
*Model_Space
 70
     0
 10
0.0
 20
0.0
 30
0.0
  3
*Model_Space
  1

  0
ENDBLK
  5
22
330
20
100
AcDbEntity
  8
0
100
AcDbBlockEnd
  0
BLOCK
  5
1D
330
1C
100
AcDbEntity
 67
     1
  8
0
100
AcDbBlockBegin
  2
*Paper_Space
 70
     0
 10
0.0
 20
0.0
 30
0.0
  3
*Paper_Space
  1

  0
ENDBLK
  5
1E
330
1C
100
AcDbEntity
 67
     1
  8
0
100
AcDbBlockEnd
  0
BLOCK
  5
1316E
330
1316D
100
AcDbEntity
  8
0
  6
Continuous
 62
     7
100
AcDbBlockBegin
  2
SIEMENS_OUTLINE_BL0
 70
     0
 10
0.0
 20
0.0
 30
0.0
  3
SIEMENS_OUTLINE_BL0
  1

  0
LINE
  5
1316F
330
1316D
100
AcDbEntity
  8
0
  6
Continuous
 62
     7
100
AcDbLine
 10
79.186200508
 20
21.4145478991
 30
0.0
 11
79.186200508
 21
16.6612788158
 31
0.0
  0
LINE
  5
13170
330
1316D
100
AcDbEntity
  8
0
  6
Continuous
 62
     7
100
AcDbLine
 10
80.61218123299999
 20
21.4145478991
 30
0.0
 11
80.61218123299999
 21
16.6612788158
 31
0.0
  0
LINE
  5
13171
330
1316D
100
AcDbEntity
  8
0
  6
Continuous
 62
     7
100
AcDbLine
 10
79.186200508
 20
16.6612788158
 30
0.0
 11
80.61218123299999
 21
16.6612788158
 31
0.0
  0
LINE
  5
13172
330
1316D
100
AcDbEntity
  8
0
  6
Continuous
 62
     7
100
AcDbLine
 10
79.186200508
 20
21.4145478991
 30
0.0
 11
80.61218123299999
 21
21.4145478991
 31
0.0
  0
LINE
  5
13173
330
1316D
100
AcDbEntity
  8
0
  6
Continuous
 62
     7
100
AcDbLine
 10
81.7054331221
 20
21.4145478991
 30
0.0
 11
81.7054331221
 21
16.6612788158
 31
0.0
  0
LINE
  5
13174
330
1316D
100
AcDbEntity
  8
0
  6
Continuous
 62
     7
100
AcDbLine
 10
81.7054331221
 20
16.6612788158
 30
0.0
 11
85.2703849346
 21
16.6612788158
 31
0.0
  0
LINE
  5
13175
330
1316D
100
AcDbEntity
  8
0
  6
Continuous
 62
     7
100
AcDbLine
 10
85.2703849346
 20
17.5643999417
 30
0.0
 11
83.0838811563
 21
17.5643999417
 31
0.0
  0
LINE
  5
13176
330
1316D
100
AcDbEntity
  8
0
  6
Continuous
 62
     7
100
AcDbLine
 10
85.2703849346
 20
17.5643999417
 30
0.0
 11
85.2703849346
 21
16.6612788158
 31
0.0
  0
LINE
  5
13177
330
1316D
100
AcDbEntity
  8
0
  6
Continuous
 62
     7
100
AcDbLine
 10
85.2228522438
 20
21.4145478991
 30
0.0
 11
81.7054331221
 21
21.4145478991
 31
0.0
  0
LINE
  5
13178
330
1316D
100
AcDbEntity
  8
0
  6
Continuous
 62
     7
100
AcDbLine
 10
85.2228522438
 20
20.5351931187
 30
0.0
 11
83.0838811563
 21
20.5351931187
 31
0.0
  0
LINE
  5
13179
330
1316D
100
AcDbEntity
  8
0
  6
Continuous
 62
     7
100
AcDbLine
 10
85.2228522438
 20
21.4145478991
 30
0.0
 11
85.2228522438
 21
20.5351931187
 31
0.0
  0
LINE
  5
1317A
330
1316D
100
AcDbEntity
  8
0
  6
Continuous
 62
     7
100
AcDbLine
 10
84.9376560988
 20
18.68141817619999
 30
0.0
 11
83.0838811563
 21
18.68141817619999
 31
0.0
  0
LINE
  5
1317B
330
1316D
100
AcDbEntity
  8
0
  6
Continuous
 62
     7
100
AcDbLine
 10
84.9376560988
 20
19.465707575
 30
0.0
 11
84.9376560988
 21
18.68141817619999
 31
0.0
  0
LINE
  5
1317C
330
1316D
100
AcDbEntity
  8
0
  6
Continuous
 62
     7
100
AcDbLine
 10
84.9376560988
 20
19.465707575
 30
0.0
 11
83.0838811563
 21
19.465707575
 31
0.0
  0
LINE
  5
1317D
330
1316D
100
AcDbEntity
  8
0
  6
Continuous
 62
     7
100
AcDbLine
 10
83.0838811563
 20
20.5351931187
 30
0.0
 11
83.0838811563
 21
19.465707575
 31
0.0
  0
LINE
  5
1317E
330
1316D
100
AcDbEntity
  8
0
  6
Continuous
 62
     7
100
AcDbLine
 10
83.0838811563
 20
18.68141817619999
 30
0.0
 11
83.0838811563
 21
17.5643999417
 31
0.0
  0
LINE
  5
1317F
330
1316D
100
AcDbEntity
  8
0
  6
Continuous
 62
     7
100
AcDbLine
 10
86.0784406788
 20
16.6612788158
 30
0.0
 11
86.0784406788
 21
21.4145478991
 31
0.0
  0
LINE
  5
13180
330
1316D
100
AcDbEntity
  8
0
  6
Continuous
 62
     7
100
AcDbLine
 10
86.0784406788
 20
16.6612788158
 30
0.0
 11
87.02909449539999
 21
16.6612788158
 31
0.0
  0
LINE
  5
13181
330
1316D
100
AcDbEntity
  8
0
  6
Continuous
 62
     7
100
AcDbLine
 10
91.92496165120001
 20
21.4145478991
 30
0.0
 11
91.92496165120001
 21
16.6612788158
 31
0.0
  0
LINE
  5
13182
330
1316D
100
AcDbEntity
  8
0
  6
Continuous
 62
     7
100
AcDbLine
 10
91.92496165120001
 20
16.6612788158
 30
0.0
 11
90.54651361700001
 21
16.6612788158
 31
0.0
  0
LINE
  5
13183
330
1316D
100
AcDbEntity
  8
0
  6
Continuous
 62
     7
100
AcDbLine
 10
88.3600098387
 20
16.613746125
 30
0.0
 11
89.21559827370002
 21
16.613746125
 31
0.0
  0
LINE
  5
13184
330
1316D
100
AcDbEntity
  8
0
  6
Continuous
 62
     7
100
AcDbLine
 10
88.3600098387
 20
16.613746125
 30
0.0
 11
87.02909449539999
 21
19.7033710291
 31
0.0
  0
LINE
  5
13185
330
1316D
100
AcDbEntity
  8
0
  6
Continuous
 62
     7
100
AcDbLine
 10
87.02909449539999
 20
16.6612788158
 30
0.0
 11
87.02909449539999
 21
19.7033710291
 31
0.0
  0
LINE
  5
13186
330
1316D
100
AcDbEntity
  8
0
  6
Continuous
 62
     7
100
AcDbLine
 10
90.54651361700001
 20
19.75090372
 30
0.0
 11
89.21559827370002
 21
16.613746125
 31
0.0
  0
LINE
  5
13187
330
1316D
100
AcDbEntity
  8
0
  6
Continuous
 62
     7
100
AcDbLine
 10
87.78961754870001
 20
21.4145478991
 30
0.0
 11
86.0784406788
 21
21.4145478991
 31
0.0
  0
LINE
  5
13188
330
1316D
100
AcDbEntity
  8
0
  6
Continuous
 62
     7
100
AcDbLine
 10
91.92496165120001
 20
21.4145478991
 30
0.0
 11
90.2137847812
 21
21.4145478991
 31
0.0
  0
LINE
  5
13189
330
1316D
100
AcDbEntity
  8
0
  6
Continuous
 62
     7
100
AcDbLine
 10
87.78961754870001
 20
21.4145478991
 30
0.0
 11
89.0254675104
 21
18.5150537583
 31
0.0
  0
LINE
  5
1318A
330
1316D
100
AcDbEntity
  8
0
  6
Continuous
 62
     7
100
AcDbLine
 10
90.2137847812
 20
21.4145478991
 30
0.0
 11
89.0254675104
 21
18.5150537583
 31
0.0
  0
LINE
  5
1318B
330
1316D
100
AcDbEntity
  8
0
  6
Continuous
 62
     7
100
AcDbLine
 10
90.54651361700001
 20
19.75090372
 30
0.0
 11
90.54651361700001
 21
16.6612788158
 31
0.0
  0
LINE
  5
1318C
330
1316D
100
AcDbEntity
  8
0
  6
Continuous
 62
     7
100
AcDbLine
 10
93.01821354030002
 20
21.4145478991
 30
0.0
 11
93.01821354030002
 21
16.6612788158
 31
0.0
  0
LINE
  5
1318D
330
1316D
100
AcDbEntity
  8
0
  6
Continuous
 62
     7
100
AcDbLine
 10
93.01821354030002
 20
16.6612788158
 30
0.0
 11
96.5831653528
 21
16.6612788158
 31
0.0
  0
LINE
  5
1318E
330
1316D
100
AcDbEntity
  8
0
  6
Continuous
 62
     7
100
AcDbLine
 10
96.5831653528
 20
17.5643999417
 30
0.0
 11
94.3966615745
 21
17.5643999417
 31
0.0
  0
LINE
  5
1318F
330
1316D
100
AcDbEntity
  8
0
  6
Continuous
 62
     7
100
AcDbLine
 10
96.5831653528
 20
17.5643999417
 30
0.0
 11
96.5831653528
 21
16.6612788158
 31
0.0
  0
LINE
  5
13190
330
1316D
100
AcDbEntity
  8
0
  6
Continuous
 62
     7
100
AcDbLine
 10
96.53563266200002
 20
21.4145478991
 30
0.0
 11
93.01821354030002
 21
21.4145478991
 31
0.0
  0
LINE
  5
13191
330
1316D
100
AcDbEntity
  8
0
  6
Continuous
 62
     7
100
AcDbLine
 10
96.53563266200002
 20
20.5351931187
 30
0.0
 11
94.3966615745
 21
20.5351931187
 31
0.0
  0
LINE
  5
13192
330
1316D
100
AcDbEntity
  8
0
  6
Continuous
 62
     7
100
AcDbLine
 10
96.53563266200002
 20
21.4145478991
 30
0.0
 11
96.53563266200002
 21
20.5351931187
 31
0.0
  0
LINE
  5
13193
330
1316D
100
AcDbEntity
  8
0
  6
Continuous
 62
     7
100
AcDbLine
 10
96.25043651700002
 20
18.68141817619999
 30
0.0
 11
94.3966615745
 21
18.68141817619999
 31
0.0
  0
LINE
  5
13194
330
1316D
100
AcDbEntity
  8
0
  6
Continuous
 62
     7
100
AcDbLine
 10
96.25043651700002
 20
19.465707575
 30
0.0
 11
96.25043651700002
 21
18.68141817619999
 31
0.0
  0
LINE
  5
13195
330
1316D
100
AcDbEntity
  8
0
  6
Continuous
 62
     7
100
AcDbLine
 10
96.25043651700002
 20
19.465707575
 30
0.0
 11
94.3966615745
 21
19.465707575
 31
0.0
  0
LINE
  5
13196
330
1316D
100
AcDbEntity
  8
0
  6
Continuous
 62
     7
100
AcDbLine
 10
94.3966615745
 20
20.5351931187
 30
0.0
 11
94.3966615745
 21
19.465707575
 31
0.0
  0
LINE
  5
13197
330
1316D
100
AcDbEntity
  8
0
  6
Continuous
 62
     7
100
AcDbLine
 10
94.3966615745
 20
18.68141817619999
 30
0.0
 11
94.3966615745
 21
17.5643999417
 31
0.0
  0
LINE
  5
13198
330
1316D
100
AcDbEntity
  8
0
  6
Continuous
 62
     7
100
AcDbLine
 10
97.3674547515
 20
16.6612788158
 30
0.0
 11
97.3674547515
 21
21.4145478991
 31
0.0
  0
LINE
  5
13199
330
1316D
100
AcDbEntity
  8
0
  6
Continuous
 62
     7
100
AcDbLine
 10
101.5503315448
 20
21.4145478991
 30
0.0
 11
101.5503315448
 21
16.6612788158
 31
0.0
  0
LINE
  5
1319A
330
1316D
100
AcDbEntity
  8
0
  6
Continuous
 62
     7
100
AcDbLine
 10
97.3674547515
 20
16.6612788158
 30
0.0
 11
98.3181085682
 21
16.6612788158
 31
0.0
  0
LINE
  5
1319B
330
1316D
100
AcDbEntity
  8
0
  6
Continuous
 62
     7
100
AcDbLine
 10
101.5503315448
 20
21.4145478991
 30
0.0
 11
100.5996777282
 21
21.4145478991
 31
0.0
  0
LINE
  5
1319C
330
1316D
100
AcDbEntity
  8
0
  6
Continuous
 62
     7
100
AcDbLine
 10
98.91226720360002
 20
21.4145478991
 30
0.0
 11
97.3674547515
 21
21.4145478991
 31
0.0
  0
LINE
  5
1319D
330
1316D
100
AcDbEntity
  8
0
  6
Continuous
 62
     7
100
AcDbLine
 10
101.5503315448
 20
16.6612788158
 30
0.0
 11
100.0292854382
 21
16.6612788158
 31
0.0
  0
LINE
  5
1319E
330
1316D
100
AcDbEntity
  8
0
  6
Continuous
 62
     7
100
AcDbLine
 10
100.0292854382
 20
16.6612788158
 30
0.0
 11
98.3181085682
 21
19.7033710291
 31
0.0
  0
LINE
  5
1319F
330
1316D
100
AcDbEntity
  8
0
  6
Continuous
 62
     7
100
AcDbLine
 10
98.91226720360002
 20
21.4145478991
 30
0.0
 11
100.5996777282
 21
18.4675210675
 31
0.0
  0
LINE
  5
131A0
330
1316D
100
AcDbEntity
  8
0
  6
Continuous
 62
     7
100
AcDbLine
 10
100.5996777282
 20
21.4145478991
 30
0.0
 11
100.5996777282
 21
18.4675210675
 31
0.0
  0
LINE
  5
131A1
330
1316D
100
AcDbEntity
  8
0
  6
Continuous
 62
     7
100
AcDbLine
 10
98.3181085682
 20
16.6612788158
 30
0.0
 11
98.3181085682
 21
19.7033710291
 31
0.0
  0
LINE
  5
131A2
330
1316D
100
AcDbEntity
  8
0
  6
Continuous
 62
     7
100
AcDbLine
 10
102.358387289
 20
16.7563441975
 30
0.0
 11
102.358387289
 21
17.7069980142
 31
0.0
  0
LINE
  5
131A3
330
1316D
100
AcDbEntity
  8
0
  6
Continuous
 62
     7
100
AcDbLine
 10
105.6856756473
 20
20.4163613916
 30
0.0
 11
105.6856756473
 21
21.3670152083
 31
0.0
  0
ARC
  5
131A4
330
1316D
100
AcDbEntity
  8
0
  6
Continuous
 62
     7
100
AcDbCircle
 10
104.063028414
 20
18.6184373609
 30
0.0
 40
1.111619360599997
100
AcDbArc
 50
277.7099956934
 51
295.6884927746
  0
ARC
  5
131A5
330
1316D
100
AcDbEntity
  8
0
  6
Continuous
 62
     7
100
AcDbCircle
 10
104.3473383967
 20
17.8936115972
 30
0.0
 40
0.3401689265
100
AcDbArc
 50
305.503221255
 51
72.46528985229999
  0
ARC
  5
131A6
330
1316D
100
AcDbEntity
  8
0
  6
Continuous
 62
     7
100
AcDbCircle
 10
103.7813445886
 20
21.2953185068
 30
0.0
 40
4.756794641099999
100
AcDbArc
 50
252.5939200548001
 51
280.9816604256
  0
ARC
  5
131A7
330
1316D
100
AcDbEntity
  8
0
  6
Continuous
 62
     7
100
AcDbCircle
 10
104.2361799517
 20
18.6773047703
 30
0.0
 40
2.100726595299998
100
AcDbArc
 50
282.405835852
 51
311.8644433928
  0
ARC
  5
131A8
330
1316D
100
AcDbEntity
  8
0
  6
Continuous
 62
     7
100
AcDbCircle
 10
103.9626156046
 20
20.2856464918
 30
0.0
 40
0.3029626476
100
AcDbArc
 50
154.4400348282
 51
221.8201698801
  0
ARC
  5
131A9
330
1316D
100
AcDbEntity
  8
0
  6
Continuous
 62
     7
100
AcDbCircle
 10
104.0418367559
 20
20.2064253405
 30
0.0
 40
0.4103089737
100
AcDbArc
 50
102.8287828681
 51
149.2259639003
  0
ARC
  5
131AA
330
1316D
100
AcDbEntity
  8
0
  6
Continuous
 62
     7
100
AcDbCircle
 10
104.4588635916
 20
18.4640900106
 30
0.0
 40
2.201836557
100
AcDbArc
 50
84.0400061857
 51
103.3427657870999
  0
ARC
  5
131AB
330
1316D
100
AcDbEntity
  8
0
  6
Continuous
 62
     7
100
AcDbCircle
 10
104.1178997669
 20
16.0467260867
 30
0.0
 40
4.642373736499997
100
AcDbArc
 50
70.2625858546
 51
82.95241863799999
  0
ARC
  5
131AC
330
1316D
100
AcDbEntity
  8
0
  6
Continuous
 62
     7
100
AcDbCircle
 10
103.6038815647
 20
20.7183489764
 30
0.0
 40
3.258755990899997
100
AcDbArc
 50
247.5300206145
 51
280.7579522143
  0
ARC
  5
131AD
330
1316D
100
AcDbEntity
  8
0
  6
Continuous
 62
     7
100
AcDbCircle
 10
97.21891509270001
 20
2.4668290159
 30
0.0
 40
17.3316084133
100
AcDbArc
 50
65.34146746500001
 51
67.39977707359999
  0
ARC
  5
131AE
330
1316D
100
AcDbEntity
  8
0
  6
Continuous
 62
     7
100
AcDbCircle
 10
108.0147774981
 20
28.259255379
 30
0.0
 40
10.6291642039
100
AcDbArc
 50
242.8620101252001
 51
247.1042029186
  0
ARC
  5
131AF
330
1316D
100
AcDbEntity
  8
0
  6
Continuous
 62
     7
100
AcDbCircle
 10
104.1598762715
 20
20.725323882
 30
0.0
 40
2.166291629199998
100
AcDbArc
 50
227.3119280794
 51
242.7040315235
  0
ARC
  5
131B0
330
1316D
100
AcDbEntity
  8
0
  6
Continuous
 62
     7
100
AcDbCircle
 10
103.5558454619
 20
20.0196462412
 30
0.0
 40
1.238521734
100
AcDbArc
 50
194.7952194236
 51
225.7176549047
  0
ARC
  5
131B1
330
1316D
100
AcDbEntity
  8
0
  6
Continuous
 62
     7
100
AcDbCircle
 10
103.6180035961
 20
20.0598662104
 30
0.0
 40
1.309092072899999
100
AcDbArc
 50
164.1974860461
 51
195.8025139539
  0
ARC
  5
131B2
330
1316D
100
AcDbEntity
  8
0
  6
Continuous
 62
     7
100
AcDbCircle
 10
104.1750273167
 20
19.1715990505
 30
0.0
 40
2.366924815299999
100
AcDbArc
 50
86.22180229280001
 51
120.4272602309
  0
ARC
  5
131B3
330
1316D
100
AcDbEntity
  8
0
  6
Continuous
 62
     7
100
AcDbCircle
 10
103.9061705342
 20
12.4754312294
 30
0.0
 40
9.0679051661
100
AcDbArc
 50
78.68270492259998
 51
87.3147599624
  0
ARC
  5
131B4
330
1316D
100
AcDbEntity
  8
0
  6
Continuous
 62
     7
100
AcDbCircle
 10
103.4501013558
 20
20.1673739729
 30
0.0
 40
1.119747444
100
AcDbArc
 50
142.813917903
 51
167.1522951417
  0
ARC
  5
131B5
330
1316D
100
AcDbEntity
  8
0
  6
Continuous
 62
     7
100
AcDbCircle
 10
103.7954106974
 20
19.8607922762
 30
0.0
 40
1.580546684499998
100
AcDbArc
 50
121.2140948535
 51
141.5254768286
  0
ARC
  5
131B6
330
1316D
100
AcDbEntity
  8
0
  6
Continuous
 62
     7
100
AcDbCircle
 10
104.372585063
 20
20.6718496049
 30
0.0
 40
0.8661276051999998
100
AcDbArc
 50
222.7760387596
 51
239.0362434679
  0
ARC
  5
131B7
330
1316D
100
AcDbEntity
  8
0
  6
Continuous
 62
     7
100
AcDbCircle
 10
101.8658754847
 20
13.3415774063
 30
0.0
 40
6.858773576299999
100
AcDbArc
 50
59.90202725599999
 51
68.2036481279
  0
ARC
  5
131B8
330
1316D
100
AcDbEntity
  8
0
  6
Continuous
 62
     7
100
AcDbCircle
 10
105.2743699785
 20
22.2674639135
 30
0.0
 40
2.698741017099999
100
AcDbArc
 50
240.0481997804
 51
251.3779673736999
  0
ARC
  5
131B9
330
1316D
100
AcDbEntity
  8
0
  6
Continuous
 62
     7
100
AcDbCircle
 10
104.6089128117
 20
18.1105652982
 30
0.0
 40
1.4334474881
100
AcDbArc
 50
315.8904553224
 51
333.5229264373
  0
ARC
  5
131BA
330
1316D
100
AcDbEntity
  8
0
  6
Continuous
 62
     7
100
AcDbCircle
 10
104.6135510555
 20
18.057158148
 30
0.0
 40
1.406228711899998
100
AcDbArc
 50
335.3867972702
 51
24.3915119402
  0
ARC
  5
131BB
330
1316D
100
AcDbEntity
  8
0
  6
Continuous
 62
     7
100
AcDbCircle
 10
104.5413461519
 20
17.9793014562
 30
0.0
 40
1.504702514799999
100
AcDbArc
 50
25.95629166050001
 51
59.4834829668
  0
LINE
  5
131BC
330
1316D
100
AcDbEntity
  8
0
  6
Continuous
 62
     7
100
AcDbLine
 10
74.7656602606
 20
16.7563441975
 30
0.0
 11
74.7656602606
 21
17.7069980142
 31
0.0
  0
LINE
  5
131BD
330
1316D
100
AcDbEntity
  8
0
  6
Continuous
 62
     7
100
AcDbLine
 10
78.09294861879997
 20
20.4163613916
 30
0.0
 11
78.09294861879997
 21
21.3670152083
 31
0.0
  0
ARC
  5
131BE
330
1316D
100
AcDbEntity
  8
0
  6
Continuous
 62
     7
100
AcDbCircle
 10
76.4703013855
 20
18.6184373609
 30
0.0
 40
1.111619360599997
100
AcDbArc
 50
277.7099956934
 51
295.6884927746
  0
ARC
  5
131BF
330
1316D
100
AcDbEntity
  8
0
  6
Continuous
 62
     7
100
AcDbCircle
 10
76.7546113683
 20
17.8936115972
 30
0.0
 40
0.3401689265
100
AcDbArc
 50
305.5032212556
 51
72.4652898515
  0
ARC
  5
131C0
330
1316D
100
AcDbEntity
  8
0
  6
Continuous
 62
     7
100
AcDbCircle
 10
76.1886175602
 20
21.2953185068
 30
0.0
 40
4.756794641099999
100
AcDbArc
 50
252.5939200545
 51
280.9816604253
  0
ARC
  5
131C1
330
1316D
100
AcDbEntity
  8
0
  6
Continuous
 62
     7
100
AcDbCircle
 10
76.64345292330001
 20
18.6773047703
 30
0.0
 40
2.100726595299998
100
AcDbArc
 50
282.4058358513
 51
311.8644433923
  0
ARC
  5
131C2
330
1316D
100
AcDbEntity
  8
0
  6
Continuous
 62
     7
100
AcDbCircle
 10
76.3698885762
 20
20.2856464918
 30
0.0
 40
0.3029626476
100
AcDbArc
 50
154.4400348282
 51
221.8201698801
  0
ARC
  5
131C3
330
1316D
100
AcDbEntity
  8
0
  6
Continuous
 62
     7
100
AcDbCircle
 10
76.4491097276
 20
20.2064253405
 30
0.0
 40
0.4103089737
100
AcDbArc
 50
102.8287828727
 51
149.2259639027
  0
ARC
  5
131C4
330
1316D
100
AcDbEntity
  8
0
  6
Continuous
 62
     7
100
AcDbCircle
 10
76.8661365632
 20
18.4640900106
 30
0.0
 40
2.201836557
100
AcDbArc
 50
84.0400061859
 51
103.3427657872
  0
ARC
  5
131C5
330
1316D
100
AcDbEntity
  8
0
  6
Continuous
 62
     7
100
AcDbCircle
 10
76.5251727384
 20
16.0467260867
 30
0.0
 40
4.642373736499997
100
AcDbArc
 50
70.2625858546
 51
82.9524186379
  0
ARC
  5
131C6
330
1316D
100
AcDbEntity
  8
0
  6
Continuous
 62
     7
100
AcDbCircle
 10
76.0111545363
 20
20.7183489764
 30
0.0
 40
3.258755990899997
100
AcDbArc
 50
247.5300206148
 51
280.7579522145
  0
ARC
  5
131C7
330
1316D
100
AcDbEntity
  8
0
  6
Continuous
 62
     7
100
AcDbCircle
 10
69.6261880643
 20
2.4668290159
 30
0.0
 40
17.3316084133
100
AcDbArc
 50
65.34146746500001
 51
67.39977707359999
  0
ARC
  5
131C8
330
1316D
100
AcDbEntity
  8
0
  6
Continuous
 62
     7
100
AcDbCircle
 10
80.4220504697
 20
28.259255379
 30
0.0
 40
10.6291642039
100
AcDbArc
 50
242.8620101252001
 51
247.1042029185
  0
ARC
  5
131C9
330
1316D
100
AcDbEntity
  8
0
  6
Continuous
 62
     7
100
AcDbCircle
 10
76.56714924310001
 20
20.725323882
 30
0.0
 40
2.166291629199998
100
AcDbArc
 50
227.3119280794
 51
242.7040315235
  0
ARC
  5
131CA
330
1316D
100
AcDbEntity
  8
0
  6
Continuous
 62
     7
100
AcDbCircle
 10
75.9631184335
 20
20.0196462412
 30
0.0
 40
1.238521734
100
AcDbArc
 50
194.7952194234
 51
225.7176549042
  0
ARC
  5
131CB
330
1316D
100
AcDbEntity
  8
0
  6
Continuous
 62
     7
100
AcDbCircle
 10
76.58230028830002
 20
19.1715990505
 30
0.0
 40
2.366924815299999
100
AcDbArc
 50
86.22180229280001
 51
120.4272602309
  0
ARC
  5
131CC
330
1316D
100
AcDbEntity
  8
0
  6
Continuous
 62
     7
100
AcDbCircle
 10
76.3134435058
 20
12.4754312294
 30
0.0
 40
9.0679051661
100
AcDbArc
 50
78.68270492259998
 51
87.3147599624
  0
ARC
  5
131CD
330
1316D
100
AcDbEntity
  8
0
  6
Continuous
 62
     7
100
AcDbCircle
 10
76.20268366899998
 20
19.8607922762
 30
0.0
 40
1.580546684599998
100
AcDbArc
 50
121.2140948541
 51
141.525476829
  0
ARC
  5
131CE
330
1316D
100
AcDbEntity
  8
0
  6
Continuous
 62
     7
100
AcDbCircle
 10
76.7798580346
 20
20.6718496049
 30
0.0
 40
0.8661276051999998
100
AcDbArc
 50
222.7760387596
 51
239.0362434679
  0
ARC
  5
131CF
330
1316D
100
AcDbEntity
  8
0
  6
Continuous
 62
     7
100
AcDbCircle
 10
74.2731484563
 20
13.3415774063
 30
0.0
 40
6.858773576299999
100
AcDbArc
 50
59.90202725620001
 51
68.20364812820002
  0
ARC
  5
131D0
330
1316D
100
AcDbEntity
  8
0
  6
Continuous
 62
     7
100
AcDbCircle
 10
77.6816429501
 20
22.2674639135
 30
0.0
 40
2.698741017099999
100
AcDbArc
 50
240.0481997804
 51
251.3779673734
  0
ARC
  5
131D1
330
1316D
100
AcDbEntity
  8
0
  6
Continuous
 62
     7
100
AcDbCircle
 10
77.0161857833
 20
18.1105652982
 30
0.0
 40
1.4334474881
100
AcDbArc
 50
315.8904553226
 51
333.5229264375
  0
ARC
  5
131D2
330
1316D
100
AcDbEntity
  8
0
  6
Continuous
 62
     7
100
AcDbCircle
 10
77.020824027
 20
18.057158148
 30
0.0
 40
1.406228711899998
100
AcDbArc
 50
335.3867972703
 51
24.3915119403
  0
ARC
  5
131D3
330
1316D
100
AcDbEntity
  8
0
  6
Continuous
 62
     7
100
AcDbCircle
 10
76.94861912350001
 20
17.9793014562
 30
0.0
 40
1.504702514699999
100
AcDbArc
 50
25.9562916611
 51
59.4834829676
  0
LINE
  5
131D4
330
1316D
100
AcDbEntity
  8
0
  6
Continuous
 62
     7
100
AcDbLine
 10
74.9574888499
 20
20.8337423583
 30
0.0
 11
75.2315546745
 21
21.1078154358
 31
0.0
  0
ARC
  5
131D5
330
1316D
100
AcDbEntity
  8
0
  6
Continuous
 62
     7
100
AcDbCircle
 10
76.0252765676
 20
20.0598662104
 30
0.0
 40
1.309092072899999
100
AcDbArc
 50
164.1974860461
 51
195.8025139539
  0
ARC
  5
131D6
330
1316D
100
AcDbEntity
  8
0
  6
Continuous
 62
     7
100
AcDbCircle
 10
75.8573743274
 20
20.1673739729
 30
0.0
 40
1.119747444
100
AcDbArc
 50
142.813917903
 51
167.1522951417
  0
ENDBLK
  5
131D7
330
1316D
100
AcDbEntity
  8
0
100
AcDbBlockEnd
  0
BLOCK
  5
17A53
330
17A48
100
AcDbEntity
  8
0
100
AcDbBlockBegin
  2
*D1
 70
     1
 10
0.0
 20
0.0
 30
0.0
  3
*D1
  1

  0
LINE
  5
17B2A
330
17A48
100
AcDbEntity
  8
10100_FRONT_DIM
  6
Continuous
 62
     0
370
    -2
100
AcDbLine
 10
298.5208610903334
 20
135.5669771725029
 30
0.0
 11
298.5208610903334
 21
154.2582291725027
 31
0.0
  0
LINE
  5
17B2B
330
17A48
100
AcDbEntity
  8
10100_FRONT_DIM
  6
Continuous
 62
     0
370
    -2
100
AcDbLine
 10
253.5208610903335
 20
140.2669771725029
 30
0.0
 11
253.5208610903335
 21
154.2582291725027
 31
0.0
  0
LINE
  5
17B2C
330
17A48
100
AcDbEntity
  8
10100_FRONT_DIM
  6
Continuous
 62
     0
370
    -2
100
AcDbLine
 10
296.5208610903334
 20
153.2582291725027
 30
0.0
 11
279.1041944236669
 21
153.2582291725027
 31
0.0
  0
LINE
  5
17B2D
330
17A48
100
AcDbEntity
  8
10100_FRONT_DIM
  6
Continuous
 62
     0
370
    -2
100
AcDbLine
 10
255.5208610903335
 20
153.2582291725027
 30
0.0
 11
272.9375277570002
 21
153.2582291725027
 31
0.0
  0
MTEXT
  5
17B2E
330
17A48
100
AcDbEntity
  8
10100_FRONT_DIM
  6
Continuous
 62
     0
370
    13
100
AcDbMText
 10
276.0208610903335
 20
153.2582291725027
 30
0.0
 40
2.5
 41
0.0
 71
     5
 72
     1
  1
\A1;45
 73
     1
 44
1.0
1001
ACAD
1000
MTEXTBEGIN
1070
    73
1070
     1
1070
    44
1040
1.0
1070
    74
1070
     0
1000
MTEXTEND
  0
SOLID
  5
17B2F
330
17A48
100
AcDbEntity
  8
10100_FRONT_DIM
  6
Continuous
 62
     0
100
AcDbTrace
 10
296.5208610903334
 20
153.591562505836
 30
0.0
 11
296.5208610903334
 21
152.9248958391693
 31
0.0
 12
298.5208610903334
 22
153.2582291725027
 32
0.0
 13
298.5208610903334
 23
153.2582291725027
 33
0.0
  0
SOLID
  5
17B30
330
17A48
100
AcDbEntity
  8
10100_FRONT_DIM
  6
Continuous
 62
     0
100
AcDbTrace
 10
255.5208610903335
 20
153.591562505836
 30
0.0
 11
255.5208610903335
 21
152.9248958391693
 31
0.0
 12
253.5208610903335
 22
153.2582291725027
 32
0.0
 13
253.5208610903335
 23
153.2582291725027
 33
0.0
  0
POINT
  5
17B31
330
17A48
100
AcDbEntity
  8
DEFPOINTS
  6
Continuous
 62
     0
100
AcDbPoint
 10
298.5208610903334
 20
134.5669771725029
 30
0.0
  0
POINT
  5
17B32
330
17A48
100
AcDbEntity
  8
DEFPOINTS
  6
Continuous
 62
     0
100
AcDbPoint
 10
253.5208610903335
 20
139.2669771725029
 30
0.0
  0
POINT
  5
17B33
330
17A48
100
AcDbEntity
  8
DEFPOINTS
  6
Continuous
 62
     0
100
AcDbPoint
 10
253.5208610903335
 20
153.2582291725027
 30
0.0
  0
ENDBLK
  5
17A54
330
17A48
100
AcDbEntity
  8
0
100
AcDbBlockEnd
  0
BLOCK
  5
17A60
330
17A55
100
AcDbEntity
  8
0
100
AcDbBlockBegin
  2
*D2
 70
     1
 10
0.0
 20
0.0
 30
0.0
  3
*D2
  1

  0
LINE
  5
17B20
330
17A55
100
AcDbEntity
  8
10100_FRONT_DIM
  6
Continuous
 62
     0
370
    -2
100
AcDbLine
 10
299.2208610903333
 20
139.5669771725029
 30
0.0
 11
304.8961210903336
 21
139.5669771725029
 31
0.0
  0
LINE
  5
17B21
330
17A55
100
AcDbEntity
  8
10100_FRONT_DIM
  6
Continuous
 62
     0
370
    -2
100
AcDbLine
 10
278.3208610903334
 20
105.9669771725027
 30
0.0
 11
304.8961210903335
 21
105.9669771725027
 31
0.0
  0
LINE
  5
17B22
330
17A55
100
AcDbEntity
  8
10100_FRONT_DIM
  6
Continuous
 62
     0
370
    -2
100
AcDbLine
 10
303.8961210903336
 20
137.5669771725029
 30
0.0
 11
303.8961210903335
 21
126.107734505836
 31
0.0
  0
LINE
  5
17B23
330
17A55
100
AcDbEntity
  8
10100_FRONT_DIM
  6
Continuous
 62
     0
370
    -2
100
AcDbLine
 10
303.8961210903335
 20
107.9669771725027
 30
0.0
 11
303.8961210903335
 21
119.9410678391694
 31
0.0
  0
MTEXT
  5
17B24
330
17A55
100
AcDbEntity
  8
10100_FRONT_DIM
  6
Continuous
 62
     0
370
    13
100
AcDbMText
 10
303.8961210903335
 20
123.0244011725028
 30
0.0
 40
2.5
 41
0.0
 71
     5
 72
     1
  1
\A1;34
 11
0.0000000000000001
 21
1.0
 31
0.0
 73
     1
 44
1.0
1001
ACAD
1000
MTEXTBEGIN
1070
    73
1070
     1
1070
    44
1040
1.0
1070
    74
1070
     0
1000
MTEXTEND
  0
SOLID
  5
17B25
330
17A55
100
AcDbEntity
  8
10100_FRONT_DIM
  6
Continuous
 62
     0
100
AcDbTrace
 10
303.5627877570003
 20
137.5669771725029
 30
0.0
 11
304.2294544236669
 21
137.5669771725029
 31
0.0
 12
303.8961210903336
 22
139.5669771725029
 32
0.0
 13
303.8961210903336
 23
139.5669771725029
 33
0.0
  0
SOLID
  5
17B26
330
17A55
100
AcDbEntity
  8
10100_FRONT_DIM
  6
Continuous
 62
     0
100
AcDbTrace
 10
303.5627877570002
 20
107.9669771725027
 30
0.0
 11
304.2294544236668
 21
107.9669771725027
 31
0.0
 12
303.8961210903335
 22
105.9669771725027
 32
0.0
 13
303.8961210903335
 23
105.9669771725027
 33
0.0
  0
POINT
  5
17B27
330
17A55
100
AcDbEntity
  8
DEFPOINTS
  6
Continuous
 62
     0
100
AcDbPoint
 10
298.2208610903334
 20
139.5669771725029
 30
0.0
  0
POINT
  5
17B28
330
17A55
100
AcDbEntity
  8
DEFPOINTS
  6
Continuous
 62
     0
100
AcDbPoint
 10
277.3208610903334
 20
105.9669771725027
 30
0.0
  0
POINT
  5
17B29
330
17A55
100
AcDbEntity
  8
DEFPOINTS
  6
Continuous
 62
     0
100
AcDbPoint
 10
303.8961210903335
 20
105.9669771725027
 30
0.0
  0
ENDBLK
  5
17A61
330
17A55
100
AcDbEntity
  8
0
100
AcDbBlockEnd
  0
BLOCK
  5
17A6D
330
17A62
100
AcDbEntity
  8
0
100
AcDbBlockBegin
  2
*D3
 70
     1
 10
0.0
 20
0.0
 30
0.0
  3
*D3
  1

  0
LINE
  5
17B16
330
17A62
100
AcDbEntity
  8
10100_FRONT_DIM
  6
Continuous
 62
     0
370
    -2
100
AcDbLine
 10
277.9208610903334
 20
145.1669771725029
 30
0.0
 11
312.4192510903335
 21
145.1669771725029
 31
0.0
  0
LINE
  5
17B17
330
17A62
100
AcDbEntity
  8
10100_FRONT_DIM
  6
Continuous
 62
     0
370
    -2
100
AcDbLine
 10
277.7208610903335
 20
105.9669771725027
 30
0.0
 11
312.4192510903334
 21
105.9669771725027
 31
0.0
  0
LINE
  5
17B18
330
17A62
100
AcDbEntity
  8
10100_FRONT_DIM
  6
Continuous
 62
     0
370
    -2
100
AcDbLine
 10
311.4192510903334
 20
143.1669771725029
 30
0.0
 11
311.4192510903334
 21
126.2375191725029
 31
0.0
  0
LINE
  5
17B19
330
17A62
100
AcDbEntity
  8
10100_FRONT_DIM
  6
Continuous
 62
     0
370
    -2
100
AcDbLine
 10
311.4192510903334
 20
107.9669771725027
 30
0.0
 11
311.4192510903334
 21
120.4875191725029
 31
0.0
  0
MTEXT
  5
17B1A
330
17A62
100
AcDbEntity
  8
10100_FRONT_DIM
  6
Continuous
 62
     0
370
    13
100
AcDbMText
 10
311.4192510903334
 20
123.362519172503
 30
0.0
 40
2.5
 41
0.0
 71
     5
 72
     1
  1
\A1;40
 11
0.0000000000000001
 21
1.0
 31
0.0
 73
     1
 44
1.0
1001
ACAD
1000
MTEXTBEGIN
1070
    73
1070
     1
1070
    44
1040
1.0
1070
    74
1070
     0
1000
MTEXTEND
  0
SOLID
  5
17B1B
330
17A62
100
AcDbEntity
  8
10100_FRONT_DIM
  6
Continuous
 62
     0
100
AcDbTrace
 10
311.0859177570001
 20
143.1669771725029
 30
0.0
 11
311.7525844236667
 21
143.1669771725029
 31
0.0
 12
311.4192510903334
 22
145.1669771725029
 32
0.0
 13
311.4192510903334
 23
145.1669771725029
 33
0.0
  0
SOLID
  5
17B1C
330
17A62
100
AcDbEntity
  8
10100_FRONT_DIM
  6
Continuous
 62
     0
100
AcDbTrace
 10
311.085917757
 20
107.9669771725027
 30
0.0
 11
311.7525844236667
 21
107.9669771725027
 31
0.0
 12
311.4192510903334
 22
105.9669771725027
 32
0.0
 13
311.4192510903334
 23
105.9669771725027
 33
0.0
  0
POINT
  5
17B1D
330
17A62
100
AcDbEntity
  8
DEFPOINTS
  6
Continuous
 62
     0
100
AcDbPoint
 10
276.9208610903334
 20
145.1669771725029
 30
0.0
  0
POINT
  5
17B1E
330
17A62
100
AcDbEntity
  8
DEFPOINTS
  6
Continuous
 62
     0
100
AcDbPoint
 10
276.7208610903335
 20
105.9669771725027
 30
0.0
  0
POINT
  5
17B1F
330
17A62
100
AcDbEntity
  8
DEFPOINTS
  6
Continuous
 62
     0
100
AcDbPoint
 10
311.4192510903334
 20
105.9669771725027
 30
0.0
  0
ENDBLK
  5
17A6E
330
17A62
100
AcDbEntity
  8
0
100
AcDbBlockEnd
  0
ENDSEC
  0
SECTION
  2
ENTITIES
  0
INSERT
  5
13306
330
20
100
AcDbEntity
  8
90000_FRAME
  6
Continuous
 62
     7
100
AcDbBlockReference
  2
SIEMENS_OUTLINE_BL0
 10
170.7053972021374
 20
-18.0406560040808
 30
0.0
  0
LINE
  5
13307
330
20
100
AcDbEntity
  8
90000_FRAME
  6
Continuous
 62
     7
100
AcDbLine
 10
235.7053972021374
 20
-8.040656004080801
 30
0.0
 11
370.7053972021374
 21
-8.040656004080801
 31
0.0
  0
LINE
  5
13308
330
20
100
AcDbEntity
  8
90000_FRAME
  6
Continuous
 62
     7
100
AcDbLine
 10
235.7053972021374
 20
-8.040656004080801
 30
0.0
 11
235.7053972021374
 21
9.959343995919198
 31
0.0
  0
LINE
  5
13309
330
20
100
AcDbEntity
  8
90000_FRAME
  6
Continuous
 62
     7
100
AcDbLine
 10
285.7053972021374
 20
-2.040656004080799
 30
0.0
 11
370.7053972021374
 21
-2.040656004080799
 31
0.0
  0
LINE
  5
1330A
330
20
100
AcDbEntity
  8
90000_FRAME
  6
Continuous
 62
     7
100
AcDbLine
 10
235.7053972021374
 20
9.959343995919198
 30
0.0
 11
370.7053972021374
 21
9.959343995919198
 31
0.0
  0
LINE
  5
1330B
330
20
100
AcDbEntity
  8
90000_FRAME
  6
Continuous
 62
     7
100
AcDbLine
 10
285.7053972021374
 20
-8.040656004080801
 30
0.0
 11
285.7053972021374
 21
9.959343995919198
 31
0.0
  0
LINE
  5
1330C
330
20
100
AcDbEntity
  8
90000_FRAME
  6
Continuous
 62
     7
100
AcDbLine
 10
328.2053972021373
 20
-8.040656004080801
 30
0.0
 11
328.2053972021373
 21
-2.040656004080799
 31
0.0
  0
LINE
  5
1330D
330
20
100
AcDbEntity
  8
90000_FRAME
  6
Continuous
 62
     7
100
AcDbLine
 10
370.7053972021374
 20
-8.040656004080801
 30
0.0
 11
370.7053972021374
 21
9.959343995919198
 31
0.0
  0
TEXT
  5
1330E
330
20
100
AcDbEntity
  8
90000_FRAME
  6
Continuous
 62
     7
100
AcDbText
 10
286.3653972021374
 20
-6.140656004080796
 30
0.0
 40
2.2
  1
Format / Size: DIN A4
 41
0.8032581453636357
 72
     5
 11
319.9415876783374
 21
-6.140656004080796
 31
0.0
100
AcDbText
  0
TEXT
  5
1330F
330
20
100
AcDbEntity
  8
90000_FRAME
  6
Continuous
 62
     7
100
AcDbText
 10
328.8653972021374
 20
-6.140656004080796
 30
0.0
 40
2.2
  1
Massstab / Scale: 1:1
 41
0.7732634338148463
 72
     5
 11
359.7701591069374
 21
-6.140656004080796
 31
0.0
100
AcDbText
  0
TEXT
  5
13310
330
20
100
AcDbEntity
  8
90000_FRAME
  6
Continuous
 62
     7
100
AcDbText
 10
295.5220486858127
 20
2.209343995919198
 30
0.0
 40
3.5
  1
3SB3400_00000069_000_ALL
 41
0.789121587703483
 72
     5
 11
355.8240900128205
 21
2.209343995919198
 31
0.0
100
AcDbText
  0
LINE
  5
13311
330
20
100
AcDbEntity
  8
90000_FRAME
  6
Continuous
 62
     7
100
AcDbLine
 10
380.7053972021374
 20
-18.0406560040808
 30
0.0
 11
180.7053972021374
 21
-18.0406560040808
 31
0.0
  0
LINE
  5
13312
330
20
100
AcDbEntity
  8
90000_FRAME
  6
Continuous
 62
     7
100
AcDbLine
 10
380.7053972021374
 20
-18.0406560040808
 30
0.0
 11
380.7053972021374
 21
251.9593439959192
 31
0.0
  0
TEXT
  5
13313
330
20
100
AcDbEntity
  8
91000_TIP
  6
Continuous
 62
     7
100
AcDbText
 10
236.2649378033692
 20
14.86607050513436
 30
0.0
 40
2.2
  1
Alle Bemassungswerte sind in Millimeter (mm) angegeben.
 41
0.8250311332499977
 72
     5
 11
324.5982711366691
 21
14.86607050513436
 31
0.0
100
AcDbText
  0
TEXT
  5
13314
330
20
100
AcDbEntity
  8
91000_TIP
  6
Continuous
 62
     7
100
AcDbText
 10
236.2649378033692
 20
11.73704810128862
 30
0.0
 40
2.2
  1
All dimensions are in millimeters (mm)
 50
360.0
 41
0.9608678382598284
 72
     5
 11
303.2053972021373
 21
11.73704810128859
 31
0.0
100
AcDbText
  0
CIRCLE
  5
13315
330
20
100
AcDbEntity
  8
91000_TIP
  6
Continuous
 62
     7
100
AcDbCircle
 10
223.5848577020511
 20
0.6694350047815476
 30
0.0
 40
2.499999948899997
  0
CIRCLE
  5
13316
330
20
100
AcDbEntity
  8
91000_TIP
  6
Continuous
 62
     7
100
AcDbCircle
 10
223.5848577020511
 20
0.6694350047815476
 30
0.0
 40
4.9999998979
  0
LINE
  5
13317
330
20
100
AcDbEntity
  8
91000_TIP
  6
CENTER
 62
     7
100
AcDbLine
 10
223.5848577020511
 20
-5.052046201618452
 30
0.0
 11
223.5848577020511
 21
6.231339798381553
 31
0.0
  0
LINE
  5
13318
330
20
100
AcDbEntity
  8
91000_TIP
  6
Continuous
 62
     7
100
AcDbLine
 10
217.0848578348511
 20
5.669434902681557
 30
0.0
 11
217.0848578348511
 21
-4.330564893118463
 31
0.0
  0
LINE
  5
13319
330
20
100
AcDbEntity
  8
91000_TIP
  6
Continuous
 62
     7
100
AcDbLine
 10
207.084858039051
 20
3.169434953681528
 30
0.0
 11
207.084858039051
 21
-1.830564944118463
 31
0.0
  0
LINE
  5
1331A
330
20
100
AcDbEntity
  8
91000_TIP
  6
Continuous
 62
     7
100
AcDbLine
 10
207.084858039051
 20
-1.830564944118463
 30
0.0
 11
217.0848578348511
 21
-4.330564893118463
 31
0.0
  0
LINE
  5
1331B
330
20
100
AcDbEntity
  8
91000_TIP
  6
CENTER
 62
     7
100
AcDbLine
 10
205.8053475670511
 20
0.6694350047815476
 30
0.0
 11
229.4073368311511
 21
0.6694350047815476
 31
0.0
  0
LINE
  5
1331C
330
20
100
AcDbEntity
  8
91000_TIP
  6
Continuous
 62
     7
100
AcDbLine
 10
207.084858039051
 20
3.169434953681528
 30
0.0
 11
217.0848578348511
 21
5.669434902681557
 31
0.0
  0
LINE
  5
1331D
330
20
100
AcDbEntity
  8
90000_FRAME
  6
Continuous
 62
     7
100
AcDbLine
 10
380.7053972021374
 20
251.9593439959192
 30
0.0
 11
180.7053972021374
 21
251.9593439959192
 31
0.0
  0
LINE
  5
1331E
330
20
100
AcDbEntity
  8
90000_FRAME
  6
Continuous
 62
     7
100
AcDbLine
 10
180.7053972021374
 20
-18.0406560040808
 30
0.0
 11
180.7053972021374
 21
251.9593439959192
 31
0.0
  0
MTEXT
  5
17936
330
20
100
AcDbEntity
  8
10000_FRONT
  6
Continuous
 62
     7
370
    13
100
AcDbMText
 10
257.8345612977228
 20
105.4805998717245
 30
0.0
 40
1.5
 41
30.19649122807018
 71
     1
 72
     5
  1
{\C256;NSD00213a}
 73
     1
 44
1.0
1001
ACAD
1000
MTEXTBEGIN
1070
    73
1070
     1
1070
    44
1040
1.0
1070
    74
1070
     0
1000
MTEXTEND
  0
CIRCLE
  5
17937
330
20
100
AcDbEntity
  8
10000_FRONT
  6
Continuous
 62
     7
370
    13
100
AcDbCircle
 10
285.0208610903333
 20
135.7669771725029
 30
0.0
 40
1.05
  0
LINE
  5
17938
330
20
100
AcDbEntity
  8
10000_FRONT
  6
Continuous
 62
     7
370
    13
100
AcDbLine
 10
282.0235110903335
 20
140.6889641725029
 30
0.0
 11
282.0234710903334
 21
140.688953172503
 31
0.0
  0
LINE
  5
17939
330
20
100
AcDbEntity
  8
10000_FRONT
  6
Continuous
 62
     7
370
    13
100
AcDbLine
 10
282.0235210903334
 20
140.6889631725028
 30
0.0
 11
282.0235110903335
 21
140.6889641725029
 31
0.0
  0
ARC
  5
1793A
330
20
100
AcDbEntity
  8
10000_FRONT
  6
Continuous
 62
     7
370
    13
100
AcDbCircle
 10
271.5665310903335
 20
139.3313011725029
 30
0.0
 40
0.5
100
AcDbArc
 50
182.0000000000035
 51
271.9999999999971
  0
LINE
  5
1793B
330
20
100
AcDbEntity
  8
10000_FRONT
  6
Continuous
 62
     7
370
    13
100
AcDbLine
 10
271.0668310903335
 20
139.3138511725028
 30
0.0
 11
271.05799353374
 21
139.5669719086689
 31
0.0
  0
ARC
  5
1793C
330
20
100
AcDbEntity
  8
10000_FRONT
  6
Continuous
 62
     7
370
    50
100
AcDbCircle
 10
270.5411210903335
 20
140.041367172503
 30
0.0
 40
0.5000000100000001
100
AcDbArc
 50
1.99999789999884
 51
75.84035800000356
  0
LINE
  5
1793D
330
20
100
AcDbEntity
  8
10000_FRONT
  6
Continuous
 62
     7
370
    50
100
AcDbLine
 10
270.6634410903334
 20
140.526176172503
 30
0.0
 11
270.0182110903335
 21
140.688961172503
 31
0.0
  0
LINE
  5
1793E
330
20
100
AcDbEntity
  8
10000_FRONT
  6
Continuous
 62
     7
370
    50
100
AcDbLine
 10
270.0182110903335
 20
140.688961172503
 30
0.0
 11
269.12392029613
 21
140.4352219716324
 31
0.0
  0
LINE
  5
1793F
330
20
100
AcDbEntity
  8
10000_FRONT
  6
Continuous
 62
     7
370
    13
100
AcDbLine
 10
264.7130910903335
 20
139.1837271725028
 30
0.0
 11
263.5844210903334
 21
142.2847131725029
 31
0.0
  0
LINE
  5
17940
330
20
100
AcDbEntity
  8
10000_FRONT
  6
Continuous
 62
     7
370
    13
100
AcDbLine
 10
258.3045210903334
 20
142.1720891725028
 30
0.0
 11
260.1514310903335
 21
137.0977491725027
 31
0.0
  0
ARC
  5
17941
330
20
100
AcDbEntity
  8
10000_FRONT
  6
Continuous
 62
     7
370
    13
100
AcDbCircle
 10
260.8354710903335
 20
135.218364172503
 30
0.0
 40
2.0
100
AcDbArc
 50
20.00000000000371
 51
110.0000000000002
  0
LINE
  5
17942
330
20
100
AcDbEntity
  8
10000_FRONT
  6
Continuous
 62
     7
370
    13
100
AcDbLine
 10
262.7148610903335
 20
135.9024041725028
 30
0.0
 11
263.5045210903335
 21
133.7328121725029
 31
0.0
  0
LINE
  5
17943
330
20
100
AcDbEntity
  8
10000_FRONT
  6
Continuous
 62
     7
370
    13
100
AcDbLine
 10
263.5045210903335
 20
133.7328121725029
 30
0.0
 11
267.7078110903335
 21
133.8795941725029
 31
0.0
  0
LINE
  5
17944
330
20
100
AcDbEntity
  8
10000_FRONT
  6
Continuous
 62
     7
370
    13
100
AcDbLine
 10
267.7078110903335
 20
133.8795941725029
 30
0.0
 11
270.5268910903335
 21
134.9056551725029
 31
0.0
  0
LINE
  5
17945
330
20
100
AcDbEntity
  8
10000_FRONT
  6
Continuous
 62
     7
370
    13
100
AcDbLine
 10
265.1282310903336
 20
143.7549451725028
 30
0.0
 11
264.0433310903335
 21
144.260843172503
 31
0.0
  0
ARC
  5
17946
330
20
100
AcDbEntity
  8
10000_FRONT
  6
Continuous
 62
     7
370
    13
100
AcDbCircle
 10
264.9169210903335
 20
143.3017911725028
 30
0.0
 40
0.5
100
AcDbArc
 50
289.9999800000009
 51
65.00000000000031
  0
LINE
  5
17947
330
20
100
AcDbEntity
  8
10000_FRONT
  6
Continuous
 62
     7
370
    13
100
AcDbLine
 10
263.5844210903334
 20
142.2847131725029
 30
0.0
 11
265.0879310903334
 21
142.8319451725028
 31
0.0
  0
ARC
  5
17948
330
20
100
AcDbEntity
  8
10000_FRONT
  6
Continuous
 62
     7
370
    13
100
AcDbCircle
 10
261.6366310903335
 20
141.7886111725029
 30
0.0
 40
1.700002699999999
100
AcDbArc
 50
81.92758300000093
 51
138.0724499999926
  0
LINE
  5
17949
330
20
100
AcDbEntity
  8
10000_FRONT
  6
Continuous
 62
     7
370
    13
100
AcDbLine
 10
264.0433310903335
 20
144.260843172503
 30
0.0
 11
261.8753610903335
 21
143.4717661725028
 31
0.0
  0
LINE
  5
1794A
330
20
100
AcDbEntity
  8
10000_FRONT
  6
Continuous
 62
     7
370
    13
100
AcDbLine
 10
260.3718510903335
 20
142.9245341725029
 30
0.0
 11
258.3045210903334
 21
142.1720891725028
 31
0.0
  0
ARC
  5
1794B
330
20
100
AcDbEntity
  8
10000_FRONT
  6
Continuous
 62
     7
370
    13
100
AcDbCircle
 10
289.2180810903335
 20
134.5669771725029
 30
0.0
 40
1.0
100
AcDbArc
 50
270.0
 51
303.6900700000026
  0
ARC
  5
1794C
330
20
100
AcDbEntity
  8
10000_FRONT
  6
Continuous
 62
     7
370
    13
100
AcDbCircle
 10
291.3236410903333
 20
133.5669771725029
 30
0.0
 40
1.0
100
AcDbArc
 50
90.0
 51
123.6900700000027
  0
ARC
  5
1794D
330
20
100
AcDbEntity
  8
10000_FRONT
  6
Continuous
 62
     7
370
    13
100
AcDbCircle
 10
260.7180810903335
 20
133.5669771725029
 30
0.0
 40
1.0
100
AcDbArc
 50
56.30993199999709
 51
90.0
  0
ARC
  5
1794E
330
20
100
AcDbEntity
  8
10000_FRONT
  6
Continuous
 62
     7
370
    13
100
AcDbCircle
 10
262.8236410903335
 20
134.5669771725029
 30
0.0
 40
1.0
100
AcDbArc
 50
236.3099299999973
 51
270.0
  0
LINE
  5
1794F
330
20
100
AcDbEntity
  8
10000_FRONT
  6
Continuous
 62
     7
370
    50
100
AcDbLine
 10
253.5208610903335
 20
134.5669771725029
 30
0.0
 11
253.5208610903335
 21
126.4669771725027
 31
0.0
  0
LINE
  5
17950
330
20
100
AcDbEntity
  8
10000_FRONT
  6
Continuous
 62
     7
370
    50
100
AcDbLine
 10
253.5208610903335
 20
134.5669771725029
 30
0.0
 11
253.5208610903335
 21
139.2669771725029
 31
0.0
  0
ARC
  5
17951
330
20
100
AcDbEntity
  8
10000_FRONT
  6
Continuous
 62
     7
370
    50
100
AcDbCircle
 10
258.2597910903335
 20
107.166977172503
 30
0.0
 40
0.3
100
AcDbArc
 50
192.9305400000048
 51
270.000010000001
  0
LINE
  5
17952
330
20
100
AcDbEntity
  8
10000_FRONT
  6
Continuous
 62
     7
370
    50
100
AcDbLine
 10
258.2597910903335
 20
106.8669771725028
 30
0.0
 11
271.9084210903335
 21
106.8669771725028
 31
0.0
  0
LINE
  5
17953
330
20
100
AcDbEntity
  8
10000_FRONT
  6
Continuous
 62
     7
370
    50
100
AcDbLine
 10
253.5208610903335
 20
126.4669771725027
 30
0.0
 11
257.9674010903335
 21
107.0998471725029
 31
0.0
  0
CIRCLE
  5
17954
330
20
100
AcDbEntity
  8
10000_FRONT
  6
Continuous
 62
     7
370
    13
100
AcDbCircle
 10
280.0208610903336
 20
126.3669771725028
 30
0.0
 40
0.7
  0
LINE
  5
17955
330
20
100
AcDbEntity
  8
10000_FRONT
  6
Continuous
 62
     7
370
    50
100
AcDbLine
 10
253.8208610903335
 20
139.5669771725029
 30
0.0
 11
259.2527110903335
 21
139.5669721725028
 31
0.0
  0
LINE
  5
17956
330
20
100
AcDbEntity
  8
10000_FRONT
  6
Continuous
 62
     7
370
    50
100
AcDbLine
 10
264.5735910903336
 20
139.5669811725029
 30
0.0
 11
266.0638510903335
 21
139.5669811725029
 31
0.0
  0
LINE
  5
17957
330
20
100
AcDbEntity
  8
10000_FRONT
  6
Continuous
 62
     7
370
    50
100
AcDbLine
 10
271.0580010903335
 20
139.5669721725028
 30
0.0
 11
274.0208610903335
 21
139.5669721725028
 31
0.0
  0
LINE
  5
17958
330
20
100
AcDbEntity
  8
10000_FRONT
  6
Continuous
 62
     7
370
    50
100
AcDbLine
 10
285.9778810903334
 20
139.5669811725029
 30
0.0
 11
287.4681310903334
 21
139.5669811725029
 31
0.0
  0
LINE
  5
17959
330
20
100
AcDbEntity
  8
10000_FRONT
  6
Continuous
 62
     7
370
    50
100
AcDbLine
 10
292.7890210903334
 20
139.5669811725029
 30
0.0
 11
298.2208610903334
 21
139.5669771725029
 31
0.0
  0
LINE
  5
1795A
330
20
100
AcDbEntity
  8
10000_FRONT
  6
Continuous
 62
     7
370
    50
100
AcDbLine
 10
276.4708610903335
 20
107.2669771725029
 30
0.0
 11
275.5708610903334
 21
107.2669771725029
 31
0.0
  0
LINE
  5
1795B
330
20
100
AcDbEntity
  8
10000_FRONT
  6
Continuous
 62
     7
370
    50
100
AcDbLine
 10
276.7208610903335
 20
105.9669771725027
 30
0.0
 11
276.7208610903335
 21
107.0169771725029
 31
0.0
  0
LINE
  5
1795C
330
20
100
AcDbEntity
  8
10000_FRONT
  6
Continuous
 62
     7
370
    50
100
AcDbLine
 10
275.3208610903334
 20
107.0169771725029
 30
0.0
 11
275.3208610903334
 21
105.9669771725027
 31
0.0
  0
LINE
  5
1795D
330
20
100
AcDbEntity
  8
10000_FRONT
  6
Continuous
 62
     7
370
    50
100
AcDbLine
 10
276.7208610903335
 20
107.0169771725029
 30
0.0
 11
276.4708610903335
 21
107.2669771725029
 31
0.0
  0
LINE
  5
1795E
330
20
100
AcDbEntity
  8
10000_FRONT
  6
Continuous
 62
     7
370
    50
100
AcDbLine
 10
275.5708610903334
 20
107.2669771725029
 30
0.0
 11
275.3208610903334
 21
107.0169771725029
 31
0.0
  0
CIRCLE
  5
1795F
330
20
100
AcDbEntity
  8
10000_FRONT
  6
Continuous
 62
     7
370
    13
100
AcDbCircle
 10
291.8208610903334
 20
108.5669771725029
 30
0.0
 40
0.7
  0
CIRCLE
  5
17960
330
20
100
AcDbEntity
  8
10000_FRONT
  6
Continuous
 62
     7
370
    13
100
AcDbCircle
 10
280.7208610903334
 20
115.3669771725028
 30
0.0
 40
0.7
  0
CIRCLE
  5
17961
330
20
100
AcDbEntity
  8
10000_FRONT
  6
Continuous
 62
     7
370
    13
100
AcDbCircle
 10
271.3208610903334
 20
109.3669771725028
 30
0.0
 40
0.7
  0
CIRCLE
  5
17962
330
20
100
AcDbEntity
  8
10000_FRONT
  6
Continuous
 62
     7
370
    13
100
AcDbCircle
 10
267.0208610903336
 20
130.0669771725029
 30
0.0
 40
0.7
  0
CIRCLE
  5
17963
330
20
100
AcDbEntity
  8
10000_FRONT
  6
Continuous
 62
     7
370
    13
100
AcDbCircle
 10
296.3208610903334
 20
137.3669771725028
 30
0.0
 40
0.7
  0
LINE
  5
17964
330
20
100
AcDbEntity
  8
10000_FRONT
  6
Continuous
 62
     7
370
    50
100
AcDbLine
 10
273.9708610903335
 20
108.4669771725027
 30
0.0
 11
273.1208610903335
 21
108.4669771725027
 31
0.0
  0
ARC
  5
17965
330
20
100
AcDbEntity
  8
10000_FRONT
  6
Continuous
 62
     7
370
    50
100
AcDbCircle
 10
273.9708610903335
 20
107.9669771725027
 30
0.0
 40
0.5
100
AcDbArc
 50
349.9607699999983
 51
90.0
  0
LINE
  5
17966
330
20
100
AcDbEntity
  8
10000_FRONT
  6
Continuous
 62
     7
370
    50
100
AcDbLine
 10
274.2285210903335
 20
106.554139172503
 30
0.0
 11
274.4632010903334
 21
107.8798161725028
 31
0.0
  0
ARC
  5
17967
330
20
100
AcDbEntity
  8
10000_FRONT
  6
Continuous
 62
     7
370
    50
100
AcDbCircle
 10
274.7208610903335
 20
106.4669771725027
 30
0.0
 40
0.4999999800000002
100
AcDbArc
 50
169.9607699999982
 51
270.0
  0
LINE
  5
17968
330
20
100
AcDbEntity
  8
10000_FRONT
  6
Continuous
 62
     7
370
    50
100
AcDbLine
 10
275.3208610903334
 20
105.9669771725027
 30
0.0
 11
274.7208610903335
 21
105.9669771725027
 31
0.0
  0
LINE
  5
17969
330
20
100
AcDbEntity
  8
10000_FRONT
  6
Continuous
 62
     7
370
    50
100
AcDbLine
 10
277.3208610903334
 20
105.9669771725027
 30
0.0
 11
276.7208610903335
 21
105.9669771725027
 31
0.0
  0
ARC
  5
1796A
330
20
100
AcDbEntity
  8
10000_FRONT
  6
Continuous
 62
     7
370
    50
100
AcDbCircle
 10
277.3208610903334
 20
106.4669771725027
 30
0.0
 40
0.4999999800000002
100
AcDbArc
 50
270.0
 51
10.03923000000174
  0
LINE
  5
1796B
330
20
100
AcDbEntity
  8
10000_FRONT
  6
Continuous
 62
     7
370
    50
100
AcDbLine
 10
277.5785210903334
 20
107.8798161725028
 30
0.0
 11
277.8132010903334
 21
106.554139172503
 31
0.0
  0
ARC
  5
1796C
330
20
100
AcDbEntity
  8
10000_FRONT
  6
Continuous
 62
     7
370
    50
100
AcDbCircle
 10
278.0708610903334
 20
107.9669771725027
 30
0.0
 40
0.5
100
AcDbArc
 50
90.0
 51
190.0392300000017
  0
LINE
  5
1796D
330
20
100
AcDbEntity
  8
10000_FRONT
  6
Continuous
 62
     7
370
    50
100
AcDbLine
 10
278.9208610903334
 20
108.4669771725027
 30
0.0
 11
278.0708610903334
 21
108.4669771725027
 31
0.0
  0
LINE
  5
1796E
330
20
100
AcDbEntity
  8
10000_FRONT
  6
Continuous
 62
     7
370
    13
100
AcDbLine
 10
278.9208610903334
 20
118.5669771725029
 30
0.0
 11
278.9208610903334
 21
108.4669771725027
 31
0.0
  0
LINE
  5
1796F
330
20
100
AcDbEntity
  8
10000_FRONT
  6
Continuous
 62
     7
370
    13
100
AcDbLine
 10
280.2708610903335
 20
119.5669771725029
 30
0.0
 11
279.9208610903335
 21
119.5669771725029
 31
0.0
  0
LINE
  5
17970
330
20
100
AcDbEntity
  8
10000_FRONT
  6
Continuous
 62
     7
370
    13
100
AcDbLine
 10
281.2708610903335
 20
124.0669771725029
 30
0.0
 11
281.2708610903335
 21
120.5669771725029
 31
0.0
  0
ARC
  5
17971
330
20
100
AcDbEntity
  8
10000_FRONT
  6
Continuous
 62
     7
370
    13
100
AcDbCircle
 10
270.2708610903335
 20
125.0669771725029
 30
0.0
 40
0.5
100
AcDbArc
 50
180.0
 51
270.0
  0
LINE
  5
17972
330
20
100
AcDbEntity
  8
10000_FRONT
  6
Continuous
 62
     7
370
    13
100
AcDbLine
 10
289.2180810903335
 20
133.5669771725029
 30
0.0
 11
283.2708610903335
 21
133.5669771725029
 31
0.0
  0
LINE
  5
17973
330
20
100
AcDbEntity
  8
10000_FRONT
  6
Continuous
 62
     7
370
    13
100
AcDbLine
 10
290.7689410903334
 20
134.399028172503
 30
0.0
 11
289.7727810903333
 21
133.7349271725029
 31
0.0
  0
LINE
  5
17974
330
20
100
AcDbEntity
  8
10000_FRONT
  6
Continuous
 62
     7
370
    13
100
AcDbLine
 10
298.5208610903334
 20
134.5669771725029
 30
0.0
 11
291.3236410903333
 21
134.5669771725029
 31
0.0
  0
LINE
  5
17975
330
20
100
AcDbEntity
  8
10000_FRONT
  6
Continuous
 62
     7
370
    13
100
AcDbLine
 10
260.7180810903335
 20
134.5669771725029
 30
0.0
 11
253.5208610903335
 21
134.5669771725029
 31
0.0
  0
LINE
  5
17976
330
20
100
AcDbEntity
  8
10000_FRONT
  6
Continuous
 62
     7
370
    13
100
AcDbLine
 10
262.2689410903334
 20
133.7349271725029
 30
0.0
 11
261.2727810903335
 21
134.399028172503
 31
0.0
  0
LINE
  5
17977
330
20
100
AcDbEntity
  8
10000_FRONT
  6
Continuous
 62
     7
370
    13
100
AcDbLine
 10
268.7708610903335
 20
133.5669771725029
 30
0.0
 11
262.8236410903335
 21
133.5669771725029
 31
0.0
  0
ARC
  5
17978
330
20
100
AcDbEntity
  8
10000_FRONT
  6
Continuous
 62
     7
370
    13
100
AcDbCircle
 10
283.2708610903335
 20
132.5669771725029
 30
0.0
 40
1.0
100
AcDbArc
 50
90.0
 51
180.0
  0
LINE
  5
17979
330
20
100
AcDbEntity
  8
10000_FRONT
  6
Continuous
 62
     7
370
    13
100
AcDbLine
 10
270.7708610903335
 20
120.5669771725029
 30
0.0
 11
270.7708610903335
 21
124.0669771725029
 31
0.0
  0
LINE
  5
1797A
330
20
100
AcDbEntity
  8
10000_FRONT
  6
Continuous
 62
     7
370
    13
100
AcDbLine
 10
272.1208610903335
 20
119.5669771725029
 30
0.0
 11
271.7708610903335
 21
119.5669771725029
 31
0.0
  0
LINE
  5
1797B
330
20
100
AcDbEntity
  8
10000_FRONT
  6
Continuous
 62
     7
370
    13
100
AcDbLine
 10
273.1208610903335
 20
108.4669771725027
 30
0.0
 11
273.1208610903335
 21
118.5669771725029
 31
0.0
  0
ARC
  5
1797C
330
20
100
AcDbEntity
  8
10000_FRONT
  6
Continuous
 62
     7
370
    50
100
AcDbCircle
 10
278.9208610903334
 20
107.9669771725027
 30
0.0
 40
0.5
100
AcDbArc
 50
30.0000000000009
 51
89.9999989999986
  0
ARC
  5
1797D
330
20
100
AcDbEntity
  8
10000_FRONT
  6
Continuous
 62
     7
370
    50
100
AcDbCircle
 10
273.1208610903335
 20
107.9669771725027
 30
0.0
 40
0.5000000100000001
100
AcDbArc
 50
90.00000100000141
 51
149.9999999999991
  0
LINE
  5
1797E
330
20
100
AcDbEntity
  8
10000_FRONT
  6
Continuous
 62
     7
370
    50
100
AcDbLine
 10
271.9084210903335
 20
106.8669771725028
 30
0.0
 11
272.6878510903335
 21
108.2169771725027
 31
0.0
  0
LINE
  5
1797F
330
20
100
AcDbEntity
  8
10000_FRONT
  6
Continuous
 62
     7
370
    50
100
AcDbLine
 10
280.1333010903334
 20
106.8669771725028
 30
0.0
 11
279.3538710903334
 21
108.2169771725027
 31
0.0
  0
LINE
  5
17980
330
20
100
AcDbEntity
  8
10000_FRONT
  6
Continuous
 62
     7
370
    50
100
AcDbLine
 10
283.0163210903334
 20
142.166977172503
 30
0.0
 11
283.2025310903333
 21
142.166977172503
 31
0.0
  0
LINE
  5
17981
330
20
100
AcDbEntity
  8
10000_FRONT
  6
Continuous
 62
     7
370
    50
100
AcDbLine
 10
283.2025310903333
 20
142.166977172503
 30
0.0
 11
283.4225310903335
 21
142.166977172503
 31
0.0
  0
LINE
  5
17982
330
20
100
AcDbEntity
  8
10000_FRONT
  6
Continuous
 62
     7
370
    50
100
AcDbLine
 10
283.4225310903335
 20
142.166977172503
 30
0.0
 11
284.6191910903335
 21
142.166977172503
 31
0.0
  0
LINE
  5
17983
330
20
100
AcDbEntity
  8
10000_FRONT
  6
Continuous
 62
     7
370
    50
100
AcDbLine
 10
284.6191910903335
 20
142.166977172503
 30
0.0
 11
284.8391910903335
 21
142.166977172503
 31
0.0
  0
LINE
  5
17984
330
20
100
AcDbEntity
  8
10000_FRONT
  6
Continuous
 62
     7
370
    50
100
AcDbLine
 10
284.8391910903335
 20
142.166977172503
 30
0.0
 11
285.0254010903335
 21
142.166977172503
 31
0.0
  0
LINE
  5
17985
330
20
100
AcDbEntity
  8
10000_FRONT
  6
Continuous
 62
     7
370
    50
100
AcDbLine
 10
267.0163210903335
 20
142.166977172503
 30
0.0
 11
267.2025310903336
 21
142.166977172503
 31
0.0
  0
LINE
  5
17986
330
20
100
AcDbEntity
  8
10000_FRONT
  6
Continuous
 62
     7
370
    50
100
AcDbLine
 10
267.2025310903336
 20
142.166977172503
 30
0.0
 11
267.4225310903334
 21
142.166977172503
 31
0.0
  0
LINE
  5
17987
330
20
100
AcDbEntity
  8
10000_FRONT
  6
Continuous
 62
     7
370
    50
100
AcDbLine
 10
267.4225310903334
 20
142.166977172503
 30
0.0
 11
268.6191910903335
 21
142.166977172503
 31
0.0
  0
LINE
  5
17988
330
20
100
AcDbEntity
  8
10000_FRONT
  6
Continuous
 62
     7
370
    50
100
AcDbLine
 10
268.6191910903335
 20
142.166977172503
 30
0.0
 11
268.8391910903334
 21
142.166977172503
 31
0.0
  0
LINE
  5
17989
330
20
100
AcDbEntity
  8
10000_FRONT
  6
Continuous
 62
     7
370
    50
100
AcDbLine
 10
268.8391910903334
 20
142.166977172503
 30
0.0
 11
269.0254010903335
 21
142.166977172503
 31
0.0
  0
ARC
  5
1798A
330
20
100
AcDbEntity
  8
10000_FRONT
  6
Continuous
 62
     7
370
    50
100
AcDbCircle
 10
298.2208610903334
 20
139.2669771725029
 30
0.0
 40
0.3
100
AcDbArc
 50
0.0
 51
90.0
  0
ARC
  5
1798B
330
20
100
AcDbEntity
  8
10000_FRONT
  6
Continuous
 62
     7
370
    50
100
AcDbCircle
 10
253.8208610903335
 20
139.2669771725029
 30
0.0
 40
0.30000001
100
AcDbArc
 50
89.9999989999986
 51
180.0
  0
LINE
  5
1798C
330
20
100
AcDbEntity
  8
10000_FRONT
  6
Continuous
 62
     7
370
    13
100
AcDbLine
 10
269.7708610903335
 20
125.0669771725029
 30
0.0
 11
269.7708610903335
 21
132.5669771725029
 31
0.0
  0
LINE
  5
1798D
330
20
100
AcDbEntity
  8
10000_FRONT
  6
Continuous
 62
     7
370
    13
100
AcDbLine
 10
282.2708610903335
 20
132.5669771725029
 30
0.0
 11
282.2708610903335
 21
125.0669771725029
 31
0.0
  0
ARC
  5
1798E
330
20
100
AcDbEntity
  8
10000_FRONT
  6
Continuous
 62
     7
370
    13
100
AcDbCircle
 10
281.7708610903334
 20
125.0669771725029
 30
0.0
 40
0.5
100
AcDbArc
 50
270.0
 51
0.0
  0
ARC
  5
1798F
330
20
100
AcDbEntity
  8
10000_FRONT
  6
Continuous
 62
     7
370
    13
100
AcDbCircle
 10
281.7708610903334
 20
124.0669771725029
 30
0.0
 40
0.5
100
AcDbArc
 50
90.0
 51
180.0
  0
ARC
  5
17990
330
20
100
AcDbEntity
  8
10000_FRONT
  6
Continuous
 62
     7
370
    13
100
AcDbCircle
 10
270.2708610903335
 20
124.0669771725029
 30
0.0
 40
0.5
100
AcDbArc
 50
0.0000022022946339
 51
90.0
  0
ARC
  5
17991
330
20
100
AcDbEntity
  8
10000_FRONT
  6
Continuous
 62
     7
370
    13
100
AcDbCircle
 10
268.7708610903335
 20
132.5669771725029
 30
0.0
 40
0.9999999799999999
100
AcDbArc
 50
0.0000002789980531
 51
89.9999989999986
  0
ARC
  5
17992
330
20
100
AcDbEntity
  8
10000_FRONT
  6
Continuous
 62
     7
370
    13
100
AcDbCircle
 10
271.7708610903335
 20
120.5669771725029
 30
0.0
 40
1.0
100
AcDbArc
 50
180.0
 51
270.0
  0
ARC
  5
17993
330
20
100
AcDbEntity
  8
10000_FRONT
  6
Continuous
 62
     7
370
    13
100
AcDbCircle
 10
272.1208610903335
 20
118.5669771725029
 30
0.0
 40
0.9999999899999998
100
AcDbArc
 50
0.0
 51
90.0
  0
ARC
  5
17994
330
20
100
AcDbEntity
  8
10000_FRONT
  6
Continuous
 62
     7
370
    13
100
AcDbCircle
 10
279.9208610903335
 20
118.5669771725029
 30
0.0
 40
1.0
100
AcDbArc
 50
90.00000100000141
 51
180.0
  0
ARC
  5
17995
330
20
100
AcDbEntity
  8
10000_FRONT
  6
Continuous
 62
     7
370
    13
100
AcDbCircle
 10
280.2708610903335
 20
120.5669771725029
 30
0.0
 40
1.0
100
AcDbArc
 50
270.0
 51
0.0
  0
LINE
  5
17996
330
20
100
AcDbEntity
  8
10000_FRONT
  6
Continuous
 62
     7
370
    50
100
AcDbLine
 10
294.0743310903334
 20
107.0998471725029
 30
0.0
 11
298.5208610903334
 21
126.4669771725027
 31
0.0
  0
ARC
  5
17997
330
20
100
AcDbEntity
  8
10000_FRONT
  6
Continuous
 62
     7
370
    50
100
AcDbCircle
 10
293.7819310903335
 20
107.166977172503
 30
0.0
 40
0.3
100
AcDbArc
 50
269.999989999999
 51
347.0694499999959
  0
LINE
  5
17998
330
20
100
AcDbEntity
  8
10000_FRONT
  6
Continuous
 62
     7
370
    50
100
AcDbLine
 10
280.1333010903334
 20
106.8669771725028
 30
0.0
 11
293.7819310903335
 21
106.8669771725028
 31
0.0
  0
LINE
  5
17999
330
20
100
AcDbEntity
  8
10000_FRONT
  6
Continuous
 62
     7
370
    50
100
AcDbLine
 10
298.5208610903334
 20
139.2669771725029
 30
0.0
 11
298.5208610903334
 21
134.5669771725029
 31
0.0
  0
LINE
  5
1799A
330
20
100
AcDbEntity
  8
10000_FRONT
  6
Continuous
 62
     7
370
    50
100
AcDbLine
 10
298.5208610903334
 20
126.4669771725027
 30
0.0
 11
298.5208610903334
 21
134.5669771725029
 31
0.0
  0
POLYLINE
  5
1799B
330
20
100
AcDbEntity
  8
10000_FRONT
  6
Continuous
 62
     7
370
    50
100
AcDb2dPolyline
 66
     1
 10
0.0
 20
0.0
 30
0.0
 70
     2
  0
VERTEX
  5
1799C
330
1799B
100
AcDbEntity
  8
10000_FRONT
  6
Continuous
 62
     7
370
    50
100
AcDbVertex
100
AcDb2dVertex
 10
266.8834310903335
 20
139.7995211725028
 30
0.0
  0
VERTEX
  5
1799D
330
1799B
100
AcDbEntity
  8
10000_FRONT
  6
Continuous
 62
     7
370
    50
100
AcDbVertex
100
AcDb2dVertex
 10
266.8878510903335
 20
139.8831771725029
 30
0.0
 42
-0.0000533487
 70
     1
  0
VERTEX
  5
1799E
330
1799B
100
AcDbEntity
  8
10000_FRONT
  6
Continuous
 62
     7
370
    50
100
AcDbVertex
100
AcDb2dVertex
 10
266.8922710903335
 20
139.9665121725029
 30
0.0
 42
-0.0000537587
  0
VERTEX
  5
1799F
330
1799B
100
AcDbEntity
  8
10000_FRONT
  6
Continuous
 62
     7
370
    50
100
AcDbVertex
100
AcDb2dVertex
 10
266.8966910903334
 20
140.049514172503
 30
0.0
 42
-0.0000541906
 70
     1
  0
VERTEX
  5
179A0
330
1799B
100
AcDbEntity
  8
10000_FRONT
  6
Continuous
 62
     7
370
    50
100
AcDbVertex
100
AcDb2dVertex
 10
266.9011110903335
 20
140.1321951725028
 30
0.0
 42
-0.00005461
  0
VERTEX
  5
179A1
330
1799B
100
AcDbEntity
  8
10000_FRONT
  6
Continuous
 62
     7
370
    50
100
AcDbVertex
100
AcDb2dVertex
 10
266.9055410903335
 20
140.2145421725029
 30
0.0
 42
-0.0000550527
 70
     1
  0
VERTEX
  5
179A2
330
1799B
100
AcDbEntity
  8
10000_FRONT
  6
Continuous
 62
     7
370
    50
100
AcDbVertex
100
AcDb2dVertex
 10
266.9099610903335
 20
140.2965681725029
 30
0.0
 42
-0.000055483
  0
VERTEX
  5
179A3
330
1799B
100
AcDbEntity
  8
10000_FRONT
  6
Continuous
 62
     7
370
    50
100
AcDbVertex
100
AcDb2dVertex
 10
266.9143810903335
 20
140.378261172503
 30
0.0
 42
-0.0000559351
 70
     1
  0
VERTEX
  5
179A4
330
1799B
100
AcDbEntity
  8
10000_FRONT
  6
Continuous
 62
     7
370
    50
100
AcDbVertex
100
AcDb2dVertex
 10
266.9188110903335
 20
140.4596331725029
 30
0.0
 42
-0.000056373
  0
VERTEX
  5
179A5
330
1799B
100
AcDbEntity
  8
10000_FRONT
  6
Continuous
 62
     7
370
    50
100
AcDbVertex
100
AcDb2dVertex
 10
266.9232310903335
 20
140.5406711725029
 30
0.0
 42
-0.0000568401
 70
     1
  0
VERTEX
  5
179A6
330
1799B
100
AcDbEntity
  8
10000_FRONT
  6
Continuous
 62
     7
370
    50
100
AcDbVertex
100
AcDb2dVertex
 10
266.9276610903335
 20
140.6213901725027
 30
0.0
 42
-0.0000572993
  0
VERTEX
  5
179A7
330
1799B
100
AcDbEntity
  8
10000_FRONT
  6
Continuous
 62
     7
370
    50
100
AcDbVertex
100
AcDb2dVertex
 10
266.9320810903335
 20
140.7017741725028
 30
0.0
 42
-0.0000577632
 70
     1
  0
VERTEX
  5
179A8
330
1799B
100
AcDbEntity
  8
10000_FRONT
  6
Continuous
 62
     7
370
    50
100
AcDbVertex
100
AcDb2dVertex
 10
266.9365110903335
 20
140.7818371725029
 30
0.0
 42
-0.0000581951
  0
VERTEX
  5
179A9
330
1799B
100
AcDbEntity
  8
10000_FRONT
  6
Continuous
 62
     7
370
    50
100
AcDbVertex
100
AcDb2dVertex
 10
266.9409410903335
 20
140.8615651725028
 30
0.0
 42
-0.0000587236
 70
     1
  0
VERTEX
  5
179AA
330
1799B
100
AcDbEntity
  8
10000_FRONT
  6
Continuous
 62
     7
370
    50
100
AcDbVertex
100
AcDb2dVertex
 10
266.9453710903334
 20
140.9409761725028
 30
0.0
 42
-0.000059303
  0
VERTEX
  5
179AB
330
1799B
100
AcDbEntity
  8
10000_FRONT
  6
Continuous
 62
     7
370
    50
100
AcDbVertex
100
AcDb2dVertex
 10
266.9498010903335
 20
141.0200611725029
 30
0.0
 42
-0.000059655
 70
     1
  0
VERTEX
  5
179AC
330
1799B
100
AcDbEntity
  8
10000_FRONT
  6
Continuous
 62
     7
370
    50
100
AcDbVertex
100
AcDb2dVertex
 10
266.9542310903334
 20
141.098807172503
 30
0.0
 42
-0.0000597713
  0
VERTEX
  5
179AD
330
1799B
100
AcDbEntity
  8
10000_FRONT
  6
Continuous
 62
     7
370
    50
100
AcDbVertex
100
AcDb2dVertex
 10
266.9586610903335
 20
141.1771901725028
 30
0.0
 42
-0.0000607997
 70
     1
  0
VERTEX
  5
179AE
330
1799B
100
AcDbEntity
  8
10000_FRONT
  6
Continuous
 62
     7
370
    50
100
AcDbVertex
100
AcDb2dVertex
 10
266.9630910903336
 20
141.2553281725029
 30
0.0
 42
-0.0000625461
  0
VERTEX
  5
179AF
330
1799B
100
AcDbEntity
  8
10000_FRONT
  6
Continuous
 62
     7
370
    50
100
AcDbVertex
100
AcDb2dVertex
 10
266.9675310903335
 20
141.3332461725028
 30
0.0
 42
-0.0000612986
 70
     1
  0
VERTEX
  5
179B0
330
1799B
100
AcDbEntity
  8
10000_FRONT
  6
Continuous
 62
     7
370
    50
100
AcDbVertex
100
AcDb2dVertex
 10
266.9719510903335
 20
141.4105411725029
 30
0.0
 42
-0.0000576914
  0
VERTEX
  5
179B1
330
1799B
100
AcDbEntity
  8
10000_FRONT
  6
Continuous
 62
     7
370
    50
100
AcDbVertex
100
AcDb2dVertex
 10
266.9763510903334
 20
141.4870601725028
 30
0.0
 42
-0.0000641961
 70
     1
  0
VERTEX
  5
179B2
330
1799B
100
AcDbEntity
  8
10000_FRONT
  6
Continuous
 62
     7
370
    50
100
AcDbVertex
100
AcDb2dVertex
 10
266.9808210903335
 20
141.564446172503
 30
0.0
 42
-0.0000772391
  0
VERTEX
  5
179B3
330
1799B
100
AcDbEntity
  8
10000_FRONT
  6
Continuous
 62
     7
370
    50
100
AcDbVertex
100
AcDb2dVertex
 10
266.9854010903335
 20
141.643248172503
 30
0.0
 42
-0.0000592157
 70
     1
  0
VERTEX
  5
179B4
330
1799B
100
AcDbEntity
  8
10000_FRONT
  6
Continuous
 62
     7
370
    50
100
AcDbVertex
100
AcDb2dVertex
 10
266.9896910903335
 20
141.7170421725029
 30
0.0
 42
-0.000020441
  0
VERTEX
  5
179B5
330
1799B
100
AcDbEntity
  8
10000_FRONT
  6
Continuous
 62
     7
370
    50
100
AcDbVertex
100
AcDb2dVertex
 10
266.9935810903335
 20
141.7835941725028
 30
0.0
 42
-0.0000843506
 70
     1
  0
VERTEX
  5
179B6
330
1799B
100
AcDbEntity
  8
10000_FRONT
  6
Continuous
 62
     7
370
    50
100
AcDbVertex
100
AcDb2dVertex
 10
266.9985610903335
 20
141.8683291725028
 30
0.0
 42
-0.0001475987
  0
VERTEX
  5
179B7
330
1799B
100
AcDbEntity
  8
10000_FRONT
  6
Continuous
 62
     7
370
    50
100
AcDbVertex
100
AcDb2dVertex
 10
267.0062510903334
 20
141.9978851725029
 30
0.0
 42
-0.0000732558
 70
     1
  0
VERTEX
  5
179B8
330
1799B
100
AcDbEntity
  8
10000_FRONT
  6
Continuous
 62
     7
370
    50
100
AcDbVertex
100
AcDb2dVertex
 10
267.0163210903335
 20
142.166977172503
 30
0.0
 42
-0.00003909
  0
SEQEND
  5
179B9
330
1799B
100
AcDbEntity
  8
10000_FRONT
  6
Continuous
 62
     7
370
    50
  0
POLYLINE
  5
179BA
330
20
100
AcDbEntity
  8
10000_FRONT
  6
Continuous
 62
     7
370
    50
100
AcDb2dPolyline
 66
     1
 10
0.0
 20
0.0
 30
0.0
 70
     2
  0
VERTEX
  5
179BB
330
179BA
100
AcDbEntity
  8
10000_FRONT
  6
Continuous
 62
     7
370
    50
100
AcDbVertex
100
AcDb2dVertex
 10
269.0254010903335
 20
142.166977172503
 30
0.0
  0
VERTEX
  5
179BC
330
179BA
100
AcDbEntity
  8
10000_FRONT
  6
Continuous
 62
     7
370
    50
100
AcDbVertex
100
AcDb2dVertex
 10
269.0287010903335
 20
142.1118721725029
 30
0.0
 42
-0.000053669
 70
     1
  0
VERTEX
  5
179BD
330
179BA
100
AcDbEntity
  8
10000_FRONT
  6
Continuous
 62
     7
370
    50
100
AcDbVertex
100
AcDb2dVertex
 10
269.0320010903334
 20
142.056589172503
 30
0.0
 42
-0.000053327
  0
VERTEX
  5
179BE
330
179BA
100
AcDbEntity
  8
10000_FRONT
  6
Continuous
 62
     7
370
    50
100
AcDbVertex
100
AcDb2dVertex
 10
269.0353010903335
 20
142.0011221725028
 30
0.0
 42
-0.0000529742
 70
     1
  0
VERTEX
  5
179BF
330
179BA
100
AcDbEntity
  8
10000_FRONT
  6
Continuous
 62
     7
370
    50
100
AcDbVertex
100
AcDb2dVertex
 10
269.0385910903335
 20
141.9454781725028
 30
0.0
 42
-0.0000526387
  0
VERTEX
  5
179C0
330
179BA
100
AcDbEntity
  8
10000_FRONT
  6
Continuous
 62
     7
370
    50
100
AcDbVertex
100
AcDb2dVertex
 10
269.0418910903336
 20
141.8896501725028
 30
0.0
 42
-0.0000522929
 70
     1
  0
VERTEX
  5
179C1
330
179BA
100
AcDbEntity
  8
10000_FRONT
  6
Continuous
 62
     7
370
    50
100
AcDbVertex
100
AcDb2dVertex
 10
269.0451810903335
 20
141.833644172503
 30
0.0
 42
-0.0000519644
  0
VERTEX
  5
179C2
330
179BA
100
AcDbEntity
  8
10000_FRONT
  6
Continuous
 62
     7
370
    50
100
AcDbVertex
100
AcDb2dVertex
 10
269.0484810903334
 20
141.7774541725027
 30
0.0
 42
-0.0000516242
 70
     1
  0
VERTEX
  5
179C3
330
179BA
100
AcDbEntity
  8
10000_FRONT
  6
Continuous
 62
     7
370
    50
100
AcDbVertex
100
AcDb2dVertex
 10
269.0517710903334
 20
141.7210871725028
 30
0.0
 42
-0.0000512994
  0
VERTEX
  5
179C4
330
179BA
100
AcDbEntity
  8
10000_FRONT
  6
Continuous
 62
     7
370
    50
100
AcDbVertex
100
AcDb2dVertex
 10
269.0550610903334
 20
141.6645351725028
 30
0.0
 42
-0.0000509693
 70
     1
  0
VERTEX
  5
179C5
330
179BA
100
AcDbEntity
  8
10000_FRONT
  6
Continuous
 62
     7
370
    50
100
AcDbVertex
100
AcDb2dVertex
 10
269.0583510903335
 20
141.6078061725029
 30
0.0
 42
-0.00005066
  0
VERTEX
  5
179C6
330
179BA
100
AcDbEntity
  8
10000_FRONT
  6
Continuous
 62
     7
370
    50
100
AcDbVertex
100
AcDb2dVertex
 10
269.0616410903335
 20
141.5508921725029
 30
0.0
 42
-0.0000503232
 70
     1
  0
VERTEX
  5
179C7
330
179BA
100
AcDbEntity
  8
10000_FRONT
  6
Continuous
 62
     7
370
    50
100
AcDbVertex
100
AcDb2dVertex
 10
269.0649310903335
 20
141.4938021725029
 30
0.0
 42
-0.000049987
  0
VERTEX
  5
179C8
330
179BA
100
AcDbEntity
  8
10000_FRONT
  6
Continuous
 62
     7
370
    50
100
AcDbVertex
100
AcDb2dVertex
 10
269.0682110903334
 20
141.4365291725028
 30
0.0
 42
-0.0000497021
 70
     1
  0
VERTEX
  5
179C9
330
179BA
100
AcDbEntity
  8
10000_FRONT
  6
Continuous
 62
     7
370
    50
100
AcDbVertex
100
AcDb2dVertex
 10
269.0715010903335
 20
141.379075172503
 30
0.0
 42
-0.000049485
  0
VERTEX
  5
179CA
330
179BA
100
AcDbEntity
  8
10000_FRONT
  6
Continuous
 62
     7
370
    50
100
AcDbVertex
100
AcDb2dVertex
 10
269.0747910903335
 20
141.3214301725029
 30
0.0
 42
-0.000049047
 70
     1
  0
VERTEX
  5
179CB
330
179BA
100
AcDbEntity
  8
10000_FRONT
  6
Continuous
 62
     7
370
    50
100
AcDbVertex
100
AcDb2dVertex
 10
269.0780710903335
 20
141.2636241725029
 30
0.0
 42
-0.0000484518
  0
VERTEX
  5
179CC
330
179BA
100
AcDbEntity
  8
10000_FRONT
  6
Continuous
 62
     7
370
    50
100
AcDbVertex
100
AcDb2dVertex
 10
269.0813510903335
 20
141.2056571725029
 30
0.0
 42
-0.0000485638
 70
     1
  0
VERTEX
  5
179CD
330
179BA
100
AcDbEntity
  8
10000_FRONT
  6
Continuous
 62
     7
370
    50
100
AcDbVertex
100
AcDb2dVertex
 10
269.0846310903335
 20
141.147451172503
 30
0.0
 42
-0.0000492437
  0
VERTEX
  5
179CE
330
179BA
100
AcDbEntity
  8
10000_FRONT
  6
Continuous
 62
     7
370
    50
100
AcDbVertex
100
AcDb2dVertex
 10
269.0879210903335
 20
141.0889691725028
 30
0.0
 42
-0.0000475393
 70
     1
  0
VERTEX
  5
179CF
330
179BA
100
AcDbEntity
  8
10000_FRONT
  6
Continuous
 62
     7
370
    50
100
AcDbVertex
100
AcDb2dVertex
 10
269.0911910903335
 20
141.0305531725027
 30
0.0
 42
-0.0000441336
  0
VERTEX
  5
179D0
330
179BA
100
AcDbEntity
  8
10000_FRONT
  6
Continuous
 62
     7
370
    50
100
AcDbVertex
100
AcDb2dVertex
 10
269.0944410903335
 20
140.9723131725029
 30
0.0
 42
-0.0000484193
 70
     1
  0
VERTEX
  5
179D1
330
179BA
100
AcDbEntity
  8
10000_FRONT
  6
Continuous
 62
     7
370
    50
100
AcDbVertex
100
AcDb2dVertex
 10
269.0977510903334
 20
140.9129331725028
 30
0.0
 42
-0.0000573241
  0
VERTEX
  5
179D2
330
179BA
100
AcDbEntity
  8
10000_FRONT
  6
Continuous
 62
     7
370
    50
100
AcDbVertex
100
AcDb2dVertex
 10
269.1011210903334
 20
140.8519501725029
 30
0.0
 42
-0.0000432074
 70
     1
  0
VERTEX
  5
179D3
330
179BA
100
AcDbEntity
  8
10000_FRONT
  6
Continuous
 62
     7
370
    50
100
AcDbVertex
100
AcDb2dVertex
 10
269.1043010903335
 20
140.7945901725027
 30
0.0
 42
-0.0000147838
  0
VERTEX
  5
179D4
330
179BA
100
AcDbEntity
  8
10000_FRONT
  6
Continuous
 62
     7
370
    50
100
AcDbVertex
100
AcDb2dVertex
 10
269.1071610903335
 20
140.7426441725029
 30
0.0
 42
-0.0000605104
 70
     1
  0
VERTEX
  5
179D5
330
179BA
100
AcDbEntity
  8
10000_FRONT
  6
Continuous
 62
     7
370
    50
100
AcDbVertex
100
AcDb2dVertex
 10
269.1108410903335
 20
140.6755231725028
 30
0.0
 42
-0.000102897
  0
VERTEX
  5
179D6
330
179BA
100
AcDbEntity
  8
10000_FRONT
  6
Continuous
 62
     7
370
    50
100
AcDbVertex
100
AcDb2dVertex
 10
269.1165110903335
 20
140.5716141725029
 30
0.0
 42
-0.0000497948
 70
     1
  0
VERTEX
  5
179D7
330
179BA
100
AcDbEntity
  8
10000_FRONT
  6
Continuous
 62
     7
370
    50
100
AcDbVertex
100
AcDb2dVertex
 10
269.1239210903335
 20
140.4352191725029
 30
0.0
 42
-0.0000262641
  0
SEQEND
  5
179D8
330
179BA
100
AcDbEntity
  8
10000_FRONT
  6
Continuous
 62
     7
370
    50
  0
POLYLINE
  5
179DF
330
20
100
AcDbEntity
  8
10000_FRONT
  6
Continuous
 62
     7
370
    50
100
AcDb2dPolyline
 66
     1
 10
0.0
 20
0.0
 30
0.0
 70
     2
  0
VERTEX
  5
179E0
330
179DF
100
AcDbEntity
  8
10000_FRONT
  6
Continuous
 62
     7
370
    50
100
AcDbVertex
100
AcDb2dVertex
 10
282.9178010903333
 20
140.4352211725029
 30
0.0
  0
VERTEX
  5
179E1
330
179DF
100
AcDbEntity
  8
10000_FRONT
  6
Continuous
 62
     7
370
    50
100
AcDbVertex
100
AcDb2dVertex
 10
282.9210610903333
 20
140.4955661725028
 30
0.0
 42
-0.0000447681
 70
     1
  0
VERTEX
  5
179E2
330
179DF
100
AcDbEntity
  8
10000_FRONT
  6
Continuous
 62
     7
370
    50
100
AcDbVertex
100
AcDb2dVertex
 10
282.9243310903335
 20
140.5557341725027
 30
0.0
 42
-0.0000450313
  0
VERTEX
  5
179E3
330
179DF
100
AcDbEntity
  8
10000_FRONT
  6
Continuous
 62
     7
370
    50
100
AcDbVertex
100
AcDb2dVertex
 10
282.9276010903335
 20
140.615718172503
 30
0.0
 42
-0.0000453078
 70
     1
  0
VERTEX
  5
179E4
330
179DF
100
AcDbEntity
  8
10000_FRONT
  6
Continuous
 62
     7
370
    50
100
AcDbVertex
100
AcDb2dVertex
 10
282.9308710903335
 20
140.6755241725029
 30
0.0
 42
-0.0000455756
  0
VERTEX
  5
179E5
330
179DF
100
AcDbEntity
  8
10000_FRONT
  6
Continuous
 62
     7
370
    50
100
AcDbVertex
100
AcDb2dVertex
 10
282.9341510903335
 20
140.7351461725029
 30
0.0
 42
-0.0000458572
 70
     1
  0
VERTEX
  5
179E6
330
179DF
100
AcDbEntity
  8
10000_FRONT
  6
Continuous
 62
     7
370
    50
100
AcDbVertex
100
AcDb2dVertex
 10
282.9374210903335
 20
140.794591172503
 30
0.0
 42
-0.0000461306
  0
VERTEX
  5
179E7
330
179DF
100
AcDbEntity
  8
10000_FRONT
  6
Continuous
 62
     7
370
    50
100
AcDbVertex
100
AcDb2dVertex
 10
282.9407010903335
 20
140.853851172503
 30
0.0
 42
-0.0000464166
 70
     1
  0
VERTEX
  5
179E8
330
179DF
100
AcDbEntity
  8
10000_FRONT
  6
Continuous
 62
     7
370
    50
100
AcDbVertex
100
AcDb2dVertex
 10
282.9439710903336
 20
140.9129341725029
 30
0.0
 42
-0.0000466924
  0
VERTEX
  5
179E9
330
179DF
100
AcDbEntity
  8
10000_FRONT
  6
Continuous
 62
     7
370
    50
100
AcDbVertex
100
AcDb2dVertex
 10
282.9472510903335
 20
140.9718331725028
 30
0.0
 42
-0.000046987
 70
     1
  0
VERTEX
  5
179EA
330
179DF
100
AcDbEntity
  8
10000_FRONT
  6
Continuous
 62
     7
370
    50
100
AcDbVertex
100
AcDb2dVertex
 10
282.9505310903333
 20
141.0305541725029
 30
0.0
 42
-0.0000472769
  0
VERTEX
  5
179EB
330
179DF
100
AcDbEntity
  8
10000_FRONT
  6
Continuous
 62
     7
370
    50
100
AcDbVertex
100
AcDb2dVertex
 10
282.9538110903335
 20
141.0890921725029
 30
0.0
 42
-0.0000475649
 70
     1
  0
VERTEX
  5
179EC
330
179DF
100
AcDbEntity
  8
10000_FRONT
  6
Continuous
 62
     7
370
    50
100
AcDbVertex
100
AcDb2dVertex
 10
282.9570910903335
 20
141.147451172503
 30
0.0
 42
-0.0000478283
  0
VERTEX
  5
179ED
330
179DF
100
AcDbEntity
  8
10000_FRONT
  6
Continuous
 62
     7
370
    50
100
AcDbVertex
100
AcDb2dVertex
 10
282.9603710903334
 20
141.2056251725028
 30
0.0
 42
-0.0000481652
 70
     1
  0
VERTEX
  5
179EE
330
179DF
100
AcDbEntity
  8
10000_FRONT
  6
Continuous
 62
     7
370
    50
100
AcDbVertex
100
AcDb2dVertex
 10
282.9636510903335
 20
141.2636251725027
 30
0.0
 42
-0.0000485457
  0
VERTEX
  5
179EF
330
179DF
100
AcDbEntity
  8
10000_FRONT
  6
Continuous
 62
     7
370
    50
100
AcDbVertex
100
AcDb2dVertex
 10
282.9669410903333
 20
141.3214461725029
 30
0.0
 42
-0.0000487338
 70
     1
  0
VERTEX
  5
179F0
330
179DF
100
AcDbEntity
  8
10000_FRONT
  6
Continuous
 62
     7
370
    50
100
AcDbVertex
100
AcDb2dVertex
 10
282.9702210903334
 20
141.379075172503
 30
0.0
 42
-0.0000487324
  0
VERTEX
  5
179F1
330
179DF
100
AcDbEntity
  8
10000_FRONT
  6
Continuous
 62
     7
370
    50
100
AcDbVertex
100
AcDb2dVertex
 10
282.9735010903334
 20
141.4364991725028
 30
0.0
 42
-0.0000494683
 70
     1
  0
VERTEX
  5
179F2
330
179DF
100
AcDbEntity
  8
10000_FRONT
  6
Continuous
 62
     7
370
    50
100
AcDbVertex
100
AcDb2dVertex
 10
282.9767910903334
 20
141.493803172503
 30
0.0
 42
-0.000050786
  0
VERTEX
  5
179F3
330
179DF
100
AcDbEntity
  8
10000_FRONT
  6
Continuous
 62
     7
370
    50
100
AcDbVertex
100
AcDb2dVertex
 10
282.9800910903334
 20
141.551005172503
 30
0.0
 42
-0.0000496664
 70
     1
  0
VERTEX
  5
179F4
330
179DF
100
AcDbEntity
  8
10000_FRONT
  6
Continuous
 62
     7
370
    50
100
AcDbVertex
100
AcDb2dVertex
 10
282.9833710903336
 20
141.6078061725029
 30
0.0
 42
-0.0000466524
  0
VERTEX
  5
179F5
330
179DF
100
AcDbEntity
  8
10000_FRONT
  6
Continuous
 62
     7
370
    50
100
AcDbVertex
100
AcDb2dVertex
 10
282.9866310903335
 20
141.6640941725029
 30
0.0
 42
-0.000051807
 70
     1
  0
VERTEX
  5
179F6
330
179DF
100
AcDbEntity
  8
10000_FRONT
  6
Continuous
 62
     7
370
    50
100
AcDbVertex
100
AcDb2dVertex
 10
282.9899510903334
 20
141.7210871725028
 30
0.0
 42
-0.0000621874
  0
VERTEX
  5
179F7
330
179DF
100
AcDbEntity
  8
10000_FRONT
  6
Continuous
 62
     7
370
    50
100
AcDbVertex
100
AcDb2dVertex
 10
282.9933510903334
 20
141.7791951725028
 30
0.0
 42
-0.0000475583
 70
     1
  0
VERTEX
  5
179F8
330
179DF
100
AcDbEntity
  8
10000_FRONT
  6
Continuous
 62
     7
370
    50
100
AcDbVertex
100
AcDb2dVertex
 10
282.9965410903334
 20
141.833644172503
 30
0.0
 42
-0.0000163958
  0
VERTEX
  5
179F9
330
179DF
100
AcDbEntity
  8
10000_FRONT
  6
Continuous
 62
     7
370
    50
100
AcDbVertex
100
AcDb2dVertex
 10
282.9994210903335
 20
141.8827811725028
 30
0.0
 42
-0.0000675763
 70
     1
  0
VERTEX
  5
179FA
330
179DF
100
AcDbEntity
  8
10000_FRONT
  6
Continuous
 62
     7
370
    50
100
AcDbVertex
100
AcDb2dVertex
 10
283.0031310903335
 20
141.9454791725029
 30
0.0
 42
-0.0001177464
  0
VERTEX
  5
179FB
330
179DF
100
AcDbEntity
  8
10000_FRONT
  6
Continuous
 62
     7
370
    50
100
AcDbVertex
100
AcDb2dVertex
 10
283.0088410903334
 20
142.0415201725029
 30
0.0
 42
-0.0000582187
 70
     1
  0
VERTEX
  5
179FC
330
179DF
100
AcDbEntity
  8
10000_FRONT
  6
Continuous
 62
     7
370
    50
100
AcDbVertex
100
AcDb2dVertex
 10
283.0163210903334
 20
142.166977172503
 30
0.0
 42
-0.0000310116
  0
SEQEND
  5
179FD
330
179DF
100
AcDbEntity
  8
10000_FRONT
  6
Continuous
 62
     7
370
    50
  0
POLYLINE
  5
179FE
330
20
100
AcDbEntity
  8
10000_FRONT
  6
Continuous
 62
     7
370
    50
100
AcDb2dPolyline
 66
     1
 10
0.0
 20
0.0
 30
0.0
 70
     2
  0
VERTEX
  5
179FF
330
179FE
100
AcDbEntity
  8
10000_FRONT
  6
Continuous
 62
     7
370
    50
100
AcDbVertex
100
AcDb2dVertex
 10
285.0254010903335
 20
142.166977172503
 30
0.0
  0
VERTEX
  5
17A00
330
179FE
100
AcDbEntity
  8
10000_FRONT
  6
Continuous
 62
     7
370
    50
100
AcDbVertex
100
AcDb2dVertex
 10
285.0298410903335
 20
142.0928021725028
 30
0.0
 42
-0.0000677606
 70
     1
  0
VERTEX
  5
17A01
330
179FE
100
AcDbEntity
  8
10000_FRONT
  6
Continuous
 62
     7
370
    50
100
AcDbVertex
100
AcDb2dVertex
 10
285.0342810903334
 20
142.018307172503
 30
0.0
 42
-0.0000671809
  0
VERTEX
  5
17A02
330
179FE
100
AcDbEntity
  8
10000_FRONT
  6
Continuous
 62
     7
370
    50
100
AcDbVertex
100
AcDb2dVertex
 10
285.0387210903333
 20
141.9434781725028
 30
0.0
 42
-0.000066585
 70
     1
  0
VERTEX
  5
17A03
330
179FE
100
AcDbEntity
  8
10000_FRONT
  6
Continuous
 62
     7
370
    50
100
AcDbVertex
100
AcDb2dVertex
 10
285.0431610903335
 20
141.8683291725028
 30
0.0
 42
-0.00006602
  0
VERTEX
  5
17A04
330
179FE
100
AcDbEntity
  8
10000_FRONT
  6
Continuous
 62
     7
370
    50
100
AcDbVertex
100
AcDb2dVertex
 10
285.0475910903334
 20
141.7928451725029
 30
0.0
 42
-0.0000654398
 70
     1
  0
VERTEX
  5
17A05
330
179FE
100
AcDbEntity
  8
10000_FRONT
  6
Continuous
 62
     7
370
    50
100
AcDbVertex
100
AcDb2dVertex
 10
285.0520310903334
 20
141.7170421725029
 30
0.0
 42
-0.0000648902
  0
VERTEX
  5
17A06
330
179FE
100
AcDbEntity
  8
10000_FRONT
  6
Continuous
 62
     7
370
    50
100
AcDbVertex
100
AcDb2dVertex
 10
285.0564710903335
 20
141.6409041725028
 30
0.0
 42
-0.0000643234
 70
     1
  0
VERTEX
  5
17A07
330
179FE
100
AcDbEntity
  8
10000_FRONT
  6
Continuous
 62
     7
370
    50
100
AcDbVertex
100
AcDb2dVertex
 10
285.0609010903335
 20
141.564446172503
 30
0.0
 42
-0.0000637846
  0
VERTEX
  5
17A08
330
179FE
100
AcDbEntity
  8
10000_FRONT
  6
Continuous
 62
     7
370
    50
100
AcDbVertex
100
AcDb2dVertex
 10
285.0653410903335
 20
141.4876541725029
 30
0.0
 42
-0.0000632367
 70
     1
  0
VERTEX
  5
17A09
330
179FE
100
AcDbEntity
  8
10000_FRONT
  6
Continuous
 62
     7
370
    50
100
AcDbVertex
100
AcDb2dVertex
 10
285.0697710903333
 20
141.4105411725029
 30
0.0
 42
-0.000062723
  0
VERTEX
  5
17A0A
330
179FE
100
AcDbEntity
  8
10000_FRONT
  6
Continuous
 62
     7
370
    50
100
AcDbVertex
100
AcDb2dVertex
 10
285.0742010903334
 20
141.3330941725028
 30
0.0
 42
-0.0000621728
 70
     1
  0
VERTEX
  5
17A0B
330
179FE
100
AcDbEntity
  8
10000_FRONT
  6
Continuous
 62
     7
370
    50
100
AcDbVertex
100
AcDb2dVertex
 10
285.0786310903335
 20
141.2553281725029
 30
0.0
 42
-0.0000616316
  0
VERTEX
  5
17A0C
330
179FE
100
AcDbEntity
  8
10000_FRONT
  6
Continuous
 62
     7
370
    50
100
AcDbVertex
100
AcDb2dVertex
 10
285.0830610903334
 20
141.1772301725029
 30
0.0
 42
-0.0000611512
 70
     1
  0
VERTEX
  5
17A0D
330
179FE
100
AcDbEntity
  8
10000_FRONT
  6
Continuous
 62
     7
370
    50
100
AcDbVertex
100
AcDb2dVertex
 10
285.0875010903333
 20
141.098807172503
 30
0.0
 42
-0.0000607618
  0
VERTEX
  5
17A0E
330
179FE
100
AcDbEntity
  8
10000_FRONT
  6
Continuous
 62
     7
370
    50
100
AcDbVertex
100
AcDb2dVertex
 10
285.0919310903334
 20
141.0200411725029
 30
0.0
 42
-0.0000600989
 70
     1
  0
VERTEX
  5
17A0F
330
179FE
100
AcDbEntity
  8
10000_FRONT
  6
Continuous
 62
     7
370
    50
100
AcDbVertex
100
AcDb2dVertex
 10
285.0963510903333
 20
140.9409761725028
 30
0.0
 42
-0.0000592522
  0
VERTEX
  5
17A10
330
179FE
100
AcDbEntity
  8
10000_FRONT
  6
Continuous
 62
     7
370
    50
100
AcDbVertex
100
AcDb2dVertex
 10
285.1007810903335
 20
140.8616101725028
 30
0.0
 42
-0.0000592682
 70
     1
  0
VERTEX
  5
17A11
330
179FE
100
AcDbEntity
  8
10000_FRONT
  6
Continuous
 62
     7
370
    50
100
AcDbVertex
100
AcDb2dVertex
 10
285.1052110903335
 20
140.7818371725029
 30
0.0
 42
-0.0000599792
  0
VERTEX
  5
17A12
330
179FE
100
AcDbEntity
  8
10000_FRONT
  6
Continuous
 62
     7
370
    50
100
AcDbVertex
100
AcDb2dVertex
 10
285.1096510903335
 20
140.7016051725029
 30
0.0
 42
-0.0000577849
 70
     1
  0
VERTEX
  5
17A13
330
179FE
100
AcDbEntity
  8
10000_FRONT
  6
Continuous
 62
     7
370
    50
100
AcDbVertex
100
AcDb2dVertex
 10
285.1140610903335
 20
140.6213901725027
 30
0.0
 42
-0.0000535462
  0
VERTEX
  5
17A14
330
179FE
100
AcDbEntity
  8
10000_FRONT
  6
Continuous
 62
     7
370
    50
100
AcDbVertex
100
AcDb2dVertex
 10
285.1184510903335
 20
140.5413391725028
 30
0.0
 42
-0.0000586349
 70
     1
  0
VERTEX
  5
17A15
330
179FE
100
AcDbEntity
  8
10000_FRONT
  6
Continuous
 62
     7
370
    50
100
AcDbVertex
100
AcDb2dVertex
 10
285.1229110903334
 20
140.4596331725029
 30
0.0
 42
-0.0000692699
  0
VERTEX
  5
17A16
330
179FE
100
AcDbEntity
  8
10000_FRONT
  6
Continuous
 62
     7
370
    50
100
AcDbVertex
100
AcDb2dVertex
 10
285.1274810903335
 20
140.3756281725029
 30
0.0
 42
-0.000052095
 70
     1
  0
VERTEX
  5
17A17
330
179FE
100
AcDbEntity
  8
10000_FRONT
  6
Continuous
 62
     7
370
    50
100
AcDbVertex
100
AcDb2dVertex
 10
285.1317610903335
 20
140.2965681725029
 30
0.0
 42
-0.0000178041
  0
VERTEX
  5
17A18
330
179FE
100
AcDbEntity
  8
10000_FRONT
  6
Continuous
 62
     7
370
    50
100
AcDbVertex
100
AcDb2dVertex
 10
285.1356410903333
 20
140.2249331725029
 30
0.0
 42
-0.0000727959
 70
     1
  0
VERTEX
  5
17A19
330
179FE
100
AcDbEntity
  8
10000_FRONT
  6
Continuous
 62
     7
370
    50
100
AcDbVertex
100
AcDb2dVertex
 10
285.1406110903334
 20
140.1321951725028
 30
0.0
 42
-0.0001233341
  0
VERTEX
  5
17A1A
330
179FE
100
AcDbEntity
  8
10000_FRONT
  6
Continuous
 62
     7
370
    50
100
AcDbVertex
100
AcDb2dVertex
 10
285.1482610903334
 20
139.9884021725029
 30
0.0
 42
-0.000059494
 70
     1
  0
VERTEX
  5
17A1B
330
179FE
100
AcDbEntity
  8
10000_FRONT
  6
Continuous
 62
     7
370
    50
100
AcDbVertex
100
AcDb2dVertex
 10
285.1582910903334
 20
139.7995211725028
 30
0.0
 42
-0.0000313343
  0
SEQEND
  5
17A1C
330
179FE
100
AcDbEntity
  8
10000_FRONT
  6
Continuous
 62
     7
370
    50
  0
CIRCLE
  5
17A1D
330
20
100
AcDbEntity
  8
10000_FRONT
  6
Continuous
 62
     7
370
    13
100
AcDbCircle
 10
272.0208610903335
 20
126.3669771725028
 30
0.0
 40
0.7
  0
CIRCLE
  5
17A1E
330
20
100
AcDbEntity
  8
10000_FRONT
  6
Continuous
 62
     7
370
    13
100
AcDbCircle
 10
260.2208610903334
 20
108.5669771725029
 30
0.0
 40
0.7
  0
CIRCLE
  5
17A1F
330
20
100
AcDbEntity
  8
10000_FRONT
  6
Continuous
 62
     7
370
    13
100
AcDbCircle
 10
271.3208610903334
 20
115.3669771725028
 30
0.0
 40
0.7
  0
CIRCLE
  5
17A20
330
20
100
AcDbEntity
  8
10000_FRONT
  6
Continuous
 62
     7
370
    13
100
AcDbCircle
 10
280.7208610903334
 20
109.3669771725028
 30
0.0
 40
0.7
  0
CIRCLE
  5
17A21
330
20
100
AcDbEntity
  8
10000_FRONT
  6
Continuous
 62
     7
370
    13
100
AcDbCircle
 10
285.0208610903333
 20
130.0669771725029
 30
0.0
 40
0.7
  0
CIRCLE
  5
17A22
330
20
100
AcDbEntity
  8
10000_FRONT
  6
Continuous
 62
     7
370
    13
100
AcDbCircle
 10
255.7208610903334
 20
137.3669771725028
 30
0.0
 40
0.7
  0
LINE
  5
17A23
330
20
100
AcDbEntity
  8
10000_FRONT
  6
Continuous
 62
     7
370
    50
100
AcDbLine
 10
278.0208610903335
 20
145.1669771725029
 30
0.0
 11
278.0208610903335
 21
139.5669721725028
 31
0.0
  0
LINE
  5
17A24
330
20
100
AcDbEntity
  8
10000_FRONT
  6
Continuous
 62
     7
370
    50
100
AcDbLine
 10
274.0208610903335
 20
139.5669721725028
 30
0.0
 11
274.0208610903335
 21
145.1669771725029
 31
0.0
  0
LINE
  5
17A25
330
20
100
AcDbEntity
  8
10000_FRONT
  6
Continuous
 62
     7
370
    50
100
AcDbLine
 10
275.1208610903335
 20
145.1669771725029
 30
0.0
 11
276.9208610903334
 21
145.1669771725029
 31
0.0
  0
LINE
  5
17A26
330
20
100
AcDbEntity
  8
10000_FRONT
  6
Continuous
 62
     7
370
    50
100
AcDbLine
 10
276.9208610903334
 20
145.1669771725029
 30
0.0
 11
278.0208610903335
 21
145.1669771725029
 31
0.0
  0
LINE
  5
17A27
330
20
100
AcDbEntity
  8
10000_FRONT
  6
Continuous
 62
     7
370
    50
100
AcDbLine
 10
274.0208610903335
 20
145.1669771725029
 30
0.0
 11
275.1208610903335
 21
145.1669771725029
 31
0.0
  0
LINE
  5
17A28
330
20
100
AcDbEntity
  8
10000_FRONT
  6
Continuous
 62
     7
370
    13
100
AcDbLine
 10
287.9984010903335
 20
144.260843172503
 30
0.0
 11
286.9134910903333
 21
143.7549451725028
 31
0.0
  0
ARC
  5
17A29
330
20
100
AcDbEntity
  8
10000_FRONT
  6
Continuous
 62
     7
370
    13
100
AcDbCircle
 10
287.1248010903335
 20
143.3017931725028
 30
0.0
 40
0.5000000100000001
100
AcDbArc
 50
114.9999999999997
 51
250.0000199999991
  0
LINE
  5
17A2A
330
20
100
AcDbEntity
  8
10000_FRONT
  6
Continuous
 62
     7
370
    13
100
AcDbLine
 10
286.9537910903334
 20
142.8319451725028
 30
0.0
 11
288.4573010903334
 21
142.2847131725029
 31
0.0
  0
LINE
  5
17A2B
330
20
100
AcDbEntity
  8
10000_FRONT
  6
Continuous
 62
     7
370
    13
100
AcDbLine
 10
288.4573010903334
 20
142.2847131725029
 30
0.0
 11
287.3286310903335
 21
139.1837271725028
 31
0.0
  0
LINE
  5
17A2C
330
20
100
AcDbEntity
  8
10000_FRONT
  6
Continuous
 62
     7
370
    13
100
AcDbLine
 10
287.3286310903335
 20
139.1837271725028
 30
0.0
 11
285.977880605131
 21
139.5669794624353
 31
0.0
  0
LINE
  5
17A2D
330
20
100
AcDbEntity
  8
10000_FRONT
  6
Continuous
 62
     7
370
    50
100
AcDbLine
 10
282.0235210903334
 20
140.688961172503
 30
0.0
 11
281.4154510903334
 21
140.581742172503
 31
0.0
  0
ARC
  5
17A2E
330
20
100
AcDbEntity
  8
10000_FRONT
  6
Continuous
 62
     7
370
    50
100
AcDbCircle
 10
281.5022710903335
 20
140.0893401725029
 30
0.0
 40
0.5000000100000001
100
AcDbArc
 50
99.99999900000151
 51
177.9999999999964
  0
LINE
  5
17A2F
330
20
100
AcDbEntity
  8
10000_FRONT
  6
Continuous
 62
     7
370
    50
100
AcDbLine
 10
281.0025810903334
 20
140.1067881725027
 30
0.0
 11
280.9837398618295
 21
139.5672422403167
 31
0.0
  0
ARC
  5
17A30
330
20
100
AcDbEntity
  8
10000_FRONT
  6
Continuous
 62
     7
370
    13
100
AcDbCircle
 10
280.4709210903335
 20
139.2090191725028
 30
0.0
 40
0.5
100
AcDbArc
 50
267.9999999999964
 51
357.9999999999964
  0
ARC
  5
17A31
330
20
100
AcDbEntity
  8
10000_FRONT
  6
Continuous
 62
     7
370
    13
100
AcDbCircle
 10
291.2062510903335
 20
135.2183661725028
 30
0.0
 40
2.0
100
AcDbArc
 50
69.99999999999977
 51
159.9999999999959
  0
LINE
  5
17A32
330
20
100
AcDbEntity
  8
10000_FRONT
  6
Continuous
 62
     7
370
    13
100
AcDbLine
 10
288.5401110903335
 20
133.7408091725028
 30
0.0
 11
289.3268610903334
 21
135.9024041725028
 31
0.0
  0
LINE
  5
17A33
330
20
100
AcDbEntity
  8
10000_FRONT
  6
Continuous
 62
     7
370
    13
100
AcDbLine
 10
284.3368210903335
 20
133.8875911725029
 30
0.0
 11
288.5401110903335
 21
133.7408091725028
 31
0.0
  0
LINE
  5
17A34
330
20
100
AcDbEntity
  8
10000_FRONT
  6
Continuous
 62
     7
370
    13
100
AcDbLine
 10
281.5177410903335
 20
134.9136521725029
 30
0.0
 11
284.3368210903335
 21
133.8875911725029
 31
0.0
  0
LINE
  5
17A35
330
20
100
AcDbEntity
  8
10000_FRONT
  6
Continuous
 62
     7
370
    13
100
AcDbLine
 10
279.9681810903333
 20
133.0165881725029
 30
0.0
 11
281.5177410903335
 21
134.9136521725029
 31
0.0
  0
ARC
  5
17A36
330
20
100
AcDbEntity
  8
10000_FRONT
  6
Continuous
 62
     7
370
    13
100
AcDbCircle
 10
275.7085810903335
 20
136.4959291725029
 30
0.0
 40
5.5
100
AcDbArc
 50
203.6137200000044
 51
320.7572800000045
  0
LINE
  5
17A37
330
20
100
AcDbEntity
  8
10000_FRONT
  6
Continuous
 62
     7
370
    13
100
AcDbLine
 10
274.8535810903335
 20
134.1466751725029
 30
0.0
 11
270.6691110903335
 21
134.2928001725029
 31
0.0
  0
ARC
  5
17A38
330
20
100
AcDbEntity
  8
10000_FRONT
  6
Continuous
 62
     7
370
    13
100
AcDbCircle
 10
275.7085810903335
 20
136.4959291725029
 30
0.0
 40
2.5
100
AcDbArc
 50
250.0013199999986
 51
36.74683999999326
  0
ARC
  5
17A39
330
20
100
AcDbEntity
  8
10000_FRONT
  6
Continuous
 62
     7
370
    13
100
AcDbCircle
 10
278.1124410903335
 20
138.2907701725028
 30
0.0
 40
0.5
100
AcDbArc
 50
88.00000100000117
 51
216.7468399999932
  0
LINE
  5
17A3A
330
20
100
AcDbEntity
  8
10000_FRONT
  6
Continuous
 62
     7
370
    13
100
AcDbLine
 10
280.4534710903334
 20
138.7093221725029
 30
0.0
 11
278.1298910903335
 21
138.790463172503
 31
0.0
  0
CIRCLE
  5
17A3B
330
20
100
AcDbEntity
  8
10000_FRONT
  6
Continuous
 62
     7
370
    13
100
AcDbCircle
 10
290.4050910903334
 20
141.7886131725029
 30
0.0
 40
0.9
  0
LINE
  5
17A3C
330
20
100
AcDbEntity
  8
10000_FRONT
  6
Continuous
 62
     7
370
    13
100
AcDbLine
 10
291.8902910903335
 20
137.0977491725027
 30
0.0
 11
293.7372010903334
 21
142.1720891725028
 31
0.0
  0
ARC
  5
17A3D
330
20
100
AcDbEntity
  8
10000_FRONT
  6
Continuous
 62
     7
370
    13
100
AcDbCircle
 10
290.4050910903334
 20
141.7886131725029
 30
0.0
 40
1.699999899999999
100
AcDbArc
 50
41.9275470000045
 51
98.07250899999884
  0
LINE
  5
17A3E
330
20
100
AcDbEntity
  8
10000_FRONT
  6
Continuous
 62
     7
370
    13
100
AcDbLine
 10
293.7372010903334
 20
142.1720891725028
 30
0.0
 11
291.6698710903335
 21
142.9245341725029
 31
0.0
  0
LINE
  5
17A3F
330
20
100
AcDbEntity
  8
10000_FRONT
  6
Continuous
 62
     7
370
    13
100
AcDbLine
 10
290.1663710903335
 20
143.4717661725028
 30
0.0
 11
287.9984010903335
 21
144.260843172503
 31
0.0
  0
LINE
  5
17A40
330
20
100
AcDbEntity
  8
10000_FRONT
  6
Continuous
 62
     7
370
    50
100
AcDbLine
 10
270.6262710903335
 20
140.5817431725029
 30
0.0
 11
270.0182010903335
 21
140.6889621725029
 31
0.0
  0
ARC
  5
17A41
330
20
100
AcDbEntity
  8
10000_FRONT
  6
Continuous
 62
     7
370
    50
100
AcDbCircle
 10
270.5394510903335
 20
140.0893391725028
 30
0.0
 40
0.5
100
AcDbArc
 50
2.00000000000361
 51
79.9999989999979
  0
LINE
  5
17A42
330
20
100
AcDbEntity
  8
10000_FRONT
  6
Continuous
 62
     7
370
    13
100
AcDbLine
 10
271.0408010903335
 20
140.0594831725029
 30
0.0
 11
271.0391410903335
 21
140.1067891725029
 31
0.0
  0
CIRCLE
  5
17A43
330
20
100
AcDbEntity
  8
10000_FRONT
  6
Continuous
 62
     7
370
    13
100
AcDbCircle
 10
261.6366310903335
 20
141.7886111725029
 30
0.0
 40
0.575
  0
DIMENSION
  5
17A45
330
20
100
AcDbEntity
  8
10100_FRONT_DIM
  6
Continuous
 62
     7
370
    13
100
AcDbDimension
  2
*D1
 10
253.5208610903335
 20
153.2582291725027
 30
0.0
 11
276.0208610903335
 21
153.2582291725027
 31
0.0
 70
   160
 71
     5
 42
44.99999999999984
  3
DSTYLE1
100
AcDbAlignedDimension
 13
298.5208610903334
 23
134.5669771725029
 33
0.0
 14
253.5208610903335
 24
139.2669771725029
 34
0.0
 50
180.0
100
AcDbRotatedDimension
1001
ACAD
1000
DSTYLE
1002
{
1070
    41
1040
2.0
1070
    42
1040
1.0
1070
    43
1040
1.0
1070
    44
1040
1.0
1070
    45
1040
0.0
1070
    47
1040
0.005
1070
    48
1040
-0.005
1070
    77
1070
     0
1070
    78
1070
     0
1070
   140
1040
2.5
1070
   143
1040
25.4
1070
   147
1040
1.0
1070
   171
1070
     0
1070
   172
1070
     1
1070
   271
1070
     0
1070
   272
1070
     1
1070
   274
1070
     0
1070
   277
1070
     6
1002
}
  0
DIMENSION
  5
17A46
330
20
100
AcDbEntity
  8
10100_FRONT_DIM
  6
Continuous
 62
     7
370
    13
100
AcDbDimension
  2
*D2
 10
303.8961210903335
 20
105.9669771725027
 30
0.0
 11
303.8961210903335
 21
123.0244011725028
 31
0.0
 70
   160
 71
     5
 42
33.60000000000019
  3
DSTYLE1
100
AcDbAlignedDimension
 13
298.2208610903334
 23
139.5669771725029
 33
0.0
 14
277.3208610903334
 24
105.9669771725027
 34
0.0
 50
270.0
100
AcDbRotatedDimension
1001
ACAD
1000
DSTYLE
1002
{
1070
    41
1040
2.0
1070
    42
1040
1.0
1070
    43
1040
1.0
1070
    44
1040
1.0
1070
    45
1040
0.0
1070
    47
1040
0.005
1070
    48
1040
-0.005
1070
    77
1070
     0
1070
    78
1070
     0
1070
   140
1040
2.5
1070
   143
1040
25.4
1070
   147
1040
1.0
1070
   171
1070
     0
1070
   172
1070
     1
1070
   271
1070
     0
1070
   272
1070
     1
1070
   274
1070
     0
1070
   277
1070
     6
1002
}
  0
DIMENSION
  5
17A47
330
20
100
AcDbEntity
  8
10100_FRONT_DIM
  6
Continuous
 62
     7
370
    13
100
AcDbDimension
  2
*D3
 10
311.4192510903334
 20
105.9669771725027
 30
0.0
 11
311.4192510903334
 21
123.362519172503
 31
0.0
 70
   160
  1
40
 71
     5
 42
39.20000000000027
  3
DSTYLE1
100
AcDbAlignedDimension
 13
276.9208610903334
 23
145.1669771725029
 33
0.0
 14
276.7208610903335
 24
105.9669771725027
 34
0.0
 50
90.0
100
AcDbRotatedDimension
1001
ACAD
1000
DSTYLE
1002
{
1070
    41
1040
2.0
1070
    42
1040
1.0
1070
    43
1040
1.0
1070
    44
1040
1.0
1070
    45
1040
0.0
1070
    47
1040
0.005
1070
    48
1040
-0.005
1070
    77
1070
     0
1070
    78
1070
     0
1070
   140
1040
2.5
1070
   143
1040
25.4
1070
   147
1040
1.0
1070
   171
1070
     0
1070
   172
1070
     1
1070
   271
1070
     0
1070
   272
1070
     1
1070
   274
1070
     0
1070
   277
1070
     6
1002
}
  0
ARC
  5
17AC9
330
20
100
AcDbEntity
  8
10000_FRONT
  6
Continuous
 62
     7
370
    13
100
AcDbCircle
 10
275.8037274903335
 20
136.2163385725029
 30
0.0
 40
1.499979899999999
100
AcDbArc
 50
307.9661300000012
 51
236.9995500000005
  0
LINE
  5
17ACA
330
20
100
AcDbEntity
  8
10000_FRONT
  6
Continuous
 62
     7
370
    13
100
AcDbLine
 10
276.3167307903335
 20
134.8068010965029
 30
0.0
 11
274.9867602903335
 21
134.9583408085029
 31
0.0
  0
LINE
  5
17ACB
330
20
100
AcDbEntity
  8
10000_FRONT
  6
Continuous
 62
     7
370
    13
100
AcDbLine
 10
276.5577506903335
 20
134.1446044025029
 30
0.0
 11
270.5268910903335
 21
134.9056551725029
 31
0.0
  0
ARC
  5
17ACC
330
20
100
AcDbEntity
  8
10000_FRONT
  6
Continuous
 62
     7
370
    13
100
AcDbCircle
 10
275.7161129903335
 20
136.498674472503
 30
0.0
 40
2.5
100
AcDbArc
 50
293.2611299999996
 51
92.34460999999972
  0
LINE
  5
17ACD
330
20
100
AcDbEntity
  8
10000_FRONT
  6
Continuous
 62
     7
370
    13
100
AcDbLine
 10
276.7265083903335
 20
135.0337924325029
 30
0.0
 11
277.1350257903336
 21
134.4503641325029
 31
0.0
  0
LINE
  5
17ACE
330
20
100
AcDbEntity
  8
10000_FRONT
  6
Continuous
 62
     7
370
    13
100
AcDbLine
 10
276.5561448903335
 20
134.149016262503
 30
0.0
 11
276.3167307903335
 21
134.8068010965029
 31
0.0
  0
LINE
  5
17ACF
330
20
100
AcDbEntity
  8
10000_FRONT
  6
Continuous
 62
     7
370
    13
100
AcDbLine
 10
271.5839458903335
 20
138.8315818725029
 30
0.0
 11
275.6138387903336
 21
138.996581572503
 31
0.0
  0
ARC
  5
17AD0
330
20
100
AcDbEntity
  8
10000_FRONT
  6
Continuous
 62
     7
370
    13
100
AcDbCircle
 10
278.1199734903335
 20
138.2935156725029
 30
0.0
 40
0.5
100
AcDbArc
 50
144.8158399999999
 51
212.9116
  0
LINE
  5
17B6C
330
20
100
AcDbEntity
  8
10000_FRONT
  6
Continuous
 62
     7
370
    50
100
AcDbLine
 10
278.0208610903335
 20
139.5669759121908
 30
0.0
 11
280.9837310903334
 21
139.5669771725029
 31
0.0
  0
LINE
  5
17B76
330
20
100
AcDbEntity
  8
10000_FRONT
  6
Continuous
 62
     7
370
    13
100
AcDbLine
 10
274.0208610903328
 20
139.5669736650177
 30
0.0
 11
278.0208610920891
 21
139.5669756799829
 31
0.0
  0
LINE
  5
17B77
330
20
100
AcDbEntity
  8
10000_FRONT
  6
Continuous
 62
     7
370
    13
100
AcDbLine
 10
269.1239209288089
 20
140.4352221511438
 30
0.0
 11
266.8834306698841
 21
139.7995226543553
 31
0.0
  0
LINE
  5
17B78
330
20
100
AcDbEntity
  8
10000_FRONT
  6
Continuous
 62
     7
370
    50
100
AcDbLine
 10
266.8834306698841
 20
139.7995226543553
 30
0.0
 11
266.0638510201771
 21
139.5669814197655
 31
0.0
  0
LINE
  5
17B79
330
20
100
AcDbEntity
  8
10000_FRONT
  6
Continuous
 62
     7
370
    13
100
AcDbLine
 10
266.0638510201771
 20
139.5669814197655
 30
0.0
 11
264.7130910903335
 21
139.1837271725028
 31
0.0
  0
LINE
  5
17B7A
330
20
100
AcDbEntity
  8
10000_FRONT
  6
Continuous
 62
     7
370
    50
100
AcDbLine
 10
271.0522718248419
 20
139.5669721725028
 30
0.0
 11
271.0408210903334
 21
140.0588161725029
 31
0.0
  0
LINE
  5
17B7B
330
20
100
AcDbEntity
  8
10000_FRONT
  6
Continuous
 62
     7
370
    50
100
AcDbLine
 10
282.9178019788187
 20
140.435224303918
 30
0.0
 11
282.0235210903334
 21
140.688961172503
 31
0.0
  0
LINE
  5
17B7C
330
20
100
AcDbEntity
  8
10000_FRONT
  6
Continuous
 62
     7
370
    13
100
AcDbLine
 10
285.158290941766
 20
139.7995239765633
 30
0.0
 11
282.9178012703602
 21
140.435224504931
 31
0.0
  0
LINE
  5
17B7D
330
20
100
AcDbEntity
  8
10000_FRONT
  6
Continuous
 62
     7
370
    50
100
AcDbLine
 10
285.9778745780968
 20
139.5669811725029
 30
0.0
 11
285.1582909417662
 21
139.7995239765632
 31
0.0
  0
LINE
  5
17B7E
330
20
100
AcDbEntity
  8
10000_FRONT
  6
Continuous
 62
     7
370
    13
100
AcDbLine
 10
280.9837398618295
 20
139.5672422403167
 30
0.0
 11
280.9706210903335
 21
139.191567172503
 31
0.0
  0
ENDSEC
  0
SECTION
  2
OBJECTS
  0
DICTIONARY
  5
C
330
0
100
AcDbDictionary
281
     1
  3
ACAD_COLOR
350
1B
  3
ACAD_GROUP
350
D
  3
ACAD_LAYOUT
350
19
  3
ACAD_MATERIAL
350
1A
  3
ACAD_MLINESTYLE
350
16
  3
ACAD_PLOTSETTINGS
350
18
  3
ACAD_PLOTSTYLENAME
350
E
  3
ACAD_TABLESTYLE
350
17B69
  3
ACAD_VISUALSTYLE
350
17B58
  3
AcDbVariableDictionary
350
17B39
  3
DWGPROPS
350
17B82
  0
DICTIONARY
  5
17B6D
330
20
100
AcDbDictionary
280
     1
281
     1
  3
ACAD_SORTENTS
360
17B6E
  0
DICTIONARY
  5
1B
102
{ACAD_REACTORS
330
C
102
}
330
C
100
AcDbDictionary
281
     1
  0
DICTIONARY
  5
D
102
{ACAD_REACTORS
330
C
102
}
330
C
100
AcDbDictionary
281
     1
  0
DICTIONARY
  5
19
102
{ACAD_REACTORS
330
C
102
}
330
C
100
AcDbDictionary
281
     1
  3
Layout1
350
1F
  3
Model
350
23
  0
DICTIONARY
  5
1A
102
{ACAD_REACTORS
330
C
102
}
330
C
100
AcDbDictionary
281
     1
  3
ByBlock
350
17B56
  3
ByLayer
350
17B55
  3
Global
350
17B57
  0
DICTIONARY
  5
16
102
{ACAD_REACTORS
330
C
102
}
330
C
100
AcDbDictionary
281
     1
  3
Standard
350
17
  0
DICTIONARY
  5
18
102
{ACAD_REACTORS
330
C
102
}
330
C
100
AcDbDictionary
281
     1
  0
ACDBDICTIONARYWDFLT
  5
E
102
{ACAD_REACTORS
330
C
102
}
330
C
100
AcDbDictionary
281
     1
  3
Normal
350
F
100
AcDbDictionaryWithDefault
340
F
  0
DICTIONARY
  5
17B69
102
{ACAD_REACTORS
330
C
102
}
330
C
100
AcDbDictionary
281
     1
  3
Standard
350
17B6A
  0
DICTIONARY
  5
17B58
102
{ACAD_REACTORS
330
C
102
}
330
C
100
AcDbDictionary
281
     1
  3
2dWireframe
350
17B5E
  3
3D Hidden
350
17B60
  3
3dWireframe
350
17B5F
  3
Basic
350
17B5D
  3
Brighten
350
17B64
  3
ColorChange
350
17B68
  3
Conceptual
350
17B61
  3
Dim
350
17B63
  3
Facepattern
350
17B67
  3
Flat
350
17B59
  3
FlatWithEdges
350
17B5A
  3
Gouraud
350
17B5B
  3
GouraudWithEdges
350
17B5C
  3
Linepattern
350
17B66
  3
Realistic
350
17B62
  3
Thicken
350
17B65
  0
DICTIONARY
  5
17B39
102
{ACAD_REACTORS
330
C
102
}
330
C
100
AcDbDictionary
281
     1
  3
CTABLESTYLE
350
17B7F
  3
DIMASSOC
350
17B3A
  3
INDEXCTL
350
17B81
  3
PROJECTNAME
350
17B3B
  3
SORTENTS
350
17B80
  0
XRECORD
  5
17B82
102
{ACAD_REACTORS
330
C
102
}
330
C
100
AcDbXrecord
280
     1
  1
DWGPROPS COOKIE
  2

  3

  4

  6

  7

  8
adgiro3
  9

300
=
301
=
302
=
303
=
304
=
305
=
306
=
307
=
308
=
309
=
 40
1.538469351851851
 41
2452842.552045173
 42
2453944.352600637
  1

 90
        0
  0
SORTENTSTABLE
  5
17B6E
102
{ACAD_REACTORS
330
17B6D
102
}
330
17B6D
100
AcDbSortentsTable
330
20
331
17ACF
  5
17B7D
331
17A25
  5
17A2B
331
1797D
  5
17983
331
1795B
  5
17961
331
17939
  5
17939
331
17A36
  5
17A40
331
17A1E
  5
17A24
331
1794A
  5
1794E
331
1796C
  5
17972
331
17B7A
  5
1793C
331
1331E
  5
1331E
331
1798E
  5
17994
331
1330D
  5
1330D
331
17ACD
  5
17B7B
331
17A23
  5
17A29
331
1797B
  5
17981
331
17959
  5
1795F
331
17A47
  5
17B76
331
17A34
  5
17A3E
331
17948
  5
1794C
331
1796A
  5
17970
331
17B78
  5
17941
331
1331C
  5
1331C
331
1798C
  5
17992
331
1330B
  5
1330B
331
17ACB
  5
17B79
331
17A21
  5
17A27
331
17979
  5
1797F
331
17957
  5
1795B
331
17A45
  5
17AD0
331
17A32
  5
17A3C
331
1799B
  5
17A1F
331
17968
  5
1796E
331
17B76
  5
1795C
331
17946
  5
1794A
331
1331A
  5
1331A
331
1798A
  5
17990
331
13309
  5
13309
331
17AC9
  5
17B77
331
17977
  5
1797D
331
17955
  5
17959
331
17A43
  5
17ACF
331
17A30
  5
17A3A
331
17999
  5
17A1D
331
17988
  5
1798E
331
17966
  5
1796C
331
17944
  5
17948
331
13318
  5
13318
331
17975
  5
1797B
331
17953
  5
17957
331
17A41
  5
17ACD
331
17A2E
  5
17A37
331
17997
  5
179DF
331
17986
  5
1798C
331
17964
  5
1796A
331
17942
  5
17946
331
17A3F
  5
17ACB
331
17937
  5
17937
331
13316
  5
13316
331
17973
  5
17979
331
17951
  5
17955
331
17A2C
  5
17A32
331
17995
  5
1799B
331
17A3D
  5
17AC9
331
17984
  5
1798A
331
17962
  5
17968
331
17940
  5
17944
331
13314
  5
13314
331
17971
  5
17977
331
17A2A
  5
17A30
331
17993
  5
17999
331
17982
  5
17988
331
17960
  5
17966
331
1793E
  5
1793F
331
13312
  5
13312
331
17A3B
  5
17A46
331
179DF
  5
17A21
331
1794F
  5
17953
331
13306
  5
13306
331
17A28
  5
17A2E
331
17991
  5
17997
331
17A39
  5
17A43
331
17980
  5
17986
331
1795E
  5
17964
331
17B6C
  5
1795D
331
1793C
  5
1793D
331
17B7D
  5
17A33
331
1796F
  5
17975
331
1794D
  5
17951
331
13310
  5
13310
331
17AD0
  5
17B7E
331
17A26
  5
17A2C
331
17A37
  5
17A41
331
17A1F
  5
17A25
331
1797E
  5
17984
331
1795C
  5
17962
331
17B7B
  5
17A35
331
1796D
  5
17973
331
1794B
  5
1794F
331
1793A
  5
1793A
331
1798F
  5
17995
331
1330E
  5
1330E
331
17ACE
  5
17B7C
331
17A24
  5
17A2A
331
1797C
  5
17982
331
1795A
  5
17960
331
17938
  5
17938
331
17A35
  5
17A3F
331
17A1D
  5
17A23
331
17949
  5
1794D
331
1796B
  5
17971
331
17B79
  5
17942
331
1331D
  5
1331D
331
1798D
  5
17993
331
1330C
  5
1330C
331
17ACC
  5
17B7A
331
17A22
  5
17A28
331
1797A
  5
17980
331
17958
  5
1795E
331
17A46
  5
17B6C
331
17A33
  5
17A3D
331
17947
  5
1794B
331
17969
  5
1796F
331
17B77
  5
17940
331
1331B
  5
1331B
331
1798B
  5
17991
331
1330A
  5
1330A
331
17ACA
  5
17B78
331
17A20
  5
17A26
331
17978
  5
1797E
331
17956
  5
1795A
331
17A31
  5
17A3B
331
1799A
  5
17A1E
331
17967
  5
1796D
331
17945
  5
17949
331
13319
  5
13319
331
17989
  5
1798F
331
13308
  5
13308
331
17976
  5
1797C
331
17954
  5
17958
331
17A42
  5
17ACE
331
17A2F
  5
17A38
331
17998
  5
179FE
331
17987
  5
1798D
331
17965
  5
1796B
331
17943
  5
17947
331
13317
  5
13317
331
17974
  5
1797A
331
17952
  5
17956
331
17A40
  5
17ACC
331
17A2D
  5
17A36
331
17996
  5
179BA
331
17985
  5
1798B
331
17963
  5
17969
331
17941
  5
17945
331
17A3E
  5
17ACA
331
17936
  5
17936
331
13315
  5
13315
331
17972
  5
17978
331
17950
  5
17954
331
17A2B
  5
17A31
331
17994
  5
1799A
331
17983
  5
17989
331
17961
  5
17967
331
1793F
  5
17943
331
13313
  5
13313
331
17A3C
  5
17A47
331
13307
  5
13307
331
17970
  5
17976
331
17A29
  5
17A2F
331
17992
  5
17998
331
17A3A
  5
17A45
331
17981
  5
17987
331
1795F
  5
17965
331
1793D
  5
1793E
331
17B7E
  5
17A39
331
1794E
  5
17952
331
13311
  5
13311
331
17A27
  5
17A2D
331
17990
  5
17996
331
17A38
  5
17A42
331
179FE
  5
17A22
331
179BA
  5
17A20
331
1797F
  5
17985
331
1795D
  5
17963
331
17B7C
  5
17A34
331
1796E
  5
17974
331
1794C
  5
17950
331
1793B
  5
1793B
331
1330F
  5
1330F
  0
LAYOUT
  5
1F
102
{ACAD_XDICTIONARY
360
17B83
102
}
102
{ACAD_REACTORS
330
19
102
}
330
19
100
AcDbPlotSettings
  1

  2
HP LaserJet 5000 Series PS
  4

  6

 40
0.0
 41
0.0
 42
0.0
 43
0.0
 44
0.0
 45
0.0
 46
0.0
 47
0.0
 48
0.0
 49
0.0
140
0.0
141
0.0
142
1.0
143
1.0
 70
   688
 72
     0
 73
     0
 74
     5
  7
monochrome.ctb
 75
    16
147
1.0
148
0.0
149
0.0
100
AcDbLayout
  1
Layout1
 70
     1
 71
     1
 10
0.0
 20
0.0
 11
12.0
 21
9.0
 12
0.0
 22
0.0
 32
0.0
 14
1.000000000000000E+20
 24
1.000000000000000E+20
 34
1.000000000000000E+20
 15
-1.000000000000000E+20
 25
-1.000000000000000E+20
 35
-1.000000000000000E+20
146
0.0
 13
0.0
 23
0.0
 33
0.0
 16
1.0
 26
0.0
 36
0.0
 17
0.0
 27
1.0
 37
0.0
 76
     0
330
1C
  0
LAYOUT
  5
23
102
{ACAD_XDICTIONARY
360
17B85
102
}
102
{ACAD_REACTORS
330
19
102
}
330
19
100
AcDbPlotSettings
  1

  2
\\AMBW779A\A_P00873 (Canon iR2200-3300 PCL6)
  4
A4
  6

 40
4.815416812896728
 41
4.815412044525146
 42
4.815414428710936
 43
4.8154296875
 44
209.9733276367186
 45
296.9259948730469
 46
0.0
 47
0.0
 48
0.0
 49
0.0
140
0.0
141
0.0
142
1.0
143
1.0
 70
 28336
 72
     1
 73
     0
 74
     1
  7
monochrome.ctb
 75
    16
147
1.0
148
-180.6671463687289
149
18.0673902521039
100
AcDbLayout
  1
Model
 70
     1
 71
     0
 10
0.0
 20
0.0
 11
12.0
 21
9.0
 12
0.0
 22
0.0
 32
0.0
 14
0.0
 24
0.0
 34
0.0
 15
0.0
 25
0.0
 35
0.0
146
0.0
 13
0.0
 23
0.0
 33
0.0
 16
1.0
 26
0.0
 36
0.0
 17
0.0
 27
1.0
 37
0.0
 76
     0
330
20
331
17B49
  0
MATERIAL
  5
17B56
102
{ACAD_XDICTIONARY
360
17B89
102
}
102
{ACAD_REACTORS
330
1A
102
}
330
1A
100
AcDbMaterial
  1
ByBlock
  0
MATERIAL
  5
17B55
102
{ACAD_XDICTIONARY
360
17B87
102
}
102
{ACAD_REACTORS
330
1A
102
}
330
1A
100
AcDbMaterial
  1
ByLayer
  0
MATERIAL
  5
17B57
102
{ACAD_XDICTIONARY
360
17B8B
102
}
102
{ACAD_REACTORS
330
1A
102
}
330
1A
100
AcDbMaterial
  1
Global
  0
MLINESTYLE
  5
17
102
{ACAD_REACTORS
330
16
102
}
330
16
100
AcDbMlineStyle
  2
STANDARD
 70
     0
  3

 62
   256
 51
90.0
 52
90.0
 71
     2
 49
0.5
 62
   256
  6
BYLAYER
 49
-0.5
 62
   256
  6
BYLAYER
  0
ACDBPLACEHOLDER
  5
F
102
{ACAD_REACTORS
330
E
102
}
330
E
  0
TABLESTYLE
  5
17B6A
102
{ACAD_XDICTIONARY
360
17B8D
102
}
102
{ACAD_REACTORS
330
17B69
102
}
330
17B69
100
AcDbTableStyle
  3
Standard
 70
     0
 71
     0
 40
0.06
 41
0.06
280
     0
281
     0
  7
Standard
140
0.18
170
     2
 62
     0
 63
     7
283
     0
274
    -2
284
     1
 64
     0
275
    -2
285
     1
 65
     0
276
    -2
286
     1
 66
     0
277
    -2
287
     1
 67
     0
278
    -2
288
     1
 68
     0
279
    -2
289
     1
 69
     0
  7
Standard
140
0.25
170
     5
 62
     0
 63
     7
283
     0
274
    -2
284
     1
 64
     0
275
    -2
285
     1
 65
     0
276
    -2
286
     1
 66
     0
277
    -2
287
     1
 67
     0
278
    -2
288
     1
 68
     0
279
    -2
289
     1
 69
     0
  7
Standard
140
0.18
170
     5
 62
     0
 63
     7
283
     0
274
    -2
284
     1
 64
     0
275
    -2
285
     1
 65
     0
276
    -2
286
     1
 66
     0
277
    -2
287
     1
 67
     0
278
    -2
288
     1
 68
     0
279
    -2
289
     1
 69
     0
  0
VISUALSTYLE
  5
17B5E
102
{ACAD_REACTORS
330
17B58
102
}
330
17B58
100
AcDbVisualStyle
  2
2dWireframe
 70
     4
 71
     0
 72
     2
 73
     0
 90
        0
 40
-0.6
 41
-30.0
 62
     5
 63
     7
 74
     1
 91
        4
 64
     7
 65
   257
 75
     1
175
     1
 42
1.0
 92
        0
 66
   257
 43
1.0
 76
     1
 77
     6
 78
     2
 67
     7
 79
     5
170
     0
171
     0
290
     0
174
     0
 93
        1
 44
0.0
173
     0
291
     0
 45
0.0
1001
ACAD
1000
AcDbSavedByObjectVersion
1070
     0
  0
VISUALSTYLE
  5
17B60
102
{ACAD_REACTORS
330
17B58
102
}
330
17B58
100
AcDbVisualStyle
  2
3D Hidden
 70
     6
 71
     1
 72
     2
 73
     2
 90
        0
 40
-0.6
 41
-30.0
 62
     5
 63
     7
 74
     2
 91
        2
 64
     7
 65
   257
 75
     2
175
     1
 42
40.0
 92
        0
 66
   257
 43
1.0
 76
     1
 77
     6
 78
     2
 67
     7
 79
     3
170
     0
171
     0
290
     0
174
     0
 93
        1
 44
0.0
173
     0
291
     0
 45
0.0
1001
ACAD
1000
AcDbSavedByObjectVersion
1070
     0
  0
VISUALSTYLE
  5
17B5F
102
{ACAD_REACTORS
330
17B58
102
}
330
17B58
100
AcDbVisualStyle
  2
3dWireframe
 70
     5
 71
     0
 72
     2
 73
     0
 90
        0
 40
-0.6
 41
-30.0
 62
     5
 63
     7
 74
     1
 91
        4
 64
     7
 65
   257
 75
     1
175
     1
 42
1.0
 92
        0
 66
   257
 43
1.0
 76
     1
 77
     6
 78
     2
 67
     7
 79
     5
170
     0
171
     0
290
     0
174
     0
 93
        1
 44
0.0
173
     0
291
     0
 45
0.0
1001
ACAD
1000
AcDbSavedByObjectVersion
1070
     0
  0
VISUALSTYLE
  5
17B5D
102
{ACAD_REACTORS
330
17B58
102
}
330
17B58
100
AcDbVisualStyle
  2
Basic
 70
     7
 71
     1
 72
     0
 73
     1
 90
        0
 40
-0.6
 41
-30.0
 62
     5
 63
     7
 74
     0
 91
        4
 64
     7
 65
   257
 75
     1
175
     1
 42
1.0
 92
        8
 66
     7
 43
1.0
 76
     1
 77
     6
 78
     2
 67
     7
 79
     5
170
     0
171
     0
290
     0
174
     0
 93
        1
 44
0.0
173
     0
291
     1
 45
0.0
1001
ACAD
1000
AcDbSavedByObjectVersion
1070
     0
  0
VISUALSTYLE
  5
17B64
102
{ACAD_REACTORS
330
17B58
102
}
330
17B58
100
AcDbVisualStyle
  2
Brighten
 70
    12
 71
     2
 72
     2
 73
     0
 90
        0
 40
-0.6
 41
-30.0
 62
     5
 63
     7
 74
     1
 91
        4
 64
     7
 65
   257
 75
     1
175
     1
 42
1.0
 92
        8
 66
     7
 43
1.0
 76
     1
 77
     6
 78
     2
 67
     7
 79
     5
170
     0
171
     0
290
     0
174
     0
 93
        1
 44
50.0
173
     0
291
     1
 45
0.0
1001
ACAD
1000
AcDbSavedByObjectVersion
1070
     0
  0
VISUALSTYLE
  5
17B68
102
{ACAD_REACTORS
330
17B58
102
}
330
17B58
100
AcDbVisualStyle
  2
ColorChange
 70
    16
 71
     2
 72
     2
 73
     3
 90
        0
 40
-0.6
 41
-30.0
 62
     5
 63
     8
 74
     1
 91
        4
 64
     7
 65
   257
 75
     1
175
     1
 42
1.0
 92
        8
 66
     8
 43
1.0
 76
     1
 77
     6
 78
     2
 67
     7
 79
     5
170
     0
171
     0
290
     0
174
     0
 93
        1
 44
0.0
173
     0
291
     1
 45
0.0
1001
ACAD
1000
AcDbSavedByObjectVersion
1070
     0
  0
VISUALSTYLE
  5
17B61
102
{ACAD_REACTORS
330
17B58
102
}
330
17B58
100
AcDbVisualStyle
  2
Conceptual
 70
     9
 71
     3
 72
     2
 73
     0
 90
        0
 40
-0.6
 41
-30.0
 62
     5
 63
     7
 74
     2
 91
        2
 64
     7
 65
   257
 75
     1
175
     1
 42
40.0
 92
        8
 66
     7
 43
1.0
 76
     1
 77
     6
 78
     2
 67
     7
 79
     3
170
     0
171
     0
290
     0
174
     0
 93
        1
 44
0.0
173
     0
291
     0
 45
0.0
1001
ACAD
1000
AcDbSavedByObjectVersion
1070
     0
  0
VISUALSTYLE
  5
17B63
102
{ACAD_REACTORS
330
17B58
102
}
330
17B58
100
AcDbVisualStyle
  2
Dim
 70
    11
 71
     2
 72
     2
 73
     0
 90
        0
 40
-0.6
 41
-30.0
 62
     5
 63
     7
 74
     1
 91
        4
 64
     7
 65
   257
 75
     1
175
     1
 42
1.0
 92
        8
 66
     7
 43
1.0
 76
     1
 77
     6
 78
     2
 67
     7
 79
     5
170
     0
171
     0
290
     0
174
     0
 93
        1
 44
-50.0
173
     0
291
     1
 45
0.0
1001
ACAD
1000
AcDbSavedByObjectVersion
1070
     0
  0
VISUALSTYLE
  5
17B67
102
{ACAD_REACTORS
330
17B58
102
}
330
17B58
100
AcDbVisualStyle
  2
Facepattern
 70
    15
 71
     2
 72
     2
 73
     0
 90
        0
 40
-0.6
 41
-30.0
 62
     5
 63
     7
 74
     1
 91
        4
 64
     7
 65
   257
 75
     1
175
     1
 42
1.0
 92
        8
 66
     7
 43
1.0
 76
     1
 77
     6
 78
     2
 67
     7
 79
     5
170
     0
171
     0
290
     0
174
     0
 93
        1
 44
0.0
173
     0
291
     1
 45
0.0
1001
ACAD
1000
AcDbSavedByObjectVersion
1070
     0
  0
VISUALSTYLE
  5
17B59
102
{ACAD_REACTORS
330
17B58
102
}
330
17B58
100
AcDbVisualStyle
  2
Flat
 70
     0
 71
     2
 72
     1
 73
     1
 90
        2
 40
-0.6
 41
30.0
 62
     5
 63
     7
 74
     0
 91
        4
 64
     7
 65
   257
 75
     1
175
     1
 42
1.0
 92
        8
 66
     7
 43
1.0
 76
     1
 77
     6
 78
     2
 67
     7
 79
     5
170
     0
171
     0
290
     0
174
     0
 93
       13
 44
0.0
173
     0
291
     1
 45
0.0
1001
ACAD
1000
AcDbSavedByObjectVersion
1070
     0
  0
VISUALSTYLE
  5
17B5A
102
{ACAD_REACTORS
330
17B58
102
}
330
17B58
100
AcDbVisualStyle
  2
FlatWithEdges
 70
     1
 71
     2
 72
     1
 73
     1
 90
        2
 40
-0.6
 41
30.0
 62
     5
 63
     7
 74
     1
 91
        4
 64
     7
 65
   257
 75
     1
175
     1
 42
1.0
 92
        0
 66
   257
 43
1.0
 76
     1
 77
     6
 78
     2
 67
     7
 79
     5
170
     0
171
     0
290
     0
174
     0
 93
       13
 44
0.0
173
     0
291
     1
 45
0.0
1001
ACAD
1000
AcDbSavedByObjectVersion
1070
     0
  0
VISUALSTYLE
  5
17B5B
102
{ACAD_REACTORS
330
17B58
102
}
330
17B58
100
AcDbVisualStyle
  2
Gouraud
 70
     2
 71
     2
 72
     2
 73
     1
 90
        2
 40
-0.6
 41
30.0
 62
     5
 63
     7
 74
     0
 91
        4
 64
     7
 65
   257
 75
     1
175
     1
 42
1.0
 92
        0
 66
     7
 43
1.0
 76
     1
 77
     6
 78
     2
 67
     7
 79
     5
170
     0
171
     0
290
     0
174
     0
 93
       13
 44
0.0
173
     0
291
     1
 45
0.0
1001
ACAD
1000
AcDbSavedByObjectVersion
1070
     0
  0
VISUALSTYLE
  5
17B5C
102
{ACAD_REACTORS
330
17B58
102
}
330
17B58
100
AcDbVisualStyle
  2
GouraudWithEdges
 70
     3
 71
     2
 72
     2
 73
     1
 90
        2
 40
-0.6
 41
30.0
 62
     5
 63
     7
 74
     1
 91
        4
 64
     7
 65
   257
 75
     1
175
     1
 42
1.0
 92
        0
 66
   257
 43
1.0
 76
     1
 77
     6
 78
     2
 67
     7
 79
     5
170
     0
171
     0
290
     0
174
     0
 93
       13
 44
0.0
173
     0
291
     1
 45
0.0
1001
ACAD
1000
AcDbSavedByObjectVersion
1070
     0
  0
VISUALSTYLE
  5
17B66
102
{ACAD_REACTORS
330
17B58
102
}
330
17B58
100
AcDbVisualStyle
  2
Linepattern
 70
    14
 71
     2
 72
     2
 73
     0
 90
        0
 40
-0.6
 41
-30.0
 62
     5
 63
     7
 74
     1
 91
        4
 64
     7
 65
   257
 75
     7
175
     7
 42
1.0
 92
        8
 66
     7
 43
1.0
 76
     1
 77
     6
 78
     2
 67
     7
 79
     5
170
     0
171
     0
290
     0
174
     0
 93
        1
 44
0.0
173
     0
291
     1
 45
0.0
1001
ACAD
1000
AcDbSavedByObjectVersion
1070
     0
  0
VISUALSTYLE
  5
17B62
102
{ACAD_REACTORS
330
17B58
102
}
330
17B58
100
AcDbVisualStyle
  2
Realistic
 70
     8
 71
     2
 72
     2
 73
     0
 90
        0
 40
-0.6
 41
-30.0
 62
     5
 63
     7
 74
     1
 91
        0
 64
     7
 65
   257
 75
     1
175
     1
 42
1.0
 92
        8
 66
     8
 43
1.0
 76
     1
 77
     6
 78
     2
 67
     7
 79
     5
170
     0
171
     0
290
     0
174
     0
 93
       13
 44
0.0
173
     0
291
     0
 45
0.0
1001
ACAD
1000
AcDbSavedByObjectVersion
1070
     0
  0
VISUALSTYLE
  5
17B65
102
{ACAD_REACTORS
330
17B58
102
}
330
17B58
100
AcDbVisualStyle
  2
Thicken
 70
    13
 71
     2
 72
     2
 73
     0
 90
        0
 40
-0.6
 41
-30.0
 62
     5
 63
     7
 74
     1
 91
        4
 64
     7
 65
   257
 75
     1
175
     1
 42
1.0
 92
       12
 66
     7
 43
1.0
 76
     1
 77
     6
 78
     2
 67
     7
 79
     5
170
     0
171
     0
290
     0
174
     0
 93
        1
 44
0.0
173
     0
291
     1
 45
0.0
1001
ACAD
1000
AcDbSavedByObjectVersion
1070
     0
  0
DICTIONARYVAR
  5
17B7F
102
{ACAD_REACTORS
330
17B39
102
}
330
17B39
100
DictionaryVariables
280
     0
  1
STANDARD
  0
DICTIONARYVAR
  5
17B3A
102
{ACAD_REACTORS
330
17B39
102
}
330
17B39
100
DictionaryVariables
280
     0
  1
1
  0
DICTIONARYVAR
  5
17B81
102
{ACAD_REACTORS
330
17B39
102
}
330
17B39
100
DictionaryVariables
280
     0
  1
0
  0
DICTIONARYVAR
  5
17B3B
102
{ACAD_REACTORS
330
17B39
102
}
330
17B39
100
DictionaryVariables
280
     0
  1

  0
DICTIONARYVAR
  5
17B80
102
{ACAD_REACTORS
330
17B39
102
}
330
17B39
100
DictionaryVariables
280
     0
  1
127
  0
DICTIONARY
  5
17B83
330
1F
100
AcDbDictionary
280
     1
281
     1
  3
ACAD_XREC_ROUNDTRIP
360
17B84
  0
DICTIONARY
  5
17B85
330
23
100
AcDbDictionary
280
     1
281
     1
  3
ACAD_XREC_ROUNDTRIP
360
17B86
  0
DICTIONARY
  5
17B89
330
17B56
100
AcDbDictionary
280
     1
281
     1
  3
ACAD_XREC_ROUNDTRIP
360
17B8A
  0
DICTIONARY
  5
17B87
330
17B55
100
AcDbDictionary
280
     1
281
     1
  3
ACAD_XREC_ROUNDTRIP
360
17B88
  0
DICTIONARY
  5
17B8B
330
17B57
100
AcDbDictionary
280
     1
281
     1
  3
ACAD_XREC_ROUNDTRIP
360
17B8C
  0
DICTIONARY
  5
17B8D
330
17B6A
100
AcDbDictionary
280
     1
281
     1
  3
ACAD_XREC_ROUNDTRIP
360
17B8E
  0
XRECORD
  5
17B84
102
{ACAD_REACTORS
330
17B83
102
}
330
17B83
100
AcDbXrecord
280
     1
102
SHADEPLOT
 70
     0
102
SHADEPLOTRESLEVEL
 70
     2
102
SHADEPLOTCUSTOMDPI
 70
   300
  0
XRECORD
  5
17B86
102
{ACAD_REACTORS
330
17B85
102
}
330
17B85
100
AcDbXrecord
280
     1
102
SHADEPLOT
 70
     1
102
SHADEPLOTRESLEVEL
 70
     2
102
SHADEPLOTCUSTOMDPI
 70
   300
  0
XRECORD
  5
17B8A
102
{ACAD_REACTORS
330
17B89
102
}
330
17B89
100
AcDbXrecord
280
     1
102
MATERIAL
148
0.0
149
0.0
149
0.0
 93
        0
 94
       63
282
     0
 72
     1
 77
     1
171
     1
175
     1
179
     1
273
     0
  0
XRECORD
  5
17B88
102
{ACAD_REACTORS
330
17B87
102
}
330
17B87
100
AcDbXrecord
280
     1
102
MATERIAL
148
0.0
149
0.0
149
0.0
 93
        0
 94
       63
282
     0
 72
     1
 77
     1
171
     1
175
     1
179
     1
273
     0
  0
XRECORD
  5
17B8C
102
{ACAD_REACTORS
330
17B8B
102
}
330
17B8B
100
AcDbXrecord
280
     1
102
MATERIAL
148
0.0
149
0.0
149
0.0
 93
        0
 94
       63
282
     0
 72
     1
 77
     1
171
     1
175
     1
179
     1
273
     0
  0
XRECORD
  5
17B8E
102
{ACAD_REACTORS
330
17B8D
102
}
330
17B8D
100
AcDbXrecord
280
     1
102
ACAD_ROUNDTRIP_PRE2007_TABLESTYLE
 90
      512
 91
        0
  1

 92
      512
 93
        0
  2

 94
      512
 95
        0
  3

  0
ENDSEC
  0
EOF
