  0
SECTION
  2
HEADER
  9
$ACADVER
  1
AC1015
  9
$ACADMAINTVER
 70
    20
  9
$DWGCODEPAGE
  3
ANSI_1252
  9
$INSBASE
 10
0.0
 20
0.0
 30
0.0
  9
$EXTMIN
 10
-15.00475300870857
 20
-16.53985874377986
 30
-0.0000000000112497
  9
$EXTMAX
 10
225.1440742437471
 20
313.5177360132802
 30
0.0000000000002956
  9
$LIMMIN
 10
0.0
 20
0.0
  9
$LIMMAX
 10
594.0
 20
420.0
  9
$ORTHOMODE
 70
     1
  9
$REGENMODE
 70
     1
  9
$FILLMODE
 70
     1
  9
$QTEXTMODE
 70
     0
  9
$MIRRTEXT
 70
     0
  9
$LTSCALE
 40
32.67
  9
$ATTMODE
 70
     1
  9
$TEXTSIZE
 40
0.2
  9
$TRACEWID
 40
0.05
  9
$TEXTSTYLE
  7
Standard
  9
$CLAYER
  8
0
  9
$CELTYPE
  6
ByLayer
  9
$CECOLOR
 62
   256
  9
$CELTSCALE
 40
1.0
  9
$DISPSILH
 70
     0
  9
$DIMSCALE
 40
0.0
  9
$DIMASZ
 40
3.5
  9
$DIMEXO
 40
0.0
  9
$DIMDLI
 40
3.75
  9
$DIMRND
 40
0.0
  9
$DIMDLE
 40
0.0
  9
$DIMEXE
 40
2.0
  9
$DIMTP
 40
0.0
  9
$DIMTM
 40
0.0
  9
$DIMTXT
 40
3.5
  9
$DIMCEN
 40
3.5
  9
$DIMTSZ
 40
0.0
  9
$DIMTOL
 70
     0
  9
$DIMLIM
 70
     0
  9
$DIMTIH
 70
     0
  9
$DIMTOH
 70
     0
  9
$DIMSE1
 70
     0
  9
$DIMSE2
 70
     0
  9
$DIMTAD
 70
     1
  9
$DIMZIN
 70
     8
  9
$DIMBLK
  1

  9
$DIMASO
 70
     1
  9
$DIMSHO
 70
     1
  9
$DIMPOST
  1

  9
$DIMAPOST
  1

  9
$DIMALT
 70
     0
  9
$DIMALTD
 70
     4
  9
$DIMALTF
 40
0.0394
  9
$DIMLFAC
 40
1.0
  9
$DIMTOFL
 70
     1
  9
$DIMTVP
 40
0.0
  9
$DIMTIX
 70
     0
  9
$DIMSOXD
 70
     0
  9
$DIMSAH
 70
     0
  9
$DIMBLK1
  1

  9
$DIMBLK2
  1

  9
$DIMSTYLE
  2
DIN 3.5
  9
$DIMCLRD
 70
     7
  9
$DIMCLRE
 70
     7
  9
$DIMCLRT
 70
     7
  9
$DIMTFAC
 40
1.0
  9
$DIMGAP
 40
1.0
  9
$DIMJUST
 70
     0
  9
$DIMSD1
 70
     0
  9
$DIMSD2
 70
     0
  9
$DIMTOLJ
 70
     1
  9
$DIMTZIN
 70
     0
  9
$DIMALTZ
 70
     8
  9
$DIMALTTZ
 70
     0
  9
$DIMUPT
 70
     0
  9
$DIMDEC
 70
     1
  9
$DIMTDEC
 70
     1
  9
$DIMALTU
 70
     8
  9
$DIMALTTD
 70
     4
  9
$DIMTXSTY
  7
Standard
  9
$DIMAUNIT
 70
     0
  9
$DIMADEC
 70
     1
  9
$DIMALTRND
 40
0.0
  9
$DIMAZIN
 70
     2
  9
$DIMDSEP
 70
    46
  9
$DIMATFIT
 70
     3
  9
$DIMFRAC
 70
     0
  9
$DIMLDRBLK
  1

  9
$DIMLUNIT
 70
     6
  9
$DIMLWD
 70
    13
  9
$DIMLWE
 70
    13
  9
$DIMTMOVE
 70
     0
  9
$LUNITS
 70
     2
  9
$LUPREC
 70
     4
  9
$SKETCHINC
 40
0.1
  9
$FILLETRAD
 40
0.0
  9
$AUNITS
 70
     0
  9
$AUPREC
 70
     0
  9
$MENU
  1
.
  9
$ELEVATION
 40
0.0
  9
$PELEVATION
 40
0.0
  9
$THICKNESS
 40
0.0
  9
$LIMCHECK
 70
     0
  9
$CHAMFERA
 40
0.0
  9
$CHAMFERB
 40
0.0
  9
$CHAMFERC
 40
0.0
  9
$CHAMFERD
 40
0.0
  9
$SKPOLY
 70
     0
  9
$TDCREATE
 40
2452842.510378507
  9
$TDUCREATE
 40
2452842.468711840
  9
$TDUPDATE
 40
2454480.643754873
  9
$TDUUPDATE
 40
2454480.602088206
  9
$TDINDWG
 40
1.3191896875
  9
$TDUSRTIMER
 40
1.3191791435
  9
$USRTIMER
 70
     1
  9
$ANGBASE
 50
0.0
  9
$ANGDIR
 70
     0
  9
$PDMODE
 70
     0
  9
$PDSIZE
 40
0.0
  9
$PLINEWID
 40
0.0
  9
$SPLFRAME
 70
     0
  9
$SPLINETYPE
 70
     6
  9
$SPLINESEGS
 70
     8
  9
$HANDSEED
  5
17641
  9
$SURFTAB1
 70
     6
  9
$SURFTAB2
 70
     6
  9
$SURFTYPE
 70
     6
  9
$SURFU
 70
     6
  9
$SURFV
 70
     6
  9
$UCSBASE
  2

  9
$UCSNAME
  2

  9
$UCSORG
 10
0.0
 20
0.0
 30
0.0
  9
$UCSXDIR
 10
1.0
 20
0.0
 30
0.0
  9
$UCSYDIR
 10
0.0
 20
1.0
 30
0.0
  9
$UCSORTHOREF
  2

  9
$UCSORTHOVIEW
 70
     0
  9
$UCSORGTOP
 10
0.0
 20
0.0
 30
0.0
  9
$UCSORGBOTTOM
 10
0.0
 20
0.0
 30
0.0
  9
$UCSORGLEFT
 10
0.0
 20
0.0
 30
0.0
  9
$UCSORGRIGHT
 10
0.0
 20
0.0
 30
0.0
  9
$UCSORGFRONT
 10
0.0
 20
0.0
 30
0.0
  9
$UCSORGBACK
 10
0.0
 20
0.0
 30
0.0
  9
$PUCSBASE
  2

  9
$PUCSNAME
  2

  9
$PUCSORG
 10
0.0
 20
0.0
 30
0.0
  9
$PUCSXDIR
 10
1.0
 20
0.0
 30
0.0
  9
$PUCSYDIR
 10
0.0
 20
1.0
 30
0.0
  9
$PUCSORTHOREF
  2

  9
$PUCSORTHOVIEW
 70
     0
  9
$PUCSORGTOP
 10
0.0
 20
0.0
 30
0.0
  9
$PUCSORGBOTTOM
 10
0.0
 20
0.0
 30
0.0
  9
$PUCSORGLEFT
 10
0.0
 20
0.0
 30
0.0
  9
$PUCSORGRIGHT
 10
0.0
 20
0.0
 30
0.0
  9
$PUCSORGFRONT
 10
0.0
 20
0.0
 30
0.0
  9
$PUCSORGBACK
 10
0.0
 20
0.0
 30
0.0
  9
$USERI1
 70
     0
  9
$USERI2
 70
     0
  9
$USERI3
 70
     0
  9
$USERI4
 70
     0
  9
$USERI5
 70
     0
  9
$USERR1
 40
0.0
  9
$USERR2
 40
0.0
  9
$USERR3
 40
0.0
  9
$USERR4
 40
0.0
  9
$USERR5
 40
0.0
  9
$WORLDVIEW
 70
     1
  9
$SHADEDGE
 70
     3
  9
$SHADEDIF
 70
    70
  9
$TILEMODE
 70
     1
  9
$MAXACTVP
 70
    64
  9
$PINSBASE
 10
0.0
 20
0.0
 30
0.0
  9
$PLIMCHECK
 70
     0
  9
$PEXTMIN
 10
1.000000000000000E+20
 20
1.000000000000000E+20
 30
1.000000000000000E+20
  9
$PEXTMAX
 10
-1.000000000000000E+20
 20
-1.000000000000000E+20
 30
-1.000000000000000E+20
  9
$PLIMMIN
 10
0.0
 20
0.0
  9
$PLIMMAX
 10
12.0
 20
9.0
  9
$UNITMODE
 70
     0
  9
$VISRETAIN
 70
     1
  9
$PLINEGEN
 70
     0
  9
$PSLTSCALE
 70
     1
  9
$TREEDEPTH
 70
  3020
  9
$CMLSTYLE
  2
Standard
  9
$CMLJUST
 70
     0
  9
$CMLSCALE
 40
1.0
  9
$PROXYGRAPHICS
 70
     1
  9
$MEASUREMENT
 70
     0
  9
$CELWEIGHT
370
    15
  9
$ENDCAPS
280
     0
  9
$JOINSTYLE
280
     0
  9
$LWDISPLAY
290
     1
  9
$INSUNITS
 70
     0
  9
$HYPERLINKBASE
  1

  9
$STYLESHEET
  1
MONOCHROME.CTB
  9
$XEDIT
290
     1
  9
$CEPSNTYPE
380
     0
  9
$PSTYLEMODE
290
     1
  9
$FINGERPRINTGUID
  2
{120036CA-264F-4224-96F9-35913E457107}
  9
$VERSIONGUID
  2
{D254E227-2F91-4DD1-A629-38F23A094843}
  9
$EXTNAMES
290
     1
  9
$PSVPSCALE
 40
0.0
  9
$OLESTARTUP
290
     0
  0
ENDSEC
  0
SECTION
  2
CLASSES
  0
CLASS
  1
ACDBDICTIONARYWDFLT
  2
AcDbDictionaryWithDefault
  3
ObjectDBX Classes
 90
        0
280
     0
281
     0
  0
CLASS
  1
DICTIONARYVAR
  2
AcDbDictionaryVar
  3
ObjectDBX Classes
 90
        0
280
     0
281
     0
  0
CLASS
  1
ACDBPLACEHOLDER
  2
AcDbPlaceHolder
  3
ObjectDBX Classes
 90
        0
280
     0
281
     0
  0
CLASS
  1
LAYOUT
  2
AcDbLayout
  3
ObjectDBX Classes
 90
        0
280
     0
281
     0
  0
CLASS
  1
MATERIAL
  2
AcDbMaterial
  3
ObjectDBX Classes
 90
     1153
280
     0
281
     0
  0
CLASS
  1
VISUALSTYLE
  2
AcDbVisualStyle
  3
ObjectDBX Classes
 90
     4095
280
     0
281
     0
  0
CLASS
  1
TABLESTYLE
  2
AcDbTableStyle
  3
ObjectDBX Classes
 90
     4095
280
     0
281
     0
  0
CLASS
  1
SORTENTSTABLE
  2
AcDbSortentsTable
  3
ObjectDBX Classes
 90
        0
280
     0
281
     0
  0
ENDSEC
  0
SECTION
  2
TABLES
  0
TABLE
  2
VPORT
  5
8
330
0
100
AcDbSymbolTable
 70
     1
  0
VPORT
  5
1720D
330
8
100
AcDbSymbolTableRecord
100
AcDbViewportTableRecord
  2
*Active
 70
     0
 10
0.0
 20
0.0
 11
1.0
 21
1.0
 12
105.0696606175193
 22
148.4889386347502
 13
0.0
 23
0.0
 14
1.0
 24
1.0
 15
0.0
 25
0.0
 16
0.0
 26
0.0
 36
1.0
 17
0.0
 27
0.0
 37
0.0
 40
332.2530998219629
 41
2.056603773584905
 42
50.0
 43
0.0
 44
0.0
 50
0.0
 51
0.0
 71
     0
 72
   100
 73
     1
 74
     1
 75
     0
 76
     0
 77
     0
 78
     0
281
     0
 65
     1
110
0.0
120
0.0
130
0.0
111
1.0
121
0.0
131
0.0
112
0.0
122
1.0
132
0.0
 79
     0
146
0.0
  0
ENDTAB
  0
TABLE
  2
LTYPE
  5
5
330
0
100
AcDbSymbolTable
 70
    18
  0
LTYPE
  5
13
330
5
100
AcDbSymbolTableRecord
100
AcDbLinetypeTableRecord
  2
ByBlock
 70
     0
  3

 72
    65
 73
     0
 40
0.0
  0
LTYPE
  5
14
330
5
100
AcDbSymbolTableRecord
100
AcDbLinetypeTableRecord
  2
ByLayer
 70
     0
  3

 72
    65
 73
     0
 40
0.0
  0
LTYPE
  5
15
330
5
100
AcDbSymbolTableRecord
100
AcDbLinetypeTableRecord
  2
CONTINUOUS
 70
     0
  3
Solid line
 72
    65
 73
     0
 40
0.0
  0
LTYPE
  5
1730F
330
5
100
AcDbSymbolTableRecord
100
AcDbLinetypeTableRecord
  2
AM_DIN_G_W050
 70
     0
  3
____ . ____ . ____ . ____ . ____ . ____ . ____
 72
    65
 73
     4
 40
13.75
 49
9.75
 74
     0
 49
-1.5
 74
     0
 49
1.0
 74
     0
 49
-1.5
 74
     0
  0
LTYPE
  5
17310
330
5
100
AcDbSymbolTableRecord
100
AcDbLinetypeTableRecord
  2
AM_DIN_K_W050
 70
     0
  3
_____ . . _____ . . _____ . . ____ .. ____
 72
    65
 73
     6
 40
16.25
 49
9.75
 74
     0
 49
-1.5
 74
     0
 49
1.0
 74
     0
 49
-1.5
 74
     0
 49
1.0
 74
     0
 49
-1.5
 74
     0
  0
LTYPE
  5
17316
330
5
100
AcDbSymbolTableRecord
100
AcDbLinetypeTableRecord
  2
ACAD_ISO10W100
 70
     0
  3
ISO Strichpunktlinie __ . __ . __ . __ . __ . _
 72
    65
 73
     4
 40
18.0
 49
12.0
 74
     0
 49
-3.0
 74
     0
 49
0.0
 74
     0
 49
-3.0
 74
     0
  0
ENDTAB
  0
TABLE
  2
LAYER
  5
2
330
0
100
AcDbSymbolTable
 70
    57
  0
LAYER
  5
10
330
2
100
AcDbSymbolTableRecord
100
AcDbLayerTableRecord
  2
0
 70
     0
 62
     7
  6
CONTINUOUS
370
    -3
390
F
  0
LAYER
  5
2E
330
2
100
AcDbSymbolTableRecord
100
AcDbLayerTableRecord
  2
10000_FRONT
 70
     0
 62
     7
  6
CONTINUOUS
370
    -3
390
F
  0
LAYER
  5
2F
330
2
100
AcDbSymbolTableRecord
100
AcDbLayerTableRecord
  2
10100_FRONT_DIM
 70
     0
 62
     7
  6
CONTINUOUS
370
    -3
390
F
  0
LAYER
  5
3B
330
2
100
AcDbSymbolTableRecord
100
AcDbLayerTableRecord
  2
91000_TIP
 70
     0
 62
     7
  6
CONTINUOUS
370
    -3
390
F
  0
LAYER
  5
131D9
330
2
100
AcDbSymbolTableRecord
100
AcDbLayerTableRecord
  2
DEFPOINTS
 70
     0
 62
     7
  6
CONTINUOUS
290
     0
370
    -3
390
F
  0
LAYER
  5
17319
330
2
100
AcDbSymbolTableRecord
100
AcDbLayerTableRecord
  2
90100_FRAME_THICK
 70
     0
 62
     7
  6
CONTINUOUS
370
    50
390
F
  0
LAYER
  5
1731A
330
2
100
AcDbSymbolTableRecord
100
AcDbLayerTableRecord
  2
90000_FRAME_THIN
 70
     0
 62
     7
  6
CONTINUOUS
370
    13
390
F
  0
LAYER
  5
1731B
330
2
100
AcDbSymbolTableRecord
100
AcDbLayerTableRecord
  2
90200_FRAME_SIZE
 70
     0
 62
     3
  6
AM_DIN_K_W050
370
    13
390
F
  0
LAYER
  5
1731C
330
2
100
AcDbSymbolTableRecord
100
AcDbLayerTableRecord
  2
92000_TITLE
 70
     0
 62
     7
  6
CONTINUOUS
370
    13
390
F
  0
LAYER
  5
1731D
330
2
100
AcDbSymbolTableRecord
100
AcDbLayerTableRecord
  2
91100_TIP_SYM
 70
     0
 62
     7
  6
AM_DIN_G_W050
370
    25
390
F
  0
LAYER
  5
1731E
330
2
100
AcDbSymbolTableRecord
100
AcDbLayerTableRecord
  2
91200_TIP_SYMB
 70
     0
 62
     7
  6
CONTINUOUS
370
    -3
390
F
  0
LAYER
  5
1732D
330
2
100
AcDbSymbolTableRecord
100
AcDbLayerTableRecord
  2
10200_FRONT_SYM
 70
     0
 62
     7
  6
ACAD_ISO10W100
370
    13
390
F
  0
ENDTAB
  0
TABLE
  2
STYLE
  5
3
330
0
100
AcDbSymbolTable
 70
     4
  0
STYLE
  5
11
330
3
100
AcDbSymbolTableRecord
100
AcDbTextStyleTableRecord
  2
Standard
 70
     0
 40
0.0
 41
1.0
 50
0.0
 71
     0
 42
0.2
  3
txt
  4

  0
ENDTAB
  0
TABLE
  2
VIEW
  5
6
330
0
100
AcDbSymbolTable
 70
     0
  0
ENDTAB
  0
TABLE
  2
UCS
  5
7
330
0
100
AcDbSymbolTable
 70
     0
  0
ENDTAB
  0
TABLE
  2
APPID
  5
9
330
0
100
AcDbSymbolTable
 70
    18
  0
APPID
  5
12
330
9
100
AcDbSymbolTableRecord
100
AcDbRegAppTableRecord
  2
ACAD
 70
     0
  0
APPID
  5
17234
330
9
100
AcDbSymbolTableRecord
100
AcDbRegAppTableRecord
  2
ACAD_EXEMPT_FROM_CAD_STANDARDS
 70
     0
  0
APPID
  5
17359
330
9
100
AcDbSymbolTableRecord
100
AcDbRegAppTableRecord
  2
MCAD_NO_VIS
 70
     0
  0
APPID
  5
1735A
330
9
100
AcDbSymbolTableRecord
100
AcDbRegAppTableRecord
  2
ACAD_TEMP_GRAPHIC
 70
     0
  0
APPID
  5
1735B
330
9
100
AcDbSymbolTableRecord
100
AcDbRegAppTableRecord
  2
AD_DRAW
 70
     0
  0
APPID
  5
1735C
330
9
100
AcDbSymbolTableRecord
100
AcDbRegAppTableRecord
  2
ACATTRIBSERVICES
 70
     0
  0
APPID
  5
1735D
330
9
100
AcDbSymbolTableRecord
100
AcDbRegAppTableRecord
  2
GENIUS_GENDIM_13
 70
     0
  0
APPID
  5
1735E
330
9
100
AcDbSymbolTableRecord
100
AcDbRegAppTableRecord
  2
GENIUS_GENDTOL_13
 70
     0
  0
APPID
  5
1735F
330
9
100
AcDbSymbolTableRecord
100
AcDbRegAppTableRecord
  2
GENIUS_GE3DTOL_13
 70
     0
  0
APPID
  5
17360
330
9
100
AcDbSymbolTableRecord
100
AcDbRegAppTableRecord
  2
ASURF_PCURVE_APPNAME
 70
     0
  0
APPID
  5
17361
330
9
100
AcDbSymbolTableRecord
100
AcDbRegAppTableRecord
  2
AMG_3D2D_5.0
 70
     0
  0
APPID
  5
17362
330
9
100
AcDbSymbolTableRecord
100
AcDbRegAppTableRecord
  2
DESIGNERASSEMBLIES
 70
     0
  0
APPID
  5
17363
330
9
100
AcDbSymbolTableRecord
100
AcDbRegAppTableRecord
  2
ACADM_DIM_EDIT
 70
     0
  0
APPID
  5
17364
330
9
100
AcDbSymbolTableRecord
100
AcDbRegAppTableRecord
  2
AMDT_DM_ADJ
 70
     0
  0
APPID
  5
17365
330
9
100
AcDbSymbolTableRecord
100
AcDbRegAppTableRecord
  2
GENIUS_GENREC_14
 70
     0
  0
APPID
  5
17366
330
9
100
AcDbSymbolTableRecord
100
AcDbRegAppTableRecord
  2
GENIUS_GENODEF_13
 70
     0
  0
APPID
  5
17367
330
9
100
AcDbSymbolTableRecord
100
AcDbRegAppTableRecord
  2
GENIUS_GENOBJ-N-REC_13
 70
     0
  0
APPID
  5
17368
330
9
100
AcDbSymbolTableRecord
100
AcDbRegAppTableRecord
  2
DCO15
 70
     0
  0
ENDTAB
  0
TABLE
  2
DIMSTYLE
  5
A
330
0
100
AcDbSymbolTable
 70
    13
100
AcDbDimStyleTable
 71
     2
340
17357
340
13123
  0
DIMSTYLE
105
13123
330
A
100
AcDbSymbolTableRecord
100
AcDbDimStyleTableRecord
  2
Standard
 70
     0
340
11
  0
DIMSTYLE
105
17357
102
{ACAD_REACTORS
330
1749C
330
1749B
330
1749A
102
}
330
A
100
AcDbSymbolTableRecord
100
AcDbDimStyleTableRecord
  2
DIN 3.5
 70
     0
 40
0.0
 41
3.5
 42
0.0
 43
3.75
 44
2.0
 73
     0
 74
     0
 77
     1
 78
     8
 79
     2
140
3.5
141
3.5
143
0.0394
147
1.0
171
     4
172
     1
176
     7
177
     7
178
     7
179
     1
271
     1
272
     1
273
     8
274
     4
277
     6
285
     8
340
11
371
    13
372
    13
  0
ENDTAB
  0
TABLE
  2
BLOCK_RECORD
  5
1
330
0
100
AcDbSymbolTable
 70
    18
  0
BLOCK_RECORD
  5
20
102
{ACAD_XDICTIONARY
360
17231
102
}
330
1
100
AcDbSymbolTableRecord
100
AcDbBlockTableRecord
  2
*Model_Space
340
23
  0
BLOCK_RECORD
  5
1C
330
1
100
AcDbSymbolTableRecord
100
AcDbBlockTableRecord
  2
*Paper_Space
340
1F
  0
BLOCK_RECORD
  5
17258
330
1
100
AcDbSymbolTableRecord
100
AcDbBlockTableRecord
  2
Title_A4P
340
0
310
2800000020000000200000000100080000000000000400000000000000000000000000000000000000000000000080000080000000808000800000008000800080800000C0C0C000C0DCC000F0CAA6000020400000206000002080000020A0000020C0000020E00000400000004020000040400000406000004080000040A0
310
000040C0000040E00000600000006020000060400000606000006080000060A0000060C0000060E00000800000008020000080400000806000008080000080A0000080C0000080E00000A0000000A0200000A0400000A0600000A0800000A0A00000A0C00000A0E00000C0000000C0200000C0400000C0600000C0800000C0
310
A00000C0C00000C0E00000E0000000E0200000E0400000E0600000E0800000E0A00000E0C00000E0E00040000000400020004000400040006000400080004000A0004000C0004000E00040200000402020004020400040206000402080004020A0004020C0004020E000404000004040200040404000404060004040800040
310
40A0004040C0004040E00040600000406020004060400040606000406080004060A0004060C0004060E00040800000408020004080400040806000408080004080A0004080C0004080E00040A0000040A0200040A0400040A0600040A0800040A0A00040A0C00040A0E00040C0000040C0200040C0400040C0600040C08000
310
40C0A00040C0C00040C0E00040E0000040E0200040E0400040E0600040E0800040E0A00040E0C00040E0E00080000000800020008000400080006000800080008000A0008000C0008000E00080200000802020008020400080206000802080008020A0008020C0008020E00080400000804020008040400080406000804080
310
008040A0008040C0008040E00080600000806020008060400080606000806080008060A0008060C0008060E00080800000808020008080400080806000808080008080A0008080C0008080E00080A0000080A0200080A0400080A0600080A0800080A0A00080A0C00080A0E00080C0000080C0200080C0400080C0600080C0
310
800080C0A00080C0C00080C0E00080E0000080E0200080E0400080E0600080E0800080E0A00080E0C00080E0E000C0000000C0002000C0004000C0006000C0008000C000A000C000C000C000E000C0200000C0202000C0204000C0206000C0208000C020A000C020C000C020E000C0400000C0402000C0404000C0406000C0
310
408000C040A000C040C000C040E000C0600000C0602000C0604000C0606000C0608000C060A000C060C000C060E000C0800000C0802000C0804000C0806000C0808000C080A000C080C000C080E000C0A00000C0A02000C0A04000C0A06000C0A08000C0A0A000C0A0C000C0A0E000C0C00000C0C02000C0C04000C0C06000
310
C0C08000C0C0A000F0FBFF00A4A0A000808080000000FF0000FF000000FFFF00FF000000FF00FF00FFFF0000FFFFFF0000000000000000000000000000000000000000000000000000000000000000000000000000000000000000000000000000000000000000000000000000000000000000000000000000000000000000
310
00000000000000000000000000000000000000000000000000000000000000000000000000000000000000000000000000000000000000000000000000000000000000000000000000000000000000000000000000000000000000000000000000000000000000000000000000000000000000000000000000000000000000
310
00000000000000000000000000000000000000000000000000000000000000000000000000000000000000000000000000000000000000000000000000000000000000000000000000000000000000000000000000000000000000000000000000000000000000000000000000000000000000000000000000000000000000
310
000000000000000000000000000000000000000000000000000000000000000000000000000000000000000000000000000000000000000000000000000000000000000000000000000000000000000000000000000000000000FFFFFFFFFFFFFFFFFFFFFFFFFFFFFFFFFFFFFFFFFFFFFFFF000000FFFFFFFFFFFFFFFFFFFF
310
FFFFFFFFFFFFFFFFFFFFFFFFFFFFFFFFFFFFFF0000FFFFFFFFFFFFFFFFFFFFFFFFFFFFFF00000000FFFFFFFFFFFFFF000000FF00000000FFFFFF00FFFFFFFFFFFFFFFFFFFFFFFFFFFFFFFFFFFFFFFFFFFFFFFF0000000000000000FFFFFFFFFFFFFFFFFFFFFFFFFFFFFFFF00000000000000000000000000000000FFFFFF00
310
0000FFFFFFFFFFFFFF00FF0000000000000000000000000000000000000000000000000000000000000000000000000000000000000000000000000000000000000000000000000000000000000000000000000000000000000000000000000000000000000000000000000000000000000000000000000000000000000000
310
00000000000000000000000000000000000000000000000000000000000000000000000000000000000000000000000000000000000000000000000000000000000000000000000000000000000000000000000000000000000000000000000000000000000000000000000000000000000000000000000000000000000000
310
00000000000000000000000000000000000000000000000000000000000000000000000000000000000000000000000000000000000000000000000000000000000000000000000000000000000000000000000000000000000000000000000000000000000000000000000000000000000000000000000000000000000000
310
0000000000000000000000000000000000000000000000000000000000000000000000000000000000000000000000000000000000000000
102
{BLKREFS
331
1739A
331
173F7
102
}
1001
ACAD
1000
DesignCenter Data
1002
{
1070
     1
1070
     4
1002
}
  0
BLOCK_RECORD
  5
174B1
330
1
100
AcDbSymbolTableRecord
100
AcDbBlockTableRecord
  2
*D13
340
0
  0
BLOCK_RECORD
  5
174BE
330
1
100
AcDbSymbolTableRecord
100
AcDbBlockTableRecord
  2
*D14
340
0
  0
BLOCK_RECORD
  5
174CB
330
1
100
AcDbSymbolTableRecord
100
AcDbBlockTableRecord
  2
*D15
340
0
  0
ENDTAB
  0
ENDSEC
  0
SECTION
  2
BLOCKS
  0
BLOCK
  5
21
330
20
100
AcDbEntity
  8
0
100
AcDbBlockBegin
  2
*Model_Space
 70
     0
 10
0.0
 20
0.0
 30
0.0
  3
*Model_Space
  1

  0
ENDBLK
  5
22
330
20
100
AcDbEntity
  8
0
100
AcDbBlockEnd
  0
BLOCK
  5
1D
330
1C
100
AcDbEntity
 67
     1
  8
0
100
AcDbBlockBegin
  2
*Paper_Space
 70
     0
 10
0.0
 20
0.0
 30
0.0
  3
*Paper_Space
  1

  0
ENDBLK
  5
1E
330
1C
100
AcDbEntity
 67
     1
  8
0
100
AcDbBlockEnd
  0
BLOCK
  5
17259
330
17258
100
AcDbEntity
  8
0
100
AcDbBlockBegin
  2
Title_A4P
 70
     2
 10
0.0
 20
0.0
 30
0.0
  3
Title_A4P
  1

  4
Schriftfeld A4 hoch
  0
MTEXT
  5
1725A
330
17258
100
AcDbEntity
  8
92000_TITLE
100
AcDbMText
 10
-110.0
 20
12.0
 30
0.0
 40
3.5
 41
40.0
 71
     5
 72
     5
  1
{\fSiemens Logo|b0|i0|c0|p2;s}
 73
     1
 44
1.0
1001
ACAD
1000
MTEXTBEGIN
1070
    73
1070
     1
1070
    44
1040
1.0
1070
    74
1070
     0
1000
MTEXTEND
  0
LINE
  5
1725B
330
17258
100
AcDbEntity
  8
92000_TITLE
100
AcDbLine
 10
0.0
 20
6.0
 30
0.0
 11
-135.0
 21
6.0
 31
0.0
1001
GENIUS_GENREC_14
1002
{
1000
PYDIR
1011
-135.0
1021
18.0
1031
0.0
1002
}
1002
{
1000
PXDIR
1011
0.0
1021
0.0
1031
0.0
1002
}
1002
{
1000
PORI
1011
-135.0
1021
0.0
1031
0.0
1002
}
1002
{
1000
PINS
1011
-135.0
1021
0.0
1031
0.0
1002
}
1002
{
1000
HVAL
1000
18
1002
}
1002
{
1000
H
1070
     2
1002
}
1002
{
1000
WVAL
1000
135
1002
}
1002
{
1000
W
1070
     2
1002
}
1002
{
1000
C
1070
     1
1002
}
1001
GENIUS_GENOBJ-N-REC_13
1002
{
1000
OWNER
1000
GEN
1002
}
1001
GENIUS_GENODEF_13
1002
{
1000
HIER
1070
     0
1002
}
1002
{
1000
MANEDIT
1070
     0
1002
}
1002
{
1000
NOSEL
1070
     0
1002
}
1002
{
1000
BEHIND
1070
     0
1002
}
1002
{
1000
OTHER
1070
     0
1002
}
1002
{
1000
REACTOR
1002
}
  0
LINE
  5
1725C
330
17258
100
AcDbEntity
  8
92000_TITLE
100
AcDbLine
 10
0.0
 20
18.0
 30
0.0
 11
-135.0
 21
18.0
 31
0.0
1001
GENIUS_GENREC_14
1002
{
1000
PYDIR
1011
-135.0
1021
18.0
1031
0.0
1002
}
1002
{
1000
PXDIR
1011
0.0
1021
0.0
1031
0.0
1002
}
1002
{
1000
PORI
1011
-135.0
1021
0.0
1031
0.0
1002
}
1002
{
1000
PINS
1011
-135.0
1021
0.0
1031
0.0
1002
}
1002
{
1000
HVAL
1000
18
1002
}
1002
{
1000
H
1070
     2
1002
}
1002
{
1000
WVAL
1000
135
1002
}
1002
{
1000
W
1070
     2
1002
}
1002
{
1000
C
1070
     1
1002
}
1001
GENIUS_GENOBJ-N-REC_13
1002
{
1000
OWNER
1000
GEN
1002
}
1001
GENIUS_GENODEF_13
1002
{
1000
HIER
1070
     0
1002
}
1002
{
1000
MANEDIT
1070
     0
1002
}
1002
{
1000
NOSEL
1070
     0
1002
}
1002
{
1000
BEHIND
1070
     0
1002
}
1002
{
1000
OTHER
1070
     0
1002
}
1002
{
1000
REACTOR
1002
}
  0
LINE
  5
1725D
330
17258
100
AcDbEntity
  8
92000_TITLE
100
AcDbLine
 10
-135.0
 20
0.0
 30
0.0
 11
0.0
 21
0.0
 31
0.0
1001
GENIUS_GENREC_14
1002
{
1000
PYDIR
1011
-135.0
1021
18.0
1031
0.0
1002
}
1002
{
1000
PXDIR
1011
0.0
1021
0.0
1031
0.0
1002
}
1002
{
1000
PORI
1011
-135.0
1021
0.0
1031
0.0
1002
}
1002
{
1000
PINS
1011
-135.0
1021
0.0
1031
0.0
1002
}
1002
{
1000
HVAL
1000
18
1002
}
1002
{
1000
H
1070
     2
1002
}
1002
{
1000
WVAL
1000
135
1002
}
1002
{
1000
W
1070
     2
1002
}
1002
{
1000
C
1070
     1
1002
}
1001
GENIUS_GENOBJ-N-REC_13
1002
{
1000
OWNER
1000
GEN
1002
}
1001
GENIUS_GENODEF_13
1002
{
1000
HIER
1070
     0
1002
}
1002
{
1000
MANEDIT
1070
     0
1002
}
1002
{
1000
NOSEL
1070
     0
1002
}
1002
{
1000
BEHIND
1070
     0
1002
}
1002
{
1000
OTHER
1070
     0
1002
}
1002
{
1000
REACTOR
1002
}
  0
TEXT
  5
1725E
330
17258
100
AcDbEntity
  8
91000_TIP
  6
Continuous
 62
     7
100
AcDbText
 10
-134.9906185411919
 20
23.07158622517954
 30
0.0
 40
2.2
  1
Alle Bemassungswerte sind in Millimeter (mm) angegeben.
 41
0.8250311332499995
 72
     5
 11
-46.65728520789184
 21
23.07158622517954
 31
0.0
100
AcDbText
  0
TEXT
  5
1725F
330
17258
100
AcDbEntity
  8
91000_TIP
  6
Continuous
 62
     7
100
AcDbText
 10
-134.9906185411919
 20
19.9425638213338
 30
0.0
 40
2.2
  1
All dimensions are in millimeters (mm)
 41
0.9608678382598306
 72
     5
 11
-68.05015914242381
 21
19.9425638213338
 31
0.0
100
AcDbText
  0
LINE
  5
17260
330
17258
100
AcDbEntity
  8
92000_TITLE
100
AcDbLine
 10
-135.0
 20
18.0
 30
0.0
 11
-135.0
 21
0.0
 31
0.0
1001
GENIUS_GENREC_14
1002
{
1000
PYDIR
1011
-135.0
1021
18.0
1031
0.0
1002
}
1002
{
1000
PXDIR
1011
0.0
1021
0.0
1031
0.0
1002
}
1002
{
1000
PORI
1011
-135.0
1021
0.0
1031
0.0
1002
}
1002
{
1000
PINS
1011
-135.0
1021
0.0
1031
0.0
1002
}
1002
{
1000
HVAL
1000
18
1002
}
1002
{
1000
H
1070
     2
1002
}
1002
{
1000
WVAL
1000
135
1002
}
1002
{
1000
W
1070
     2
1002
}
1002
{
1000
C
1070
     1
1002
}
1001
GENIUS_GENOBJ-N-REC_13
1002
{
1000
OWNER
1000
GEN
1002
}
1001
GENIUS_GENODEF_13
1002
{
1000
HIER
1070
     0
1002
}
1002
{
1000
MANEDIT
1070
     0
1002
}
1002
{
1000
NOSEL
1070
     0
1002
}
1002
{
1000
BEHIND
1070
     0
1002
}
1002
{
1000
OTHER
1070
     0
1002
}
1002
{
1000
REACTOR
1002
}
  0
LINE
  5
17261
330
17258
100
AcDbEntity
  8
91100_TIP_SYM
 48
0.5
100
AcDbLine
 10
-147.5
 20
16.0
 30
0.0
 11
-147.5
 21
2.0
 31
0.0
  0
LINE
  5
17262
330
17258
100
AcDbEntity
  8
91100_TIP_SYM
 48
0.5
100
AcDbLine
 10
-169.5
 20
9.0
 30
0.0
 11
-140.5
 21
9.0
 31
0.0
  0
LINE
  5
17263
330
17258
100
AcDbEntity
  8
91200_TIP_SYMB
100
AcDbLine
 10
-167.5
 20
12.5
 30
0.0
 11
-155.0
 21
14.0
 31
0.0
  0
LINE
  5
17264
330
17258
100
AcDbEntity
  8
91200_TIP_SYMB
100
AcDbLine
 10
-155.0
 20
4.0
 30
0.0
 11
-167.5
 21
5.5
 31
0.0
  0
LINE
  5
17265
330
17258
100
AcDbEntity
  8
91200_TIP_SYMB
100
AcDbLine
 10
-167.5
 20
5.5
 30
0.0
 11
-167.5
 21
12.5
 31
0.0
  0
CIRCLE
  5
17266
330
17258
100
AcDbEntity
  8
91200_TIP_SYMB
100
AcDbCircle
 10
-147.5
 20
9.0
 30
0.0
 40
2.0
  0
LINE
  5
17267
330
17258
100
AcDbEntity
  8
91200_TIP_SYMB
100
AcDbLine
 10
-155.0
 20
14.0
 30
0.0
 11
-155.0
 21
4.0
 31
0.0
  0
CIRCLE
  5
17268
330
17258
100
AcDbEntity
  8
91200_TIP_SYMB
100
AcDbCircle
 10
-147.5
 20
9.0
 30
0.0
 40
5.0
  0
ATTDEF
  5
17269
330
17258
100
AcDbEntity
  8
92000_TITLE
100
AcDbText
 10
-116.9999999999995
 20
1.75
 30
0.0
 40
2.5
  1

 72
     1
 11
-116.9999999999995
 21
3.0
 31
0.0
100
AcDbAttributeDefinition
  3
Datum
  2
DATUM
 70
     0
 74
     2
  0
MTEXT
  5
1726A
330
17258
100
AcDbEntity
  8
92000_TITLE
100
AcDbMText
 10
-127.75
 20
3.0
 30
0.0
 40
2.5
 41
11.0
 71
     5
 72
     5
  1
Date:
 73
     1
 44
1.0
1001
ACAD
1000
MTEXTBEGIN
1070
    73
1070
     1
1070
    44
1040
1.0
1070
    74
1070
     0
1000
MTEXTEND
  0
MTEXT
  5
1726B
330
17258
100
AcDbEntity
  8
92000_TITLE
100
AcDbMText
 10
-102.75
 20
3.0
 30
0.0
 40
2.5
 41
11.0
 71
     5
 72
     5
  1
Name:
 73
     1
 44
1.0
1001
ACAD
1000
MTEXTBEGIN
1070
    73
1070
     1
1070
    44
1040
1.0
1070
    74
1070
     0
1000
MTEXTEND
  0
LINE
  5
1726C
330
17258
100
AcDbEntity
  8
92000_TITLE
100
AcDbLine
 10
-110.0
 20
6.0
 30
0.0
 11
-110.0
 21
0.0
 31
0.0
1001
GENIUS_GENREC_14
1002
{
1000
PYDIR
1011
-135.0
1021
18.0
1031
0.0
1002
}
1002
{
1000
PXDIR
1011
0.0
1021
0.0
1031
0.0
1002
}
1002
{
1000
PORI
1011
-135.0
1021
0.0
1031
0.0
1002
}
1002
{
1000
PINS
1011
-135.0
1021
0.0
1031
0.0
1002
}
1002
{
1000
HVAL
1000
18
1002
}
1002
{
1000
H
1070
     2
1002
}
1002
{
1000
WVAL
1000
135
1002
}
1002
{
1000
W
1070
     2
1002
}
1002
{
1000
C
1070
     1
1002
}
1001
GENIUS_GENOBJ-N-REC_13
1002
{
1000
OWNER
1000
GEN
1002
}
1001
GENIUS_GENODEF_13
1002
{
1000
HIER
1070
     0
1002
}
1002
{
1000
MANEDIT
1070
     0
1002
}
1002
{
1000
NOSEL
1070
     0
1002
}
1002
{
1000
BEHIND
1070
     0
1002
}
1002
{
1000
OTHER
1070
     0
1002
}
1002
{
1000
REACTOR
1002
}
  0
MTEXT
  5
1726D
330
17258
100
AcDbEntity
  8
92000_TITLE
100
AcDbMText
 10
-21.25
 20
3.0
 30
0.0
 40
2.5
 41
42.5
 71
     5
 72
     5
  1
Massstab/Scale: 1:1
 73
     1
 44
1.0
1001
ACAD
1000
MTEXTBEGIN
1070
    73
1070
     1
1070
    44
1040
1.0
1070
    74
1070
     0
1000
MTEXTEND
  0
LINE
  5
1726E
330
17258
100
AcDbEntity
  8
92000_TITLE
100
AcDbLine
 10
-85.0
 20
18.0
 30
0.0
 11
-85.0
 21
0.0
 31
0.0
1001
GENIUS_GENREC_14
1002
{
1000
PYDIR
1011
-135.0
1021
18.0
1031
0.0
1002
}
1002
{
1000
PXDIR
1011
0.0
1021
0.0
1031
0.0
1002
}
1002
{
1000
PORI
1011
-135.0
1021
0.0
1031
0.0
1002
}
1002
{
1000
PINS
1011
-135.0
1021
0.0
1031
0.0
1002
}
1002
{
1000
HVAL
1000
18
1002
}
1002
{
1000
H
1070
     2
1002
}
1002
{
1000
WVAL
1000
135
1002
}
1002
{
1000
W
1070
     2
1002
}
1002
{
1000
C
1070
     1
1002
}
1001
GENIUS_GENOBJ-N-REC_13
1002
{
1000
OWNER
1000
GEN
1002
}
1001
GENIUS_GENODEF_13
1002
{
1000
HIER
1070
     0
1002
}
1002
{
1000
MANEDIT
1070
     0
1002
}
1002
{
1000
NOSEL
1070
     0
1002
}
1002
{
1000
BEHIND
1070
     0
1002
}
1002
{
1000
OTHER
1070
     0
1002
}
1002
{
1000
REACTOR
1002
}
  0
MTEXT
  5
1726F
330
17258
100
AcDbEntity
  8
92000_TITLE
100
AcDbMText
 10
-63.75
 20
3.0
 30
0.0
 40
2.5
 41
42.5
 71
     5
 72
     5
  1
Format/Size: DIN A4
 73
     1
 44
1.0
1001
ACAD
1000
MTEXTBEGIN
1070
    73
1070
     1
1070
    44
1040
1.0
1070
    74
1070
     0
1000
MTEXTEND
  0
ATTDEF
  5
17270
330
17258
100
AcDbEntity
  8
92000_TITLE
100
AcDbText
 10
-42.49999999999954
 20
12.25000000000011
 30
0.0
 40
3.5
  1

 72
     1
 11
-42.49999999999954
 21
14.00000000000011
 31
0.0
100
AcDbAttributeDefinition
  3
Z-Name
  2
ZEICHNUNGSNAME
 70
     0
 74
     2
  0
ATTDEF
  5
17271
330
17258
100
AcDbEntity
  8
92000_TITLE
100
AcDbText
 10
-91.99999999999954
 20
1.75
 30
0.0
 40
2.5
  1

 72
     1
 11
-91.99999999999954
 21
3.0
 31
0.0
100
AcDbAttributeDefinition
  3
Name
  2
NAME
 70
     0
 74
     2
  0
ATTDEF
  5
17272
330
17258
100
AcDbEntity
  8
92000_TITLE
100
AcDbText
 10
-42.49999999999954
 20
6.750000000000113
 30
0.0
 40
2.5
  1

 72
     1
 11
-42.49999999999954
 21
8.000000000000113
 31
0.0
100
AcDbAttributeDefinition
  3
A-Name
  2
ARTIKELNAME
 70
     0
 74
     2
  0
LINE
  5
17273
330
17258
100
AcDbEntity
  8
92000_TITLE
100
AcDbLine
 10
-42.5
 20
0.0
 30
0.0
 11
-42.5
 21
6.0
 31
0.0
1001
GENIUS_GENREC_14
1002
{
1000
PYDIR
1011
-135.0
1021
18.0
1031
0.0
1002
}
1002
{
1000
PXDIR
1011
0.0
1021
0.0
1031
0.0
1002
}
1002
{
1000
PORI
1011
-135.0
1021
0.0
1031
0.0
1002
}
1002
{
1000
PINS
1011
-135.0
1021
0.0
1031
0.0
1002
}
1002
{
1000
HVAL
1000
18
1002
}
1002
{
1000
H
1070
     2
1002
}
1002
{
1000
WVAL
1000
135
1002
}
1002
{
1000
W
1070
     2
1002
}
1002
{
1000
C
1070
     1
1002
}
1001
GENIUS_GENOBJ-N-REC_13
1002
{
1000
OWNER
1000
GEN
1002
}
1001
GENIUS_GENODEF_13
1002
{
1000
HIER
1070
     0
1002
}
1002
{
1000
MANEDIT
1070
     0
1002
}
1002
{
1000
NOSEL
1070
     0
1002
}
1002
{
1000
BEHIND
1070
     0
1002
}
1002
{
1000
OTHER
1070
     0
1002
}
1002
{
1000
REACTOR
1002
}
  0
LINE
  5
17274
330
17258
100
AcDbEntity
  8
92000_TITLE
100
AcDbLine
 10
0.0
 20
0.0
 30
0.0
 11
0.0
 21
18.0
 31
0.0
1001
GENIUS_GENREC_14
1002
{
1000
PYDIR
1011
-135.0
1021
18.0
1031
0.0
1002
}
1002
{
1000
PXDIR
1011
0.0
1021
0.0
1031
0.0
1002
}
1002
{
1000
PORI
1011
-135.0
1021
0.0
1031
0.0
1002
}
1002
{
1000
PINS
1011
-135.0
1021
0.0
1031
0.0
1002
}
1002
{
1000
HVAL
1000
18
1002
}
1002
{
1000
H
1070
     2
1002
}
1002
{
1000
WVAL
1000
135
1002
}
1002
{
1000
W
1070
     2
1002
}
1002
{
1000
C
1070
     1
1002
}
1001
GENIUS_GENOBJ-N-REC_13
1002
{
1000
OWNER
1000
GEN
1002
}
1001
GENIUS_GENODEF_13
1002
{
1000
HIER
1070
     0
1002
}
1002
{
1000
MANEDIT
1070
     0
1002
}
1002
{
1000
NOSEL
1070
     0
1002
}
1002
{
1000
BEHIND
1070
     0
1002
}
1002
{
1000
OTHER
1070
     0
1002
}
1002
{
1000
REACTOR
1002
}
  0
ENDBLK
  5
17275
330
17258
100
AcDbEntity
  8
0
100
AcDbBlockEnd
  0
BLOCK
  5
174BC
330
174B1
100
AcDbEntity
  8
0
100
AcDbBlockBegin
  2
*D13
 70
     1
 10
0.0
 20
0.0
 30
0.0
  3
*D13
  1

  0
LINE
  5
17618
330
174B1
100
AcDbEntity
  8
10100_FRONT_DIM
  6
Continuous
 62
     7
370
    13
100
AcDbLine
 10
118.2162555700852
 20
136.795867226597
 30
0.0
 11
118.2162555700852
 21
153.6344332265971
 31
0.0
  0
LINE
  5
17619
330
174B1
100
AcDbEntity
  8
10100_FRONT_DIM
  6
Continuous
 62
     7
370
    13
100
AcDbLine
 10
81.71625557008496
 20
136.795867226597
 30
0.0
 11
81.71625557008496
 21
153.6344332265971
 31
0.0
  0
LINE
  5
1761A
330
174B1
100
AcDbEntity
  8
10100_FRONT_DIM
  6
Continuous
 62
     7
370
    13
100
AcDbLine
 10
114.7162555700852
 20
151.6344332265971
 30
0.0
 11
85.21625557008496
 21
151.6344332265971
 31
0.0
  0
SOLID
  5
1761B
330
174B1
100
AcDbEntity
  8
10100_FRONT_DIM
  6
Continuous
 62
     7
370
    15
100
AcDbTrace
 10
114.7162555700852
 20
152.2177665599305
 30
0.0
 11
114.7162555700852
 21
151.0510998932638
 31
0.0
 12
118.2162555700852
 22
151.6344332265971
 32
0.0
 13
118.2162555700852
 23
151.6344332265971
 33
0.0
  0
SOLID
  5
1761C
330
174B1
100
AcDbEntity
  8
10100_FRONT_DIM
  6
Continuous
 62
     7
370
    15
100
AcDbTrace
 10
85.21625557008496
 20
152.2177665599305
 30
0.0
 11
85.21625557008496
 21
151.0510998932638
 31
0.0
 12
81.71625557008496
 22
151.6344332265971
 32
0.0
 13
81.71625557008496
 23
151.6344332265971
 33
0.0
  0
MTEXT
  5
1761D
330
174B1
100
AcDbEntity
  8
10100_FRONT_DIM
  6
Continuous
 62
     7
370
    18
100
AcDbMText
 10
99.9662555700852
 20
154.6760998932638
 30
0.0
 40
3.5
 41
0.0
 71
     5
 72
     1
  1
\A1;36,5
 73
     1
 44
1.0
1001
ACAD
1000
MTEXTBEGIN
1070
    73
1070
     1
1070
    44
1040
1.0
1070
    74
1070
     0
1000
MTEXTEND
  0
POINT
  5
1761E
330
174B1
100
AcDbEntity
  8
DEFPOINTS
  6
Continuous
 62
     0
370
    15
100
AcDbPoint
 10
118.2162555700852
 20
136.795867226597
 30
0.0
  0
POINT
  5
1761F
330
174B1
100
AcDbEntity
  8
DEFPOINTS
  6
Continuous
 62
     0
370
    15
100
AcDbPoint
 10
81.71625557008496
 20
136.795867226597
 30
0.0
  0
POINT
  5
17620
330
174B1
100
AcDbEntity
  8
DEFPOINTS
  6
Continuous
 62
     0
370
    15
100
AcDbPoint
 10
81.71625557008496
 20
151.6344332265971
 30
0.0
  0
ENDBLK
  5
174BD
330
174B1
100
AcDbEntity
  8
0
100
AcDbBlockEnd
  0
BLOCK
  5
174C9
330
174BE
100
AcDbEntity
  8
0
100
AcDbBlockBegin
  2
*D14
 70
     1
 10
0.0
 20
0.0
 30
0.0
  3
*D14
  1

  0
LINE
  5
17621
330
174BE
100
AcDbEntity
  8
10100_FRONT_DIM
  6
Continuous
 62
     7
370
    13
100
AcDbLine
 10
101.5437055700852
 20
117.1958672065971
 30
0.0
 11
126.1616255700849
 21
117.1958672065971
 31
0.0
  0
LINE
  5
17622
330
174BE
100
AcDbEntity
  8
10100_FRONT_DIM
  6
Continuous
 62
     7
370
    13
100
AcDbLine
 10
117.5437055700852
 20
137.295867226597
 30
0.0
 11
126.1616255700849
 21
137.295867226597
 31
0.0
  0
LINE
  5
17623
330
174BE
100
AcDbEntity
  8
10100_FRONT_DIM
  6
Continuous
 62
     7
370
    13
100
AcDbLine
 10
124.1616255700849
 20
120.6958672065971
 30
0.0
 11
124.1616255700849
 21
133.795867226597
 31
0.0
  0
SOLID
  5
17624
330
174BE
100
AcDbEntity
  8
10100_FRONT_DIM
  6
Continuous
 62
     7
370
    15
100
AcDbTrace
 10
123.5782922367515
 20
120.6958672065971
 30
0.0
 11
124.7449589034182
 21
120.6958672065971
 31
0.0
 12
124.1616255700849
 22
117.1958672065971
 32
0.0
 13
124.1616255700849
 23
117.1958672065971
 33
0.0
  0
SOLID
  5
17625
330
174BE
100
AcDbEntity
  8
10100_FRONT_DIM
  6
Continuous
 62
     7
370
    15
100
AcDbTrace
 10
123.5782922367515
 20
133.795867226597
 30
0.0
 11
124.7449589034182
 21
133.795867226597
 31
0.0
 12
124.1616255700849
 22
137.295867226597
 32
0.0
 13
124.1616255700849
 23
137.295867226597
 33
0.0
  0
MTEXT
  5
17626
330
174BE
100
AcDbEntity
  8
10100_FRONT_DIM
  6
Continuous
 62
     7
370
    18
100
AcDbMText
 10
121.4116255700849
 20
127.554773226597
 30
0.0
 40
3.5
 41
0.0
 71
     5
 72
     1
  1
\A1;20
 11
0.0000000000000001
 21
1.0
 31
0.0
 73
     1
 44
1.0
1001
ACAD
1000
MTEXTBEGIN
1070
    73
1070
     1
1070
    44
1040
1.0
1070
    74
1070
     0
1000
MTEXTEND
  0
POINT
  5
17627
330
174BE
100
AcDbEntity
  8
DEFPOINTS
  6
Continuous
 62
     0
370
    15
100
AcDbPoint
 10
101.5437055700852
 20
117.1958672065971
 30
0.0
  0
POINT
  5
17628
330
174BE
100
AcDbEntity
  8
DEFPOINTS
  6
Continuous
 62
     0
370
    15
100
AcDbPoint
 10
117.5437055700852
 20
137.295867226597
 30
0.0
  0
POINT
  5
17629
330
174BE
100
AcDbEntity
  8
DEFPOINTS
  6
Continuous
 62
     0
370
    15
100
AcDbPoint
 10
124.1616255700849
 20
137.295867226597
 30
0.0
  0
ENDBLK
  5
174CA
330
174BE
100
AcDbEntity
  8
0
100
AcDbBlockEnd
  0
BLOCK
  5
174D6
330
174CB
100
AcDbEntity
  8
0
100
AcDbBlockBegin
  2
*D15
 70
     1
 10
0.0
 20
0.0
 30
0.0
  3
*D15
  1

  0
LINE
  5
1762A
330
174CB
100
AcDbEntity
  8
10100_FRONT_DIM
  6
Continuous
 62
     7
370
    13
100
AcDbLine
 10
101.5437055700852
 20
117.1958672065971
 30
0.0
 11
132.3024755700851
 21
117.1958672065971
 31
0.0
  0
LINE
  5
1762B
330
174CB
100
AcDbEntity
  8
10100_FRONT_DIM
  6
Continuous
 62
     7
370
    13
100
AcDbLine
 10
102.0437055700849
 20
142.6958672265969
 30
0.0
 11
132.3024755700851
 21
142.6958672265969
 31
0.0
  0
LINE
  5
1762C
330
174CB
100
AcDbEntity
  8
10100_FRONT_DIM
  6
Continuous
 62
     7
370
    13
100
AcDbLine
 10
130.3024755700851
 20
120.6958672065971
 30
0.0
 11
130.3024755700851
 21
139.1958672265968
 31
0.0
  0
SOLID
  5
1762D
330
174CB
100
AcDbEntity
  8
10100_FRONT_DIM
  6
Continuous
 62
     7
370
    15
100
AcDbTrace
 10
129.7191422367518
 20
120.6958672065971
 30
0.0
 11
130.8858089034184
 21
120.6958672065971
 31
0.0
 12
130.3024755700851
 22
117.1958672065971
 32
0.0
 13
130.3024755700851
 23
117.1958672065971
 33
0.0
  0
SOLID
  5
1762E
330
174CB
100
AcDbEntity
  8
10100_FRONT_DIM
  6
Continuous
 62
     7
370
    15
100
AcDbTrace
 10
129.7191422367518
 20
139.1958672265968
 30
0.0
 11
130.8858089034184
 21
139.1958672265968
 31
0.0
 12
130.3024755700851
 22
142.6958672265969
 32
0.0
 13
130.3024755700851
 23
142.6958672265969
 33
0.0
  0
MTEXT
  5
1762F
330
174CB
100
AcDbEntity
  8
10100_FRONT_DIM
  6
Continuous
 62
     7
370
    18
100
AcDbMText
 10
127.2608089034184
 20
129.945867216597
 30
0.0
 40
3.5
 41
0.0
 71
     5
 72
     1
  1
\A1;25,5
 11
0.0000000000000001
 21
1.0
 31
0.0
 73
     1
 44
1.0
1001
ACAD
1000
MTEXTBEGIN
1070
    73
1070
     1
1070
    44
1040
1.0
1070
    74
1070
     0
1000
MTEXTEND
  0
POINT
  5
17630
330
174CB
100
AcDbEntity
  8
DEFPOINTS
  6
Continuous
 62
     0
370
    15
100
AcDbPoint
 10
101.5437055700852
 20
117.1958672065971
 30
0.0
  0
POINT
  5
17631
330
174CB
100
AcDbEntity
  8
DEFPOINTS
  6
Continuous
 62
     0
370
    15
100
AcDbPoint
 10
102.0437055700849
 20
142.6958672265969
 30
0.0
  0
POINT
  5
17632
330
174CB
100
AcDbEntity
  8
DEFPOINTS
  6
Continuous
 62
     0
370
    15
100
AcDbPoint
 10
130.3024755700851
 20
142.6958672265969
 30
0.0
  0
ENDBLK
  5
174D7
330
174CB
100
AcDbEntity
  8
0
100
AcDbBlockEnd
  0
ENDSEC
  0
SECTION
  2
ENTITIES
  0
LWPOLYLINE
  5
173CC
330
20
100
AcDbEntity
  8
90200_FRAME_SIZE
100
AcDbPolyline
 90
        4
 70
     1
 43
0.0
 10
-15.0
 20
-16.5
 10
225.0
 20
-16.5
 10
225.0
 20
313.5
 10
-15.0
 20
313.5000000000001
1001
GENIUS_GENREC_14
1002
{
1000
PYDIR
1011
-15.0
1021
313.5
1031
0.0
1002
}
1002
{
1000
PXDIR
1011
225.0
1021
-16.5
1031
0.0
1002
}
1002
{
1000
PORI
1011
-15.0
1021
-16.5
1031
0.0
1002
}
1002
{
1000
PINS
1011
-15.0
1021
-16.5
1031
0.0
1002
}
1002
{
1000
HVAL
1000
330
1002
}
1002
{
1000
H
1070
     2
1002
}
1002
{
1000
WVAL
1000
240
1002
}
1002
{
1000
W
1070
     2
1002
}
1002
{
1000
C
1070
     1
1002
}
1001
GENIUS_GENODEF_13
1002
{
1000
HIER
1070
     0
1002
}
1002
{
1000
MANEDIT
1070
     0
1002
}
1002
{
1000
NOSEL
1070
     0
1002
}
1002
{
1000
BEHIND
1070
     0
1002
}
1002
{
1000
OTHER
1070
     0
1002
}
1002
{
1000
REACTOR
1002
}
1001
GENIUS_GENOBJ-N-REC_13
1002
{
1000
OWNER
1000
GEN
1002
}
  0
LWPOLYLINE
  5
173D4
330
20
100
AcDbEntity
  8
90100_FRAME_THICK
100
AcDbPolyline
 90
        4
 70
     1
 43
0.0
 10
0.0
 20
0.0
 10
210.0
 20
0.0
 10
210.0
 20
297.0
 10
0.0
 20
297.0
1001
GENIUS_GENREC_14
1002
{
1000
PYDIR
1011
0.0
1021
297.0
1031
0.0
1002
}
1002
{
1000
PXDIR
1011
210.0
1021
0.0
1031
0.0
1002
}
1002
{
1000
PORI
1011
0.0
1021
0.0
1031
0.0
1002
}
1002
{
1000
PINS
1011
0.0
1021
0.0
1031
0.0
1002
}
1002
{
1000
HVAL
1000
297
1002
}
1002
{
1000
H
1070
     2
1002
}
1002
{
1000
WVAL
1000
210
1002
}
1002
{
1000
W
1070
     2
1002
}
1002
{
1000
C
1070
     1
1002
}
1001
GENIUS_GENODEF_13
1002
{
1000
HIER
1070
     0
1002
}
1002
{
1000
MANEDIT
1070
     0
1002
}
1002
{
1000
NOSEL
1070
     0
1002
}
1002
{
1000
BEHIND
1070
     0
1002
}
1002
{
1000
OTHER
1070
     0
1002
}
1002
{
1000
REACTOR
1002
}
1001
GENIUS_GENOBJ-N-REC_13
1002
{
1000
OWNER
1000
GEN
1002
}
  0
LWPOLYLINE
  5
173D8
330
20
100
AcDbEntity
  8
90000_FRAME_THIN
100
AcDbPolyline
 90
        4
 70
     1
 43
0.0
 10
5.0
 20
5.0
 10
205.0
 20
5.0
 10
205.0
 20
292.0
 10
5.0
 20
292.0
1001
GENIUS_GENREC_14
1002
{
1000
PYDIR
1011
0.0
1021
297.0
1031
0.0
1002
}
1002
{
1000
PXDIR
1011
210.0
1021
0.0
1031
0.0
1002
}
1002
{
1000
PORI
1011
0.0
1021
0.0
1031
0.0
1002
}
1002
{
1000
PINS
1011
0.0
1021
0.0
1031
0.0
1002
}
1002
{
1000
HVAL
1000
297
1002
}
1002
{
1000
H
1070
     2
1002
}
1002
{
1000
WVAL
1000
210
1002
}
1002
{
1000
W
1070
     2
1002
}
1002
{
1000
C
1070
     1
1002
}
1001
GENIUS_GENODEF_13
1002
{
1000
HIER
1070
     0
1002
}
1002
{
1000
MANEDIT
1070
     0
1002
}
1002
{
1000
NOSEL
1070
     0
1002
}
1002
{
1000
BEHIND
1070
     0
1002
}
1002
{
1000
OTHER
1070
     0
1002
}
1002
{
1000
REACTOR
1002
}
1001
GENIUS_GENOBJ-N-REC_13
1002
{
1000
OWNER
1000
GEN
1002
}
  0
INSERT
  5
173F7
330
20
100
AcDbEntity
  8
0
100
AcDbBlockReference
 66
     1
  2
Title_A4P
 10
200.0
 20
10.0
 30
0.0
  0
ATTRIB
  5
173F8
330
173F7
100
AcDbEntity
  8
92000_TITLE
100
AcDbText
 10
83.00000000000045
 20
11.75
 30
0.0
 40
2.5
  1

 72
     1
 11
83.00000000000045
 21
13.0
 31
0.0
100
AcDbAttribute
  2
DATUM
 70
     0
 74
     2
  0
ATTRIB
  5
173F9
330
173F7
100
AcDbEntity
  8
92000_TITLE
100
AcDbText
 10
108.0000000000004
 20
11.75
 30
0.0
 40
2.5
  1

 72
     1
 11
108.0000000000004
 21
13.0
 31
0.0
100
AcDbAttribute
  2
NAME
 70
     0
 74
     2
  0
ATTRIB
  5
173FA
330
173F7
100
AcDbEntity
  8
92000_TITLE
100
AcDbText
 10
119.0000000000004
 20
22.25000000000012
 30
0.0
 40
3.5
  1
3SB3400_00000066_001_ALL.
 72
     1
 11
157.5000000000004
 21
24.00000000000011
 31
0.0
100
AcDbAttribute
  2
ZEICHNUNGSNAME
 70
     0
 74
     2
  0
ATTRIB
  5
173FB
330
173F7
100
AcDbEntity
  8
92000_TITLE
100
AcDbText
 10
126.2500000000004
 20
16.75000000000011
 30
0.0
 40
2.5
  1
Schaltelement 1S/1Ö schraub
 72
     1
 11
157.5000000000004
 21
18.00000000000011
 31
0.0
100
AcDbAttribute
  2
ARTIKELNAME
 70
     0
 74
     2
  0
SEQEND
  5
173FC
330
173F7
100
AcDbEntity
  8
0
  0
MTEXT
  5
1741C
330
20
100
AcDbEntity
  8
10000_FRONT
  6
Continuous
 62
     7
370
    13
100
AcDbMText
 10
82.11847572511443
 20
116.7094899158187
 30
0.0
 40
1.5
 41
30.19649122807018
 71
     1
 72
     5
  1
{\C256;NSD00212a}
 73
     1
 44
1.0
1001
ACAD
1000
MTEXTBEGIN
1070
    73
1070
     1
1070
    44
1040
1.0
1070
    74
1070
     0
1000
MTEXTEND
  0
CIRCLE
  5
1741D
330
20
100
AcDbEntity
  8
10000_FRONT
  6
Continuous
 62
     7
370
    35
100
AcDbCircle
 10
109.043665570085
 20
133.295879226597
 30
0.0
 40
1.05
  0
LINE
  5
1741E
330
20
100
AcDbEntity
  8
10000_FRONT
  6
Continuous
 62
     7
370
    13
100
AcDbLine
 10
111.6934655700852
 20
137.6523202265971
 30
0.0
 11
111.6935055700851
 21
137.652321226597
 31
0.0
  0
LINE
  5
1741F
330
20
100
AcDbEntity
  8
10000_FRONT
  6
Continuous
 62
     7
370
    13
100
AcDbLine
 10
110.9766155700852
 20
140.360842226597
 30
0.0
 11
110.9766055700852
 21
140.360846226597
 31
0.0
  0
ARC
  5
17420
330
20
100
AcDbEntity
  8
10000_FRONT
  6
Continuous
 62
     7
370
    35
100
AcDbCircle
 10
95.5893655700852
 20
136.860192226597
 30
0.0
 40
0.5
100
AcDbArc
 50
182.0000000000034
 51
271.9999999999906
  0
LINE
  5
17421
330
20
100
AcDbEntity
  8
10000_FRONT
  6
Continuous
 62
     7
370
    35
100
AcDbLine
 10
95.08967557008508
 20
136.842742226597
 30
0.0
 11
95.06365557008507
 21
137.5877072265971
 31
0.0
  0
ARC
  5
17422
330
20
100
AcDbEntity
  8
10000_FRONT
  6
Continuous
 62
     7
370
    35
100
AcDbCircle
 10
94.56396557008497
 20
137.570257226597
 30
0.0
 40
0.5000000100000001
100
AcDbArc
 50
2.000000000003459
 51
75.84035799999688
  0
LINE
  5
17423
330
20
100
AcDbEntity
  8
10000_FRONT
  6
Continuous
 62
     7
370
    35
100
AcDbLine
 10
94.68627557008517
 20
138.0550662265968
 30
0.0
 11
94.04104557008508
 21
138.2178522265969
 31
0.0
  0
LINE
  5
17424
330
20
100
AcDbEntity
  8
10000_FRONT
  6
Continuous
 62
     7
370
    35
100
AcDbLine
 10
94.04104557008508
 20
138.2178522265969
 30
0.0
 11
88.73592557008487
 21
136.712618226597
 31
0.0
  0
ARC
  5
17425
330
20
100
AcDbEntity
  8
10000_FRONT
  6
Continuous
 62
     7
370
    35
100
AcDbCircle
 10
84.85831557008509
 20
132.7472552265969
 30
0.0
 40
2.0
100
AcDbArc
 50
20.00000000000194
 51
110.0000000000035
  0
LINE
  5
17426
330
20
100
AcDbEntity
  8
10000_FRONT
  6
Continuous
 62
     7
370
    35
100
AcDbLine
 10
86.73769557008496
 20
133.431295226597
 30
0.0
 11
87.52736557008507
 21
131.2617032265971
 31
0.0
  0
LINE
  5
17427
330
20
100
AcDbEntity
  8
10000_FRONT
  6
Continuous
 62
     7
370
    35
100
AcDbLine
 10
87.52736557008507
 20
131.2617032265971
 30
0.0
 11
91.73065557008499
 21
131.4084852265969
 31
0.0
  0
LINE
  5
17428
330
20
100
AcDbEntity
  8
10000_FRONT
  6
Continuous
 62
     7
370
    35
100
AcDbLine
 10
91.73065557008499
 20
131.4084852265969
 30
0.0
 11
94.54972557008501
 21
132.4345462265969
 31
0.0
  0
LINE
  5
17429
330
20
100
AcDbEntity
  8
10000_FRONT
  6
Continuous
 62
     7
370
    35
100
AcDbLine
 10
88.73592557008487
 20
136.712618226597
 30
0.0
 11
87.60726557008501
 21
139.813603226597
 31
0.0
  0
LINE
  5
1742A
330
20
100
AcDbEntity
  8
10000_FRONT
  6
Continuous
 62
     7
370
    35
100
AcDbLine
 10
82.32736557008502
 20
139.700980226597
 30
0.0
 11
84.17427557008499
 21
134.6266402265969
 31
0.0
  0
LINE
  5
1742B
330
20
100
AcDbEntity
  8
10000_FRONT
  6
Continuous
 62
     7
370
    35
100
AcDbLine
 10
84.39468557008513
 20
140.4534252265971
 30
0.0
 11
82.32736557008502
 21
139.700980226597
 31
0.0
  0
LINE
  5
1742C
330
20
100
AcDbEntity
  8
10000_FRONT
  6
Continuous
 62
     7
370
    35
100
AcDbLine
 10
87.60726557008501
 20
139.813603226597
 30
0.0
 11
89.11076557008504
 21
140.360836226597
 31
0.0
  0
LINE
  5
1742D
330
20
100
AcDbEntity
  8
10000_FRONT
  6
Continuous
 62
     7
370
    35
100
AcDbLine
 10
89.15106557008517
 20
141.283836226597
 30
0.0
 11
88.0661655700851
 21
141.7897342265969
 31
0.0
  0
LINE
  5
1742E
330
20
100
AcDbEntity
  8
10000_FRONT
  6
Continuous
 62
     7
370
    35
100
AcDbLine
 10
88.0661655700851
 20
141.7897342265969
 30
0.0
 11
85.89819557008514
 21
141.000657226597
 31
0.0
  0
LINE
  5
1742F
330
20
100
AcDbEntity
  8
10000_FRONT
  6
Continuous
 62
     7
370
    35
100
AcDbLine
 10
102.0437055700851
 20
142.6958672265969
 30
0.0
 11
102.0437055700849
 21
137.295867226597
 31
0.0
  0
LINE
  5
17430
330
20
100
AcDbEntity
  8
10000_FRONT
  6
Continuous
 62
     7
370
    35
100
AcDbLine
 10
98.04370557008496
 20
137.295867226597
 30
0.0
 11
98.04370557008496
 21
142.6958672265969
 31
0.0
  0
LINE
  5
17431
330
20
100
AcDbEntity
  8
10000_FRONT
  6
Continuous
 62
     7
370
    35
100
AcDbLine
 10
99.1437055700851
 20
142.6958672265969
 30
0.0
 11
102.0437055700851
 21
142.6958672265969
 31
0.0
  0
LINE
  5
17433
330
20
100
AcDbEntity
  8
10000_FRONT
  6
Continuous
 62
     7
370
    35
100
AcDbLine
 10
98.04370557008496
 20
142.6958672265969
 30
0.0
 11
99.1437055700851
 21
142.6958672265969
 31
0.0
  0
LINE
  5
17434
330
20
100
AcDbEntity
  8
10000_FRONT
  6
Continuous
 62
     7
370
    13
100
AcDbLine
 10
112.021235570085
 20
141.7897652265969
 30
0.0
 11
112.0212055700851
 21
141.7897582265971
 31
0.0
  0
LINE
  5
17435
330
20
100
AcDbEntity
  8
10000_FRONT
  6
Continuous
 62
     7
370
    35
100
AcDbLine
 10
112.0212055700851
 20
141.7897582265971
 30
0.0
 11
110.936315570085
 21
141.283848226597
 31
0.0
  0
ARC
  5
17436
330
20
100
AcDbEntity
  8
10000_FRONT
  6
Continuous
 62
     7
370
    35
100
AcDbCircle
 10
111.147625570085
 20
140.8306972265968
 30
0.0
 40
0.5000000100000001
100
AcDbArc
 50
115.0006100000095
 51
250.000630000001
  0
LINE
  5
17437
330
20
100
AcDbEntity
  8
10000_FRONT
  6
Continuous
 62
     7
370
    35
100
AcDbLine
 10
110.9766255700849
 20
140.3608492265971
 30
0.0
 11
112.4801355700849
 21
139.8136322265968
 31
0.0
  0
LINE
  5
17438
330
20
100
AcDbEntity
  8
10000_FRONT
  6
Continuous
 62
     7
370
    35
100
AcDbLine
 10
112.4801355700849
 20
139.8136322265968
 30
0.0
 11
111.3515055700852
 21
136.712635226597
 31
0.0
  0
LINE
  5
17439
330
20
100
AcDbEntity
  8
10000_FRONT
  6
Continuous
 62
     7
370
    35
100
AcDbLine
 10
111.3515055700852
 20
136.712635226597
 30
0.0
 11
106.046365570085
 21
138.217812226597
 31
0.0
  0
LINE
  5
1743A
330
20
100
AcDbEntity
  8
10000_FRONT
  6
Continuous
 62
     7
370
    35
100
AcDbLine
 10
106.046365570085
 20
138.217812226597
 30
0.0
 11
105.438305570085
 21
138.1105872265971
 31
0.0
  0
ARC
  5
1743B
330
20
100
AcDbEntity
  8
10000_FRONT
  6
Continuous
 62
     7
370
    35
100
AcDbCircle
 10
105.525135570085
 20
137.6181842265969
 30
0.0
 40
0.49999999
100
AcDbArc
 50
100.0006099999962
 51
178.0006099999941
  0
LINE
  5
1743C
330
20
100
AcDbEntity
  8
10000_FRONT
  6
Continuous
 62
     7
370
    35
100
AcDbLine
 10
105.0254355700851
 20
137.6356282265969
 30
0.0
 11
104.9934855700851
 21
136.720407226597
 31
0.0
  0
ARC
  5
1743D
330
20
100
AcDbEntity
  8
10000_FRONT
  6
Continuous
 62
     7
370
    35
100
AcDbCircle
 10
104.493785570085
 20
136.7378522265969
 30
0.0
 40
0.5
100
AcDbArc
 50
268.0006099999941
 51
358.0006099999942
  0
ARC
  5
1743E
330
20
100
AcDbEntity
  8
10000_FRONT
  6
Continuous
 62
     7
370
    35
100
AcDbCircle
 10
115.2291555700851
 20
132.747313226597
 30
0.0
 40
2.0
100
AcDbArc
 50
70.00061000000323
 51
160.0006100000045
  0
LINE
  5
1743F
330
20
100
AcDbEntity
  8
10000_FRONT
  6
Continuous
 62
     7
370
    35
100
AcDbLine
 10
112.563035570085
 20
131.2697302265969
 30
0.0
 11
113.3497655700851
 21
133.4313332265969
 31
0.0
  0
LINE
  5
17440
330
20
100
AcDbEntity
  8
10000_FRONT
  6
Continuous
 62
     7
370
    35
100
AcDbLine
 10
108.3597455700851
 20
131.4164672265969
 30
0.0
 11
112.563035570085
 21
131.2697302265969
 31
0.0
  0
LINE
  5
17441
330
20
100
AcDbEntity
  8
10000_FRONT
  6
Continuous
 62
     7
370
    35
100
AcDbLine
 10
105.5406555700849
 20
132.4424982265968
 30
0.0
 11
108.3597455700851
 21
131.4164672265969
 31
0.0
  0
LINE
  5
17442
330
20
100
AcDbEntity
  8
10000_FRONT
  6
Continuous
 62
     7
370
    35
100
AcDbLine
 10
103.9911155700849
 20
130.5454182265971
 30
0.0
 11
105.5406555700849
 21
132.4424982265968
 31
0.0
  0
ARC
  5
17443
330
20
100
AcDbEntity
  8
10000_FRONT
  6
Continuous
 62
     7
370
    35
100
AcDbCircle
 10
99.7314755700852
 20
134.0247102265971
 30
0.0
 40
5.5
100
AcDbArc
 50
203.61433
 51
320.7578899999961
  0
LINE
  5
17444
330
20
100
AcDbEntity
  8
10000_FRONT
  6
Continuous
 62
     7
370
    35
100
AcDbLine
 10
100.5931534690854
 20
131.6155217189369
 30
0.0
 11
94.6920255700852
 21
131.821531226597
 31
0.0
  0
ARC
  5
17446
330
20
100
AcDbEntity
  8
10000_FRONT
  6
Continuous
 62
     7
370
    35
100
AcDbCircle
 10
102.1353155700851
 20
135.8195772265969
 30
0.0
 40
0.5
100
AcDbArc
 50
88.0006109999986
 51
216.7474499999963
  0
LINE
  5
17447
330
20
100
AcDbEntity
  8
10000_FRONT
  6
Continuous
 62
     7
370
    35
100
AcDbLine
 10
104.4763455700852
 20
136.238156226597
 30
0.0
 11
102.1527555700852
 21
136.319273226597
 31
0.0
  0
CIRCLE
  5
17448
330
20
100
AcDbEntity
  8
10000_FRONT
  6
Continuous
 62
     7
370
    35
100
AcDbCircle
 10
114.4279355700851
 20
139.3175522265969
 30
0.0
 40
0.9
  0
LINE
  5
17449
330
20
100
AcDbEntity
  8
10000_FRONT
  6
Continuous
 62
     7
370
    35
100
AcDbLine
 10
115.913175570085
 20
134.626706226597
 30
0.0
 11
117.7600355700849
 21
139.7010652265969
 31
0.0
  0
ARC
  5
1744A
330
20
100
AcDbEntity
  8
10000_FRONT
  6
Continuous
 62
     7
370
    35
100
AcDbCircle
 10
114.427955570085
 20
139.317559226597
 30
0.0
 40
1.7
100
AcDbArc
 50
41.92812299999524
 51
98.07309699999141
  0
LINE
  5
1744B
330
20
100
AcDbEntity
  8
10000_FRONT
  6
Continuous
 62
     7
370
    35
100
AcDbLine
 10
117.7600355700849
 20
139.7010652265969
 30
0.0
 11
115.6927055700851
 21
140.4534882265968
 31
0.0
  0
LINE
  5
1744C
330
20
100
AcDbEntity
  8
10000_FRONT
  6
Continuous
 62
     7
370
    35
100
AcDbLine
 10
114.1891855700851
 20
141.000704226597
 30
0.0
 11
112.0212055700851
 21
141.7897582265971
 31
0.0
  0
LINE
  5
1744D
330
20
100
AcDbEntity
  8
10000_FRONT
  6
Continuous
 62
     7
370
    13
100
AcDbLine
 10
94.04104557008508
 20
138.217851226597
 30
0.0
 11
94.04104557008508
 21
138.217851226597
 31
0.0
  0
LINE
  5
1744E
330
20
100
AcDbEntity
  8
10000_FRONT
  6
Continuous
 62
     7
370
    35
100
AcDbLine
 10
82.54370557008519
 20
137.295867226597
 30
0.0
 11
83.20275557008494
 21
137.295867226597
 31
0.0
  0
CIRCLE
  5
1744F
330
20
100
AcDbEntity
  8
10000_FRONT
  6
Continuous
 62
     7
370
    35
100
AcDbCircle
 10
95.04370557008519
 20
120.6958672265967
 30
0.0
 40
0.7
  0
CIRCLE
  5
17450
330
20
100
AcDbEntity
  8
10000_FRONT
  6
Continuous
 62
     7
370
    35
100
AcDbCircle
 10
104.443705570085
 20
127.5958672265969
 30
0.0
 40
0.7
  0
CIRCLE
  5
17451
330
20
100
AcDbEntity
  8
10000_FRONT
  6
Continuous
 62
     7
370
    35
100
AcDbCircle
 10
85.04370557008497
 20
132.8958672265971
 30
0.0
 40
0.7
  0
CIRCLE
  5
17452
330
20
100
AcDbEntity
  8
10000_FRONT
  6
Continuous
 62
     7
370
    35
100
AcDbCircle
 10
116.5437055700852
 20
119.695868226597
 30
0.0
 40
1.024999999999999
  0
LINE
  5
17453
330
20
100
AcDbEntity
  8
10000_FRONT
  6
Continuous
 62
     7
370
    35
100
AcDbLine
 10
88.5236455700849
 20
137.295863226597
 30
0.0
 11
90.79153557008499
 21
137.295863226597
 31
0.0
  0
LINE
  5
17454
330
20
100
AcDbEntity
  8
10000_FRONT
  6
Continuous
 62
     7
370
    35
100
AcDbLine
 10
95.07385557008523
 20
137.295863226597
 30
0.0
 11
98.04370557008496
 21
137.295867226597
 31
0.0
  0
LINE
  5
17455
330
20
100
AcDbEntity
  8
10000_FRONT
  6
Continuous
 62
     7
370
    35
100
AcDbLine
 10
98.04370557008496
 20
137.295863226597
 30
0.0
 11
102.0437055700849
 21
137.295863226597
 31
0.0
  0
LINE
  5
17456
330
20
100
AcDbEntity
  8
10000_FRONT
  6
Continuous
 62
     7
370
    35
100
AcDbLine
 10
102.0437055700849
 20
137.295867226597
 30
0.0
 11
105.0135755700851
 21
137.295863226597
 31
0.0
  0
LINE
  5
17457
330
20
100
AcDbEntity
  8
10000_FRONT
  6
Continuous
 62
     7
370
    35
100
AcDbLine
 10
109.295845570085
 20
137.295863226597
 30
0.0
 11
111.5637755700852
 21
137.295863226597
 31
0.0
  0
LINE
  5
17458
330
20
100
AcDbEntity
  8
10000_FRONT
  6
Continuous
 62
     7
370
    35
100
AcDbLine
 10
116.884645570085
 20
137.295867226597
 30
0.0
 11
117.7162554828187
 21
137.295867226597
 31
0.0
  0
LINE
  5
1745B
330
20
100
AcDbEntity
  8
10000_FRONT
  6
Continuous
 62
     7
370
    35
100
AcDbLine
 10
91.02996557008486
 20
139.8958672265971
 30
0.0
 11
93.05744557008518
 21
139.8958672265971
 31
0.0
  0
LINE
  5
1745E
330
20
100
AcDbEntity
  8
10000_FRONT
  6
Continuous
 62
     7
370
    35
100
AcDbLine
 10
100.743705570085
 20
117.1958672265967
 30
0.0
 11
100.743705570085
 21
118.245867226597
 31
0.0
  0
LINE
  5
1745F
330
20
100
AcDbEntity
  8
10000_FRONT
  6
Continuous
 62
     7
370
    35
100
AcDbLine
 10
99.34370557008492
 20
118.245867226597
 30
0.0
 11
99.34370557008492
 21
117.1958672265967
 31
0.0
  0
LINE
  5
17460
330
20
100
AcDbEntity
  8
10000_FRONT
  6
Continuous
 62
     7
370
    35
100
AcDbLine
 10
100.493705570085
 20
118.495867226597
 30
0.0
 11
99.59370557008492
 21
118.495867226597
 31
0.0
  0
LINE
  5
17461
330
20
100
AcDbEntity
  8
10000_FRONT
  6
Continuous
 62
     7
370
    35
100
AcDbLine
 10
100.743705570085
 20
118.245867226597
 30
0.0
 11
100.493705570085
 21
118.495867226597
 31
0.0
  0
LINE
  5
17462
330
20
100
AcDbEntity
  8
10000_FRONT
  6
Continuous
 62
     7
370
    35
100
AcDbLine
 10
99.59370557008492
 20
118.495867226597
 30
0.0
 11
99.34370557008492
 21
118.245867226597
 31
0.0
  0
LINE
  5
17463
330
20
100
AcDbEntity
  8
10000_FRONT
  6
Continuous
 62
     7
370
    35
100
AcDbLine
 10
82.54370557008519
 20
131.0958672265969
 30
0.0
 11
82.54370557008519
 21
134.795867226597
 31
0.0
  0
LINE
  5
17464
330
20
100
AcDbEntity
  8
10000_FRONT
  6
Continuous
 62
     7
370
    35
100
AcDbLine
 10
93.84370557008493
 20
131.0958672265969
 30
0.0
 11
82.04370557008497
 21
131.0958672265969
 31
0.0
  0
LINE
  5
17465
330
20
100
AcDbEntity
  8
10000_FRONT
  6
Continuous
 62
     7
370
    35
100
AcDbLine
 10
82.04370557008497
 20
131.0958672265969
 30
0.0
 11
82.04370557008497
 21
127.6265842655808
 31
0.0
  0
LINE
  5
17466
330
20
100
AcDbEntity
  8
10000_FRONT
  6
Continuous
 62
     7
370
    35
100
AcDbLine
 10
82.04370557008497
 20
127.6265842655808
 30
0.0
 11
82.04370557008497
 21
118.5958672265968
 31
0.0
  0
CIRCLE
  5
17467
330
20
100
AcDbEntity
  8
10000_FRONT
  6
Continuous
 62
     7
370
    35
100
AcDbCircle
 10
83.54370557008497
 20
119.6958672265967
 30
0.0
 40
0.7
  0
CIRCLE
  5
17468
330
20
100
AcDbEntity
  8
10000_FRONT
  6
Continuous
 62
     7
370
    35
100
AcDbCircle
 10
105.0437055700852
 20
120.6958672265967
 30
0.0
 40
0.7
  0
CIRCLE
  5
17469
330
20
100
AcDbEntity
  8
10000_FRONT
  6
Continuous
 62
     7
370
    35
100
AcDbCircle
 10
95.64370557008487
 20
127.5958672265969
 30
0.0
 40
0.7
  0
ARC
  5
1746A
330
20
100
AcDbEntity
  8
10000_FRONT
  6
Continuous
 62
     7
370
    35
100
AcDbCircle
 10
97.99370557008501
 20
118.6958672265967
 30
0.0
 40
0.5
100
AcDbArc
 50
347.3196199999963
 51
90.0
  0
ARC
  5
1746B
330
20
100
AcDbEntity
  8
10000_FRONT
  6
Continuous
 62
     7
370
    35
100
AcDbCircle
 10
102.0937055700849
 20
118.6958672265967
 30
0.0
 40
0.5
100
AcDbArc
 50
90.0
 51
192.6803800000036
  0
LINE
  5
1746C
330
20
100
AcDbEntity
  8
10000_FRONT
  6
Continuous
 62
     7
370
    35
100
AcDbLine
 10
117.5437055700852
 20
118.0958672265968
 30
0.0
 11
106.8937055700851
 21
118.0958672265968
 31
0.0
  0
LINE
  5
1746D
330
20
100
AcDbEntity
  8
10000_FRONT
  6
Continuous
 62
     7
370
    35
100
AcDbLine
 10
106.8937055700851
 20
118.0958672265968
 30
0.0
 11
103.751995570085
 21
118.0958672265968
 31
0.0
  0
LINE
  5
1746E
330
20
100
AcDbEntity
  8
10000_FRONT
  6
Continuous
 62
     7
370
    35
100
AcDbLine
 10
96.33541557008516
 20
118.0958672265968
 30
0.0
 11
93.19370557008506
 21
118.0958672265968
 31
0.0
  0
LINE
  5
1746F
330
20
100
AcDbEntity
  8
10000_FRONT
  6
Continuous
 62
     7
370
    35
100
AcDbLine
 10
82.54370557008519
 20
118.0958672265968
 30
0.0
 11
93.19370557008506
 21
118.0958672265968
 31
0.0
  0
ARC
  5
17470
330
20
100
AcDbEntity
  8
10000_FRONT
  6
Continuous
 62
     7
370
    35
100
AcDbCircle
 10
102.943705570085
 20
118.8958672265971
 30
0.0
 40
0.3
100
AcDbArc
 50
29.99999999999687
 51
90.0
  0
LINE
  5
17471
330
20
100
AcDbEntity
  8
10000_FRONT
  6
Continuous
 62
     7
370
    35
100
AcDbLine
 10
103.751995570085
 20
118.0958672265968
 30
0.0
 11
103.2035055700851
 21
119.045867226597
 31
0.0
  0
LINE
  5
17472
330
20
100
AcDbEntity
  8
10000_FRONT
  6
Continuous
 62
     7
370
    35
100
AcDbLine
 10
96.88389557008509
 20
119.045867226597
 30
0.0
 11
96.33541557008516
 21
118.0958672265968
 31
0.0
  0
ARC
  5
17473
330
20
100
AcDbEntity
  8
10000_FRONT
  6
Continuous
 62
     7
370
    35
100
AcDbCircle
 10
97.14370557008511
 20
118.8958672265971
 30
0.0
 40
0.3
100
AcDbArc
 50
90.0
 51
150.0000000000031
  0
LINE
  5
17474
330
20
100
AcDbEntity
  8
10000_FRONT
  6
Continuous
 62
     7
370
    35
100
AcDbLine
 10
97.99370557008501
 20
119.1958672265967
 30
0.0
 11
97.14370557008511
 21
119.1958672265967
 31
0.0
  0
LINE
  5
17475
330
20
100
AcDbEntity
  8
10000_FRONT
  6
Continuous
 62
     7
370
    35
100
AcDbLine
 10
98.24370557008501
 20
117.495867226597
 30
0.0
 11
98.48150557008489
 21
118.586111226597
 31
0.0
  0
ARC
  5
17476
330
20
100
AcDbEntity
  8
10000_FRONT
  6
Continuous
 62
     7
370
    35
100
AcDbCircle
 10
98.54370557008497
 20
117.495867226597
 30
0.0
 40
0.30000001
100
AcDbArc
 50
180.0
 51
270.0
  0
LINE
  5
17477
330
20
100
AcDbEntity
  8
10000_FRONT
  6
Continuous
 62
     7
370
    35
100
AcDbLine
 10
99.34370557008492
 20
117.1958672265967
 30
0.0
 11
98.54370557008497
 21
117.1958672265967
 31
0.0
  0
LINE
  5
17478
330
20
100
AcDbEntity
  8
10000_FRONT
  6
Continuous
 62
     7
370
    35
100
AcDbLine
 10
101.5437055700852
 20
117.1958672265967
 30
0.0
 11
100.743705570085
 21
117.1958672265967
 31
0.0
  0
ARC
  5
17479
330
20
100
AcDbEntity
  8
10000_FRONT
  6
Continuous
 62
     7
370
    35
100
AcDbCircle
 10
101.5437055700852
 20
117.495867226597
 30
0.0
 40
0.30000002
100
AcDbArc
 50
270.0
 51
12.68038000000361
  0
LINE
  5
1747A
330
20
100
AcDbEntity
  8
10000_FRONT
  6
Continuous
 62
     7
370
    35
100
AcDbLine
 10
101.605895570085
 20
118.586111226597
 30
0.0
 11
101.8363855700852
 21
117.561721226597
 31
0.0
  0
LINE
  5
1747B
330
20
100
AcDbEntity
  8
10000_FRONT
  6
Continuous
 62
     7
370
    35
100
AcDbLine
 10
102.943705570085
 20
119.1958672265967
 30
0.0
 11
102.0937055700849
 21
119.1958672265967
 31
0.0
  0
LINE
  5
1747C
330
20
100
AcDbEntity
  8
10000_FRONT
  6
Continuous
 62
     7
370
    35
100
AcDbLine
 10
106.243705570085
 20
131.0958672265969
 30
0.0
 11
106.243705570085
 21
122.1038802265971
 31
0.0
  0
LINE
  5
1747D
330
20
100
AcDbEntity
  8
10000_FRONT
  6
Continuous
 62
     7
370
    35
100
AcDbLine
 10
118.0437055700852
 20
131.0958672265969
 30
0.0
 11
106.243705570085
 21
131.0958672265969
 31
0.0
  0
LINE
  5
1747E
330
20
100
AcDbEntity
  8
10000_FRONT
  6
Continuous
 62
     7
370
    35
100
AcDbLine
 10
93.84370557008493
 20
122.1038802265971
 30
0.0
 11
93.84370557008493
 21
131.0958672265969
 31
0.0
  0
ARC
  5
1747F
330
20
100
AcDbEntity
  8
10000_FRONT
  6
Continuous
 62
     7
370
    35
100
AcDbCircle
 10
95.04370557008519
 20
120.6958672265967
 30
0.0
 40
1.85
100
AcDbArc
 50
130.4397900000104
 51
180.0
  0
LINE
  5
17480
330
20
100
AcDbEntity
  8
10000_FRONT
  6
Continuous
 62
     7
370
    35
100
AcDbLine
 10
93.19370557008506
 20
118.0958672265968
 30
0.0
 11
93.19370557008506
 21
120.6958672265967
 31
0.0
  0
LINE
  5
17481
330
20
100
AcDbEntity
  8
10000_FRONT
  6
Continuous
 62
     7
370
    35
100
AcDbLine
 10
106.8937055700851
 20
120.6958672265967
 30
0.0
 11
106.8937055700851
 21
118.0958672265968
 31
0.0
  0
ARC
  5
17482
330
20
100
AcDbEntity
  8
10000_FRONT
  6
Continuous
 62
     7
370
    35
100
AcDbCircle
 10
105.0437055700852
 20
120.6958672265967
 30
0.0
 40
1.85
100
AcDbArc
 50
0.0000004862012673
 51
49.56020699999314
  0
ARC
  5
17483
330
20
100
AcDbEntity
  8
10000_FRONT
  6
Continuous
 62
     7
370
    35
100
AcDbCircle
 10
82.54370557008519
 20
118.5958672265968
 30
0.0
 40
0.5000000100000001
100
AcDbArc
 50
180.0
 51
270.0
  0
ARC
  5
17484
330
20
100
AcDbEntity
  8
10000_FRONT
  6
Continuous
 62
     7
370
    35
100
AcDbCircle
 10
117.5437055700852
 20
118.5958672265968
 30
0.0
 40
0.5
100
AcDbArc
 50
270.0
 51
0.0
  0
ARC
  5
17485
330
20
100
AcDbEntity
  8
10000_FRONT
  6
Continuous
 62
     7
370
    35
100
AcDbCircle
 10
84.1437055700851
 20
134.795867226597
 30
0.0
 40
1.6
100
AcDbArc
 50
111.0564299999903
 51
180.0
  0
CIRCLE
  5
17486
330
20
100
AcDbEntity
  8
10000_FRONT
  6
Continuous
 62
     7
370
    35
100
AcDbCircle
 10
115.0437055700849
 20
132.8958672265971
 30
0.0
 40
0.7
  0
LINE
  5
17487
330
20
100
AcDbEntity
  8
10000_FRONT
  6
Continuous
 62
     7
370
    35
100
AcDbLine
 10
118.0437055700852
 20
118.5958672265968
 30
0.0
 11
118.0437055700852
 21
128.618009452428
 31
0.0
  0
LINE
  5
17488
330
20
100
AcDbEntity
  8
10000_FRONT
  6
Continuous
 62
     7
370
    35
100
AcDbLine
 10
118.0437055700852
 20
128.618009452428
 30
0.0
 11
118.0437055700852
 21
131.0958672265969
 31
0.0
  0
LINE
  5
1748B
330
20
100
AcDbEntity
  8
10000_FRONT
  6
Continuous
 62
     7
370
    35
100
AcDbLine
 10
109.057445570085
 20
139.8958672265971
 30
0.0
 11
107.0299655700851
 21
139.8958672265971
 31
0.0
  0
LINE
  5
1748F
330
20
100
AcDbEntity
  8
10000_FRONT
  6
Continuous
 62
     7
370
    35
100
AcDbLine
 10
106.9288955700851
 20
137.9674182265971
 30
0.0
 11
107.0299655700851
 21
139.8958672265971
 31
0.0
  0
LINE
  5
17490
330
20
100
AcDbEntity
  8
10000_FRONT
  6
Continuous
 62
     7
370
    35
100
AcDbLine
 10
109.057445570085
 20
139.8958672265971
 30
0.0
 11
109.1921555700851
 21
137.3252882265969
 31
0.0
  0
CIRCLE
  5
17491
330
20
100
AcDbEntity
  8
10000_FRONT
  6
Continuous
 62
     7
370
    35
100
AcDbCircle
 10
85.04370557008497
 20
132.8958672265971
 30
0.0
 40
1.6
  0
CIRCLE
  5
17492
330
20
100
AcDbEntity
  8
10000_FRONT
  6
Continuous
 62
     7
370
    35
100
AcDbCircle
 10
95.04370557008519
 20
120.6958672265967
 30
0.0
 40
1.6
  0
CIRCLE
  5
17493
330
20
100
AcDbEntity
  8
10000_FRONT
  6
Continuous
 62
     7
370
    35
100
AcDbCircle
 10
104.443705570085
 20
127.5958672265969
 30
0.0
 40
1.6
  0
LINE
  5
17494
330
20
100
AcDbEntity
  8
10000_FRONT
  6
Continuous
 62
     7
370
    35
100
AcDbLine
 10
90.89524557008507
 20
137.3252892265968
 30
0.0
 11
91.02996557008486
 21
139.8958672265971
 31
0.0
  0
LINE
  5
17495
330
20
100
AcDbEntity
  8
10000_FRONT
  6
Continuous
 62
     7
370
    35
100
AcDbLine
 10
93.05744557008518
 20
139.8958672265971
 30
0.0
 11
93.15850557008502
 21
137.9674452265969
 31
0.0
  0
LINE
  5
17497
330
20
100
AcDbEntity
  8
10000_FRONT
  6
Continuous
 62
     7
370
    13
100
AcDbLine
 10
106.0463255700849
 20
138.217879226597
 30
0.0
 11
106.0453355700851
 21
138.217630226597
 31
0.0
  0
LINE
  5
17498
330
20
100
AcDbEntity
  8
10000_FRONT
  6
Continuous
 62
     7
370
    13
100
AcDbLine
 10
106.0463855700852
 20
138.2178622265969
 30
0.0
 11
106.0463255700849
 21
138.217879226597
 31
0.0
  0
LINE
  5
17499
330
20
100
AcDbEntity
  8
10000_FRONT
  6
Continuous
 62
     7
370
    13
100
AcDbLine
 10
117.760005570085
 20
139.700980226597
 30
0.0
 11
117.7600155700852
 21
139.7009772265969
 31
0.0
  0
DIMENSION
  5
1749A
330
20
100
AcDbEntity
  8
10100_FRONT_DIM
  6
Continuous
 62
     7
370
    18
100
AcDbDimension
  2
*D13
 10
81.71625557008496
 20
151.6344332265971
 30
0.0
 11
99.9662555700852
 21
151.6344332265971
 31
0.0
 70
   160
 71
     5
 42
36.50000000000023
  3
DIN 3.5
100
AcDbAlignedDimension
 13
118.2162555700852
 23
136.795867226597
 33
0.0
 14
81.71625557008496
 24
136.795867226597
 34
0.0
 50
180.0
100
AcDbRotatedDimension
1001
ACAD
1000
DSTYLE
1002
{
1070
    40
1040
1.0
1002
}
  0
DIMENSION
  5
1749B
330
20
100
AcDbEntity
  8
10100_FRONT_DIM
  6
Continuous
 62
     7
370
    18
100
AcDbDimension
  2
*D14
 10
124.1616255700849
 20
137.295867226597
 30
0.0
 11
124.1616255700848
 21
127.554773226597
 31
0.0
 70
   160
 71
     5
 42
20.10000001999992
  3
DIN 3.5
100
AcDbAlignedDimension
 13
101.5437055700852
 23
117.1958672065971
 33
0.0
 14
117.5437055700852
 24
137.295867226597
 34
0.0
 50
90.0
100
AcDbRotatedDimension
1001
ACAD
1000
DSTYLE
1002
{
1070
    40
1040
1.0
1070
   271
1070
     0
1002
}
  0
DIMENSION
  5
1749C
330
20
100
AcDbEntity
  8
10100_FRONT_DIM
  6
Continuous
 62
     7
370
    18
100
AcDbDimension
  2
*D15
 10
130.3024755700851
 20
142.6958672265969
 30
0.0
 11
130.3024755700851
 21
129.945867216597
 31
0.0
 70
   160
 71
     5
 42
25.50000001999979
  3
DIN 3.5
100
AcDbAlignedDimension
 13
101.5437055700852
 23
117.1958672065971
 33
0.0
 14
102.0437055700849
 24
142.6958672265969
 34
0.0
 50
90.0
100
AcDbRotatedDimension
1001
ACAD
1000
DSTYLE
1002
{
1070
    40
1040
1.0
1002
}
  0
ARC
  5
1749D
330
20
100
AcDbEntity
  8
10000_FRONT
  6
Continuous
 62
     7
370
    35
100
AcDbCircle
 10
99.73141557008512
 20
134.0248212265969
 30
0.0
 40
2.5
100
AcDbArc
 50
289.6731695373319
 51
92.34460999999646
  0
ARC
  5
1749E
330
20
100
AcDbEntity
  8
10000_FRONT
  6
Continuous
 62
     7
370
    35
100
AcDbCircle
 10
88.93975557008502
 20
140.830682226597
 30
0.0
 40
0.5
100
AcDbArc
 50
290.0000000000035
 51
65.00000000000731
  0
LINE
  5
1749F
330
20
100
AcDbEntity
  8
10000_FRONT
  6
Continuous
 62
     7
370
    35
100
AcDbLine
 10
95.59924557008503
 20
136.3577282265969
 30
0.0
 11
99.62913557008505
 21
136.5227282265969
 31
0.0
  0
ARC
  5
174A0
330
20
100
AcDbEntity
  8
10000_FRONT
  6
Continuous
 62
     7
370
    35
100
AcDbCircle
 10
99.81902557008494
 20
133.7424852265969
 30
0.0
 40
1.499979899999999
100
AcDbArc
 50
307.9661300000024
 51
236.9995500000125
  0
LINE
  5
174A1
330
20
100
AcDbEntity
  8
10000_FRONT
  6
Continuous
 62
     7
370
    35
100
AcDbLine
 10
100.741805570085
 20
132.5599392265969
 30
0.0
 11
101.1503255700852
 21
131.9765102265969
 31
0.0
  0
LINE
  5
174A2
330
20
100
AcDbEntity
  8
10000_FRONT
  6
Continuous
 62
     7
370
    35
100
AcDbLine
 10
100.332025570085
 20
132.332947226597
 30
0.0
 11
99.00205557008508
 21
132.4844872265971
 31
0.0
  0
LINE
  5
174A3
330
20
100
AcDbEntity
  8
10000_FRONT
  6
Continuous
 62
     7
370
    35
100
AcDbLine
 10
100.5931534690854
 20
131.6155217189369
 30
0.0
 11
100.332025570085
 21
132.332947226597
 31
0.0
  0
LINE
  5
174A4
330
20
100
AcDbEntity
  8
10000_FRONT
  6
Continuous
 62
     7
370
    35
100
AcDbLine
 10
100.5730514444196
 20
131.6707504852994
 30
0.0
 11
94.54218557008493
 21
132.4318012265971
 31
0.0
  0
ARC
  5
174A5
330
20
100
AcDbEntity
  8
10000_FRONT
  6
Continuous
 62
     7
370
    35
100
AcDbCircle
 10
85.65947557008508
 20
139.3175022265968
 30
0.0
 40
1.7
100
AcDbArc
 50
81.92751299999043
 51
138.0724900000044
  0
LINE
  5
174A6
330
20
100
AcDbEntity
  8
10000_FRONT
  6
Continuous
 62
     7
370
    13
100
AcDbLine
 10
117.0760155700852
 20
137.821675226597
 30
0.0
 11
117.0760255700852
 21
137.821675226597
 31
0.0
  0
LINE
  5
174A7
330
20
100
AcDbEntity
  8
10000_FRONT
  6
Continuous
 62
     7
370
    13
100
AcDbLine
 10
82.32736557008502
 20
139.700980226597
 30
0.0
 11
82.32736557008502
 21
139.700980226597
 31
0.0
  0
LINE
  5
174A8
330
20
100
AcDbEntity
  8
10000_FRONT
  6
Continuous
 62
     7
370
    13
100
AcDbLine
 10
84.39468557008513
 20
140.4534252265971
 30
0.0
 11
84.39468557008513
 21
140.4534252265971
 31
0.0
  0
CIRCLE
  5
174A9
330
20
100
AcDbEntity
  8
10000_FRONT
  6
Continuous
 62
     7
370
    35
100
AcDbCircle
 10
85.65947557008508
 20
139.3175022265968
 30
0.0
 40
0.575
  0
ARC
  5
174AA
330
20
100
AcDbEntity
  8
10000_FRONT
  6
Continuous
 62
     7
370
    35
100
AcDbCircle
 10
117.7162555700849
 20
136.795867226597
 30
0.0
 40
0.5000000000000218
100
AcDbArc
 50
359.999989999999
 51
90.00000999998798
  0
LINE
  5
174AB
330
20
100
AcDbEntity
  8
10000_FRONT
  6
Continuous
 62
     7
370
    35
100
AcDbLine
 10
118.2162555700852
 20
136.795867226597
 30
0.0
 11
118.2162555700852
 21
128.995867226597
 31
0.0
  0
ARC
  5
174AC
330
20
100
AcDbEntity
  8
10000_FRONT
  6
Continuous
 62
     7
370
    35
100
AcDbCircle
 10
117.7162555700849
 20
128.995867226597
 30
0.0
 40
0.5
100
AcDbArc
 50
310.9120678606272
 51
0.0
  0
ARC
  5
174AD
330
20
100
AcDbEntity
  8
10000_FRONT
  6
Continuous
 62
     7
370
    35
100
AcDbCircle
 10
82.21625557008497
 20
136.795867226597
 30
0.0
 40
0.5
100
AcDbArc
 50
89.9999870000013
 51
180.0000100000009
  0
LINE
  5
174AE
330
20
100
AcDbEntity
  8
10000_FRONT
  6
Continuous
 62
     7
370
    35
100
AcDbLine
 10
82.21625557008497
 20
137.295867226597
 30
0.0
 11
83.12530557008518
 21
137.295867226597
 31
0.0
  0
LINE
  5
174AF
330
20
100
AcDbEntity
  8
10000_FRONT
  6
Continuous
 62
     7
370
    35
100
AcDbLine
 10
81.71625557008496
 20
128.0958672265969
 30
0.0
 11
81.71625557008496
 21
136.795867226597
 31
0.0
  0
ARC
  5
174B0
330
20
100
AcDbEntity
  8
10000_FRONT
  6
Continuous
 62
     7
370
    35
100
AcDbCircle
 10
82.21625557008497
 20
128.0958672265968
 30
0.0
 40
0.500000000000002
100
AcDbArc
 50
179.9999799999979
 51
249.8120997437069
  0
LINE
  5
175BD
330
20
100
AcDbEntity
  8
10100_FRONT_DIM
100
AcDbLine
 10
118.2162555700852
 20
132.895867226597
 30
0.0
 11
124.1616255700848
 21
132.895867226597
 31
0.0
  0
LINE
  5
175E0
330
20
100
AcDbEntity
  8
10200_FRONT_SYM
 62
     7
 48
0.0025
370
    15
100
AcDbLine
 10
102.5613269193445
 20
127.5958672265969
 30
0.0
 11
106.243705570085
 21
127.5958672265969
 31
0.0
  0
LINE
  5
175E1
330
20
100
AcDbEntity
  8
10200_FRONT_SYM
 62
     7
 48
0.0025
370
    15
100
AcDbLine
 10
104.443705570085
 20
125.8012184275094
 30
0.0
 11
104.443705570085
 21
129.4382073232027
 31
0.0
  0
LINE
  5
175E4
330
20
100
AcDbEntity
  8
10200_FRONT_SYM
 62
     7
 48
0.0025
370
    15
100
AcDbLine
 10
93.28454123790379
 20
120.6958672265967
 30
0.0
 11
96.8966705167768
 21
120.6958672265967
 31
0.0
  0
LINE
  5
175E5
330
20
100
AcDbEntity
  8
10200_FRONT_SYM
 62
     7
 48
0.0025
370
    15
100
AcDbLine
 10
95.04370557008519
 20
118.8439868840414
 30
0.0
 11
95.04370557008519
 21
122.5341744551215
 31
0.0
  0
LINE
  5
175E8
330
20
100
AcDbEntity
  8
10200_FRONT_SYM
 62
     7
 48
0.0025
370
    15
100
AcDbLine
 10
114.2049812421064
 20
132.8958672265971
 30
0.0
 11
115.8836856674424
 21
132.8958672265971
 31
0.0
  0
LINE
  5
175E9
330
20
100
AcDbEntity
  8
10200_FRONT_SYM
 62
     7
 48
0.0025
370
    15
100
AcDbLine
 10
115.0437055700849
 20
132.0441293086824
 30
0.0
 11
115.0437055700849
 21
133.7628041618368
 31
0.0
  0
LINE
  5
175EA
330
20
100
AcDbEntity
  8
10200_FRONT_SYM
 62
     7
 48
0.0025
370
    15
100
AcDbLine
 10
113.337224068965
 20
139.3175522265969
 30
0.0
 11
115.5186470712051
 21
139.3175522265969
 31
0.0
  0
LINE
  5
175EB
330
20
100
AcDbEntity
  8
10200_FRONT_SYM
 62
     7
 48
0.0025
370
    15
100
AcDbLine
 10
114.4279355700851
 20
138.1699500253691
 30
0.0
 11
114.4279355700851
 21
140.4651544278246
 31
0.0
  0
LINE
  5
175EC
330
20
100
AcDbEntity
  8
10200_FRONT_SYM
 62
     7
 48
0.0025
370
    15
100
AcDbLine
 10
107.8186891347541
 20
133.295879226597
 30
0.0
 11
110.2060843797753
 21
133.295879226597
 31
0.0
  0
LINE
  5
175ED
330
20
100
AcDbEntity
  8
10200_FRONT_SYM
 62
     7
 48
0.0025
370
    15
100
AcDbLine
 10
109.043665570085
 20
132.1482770253692
 30
0.0
 11
109.043665570085
 21
134.4434814278247
 31
0.0
  0
LINE
  5
175EE
330
20
100
AcDbEntity
  8
10200_FRONT_SYM
 62
     7
 48
0.0025
370
    15
100
AcDbLine
 10
83.21578575389503
 20
132.8958672265971
 30
0.0
 11
86.81537654910517
 21
132.8958672265971
 31
0.0
  0
LINE
  5
175EF
330
20
100
AcDbEntity
  8
10200_FRONT_SYM
 62
     7
 48
0.0025
370
    15
100
AcDbLine
 10
85.04370557008497
 20
131.1750977500814
 30
0.0
 11
85.04370557008497
 21
134.613898741652
 31
0.0
  0
LINE
  5
175F0
330
20
100
AcDbEntity
  8
10200_FRONT_SYM
 62
     7
 48
0.0025
370
    15
100
AcDbLine
 10
84.89625700356759
 20
139.3175022265968
 30
0.0
 11
86.42269413660256
 21
139.3175022265968
 31
0.0
  0
LINE
  5
175F1
330
20
100
AcDbEntity
  8
10200_FRONT_SYM
 62
     7
 48
0.0025
370
    15
100
AcDbLine
 10
85.65947557008508
 20
138.5353784224194
 30
0.0
 11
85.65947557008508
 21
140.1048721648535
 31
0.0
  0
LINE
  5
175F2
330
20
100
AcDbEntity
  8
10200_FRONT_SYM
 62
     7
 48
0.0025
370
    15
100
AcDbLine
 10
97.9678447685128
 20
133.7424852265969
 30
0.0
 11
101.5000995093241
 21
133.7424852265969
 31
0.0
  0
LINE
  5
175F3
330
20
100
AcDbEntity
  8
10200_FRONT_SYM
 62
     7
 48
0.0025
370
    15
100
AcDbLine
 10
99.81902557008494
 20
132.2329000559821
 30
0.0
 11
99.81902557008494
 21
135.4143473531931
 31
0.0
  0
LINE
  5
175F4
330
20
100
AcDbEntity
  8
10200_FRONT_SYM
 62
     7
 48
0.0025
370
    15
100
AcDbLine
 10
94.80435335741686
 20
127.5958672265969
 30
0.0
 11
96.4830577827529
 21
127.5958672265969
 31
0.0
  0
LINE
  5
175F5
330
20
100
AcDbEntity
  8
10200_FRONT_SYM
 62
     7
 48
0.0025
370
    15
100
AcDbLine
 10
95.64307768539539
 20
126.7441293086822
 30
0.0
 11
95.64307768539539
 21
128.4628041618366
 31
0.0
  0
LINE
  5
175F6
330
20
100
AcDbEntity
  8
10200_FRONT_SYM
 62
     7
 48
0.0025
370
    15
100
AcDbLine
 10
104.2043533574172
 20
120.6958672265967
 30
0.0
 11
105.8830577827532
 21
120.6958672265967
 31
0.0
  0
LINE
  5
175F7
330
20
100
AcDbEntity
  8
10200_FRONT_SYM
 62
     7
 48
0.0025
370
    15
100
AcDbLine
 10
105.0430776853957
 20
119.844129308682
 30
0.0
 11
105.0430776853957
 21
121.5628041618365
 31
0.0
  0
LINE
  5
175F8
330
20
100
AcDbEntity
  8
10200_FRONT_SYM
 62
     7
 48
0.0025
370
    15
100
AcDbLine
 10
82.70435335741694
 20
119.6958672265967
 30
0.0
 11
84.38305778275298
 21
119.6958672265967
 31
0.0
  0
LINE
  5
175F9
330
20
100
AcDbEntity
  8
10200_FRONT_SYM
 62
     7
 48
0.0025
370
    15
100
AcDbLine
 10
83.54307768539547
 20
118.844129308682
 30
0.0
 11
83.54307768539547
 21
120.5628041618365
 31
0.0
  0
LINE
  5
175FA
330
20
100
AcDbEntity
  8
10200_FRONT_SYM
 62
     7
 48
0.0025
370
    15
100
AcDbLine
 10
115.3187291347542
 20
119.695868226597
 30
0.0
 11
117.7061243797755
 21
119.695868226597
 31
0.0
  0
LINE
  5
175FB
330
20
100
AcDbEntity
  8
10200_FRONT_SYM
 62
     7
 48
0.0025
370
    15
100
AcDbLine
 10
116.5437055700852
 20
118.5482660253692
 30
0.0
 11
116.5437055700852
 21
120.8434704278247
 31
0.0
  0
ENDSEC
  0
SECTION
  2
OBJECTS
  0
DICTIONARY
  5
C
330
0
100
AcDbDictionary
281
     1
  3
ACAD_COLOR
350
1B
  3
ACAD_GROUP
350
D
  3
ACAD_LAYOUT
350
19
  3
ACAD_MATERIAL
350
1A
  3
ACAD_MLINESTYLE
350
16
  3
ACAD_PLOTSETTINGS
350
18
  3
ACAD_PLOTSTYLENAME
350
E
  3
ACAD_TABLESTYLE
350
1722D
  3
ACAD_VISUALSTYLE
350
1721C
  3
AcDbVariableDictionary
350
171FD
  3
DWGPROPS
350
1763A
  0
DICTIONARY
  5
17231
330
20
100
AcDbDictionary
280
     1
281
     1
  3
ACAD_SORTENTS
360
17232
  0
DICTIONARY
  5
1B
102
{ACAD_REACTORS
330
C
102
}
330
C
100
AcDbDictionary
281
     1
  0
DICTIONARY
  5
D
102
{ACAD_REACTORS
330
C
102
}
330
C
100
AcDbDictionary
281
     1
  0
DICTIONARY
  5
19
102
{ACAD_REACTORS
330
C
102
}
330
C
100
AcDbDictionary
281
     1
  3
Layout1
350
1F
  3
Model
350
23
  0
DICTIONARY
  5
1A
102
{ACAD_REACTORS
330
C
102
}
330
C
100
AcDbDictionary
281
     1
  3
ByBlock
350
1721A
  3
ByLayer
350
17219
  3
Global
350
1721B
  0
DICTIONARY
  5
16
102
{ACAD_REACTORS
330
C
102
}
330
C
100
AcDbDictionary
281
     1
  3
Standard
350
17
  0
DICTIONARY
  5
18
102
{ACAD_REACTORS
330
C
102
}
330
C
100
AcDbDictionary
281
     1
  0
ACDBDICTIONARYWDFLT
  5
E
102
{ACAD_REACTORS
330
C
102
}
330
C
100
AcDbDictionary
281
     1
  3
Normal
350
F
100
AcDbDictionaryWithDefault
340
F
  0
DICTIONARY
  5
1722D
102
{ACAD_REACTORS
330
C
102
}
330
C
100
AcDbDictionary
281
     1
  3
Standard
350
1722E
  0
DICTIONARY
  5
1721C
102
{ACAD_REACTORS
330
C
102
}
330
C
100
AcDbDictionary
281
     1
  3
2dWireframe
350
17222
  3
3D Hidden
350
17224
  3
3dWireframe
350
17223
  3
Basic
350
17221
  3
Brighten
350
17228
  3
ColorChange
350
1722C
  3
Conceptual
350
17225
  3
Dim
350
17227
  3
Facepattern
350
1722B
  3
Flat
350
1721D
  3
FlatWithEdges
350
1721E
  3
Gouraud
350
1721F
  3
GouraudWithEdges
350
17220
  3
Linepattern
350
1722A
  3
Realistic
350
17226
  3
Thicken
350
17229
  0
DICTIONARY
  5
171FD
102
{ACAD_REACTORS
330
C
102
}
330
C
100
AcDbDictionary
281
     1
  3
CTABLESTYLE
350
1723D
  3
DIMASSOC
350
171FE
  3
INDEXCTL
350
1723F
  3
PROJECTNAME
350
171FF
  3
SORTENTS
350
1723E
  0
XRECORD
  5
1763A
102
{ACAD_REACTORS
330
C
102
}
330
C
100
AcDbXrecord
280
     1
  1
DWGPROPS COOKIE
  2

  3

  4

  6

  7

  8
adfize1
  9

300
=
301
=
302
=
303
=
304
=
305
=
306
=
307
=
308
=
309
=
 40
1.319189513888888
 41
2452842.510378507
 42
2454480.643754873
  1

 90
        0
  0
SORTENTSTABLE
  5
17232
102
{ACAD_REACTORS
330
17231
102
}
330
17231
100
AcDbSortentsTable
330
20
331
173F7
  5
173F7
331
173CC
  5
173CC
331
173D4
  5
173D4
331
173D8
  5
173D8
  0
LAYOUT
  5
1F
102
{ACAD_XDICTIONARY
360
1763B
102
}
102
{ACAD_REACTORS
330
19
102
}
330
19
100
AcDbPlotSettings
  1

  2
HP LaserJet 5000 Series PS
  4

  6

 40
0.0
 41
0.0
 42
0.0
 43
0.0
 44
0.0
 45
0.0
 46
0.0
 47
0.0
 48
0.0
 49
0.0
140
0.0
141
0.0
142
1.0
143
1.0
 70
   688
 72
     0
 73
     0
 74
     5
  7
monochrome.ctb
 75
    16
147
1.0
148
0.0
149
0.0
100
AcDbLayout
  1
Layout1
 70
     1
 71
     1
 10
0.0
 20
0.0
 11
12.0
 21
9.0
 12
0.0
 22
0.0
 32
0.0
 14
1.000000000000000E+20
 24
1.000000000000000E+20
 34
1.000000000000000E+20
 15
-1.000000000000000E+20
 25
-1.000000000000000E+20
 35
-1.000000000000000E+20
146
0.0
 13
0.0
 23
0.0
 33
0.0
 16
1.0
 26
0.0
 36
0.0
 17
0.0
 27
1.0
 37
0.0
 76
     0
330
1C
  0
LAYOUT
  5
23
102
{ACAD_XDICTIONARY
360
1763D
102
}
102
{ACAD_REACTORS
330
19
102
}
330
19
100
AcDbPlotSettings
  1

  2
\\AMBW779A\A_P00873 (Canon iR2200-3300 PCL6)
  4
A4
  6

 40
4.815416812896728
 41
4.815412044525146
 42
4.815414428710936
 43
4.8154296875
 44
209.9733276367186
 45
296.9259948730469
 46
0.0
 47
0.0
 48
0.0
 49
0.0
140
0.0
141
0.0
142
1.0
143
1.0
 70
 28336
 72
     1
 73
     0
 74
     1
  7
monochrome.ctb
 75
    16
147
1.0
148
-180.6671463687289
149
18.05402292414487
100
AcDbLayout
  1
Model
 70
     1
 71
     0
 10
0.0
 20
0.0
 11
12.0
 21
9.0
 12
0.0
 22
0.0
 32
0.0
 14
0.0
 24
0.0
 34
0.0
 15
0.0
 25
0.0
 35
0.0
146
0.0
 13
0.0
 23
0.0
 33
0.0
 16
1.0
 26
0.0
 36
0.0
 17
0.0
 27
1.0
 37
0.0
 76
     0
330
20
331
1720D
  0
MATERIAL
  5
1721A
102
{ACAD_XDICTIONARY
360
17247
102
}
102
{ACAD_REACTORS
330
1A
102
}
330
1A
100
AcDbMaterial
  1
ByBlock
  0
MATERIAL
  5
17219
102
{ACAD_XDICTIONARY
360
17245
102
}
102
{ACAD_REACTORS
330
1A
102
}
330
1A
100
AcDbMaterial
  1
ByLayer
  0
MATERIAL
  5
1721B
102
{ACAD_XDICTIONARY
360
17249
102
}
102
{ACAD_REACTORS
330
1A
102
}
330
1A
100
AcDbMaterial
  1
Global
  0
MLINESTYLE
  5
17
102
{ACAD_REACTORS
330
16
102
}
330
16
100
AcDbMlineStyle
  2
STANDARD
 70
     0
  3

 62
   256
 51
90.0
 52
90.0
 71
     2
 49
0.5
 62
   256
  6
BYLAYER
 49
-0.5
 62
   256
  6
BYLAYER
  0
ACDBPLACEHOLDER
  5
F
102
{ACAD_REACTORS
330
E
102
}
330
E
  0
TABLESTYLE
  5
1722E
102
{ACAD_XDICTIONARY
360
1763F
102
}
102
{ACAD_REACTORS
330
1722D
102
}
330
1722D
100
AcDbTableStyle
  3
Standard
 70
     0
 71
     0
 40
0.06
 41
0.06
280
     0
281
     0
  7
Standard
140
0.18
170
     2
 62
     0
 63
     7
283
     0
274
    -2
284
     1
 64
     0
275
    -2
285
     1
 65
     0
276
    -2
286
     1
 66
     0
277
    -2
287
     1
 67
     0
278
    -2
288
     1
 68
     0
279
    -2
289
     1
 69
     0
  7
Standard
140
0.25
170
     5
 62
     0
 63
     7
283
     0
274
    -2
284
     1
 64
     0
275
    -2
285
     1
 65
     0
276
    -2
286
     1
 66
     0
277
    -2
287
     1
 67
     0
278
    -2
288
     1
 68
     0
279
    -2
289
     1
 69
     0
  7
Standard
140
0.18
170
     5
 62
     0
 63
     7
283
     0
274
    -2
284
     1
 64
     0
275
    -2
285
     1
 65
     0
276
    -2
286
     1
 66
     0
277
    -2
287
     1
 67
     0
278
    -2
288
     1
 68
     0
279
    -2
289
     1
 69
     0
  0
VISUALSTYLE
  5
17222
102
{ACAD_REACTORS
330
1721C
102
}
330
1721C
100
AcDbVisualStyle
  2
2dWireframe
 70
     4
 71
     0
 72
     2
 73
     0
 90
        0
 40
-0.6
 41
-30.0
 62
     5
 63
     7
 74
     1
 91
        4
 64
     7
 65
   257
 75
     1
175
     1
 42
1.0
 92
        0
 66
   257
 43
1.0
 76
     1
 77
     6
 78
     2
 67
     7
 79
     5
170
     0
171
     0
290
     0
174
     0
 93
        1
 44
0.0
173
     0
291
     0
 45
0.0
1001
ACAD
1000
AcDbSavedByObjectVersion
1070
     0
1000
AcDbSavedByObjectVersion
1070
     0
  0
VISUALSTYLE
  5
17224
102
{ACAD_REACTORS
330
1721C
102
}
330
1721C
100
AcDbVisualStyle
  2
3D Hidden
 70
     6
 71
     1
 72
     2
 73
     2
 90
        0
 40
-0.6
 41
-30.0
 62
     5
 63
     7
 74
     2
 91
        2
 64
     7
 65
   257
 75
     2
175
     1
 42
40.0
 92
        0
 66
   257
 43
1.0
 76
     1
 77
     6
 78
     2
 67
     7
 79
     3
170
     0
171
     0
290
     0
174
     0
 93
        1
 44
0.0
173
     0
291
     0
 45
0.0
1001
ACAD
1000
AcDbSavedByObjectVersion
1070
     0
1000
AcDbSavedByObjectVersion
1070
     0
  0
VISUALSTYLE
  5
17223
102
{ACAD_REACTORS
330
1721C
102
}
330
1721C
100
AcDbVisualStyle
  2
3dWireframe
 70
     5
 71
     0
 72
     2
 73
     0
 90
        0
 40
-0.6
 41
-30.0
 62
     5
 63
     7
 74
     1
 91
        4
 64
     7
 65
   257
 75
     1
175
     1
 42
1.0
 92
        0
 66
   257
 43
1.0
 76
     1
 77
     6
 78
     2
 67
     7
 79
     5
170
     0
171
     0
290
     0
174
     0
 93
        1
 44
0.0
173
     0
291
     0
 45
0.0
1001
ACAD
1000
AcDbSavedByObjectVersion
1070
     0
1000
AcDbSavedByObjectVersion
1070
     0
  0
VISUALSTYLE
  5
17221
102
{ACAD_REACTORS
330
1721C
102
}
330
1721C
100
AcDbVisualStyle
  2
Basic
 70
     7
 71
     1
 72
     0
 73
     1
 90
        0
 40
-0.6
 41
-30.0
 62
     5
 63
     7
 74
     0
 91
        4
 64
     7
 65
   257
 75
     1
175
     1
 42
1.0
 92
        8
 66
     7
 43
1.0
 76
     1
 77
     6
 78
     2
 67
     7
 79
     5
170
     0
171
     0
290
     0
174
     0
 93
        1
 44
0.0
173
     0
291
     1
 45
0.0
1001
ACAD
1000
AcDbSavedByObjectVersion
1070
     0
1000
AcDbSavedByObjectVersion
1070
     0
  0
VISUALSTYLE
  5
17228
102
{ACAD_REACTORS
330
1721C
102
}
330
1721C
100
AcDbVisualStyle
  2
Brighten
 70
    12
 71
     2
 72
     2
 73
     0
 90
        0
 40
-0.6
 41
-30.0
 62
     5
 63
     7
 74
     1
 91
        4
 64
     7
 65
   257
 75
     1
175
     1
 42
1.0
 92
        8
 66
     7
 43
1.0
 76
     1
 77
     6
 78
     2
 67
     7
 79
     5
170
     0
171
     0
290
     0
174
     0
 93
        1
 44
50.0
173
     0
291
     1
 45
0.0
1001
ACAD
1000
AcDbSavedByObjectVersion
1070
     0
1000
AcDbSavedByObjectVersion
1070
     0
  0
VISUALSTYLE
  5
1722C
102
{ACAD_REACTORS
330
1721C
102
}
330
1721C
100
AcDbVisualStyle
  2
ColorChange
 70
    16
 71
     2
 72
     2
 73
     3
 90
        0
 40
-0.6
 41
-30.0
 62
     5
 63
     8
 74
     1
 91
        4
 64
     7
 65
   257
 75
     1
175
     1
 42
1.0
 92
        8
 66
     8
 43
1.0
 76
     1
 77
     6
 78
     2
 67
     7
 79
     5
170
     0
171
     0
290
     0
174
     0
 93
        1
 44
0.0
173
     0
291
     1
 45
0.0
1001
ACAD
1000
AcDbSavedByObjectVersion
1070
     0
1000
AcDbSavedByObjectVersion
1070
     0
  0
VISUALSTYLE
  5
17225
102
{ACAD_REACTORS
330
1721C
102
}
330
1721C
100
AcDbVisualStyle
  2
Conceptual
 70
     9
 71
     3
 72
     2
 73
     0
 90
        0
 40
-0.6
 41
-30.0
 62
     5
 63
     7
 74
     2
 91
        2
 64
     7
 65
   257
 75
     1
175
     1
 42
40.0
 92
        8
 66
     7
 43
1.0
 76
     1
 77
     6
 78
     2
 67
     7
 79
     3
170
     0
171
     0
290
     0
174
     0
 93
        1
 44
0.0
173
     0
291
     0
 45
0.0
1001
ACAD
1000
AcDbSavedByObjectVersion
1070
     0
1000
AcDbSavedByObjectVersion
1070
     0
  0
VISUALSTYLE
  5
17227
102
{ACAD_REACTORS
330
1721C
102
}
330
1721C
100
AcDbVisualStyle
  2
Dim
 70
    11
 71
     2
 72
     2
 73
     0
 90
        0
 40
-0.6
 41
-30.0
 62
     5
 63
     7
 74
     1
 91
        4
 64
     7
 65
   257
 75
     1
175
     1
 42
1.0
 92
        8
 66
     7
 43
1.0
 76
     1
 77
     6
 78
     2
 67
     7
 79
     5
170
     0
171
     0
290
     0
174
     0
 93
        1
 44
-50.0
173
     0
291
     1
 45
0.0
1001
ACAD
1000
AcDbSavedByObjectVersion
1070
     0
1000
AcDbSavedByObjectVersion
1070
     0
  0
VISUALSTYLE
  5
1722B
102
{ACAD_REACTORS
330
1721C
102
}
330
1721C
100
AcDbVisualStyle
  2
Facepattern
 70
    15
 71
     2
 72
     2
 73
     0
 90
        0
 40
-0.6
 41
-30.0
 62
     5
 63
     7
 74
     1
 91
        4
 64
     7
 65
   257
 75
     1
175
     1
 42
1.0
 92
        8
 66
     7
 43
1.0
 76
     1
 77
     6
 78
     2
 67
     7
 79
     5
170
     0
171
     0
290
     0
174
     0
 93
        1
 44
0.0
173
     0
291
     1
 45
0.0
1001
ACAD
1000
AcDbSavedByObjectVersion
1070
     0
1000
AcDbSavedByObjectVersion
1070
     0
  0
VISUALSTYLE
  5
1721D
102
{ACAD_REACTORS
330
1721C
102
}
330
1721C
100
AcDbVisualStyle
  2
Flat
 70
     0
 71
     2
 72
     1
 73
     1
 90
        2
 40
-0.6
 41
30.0
 62
     5
 63
     7
 74
     0
 91
        4
 64
     7
 65
   257
 75
     1
175
     1
 42
1.0
 92
        8
 66
     7
 43
1.0
 76
     1
 77
     6
 78
     2
 67
     7
 79
     5
170
     0
171
     0
290
     0
174
     0
 93
       13
 44
0.0
173
     0
291
     1
 45
0.0
1001
ACAD
1000
AcDbSavedByObjectVersion
1070
     0
1000
AcDbSavedByObjectVersion
1070
     0
  0
VISUALSTYLE
  5
1721E
102
{ACAD_REACTORS
330
1721C
102
}
330
1721C
100
AcDbVisualStyle
  2
FlatWithEdges
 70
     1
 71
     2
 72
     1
 73
     1
 90
        2
 40
-0.6
 41
30.0
 62
     5
 63
     7
 74
     1
 91
        4
 64
     7
 65
   257
 75
     1
175
     1
 42
1.0
 92
        0
 66
   257
 43
1.0
 76
     1
 77
     6
 78
     2
 67
     7
 79
     5
170
     0
171
     0
290
     0
174
     0
 93
       13
 44
0.0
173
     0
291
     1
 45
0.0
1001
ACAD
1000
AcDbSavedByObjectVersion
1070
     0
1000
AcDbSavedByObjectVersion
1070
     0
  0
VISUALSTYLE
  5
1721F
102
{ACAD_REACTORS
330
1721C
102
}
330
1721C
100
AcDbVisualStyle
  2
Gouraud
 70
     2
 71
     2
 72
     2
 73
     1
 90
        2
 40
-0.6
 41
30.0
 62
     5
 63
     7
 74
     0
 91
        4
 64
     7
 65
   257
 75
     1
175
     1
 42
1.0
 92
        0
 66
     7
 43
1.0
 76
     1
 77
     6
 78
     2
 67
     7
 79
     5
170
     0
171
     0
290
     0
174
     0
 93
       13
 44
0.0
173
     0
291
     1
 45
0.0
1001
ACAD
1000
AcDbSavedByObjectVersion
1070
     0
1000
AcDbSavedByObjectVersion
1070
     0
  0
VISUALSTYLE
  5
17220
102
{ACAD_REACTORS
330
1721C
102
}
330
1721C
100
AcDbVisualStyle
  2
GouraudWithEdges
 70
     3
 71
     2
 72
     2
 73
     1
 90
        2
 40
-0.6
 41
30.0
 62
     5
 63
     7
 74
     1
 91
        4
 64
     7
 65
   257
 75
     1
175
     1
 42
1.0
 92
        0
 66
   257
 43
1.0
 76
     1
 77
     6
 78
     2
 67
     7
 79
     5
170
     0
171
     0
290
     0
174
     0
 93
       13
 44
0.0
173
     0
291
     1
 45
0.0
1001
ACAD
1000
AcDbSavedByObjectVersion
1070
     0
1000
AcDbSavedByObjectVersion
1070
     0
  0
VISUALSTYLE
  5
1722A
102
{ACAD_REACTORS
330
1721C
102
}
330
1721C
100
AcDbVisualStyle
  2
Linepattern
 70
    14
 71
     2
 72
     2
 73
     0
 90
        0
 40
-0.6
 41
-30.0
 62
     5
 63
     7
 74
     1
 91
        4
 64
     7
 65
   257
 75
     7
175
     7
 42
1.0
 92
        8
 66
     7
 43
1.0
 76
     1
 77
     6
 78
     2
 67
     7
 79
     5
170
     0
171
     0
290
     0
174
     0
 93
        1
 44
0.0
173
     0
291
     1
 45
0.0
1001
ACAD
1000
AcDbSavedByObjectVersion
1070
     0
1000
AcDbSavedByObjectVersion
1070
     0
  0
VISUALSTYLE
  5
17226
102
{ACAD_REACTORS
330
1721C
102
}
330
1721C
100
AcDbVisualStyle
  2
Realistic
 70
     8
 71
     2
 72
     2
 73
     0
 90
        0
 40
-0.6
 41
-30.0
 62
     5
 63
     7
 74
     1
 91
        0
 64
     7
 65
   257
 75
     1
175
     1
 42
1.0
 92
        8
 66
     8
 43
1.0
 76
     1
 77
     6
 78
     2
 67
     7
 79
     5
170
     0
171
     0
290
     0
174
     0
 93
       13
 44
0.0
173
     0
291
     0
 45
0.0
1001
ACAD
1000
AcDbSavedByObjectVersion
1070
     0
1000
AcDbSavedByObjectVersion
1070
     0
  0
VISUALSTYLE
  5
17229
102
{ACAD_REACTORS
330
1721C
102
}
330
1721C
100
AcDbVisualStyle
  2
Thicken
 70
    13
 71
     2
 72
     2
 73
     0
 90
        0
 40
-0.6
 41
-30.0
 62
     5
 63
     7
 74
     1
 91
        4
 64
     7
 65
   257
 75
     1
175
     1
 42
1.0
 92
       12
 66
     7
 43
1.0
 76
     1
 77
     6
 78
     2
 67
     7
 79
     5
170
     0
171
     0
290
     0
174
     0
 93
        1
 44
0.0
173
     0
291
     1
 45
0.0
1001
ACAD
1000
AcDbSavedByObjectVersion
1070
     0
1000
AcDbSavedByObjectVersion
1070
     0
  0
DICTIONARYVAR
  5
1723D
102
{ACAD_REACTORS
330
171FD
102
}
330
171FD
100
DictionaryVariables
280
     0
  1
STANDARD
  0
DICTIONARYVAR
  5
171FE
102
{ACAD_REACTORS
330
171FD
102
}
330
171FD
100
DictionaryVariables
280
     0
  1
1
  0
DICTIONARYVAR
  5
1723F
102
{ACAD_REACTORS
330
171FD
102
}
330
171FD
100
DictionaryVariables
280
     0
  1
0
  0
DICTIONARYVAR
  5
171FF
102
{ACAD_REACTORS
330
171FD
102
}
330
171FD
100
DictionaryVariables
280
     0
  1

  0
DICTIONARYVAR
  5
1723E
102
{ACAD_REACTORS
330
171FD
102
}
330
171FD
100
DictionaryVariables
280
     0
  1
127
  0
DICTIONARY
  5
1763B
330
1F
100
AcDbDictionary
280
     1
281
     1
  3
ACAD_XREC_ROUNDTRIP
360
1763C
  0
DICTIONARY
  5
1763D
330
23
100
AcDbDictionary
280
     1
281
     1
  3
ACAD_XREC_ROUNDTRIP
360
1763E
  0
DICTIONARY
  5
17247
330
1721A
100
AcDbDictionary
280
     1
281
     1
  3
ACAD_XREC_ROUNDTRIP
360
17248
  0
DICTIONARY
  5
17245
330
17219
100
AcDbDictionary
280
     1
281
     1
  3
ACAD_XREC_ROUNDTRIP
360
17246
  0
DICTIONARY
  5
17249
330
1721B
100
AcDbDictionary
280
     1
281
     1
  3
ACAD_XREC_ROUNDTRIP
360
1724A
  0
DICTIONARY
  5
1763F
330
1722E
100
AcDbDictionary
280
     1
281
     1
  3
ACAD_XREC_ROUNDTRIP
360
17640
  0
XRECORD
  5
1763C
102
{ACAD_REACTORS
330
1763B
102
}
330
1763B
100
AcDbXrecord
280
     1
102
SHADEPLOT
 70
     0
102
SHADEPLOTRESLEVEL
 70
     2
102
SHADEPLOTCUSTOMDPI
 70
   300
  0
XRECORD
  5
1763E
102
{ACAD_REACTORS
330
1763D
102
}
330
1763D
100
AcDbXrecord
280
     1
102
SHADEPLOT
 70
     1
102
SHADEPLOTRESLEVEL
 70
     2
102
SHADEPLOTCUSTOMDPI
 70
   300
  0
XRECORD
  5
17248
102
{ACAD_REACTORS
330
17247
102
}
330
17247
100
AcDbXrecord
280
     1
102
MATERIAL
148
0.0
149
0.0
149
0.0
 93
        0
 94
       63
282
     0
 72
     1
 77
     1
171
     1
175
     1
179
     1
273
     0
  0
XRECORD
  5
17246
102
{ACAD_REACTORS
330
17245
102
}
330
17245
100
AcDbXrecord
280
     1
102
MATERIAL
148
0.0
149
0.0
149
0.0
 93
        0
 94
       63
282
     0
 72
     1
 77
     1
171
     1
175
     1
179
     1
273
     0
  0
XRECORD
  5
1724A
102
{ACAD_REACTORS
330
17249
102
}
330
17249
100
AcDbXrecord
280
     1
102
MATERIAL
148
0.0
149
0.0
149
0.0
 93
        0
 94
       63
282
     0
 72
     1
 77
     1
171
     1
175
     1
179
     1
273
     0
  0
XRECORD
  5
17640
102
{ACAD_REACTORS
330
1763F
102
}
330
1763F
100
AcDbXrecord
280
     1
102
ACAD_ROUNDTRIP_PRE2007_TABLESTYLE
 90
      512
 91
        0
  1

 92
      512
 93
        0
  2

 94
      512
 95
        0
  3

  0
ENDSEC
  0
EOF
