999
DXF file: 6gk50050ba001ab2_001_all.dxf
999
Pro/ENGINEER 2005170 by Parametric Technology Corporation
0
SECTION
2
HEADER
9
$EXTMAX
10
420.0000000000
20
297.0000000000
30
0.0000000000
9
$EXTMIN
10
0.0000000000
20
-0.0000000000
30
0.0000000000
9
$LIMMIN
10
0.0000000000
20
-0.0000000000
9
$LIMMAX
10
420.0000000000
20
297.0000000000
9
$VIEWCTR
10
210.0000000000
20
148.5000000000
9
$VIEWSIZE
40
297.0000000000
9
$CLAYER
8
0
9
$LTSCALE
40
23.1000000000
9
$CELTYPE
6
BYLAYER
9
$DIMSCALE
40
1
9
$DIMASZ
40
3.5000000000
9
$DIMEXO
40
2.6250000000
9
$DIMDLI
40
15.9600000000
9
$DIMEXE
40
7.5600000000
9
$DIMCEN
40
3.7800000000
9
$DIMLFAC
40
1.0000000000
9
$DIMBLK
1
_FILLED
9
$DIMTXT
40
3.5000000000
9
$PDMODE
70
3
9
$PDSIZE
40
0.3125000000
0
ENDSEC
0
SECTION
2
TABLES
0
TABLE
2
LTYPE
70
6
0
LTYPE
2
BYBLOCK
70
0
3

72
65
73
0
40
0.0
0
LTYPE
2
BYLAYER
70
0
3

72
65
73
0
40
0.0
0
LTYPE
2
CONTINUOUS
70
64
3
Solid line
72
65
73
0
40
0
0
LTYPE
2
CENTER
70
64
3
____ _ ____ _ ____ _ ____ _ ____ _ ____ _ ____
72
65
73
4
40
0.6
49
0.375
49
-0.075
49
0.075
49
-0.075
0
LTYPE
2
HIDDEN
70
64
3
- - - - - - - - - - - - - - - - - - - -
72
65
73
2
40
0.2
49
0.1
49
-0.1
0
LTYPE
2
PHANTOM
70
64
3
_____ _ _ _____ _ _ _____ _ _ _____
72
65
73
6
40
0.8
49
0.45
49
-0.05
49
0.1
49
-0.05
49
0.1
49
-0.05
0
LTYPE
2
DOT
70
64
3
. . . . . . . . . . . . . . . . . . . .
72
65
73
2
40
0.2
49
0.1
49
-0.1
0
LTYPE
2
DASHED
70
64
3
- - - - - - - - - - - - - - - - - - - -
72
65
73
2
40
0.2
49
0.1
49
-0.1
0
ENDTAB
0
TABLE
2
LAYER
70
36
0
LAYER
2
0
70
0
62
7
6
CONTINUOUS
0
LAYER
2
DEFAULT_1
70
0
62
7
6
CENTER
0
LAYER
2
DEFAULT_2
70
0
62
8
6
HIDDEN
0
LAYER
2
DEFAULT_3
70
0
62
7
6
PHANTOM
0
LAYER
2
_2D_DELETED_OBJS
70
0
62
7
6
CONTINUOUS
0
LAYER
2
10000_FRONT
70
0
62
7
6
CONTINUOUS
0
LAYER
2
10100_DIM_FRONT
70
0
62
7
6
CONTINUOUS
0
LAYER
2
10300_FRONT_GERMAN_ENGLISH
70
0
62
7
6
CONTINUOUS
0
LAYER
2
11000_LEFT
70
0
62
7
6
CONTINUOUS
0
LAYER
2
11100_DIM_LEFT
70
0
62
7
6
CONTINUOUS
0
LAYER
2
11300_LEFT_GERMAN_ENGLISH
70
0
62
7
6
CONTINUOUS
0
LAYER
2
13000_TOP
70
0
62
7
6
CONTINUOUS
0
LAYER
2
13300_TOP_GERMAN_ENGLISH
70
0
62
7
6
CONTINUOUS
0
LAYER
2
90000_FRAME
70
0
62
7
6
CONTINUOUS
0
LAYER
2
91000_TIP
70
0
62
7
6
CONTINUOUS
0
ENDTAB
0
TABLE
2
STYLE
70
1
0
STYLE
2
STANDARD
70
0
40
0.0
41
0.8000000000
50
0.0
71
0
42
0.2
3
txt
4

0
STYLE
2
TEXTSTYLE_1
70
0
40
0.0
41
0.8000000000
50
0.0
71
0
42
0.2
3
txt
4

0
ENDTAB
0
ENDSEC
0
SECTION
2
BLOCKS
0
BLOCK
8
10100_DIM_FRONT
62
7
6
CONTINUOUS
2
*D0
70
65
10
0.0000000000
20
0.0000000000
0
TEXT
8
10100_DIM_FRONT
62
7
6
CONTINUOUS
10
132.2312612447
20
272.7458856251
7
TEXTSTYLE_1
40
3.5000000000
1
45
41
0.7500000000
72
0
0
LINE
8
10100_DIM_FRONT
62
7
6
CONTINUOUS
10
156.9449069736
20
260.1071359286
11
156.9449069736
21
273.8708856251
0
LINE
8
10100_DIM_FRONT
62
7
6
CONTINUOUS
10
111.9449069736
20
260.1071359286
11
111.9449069736
21
273.8708856251
0
LINE
8
10100_DIM_FRONT
62
7
6
CONTINUOUS
10
156.9449069736
20
271.8708856251
11
134.4449069736
21
271.8708856251
0
LINE
8
10100_DIM_FRONT
62
7
6
CONTINUOUS
10
111.9449069736
20
271.8708856251
11
134.4449069736
21
271.8708856251
0
INSERT
8
10100_DIM_FRONT
62
7
6
CONTINUOUS
2
_FILLED
10
156.9449069736
20
271.8708856251
41
  3.500000
42
  3.500000
43
  3.500000
0
INSERT
8
10100_DIM_FRONT
62
7
6
CONTINUOUS
2
_FILLED
10
111.9449069736
20
271.8708856251
41
  3.500000
42
  3.500000
43
  3.500000
50
180.000000
0
ENDBLK
8
0
6
BYBLOCK
62
0
0
BLOCK
8
11100_DIM_LEFT
62
7
6
CONTINUOUS
2
*D1
70
65
10
0.0000000000
20
0.0000000000
0
TEXT
8
11100_DIM_LEFT
62
7
6
CONTINUOUS
10
222.1254634658
20
237.6713199184
7
TEXTSTYLE_1
40
3.5000000000
1
32,4
50
90.0000000000
41
0.7142857143
72
0
0
LINE
8
11100_DIM_LEFT
62
7
6
CONTINUOUS
10
240.2150287909
20
260.5071364853
11
221.0004634658
21
260.5071364853
0
LINE
8
11100_DIM_LEFT
62
7
6
CONTINUOUS
10
237.4564974017
20
228.1071364853
11
221.0004634658
21
228.1071364853
0
LINE
8
11100_DIM_LEFT
62
7
6
CONTINUOUS
10
223.0004634658
20
260.5071364853
11
223.0004634658
21
244.3071364853
0
LINE
8
11100_DIM_LEFT
62
7
6
CONTINUOUS
10
223.0004634658
20
228.1071364853
11
223.0004634658
21
244.3071364853
0
INSERT
8
11100_DIM_LEFT
62
7
6
CONTINUOUS
2
_FILLED
10
223.0004634658
20
260.5071364853
41
  3.500000
42
  3.500000
43
  3.500000
50
 90.000000
0
INSERT
8
11100_DIM_LEFT
62
7
6
CONTINUOUS
2
_FILLED
10
223.0004634658
20
228.1071364853
41
  3.500000
42
  3.500000
43
  3.500000
50
270.000000
0
ENDBLK
8
0
6
BYBLOCK
62
0
0
BLOCK
8
11100_DIM_LEFT
62
7
6
CONTINUOUS
2
*D2
70
65
10
0.0000000000
20
0.0000000000
0
TEXT
8
11100_DIM_LEFT
62
7
6
CONTINUOUS
10
341.5110896874
20
204.9757545072
7
TEXTSTYLE_1
40
3.5000000000
1
100
50
90.0000000000
41
0.7142857143
72
0
0
LINE
8
11100_DIM_LEFT
62
7
6
CONTINUOUS
10
321.5873589304
20
260.5071364853
11
344.3860896874
21
260.5071364853
0
LINE
8
11100_DIM_LEFT
62
7
6
CONTINUOUS
10
321.5873589304
20
160.5071364853
11
344.3860896874
21
160.5071364853
0
LINE
8
11100_DIM_LEFT
62
7
6
CONTINUOUS
10
342.3860896874
20
260.5071364853
11
342.3860896874
21
210.5071364853
0
LINE
8
11100_DIM_LEFT
62
7
6
CONTINUOUS
10
342.3860896874
20
160.5071364853
11
342.3860896874
21
210.5071364853
0
INSERT
8
11100_DIM_LEFT
62
7
6
CONTINUOUS
2
_FILLED
10
342.3860896874
20
260.5071364853
41
  3.500000
42
  3.500000
43
  3.500000
50
 90.000000
0
INSERT
8
11100_DIM_LEFT
62
7
6
CONTINUOUS
2
_FILLED
10
342.3860896874
20
160.5071364853
41
  3.500000
42
  3.500000
43
  3.500000
50
270.000000
0
ENDBLK
8
0
6
BYBLOCK
62
0
0
BLOCK
8
11100_DIM_LEFT
62
7
6
CONTINUOUS
2
*D3
70
65
10
0.0000000000
20
0.0000000000
0
TEXT
8
11100_DIM_LEFT
62
7
6
CONTINUOUS
10
275.5198290317
20
143.4560209437
7
TEXTSTYLE_1
40
3.5000000000
1
87,1
41
0.6785714286
72
0
0
LINE
8
11100_DIM_LEFT
62
7
6
CONTINUOUS
10
237.0564974017
20
160.9071364853
11
237.0564974017
21
140.5810209437
0
LINE
8
11100_DIM_LEFT
62
7
6
CONTINUOUS
10
324.1923875225
20
210.5071364853
11
324.1923875225
21
140.5810209437
0
LINE
8
11100_DIM_LEFT
62
7
6
CONTINUOUS
10
237.0564974017
20
142.5810209437
11
280.6244424621
21
142.5810209437
0
LINE
8
11100_DIM_LEFT
62
7
6
CONTINUOUS
10
324.1923875225
20
142.5810209437
11
280.6244424621
21
142.5810209437
0
INSERT
8
11100_DIM_LEFT
62
7
6
CONTINUOUS
2
_FILLED
10
237.0564974017
20
142.5810209437
41
  3.500000
42
  3.500000
43
  3.500000
50
180.000000
0
INSERT
8
11100_DIM_LEFT
62
7
6
CONTINUOUS
2
_FILLED
10
324.1923875225
20
142.5810209437
41
  3.500000
42
  3.500000
43
  3.500000
50
360.000000
0
ENDBLK
8
0
6
BYBLOCK
62
0
0
BLOCK
8
11100_DIM_LEFT
62
7
6
CONTINUOUS
2
*D4
70
65
10
0.0000000000
20
0.0000000000
0
TEXT
8
11100_DIM_LEFT
62
7
6
CONTINUOUS
10
281.7049053929
20
273.2651518338
7
TEXTSTYLE_1
40
3.5000000000
1
82,1
41
0.6785714286
72
0
0
LINE
8
11100_DIM_LEFT
62
7
6
CONTINUOUS
10
324.1923875225
20
210.5071364853
11
324.1923875225
21
274.3901518338
0
LINE
8
11100_DIM_LEFT
62
7
6
CONTINUOUS
10
242.0564974017
20
228.1071364853
11
242.0564974017
21
274.3901518338
0
LINE
8
11100_DIM_LEFT
62
7
6
CONTINUOUS
10
324.1923875225
20
272.3901518338
11
283.1244424621
21
272.3901518338
0
LINE
8
11100_DIM_LEFT
62
7
6
CONTINUOUS
10
242.0564974017
20
272.3901518338
11
283.1244424621
21
272.3901518338
0
INSERT
8
11100_DIM_LEFT
62
7
6
CONTINUOUS
2
_FILLED
10
324.1923875225
20
272.3901518338
41
  3.500000
42
  3.500000
43
  3.500000
0
INSERT
8
11100_DIM_LEFT
62
7
6
CONTINUOUS
2
_FILLED
10
242.0564974017
20
272.3901518338
41
  3.500000
42
  3.500000
43
  3.500000
50
180.000000
0
ENDBLK
8
0
6
BYBLOCK
62
0
0
BLOCK
8
0
2
_FILLED
70
64
10
0.0000000000
20
0.0000000000
0
SOLID
8
0
6
BYBLOCK
62
0
10
0.0000000000
20
0.0000000000
11
-1.0000000000
21
0.1428571429
12
-1.0000000000
22
-0.1428571429
13
-1.0000000000
23
-0.1428571429
0
ENDBLK
8
0
6
BYBLOCK
62
0
0
ENDSEC
0
SECTION
2
ENTITIES
0
DIMENSION
8
10100_DIM_FRONT
62
7
6
CONTINUOUS
2
*D0
10
111.9449069736
20
271.8708856251
11
134.8562612447
21
274.4958856251
70
128
13
156.9449069736
23
260.1071359286
14
111.9449069736
24
260.1071359286
50
180.000000
0
DIMENSION
8
11100_DIM_LEFT
62
7
6
CONTINUOUS
2
*D1
10
223.0004634658
20
228.1071364853
11
220.3754634658
21
242.6713199185
70
128
13
240.2150287909
23
260.5071364853
14
237.4564974017
24
228.1071364853
50
270.000000
0
DIMENSION
8
11100_DIM_LEFT
62
7
6
CONTINUOUS
2
*D2
10
342.3860896874
20
160.5071364853
11
339.7610896874
21
208.7257545073
70
128
13
321.5873589304
23
260.5071364853
14
321.5873589304
24
160.5071364853
50
270.000000
0
DIMENSION
8
11100_DIM_LEFT
62
7
6
CONTINUOUS
2
*D3
10
324.1923875225
20
142.5810209437
11
280.2698290319
21
145.2060209437
70
128
13
237.0564974017
23
160.9071364853
14
324.1923875225
24
210.5071364853
0
DIMENSION
8
11100_DIM_LEFT
62
7
6
CONTINUOUS
2
*D4
10
242.0564974017
20
272.3901518338
11
286.4549053931
21
275.0151518338
70
128
13
324.1923875225
23
210.5071364853
14
242.0564974017
24
228.1071364853
50
180.000000
0
TEXT
8
90000_FRAME
62
7
6
CONTINUOUS
10
325.6600000000
20
11.9000000000
7
TEXTSTYLE_1
40
2.2000000000
1
Format / Size: DIN A3
41
0.7233560091
72
0
0
TEXT
8
90000_FRAME
62
7
6
CONTINUOUS
10
368.1600000000
20
11.9000000000
7
TEXTSTYLE_1
40
2.2000000000
1
Massstab / Scale: 1:1
41
0.6689342404
72
0
0
TEXT
8
90000_FRAME
62
7
6
CONTINUOUS
10
340.9166600000
20
20.2500000000
7
TEXTSTYLE_1
40
3.5000000000
1
6GK50050BA001AB2_001
41
0.7595240000
72
1
11
367.5000000000
21
20.2500000000
0
TEXT
8
91000_TIP
62
7
6
CONTINUOUS
10
17.7452080273
20
21.0644742972
7
TEXTSTYLE_1
40
3.5000000000
1
Alle Bemassungswerte sind in Millimeter (mm) angegeben
41
0.7014991182
72
0
0
TEXT
8
91000_TIP
62
7
6
CONTINUOUS
10
17.7452080273
20
15.8144742972
7
TEXTSTYLE_1
40
3.5000000000
1
All dimensions are in millimeters (mm).
41
0.6825396825
72
0
0
TEXT
8
10300_FRONT_GERMAN_ENGLISH
62
7
6
CONTINUOUS
10
112.6544176616
20
149.9227222901
7
TEXTSTYLE_1
40
3.5000000000
1
Vorne / Front
41
0.7161172161
72
0
0
TEXT
8
11300_LEFT_GERMAN_ENGLISH
62
7
6
CONTINUOUS
10
239.1814970550
20
149.9126812553
7
TEXTSTYLE_1
40
3.5000000000
1
Links / Left
41
0.6785714286
72
0
0
TEXT
8
13300_TOP_GERMAN_ENGLISH
62
7
6
CONTINUOUS
10
113.1367170371
20
128.1251344221
7
TEXTSTYLE_1
40
3.5000000000
1
Oben / Top
41
0.7547619048
72
0
0
TEXT
8
91000_TIP
62
7
6
CONTINUOUS
10
18.1006983153
20
41.5539925845
7
TEXTSTYLE_1
40
3.5000000000
1
2) Montage 35 mm DIN Hutschiene
41
0.7281105991
72
0
0
TEXT
8
91000_TIP
62
7
6
CONTINUOUS
10
17.8554573438
20
36.3039925845
7
TEXTSTYLE_1
40
3.5000000000
1
   Install 35 mm DIN rail
41
0.7142857143
72
0
0
TEXT
8
11100_DIM_LEFT
62
7
6
CONTINUOUS
10
295.0829242851
20
278.2460210412
7
TEXTSTYLE_1
40
3.5000000000
1
2)
41
0.6071428571
72
0
0
TEXT
8
11100_DIM_LEFT
62
7
6
CONTINUOUS
10
217.8143141156
20
249.8553698369
7
TEXTSTYLE_1
40
3.5000000000
1
2)
50
90.0000000000
41
0.6071428571
72
0
0
LINE
8
90000_FRAME
62
7
6
CONTINUOUS
10
0.0000000000
20
297.0000000000
11
0.0000000000
21
0.0000000000
0
LINE
8
90000_FRAME
62
7
6
CONTINUOUS
10
5.0000000000
20
292.0000000000
11
5.0000000000
21
5.0000000000
0
LINE
8
10000_FRONT
62
7
6
CONTINUOUS
10
111.9465350902
20
260.1097398379
11
111.9453140898
21
260.1084386222
0
LINE
8
10000_FRONT
62
7
6
CONTINUOUS
10
114.6358239729
20
257.6302568409
11
114.7390903237
21
257.7183966617
0
LINE
8
10000_FRONT
62
7
6
CONTINUOUS
10
112.0642239445
20
260.3908981193
11
112.1932540367
21
260.4769368679
0
LINE
8
90000_FRAME
62
7
6
CONTINUOUS
10
0.0000000000
20
0.0000000000
11
420.0000000000
21
0.0000000000
0
LINE
8
13000_TOP
62
7
6
CONTINUOUS
10
112.2350683344
20
37.1552508808
11
112.1820888402
21
37.1844955452
0
LINE
8
13000_TOP
62
7
6
CONTINUOUS
10
112.1820888402
20
37.1844955452
11
112.1369094247
21
37.2166016354
0
LINE
8
13000_TOP
62
7
6
CONTINUOUS
10
112.1369094247
20
37.2166016354
11
112.0980831617
21
37.2508362204
0
LINE
8
13000_TOP
62
7
6
CONTINUOUS
10
112.0980831617
20
37.2508362204
11
112.0630996971
21
37.2886003802
0
LINE
8
13000_TOP
62
7
6
CONTINUOUS
10
112.0630996971
20
37.2886003802
11
112.0316961140
21
37.3302830459
0
LINE
8
10000_FRONT
62
7
6
CONTINUOUS
10
115.1116947502
20
257.3913265570
11
115.0901340940
21
257.3437742112
0
LINE
8
10000_FRONT
62
7
6
CONTINUOUS
10
116.1908568461
20
255.9839093661
11
116.1172460172
21
255.8550562546
0
LINE
8
10000_FRONT
62
7
6
CONTINUOUS
10
115.5684663369
20
256.0242562426
11
115.6138769014
21
256.1006956070
0
LINE
8
10000_FRONT
62
7
6
CONTINUOUS
10
111.9776256107
20
260.2620119215
11
112.0642239445
21
260.3908981193
0
LINE
8
10000_FRONT
62
7
6
CONTINUOUS
10
114.5560549180
20
257.5209604971
11
114.6358239729
21
257.6302568409
0
LINE
8
10000_FRONT
62
7
6
CONTINUOUS
10
120.3385232568
20
252.7492808625
11
120.1797429596
21
252.5427462319
0
LINE
8
10000_FRONT
62
7
6
CONTINUOUS
10
127.8555350993
20
257.5682506929
11
127.9537013629
21
257.6758818760
0
LINE
8
10000_FRONT
62
7
6
CONTINUOUS
10
115.1472481712
20
257.4291159575
11
115.1116947502
21
257.3913265570
0
LINE
8
10000_FRONT
62
7
6
CONTINUOUS
10
116.1172460172
20
255.8550562546
11
116.0118566186
21
255.7456379729
0
LINE
8
10000_FRONT
62
7
6
CONTINUOUS
10
129.3428827432
20
255.8017286286
11
129.2364035837
21
255.7099950313
0
LINE
8
10000_FRONT
62
7
6
CONTINUOUS
10
128.4653919716
20
257.4591693840
11
128.3801565961
21
257.3889386174
0
LINE
8
10000_FRONT
62
7
6
CONTINUOUS
10
120.5451791475
20
252.9077651184
11
120.3385232568
21
252.7492808625
0
LINE
8
10000_FRONT
62
7
6
CONTINUOUS
10
127.9537013629
20
257.6758818760
11
128.0716807567
21
257.7575665291
0
LINE
8
10000_FRONT
62
7
6
CONTINUOUS
10
116.0118566186
20
255.7456379729
11
115.8861592134
21
255.6608176004
0
LINE
8
10000_FRONT
62
7
6
CONTINUOUS
10
115.1914954734
20
257.4570886828
11
115.1472481712
21
257.4291159575
0
LINE
8
10000_FRONT
62
7
6
CONTINUOUS
10
128.7585614968
20
255.9740820740
11
128.8394810817
21
256.0251922568
0
LINE
8
10000_FRONT
62
7
6
CONTINUOUS
10
115.4873791493
20
255.9736335717
11
115.5684663369
21
256.0242562426
0
LINE
8
10000_FRONT
62
7
6
CONTINUOUS
10
129.2364035837
20
255.7099950313
11
129.1159400396
21
255.6391977733
0
LINE
8
10000_FRONT
62
7
6
CONTINUOUS
10
114.7390903237
20
257.7183966617
11
114.9266973821
21
257.8179039197
0
LINE
8
10000_FRONT
62
7
6
CONTINUOUS
10
128.0716807567
20
257.7575665291
11
128.2023047198
21
257.8183777444
0
LINE
8
10000_FRONT
62
7
6
CONTINUOUS
10
115.8861592134
20
255.6608176004
11
115.7462003496
21
255.5976935808
0
LINE
8
10000_FRONT
62
7
6
CONTINUOUS
10
120.7858095330
20
253.0075415177
11
120.5451791475
21
252.9077651184
0
LINE
8
10000_FRONT
62
7
6
CONTINUOUS
10
111.9533728173
20
260.1125164594
11
111.9465350902
21
260.1097398379
0
LINE
8
10000_FRONT
62
7
6
CONTINUOUS
10
115.2395027040
20
257.4761248451
11
115.1914954734
21
257.4570886828
0
LINE
8
90000_FRAME
62
7
6
CONTINUOUS
10
5.0000000000
20
5.0000000000
11
415.0000000000
21
5.0000000000
0
LINE
8
90000_FRAME
62
7
6
CONTINUOUS
10
275.0000000000
20
10.0000000000
11
410.0000000000
21
10.0000000000
0
LINE
8
90000_FRAME
62
7
6
CONTINUOUS
10
325.0000000000
20
16.0000000000
11
410.0000000000
21
16.0000000000
0
LINE
8
90000_FRAME
62
7
6
CONTINUOUS
10
298.2973434565
20
16.6961097434
11
299.1529318914
21
16.6961097434
0
LINE
8
90000_FRAME
62
7
6
CONTINUOUS
10
311.4876651625
20
16.7436424342
11
309.9666190559
21
16.7436424342
0
LINE
8
90000_FRAME
62
7
6
CONTINUOUS
10
301.8622952689
20
16.7436424342
11
300.4838472348
21
16.7436424342
0
LINE
8
90000_FRAME
62
7
6
CONTINUOUS
10
289.1235341257
20
16.7436424342
11
290.5495148507
21
16.7436424342
0
LINE
8
90000_FRAME
62
7
6
CONTINUOUS
10
291.6427667399
20
16.7436424342
11
295.2077185523
21
16.7436424342
0
LINE
8
90000_FRAME
62
7
6
CONTINUOUS
10
296.0157742965
20
16.7436424342
11
296.9664281131
21
16.7436424342
0
LINE
8
90000_FRAME
62
7
6
CONTINUOUS
10
302.9555471581
20
16.7436424342
11
306.5204989705
21
16.7436424342
0
LINE
8
90000_FRAME
62
7
6
CONTINUOUS
10
307.3047883693
20
16.7436424342
11
308.2554421859
21
16.7436424342
0
LINE
8
90000_FRAME
62
7
6
CONTINUOUS
10
306.5204989705
20
17.6467635600
11
304.3339951922
21
17.6467635600
0
LINE
8
90000_FRAME
62
7
6
CONTINUOUS
10
295.2077185523
20
17.6467635600
11
293.0212147740
21
17.6467635600
0
LINE
8
13000_TOP
62
7
6
CONTINUOUS
10
112.3663865471
20
37.1133032965
11
112.2964419480
21
37.1307259755
0
LINE
8
13000_TOP
62
7
6
CONTINUOUS
10
112.2964419480
20
37.1307259755
11
112.2350683344
21
37.1552508808
0
LINE
8
13000_TOP
62
7
6
CONTINUOUS
10
112.0316961140
20
37.3302830459
11
112.0045810226
21
37.3752191038
0
LINE
8
13000_TOP
62
7
6
CONTINUOUS
10
112.0045810226
20
37.3752191038
11
111.9823393576
21
37.4224877976
0
LINE
8
10000_FRONT
62
7
6
CONTINUOUS
10
111.9465352137
20
260.1097398371
11
111.9776256107
21
260.2620119215
0
LINE
8
10000_FRONT
62
7
6
CONTINUOUS
10
116.2303018671
20
256.1255822843
11
116.1908568461
21
255.9839093661
0
LINE
8
10000_FRONT
62
7
6
CONTINUOUS
10
111.9453140898
20
260.1084386222
11
111.9449069736
21
260.1071364853
0
LINE
8
10000_FRONT
62
7
6
CONTINUOUS
10
121.3145541712
20
256.3924149096
11
121.9049059428
21
257.8549050300
0
LINE
8
10000_FRONT
62
7
6
CONTINUOUS
10
114.5052099396
20
257.3957490860
11
114.5560549180
21
257.5209604971
0
LINE
8
10000_FRONT
62
7
6
CONTINUOUS
10
122.0860718429
20
257.1865115835
11
121.4148196765
21
255.5427424856
0
LINE
8
10000_FRONT
62
7
6
CONTINUOUS
10
120.1797429596
20
252.5427462319
11
120.0794442617
21
252.3016499960
0
LINE
8
10000_FRONT
62
7
6
CONTINUOUS
10
129.4802526725
20
256.0377578785
11
129.4259974679
21
255.9125614254
0
LINE
8
10000_FRONT
62
7
6
CONTINUOUS
10
127.7891261824
20
257.4398531862
11
127.8555350993
21
257.5682506929
0
LINE
8
10000_FRONT
62
7
6
CONTINUOUS
10
128.8394810817
20
256.0251922568
11
128.8842552899
21
256.1021052609
0
LINE
8
10000_FRONT
62
7
6
CONTINUOUS
10
129.4259974679
20
255.9125614254
11
129.3428827432
21
255.8017286286
0
LINE
8
10000_FRONT
62
7
6
CONTINUOUS
10
143.9549069814
20
258.8794769260
11
143.8249069775
21
258.7092641804
0
LINE
8
10000_FRONT
62
7
6
CONTINUOUS
10
145.3849070356
20
258.8794769260
11
145.2549069736
21
258.7092641804
0
LINE
8
10000_FRONT
62
7
6
CONTINUOUS
10
144.7024069426
20
257.1347960594
11
144.8324070046
21
257.3050088200
0
LINE
8
10000_FRONT
62
7
6
CONTINUOUS
10
146.2624070356
20
257.1347960594
11
146.3924069116
21
257.3050088200
0
LINE
8
10000_FRONT
62
7
6
CONTINUOUS
10
149.5653235791
20
254.4496896754
11
149.6936569736
21
254.5773492458
0
LINE
8
10000_FRONT
62
7
6
CONTINUOUS
10
153.1341030919
20
255.2990803743
11
153.2622120862
21
255.4265165294
0
LINE
8
10000_FRONT
62
7
6
CONTINUOUS
10
150.3994901846
20
256.0667109939
11
150.4957401846
21
256.1518173668
0
LINE
8
10000_FRONT
62
7
6
CONTINUOUS
10
151.8111569736
20
256.0667109939
11
151.9074069736
21
256.1518173668
0
LINE
8
10000_FRONT
62
7
6
CONTINUOUS
10
150.9128237627
20
254.7475620064
11
150.8165737627
21
254.6624556336
0
LINE
8
10000_FRONT
62
7
6
CONTINUOUS
10
152.3244901846
20
254.7475620064
11
152.2282401846
21
254.6624556336
0
LINE
8
10000_FRONT
62
7
6
CONTINUOUS
10
153.8066740294
20
254.7468569466
11
153.7105924669
21
254.6618995100
0
LINE
8
10000_FRONT
62
7
6
CONTINUOUS
10
144.0199069659
20
258.6241578075
11
144.1174069891
21
258.7092641804
0
LINE
8
10000_FRONT
62
7
6
CONTINUOUS
10
145.4499069736
20
258.6241578075
11
145.5474069736
21
258.7092641804
0
LINE
8
10000_FRONT
62
7
6
CONTINUOUS
10
144.6374070046
20
257.3901152226
11
144.5399070046
21
257.3050088200
0
LINE
8
10000_FRONT
62
7
6
CONTINUOUS
10
146.1974069116
20
257.3901152226
11
146.0999069116
21
257.3050088200
0
LINE
8
10000_FRONT
62
7
6
CONTINUOUS
10
153.0874072216
20
258.6241578075
11
153.1849072216
21
258.7092641804
0
LINE
8
10000_FRONT
62
7
6
CONTINUOUS
10
153.8349069736
20
257.3901152226
11
153.7374069736
21
257.3050088200
0
LINE
8
10000_FRONT
62
7
6
CONTINUOUS
10
150.4636569736
20
256.3645832989
11
150.3032401846
21
256.2369237396
0
LINE
8
10000_FRONT
62
7
6
CONTINUOUS
10
151.8753237627
20
256.3645832989
11
151.7149069736
21
256.2369237396
0
LINE
8
10000_FRONT
62
7
6
CONTINUOUS
10
150.8486569736
20
254.4496896754
11
151.0090737627
21
254.5773492458
0
LINE
8
10000_FRONT
62
7
6
CONTINUOUS
10
153.2301846544
20
255.6389101210
11
153.0700489612
21
255.5114739660
0
LINE
8
10000_FRONT
62
7
6
CONTINUOUS
10
152.2603237627
20
254.4496896754
11
152.4207401846
21
254.5773492458
0
LINE
8
10000_FRONT
62
7
6
CONTINUOUS
10
153.7426198987
20
254.4495058923
11
153.9027555919
21
254.5769420584
0
LINE
8
10000_FRONT
62
7
6
CONTINUOUS
10
149.6294903681
20
255.4284130785
11
149.6936569736
21
255.4709662649
0
LINE
8
10000_FRONT
62
7
6
CONTINUOUS
10
144.0849069736
20
258.9645832989
11
143.9549069814
21
258.8794769260
0
LINE
8
10000_FRONT
62
7
6
CONTINUOUS
10
145.5149069116
20
258.9645832989
11
145.3849070356
21
258.8794769260
0
LINE
8
10000_FRONT
62
7
6
CONTINUOUS
10
144.5724069736
20
257.0496896754
11
144.7024069426
21
257.1347960594
0
LINE
8
10000_FRONT
62
7
6
CONTINUOUS
10
146.1324069736
20
257.0496896754
11
146.2624070356
21
257.1347960594
0
LINE
8
10000_FRONT
62
7
6
CONTINUOUS
10
153.1524069736
20
258.9645832989
11
153.0224067257
21
258.8794769260
0
LINE
8
10000_FRONT
62
7
6
CONTINUOUS
10
153.7699072216
20
257.0496896754
11
153.8999067257
21
257.1347960594
0
LINE
8
10000_FRONT
62
7
6
CONTINUOUS
10
149.5332403681
20
255.5986258242
11
149.4369903681
21
255.5560726377
0
LINE
8
10000_FRONT
62
7
6
CONTINUOUS
10
149.5332403681
20
254.7050088200
11
149.4369903681
21
254.6624556336
0
LINE
8
10000_FRONT
62
7
6
CONTINUOUS
10
144.1174069891
20
258.7092641804
11
144.2149069891
21
258.7518173668
0
LINE
8
10000_FRONT
62
7
6
CONTINUOUS
10
148.3449069736
20
252.0071364853
11
148.3693781783
21
252.0175710451
0
LINE
8
10000_FRONT
62
7
6
CONTINUOUS
10
129.1159400396
20
255.6391977733
11
128.9832075961
21
255.5862394266
0
LINE
8
10000_FRONT
62
7
6
CONTINUOUS
10
153.2622120862
20
255.4265165294
11
153.3903207141
21
255.4689952477
0
LINE
8
10000_FRONT
62
7
6
CONTINUOUS
10
153.7105924669
20
254.6618995100
11
153.5824838391
21
254.6194207916
0
LINE
8
10000_FRONT
62
7
6
CONTINUOUS
10
144.2149069891
20
259.0071364853
11
144.0849069736
21
258.9645832989
0
LINE
8
10000_FRONT
62
7
6
CONTINUOUS
10
145.5474069736
20
258.7092641804
11
145.6774070356
21
258.7518173668
0
LINE
8
10000_FRONT
62
7
6
CONTINUOUS
10
144.5399070046
20
257.3050088200
11
144.4099069891
21
257.2624556336
0
LINE
8
10000_FRONT
62
7
6
CONTINUOUS
10
146.0999069116
20
257.3050088200
11
145.9699070356
21
257.2624556336
0
LINE
8
10000_FRONT
62
7
6
CONTINUOUS
10
153.1849072216
20
258.7092641804
11
153.3149067257
21
258.7518173668
0
LINE
8
10000_FRONT
62
7
6
CONTINUOUS
10
153.7374069736
20
257.3050088200
11
153.6074067257
21
257.2624556336
0
LINE
8
10000_FRONT
62
7
6
CONTINUOUS
10
128.2023047198
20
257.8183777444
11
128.3450183367
21
257.8607339055
0
LINE
8
10000_FRONT
62
7
6
CONTINUOUS
10
128.5785218188
20
257.4921248827
11
128.4653919716
21
257.4591693840
0
LINE
8
90000_FRAME
62
7
6
CONTINUOUS
10
239.5286472489
20
22.3724221598
11
249.5286470447
21
24.8724221087
0
LINE
8
90000_FRAME
62
7
6
CONTINUOUS
10
306.1877701347
20
18.7637817946
11
304.3339951922
21
18.7637817946
0
LINE
8
90000_FRAME
62
7
6
CONTINUOUS
10
294.8749897165
20
18.7637817946
11
293.0212147740
21
18.7637817946
0
LINE
8
90000_FRAME
62
7
6
CONTINUOUS
10
306.1877701347
20
19.5480711933
11
304.3339951922
21
19.5480711933
0
LINE
8
90000_FRAME
62
7
6
CONTINUOUS
10
294.8749897165
20
19.5480711933
11
293.0212147740
21
19.5480711933
0
LINE
8
90000_FRAME
62
7
6
CENTER
10
238.2491367770
20
19.8724222109
11
261.8511260411
21
19.8724222109
0
LINE
8
90000_FRAME
62
7
6
CONTINUOUS
10
306.4729662797
20
20.6175567371
11
304.3339951922
21
20.6175567371
0
LINE
8
90000_FRAME
62
7
6
CONTINUOUS
10
295.1601858615
20
20.6175567371
11
293.0212147740
21
20.6175567371
0
LINE
8
90000_FRAME
62
7
6
CONTINUOUS
10
311.4876651625
20
21.4969115175
11
310.5370113459
21
21.4969115175
0
LINE
8
90000_FRAME
62
7
6
CONTINUOUS
10
308.8496008213
20
21.4969115175
11
307.3047883693
21
21.4969115175
0
LINE
8
90000_FRAME
62
7
6
CONTINUOUS
10
306.4729662797
20
21.4969115175
11
302.9555471581
21
21.4969115175
0
LINE
8
90000_FRAME
62
7
6
CONTINUOUS
10
301.8622952689
20
21.4969115175
11
300.1511183989
21
21.4969115175
0
LINE
8
90000_FRAME
62
7
6
CONTINUOUS
10
297.7269511665
20
21.4969115175
11
296.0157742965
21
21.4969115175
0
LINE
8
90000_FRAME
62
7
6
CONTINUOUS
10
295.1601858615
20
21.4969115175
11
291.6427667399
21
21.4969115175
0
LINE
8
90000_FRAME
62
7
6
CONTINUOUS
10
289.1235341257
20
21.4969115175
11
290.5495148507
21
21.4969115175
0
LINE
8
90000_FRAME
62
7
6
CONTINUOUS
10
275.0000000000
20
28.0000000000
11
410.0000000000
21
28.0000000000
0
LINE
8
13000_TOP
62
7
6
CONTINUOUS
10
112.4451132734
20
37.1058500802
11
112.3663865471
21
37.1133032965
0
LINE
8
90000_FRAME
62
7
6
CONTINUOUS
10
239.5286472489
20
17.3724222619
11
249.5286470447
21
14.8724223130
0
LINE
8
13000_TOP
62
7
6
CONTINUOUS
10
111.9823393576
20
37.4224877976
11
111.9652808442
21
37.4711482190
0
LINE
8
13000_TOP
62
7
6
CONTINUOUS
10
111.9652808442
20
37.4711482190
11
111.9533728173
21
37.5208343444
0
LINE
8
10000_FRONT
62
7
6
CONTINUOUS
10
115.0901340940
20
257.3437742112
11
115.0833006536
21
257.2918807837
0
LINE
8
10000_FRONT
62
7
6
CONTINUOUS
10
120.0794442617
20
252.3016499960
11
120.0449069736
21
252.0409037758
0
LINE
8
10000_FRONT
62
7
6
CONTINUOUS
10
114.4825973651
20
257.2622381742
11
114.5052099396
21
257.3957490860
0
LINE
8
10000_FRONT
62
7
6
CONTINUOUS
10
127.7561326716
20
257.2985562774
11
127.7891261824
21
257.4398531862
0
LINE
8
10000_FRONT
62
7
6
CONTINUOUS
10
128.3801565961
20
257.3889386174
11
128.3535036370
21
257.2918807837
0
LINE
8
10000_FRONT
62
7
6
CONTINUOUS
10
150.2711569736
20
255.8113917562
11
150.3994901846
21
256.0667109939
0
LINE
8
10000_FRONT
62
7
6
CONTINUOUS
10
144.7024069426
20
257.5177747819
11
144.6374070046
21
257.3901152226
0
LINE
8
10000_FRONT
62
7
6
CONTINUOUS
10
145.3849070356
20
258.4964981291
11
145.4499069736
21
258.6241578075
0
LINE
8
10000_FRONT
62
7
6
CONTINUOUS
10
153.0224067257
20
258.4964981291
11
153.0874072216
21
258.6241578075
0
LINE
8
10000_FRONT
62
7
6
CONTINUOUS
10
147.6403236250
20
255.4284130785
11
147.0949069736
21
254.4071364853
0
LINE
8
10000_FRONT
62
7
6
CONTINUOUS
10
148.1857402763
20
256.4071364853
11
147.7365736250
21
255.5986258242
0
LINE
8
10000_FRONT
62
7
6
CONTINUOUS
10
147.2874069736
20
254.4071364853
11
147.7365736250
21
255.2156471464
0
LINE
8
10000_FRONT
62
7
6
CONTINUOUS
10
147.8328236250
20
255.4284130785
11
148.3782402763
21
256.4071364853
0
LINE
8
10000_FRONT
62
7
6
CONTINUOUS
10
149.6936569736
20
255.4709662649
11
149.7899069736
21
255.6411790106
0
LINE
8
10000_FRONT
62
7
6
CONTINUOUS
10
149.6936569736
20
254.5773492458
11
149.7899069736
21
254.7475620064
0
LINE
8
10000_FRONT
62
7
6
CONTINUOUS
10
153.9027555919
20
254.5769420584
11
153.9988371544
21
254.7468569466
0
LINE
8
10000_FRONT
62
7
6
CONTINUOUS
10
149.5974069736
20
255.6837321970
11
149.5332403681
21
255.5986258242
0
LINE
8
10000_FRONT
62
7
6
CONTINUOUS
10
150.3032401846
20
256.2369237396
11
150.2069901846
21
256.1092641804
0
LINE
8
10000_FRONT
62
7
6
CONTINUOUS
10
149.5974069736
20
254.7901152226
11
149.5332403681
21
254.7050088200
0
LINE
8
10000_FRONT
62
7
6
CONTINUOUS
10
151.7149069736
20
256.2369237396
11
151.6186569736
21
256.1092641804
0
LINE
8
10000_FRONT
62
7
6
CONTINUOUS
10
151.0090737627
20
254.5773492458
11
151.1053237627
21
254.7050088200
0
LINE
8
10000_FRONT
62
7
6
CONTINUOUS
10
152.4207401846
20
254.5773492458
11
152.5169901846
21
254.7050088200
0
LINE
8
10000_FRONT
62
7
6
CONTINUOUS
10
153.0224067257
20
258.8794769260
11
152.8924072216
21
258.7092641804
0
LINE
8
10000_FRONT
62
7
6
CONTINUOUS
10
153.8999067257
20
257.1347960594
11
154.0299069736
21
257.3050088200
0
LINE
8
13000_TOP
62
7
6
CONTINUOUS
10
156.5303242608
20
37.1145571423
11
156.4446324893
21
37.1058490211
0
LINE
8
13000_TOP
62
7
6
CONTINUOUS
10
120.5449069736
20
36.0687267046
11
120.6631683622
21
36.0721570484
0
LINE
8
13000_TOP
62
7
6
CONTINUOUS
10
120.6631683622
20
36.0721570484
11
120.7994932417
21
36.0747541661
0
LINE
8
13000_TOP
62
7
6
CONTINUOUS
10
120.7994932417
20
36.0747541661
11
120.9476192797
21
36.0762562294
0
LINE
8
13000_TOP
62
7
6
CONTINUOUS
10
120.9476192797
20
36.0762562294
11
121.0449069739
21
36.0765223104
0
LINE
8
13000_TOP
62
7
6
CONTINUOUS
10
112.4449069736
20
35.1072897186
11
120.0449069736
21
35.1072897186
0
LINE
8
13000_TOP
62
7
6
CONTINUOUS
10
148.8449069736
20
35.1072897186
11
151.4949069736
21
35.1072897186
0
LINE
8
13000_TOP
62
7
6
CONTINUOUS
10
151.7949069736
20
35.1072897186
11
156.4449069736
21
35.1072897186
0
LINE
8
13000_TOP
62
7
6
CONTINUOUS
10
121.0449069739
20
36.0765243938
11
147.8939798998
21
36.0764526182
0
LINE
8
13000_TOP
62
7
6
CONTINUOUS
10
112.4449069736
20
37.1058533502
11
156.4449069736
21
37.1058533502
0
LINE
8
13000_TOP
62
7
6
CONTINUOUS
10
112.3449069736
20
37.6042285017
11
156.5449069736
21
37.6042285017
0
LINE
8
13000_TOP
62
7
6
CONTINUOUS
10
154.1046818814
20
38.6084049316
11
144.7851320658
21
38.6084049316
0
LINE
8
13000_TOP
62
7
6
CONTINUOUS
10
144.1046818814
20
38.6084049316
11
134.7851320658
21
38.6084049316
0
LINE
8
13000_TOP
62
7
6
CONTINUOUS
10
134.1046818814
20
38.6084049316
11
124.7851320658
21
38.6084049316
0
LINE
8
13000_TOP
62
7
6
CONTINUOUS
10
124.1046818814
20
38.6084049316
11
114.7851320658
21
38.6084049316
0
LINE
8
13000_TOP
62
7
6
CONTINUOUS
10
114.7851320658
20
43.6779547472
11
124.1046818814
21
43.6779547472
0
LINE
8
13000_TOP
62
7
6
CONTINUOUS
10
124.7851320658
20
43.6779547472
11
134.1046818814
21
43.6779547472
0
LINE
8
13000_TOP
62
7
6
CONTINUOUS
10
134.7851320658
20
43.6779547472
11
144.1046818814
21
43.6779547472
0
LINE
8
13000_TOP
62
7
6
CONTINUOUS
10
144.7851320658
20
43.6779547472
11
154.1046818814
21
43.6779547472
0
LINE
8
13000_TOP
62
7
6
CONTINUOUS
10
154.1046818814
20
44.3584049316
11
144.7851320658
21
44.3584049316
0
LINE
8
13000_TOP
62
7
6
CONTINUOUS
10
144.1046818814
20
44.3584049316
11
134.7851320658
21
44.3584049316
0
LINE
8
13000_TOP
62
7
6
CONTINUOUS
10
134.1046818814
20
44.3584049316
11
124.7851320658
21
44.3584049316
0
LINE
8
13000_TOP
62
7
6
CONTINUOUS
10
124.1046818814
20
44.3584049316
11
114.7851320658
21
44.3584049316
0
LINE
8
13000_TOP
62
7
6
CONTINUOUS
10
156.9649069736
20
45.0431798394
11
157.0649069736
21
45.0431798394
0
LINE
8
13000_TOP
62
7
6
CONTINUOUS
10
147.8939798998
20
36.0764526182
11
148.0297865899
21
36.0755334467
0
LINE
8
13000_TOP
62
7
6
CONTINUOUS
10
148.0297865899
20
36.0755334467
11
148.1567208864
21
36.0736395893
0
LINE
8
13000_TOP
62
7
6
CONTINUOUS
10
148.1567208864
20
36.0736395893
11
148.2732730362
21
36.0709597372
0
LINE
8
13000_TOP
62
7
6
CONTINUOUS
10
148.2732730362
20
36.0709597372
11
148.3449069736
21
36.0686368003
0
LINE
8
13000_TOP
62
7
6
CONTINUOUS
10
111.9533728173
20
37.5208343444
11
111.9465350902
21
37.5720800849
0
LINE
8
10000_FRONT
62
7
6
CONTINUOUS
10
113.4449069736
20
162.6454343709
11
113.4689694743
21
162.4220300975
0
LINE
8
10000_FRONT
62
7
6
CONTINUOUS
10
114.4841345651
20
257.1267012227
11
114.4825973651
21
257.2622381742
0
LINE
8
10000_FRONT
62
7
6
CONTINUOUS
10
111.9449069736
20
260.1071364853
11
111.9449069736
21
160.9071364853
0
LINE
8
13000_TOP
62
7
6
CONTINUOUS
10
111.9449069736
20
35.6073256081
11
111.9449069736
21
121.7431798394
0
LINE
8
13000_TOP
62
7
6
CONTINUOUS
10
112.3449069736
20
37.6042285017
11
112.3449069736
21
87.1431798394
0
LINE
8
13000_TOP
62
7
6
CONTINUOUS
10
112.3449069736
20
87.6431798394
11
112.3449072810
21
122.1431798394
0
LINE
8
13000_TOP
62
7
6
CONTINUOUS
10
112.4449069736
20
35.1072897186
11
112.4449069736
21
37.1058533502
0
LINE
8
10000_FRONT
62
7
6
CONTINUOUS
10
112.4449069736
20
160.9668598376
11
112.4449069736
21
260.0474131330
0
LINE
8
10000_FRONT
62
7
6
CONTINUOUS
10
113.3449069736
20
259.0071364853
11
113.3449069736
21
254.4071364853
0
LINE
8
10000_FRONT
62
7
6
CONTINUOUS
10
113.4449069736
20
170.2071364853
11
113.4449069736
21
165.0071364853
0
LINE
8
10000_FRONT
62
7
6
CONTINUOUS
10
113.4449069736
20
162.8688385996
11
113.4449069736
21
162.6454343709
0
LINE
8
10000_FRONT
62
7
6
CONTINUOUS
10
113.5652194707
20
162.8050088200
11
113.5652194707
21
162.8688385996
0
LINE
8
10000_FRONT
62
7
6
CONTINUOUS
10
113.5892819736
20
162.4539449874
11
113.5892819736
21
162.5496896568
0
LINE
8
10000_FRONT
62
7
6
CONTINUOUS
10
113.6449069736
20
165.2071364853
11
113.6449069736
21
170.0071364853
0
LINE
8
10000_FRONT
62
7
6
CONTINUOUS
10
114.1908444507
20
162.5496896568
11
114.1908444507
21
162.4539449874
0
LINE
8
10000_FRONT
62
7
6
CONTINUOUS
10
114.3111569736
20
162.4220300975
11
114.3111569736
21
162.5816045913
0
LINE
8
10000_FRONT
62
7
6
CONTINUOUS
10
114.5036569966
20
162.9964981589
11
114.5036569966
21
162.5177747670
0
LINE
8
10000_FRONT
62
7
6
CONTINUOUS
10
114.5268014453
20
255.6030180976
11
114.5268014453
21
256.0551171758
0
LINE
8
10000_FRONT
62
7
6
CONTINUOUS
10
114.6480319277
20
162.5177747670
11
114.6480319277
21
162.9964981589
0
LINE
8
13000_TOP
62
7
6
CONTINUOUS
10
114.7851320658
20
38.6084049316
11
114.7851320658
21
43.6779547472
0
LINE
8
13000_TOP
62
7
6
CONTINUOUS
10
114.7851320658
20
44.3584049316
11
114.7851320658
21
49.4279547472
0
LINE
8
13000_TOP
62
7
6
CONTINUOUS
10
114.7851320658
20
50.1084049316
11
114.7851320658
21
55.1779547472
0
LINE
8
13000_TOP
62
7
6
CONTINUOUS
10
114.7851320658
20
55.8584049316
11
114.7851320658
21
60.9279547472
0
LINE
8
13000_TOP
62
7
6
CONTINUOUS
10
114.7851320658
20
61.6084049316
11
114.7851320658
21
66.6779547472
0
LINE
8
13000_TOP
62
7
6
CONTINUOUS
10
114.7851320658
20
67.3584049316
11
114.7851320658
21
72.4279547472
0
LINE
8
13000_TOP
62
7
6
CONTINUOUS
10
114.7851320658
20
73.1084049316
11
114.7851320658
21
78.1779547472
0
LINE
8
13000_TOP
62
7
6
CONTINUOUS
10
114.7851320658
20
78.8584049316
11
114.7851320658
21
83.9279547472
0
LINE
8
10000_FRONT
62
7
6
CONTINUOUS
10
115.0811569277
20
162.8369237098
11
115.0811569277
21
162.6454343709
0
LINE
8
10000_FRONT
62
7
6
CONTINUOUS
10
115.2977194277
20
162.6454343709
11
115.2977194277
21
162.3901152077
0
LINE
8
10000_FRONT
62
7
6
CONTINUOUS
10
115.4420944277
20
162.3582003179
11
115.4420944277
21
162.8369237098
0
LINE
8
10000_FRONT
62
7
6
CONTINUOUS
10
115.6345945195
20
163.5071364853
11
115.6345945195
21
162.0071364853
0
LINE
8
10000_FRONT
62
7
6
CONTINUOUS
10
115.7789693818
20
162.0071364853
11
115.7789693818
21
162.5177747670
0
LINE
8
10000_FRONT
62
7
6
CONTINUOUS
10
115.7789693818
20
162.7730939302
11
115.7789693818
21
163.5071364853
0
LINE
8
10000_FRONT
62
7
6
CONTINUOUS
10
116.0605013762
20
257.8112326685
11
116.0605013762
21
257.3764474733
0
LINE
8
10000_FRONT
62
7
6
CONTINUOUS
10
116.6004619584
20
255.5659999521
11
116.6004619584
21
257.8549050300
0
LINE
8
10000_FRONT
62
7
6
CONTINUOUS
10
116.6933444736
20
163.5071364853
11
116.6933444736
21
162.6773492607
0
LINE
8
13000_TOP
62
7
6
CONTINUOUS
10
116.7449069736
20
87.6431798394
11
116.7449069736
21
110.6431798394
0
LINE
8
10000_FRONT
62
7
6
CONTINUOUS
10
116.8136570654
20
162.8369237098
11
116.8136570654
21
163.3475620362
0
LINE
8
13000_TOP
62
7
6
CONTINUOUS
10
116.9449069736
20
87.6431798394
11
116.9449069736
21
110.6431798394
0
LINE
8
10000_FRONT
62
7
6
CONTINUOUS
10
117.2397835484
20
257.8549050300
11
117.2397835484
21
255.5659999521
0
LINE
8
10000_FRONT
62
7
6
CONTINUOUS
10
117.4392818818
20
162.5177747670
11
117.4392818818
21
162.4539449874
0
LINE
8
10000_FRONT
62
7
6
CONTINUOUS
10
117.5114693818
20
163.3475620362
11
117.5114693818
21
163.5071364853
0
LINE
8
10000_FRONT
62
7
6
CONTINUOUS
10
117.5595944736
20
162.4220300975
11
117.5595944736
21
162.5496896568
0
LINE
8
10000_FRONT
62
7
6
CONTINUOUS
10
117.8261297930
20
255.5659999521
11
117.8261297930
21
257.8549050300
0
LINE
8
10000_FRONT
62
7
6
CONTINUOUS
10
118.4422585188
20
257.4408576751
11
118.4422585188
21
256.9240254209
0
LINE
8
10000_FRONT
62
7
6
CONTINUOUS
10
118.4422585188
20
256.5464308936
11
118.4422585188
21
256.0031755689
0
LINE
8
10000_FRONT
62
7
6
CONTINUOUS
10
118.4449069736
20
170.0071364853
11
118.4449069736
21
165.2071364853
0
LINE
8
10000_FRONT
62
7
6
CONTINUOUS
10
118.6449069736
20
165.0071364853
11
118.6449069736
21
170.2071364853
0
LINE
8
10000_FRONT
62
7
6
CONTINUOUS
10
118.9070942900
20
162.9007534894
11
118.9070942900
21
162.6135194811
0
LINE
8
10000_FRONT
62
7
6
CONTINUOUS
10
119.0274071572
20
162.6454343709
11
119.0274071572
21
162.8688385996
0
LINE
8
13000_TOP
62
7
6
CONTINUOUS
10
119.0351320658
20
84.6084049316
11
119.0351320658
21
89.6779547472
0
LINE
8
13000_TOP
62
7
6
CONTINUOUS
10
119.0351320658
20
90.3584049316
11
119.0351320658
21
95.4279547472
0
LINE
8
13000_TOP
62
7
6
CONTINUOUS
10
119.0351320658
20
96.1084049316
11
119.0351320658
21
101.1779547472
0
LINE
8
13000_TOP
62
7
6
CONTINUOUS
10
119.0351320658
20
101.8584049316
11
119.0351320658
21
106.9279547472
0
LINE
8
10000_FRONT
62
7
6
CONTINUOUS
10
119.3332775081
20
256.9240254209
11
119.3332775081
21
256.5464308936
0
LINE
8
10000_FRONT
62
7
6
CONTINUOUS
10
119.4658449825
20
257.8549050300
11
119.4658449825
21
257.4408576751
0
LINE
8
10000_FRONT
62
7
6
CONTINUOUS
10
119.4922680530
20
256.0031755689
11
119.4922680530
21
255.5659999521
0
LINE
8
10000_FRONT
62
7
6
CONTINUOUS
10
119.6530319736
20
162.8688385996
11
119.6530319736
21
162.6454343709
0
LINE
8
10000_FRONT
62
7
6
CONTINUOUS
10
119.7733442900
20
162.6135194811
11
119.7733442900
21
162.9007534894
0
LINE
8
10000_FRONT
62
7
6
CONTINUOUS
10
119.9097393271
20
255.5659999521
11
119.9097393271
21
257.8549050300
0
LINE
8
10000_FRONT
62
7
6
CONTINUOUS
10
119.9658446572
20
162.9007534894
11
119.9658446572
21
162.6135194811
0
LINE
8
10000_FRONT
62
7
6
CONTINUOUS
10
120.0449069736
20
176.9798785520
11
120.0449069736
21
252.0409037758
0
LINE
8
10000_FRONT
62
7
6
CONTINUOUS
10
120.0861569736
20
162.6454343709
11
120.0861569736
21
162.8688385996
0
LINE
8
10000_FRONT
62
7
6
CONTINUOUS
10
120.3601586866
20
257.1865115835
11
120.3601586866
21
255.5659999521
0
LINE
8
13000_TOP
62
7
6
CONTINUOUS
10
120.5449069736
20
35.6072963197
11
120.5449069736
21
36.5689520691
0
LINE
8
10000_FRONT
62
7
6
CONTINUOUS
10
120.5449069736
20
177.0071364853
11
120.5449069736
21
252.0071364853
0
LINE
8
10000_FRONT
62
7
6
CONTINUOUS
10
120.7117817900
20
162.8688385996
11
120.7117817900
21
162.6454343709
0
LINE
8
10000_FRONT
62
7
6
CONTINUOUS
10
120.8320946572
20
162.6135194811
11
120.8320946572
21
162.9007534894
0
LINE
8
10000_FRONT
62
7
6
CONTINUOUS
10
121.0309848432
20
163.5086950838
11
121.0309848432
21
162.6789078592
0
LINE
8
10000_FRONT
62
7
6
CONTINUOUS
10
121.0449069739
20
253.0417174454
11
121.0449069736
21
252.5071364853
0
LINE
8
10000_FRONT
62
7
6
CONTINUOUS
10
121.0449069736
20
176.5071364853
11
121.0449069739
21
175.9790648824
0
LINE
8
10000_FRONT
62
7
6
CONTINUOUS
10
121.1512974350
20
162.8384823083
11
121.1512974350
21
163.3491206347
0
LINE
8
10000_FRONT
62
7
6
CONTINUOUS
10
121.3449069736
20
177.3071364853
11
121.3449069736
21
194.7071364853
0
LINE
8
10000_FRONT
62
7
6
CONTINUOUS
10
121.3449069736
20
196.3071364853
11
121.3449069736
21
213.7071364853
0
LINE
8
10000_FRONT
62
7
6
CONTINUOUS
10
121.5449069736
20
177.5071364853
11
121.5449069736
21
194.5071364853
0
LINE
8
10000_FRONT
62
7
6
CONTINUOUS
10
121.5449069736
20
196.5071364853
11
121.5449069736
21
213.5071364853
0
LINE
8
10000_FRONT
62
7
6
CONTINUOUS
10
121.7769222514
20
162.5193333655
11
121.7769222514
21
162.4555035859
0
LINE
8
10000_FRONT
62
7
6
CONTINUOUS
10
121.8491097514
20
163.3491206347
11
121.8491097514
21
163.5086950838
0
LINE
8
10000_FRONT
62
7
6
CONTINUOUS
10
121.8972348432
20
162.4235886960
11
121.8972348432
21
162.5512482553
0
LINE
8
10000_FRONT
62
7
6
CONTINUOUS
10
122.0860718429
20
255.5659999521
11
122.0860718429
21
257.1865115835
0
LINE
8
10000_FRONT
62
7
6
CONTINUOUS
10
122.1795944736
20
162.7092641506
11
122.1795944736
21
162.5496896568
0
LINE
8
10000_FRONT
62
7
6
CONTINUOUS
10
122.2749069736
20
213.0921364853
11
122.2749069736
21
196.9221364853
0
LINE
8
10000_FRONT
62
7
6
CONTINUOUS
10
122.2749069736
20
194.0921364853
11
122.2749069736
21
177.9221364853
0
LINE
8
10000_FRONT
62
7
6
CONTINUOUS
10
122.4299069736
20
208.3571364853
11
122.4299069736
21
201.6571364853
0
LINE
8
10000_FRONT
62
7
6
CONTINUOUS
10
122.4299069736
20
189.3571364853
11
122.4299069736
21
182.6571364853
0
LINE
8
10000_FRONT
62
7
6
CONTINUOUS
10
122.5164692900
20
162.5496896568
11
122.5164692900
21
162.7092641506
0
LINE
8
10000_FRONT
62
7
6
CONTINUOUS
10
122.6501562984
20
162.8927903209
11
122.6501562984
21
162.6055563126
0
LINE
8
10000_FRONT
62
7
6
CONTINUOUS
10
122.6922515409
20
257.8549050300
11
122.6922515409
21
255.5659999521
0
LINE
8
10000_FRONT
62
7
6
CONTINUOUS
10
122.7704691656
20
162.6374712024
11
122.7704691656
21
162.8608754311
0
LINE
8
10000_FRONT
62
7
6
CONTINUOUS
10
123.2785977855
20
255.5659999521
11
123.2785977855
21
257.8549050300
0
LINE
8
10000_FRONT
62
7
6
CONTINUOUS
10
123.3299069736
20
208.3571364853
11
123.3299069736
21
207.2571364853
0
LINE
8
10000_FRONT
62
7
6
CONTINUOUS
10
123.3299069736
20
202.7571364853
11
123.3299069736
21
201.6571364853
0
LINE
8
10000_FRONT
62
7
6
CONTINUOUS
10
123.3299069736
20
189.3571364853
11
123.3299069736
21
188.2571364853
0
LINE
8
10000_FRONT
62
7
6
CONTINUOUS
10
123.3299069736
20
183.7571364853
11
123.3299069736
21
182.6571364853
0
LINE
8
10000_FRONT
62
7
6
CONTINUOUS
10
123.3960934312
20
162.8608754311
11
123.3960934312
21
162.6374712024
0
LINE
8
10000_FRONT
62
7
6
CONTINUOUS
10
123.5164062984
20
162.6055563126
11
123.5164062984
21
162.8927903209
0
LINE
8
10000_FRONT
62
7
6
CONTINUOUS
10
123.6902194736
20
163.5071364853
11
123.6902194736
21
162.0071364853
0
LINE
8
10000_FRONT
62
7
6
CONTINUOUS
10
123.8345944736
20
162.1986258465
11
123.8345944736
21
162.6773492607
0
LINE
8
10000_FRONT
62
7
6
CONTINUOUS
10
123.8345944736
20
162.8688385996
11
123.8345944736
21
163.3156471464
0
LINE
8
10000_FRONT
62
7
6
CONTINUOUS
10
123.8947911136
20
257.4408576751
11
123.8947911136
21
256.9240254209
0
LINE
8
10000_FRONT
62
7
6
CONTINUOUS
10
123.8947911136
20
256.5464308936
11
123.8947911136
21
256.0031755689
0
LINE
8
10000_FRONT
62
7
6
CONTINUOUS
10
115.6138769014
20
256.1006956070
11
115.6143546638
21
256.1973640151
0
LINE
8
10000_FRONT
62
7
6
CONTINUOUS
10
116.2390013695
20
256.2711039699
11
116.2303018671
21
256.1255822843
0
LINE
8
13000_TOP
62
7
6
CONTINUOUS
10
111.9487076837
20
121.7981900443
11
111.9449069736
21
121.7431798394
0
LINE
8
10000_FRONT
62
7
6
CONTINUOUS
10
113.4689694743
20
163.0922428283
11
113.4449069736
21
162.8688385996
0
LINE
8
10000_FRONT
62
7
6
CONTINUOUS
10
113.5652194707
20
162.8688385996
11
113.5892819736
21
163.0603279385
0
LINE
8
10000_FRONT
62
7
6
CONTINUOUS
10
119.0274071572
20
162.8688385996
11
119.0514692900
21
163.0603279385
0
LINE
8
10000_FRONT
62
7
6
CONTINUOUS
10
119.6530319736
20
162.6454343709
11
119.6289692900
21
162.4539449874
0
LINE
8
10000_FRONT
62
7
6
CONTINUOUS
10
120.0861569736
20
162.8688385996
11
120.1102196572
21
163.0603279385
0
LINE
8
10000_FRONT
62
7
6
CONTINUOUS
10
120.7117817900
20
162.6454343709
11
120.6877196572
21
162.4539449874
0
LINE
8
10000_FRONT
62
7
6
CONTINUOUS
10
122.7704691656
20
162.8608754311
11
122.7945312984
21
163.0523647700
0
LINE
8
10000_FRONT
62
7
6
CONTINUOUS
10
123.3960934312
20
162.6374712024
11
123.3720312984
21
162.4459818189
0
LINE
8
10000_FRONT
62
7
6
CONTINUOUS
10
114.5277194736
20
163.1560726973
11
114.5036569966
21
162.9964981589
0
LINE
8
10000_FRONT
62
7
6
CONTINUOUS
10
118.9311569736
20
163.0603279385
11
118.9070942900
21
162.9007534894
0
LINE
8
10000_FRONT
62
7
6
CONTINUOUS
10
119.7492821572
20
162.4539449874
11
119.7733442900
21
162.6135194811
0
LINE
8
10000_FRONT
62
7
6
CONTINUOUS
10
119.9899067900
20
163.0603279385
11
119.9658446572
21
162.9007534894
0
LINE
8
10000_FRONT
62
7
6
CONTINUOUS
10
120.8080319736
20
162.4539449874
11
120.8320946572
21
162.6135194811
0
LINE
8
10000_FRONT
62
7
6
CONTINUOUS
10
122.6742184312
20
163.0523647700
11
122.6501562984
21
162.8927903209
0
LINE
8
10000_FRONT
62
7
6
CONTINUOUS
10
123.4923441656
20
162.4459818189
11
123.5164062984
21
162.6055563126
0
LINE
8
10000_FRONT
62
7
6
CONTINUOUS
10
114.6480319277
20
162.9964981589
11
114.6720944736
21
163.1241577181
0
LINE
8
10000_FRONT
62
7
6
CONTINUOUS
10
115.4180320195
20
162.2305407363
11
115.4420944277
21
162.3582003179
0
LINE
8
10000_FRONT
62
7
6
CONTINUOUS
10
129.5059365125
20
256.1702829177
11
129.4802526725
21
256.0377578785
0
LINE
8
13000_TOP
62
7
6
CONTINUOUS
10
111.9746301597
20
119.1344871059
11
111.9449069736
21
118.9846484502
0
LINE
8
13000_TOP
62
7
6
CONTINUOUS
10
111.9753580003
20
121.8947703014
11
111.9449069736
21
121.7431798394
0
LINE
8
10000_FRONT
62
7
6
CONTINUOUS
10
112.4453470439
20
160.9690762495
11
112.4151343720
21
160.8209964233
0
LINE
8
10000_FRONT
62
7
6
CONTINUOUS
10
112.4151343720
20
160.8209964233
11
112.3882254661
21
160.6920317389
0
LINE
8
10000_FRONT
62
7
6
CONTINUOUS
10
112.3882254661
20
160.6920317389
11
112.3666452208
21
160.5918965501
0
LINE
8
10000_FRONT
62
7
6
CONTINUOUS
10
112.3666452208
20
160.5918965501
11
112.3519216452
21
160.5287597417
0
LINE
8
10000_FRONT
62
7
6
CONTINUOUS
10
113.5892819736
20
163.0603279385
11
113.6133444679
21
163.1560726973
0
LINE
8
10000_FRONT
62
7
6
CONTINUOUS
10
113.5892819736
20
162.5496896568
11
113.6133444679
21
162.6454343709
0
LINE
8
10000_FRONT
62
7
6
CONTINUOUS
10
114.1908444507
20
162.4539449874
11
114.1667819736
21
162.3582003179
0
LINE
8
10000_FRONT
62
7
6
CONTINUOUS
10
115.2977194277
20
162.3901152077
11
115.2736570195
21
162.2943705383
0
LINE
8
10000_FRONT
62
7
6
CONTINUOUS
10
117.4392818818
20
162.4539449874
11
117.4152194736
21
162.3582003179
0
LINE
8
10000_FRONT
62
7
6
CONTINUOUS
10
118.9552196572
20
163.1560726973
11
118.9311569736
21
163.0603279385
0
LINE
8
10000_FRONT
62
7
6
CONTINUOUS
10
119.7252194736
20
162.3582003179
11
119.7492821572
21
162.4539449874
0
LINE
8
10000_FRONT
62
7
6
CONTINUOUS
10
120.0139694736
20
163.1560726973
11
119.9899067900
21
163.0603279385
0
LINE
8
10000_FRONT
62
7
6
CONTINUOUS
10
120.7839692900
20
162.3582003179
11
120.8080319736
21
162.4539449874
0
LINE
8
10000_FRONT
62
7
6
CONTINUOUS
10
121.7769222514
20
162.4555035859
11
121.7528598432
21
162.3597589164
0
LINE
8
10000_FRONT
62
7
6
CONTINUOUS
10
122.6982816656
20
163.1481095288
11
122.6742184312
21
163.0523647700
0
LINE
8
10000_FRONT
62
7
6
CONTINUOUS
10
123.4682809312
20
162.3502371494
11
123.4923441656
21
162.4459818189
0
LINE
8
10000_FRONT
62
7
6
CONTINUOUS
10
124.4361566064
20
163.0603279385
11
124.4120944736
21
162.9645832691
0
LINE
8
10000_FRONT
62
7
6
CONTINUOUS
10
124.5564694736
20
162.9326683792
11
124.5805316064
21
163.0284130487
0
LINE
8
10000_FRONT
62
7
6
CONTINUOUS
10
124.4361566064
20
162.3901152077
11
124.4120944736
21
162.2943705383
0
LINE
8
10000_FRONT
62
7
6
CONTINUOUS
10
124.5564694736
20
162.2624556261
11
124.5805316064
21
162.3582003179
0
LINE
8
10000_FRONT
62
7
6
CONTINUOUS
10
143.9874069736
20
258.4964981291
11
144.0199069659
21
258.6241578075
0
LINE
8
10000_FRONT
62
7
6
CONTINUOUS
10
146.2299069736
20
257.5177747819
11
146.1974069116
21
257.3901152226
0
LINE
8
10000_FRONT
62
7
6
CONTINUOUS
10
147.0424068496
20
257.6879875276
11
147.3349068496
21
258.8369237396
0
LINE
8
10000_FRONT
62
7
6
CONTINUOUS
10
146.8799070976
20
257.0071364853
11
147.0099069736
21
257.5177747819
0
LINE
8
10000_FRONT
62
7
6
CONTINUOUS
10
147.2049069736
20
259.0071364853
11
146.6849069116
21
257.0071364853
0
LINE
8
10000_FRONT
62
7
6
CONTINUOUS
10
113.5170944736
20
163.2518173668
11
113.4689694743
21
163.0922428283
0
LINE
8
10000_FRONT
62
7
6
CONTINUOUS
10
114.2630319507
20
162.2624556261
11
114.3111569736
21
162.4220300975
0
LINE
8
10000_FRONT
62
7
6
CONTINUOUS
10
117.5114693818
20
162.2624556261
11
117.5595944736
21
162.4220300975
0
LINE
8
10000_FRONT
62
7
6
CONTINUOUS
10
121.8491097514
20
162.2640142246
11
121.8972348432
21
162.4235886960
0
LINE
8
10000_FRONT
62
7
6
CONTINUOUS
10
112.3519216452
20
160.5287597417
11
112.3452514129
21
160.5071366576
0
LINE
8
10000_FRONT
62
7
6
CONTINUOUS
10
114.5758444966
20
163.2837322566
11
114.5277194736
21
163.1560726973
0
LINE
8
10000_FRONT
62
7
6
CONTINUOUS
10
150.2069901846
20
256.1092641804
11
150.1428235791
21
255.9390514347
0
LINE
8
10000_FRONT
62
7
6
CONTINUOUS
10
151.6186569736
20
256.1092641804
11
151.5544901846
21
255.9390514347
0
LINE
8
10000_FRONT
62
7
6
CONTINUOUS
10
151.1053237627
20
254.7050088200
11
151.1694901846
21
254.8752215955
0
LINE
8
10000_FRONT
62
7
6
CONTINUOUS
10
152.5169901846
20
254.7050088200
11
152.5811569736
21
254.8752215955
0
LINE
8
10000_FRONT
62
7
6
CONTINUOUS
10
119.0033444736
20
163.2837322566
11
118.9552196572
21
163.1560726973
0
LINE
8
10000_FRONT
62
7
6
CONTINUOUS
10
120.0620942900
20
163.2837322566
11
120.0139694736
21
163.1560726973
0
LINE
8
10000_FRONT
62
7
6
CONTINUOUS
10
119.6770946572
20
162.2305407363
11
119.7252194736
21
162.3582003179
0
LINE
8
10000_FRONT
62
7
6
CONTINUOUS
10
120.7358444736
20
162.2305407363
11
120.7839692900
21
162.3582003179
0
LINE
8
10000_FRONT
62
7
6
CONTINUOUS
10
122.7464059312
20
163.2757690881
11
122.6982816656
21
163.1481095288
0
LINE
8
10000_FRONT
62
7
6
CONTINUOUS
10
145.2549069736
20
258.7092641804
11
145.1899069426
21
258.5390514347
0
LINE
8
10000_FRONT
62
7
6
CONTINUOUS
10
144.8324070046
20
257.3050088200
11
144.8974069426
21
257.4752215955
0
LINE
8
10000_FRONT
62
7
6
CONTINUOUS
10
152.8924072216
20
258.7092641804
11
152.8274067257
21
258.5390514347
0
LINE
8
10000_FRONT
62
7
6
CONTINUOUS
10
156.5430899416
20
260.5041165762
11
156.5445788404
21
260.5071364767
0
LINE
8
10000_FRONT
62
7
6
CONTINUOUS
10
151.0411569736
20
255.0028811547
11
150.9128237627
21
254.7475620064
0
LINE
8
10000_FRONT
62
7
6
CONTINUOUS
10
151.6828237627
20
255.8113917562
11
151.8111569736
21
256.0667109939
0
LINE
8
10000_FRONT
62
7
6
CONTINUOUS
10
152.4528237627
20
255.0028811547
11
152.3244901846
21
254.7475620064
0
LINE
8
10000_FRONT
62
7
6
CONTINUOUS
10
153.8707285266
20
254.8742931314
11
153.8066740294
21
254.7468569466
0
LINE
8
10000_FRONT
62
7
6
CONTINUOUS
10
113.6133444679
20
163.1560726973
11
113.6614694736
21
163.2518173668
0
LINE
8
10000_FRONT
62
7
6
CONTINUOUS
10
114.1667819736
20
162.3582003179
11
114.1186569507
21
162.2624556261
0
LINE
8
10000_FRONT
62
7
6
CONTINUOUS
10
114.6720944736
20
163.1241577181
11
114.7202194277
21
163.2199024770
0
LINE
8
10000_FRONT
62
7
6
CONTINUOUS
10
117.4152194736
20
162.3582003179
11
117.3670943818
21
162.2624556261
0
LINE
8
10000_FRONT
62
7
6
CONTINUOUS
10
119.0514692900
20
163.0603279385
11
119.1477194736
21
163.2518173668
0
LINE
8
10000_FRONT
62
7
6
CONTINUOUS
10
119.6289692900
20
162.4539449874
11
119.5327196572
21
162.2624556261
0
LINE
8
10000_FRONT
62
7
6
CONTINUOUS
10
120.1102196572
20
163.0603279385
11
120.2064692900
21
163.2518173668
0
LINE
8
10000_FRONT
62
7
6
CONTINUOUS
10
120.6877196572
20
162.4539449874
11
120.5914694736
21
162.2624556261
0
LINE
8
10000_FRONT
62
7
6
CONTINUOUS
10
113.5892819736
20
163.3794769260
11
113.5170944736
21
163.2518173668
0
LINE
8
10000_FRONT
62
7
6
CONTINUOUS
10
114.1908444507
20
162.1347960557
11
114.2630319507
21
162.2624556261
0
LINE
8
10000_FRONT
62
7
6
CONTINUOUS
10
117.4392818818
20
162.1347960557
11
117.5114693818
21
162.2624556261
0
LINE
8
10000_FRONT
62
7
6
CONTINUOUS
10
121.3449069736
20
196.3071364853
11
121.5449069736
21
196.5071364853
0
LINE
8
10000_FRONT
62
7
6
CONTINUOUS
10
147.5449069736
20
213.7071364853
11
147.3449069736
21
213.5071364853
0
LINE
8
13000_TOP
62
7
6
CONTINUOUS
10
156.6056852786
20
37.1349164447
11
156.5303242608
21
37.1145571423
0
LINE
8
13000_TOP
62
7
6
CONTINUOUS
10
114.7851320658
20
49.4279547472
11
124.1046818814
21
49.4279547472
0
LINE
8
13000_TOP
62
7
6
CONTINUOUS
10
124.7851320658
20
49.4279547472
11
134.1046818814
21
49.4279547472
0
LINE
8
13000_TOP
62
7
6
CONTINUOUS
10
134.7851320658
20
49.4279547472
11
144.1046818814
21
49.4279547472
0
LINE
8
13000_TOP
62
7
6
CONTINUOUS
10
144.7851320658
20
49.4279547472
11
154.1046818814
21
49.4279547472
0
LINE
8
13000_TOP
62
7
6
CONTINUOUS
10
154.1046818814
20
50.1084049316
11
144.7851320658
21
50.1084049316
0
LINE
8
13000_TOP
62
7
6
CONTINUOUS
10
144.1046818814
20
50.1084049316
11
134.7851320658
21
50.1084049316
0
LINE
8
13000_TOP
62
7
6
CONTINUOUS
10
134.1046818814
20
50.1084049316
11
124.7851320658
21
50.1084049316
0
LINE
8
13000_TOP
62
7
6
CONTINUOUS
10
124.1046818814
20
50.1084049316
11
114.7851320658
21
50.1084049316
0
LINE
8
13000_TOP
62
7
6
CONTINUOUS
10
114.7851320658
20
55.1779547472
11
124.1046818814
21
55.1779547472
0
LINE
8
13000_TOP
62
7
6
CONTINUOUS
10
124.7851320658
20
55.1779547472
11
134.1046818814
21
55.1779547472
0
LINE
8
13000_TOP
62
7
6
CONTINUOUS
10
134.7851320658
20
55.1779547472
11
144.1046818814
21
55.1779547472
0
LINE
8
13000_TOP
62
7
6
CONTINUOUS
10
144.7851320658
20
55.1779547472
11
154.1046818814
21
55.1779547472
0
LINE
8
13000_TOP
62
7
6
CONTINUOUS
10
154.1046818814
20
55.8584049316
11
144.7851320658
21
55.8584049316
0
LINE
8
13000_TOP
62
7
6
CONTINUOUS
10
144.1046818814
20
55.8584049316
11
134.7851320658
21
55.8584049316
0
LINE
8
13000_TOP
62
7
6
CONTINUOUS
10
134.1046818814
20
55.8584049316
11
124.7851320658
21
55.8584049316
0
LINE
8
13000_TOP
62
7
6
CONTINUOUS
10
124.1046818814
20
55.8584049316
11
114.7851320658
21
55.8584049316
0
LINE
8
13000_TOP
62
7
6
CONTINUOUS
10
114.7851320658
20
60.9279547472
11
124.1046818814
21
60.9279547472
0
LINE
8
13000_TOP
62
7
6
CONTINUOUS
10
124.7851320658
20
60.9279547472
11
134.1046818814
21
60.9279547472
0
LINE
8
13000_TOP
62
7
6
CONTINUOUS
10
134.7851320658
20
60.9279547472
11
144.1046818814
21
60.9279547472
0
LINE
8
13000_TOP
62
7
6
CONTINUOUS
10
144.7851320658
20
60.9279547472
11
154.1046818814
21
60.9279547472
0
LINE
8
13000_TOP
62
7
6
CONTINUOUS
10
154.1046818814
20
61.6084049316
11
144.7851320658
21
61.6084049316
0
LINE
8
13000_TOP
62
7
6
CONTINUOUS
10
144.1046818814
20
61.6084049316
11
134.7851320658
21
61.6084049316
0
LINE
8
13000_TOP
62
7
6
CONTINUOUS
10
134.1046818814
20
61.6084049316
11
124.7851320658
21
61.6084049316
0
LINE
8
13000_TOP
62
7
6
CONTINUOUS
10
124.1046818814
20
61.6084049316
11
114.7851320658
21
61.6084049316
0
LINE
8
10000_FRONT
62
7
6
CONTINUOUS
10
111.9449069736
20
160.9071364853
11
111.9453136322
21
160.9058350464
0
LINE
8
10000_FRONT
62
7
6
CONTINUOUS
10
113.4689694743
20
162.4220300975
11
113.5170944736
21
162.2624556261
0
LINE
8
10000_FRONT
62
7
6
CONTINUOUS
10
114.3111569736
20
162.5816045913
11
114.2630319507
21
162.7411790404
0
LINE
8
10000_FRONT
62
7
6
CONTINUOUS
10
113.6133444679
20
162.3582003179
11
113.5892819736
21
162.4539449874
0
LINE
8
10000_FRONT
62
7
6
CONTINUOUS
10
114.1667819736
20
162.6454343709
11
114.1908444507
21
162.5496896568
0
LINE
8
10000_FRONT
62
7
6
CONTINUOUS
10
114.2630319507
20
163.1560726973
11
114.2389694736
21
163.2518173668
0
LINE
8
10000_FRONT
62
7
6
CONTINUOUS
10
115.2736570195
20
163.2199024770
11
115.2977194277
21
163.1241577181
0
LINE
8
10000_FRONT
62
7
6
CONTINUOUS
10
117.4152194736
20
162.6135194811
11
117.4392818818
21
162.5177747670
0
LINE
8
10000_FRONT
62
7
6
CONTINUOUS
10
111.9776254426
20
160.7522610383
11
111.9465350301
21
160.9045331322
0
LINE
8
13000_TOP
62
7
6
CONTINUOUS
10
126.9651837868
20
119.1344871078
11
126.9949069736
21
118.9846484502
0
LINE
8
10000_FRONT
62
7
6
CONTINUOUS
10
114.6720944736
20
162.3901152077
11
114.6480319277
21
162.5177747670
0
LINE
8
10000_FRONT
62
7
6
CONTINUOUS
10
114.5036569966
20
162.5177747670
11
114.5277194736
21
162.3582003179
0
LINE
8
10000_FRONT
62
7
6
CONTINUOUS
10
115.4420944277
20
163.1241577181
11
115.4180320195
21
163.2837322566
0
LINE
8
10000_FRONT
62
7
6
CONTINUOUS
10
118.9070942900
20
162.6135194811
11
118.9311569736
21
162.4539449874
0
LINE
8
10000_FRONT
62
7
6
CONTINUOUS
10
119.7733442900
20
162.9007534894
11
119.7492821572
21
163.0603279385
0
LINE
8
10000_FRONT
62
7
6
CONTINUOUS
10
119.9658446572
20
162.6135194811
11
119.9899067900
21
162.4539449874
0
LINE
8
10000_FRONT
62
7
6
CONTINUOUS
10
120.8320946572
20
162.9007534894
11
120.8080319736
21
163.0603279385
0
LINE
8
10000_FRONT
62
7
6
CONTINUOUS
10
119.0514692900
20
162.4539449874
11
119.0274071572
21
162.6454343709
0
LINE
8
10000_FRONT
62
7
6
CONTINUOUS
10
119.6289692900
20
163.0603279385
11
119.6530319736
21
162.8688385996
0
LINE
8
10000_FRONT
62
7
6
CONTINUOUS
10
120.1102196572
20
162.4539449874
11
120.0861569736
21
162.6454343709
0
LINE
8
10000_FRONT
62
7
6
CONTINUOUS
10
120.6877196572
20
163.0603279385
11
120.7117817900
21
162.8688385996
0
LINE
8
10000_FRONT
62
7
6
CONTINUOUS
10
128.8842552899
20
256.1021052609
11
128.8840400633
21
256.1992615638
0
LINE
8
13000_TOP
62
7
6
CONTINUOUS
10
124.1046818814
20
106.9279547472
11
124.1046818814
21
101.8584049316
0
LINE
8
13000_TOP
62
7
6
CONTINUOUS
10
124.1046818814
20
101.1779547472
11
124.1046818814
21
96.1084049316
0
LINE
8
13000_TOP
62
7
6
CONTINUOUS
10
124.1046818814
20
95.4279547472
11
124.1046818814
21
90.3584049316
0
LINE
8
13000_TOP
62
7
6
CONTINUOUS
10
124.1046818814
20
89.6779547472
11
124.1046818814
21
84.6084049316
0
LINE
8
13000_TOP
62
7
6
CONTINUOUS
10
124.1046818814
20
83.9279547472
11
124.1046818814
21
78.8584049316
0
LINE
8
13000_TOP
62
7
6
CONTINUOUS
10
124.1046818814
20
78.1779547472
11
124.1046818814
21
73.1084049316
0
LINE
8
13000_TOP
62
7
6
CONTINUOUS
10
124.1046818814
20
72.4279547472
11
124.1046818814
21
67.3584049316
0
LINE
8
13000_TOP
62
7
6
CONTINUOUS
10
124.1046818814
20
66.6779547472
11
124.1046818814
21
61.6084049316
0
LINE
8
13000_TOP
62
7
6
CONTINUOUS
10
124.1046818814
20
60.9279547472
11
124.1046818814
21
55.8584049316
0
LINE
8
13000_TOP
62
7
6
CONTINUOUS
10
124.1046818814
20
55.1779547472
11
124.1046818814
21
50.1084049316
0
LINE
8
13000_TOP
62
7
6
CONTINUOUS
10
124.1046818814
20
49.4279547472
11
124.1046818814
21
44.3584049316
0
LINE
8
13000_TOP
62
7
6
CONTINUOUS
10
124.1046818814
20
43.6779547472
11
124.1046818814
21
38.6084049316
0
LINE
8
10000_FRONT
62
7
6
CONTINUOUS
10
124.4361566064
20
163.1241577181
11
124.4361566064
21
163.0603279385
0
LINE
8
10000_FRONT
62
7
6
CONTINUOUS
10
124.4361566064
20
162.4858598772
11
124.4361566064
21
162.3901152077
0
LINE
8
10000_FRONT
62
7
6
CONTINUOUS
10
124.5805316064
20
162.3582003179
11
124.5805316064
21
162.5177747670
0
LINE
8
10000_FRONT
62
7
6
CONTINUOUS
10
124.5805316064
20
163.0284130487
11
124.5805316064
21
163.1560726973
0
LINE
8
13000_TOP
62
7
6
CONTINUOUS
10
124.7851320658
20
38.6084049316
11
124.7851320658
21
43.6779547472
0
LINE
8
13000_TOP
62
7
6
CONTINUOUS
10
124.7851320658
20
44.3584049316
11
124.7851320658
21
49.4279547472
0
LINE
8
13000_TOP
62
7
6
CONTINUOUS
10
124.7851320658
20
50.1084049316
11
124.7851320658
21
55.1779547472
0
LINE
8
13000_TOP
62
7
6
CONTINUOUS
10
124.7851320658
20
55.8584049316
11
124.7851320658
21
60.9279547472
0
LINE
8
13000_TOP
62
7
6
CONTINUOUS
10
124.7851320658
20
61.6084049316
11
124.7851320658
21
66.6779547472
0
LINE
8
13000_TOP
62
7
6
CONTINUOUS
10
124.7851320658
20
67.3584049316
11
124.7851320658
21
72.4279547472
0
LINE
8
13000_TOP
62
7
6
CONTINUOUS
10
124.7851320658
20
73.1084049316
11
124.7851320658
21
78.1779547472
0
LINE
8
13000_TOP
62
7
6
CONTINUOUS
10
124.7851320658
20
78.8584049316
11
124.7851320658
21
83.9279547472
0
LINE
8
13000_TOP
62
7
6
CONTINUOUS
10
124.7851320658
20
84.6084049316
11
124.7851320658
21
89.6779547472
0
LINE
8
13000_TOP
62
7
6
CONTINUOUS
10
124.7851320658
20
90.3584049316
11
124.7851320658
21
95.4279547472
0
LINE
8
13000_TOP
62
7
6
CONTINUOUS
10
124.7851320658
20
96.1084049316
11
124.7851320658
21
101.1779547472
0
LINE
8
13000_TOP
62
7
6
CONTINUOUS
10
124.7851320658
20
101.8584049316
11
124.7851320658
21
106.9279547472
0
LINE
8
10000_FRONT
62
7
6
CONTINUOUS
10
124.7858101029
20
256.9240254209
11
124.7858101029
21
256.5464308936
0
LINE
8
10000_FRONT
62
7
6
CONTINUOUS
10
124.9183129750
20
257.8549050300
11
124.9183129750
21
257.4408576751
0
LINE
8
10000_FRONT
62
7
6
CONTINUOUS
10
124.9448006477
20
256.0031755689
11
124.9448006477
21
255.5659999521
0
LINE
8
10000_FRONT
62
7
6
CONTINUOUS
10
125.3655667304
20
255.5659999521
11
125.3655667304
21
257.8549050300
0
LINE
8
10000_FRONT
62
7
6
CONTINUOUS
10
125.8160506921
20
257.1188711522
11
125.8160506921
21
255.5659999521
0
LINE
8
10000_FRONT
62
7
6
CONTINUOUS
10
125.9280319736
20
162.9007534894
11
125.9280319736
21
162.6135194811
0
LINE
8
10000_FRONT
62
7
6
CONTINUOUS
10
126.0483448408
20
162.6454343709
11
126.0483448408
21
162.8688385996
0
LINE
8
13000_TOP
62
7
6
CONTINUOUS
10
126.5949069736
20
112.8431798394
11
126.5949069736
21
120.1115680181
0
LINE
8
10000_FRONT
62
7
6
CONTINUOUS
10
126.6739691064
20
162.8688385996
11
126.6739691064
21
162.6454343709
0
LINE
8
10000_FRONT
62
7
6
CONTINUOUS
10
126.7942819736
20
162.6135194811
11
126.7942819736
21
162.9007534894
0
LINE
8
10000_FRONT
62
7
6
CONTINUOUS
10
126.8926125012
20
256.3226425103
11
126.8926125012
21
257.8549050300
0
LINE
8
10000_FRONT
62
7
6
CONTINUOUS
10
126.9867823408
20
162.9007534894
11
126.9867823408
21
162.6135194811
0
LINE
8
13000_TOP
62
7
6
CONTINUOUS
10
127.0449069736
20
117.1431798394
11
127.0449069736
21
119.2431798394
0
LINE
8
10000_FRONT
62
7
6
CONTINUOUS
10
127.1070941064
20
162.6454343709
11
127.1070941064
21
162.8688385996
0
LINE
8
10000_FRONT
62
7
6
CONTINUOUS
10
127.3429672584
20
257.8549050300
11
127.3429672584
21
255.5659999521
0
LINE
8
13000_TOP
62
7
6
CONTINUOUS
10
127.3949069736
20
112.0431798394
11
127.3949069764
21
117.1431798394
0
LINE
8
10000_FRONT
62
7
6
CONTINUOUS
10
127.6324069736
20
208.3571364853
11
127.6324069736
21
201.6571364853
0
LINE
8
10000_FRONT
62
7
6
CONTINUOUS
10
127.6324069736
20
189.3571364853
11
127.6324069736
21
182.6571364853
0
LINE
8
10000_FRONT
62
7
6
CONTINUOUS
10
127.7327194736
20
162.8688385996
11
127.7327194736
21
162.6454343709
0
LINE
8
10000_FRONT
62
7
6
CONTINUOUS
10
127.7968752206
20
255.6030180976
11
127.7968752206
21
256.0551171758
0
LINE
8
10000_FRONT
62
7
6
CONTINUOUS
10
127.8530323408
20
162.6135194811
11
127.8530323408
21
162.9007534894
0
LINE
8
10000_FRONT
62
7
6
CONTINUOUS
10
128.0455316064
20
162.7092641506
11
128.0455316064
21
162.5496896568
0
LINE
8
10000_FRONT
62
7
6
CONTINUOUS
10
128.3824069736
20
162.5496896568
11
128.3824069736
21
162.7092641506
0
LINE
8
13000_TOP
62
7
6
CONTINUOUS
10
128.4449069736
20
119.4431798394
11
128.4449069736
21
121.7431798394
0
LINE
8
13000_TOP
62
7
6
CONTINUOUS
10
128.4699069736
20
119.6431798394
11
128.4699069736
21
122.1431798394
0
LINE
8
10000_FRONT
62
7
6
CONTINUOUS
10
128.5749073408
20
163.2837322566
11
128.5749073408
21
163.0284130487
0
LINE
8
10000_FRONT
62
7
6
CONTINUOUS
10
128.7192823408
20
163.2518173668
11
128.7192823408
21
162.0071364853
0
LINE
8
10000_FRONT
62
7
6
CONTINUOUS
10
128.8636573408
20
162.0071364853
11
128.8636573408
21
163.5071364853
0
LINE
8
10000_FRONT
62
7
6
CONTINUOUS
10
129.3305751515
20
257.8112326685
11
129.3305751515
21
257.3764474733
0
LINE
8
10000_FRONT
62
7
6
CONTINUOUS
10
130.2111566064
20
163.5071364853
11
130.2111566064
21
162.0071364853
0
LINE
8
10000_FRONT
62
7
6
CONTINUOUS
10
130.3555316064
20
162.1986258465
11
130.3555316064
21
162.6773492607
0
LINE
8
10000_FRONT
62
7
6
CONTINUOUS
10
130.3555316064
20
162.8688385996
11
130.3555316064
21
163.3156471464
0
LINE
8
10000_FRONT
62
7
6
CONTINUOUS
10
130.6449069736
20
254.4071364853
11
130.6449069736
21
259.0071364853
0
LINE
8
10000_FRONT
62
7
6
CONTINUOUS
10
130.9570948408
20
163.1241577181
11
130.9570948408
21
163.0603279385
0
LINE
8
10000_FRONT
62
7
6
CONTINUOUS
10
130.9570948408
20
162.4858598772
11
130.9570948408
21
162.3901152077
0
LINE
8
10000_FRONT
62
7
6
CONTINUOUS
10
131.1014698408
20
162.3582003179
11
131.1014698408
21
162.5177747670
0
LINE
8
10000_FRONT
62
7
6
CONTINUOUS
10
131.1014698408
20
163.0284130487
11
131.1014698408
21
163.1560726973
0
LINE
8
10000_FRONT
62
7
6
CONTINUOUS
10
131.2939691064
20
162.1667109567
11
131.2939691064
21
162.0071364853
0
LINE
8
10000_FRONT
62
7
6
CONTINUOUS
10
131.6799069736
20
211.6571364853
11
131.6799069736
21
198.3571364853
0
LINE
8
10000_FRONT
62
7
6
CONTINUOUS
10
131.6799069736
20
192.6571364853
11
131.6799069736
21
179.3571364853
0
LINE
8
10000_FRONT
62
7
6
CONTINUOUS
10
132.0158441064
20
163.1560726973
11
132.0158441064
21
163.0922428283
0
LINE
8
10000_FRONT
62
7
6
CONTINUOUS
10
132.1602191064
20
162.0071364853
11
132.1602191064
21
162.1667109567
0
LINE
8
10000_FRONT
62
7
6
CONTINUOUS
10
132.1602191064
20
163.0922428283
11
132.1602191064
21
163.1560726973
0
LINE
8
10000_FRONT
62
7
6
CONTINUOUS
10
133.9449069736
20
162.6321364853
11
133.9449069736
21
160.9571364853
0
LINE
8
13000_TOP
62
7
6
CONTINUOUS
10
134.1046818814
20
106.9279547472
11
134.1046818814
21
101.8584049316
0
LINE
8
13000_TOP
62
7
6
CONTINUOUS
10
134.1046818814
20
101.1779547472
11
134.1046818814
21
96.1084049316
0
LINE
8
13000_TOP
62
7
6
CONTINUOUS
10
134.1046818814
20
95.4279547472
11
134.1046818814
21
90.3584049316
0
LINE
8
13000_TOP
62
7
6
CONTINUOUS
10
134.1046818814
20
89.6779547472
11
134.1046818814
21
84.6084049316
0
LINE
8
13000_TOP
62
7
6
CONTINUOUS
10
134.1046818814
20
83.9279547472
11
134.1046818814
21
78.8584049316
0
LINE
8
13000_TOP
62
7
6
CONTINUOUS
10
134.1046818814
20
78.1779547472
11
134.1046818814
21
73.1084049316
0
LINE
8
13000_TOP
62
7
6
CONTINUOUS
10
134.1046818814
20
72.4279547472
11
134.1046818814
21
67.3584049316
0
LINE
8
13000_TOP
62
7
6
CONTINUOUS
10
134.1046818814
20
66.6779547472
11
134.1046818814
21
61.6084049316
0
LINE
8
13000_TOP
62
7
6
CONTINUOUS
10
134.1046818814
20
60.9279547472
11
134.1046818814
21
55.8584049316
0
LINE
8
13000_TOP
62
7
6
CONTINUOUS
10
134.1046818814
20
55.1779547472
11
134.1046818814
21
50.1084049316
0
LINE
8
13000_TOP
62
7
6
CONTINUOUS
10
134.1046818814
20
49.4279547472
11
134.1046818814
21
44.3584049316
0
LINE
8
13000_TOP
62
7
6
CONTINUOUS
10
134.1046818814
20
43.6779547472
11
134.1046818814
21
38.6084049316
0
LINE
8
10000_FRONT
62
7
6
CONTINUOUS
10
134.1949069736
20
160.9571364853
11
134.1949069736
21
162.3821364853
0
LINE
8
10000_FRONT
62
7
6
CONTINUOUS
10
134.6449069736
20
162.3821364853
11
134.6449069736
21
162.6321364853
0
LINE
8
13000_TOP
62
7
6
CONTINUOUS
10
134.7851320658
20
38.6084049316
11
134.7851320658
21
43.6779547472
0
LINE
8
13000_TOP
62
7
6
CONTINUOUS
10
134.7851320658
20
44.3584049316
11
134.7851320658
21
49.4279547472
0
LINE
8
13000_TOP
62
7
6
CONTINUOUS
10
134.7851320658
20
50.1084049316
11
134.7851320658
21
55.1779547472
0
LINE
8
13000_TOP
62
7
6
CONTINUOUS
10
134.7851320658
20
55.8584049316
11
134.7851320658
21
60.9279547472
0
LINE
8
13000_TOP
62
7
6
CONTINUOUS
10
134.7851320658
20
61.6084049316
11
134.7851320658
21
66.6779547472
0
LINE
8
13000_TOP
62
7
6
CONTINUOUS
10
134.7851320658
20
67.3584049316
11
134.7851320658
21
72.4279547472
0
LINE
8
13000_TOP
62
7
6
CONTINUOUS
10
134.7851320658
20
73.1084049316
11
134.7851320658
21
78.1779547472
0
LINE
8
13000_TOP
62
7
6
CONTINUOUS
10
134.7851320658
20
78.8584049316
11
134.7851320658
21
83.9279547472
0
LINE
8
13000_TOP
62
7
6
CONTINUOUS
10
134.7851320658
20
84.6084049316
11
134.7851320658
21
89.6779547472
0
LINE
8
13000_TOP
62
7
6
CONTINUOUS
10
134.7851320658
20
90.3584049316
11
134.7851320658
21
95.4279547472
0
LINE
8
13000_TOP
62
7
6
CONTINUOUS
10
134.7851320658
20
96.1084049316
11
134.7851320658
21
101.1779547472
0
LINE
8
13000_TOP
62
7
6
CONTINUOUS
10
134.7851320658
20
101.8584049316
11
134.7851320658
21
106.9279547472
0
LINE
8
10000_FRONT
62
7
6
CONTINUOUS
10
134.9449069736
20
169.4071364853
11
134.9449069736
21
169.2571364853
0
LINE
8
10000_FRONT
62
7
6
CONTINUOUS
10
134.9449069736
20
168.1071364853
11
134.9449069736
21
166.6071364853
0
LINE
8
10000_FRONT
62
7
6
CONTINUOUS
10
134.9449069736
20
166.2071364853
11
134.9449069736
21
164.7071364853
0
LINE
8
10000_FRONT
62
7
6
CONTINUOUS
10
134.9449069736
20
163.5071364853
11
134.9449069736
21
161.5071364853
0
LINE
8
10000_FRONT
62
7
6
CONTINUOUS
10
135.0949069736
20
164.8986258465
11
135.0949069736
21
166.2071364853
0
LINE
8
10000_FRONT
62
7
6
CONTINUOUS
10
135.0949069736
20
166.6071364853
11
135.0949069736
21
167.7879875872
0
LINE
8
10000_FRONT
62
7
6
CONTINUOUS
10
135.1324069736
20
169.0321364853
11
135.1324069736
21
168.8821364853
0
LINE
8
10000_FRONT
62
7
6
CONTINUOUS
10
135.1324069736
20
161.7624556336
11
135.1324069736
21
163.2518173668
0
LINE
8
10000_FRONT
62
7
6
CONTINUOUS
10
135.3199069736
20
168.6571364853
11
135.3199069736
21
168.5071364853
0
LINE
8
10000_FRONT
62
7
6
CONTINUOUS
10
135.6199069736
20
170.0071364853
11
135.6199069736
21
169.4071364853
0
LINE
8
10000_FRONT
62
7
6
CONTINUOUS
10
135.7699069736
20
169.4071364853
11
135.7699069736
21
170.0071364853
0
LINE
8
10000_FRONT
62
7
6
CONTINUOUS
10
135.8449069736
20
164.7071364853
11
135.8449069736
21
164.8986258465
0
LINE
8
10000_FRONT
62
7
6
CONTINUOUS
10
135.9949069736
20
167.7879875872
11
135.9949069736
21
166.6071364853
0
LINE
8
10000_FRONT
62
7
6
CONTINUOUS
10
136.0074069438
20
162.8262853834
11
136.0074069438
21
162.1879875276
0
LINE
8
10000_FRONT
62
7
6
CONTINUOUS
10
136.0449069975
20
165.5050088200
11
136.0449069975
21
165.4411790404
0
LINE
8
10000_FRONT
62
7
6
CONTINUOUS
10
136.0699069736
20
168.5071364853
11
136.0699069736
21
168.6571364853
0
LINE
8
10000_FRONT
62
7
6
CONTINUOUS
10
136.1449069736
20
166.6071364853
11
136.1449069736
21
168.1071364853
0
LINE
8
10000_FRONT
62
7
6
CONTINUOUS
10
136.1949069438
20
162.1879875276
11
136.1949069438
21
162.8262853834
0
LINE
8
10000_FRONT
62
7
6
CONTINUOUS
10
136.2449070213
20
165.7603279385
11
136.2449070213
21
165.5050088200
0
LINE
8
10000_FRONT
62
7
6
CONTINUOUS
10
136.2449070213
20
165.4411790404
11
136.2449070213
21
165.1858598772
0
LINE
8
10000_FRONT
62
7
6
CONTINUOUS
10
136.2574069736
20
168.8821364853
11
136.2574069736
21
169.0321364853
0
LINE
8
10000_FRONT
62
7
6
CONTINUOUS
10
136.2949069736
20
165.1858598772
11
136.2949069736
21
165.4411790404
0
LINE
8
10000_FRONT
62
7
6
CONTINUOUS
10
136.2949069736
20
165.5050088200
11
136.2949069736
21
165.7603279385
0
LINE
8
10000_FRONT
62
7
6
CONTINUOUS
10
136.4449069736
20
162.8262853834
11
136.4449069736
21
162.1879875276
0
LINE
8
10000_FRONT
62
7
6
CONTINUOUS
10
136.4449069736
20
169.2571364853
11
136.4449069736
21
169.4071364853
0
LINE
8
10000_FRONT
62
7
6
CONTINUOUS
10
136.4949069259
20
165.4411790404
11
136.4949069259
21
165.5050088200
0
LINE
8
10000_FRONT
62
7
6
CONTINUOUS
10
136.6324069736
20
162.1879875276
11
136.6324069736
21
162.8262853834
0
LINE
8
10000_FRONT
62
7
6
CONTINUOUS
10
137.2099069736
20
211.6571364853
11
137.2099069736
21
198.3571364853
0
LINE
8
10000_FRONT
62
7
6
CONTINUOUS
10
137.2099069736
20
192.6571364853
11
137.2099069736
21
179.3571364853
0
LINE
8
10000_FRONT
62
7
6
CONTINUOUS
10
137.2449178507
20
215.3069847337
11
137.2449178507
21
229.3497825604
0
LINE
8
10000_FRONT
62
7
6
CONTINUOUS
10
137.7949069736
20
170.1571364853
11
137.7949069736
21
164.5571364853
0
LINE
8
10000_FRONT
62
7
6
CONTINUOUS
10
137.9136569140
20
161.7199024472
11
137.9136569140
21
161.5071364853
0
LINE
8
10000_FRONT
62
7
6
CONTINUOUS
10
137.9449069736
20
164.7071364853
11
137.9449069736
21
170.0071364853
0
LINE
8
10000_FRONT
62
7
6
CONTINUOUS
10
138.4049069736
20
226.6571364853
11
138.4049069736
21
217.6571364853
0
LINE
8
10000_FRONT
62
7
6
CONTINUOUS
10
129.5071236564
20
256.3051043680
11
129.5059365125
21
256.1702829177
0
LINE
8
10000_FRONT
62
7
6
CONTINUOUS
10
127.7520892059
20
257.1540557220
11
127.7561326716
21
257.2985562774
0
LINE
8
10000_FRONT
62
7
6
CONTINUOUS
10
126.0483448408
20
162.8688385996
11
126.0724069736
21
163.0603279385
0
LINE
8
10000_FRONT
62
7
6
CONTINUOUS
10
126.6739691064
20
162.6454343709
11
126.6499069736
21
162.4539449874
0
LINE
8
10000_FRONT
62
7
6
CONTINUOUS
10
127.1070941064
20
162.8688385996
11
127.1311573408
21
163.0603279385
0
LINE
8
10000_FRONT
62
7
6
CONTINUOUS
10
127.7327194736
20
162.6454343709
11
127.7086573408
21
162.4539449874
0
LINE
8
10000_FRONT
62
7
6
CONTINUOUS
10
150.2390737627
20
255.5560726377
11
150.2711569736
21
255.8113917562
0
LINE
8
10000_FRONT
62
7
6
CONTINUOUS
10
151.0732401846
20
255.2582003328
11
151.0411569736
21
255.0028811547
0
LINE
8
10000_FRONT
62
7
6
CONTINUOUS
10
136.1636569736
20
161.9752215955
11
136.1949069438
21
162.1879875276
0
LINE
8
10000_FRONT
62
7
6
CONTINUOUS
10
136.4761570332
20
163.0390514347
11
136.4449069736
21
162.8262853834
0
LINE
8
10000_FRONT
62
7
6
CONTINUOUS
10
137.6324069140
20
161.8050088200
11
137.6636569736
21
162.0177747819
0
LINE
8
10000_FRONT
62
7
6
CONTINUOUS
10
125.9520941064
20
163.0603279385
11
125.9280319736
21
162.9007534894
0
LINE
8
10000_FRONT
62
7
6
CONTINUOUS
10
126.7702198408
20
162.4539449874
11
126.7942819736
21
162.6135194811
0
LINE
8
10000_FRONT
62
7
6
CONTINUOUS
10
127.0108444736
20
163.0603279385
11
126.9867823408
21
162.9007534894
0
LINE
8
10000_FRONT
62
7
6
CONTINUOUS
10
127.8289691064
20
162.4539449874
11
127.8530323408
21
162.6135194811
0
LINE
8
10000_FRONT
62
7
6
CONTINUOUS
10
150.1107403681
20
255.8113917562
11
150.0786569736
21
255.5986258242
0
LINE
8
10000_FRONT
62
7
6
CONTINUOUS
10
151.2015737627
20
255.0028811547
11
151.2336569736
21
255.2156471464
0
LINE
8
10000_FRONT
62
7
6
CONTINUOUS
10
151.5224069736
20
255.8113917562
11
151.4903237627
21
255.5986258242
0
LINE
8
10000_FRONT
62
7
6
CONTINUOUS
10
152.6132401846
20
255.0028811547
11
152.6453237627
21
255.2156471464
0
LINE
8
10000_FRONT
62
7
6
CONTINUOUS
10
145.1899069426
20
258.5390514347
11
145.1574069736
21
258.3262853834
0
LINE
8
10000_FRONT
62
7
6
CONTINUOUS
10
146.3924069116
20
257.3050088200
11
146.4249069736
21
257.5177747819
0
LINE
8
10000_FRONT
62
7
6
CONTINUOUS
10
152.8274067257
20
258.5390514347
11
152.7949072216
21
258.3262853834
0
LINE
8
10000_FRONT
62
7
6
CONTINUOUS
10
154.0299069736
20
257.3050088200
11
154.0624072216
21
257.5177747819
0
LINE
8
10000_FRONT
62
7
6
CONTINUOUS
10
136.0074069438
20
162.1879875276
11
135.9761569736
21
162.0177747819
0
LINE
8
10000_FRONT
62
7
6
CONTINUOUS
10
136.6324069736
20
162.8262853834
11
136.6636570332
21
162.9964981291
0
LINE
8
10000_FRONT
62
7
6
CONTINUOUS
10
137.9761568544
20
163.2092641804
11
137.9449069736
21
163.0390514347
0
LINE
8
10000_FRONT
62
7
6
CONTINUOUS
10
139.0074068544
20
162.7837321970
11
139.0386570928
21
162.9539449427
0
LINE
8
10000_FRONT
62
7
6
CONTINUOUS
10
131.3420944736
20
163.2837322566
11
131.3180323408
21
163.1560726973
0
LINE
8
10000_FRONT
62
7
6
CONTINUOUS
10
132.1361569736
20
162.9645832691
11
132.1602191064
21
163.0922428283
0
LINE
8
10000_FRONT
62
7
6
CONTINUOUS
10
143.8249069775
20
258.7092641804
11
143.7924069736
21
258.5390514347
0
LINE
8
10000_FRONT
62
7
6
CONTINUOUS
10
145.3524069736
20
258.3262853834
11
145.3849070356
21
258.4964981291
0
LINE
8
10000_FRONT
62
7
6
CONTINUOUS
10
152.9899072216
20
258.3262853834
11
153.0224067257
21
258.4964981291
0
LINE
8
10000_FRONT
62
7
6
CONTINUOUS
10
156.4448523080
20
260.0471393526
11
156.4770815622
21
260.2055422355
0
LINE
8
10000_FRONT
62
7
6
CONTINUOUS
10
156.4770815622
20
260.2055422355
11
156.5013459803
21
260.3216828435
0
LINE
8
10000_FRONT
62
7
6
CONTINUOUS
10
156.5013459803
20
260.3216828435
11
156.5184490255
21
260.4009743379
0
LINE
8
10000_FRONT
62
7
6
CONTINUOUS
10
156.5184490255
20
260.4009743379
11
156.5252703833
21
260.4316394124
0
LINE
8
10000_FRONT
62
7
6
CONTINUOUS
10
156.5252703833
20
260.4316394124
11
156.5313408825
21
260.4581629974
0
LINE
8
10000_FRONT
62
7
6
CONTINUOUS
10
156.5313408825
20
260.4581629974
11
156.5364533561
21
260.4795857512
0
LINE
8
10000_FRONT
62
7
6
CONTINUOUS
10
137.4761569736
20
162.0177747819
11
137.4449069140
21
161.8901152226
0
LINE
8
10000_FRONT
62
7
6
CONTINUOUS
10
125.0373525542
20
162.5195813355
11
125.2539150542
21
163.3812834945
0
LINE
8
10000_FRONT
62
7
6
CONTINUOUS
10
124.9170396870
20
162.0089430538
11
125.0132904214
21
162.3919217762
0
LINE
8
10000_FRONT
62
7
6
CONTINUOUS
10
125.9761573408
20
163.1560726973
11
125.9520941064
21
163.0603279385
0
LINE
8
10000_FRONT
62
7
6
CONTINUOUS
10
149.6294903681
20
255.8113917562
11
149.5974069736
21
255.6837321970
0
LINE
8
10000_FRONT
62
7
6
CONTINUOUS
10
149.7899069736
20
255.6411790106
11
149.8219903681
21
255.7688385698
0
LINE
8
10000_FRONT
62
7
6
CONTINUOUS
10
149.6294903681
20
254.9177747819
11
149.5974069736
21
254.7901152226
0
LINE
8
10000_FRONT
62
7
6
CONTINUOUS
10
149.7899069736
20
254.7475620064
11
149.8219903681
21
254.8752215955
0
LINE
8
10000_FRONT
62
7
6
CONTINUOUS
10
150.1428235791
20
255.9390514347
11
150.1107403681
21
255.8113917562
0
LINE
8
10000_FRONT
62
7
6
CONTINUOUS
10
126.7461566064
20
162.3582003179
11
126.7702198408
21
162.4539449874
0
LINE
8
10000_FRONT
62
7
6
CONTINUOUS
10
127.0349066064
20
163.1560726973
11
127.0108444736
21
163.0603279385
0
LINE
8
10000_FRONT
62
7
6
CONTINUOUS
10
127.8049069736
20
162.3582003179
11
127.8289691064
21
162.4539449874
0
LINE
8
10000_FRONT
62
7
6
CONTINUOUS
10
151.1694901846
20
254.8752215955
11
151.2015737627
21
255.0028811547
0
LINE
8
10000_FRONT
62
7
6
CONTINUOUS
10
151.5544901846
20
255.9390514347
11
151.5224069736
21
255.8113917562
0
LINE
8
10000_FRONT
62
7
6
CONTINUOUS
10
129.3208444736
20
162.5177747670
11
129.5374069736
21
163.3794769260
0
LINE
8
10000_FRONT
62
7
6
CONTINUOUS
10
129.2005316064
20
162.0071364853
11
129.2967823408
21
162.3901152077
0
LINE
8
10000_FRONT
62
7
6
CONTINUOUS
10
152.5811569736
20
254.8752215955
11
152.6132401846
21
255.0028811547
0
LINE
8
10000_FRONT
62
7
6
CONTINUOUS
10
153.9027555919
20
255.0017292865
11
153.8707285266
21
254.8742931314
0
LINE
8
10000_FRONT
62
7
6
CONTINUOUS
10
130.9570948408
20
163.0603279385
11
130.9330316064
21
162.9645832691
0
LINE
8
10000_FRONT
62
7
6
CONTINUOUS
10
131.0774066064
20
162.9326683792
11
131.1014698408
21
163.0284130487
0
LINE
8
10000_FRONT
62
7
6
CONTINUOUS
10
130.9570948408
20
162.3901152077
11
130.9330316064
21
162.2943705383
0
LINE
8
10000_FRONT
62
7
6
CONTINUOUS
10
131.0774066064
20
162.2624556261
11
131.1014698408
21
162.3582003179
0
LINE
8
10000_FRONT
62
7
6
CONTINUOUS
10
150.0324069736
20
257.6879875276
11
150.3249069736
21
258.8369237396
0
LINE
8
10000_FRONT
62
7
6
CONTINUOUS
10
149.8699068496
20
257.0071364853
11
149.9999067257
21
257.5177747819
0
LINE
8
10000_FRONT
62
7
6
CONTINUOUS
10
153.8674072216
20
257.5177747819
11
153.8349069736
21
257.3901152226
0
LINE
8
10000_FRONT
62
7
6
CONTINUOUS
10
156.5364533561
20
260.4795857512
11
156.5403927471
21
260.4949872815
0
LINE
8
10000_FRONT
62
7
6
CONTINUOUS
10
125.1576654214
20
163.5089430538
11
124.7726646870
21
162.0089430538
0
LINE
8
10000_FRONT
62
7
6
CONTINUOUS
10
129.4411573408
20
163.5071364853
11
129.0561566064
21
162.0071364853
0
LINE
8
10000_FRONT
62
7
6
CONTINUOUS
10
150.1949067257
20
259.0071364853
11
149.6749068496
21
257.0071364853
0
LINE
8
10000_FRONT
62
7
6
CONTINUOUS
10
135.9199069736
20
168.1071364853
11
135.5449069736
21
166.7667109567
0
LINE
8
10000_FRONT
62
7
6
CONTINUOUS
10
156.5403927471
20
260.4949872815
11
156.5430899416
21
260.5041165762
0
LINE
8
10000_FRONT
62
7
6
CONTINUOUS
10
135.6449069498
20
166.6071364853
11
135.9949069736
21
167.7879875872
0
LINE
8
10000_FRONT
62
7
6
CONTINUOUS
10
153.9988371544
20
254.7468569466
11
154.0628916516
21
254.9592505680
0
LINE
8
10000_FRONT
62
7
6
CONTINUOUS
10
136.5386569736
20
163.2092641804
11
136.4761570332
21
163.0390514347
0
LINE
8
10000_FRONT
62
7
6
CONTINUOUS
10
136.1011569438
20
161.8050088200
11
136.1636569736
21
161.9752215955
0
LINE
8
10000_FRONT
62
7
6
CONTINUOUS
10
138.8511570928
20
162.9539449427
11
138.7886569736
21
162.7837321970
0
LINE
8
10000_FRONT
62
7
6
CONTINUOUS
10
123.4201566656
20
162.2225775678
11
123.4682809312
21
162.3502371494
0
LINE
8
10000_FRONT
62
7
6
CONTINUOUS
10
126.0242816064
20
163.2837322566
11
125.9761573408
21
163.1560726973
0
LINE
8
10000_FRONT
62
7
6
CONTINUOUS
10
127.0830319736
20
163.2837322566
11
127.0349066064
21
163.1560726973
0
LINE
8
10000_FRONT
62
7
6
CONTINUOUS
10
126.6980323408
20
162.2305407363
11
126.7461566064
21
162.3582003179
0
LINE
8
10000_FRONT
62
7
6
CONTINUOUS
10
127.7567816064
20
162.2305407363
11
127.8049069736
21
162.3582003179
0
LINE
8
10000_FRONT
62
7
6
CONTINUOUS
10
132.0158441064
20
163.0922428283
11
131.9677198408
21
162.9645832691
0
LINE
8
10000_FRONT
62
7
6
CONTINUOUS
10
135.9761569736
20
162.0177747819
11
135.9136569438
21
161.8901152226
0
LINE
8
10000_FRONT
62
7
6
CONTINUOUS
10
136.6636570332
20
162.9964981291
11
136.7261569736
21
163.1241578075
0
LINE
8
10000_FRONT
62
7
6
CONTINUOUS
10
121.7528598432
20
162.3597589164
11
121.7047347514
21
162.2640142246
0
LINE
8
10000_FRONT
62
7
6
CONTINUOUS
10
122.7945312984
20
163.0523647700
11
122.8907809312
21
163.2438541983
0
LINE
8
10000_FRONT
62
7
6
CONTINUOUS
10
123.3720312984
20
162.4459818189
11
123.2757816656
21
162.2544924576
0
LINE
8
10000_FRONT
62
7
6
CONTINUOUS
10
126.0724069736
20
163.0603279385
11
126.1686566064
21
163.2518173668
0
LINE
8
10000_FRONT
62
7
6
CONTINUOUS
10
126.6499069736
20
162.4539449874
11
126.5536573408
21
162.2624556261
0
LINE
8
10000_FRONT
62
7
6
CONTINUOUS
10
127.1311573408
20
163.0603279385
11
127.2274069736
21
163.2518173668
0
LINE
8
10000_FRONT
62
7
6
CONTINUOUS
10
127.7086573408
20
162.4539449874
11
127.6124066064
21
162.2624556261
0
LINE
8
10000_FRONT
62
7
6
CONTINUOUS
10
131.4383441064
20
163.1560726973
11
131.4864694736
21
163.2518173668
0
LINE
8
10000_FRONT
62
7
6
CONTINUOUS
10
132.0880316064
20
162.8688385996
11
132.1361569736
21
162.9645832691
0
LINE
8
10000_FRONT
62
7
6
CONTINUOUS
10
121.7769222514
20
162.1363546542
11
121.8491097514
21
162.2640142246
0
LINE
8
10000_FRONT
62
7
6
CONTINUOUS
10
124.4842819736
20
162.8050088200
11
124.5564694736
21
162.9326683792
0
LINE
8
10000_FRONT
62
7
6
CONTINUOUS
10
124.4842819736
20
162.1347960557
11
124.5564694736
21
162.2624556261
0
LINE
8
10000_FRONT
62
7
6
CONTINUOUS
10
131.0052191064
20
162.8050088200
11
131.0774066064
21
162.9326683792
0
LINE
8
10000_FRONT
62
7
6
CONTINUOUS
10
131.0052191064
20
162.1347960557
11
131.0774066064
21
162.2624556261
0
LINE
8
10000_FRONT
62
7
6
CONTINUOUS
10
128.7192823408
20
163.5071364853
11
128.5749073408
21
163.2837322566
0
LINE
8
10000_FRONT
62
7
6
CONTINUOUS
10
128.5749073408
20
163.0284130487
11
128.7192823408
21
163.2518173668
0
LINE
8
10000_FRONT
62
7
6
CONTINUOUS
10
116.0677193818
20
162.9007534894
11
116.5008443818
21
163.5071364853
0
LINE
8
10000_FRONT
62
7
6
CONTINUOUS
10
116.3083445654
20
163.5071364853
11
115.7789693818
21
162.7730939302
0
LINE
8
10000_FRONT
62
7
6
CONTINUOUS
10
113.6133444679
20
162.6454343709
11
113.6614694736
21
162.7092641506
0
LINE
8
10000_FRONT
62
7
6
CONTINUOUS
10
114.6720944736
20
163.4113918158
11
114.5758444966
21
163.2837322566
0
LINE
8
10000_FRONT
62
7
6
CONTINUOUS
10
115.3217819736
20
162.1028811659
11
115.4180320195
21
162.2305407363
0
LINE
8
10000_FRONT
62
7
6
CONTINUOUS
10
115.7789693818
20
162.5177747670
11
115.9474070654
21
162.7411790404
0
LINE
8
10000_FRONT
62
7
6
CONTINUOUS
10
119.0755319736
20
163.3794769260
11
119.0033444736
21
163.2837322566
0
LINE
8
10000_FRONT
62
7
6
CONTINUOUS
10
120.1342817900
20
163.3794769260
11
120.0620942900
21
163.2837322566
0
LINE
8
10000_FRONT
62
7
6
CONTINUOUS
10
119.6049071572
20
162.1347960557
11
119.6770946572
21
162.2305407363
0
LINE
8
10000_FRONT
62
7
6
CONTINUOUS
10
120.6636569736
20
162.1347960557
11
120.7358444736
21
162.2305407363
0
LINE
8
10000_FRONT
62
7
6
CONTINUOUS
10
122.8185934312
20
163.3715137575
11
122.7464059312
21
163.2757690881
0
LINE
8
10000_FRONT
62
7
6
CONTINUOUS
10
123.3479691656
20
162.1268328872
11
123.4201566656
21
162.2225775678
0
LINE
8
10000_FRONT
62
7
6
CONTINUOUS
10
124.4120944736
20
162.9645832691
11
124.3639691064
21
162.9007534894
0
LINE
8
10000_FRONT
62
7
6
CONTINUOUS
10
124.4120944736
20
162.2943705383
11
124.3639691064
21
162.2305407363
0
LINE
8
10000_FRONT
62
7
6
CONTINUOUS
10
126.0964691064
20
163.3794769260
11
126.0242816064
21
163.2837322566
0
LINE
8
10000_FRONT
62
7
6
CONTINUOUS
10
127.1552194736
20
163.3794769260
11
127.0830319736
21
163.2837322566
0
LINE
8
10000_FRONT
62
7
6
CONTINUOUS
10
126.6258448408
20
162.1347960557
11
126.6980323408
21
162.2305407363
0
LINE
8
10000_FRONT
62
7
6
CONTINUOUS
10
127.6845941064
20
162.1347960557
11
127.7567816064
21
162.2305407363
0
LINE
8
10000_FRONT
62
7
6
CONTINUOUS
10
130.9330316064
20
162.9645832691
11
130.8849073408
21
162.9007534894
0
LINE
8
10000_FRONT
62
7
6
CONTINUOUS
10
131.4383441064
20
163.4113918158
11
131.3420944736
21
163.2837322566
0
LINE
8
10000_FRONT
62
7
6
CONTINUOUS
10
130.9330316064
20
162.2943705383
11
130.8849073408
21
162.2305407363
0
LINE
8
10000_FRONT
62
7
6
CONTINUOUS
10
121.3449069736
20
177.3071364853
11
121.5449069736
21
177.5071364853
0
LINE
8
10000_FRONT
62
7
6
CONTINUOUS
10
147.5449069736
20
194.7071364853
11
147.3449069736
21
194.5071364853
0
LINE
8
10000_FRONT
62
7
6
CONTINUOUS
10
116.8617818818
20
162.6773492607
11
116.9580320654
21
162.7730939302
0
LINE
8
10000_FRONT
62
7
6
CONTINUOUS
10
121.1994222514
20
162.6789078592
11
121.2956724350
21
162.7746525287
0
LINE
8
10000_FRONT
62
7
6
CONTINUOUS
10
113.6614694736
20
163.2518173668
11
113.7336569736
21
163.3156471464
0
LINE
8
10000_FRONT
62
7
6
CONTINUOUS
10
113.7095944794
20
162.9326683792
11
113.5652194707
21
162.8050088200
0
LINE
8
10000_FRONT
62
7
6
CONTINUOUS
10
113.6614694736
20
162.7092641506
11
113.7336569736
21
162.7730939302
0
LINE
8
10000_FRONT
62
7
6
CONTINUOUS
10
114.7202194277
20
163.2199024770
11
114.7924069277
21
163.2837322566
0
LINE
8
10000_FRONT
62
7
6
CONTINUOUS
10
114.1186569507
20
162.2624556261
11
114.0464694507
21
162.1986258465
0
LINE
8
10000_FRONT
62
7
6
CONTINUOUS
10
115.2736570195
20
162.2943705383
11
115.2014695195
21
162.2305407363
0
LINE
8
10000_FRONT
62
7
6
CONTINUOUS
10
117.3670943818
20
162.2624556261
11
117.2949068818
21
162.1986258465
0
LINE
8
10000_FRONT
62
7
6
CONTINUOUS
10
113.7095944794
20
163.4752215955
11
113.5892819736
21
163.3794769260
0
LINE
8
11000_LEFT
62
7
6
CONTINUOUS
10
268.0288141959
20
250.7677649419
11
268.0730235368
21
250.7817586596
0
LINE
8
13000_TOP
62
7
6
CONTINUOUS
10
114.7851320658
20
66.6779547472
11
124.1046818814
21
66.6779547472
0
LINE
8
13000_TOP
62
7
6
CONTINUOUS
10
124.7851320658
20
66.6779547472
11
134.1046818814
21
66.6779547472
0
LINE
8
13000_TOP
62
7
6
CONTINUOUS
10
134.7851320658
20
66.6779547472
11
144.1046818814
21
66.6779547472
0
LINE
8
13000_TOP
62
7
6
CONTINUOUS
10
144.7851320658
20
66.6779547472
11
154.1046818814
21
66.6779547472
0
LINE
8
13000_TOP
62
7
6
CONTINUOUS
10
154.1046818814
20
67.3584049316
11
144.7851320658
21
67.3584049316
0
LINE
8
13000_TOP
62
7
6
CONTINUOUS
10
144.1046818814
20
67.3584049316
11
134.7851320658
21
67.3584049316
0
LINE
8
13000_TOP
62
7
6
CONTINUOUS
10
134.1046818814
20
67.3584049316
11
124.7851320658
21
67.3584049316
0
LINE
8
13000_TOP
62
7
6
CONTINUOUS
10
124.1046818814
20
67.3584049316
11
114.7851320658
21
67.3584049316
0
LINE
8
13000_TOP
62
7
6
CONTINUOUS
10
114.7851320658
20
72.4279547472
11
124.1046818814
21
72.4279547472
0
LINE
8
13000_TOP
62
7
6
CONTINUOUS
10
124.7851320658
20
72.4279547472
11
134.1046818814
21
72.4279547472
0
LINE
8
13000_TOP
62
7
6
CONTINUOUS
10
134.7851320658
20
72.4279547472
11
144.1046818814
21
72.4279547472
0
LINE
8
13000_TOP
62
7
6
CONTINUOUS
10
144.7851320658
20
72.4279547472
11
154.1046818814
21
72.4279547472
0
LINE
8
13000_TOP
62
7
6
CONTINUOUS
10
154.1046818814
20
73.1084049316
11
144.7851320658
21
73.1084049316
0
LINE
8
13000_TOP
62
7
6
CONTINUOUS
10
144.1046818814
20
73.1084049316
11
134.7851320658
21
73.1084049316
0
LINE
8
13000_TOP
62
7
6
CONTINUOUS
10
134.1046818814
20
73.1084049316
11
124.7851320658
21
73.1084049316
0
LINE
8
13000_TOP
62
7
6
CONTINUOUS
10
124.1046818814
20
73.1084049316
11
114.7851320658
21
73.1084049316
0
LINE
8
13000_TOP
62
7
6
CONTINUOUS
10
128.3277392366
20
122.0232802934
11
128.4144559510
21
121.8947702917
0
LINE
8
10000_FRONT
62
7
6
CONTINUOUS
10
112.0642238180
20
160.6233748357
11
111.9776254426
21
160.7522610383
0
LINE
8
13000_TOP
62
7
6
CONTINUOUS
10
126.8786360945
20
119.2638580154
11
126.9651837868
21
119.1344871078
0
LINE
8
13000_TOP
62
7
6
CONTINUOUS
10
128.3286360945
20
120.1071030236
11
128.4151837868
21
119.9777321160
0
LINE
8
10000_FRONT
62
7
6
CONTINUOUS
10
113.5170944736
20
162.2624556261
11
113.5892819736
21
162.1347960557
0
LINE
8
10000_FRONT
62
7
6
CONTINUOUS
10
114.2389694736
20
163.2518173668
11
114.1667819736
21
163.3794769260
0
LINE
8
10000_FRONT
62
7
6
CONTINUOUS
10
116.7414695654
20
162.2624556261
11
116.8136570654
21
162.1347960557
0
LINE
8
10000_FRONT
62
7
6
CONTINUOUS
10
117.5114693818
20
162.7092641506
11
117.4392818818
21
162.8369237098
0
LINE
8
10000_FRONT
62
7
6
CONTINUOUS
10
113.6614694736
20
162.2624556261
11
113.6133444679
21
162.3582003179
0
LINE
8
10000_FRONT
62
7
6
CONTINUOUS
10
114.0945944736
20
163.2518173668
11
114.1427194966
21
163.1560726973
0
LINE
8
10000_FRONT
62
7
6
CONTINUOUS
10
114.7202194277
20
162.2943705383
11
114.6720944736
21
162.3901152077
0
LINE
8
10000_FRONT
62
7
6
CONTINUOUS
10
117.3670943818
20
162.7092641506
11
117.4152194736
21
162.6135194811
0
LINE
8
10000_FRONT
62
7
6
CONTINUOUS
10
119.1477194736
20
162.2624556261
11
119.0514692900
21
162.4539449874
0
LINE
8
10000_FRONT
62
7
6
CONTINUOUS
10
119.5327196572
20
163.2518173668
11
119.6289692900
21
163.0603279385
0
LINE
8
10000_FRONT
62
7
6
CONTINUOUS
10
120.2064692900
20
162.2624556261
11
120.1102196572
21
162.4539449874
0
LINE
8
10000_FRONT
62
7
6
CONTINUOUS
10
120.5914694736
20
163.2518173668
11
120.6877196572
21
163.0603279385
0
LINE
8
10000_FRONT
62
7
6
CONTINUOUS
10
121.7047347514
20
162.7108227491
11
121.7528598432
21
162.6150780796
0
LINE
8
10000_FRONT
62
7
6
CONTINUOUS
10
122.8907809312
20
162.2544924576
11
122.7945312984
21
162.4459818189
0
LINE
8
10000_FRONT
62
7
6
CONTINUOUS
10
115.9474070654
20
162.7411790404
11
116.3083445654
21
162.0071364853
0
LINE
8
10000_FRONT
62
7
6
CONTINUOUS
10
116.5008443818
20
162.0071364853
11
116.0677193818
21
162.9007534894
0
LINE
8
10000_FRONT
62
7
6
CONTINUOUS
10
120.0793524528
20
176.7194706941
11
120.1795454562
21
176.4783804243
0
LINE
8
10000_FRONT
62
7
6
CONTINUOUS
10
114.5277194736
20
162.3582003179
11
114.5758444966
21
162.2305407363
0
LINE
8
10000_FRONT
62
7
6
CONTINUOUS
10
116.6933444736
20
162.3901152077
11
116.7414695654
21
162.2624556261
0
LINE
8
10000_FRONT
62
7
6
CONTINUOUS
10
116.8858445654
20
162.2624556261
11
116.8377194736
21
162.3901152077
0
LINE
8
10000_FRONT
62
7
6
CONTINUOUS
10
118.9552196572
20
162.3582003179
11
119.0033444736
21
162.2305407363
0
LINE
8
10000_FRONT
62
7
6
CONTINUOUS
10
120.0139694736
20
162.3582003179
11
120.0620942900
21
162.2305407363
0
LINE
8
10000_FRONT
62
7
6
CONTINUOUS
10
119.7252194736
20
163.1560726973
11
119.6770946572
21
163.2837322566
0
LINE
8
10000_FRONT
62
7
6
CONTINUOUS
10
121.0309848432
20
162.3916738062
11
121.0791099350
21
162.2640142246
0
LINE
8
10000_FRONT
62
7
6
CONTINUOUS
10
120.7839692900
20
163.1560726973
11
120.7358444736
21
163.2837322566
0
LINE
8
10000_FRONT
62
7
6
CONTINUOUS
10
121.2234849350
20
162.2640142246
11
121.1753598432
21
162.3916738062
0
LINE
8
10000_FRONT
62
7
6
CONTINUOUS
10
122.6982816656
20
162.3502371494
11
122.7464059312
21
162.2225775678
0
LINE
8
10000_FRONT
62
7
6
CONTINUOUS
10
123.4682809312
20
163.1481095288
11
123.4201566656
21
163.2757690881
0
LINE
8
10000_FRONT
62
7
6
CONTINUOUS
10
125.9761573408
20
162.3582003179
11
126.0242816064
21
162.2305407363
0
LINE
8
10000_FRONT
62
7
6
CONTINUOUS
10
127.0349066064
20
162.3582003179
11
127.0830319736
21
162.2305407363
0
LINE
8
10000_FRONT
62
7
6
CONTINUOUS
10
126.7461566064
20
163.1560726973
11
126.6980323408
21
163.2837322566
0
LINE
8
10000_FRONT
62
7
6
CONTINUOUS
10
127.8049069736
20
163.1560726973
11
127.7567816064
21
163.2837322566
0
LINE
8
10000_FRONT
62
7
6
CONTINUOUS
10
117.5595944736
20
162.5496896568
11
117.5114693818
21
162.7092641506
0
LINE
8
10000_FRONT
62
7
6
CONTINUOUS
10
121.8972348432
20
162.5512482553
11
121.8491097514
21
162.7108227491
0
LINE
8
10000_FRONT
62
7
6
CONTINUOUS
10
125.7351654214
20
162.0089430538
11
125.3501646870
21
163.5089430538
0
LINE
8
10000_FRONT
62
7
6
CONTINUOUS
10
130.0186573408
20
162.0071364853
11
129.6336566064
21
163.5071364853
0
LINE
8
10000_FRONT
62
7
6
CONTINUOUS
10
118.9311569736
20
162.4539449874
11
118.9552196572
21
162.3582003179
0
LINE
8
10000_FRONT
62
7
6
CONTINUOUS
10
119.7492821572
20
163.0603279385
11
119.7252194736
21
163.1560726973
0
LINE
8
10000_FRONT
62
7
6
CONTINUOUS
10
119.9899067900
20
162.4539449874
11
120.0139694736
21
162.3582003179
0
LINE
8
10000_FRONT
62
7
6
CONTINUOUS
10
120.8080319736
20
163.0603279385
11
120.7839692900
21
163.1560726973
0
LINE
8
10000_FRONT
62
7
6
CONTINUOUS
10
122.6742184312
20
162.4459818189
11
122.6982816656
21
162.3502371494
0
LINE
8
10000_FRONT
62
7
6
CONTINUOUS
10
123.4923441656
20
163.0523647700
11
123.4682809312
21
163.1481095288
0
LINE
8
10000_FRONT
62
7
6
CONTINUOUS
10
125.4945396870
20
162.3919217762
11
125.5907904214
21
162.0089430538
0
LINE
8
10000_FRONT
62
7
6
CONTINUOUS
10
125.2539150542
20
163.3812834945
11
125.4704775542
21
162.5195813355
0
LINE
8
10000_FRONT
62
7
6
CONTINUOUS
10
125.9520941064
20
162.4539449874
11
125.9761573408
21
162.3582003179
0
LINE
8
10000_FRONT
62
7
6
CONTINUOUS
10
126.7702198408
20
163.0603279385
11
126.7461566064
21
163.1560726973
0
LINE
8
10000_FRONT
62
7
6
CONTINUOUS
10
129.7780316064
20
162.3901152077
11
129.8742823408
21
162.0071364853
0
LINE
8
10000_FRONT
62
7
6
CONTINUOUS
10
129.5374069736
20
163.3794769260
11
129.7539694736
21
162.5177747670
0
LINE
8
10000_FRONT
62
7
6
CONTINUOUS
10
130.9330316064
20
162.5816045913
11
130.9570948408
21
162.4858598772
0
LINE
8
10000_FRONT
62
7
6
CONTINUOUS
10
131.1014698408
20
162.5177747670
11
131.0774066064
21
162.6135194811
0
LINE
8
10000_FRONT
62
7
6
CONTINUOUS
10
130.9330316064
20
163.2199024770
11
130.9570948408
21
163.1241577181
0
LINE
8
10000_FRONT
62
7
6
CONTINUOUS
10
131.1014698408
20
163.1560726973
11
131.0774066064
21
163.2518173668
0
LINE
8
10000_FRONT
62
7
6
CONTINUOUS
10
121.7528598432
20
162.6150780796
11
121.7769222514
21
162.5193333655
0
LINE
8
10000_FRONT
62
7
6
CONTINUOUS
10
124.4120944736
20
162.5816045913
11
124.4361566064
21
162.4858598772
0
LINE
8
10000_FRONT
62
7
6
CONTINUOUS
10
124.5805316064
20
162.5177747670
11
124.5564694736
21
162.6135194811
0
LINE
8
10000_FRONT
62
7
6
CONTINUOUS
10
124.4120944736
20
163.2199024770
11
124.4361566064
21
163.1241577181
0
LINE
8
10000_FRONT
62
7
6
CONTINUOUS
10
124.5805316064
20
163.1560726973
11
124.5564694736
21
163.2518173668
0
LINE
8
10000_FRONT
62
7
6
CONTINUOUS
10
127.0108444736
20
162.4539449874
11
127.0349066064
21
162.3582003179
0
LINE
8
10000_FRONT
62
7
6
CONTINUOUS
10
127.8289691064
20
163.0603279385
11
127.8049069736
21
163.1560726973
0
LINE
8
10000_FRONT
62
7
6
CONTINUOUS
10
112.3685480472
20
260.4137269234
11
112.3833106047
21
260.3458801015
0
LINE
8
10000_FRONT
62
7
6
CONTINUOUS
10
112.3833106047
20
260.3458801015
11
112.4029441649
21
260.2528667577
0
LINE
8
10000_FRONT
62
7
6
CONTINUOUS
10
112.4029441649
20
260.2528667577
11
112.4292026911
21
260.1251848864
0
LINE
8
10000_FRONT
62
7
6
CONTINUOUS
10
112.4292026911
20
260.1251848864
11
112.4449480879
21
260.0472073605
0
LINE
8
13000_TOP
62
7
6
CONTINUOUS
10
128.4144559510
20
121.8947702917
11
128.4449069736
21
121.7431798394
0
LINE
8
13000_TOP
62
7
6
CONTINUOUS
10
128.4151837868
20
119.9777321160
11
128.4449069736
21
119.8278934584
0
LINE
8
10000_FRONT
62
7
6
CONTINUOUS
10
132.1602191064
20
163.1560726973
11
132.1361569736
21
163.2837322566
0
LINE
8
10000_FRONT
62
7
6
CONTINUOUS
10
122.6501562984
20
162.6055563126
11
122.6742184312
21
162.4459818189
0
LINE
8
10000_FRONT
62
7
6
CONTINUOUS
10
123.5164062984
20
162.8927903209
11
123.4923441656
21
163.0523647700
0
LINE
8
10000_FRONT
62
7
6
CONTINUOUS
10
125.9280319736
20
162.6135194811
11
125.9520941064
21
162.4539449874
0
LINE
8
10000_FRONT
62
7
6
CONTINUOUS
10
126.7942819736
20
162.9007534894
11
126.7702198408
21
163.0603279385
0
LINE
8
10000_FRONT
62
7
6
CONTINUOUS
10
126.9867823408
20
162.6135194811
11
127.0108444736
21
162.4539449874
0
LINE
8
10000_FRONT
62
7
6
CONTINUOUS
10
127.8530323408
20
162.9007534894
11
127.8289691064
21
163.0603279385
0
LINE
8
10000_FRONT
62
7
6
CONTINUOUS
10
116.2189669399
20
256.4159263717
11
116.2390013695
21
256.2711039699
0
LINE
8
10000_FRONT
62
7
6
CONTINUOUS
10
120.0449069736
20
176.9798785520
11
120.0793524528
21
176.7194706941
0
LINE
8
10000_FRONT
62
7
6
CONTINUOUS
10
122.7945312984
20
162.4459818189
11
122.7704691656
21
162.6374712024
0
LINE
8
10000_FRONT
62
7
6
CONTINUOUS
10
123.3720312984
20
163.0523647700
11
123.3960934312
21
162.8608754311
0
LINE
8
10000_FRONT
62
7
6
CONTINUOUS
10
126.0724069736
20
162.4539449874
11
126.0483448408
21
162.6454343709
0
LINE
8
10000_FRONT
62
7
6
CONTINUOUS
10
126.6499069736
20
163.0603279385
11
126.6739691064
21
162.8688385996
0
LINE
8
10000_FRONT
62
7
6
CONTINUOUS
10
127.1311573408
20
162.4539449874
11
127.1070941064
21
162.6454343709
0
LINE
8
10000_FRONT
62
7
6
CONTINUOUS
10
127.7086573408
20
163.0603279385
11
127.7327194736
21
162.8688385996
0
LINE
8
10000_FRONT
62
7
6
CONTINUOUS
10
145.9941425218
20
170.1063720335
11
145.9949069736
21
166.9071364853
0
LINE
8
10000_FRONT
62
7
6
CONTINUOUS
10
138.8511570928
20
163.0390514347
11
138.8511570928
21
162.9539449427
0
LINE
8
10000_FRONT
62
7
6
CONTINUOUS
10
139.0386570928
20
161.5071364853
11
139.0386570928
21
161.7199024472
0
LINE
8
10000_FRONT
62
7
6
CONTINUOUS
10
139.0386570928
20
162.9539449427
11
139.0386570928
21
163.0390514347
0
LINE
8
10000_FRONT
62
7
6
CONTINUOUS
10
139.2886568544
20
162.3582003328
11
139.2886568544
21
162.1028811547
0
LINE
8
10000_FRONT
62
7
6
CONTINUOUS
10
139.8699069736
20
170.0071364853
11
139.8699069736
21
164.7071364853
0
LINE
8
10000_FRONT
62
7
6
CONTINUOUS
10
140.0199069736
20
164.7071364853
11
140.0199069736
21
166.3321364853
0
LINE
8
10000_FRONT
62
7
6
CONTINUOUS
10
140.0199069736
20
166.4821364853
11
140.0199069736
21
168.2321364853
0
LINE
8
10000_FRONT
62
7
6
CONTINUOUS
10
140.0199069736
20
168.3821364853
11
140.0199069736
21
170.0071364853
0
LINE
8
10000_FRONT
62
7
6
CONTINUOUS
10
140.0386568544
20
163.1667109939
11
140.0386568544
21
162.3582003328
0
LINE
8
10000_FRONT
62
7
6
CONTINUOUS
10
140.0386568544
20
162.1028811547
11
140.0386568544
21
161.5071364853
0
LINE
8
10000_FRONT
62
7
6
CONTINUOUS
10
140.2261568544
20
161.5071364853
11
140.2261568544
21
162.1028811547
0
LINE
8
10000_FRONT
62
7
6
CONTINUOUS
10
140.2261568544
20
162.3582003328
11
140.2261568544
21
163.5071364853
0
LINE
8
13000_TOP
62
7
6
CONTINUOUS
10
140.4199069736
20
122.1431798394
11
140.4199069736
21
119.6431798394
0
LINE
8
13000_TOP
62
7
6
CONTINUOUS
10
140.4449069736
20
119.4431798394
11
140.4449069736
21
121.7431798394
0
LINE
8
10000_FRONT
62
7
6
CONTINUOUS
10
140.5386570928
20
162.1028811547
11
140.5386570928
21
162.3582003328
0
LINE
8
10000_FRONT
62
7
6
CONTINUOUS
10
141.2574069736
20
208.3571364853
11
141.2574069736
21
201.6571364853
0
LINE
8
10000_FRONT
62
7
6
CONTINUOUS
10
141.2574069736
20
189.3571364853
11
141.2574069736
21
182.6571364853
0
LINE
8
13000_TOP
62
7
6
CONTINUOUS
10
141.4949069736
20
119.4431798394
11
141.4948789823
21
119.8278934584
0
LINE
8
13000_TOP
62
7
6
CONTINUOUS
10
141.4949069736
20
112.0431798394
11
141.4949069736
21
117.1431798394
0
LINE
8
13000_TOP
62
7
6
CONTINUOUS
10
141.4949069736
20
119.8278934584
11
141.4949069736
21
120.2240006859
0
LINE
8
13000_TOP
62
7
6
CONTINUOUS
10
141.8449069736
20
117.1431798394
11
141.8449069736
21
119.2431798394
0
LINE
8
10000_FRONT
62
7
6
CONTINUOUS
10
141.9449069736
20
170.0071364853
11
141.9449069736
21
168.3821364853
0
LINE
8
10000_FRONT
62
7
6
CONTINUOUS
10
141.9449069736
20
168.2321364853
11
141.9449069736
21
166.4821364853
0
LINE
8
10000_FRONT
62
7
6
CONTINUOUS
10
141.9449069736
20
166.3321364853
11
141.9449069736
21
164.7071364853
0
LINE
8
10000_FRONT
62
7
6
CONTINUOUS
10
142.0949069736
20
164.5571364853
11
142.0949069736
21
170.1571364853
0
LINE
8
10000_FRONT
62
7
6
CONTINUOUS
10
142.2449069736
20
162.6321364853
11
142.2449069736
21
162.3821364853
0
LINE
8
13000_TOP
62
7
6
CONTINUOUS
10
142.2949069736
20
112.8431798394
11
142.2949069736
21
120.1115680181
0
LINE
8
10000_FRONT
62
7
6
CONTINUOUS
10
142.6949069736
20
162.3821364853
11
142.6949069736
21
160.9571364853
0
LINE
8
10000_FRONT
62
7
6
CONTINUOUS
10
142.9449069736
20
160.9571364853
11
142.9449069736
21
162.6321364853
0
LINE
8
10000_FRONT
62
7
6
CONTINUOUS
10
143.3949069736
20
243.9071364853
11
143.3949069736
21
247.1071364853
0
LINE
8
10000_FRONT
62
7
6
CONTINUOUS
10
143.4449069736
20
170.0571364853
11
143.4449069736
21
166.9571364853
0
LINE
8
10000_FRONT
62
7
6
CONTINUOUS
10
143.7924069736
20
258.5390514347
11
143.7924069736
21
258.3688385698
0
LINE
8
10000_FRONT
62
7
6
CONTINUOUS
10
143.9874069736
20
258.4113917562
11
143.9874069736
21
258.4964981291
0
LINE
8
13000_TOP
62
7
6
CONTINUOUS
10
144.1046818814
20
106.9279547472
11
144.1046818814
21
101.8584049316
0
LINE
8
13000_TOP
62
7
6
CONTINUOUS
10
144.1046818814
20
101.1779547472
11
144.1046818814
21
96.1084049316
0
LINE
8
13000_TOP
62
7
6
CONTINUOUS
10
144.1046818814
20
95.4279547472
11
144.1046818814
21
90.3584049316
0
LINE
8
13000_TOP
62
7
6
CONTINUOUS
10
144.1046818814
20
89.6779547472
11
144.1046818814
21
84.6084049316
0
LINE
8
13000_TOP
62
7
6
CONTINUOUS
10
144.1046818814
20
83.9279547472
11
144.1046818814
21
78.8584049316
0
LINE
8
13000_TOP
62
7
6
CONTINUOUS
10
144.1046818814
20
78.1779547472
11
144.1046818814
21
73.1084049316
0
LINE
8
13000_TOP
62
7
6
CONTINUOUS
10
144.1046818814
20
72.4279547472
11
144.1046818814
21
67.3584049316
0
LINE
8
13000_TOP
62
7
6
CONTINUOUS
10
144.1046818814
20
66.6779547472
11
144.1046818814
21
61.6084049316
0
LINE
8
13000_TOP
62
7
6
CONTINUOUS
10
144.1046818814
20
60.9279547472
11
144.1046818814
21
55.8584049316
0
LINE
8
13000_TOP
62
7
6
CONTINUOUS
10
144.1046818814
20
55.1779547472
11
144.1046818814
21
50.1084049316
0
LINE
8
13000_TOP
62
7
6
CONTINUOUS
10
144.1046818814
20
49.4279547472
11
144.1046818814
21
44.3584049316
0
LINE
8
13000_TOP
62
7
6
CONTINUOUS
10
144.1046818814
20
43.6779547472
11
144.1046818814
21
38.6084049316
0
LINE
8
10000_FRONT
62
7
6
CONTINUOUS
10
144.7024069426
20
257.6454343411
11
144.7024069426
21
257.5177747819
0
LINE
8
13000_TOP
62
7
6
CONTINUOUS
10
144.7851320658
20
38.6084049316
11
144.7851320658
21
43.6779547472
0
LINE
8
13000_TOP
62
7
6
CONTINUOUS
10
144.7851320658
20
44.3584049316
11
144.7851320658
21
49.4279547472
0
LINE
8
13000_TOP
62
7
6
CONTINUOUS
10
144.7851320658
20
50.1084049316
11
144.7851320658
21
55.1779547472
0
LINE
8
13000_TOP
62
7
6
CONTINUOUS
10
144.7851320658
20
55.8584049316
11
144.7851320658
21
60.9279547472
0
LINE
8
13000_TOP
62
7
6
CONTINUOUS
10
144.7851320658
20
61.6084049316
11
144.7851320658
21
66.6779547472
0
LINE
8
13000_TOP
62
7
6
CONTINUOUS
10
144.7851320658
20
67.3584049316
11
144.7851320658
21
72.4279547472
0
LINE
8
13000_TOP
62
7
6
CONTINUOUS
10
144.7851320658
20
73.1084049316
11
144.7851320658
21
78.1779547472
0
LINE
8
13000_TOP
62
7
6
CONTINUOUS
10
144.7851320658
20
78.8584049316
11
144.7851320658
21
83.9279547472
0
LINE
8
13000_TOP
62
7
6
CONTINUOUS
10
144.7851320658
20
84.6084049316
11
144.7851320658
21
89.6779547472
0
LINE
8
13000_TOP
62
7
6
CONTINUOUS
10
144.7851320658
20
90.3584049316
11
144.7851320658
21
95.4279547472
0
LINE
8
13000_TOP
62
7
6
CONTINUOUS
10
144.7851320658
20
96.1084049316
11
144.7851320658
21
101.1779547472
0
LINE
8
13000_TOP
62
7
6
CONTINUOUS
10
144.7851320658
20
101.8584049316
11
144.7851320658
21
106.9279547472
0
LINE
8
10000_FRONT
62
7
6
CONTINUOUS
10
144.8974069426
20
257.4752215955
11
144.8974069426
21
257.6879875276
0
LINE
8
10000_FRONT
62
7
6
CONTINUOUS
10
145.1574069736
20
258.3262853834
11
145.1574069736
21
257.6879875276
0
LINE
8
10000_FRONT
62
7
6
CONTINUOUS
10
145.3524069736
20
257.6879875276
11
145.3524069736
21
258.3262853834
0
LINE
8
10000_FRONT
62
7
6
CONTINUOUS
10
145.5599069736
20
208.3571364853
11
145.5599069736
21
207.2571364853
0
LINE
8
10000_FRONT
62
7
6
CONTINUOUS
10
145.5599069736
20
202.7571364853
11
145.5599069736
21
201.6571364853
0
LINE
8
10000_FRONT
62
7
6
CONTINUOUS
10
145.5599069736
20
189.3571364853
11
145.5599069736
21
188.2571364853
0
LINE
8
10000_FRONT
62
7
6
CONTINUOUS
10
145.5599069736
20
183.7571364853
11
145.5599069736
21
182.6571364853
0
LINE
8
10000_FRONT
62
7
6
CONTINUOUS
10
145.9449069736
20
166.9571364853
11
145.9449069736
21
170.0571364853
0
LINE
8
10000_FRONT
62
7
6
CONTINUOUS
10
145.9949069736
20
247.1071364853
11
145.9949069736
21
243.9071364853
0
LINE
8
10000_FRONT
62
7
6
CONTINUOUS
10
146.4049069736
20
217.6571364853
11
146.4049069736
21
226.6571364853
0
LINE
8
10000_FRONT
62
7
6
CONTINUOUS
10
146.4599069736
20
211.6571364853
11
146.4599069736
21
198.3571364853
0
LINE
8
10000_FRONT
62
7
6
CONTINUOUS
10
146.4599069736
20
192.6571364853
11
146.4599069736
21
179.3571364853
0
LINE
8
10000_FRONT
62
7
6
CONTINUOUS
10
146.9049069736
20
213.0921364853
11
146.9049069736
21
196.9221364853
0
LINE
8
10000_FRONT
62
7
6
CONTINUOUS
10
146.9049069736
20
194.0921364853
11
146.9049069736
21
177.9221364853
0
LINE
8
10000_FRONT
62
7
6
CONTINUOUS
10
146.9449069736
20
169.3571364853
11
146.9449069736
21
167.6571364853
0
LINE
8
10000_FRONT
62
7
6
CONTINUOUS
10
147.1149069736
20
167.8741577613
11
147.1149069736
21
169.3571364853
0
LINE
8
10000_FRONT
62
7
6
CONTINUOUS
10
147.3449069736
20
213.5071364853
11
147.3449069736
21
196.5071364853
0
LINE
8
10000_FRONT
62
7
6
CONTINUOUS
10
147.3449069736
20
194.5071364853
11
147.3449069736
21
177.5071364853
0
LINE
8
10000_FRONT
62
7
6
CONTINUOUS
10
147.5449069736
20
213.7071364853
11
147.5449069736
21
196.3071364853
0
LINE
8
10000_FRONT
62
7
6
CONTINUOUS
10
147.5449069736
20
194.7071364853
11
147.5449069736
21
177.3071364853
0
LINE
8
10000_FRONT
62
7
6
CONTINUOUS
10
147.6447269283
20
215.3067961645
11
147.6447269283
21
229.3498460514
0
LINE
8
10000_FRONT
62
7
6
CONTINUOUS
10
147.8449069733
20
175.9790648824
11
147.8449069736
21
176.5071364853
0
LINE
8
10000_FRONT
62
7
6
CONTINUOUS
10
147.8449069736
20
252.5071364853
11
147.8449069734
21
253.0417174454
0
LINE
8
10000_FRONT
62
7
6
CONTINUOUS
10
147.9649069736
20
167.6571364853
11
147.9649069736
21
167.8741577613
0
LINE
8
10000_FRONT
62
7
6
CONTINUOUS
10
148.2449070976
20
259.0071364853
11
148.2449070976
21
257.0071364853
0
LINE
8
10000_FRONT
62
7
6
CONTINUOUS
10
148.3449069736
20
252.0071364853
11
148.3449069736
21
177.0071364853
0
LINE
8
13000_TOP
62
7
6
CONTINUOUS
10
148.3449069736
20
36.5688348637
11
148.3449069736
21
35.6072963197
0
LINE
8
10000_FRONT
62
7
6
CONTINUOUS
10
148.4399070976
20
257.2624556336
11
148.4399070976
21
259.0071364853
0
LINE
8
10000_FRONT
62
7
6
CONTINUOUS
10
148.6349069736
20
256.4071364853
11
148.6349069736
21
254.4071364853
0
LINE
8
10000_FRONT
62
7
6
CONTINUOUS
10
148.8274069736
20
254.6624556336
11
148.8274069736
21
255.3007535192
0
LINE
8
10000_FRONT
62
7
6
CONTINUOUS
10
148.8274069736
20
255.5560726377
11
148.8274069736
21
256.1518173668
0
LINE
8
10000_FRONT
62
7
6
CONTINUOUS
10
148.8449069736
20
252.0409037758
11
148.8449069736
21
176.9798785520
0
LINE
8
10000_FRONT
62
7
6
CONTINUOUS
10
149.4149070976
20
257.0071364853
11
149.4149070976
21
257.2624556336
0
LINE
8
10000_FRONT
62
7
6
CONTINUOUS
10
149.6294903681
20
255.8964981291
11
149.6294903681
21
255.8113917562
0
LINE
8
10000_FRONT
62
7
6
CONTINUOUS
10
149.6294903681
20
255.0454343411
11
149.6294903681
21
254.9177747819
0
LINE
8
10000_FRONT
62
7
6
CONTINUOUS
10
149.8219903681
20
254.8752215955
11
149.8219903681
21
255.0879875276
0
LINE
8
10000_FRONT
62
7
6
CONTINUOUS
10
149.8219903681
20
255.7688385698
11
149.8219903681
21
255.9390514347
0
LINE
8
13000_TOP
62
7
6
CONTINUOUS
10
149.8546818814
20
106.9279547472
11
149.8546818814
21
101.8584049316
0
LINE
8
13000_TOP
62
7
6
CONTINUOUS
10
149.8546818814
20
101.1779547472
11
149.8546818814
21
96.1084049316
0
LINE
8
13000_TOP
62
7
6
CONTINUOUS
10
149.8546818814
20
95.4279547472
11
149.8546818814
21
90.3584049316
0
LINE
8
13000_TOP
62
7
6
CONTINUOUS
10
149.8546818814
20
89.6779547472
11
149.8546818814
21
84.6084049316
0
LINE
8
10000_FRONT
62
7
6
CONTINUOUS
10
150.0786569736
20
255.5986258242
11
150.0786569736
21
255.2156471464
0
LINE
8
10000_FRONT
62
7
6
CONTINUOUS
10
150.2390737627
20
255.2582003328
11
150.2390737627
21
255.5560726377
0
LINE
8
10000_FRONT
62
7
6
CONTINUOUS
10
151.0732401846
20
255.5560726377
11
151.0732401846
21
255.2582003328
0
LINE
8
10000_FRONT
62
7
6
CONTINUOUS
10
151.2336569736
20
255.2156471464
11
151.2336569736
21
255.5986258242
0
LINE
8
10000_FRONT
62
7
6
CONTINUOUS
10
151.2349072216
20
259.0071364853
11
151.2349072216
21
257.0071364853
0
LINE
8
10000_FRONT
62
7
6
CONTINUOUS
10
151.4299072216
20
257.0071364853
11
151.4299072216
21
258.7518173668
0
LINE
8
10000_FRONT
62
7
6
CONTINUOUS
10
151.4903237627
20
255.5986258242
11
151.4903237627
21
255.2156471464
0
LINE
8
10000_FRONT
62
7
6
CONTINUOUS
10
151.6507401846
20
255.2582003328
11
151.6507401846
21
255.5560726377
0
LINE
8
13000_TOP
62
7
6
CONTINUOUS
10
151.9449069736
20
110.6431798394
11
151.9449069736
21
87.6431798394
0
LINE
8
13000_TOP
62
7
6
CONTINUOUS
10
152.1449069736
20
110.6431798394
11
152.1449069736
21
87.6431798394
0
LINE
8
10000_FRONT
62
7
6
CONTINUOUS
10
152.3399067257
20
259.0071364853
11
152.3399067257
21
257.3050088200
0
LINE
8
10000_FRONT
62
7
6
CONTINUOUS
10
152.4849069736
20
255.5560726377
11
152.4849069736
21
255.2582003328
0
LINE
8
10000_FRONT
62
7
6
CONTINUOUS
10
152.5349067257
20
257.0071364853
11
152.5349067257
21
259.0071364853
0
LINE
8
10000_FRONT
62
7
6
CONTINUOUS
10
152.6453237627
20
255.2156471464
11
152.6453237627
21
255.5986258242
0
LINE
8
10000_FRONT
62
7
6
CONTINUOUS
10
152.7949072216
20
258.3262853834
11
152.7949072216
21
257.6879875276
0
LINE
8
10000_FRONT
62
7
6
CONTINUOUS
10
152.9099129016
20
256.4035271702
11
152.9099129016
21
255.2990803743
0
LINE
8
10000_FRONT
62
7
6
CONTINUOUS
10
152.9899072216
20
257.6879875276
11
152.9899072216
21
258.3262853834
0
LINE
8
10000_FRONT
62
7
6
CONTINUOUS
10
153.0700489612
20
255.5114739660
11
153.0700489612
21
256.1911335785
0
LINE
8
10000_FRONT
62
7
6
CONTINUOUS
10
143.3956714254
20
170.1063720335
11
143.3949069736
21
166.9071364853
0
LINE
8
10000_FRONT
62
7
6
CONTINUOUS
10
151.6507401846
20
255.5560726377
11
151.6828237627
21
255.8113917562
0
LINE
8
10000_FRONT
62
7
6
CONTINUOUS
10
152.4849069736
20
255.2582003328
11
152.4528237627
21
255.0028811547
0
LINE
8
10000_FRONT
62
7
6
CONTINUOUS
10
148.8104013842
20
176.7192504186
11
148.8449069736
21
176.9798785520
0
LINE
8
13000_TOP
62
7
6
CONTINUOUS
10
140.4449069736
20
119.8278934584
11
140.4746301605
21
119.9777321160
0
LINE
8
13000_TOP
62
7
6
CONTINUOUS
10
141.8949069736
20
118.9846484502
11
141.9246301605
21
119.1344871078
0
LINE
8
13000_TOP
62
7
6
CONTINUOUS
10
140.4449069736
20
121.7431798394
11
140.4753579988
21
121.8947702978
0
LINE
8
10000_FRONT
62
7
6
CONTINUOUS
10
141.5386572120
20
161.5071364853
11
142.0386567352
21
163.5071364853
0
LINE
8
10000_FRONT
62
7
6
CONTINUOUS
10
141.8511567352
20
163.5071364853
11
141.4136569736
21
161.7624556336
0
LINE
8
10000_FRONT
62
7
6
CONTINUOUS
10
148.7101804206
20
176.4782256292
11
148.8104013842
21
176.7192504186
0
LINE
8
10000_FRONT
62
7
6
CONTINUOUS
10
138.1011570928
20
163.0390514347
11
138.1636568544
21
163.1667109939
0
LINE
8
10000_FRONT
62
7
6
CONTINUOUS
10
138.9449070928
20
162.6560726377
11
139.0074068544
21
162.7837321970
0
LINE
8
10000_FRONT
62
7
6
CONTINUOUS
10
140.0386568544
20
163.5071364853
11
139.2886568544
21
162.3582003328
0
LINE
8
10000_FRONT
62
7
6
CONTINUOUS
10
139.5074070928
20
162.3582003328
11
140.0386568544
21
163.1667109939
0
LINE
8
13000_TOP
62
7
6
CONTINUOUS
10
112.0611778552
20
119.2638580178
11
111.9746301597
21
119.1344871059
0
LINE
8
13000_TOP
62
7
6
CONTINUOUS
10
112.0620747210
20
122.0232803037
11
111.9753580003
21
121.8947703014
0
LINE
8
10000_FRONT
62
7
6
CONTINUOUS
10
136.6636570332
20
163.3794769260
11
136.5386569736
21
163.2092641804
0
LINE
8
10000_FRONT
62
7
6
CONTINUOUS
10
135.9761569736
20
161.6347960594
11
136.1011569438
21
161.8050088200
0
LINE
8
10000_FRONT
62
7
6
CONTINUOUS
10
137.5074070332
20
161.6347960594
11
137.6324069140
21
161.8050088200
0
LINE
8
10000_FRONT
62
7
6
CONTINUOUS
10
138.1011570928
20
163.3794769260
11
137.9761568544
21
163.2092641804
0
LINE
8
10000_FRONT
62
7
6
CONTINUOUS
10
148.5514716565
20
176.2716825477
11
148.7101804206
21
176.4782256292
0
LINE
8
10000_FRONT
62
7
6
CONTINUOUS
10
138.7886569736
20
162.7837321970
11
137.9136569140
21
161.7199024472
0
LINE
8
10000_FRONT
62
7
6
CONTINUOUS
10
138.1636568544
20
161.7199024472
11
138.9449070928
21
162.6560726377
0
LINE
8
10000_FRONT
62
7
6
CONTINUOUS
10
131.9677198408
20
162.9645832691
11
131.2939691064
21
162.1667109567
0
LINE
8
10000_FRONT
62
7
6
CONTINUOUS
10
131.4864694736
20
162.1667109567
11
132.0880316064
21
162.8688385996
0
LINE
8
10000_FRONT
62
7
6
CONTINUOUS
10
124.3880323408
20
162.0390513779
11
124.4842819736
21
162.1347960557
0
LINE
8
10000_FRONT
62
7
6
CONTINUOUS
10
130.9089694736
20
162.0390513779
11
131.0052191064
21
162.1347960557
0
LINE
8
10000_FRONT
62
7
6
CONTINUOUS
10
136.7261569736
20
163.1241578075
11
136.8199069736
21
163.2092641804
0
LINE
8
10000_FRONT
62
7
6
CONTINUOUS
10
135.9136569438
20
161.8901152226
11
135.8199069438
21
161.8050088200
0
LINE
8
10000_FRONT
62
7
6
CONTINUOUS
10
138.1636568544
20
163.1667109939
11
138.2574068544
21
163.2518173668
0
LINE
8
10000_FRONT
62
7
6
CONTINUOUS
10
137.4449069140
20
161.8901152226
11
137.3511569140
21
161.8050088200
0
LINE
8
10000_FRONT
62
7
6
CONTINUOUS
10
119.1477194736
20
163.2518173668
11
119.2199069736
21
163.3156471464
0
LINE
8
10000_FRONT
62
7
6
CONTINUOUS
10
120.2064692900
20
163.2518173668
11
120.2786567900
21
163.3156471464
0
LINE
8
10000_FRONT
62
7
6
CONTINUOUS
10
119.5327196572
20
162.2624556261
11
119.4605321572
21
162.1986258465
0
LINE
8
10000_FRONT
62
7
6
CONTINUOUS
10
120.5914694736
20
162.2624556261
11
120.5192819736
21
162.1986258465
0
LINE
8
10000_FRONT
62
7
6
CONTINUOUS
10
121.7047347514
20
162.2640142246
11
121.6325472514
21
162.2001844450
0
LINE
8
10000_FRONT
62
7
6
CONTINUOUS
10
122.8907809312
20
163.2438541983
11
122.9629684312
21
163.3076839779
0
LINE
8
10000_FRONT
62
7
6
CONTINUOUS
10
123.2757816656
20
162.2544924576
11
123.2035941656
21
162.1906626780
0
LINE
8
10000_FRONT
62
7
6
CONTINUOUS
10
126.1686566064
20
163.2518173668
11
126.2408441064
21
163.3156471464
0
LINE
8
10000_FRONT
62
7
6
CONTINUOUS
10
127.2274069736
20
163.2518173668
11
127.2995944736
21
163.3156471464
0
LINE
8
10000_FRONT
62
7
6
CONTINUOUS
10
126.5536573408
20
162.2624556261
11
126.4814698408
21
162.1986258465
0
LINE
8
10000_FRONT
62
7
6
CONTINUOUS
10
127.6124066064
20
162.2624556261
11
127.5402191064
21
162.1986258465
0
LINE
8
10000_FRONT
62
7
6
CONTINUOUS
10
131.4864694736
20
163.2518173668
11
131.5586569736
21
163.3156471464
0
LINE
8
10000_FRONT
62
7
6
CONTINUOUS
10
114.0705319966
20
162.0390513779
11
114.1908444507
21
162.1347960557
0
LINE
8
10000_FRONT
62
7
6
CONTINUOUS
10
116.9339693818
20
162.9326683792
11
116.8136570654
21
162.8369237098
0
LINE
8
10000_FRONT
62
7
6
CONTINUOUS
10
117.3189695654
20
162.0390513779
11
117.4392818818
21
162.1347960557
0
LINE
8
10000_FRONT
62
7
6
CONTINUOUS
10
119.1958442900
20
163.4752215955
11
119.0755319736
21
163.3794769260
0
LINE
8
10000_FRONT
62
7
6
CONTINUOUS
10
120.2545946572
20
163.4752215955
11
120.1342817900
21
163.3794769260
0
LINE
8
10000_FRONT
62
7
6
CONTINUOUS
10
119.4845942900
20
162.0390513779
11
119.6049071572
21
162.1347960557
0
LINE
8
10000_FRONT
62
7
6
CONTINUOUS
10
121.2716097514
20
162.9342269777
11
121.1512974350
21
162.8384823083
0
LINE
8
10000_FRONT
62
7
6
CONTINUOUS
10
120.5433446572
20
162.0390513779
11
120.6636569736
21
162.1347960557
0
LINE
8
10000_FRONT
62
7
6
CONTINUOUS
10
122.9389062984
20
163.4672584270
11
122.8185934312
21
163.3715137575
0
LINE
8
10000_FRONT
62
7
6
CONTINUOUS
10
121.6566099350
20
162.0406099764
11
121.7769222514
21
162.1363546542
0
LINE
8
10000_FRONT
62
7
6
CONTINUOUS
10
123.2276562984
20
162.0310882094
11
123.3479691656
21
162.1268328872
0
LINE
8
10000_FRONT
62
7
6
CONTINUOUS
10
126.2167819736
20
163.4752215955
11
126.0964691064
21
163.3794769260
0
LINE
8
10000_FRONT
62
7
6
CONTINUOUS
10
127.2755323408
20
163.4752215955
11
127.1552194736
21
163.3794769260
0
LINE
8
10000_FRONT
62
7
6
CONTINUOUS
10
126.5055319736
20
162.0390513779
11
126.6258448408
21
162.1347960557
0
LINE
8
10000_FRONT
62
7
6
CONTINUOUS
10
127.5642823408
20
162.0390513779
11
127.6845941064
21
162.1347960557
0
LINE
8
10000_FRONT
62
7
6
CONTINUOUS
10
148.3448292114
20
176.1131297238
11
148.5514716565
21
176.2716825477
0
LINE
8
10000_FRONT
62
7
6
CONTINUOUS
10
114.7683445195
20
163.4752215955
11
114.6720944736
21
163.4113918158
0
LINE
8
10000_FRONT
62
7
6
CONTINUOUS
10
115.2255319277
20
162.0390513779
11
115.3217819736
21
162.1028811659
0
LINE
8
10000_FRONT
62
7
6
CONTINUOUS
10
124.4361566064
20
162.7730939302
11
124.4842819736
21
162.8050088200
0
LINE
8
11000_LEFT
62
7
6
CONTINUOUS
10
267.9492619761
20
250.7251071373
11
267.9880229418
21
250.7489618331
0
LINE
8
11000_LEFT
62
7
6
CONTINUOUS
10
267.9880229418
20
250.7489618331
11
268.0288141959
21
250.7677649419
0
LINE
8
13000_TOP
62
7
6
CONTINUOUS
10
114.7851320658
20
78.1779547472
11
124.1046818814
21
78.1779547472
0
LINE
8
13000_TOP
62
7
6
CONTINUOUS
10
124.7851320658
20
78.1779547472
11
134.1046818814
21
78.1779547472
0
LINE
8
13000_TOP
62
7
6
CONTINUOUS
10
134.7851320658
20
78.1779547472
11
144.1046818814
21
78.1779547472
0
LINE
8
13000_TOP
62
7
6
CONTINUOUS
10
144.7851320658
20
78.1779547472
11
154.1046818814
21
78.1779547472
0
LINE
8
13000_TOP
62
7
6
CONTINUOUS
10
154.1046818814
20
78.8584049316
11
144.7851320658
21
78.8584049316
0
LINE
8
13000_TOP
62
7
6
CONTINUOUS
10
144.1046818814
20
78.8584049316
11
134.7851320658
21
78.8584049316
0
LINE
8
13000_TOP
62
7
6
CONTINUOUS
10
134.1046818814
20
78.8584049316
11
124.7851320658
21
78.8584049316
0
LINE
8
13000_TOP
62
7
6
CONTINUOUS
10
124.1046818814
20
78.8584049316
11
114.7851320658
21
78.8584049316
0
LINE
8
13000_TOP
62
7
6
CONTINUOUS
10
114.7851320658
20
83.9279547472
11
124.1046818814
21
83.9279547472
0
LINE
8
13000_TOP
62
7
6
CONTINUOUS
10
124.7851320658
20
83.9279547472
11
134.1046818814
21
83.9279547472
0
LINE
8
13000_TOP
62
7
6
CONTINUOUS
10
134.7851320658
20
83.9279547472
11
144.1046818814
21
83.9279547472
0
LINE
8
13000_TOP
62
7
6
CONTINUOUS
10
144.7851320658
20
83.9279547472
11
154.1046818814
21
83.9279547472
0
LINE
8
13000_TOP
62
7
6
CONTINUOUS
10
149.8546818814
20
84.6084049316
11
144.7851320658
21
84.6084049316
0
LINE
8
13000_TOP
62
7
6
CONTINUOUS
10
144.1046818814
20
84.6084049316
11
134.7851320658
21
84.6084049316
0
LINE
8
13000_TOP
62
7
6
CONTINUOUS
10
134.1046818814
20
84.6084049316
11
124.7851320658
21
84.6084049316
0
LINE
8
13000_TOP
62
7
6
CONTINUOUS
10
124.1046818814
20
84.6084049316
11
119.0351320658
21
84.6084049316
0
LINE
8
13000_TOP
62
7
6
CONTINUOUS
10
111.9449069736
20
87.6431798394
11
117.0449069736
21
87.6431798394
0
LINE
8
13000_TOP
62
7
6
CONTINUOUS
10
151.8449069736
20
87.6431798394
11
156.9449069736
21
87.6431798394
0
LINE
8
13000_TOP
62
7
6
CONTINUOUS
10
119.0351320658
20
89.6779547472
11
124.1046818814
21
89.6779547472
0
LINE
8
13000_TOP
62
7
6
CONTINUOUS
10
124.7851320658
20
89.6779547472
11
134.1046818814
21
89.6779547472
0
LINE
8
13000_TOP
62
7
6
CONTINUOUS
10
134.7851320658
20
89.6779547472
11
144.1046818814
21
89.6779547472
0
LINE
8
13000_TOP
62
7
6
CONTINUOUS
10
144.7851320658
20
89.6779547472
11
149.8546818814
21
89.6779547472
0
LINE
8
13000_TOP
62
7
6
CONTINUOUS
10
149.8546818814
20
90.3584049316
11
144.7851320658
21
90.3584049316
0
LINE
8
13000_TOP
62
7
6
CONTINUOUS
10
144.1046818814
20
90.3584049316
11
134.7851320658
21
90.3584049316
0
LINE
8
13000_TOP
62
7
6
CONTINUOUS
10
134.1046818814
20
90.3584049316
11
124.7851320658
21
90.3584049316
0
LINE
8
13000_TOP
62
7
6
CONTINUOUS
10
124.1046818814
20
90.3584049316
11
119.0351320658
21
90.3584049316
0
LINE
8
13000_TOP
62
7
6
CONTINUOUS
10
128.1979503225
20
122.1091475135
11
128.3277392366
21
122.0232802934
0
LINE
8
13000_TOP
62
7
6
CONTINUOUS
10
126.7485155511
20
119.3503838289
11
126.8786360945
21
119.2638580154
0
LINE
8
13000_TOP
62
7
6
CONTINUOUS
10
128.1985155511
20
120.1936288371
11
128.3286360945
21
120.1071030236
0
LINE
8
13000_TOP
62
7
6
CONTINUOUS
10
142.2949069736
20
120.1115680181
11
142.2673190710
21
120.1408322717
0
LINE
8
10000_FRONT
62
7
6
CONTINUOUS
10
111.9453136322
20
160.9058350464
11
111.9465350902
21
160.9045331326
0
LINE
8
10000_FRONT
62
7
6
CONTINUOUS
10
114.1186569507
20
162.7092641506
11
114.1667819736
21
162.6454343709
0
LINE
8
10000_FRONT
62
7
6
CONTINUOUS
10
114.5758444966
20
162.2305407363
11
114.6720944736
21
162.1028811659
0
LINE
8
10000_FRONT
62
7
6
CONTINUOUS
10
114.2630319507
20
162.7411790404
11
114.1908444507
21
162.8369237098
0
LINE
8
10000_FRONT
62
7
6
CONTINUOUS
10
115.4180320195
20
163.2837322566
11
115.3217819736
21
163.4113918158
0
LINE
8
10000_FRONT
62
7
6
CONTINUOUS
10
119.0033444736
20
162.2305407363
11
119.0755319736
21
162.1347960557
0
LINE
8
10000_FRONT
62
7
6
CONTINUOUS
10
120.0620942900
20
162.2305407363
11
120.1342817900
21
162.1347960557
0
LINE
8
10000_FRONT
62
7
6
CONTINUOUS
10
119.6770946572
20
163.2837322566
11
119.6049071572
21
163.3794769260
0
LINE
8
10000_FRONT
62
7
6
CONTINUOUS
10
120.7358444736
20
163.2837322566
11
120.6636569736
21
163.3794769260
0
LINE
8
10000_FRONT
62
7
6
CONTINUOUS
10
122.7464059312
20
162.2225775678
11
122.8185934312
21
162.1268328872
0
LINE
8
10000_FRONT
62
7
6
CONTINUOUS
10
123.4201566656
20
163.2757690881
11
123.3479691656
21
163.3715137575
0
LINE
8
10000_FRONT
62
7
6
CONTINUOUS
10
124.3639691064
20
162.6454343709
11
124.4120944736
21
162.5816045913
0
LINE
8
10000_FRONT
62
7
6
CONTINUOUS
10
124.3639691064
20
163.2837322566
11
124.4120944736
21
163.2199024770
0
LINE
8
10000_FRONT
62
7
6
CONTINUOUS
10
126.0242816064
20
162.2305407363
11
126.0964691064
21
162.1347960557
0
LINE
8
10000_FRONT
62
7
6
CONTINUOUS
10
127.0830319736
20
162.2305407363
11
127.1552194736
21
162.1347960557
0
LINE
8
10000_FRONT
62
7
6
CONTINUOUS
10
126.6980323408
20
163.2837322566
11
126.6258448408
21
163.3794769260
0
LINE
8
10000_FRONT
62
7
6
CONTINUOUS
10
127.7567816064
20
163.2837322566
11
127.6845941064
21
163.3794769260
0
LINE
8
13000_TOP
62
7
6
CONTINUOUS
10
156.8631956977
20
121.9854447524
11
156.8843830929
21
121.9547358945
0
LINE
8
13000_TOP
62
7
6
CONTINUOUS
10
156.9144559470
20
121.8947703013
11
156.8277392263
21
122.0232803036
0
LINE
8
13000_TOP
62
7
6
CONTINUOUS
10
156.9151837869
20
119.1344871076
11
156.8286360942
21
119.2638580156
0
LINE
8
10000_FRONT
62
7
6
CONTINUOUS
10
121.0791099350
20
162.2640142246
11
121.1512974350
21
162.1363546542
0
LINE
8
10000_FRONT
62
7
6
CONTINUOUS
10
121.8491097514
20
162.7108227491
11
121.7769222514
21
162.8384823083
0
LINE
8
10000_FRONT
62
7
6
CONTINUOUS
10
124.5564694736
20
162.6135194811
11
124.4842819736
21
162.7411790404
0
LINE
8
10000_FRONT
62
7
6
CONTINUOUS
10
124.5564694736
20
163.2518173668
11
124.4842819736
21
163.3794769260
0
LINE
8
10000_FRONT
62
7
6
CONTINUOUS
10
131.0774066064
20
162.6135194811
11
131.0052191064
21
162.7411790404
0
LINE
8
10000_FRONT
62
7
6
CONTINUOUS
10
131.0774066064
20
163.2518173668
11
131.0052191064
21
163.3794769260
0
LINE
8
10000_FRONT
62
7
6
CONTINUOUS
10
123.2757816656
20
163.2438541983
11
123.3720312984
21
163.0523647700
0
LINE
8
10000_FRONT
62
7
6
CONTINUOUS
10
126.1686566064
20
162.2624556261
11
126.0724069736
21
162.4539449874
0
LINE
8
10000_FRONT
62
7
6
CONTINUOUS
10
126.5536573408
20
163.2518173668
11
126.6499069736
21
163.0603279385
0
LINE
8
10000_FRONT
62
7
6
CONTINUOUS
10
127.2274069736
20
162.2624556261
11
127.1311573408
21
162.4539449874
0
LINE
8
10000_FRONT
62
7
6
CONTINUOUS
10
127.6124066064
20
163.2518173668
11
127.7086573408
21
163.0603279385
0
LINE
8
10000_FRONT
62
7
6
CONTINUOUS
10
131.9677198408
20
163.2518173668
11
132.0158441064
21
163.1560726973
0
LINE
8
10000_FRONT
62
7
6
CONTINUOUS
10
135.9136569438
20
163.1241578075
11
135.9761569736
21
162.9964981291
0
LINE
8
10000_FRONT
62
7
6
CONTINUOUS
10
136.7261569736
20
161.8901152226
11
136.6636570332
21
162.0177747819
0
LINE
8
10000_FRONT
62
7
6
CONTINUOUS
10
138.7886569736
20
163.1667109939
11
138.8511570928
21
163.0390514347
0
LINE
8
10000_FRONT
62
7
6
CONTINUOUS
10
136.4761570332
20
161.9752215955
11
136.5386569736
21
161.8050088200
0
LINE
8
10000_FRONT
62
7
6
CONTINUOUS
10
136.1636569736
20
163.0390514347
11
136.1011569438
21
163.2092641804
0
LINE
8
10000_FRONT
62
7
6
CONTINUOUS
10
112.3466009753
20
260.5044577133
11
112.3489799201
21
260.4965921363
0
LINE
8
10000_FRONT
62
7
6
CONTINUOUS
10
135.0949069736
20
167.7879875872
11
135.4449069617
21
166.6071364853
0
LINE
8
10000_FRONT
62
7
6
CONTINUOUS
10
135.5449069736
20
166.7667109567
11
135.1699069736
21
168.1071364853
0
LINE
8
10000_FRONT
62
7
6
CONTINUOUS
10
112.3489799201
20
260.4965921363
11
112.3523900860
21
260.4835027965
0
LINE
8
10000_FRONT
62
7
6
CONTINUOUS
10
141.4136569736
20
161.7624556336
11
140.9761572120
21
163.5071364853
0
LINE
8
10000_FRONT
62
7
6
CONTINUOUS
10
140.7886568544
20
163.5071364853
11
141.2886567352
21
161.5071364853
0
LINE
8
10000_FRONT
62
7
6
CONTINUOUS
10
137.4449069140
20
163.1241578075
11
137.4761569736
21
162.9964981291
0
LINE
8
10000_FRONT
62
7
6
CONTINUOUS
10
112.3523900860
20
260.4835027965
11
112.3568397708
21
260.4651274603
0
LINE
8
10000_FRONT
62
7
6
CONTINUOUS
10
112.3568397708
20
260.4651274603
11
112.3622654953
21
260.4416991058
0
LINE
8
10000_FRONT
62
7
6
CONTINUOUS
10
112.3622654953
20
260.4416991058
11
112.3685480472
21
260.4137269234
0
LINE
8
10000_FRONT
62
7
6
CONTINUOUS
10
114.5123331704
20
256.9939907898
11
114.4841345651
21
257.1267012227
0
LINE
8
13000_TOP
62
7
6
CONTINUOUS
10
156.9449069736
20
121.7431798394
11
156.9144559470
21
121.8947703013
0
LINE
8
13000_TOP
62
7
6
CONTINUOUS
10
156.9449069736
20
118.9846484502
11
156.9151837869
21
119.1344871076
0
LINE
8
10000_FRONT
62
7
6
CONTINUOUS
10
135.9761569736
20
162.9964981291
11
136.0074069438
21
162.8262853834
0
LINE
8
10000_FRONT
62
7
6
CONTINUOUS
10
136.6636570332
20
162.0177747819
11
136.6324069736
21
162.1879875276
0
LINE
8
10000_FRONT
62
7
6
CONTINUOUS
10
139.0386570928
20
163.0390514347
11
139.0074068544
21
163.2092641804
0
LINE
8
10000_FRONT
62
7
6
CONTINUOUS
10
129.4829383633
20
256.4376682743
11
129.5071236564
21
256.3051043680
0
LINE
8
10000_FRONT
62
7
6
CONTINUOUS
10
127.7769723601
20
257.0111961779
11
127.7520892059
21
257.1540557220
0
LINE
8
10000_FRONT
62
7
6
CONTINUOUS
10
136.1949069438
20
162.8262853834
11
136.1636569736
21
163.0390514347
0
LINE
8
10000_FRONT
62
7
6
CONTINUOUS
10
136.4449069736
20
162.1879875276
11
136.4761570332
21
161.9752215955
0
LINE
8
10000_FRONT
62
7
6
CONTINUOUS
10
137.6636569736
20
162.9964981291
11
137.6324069140
21
163.2092641804
0
LINE
8
10000_FRONT
62
7
6
CONTINUOUS
10
153.9027555919
20
255.0866867231
11
153.9027555919
21
255.0017292865
0
LINE
8
10000_FRONT
62
7
6
CONTINUOUS
10
153.9988371544
20
256.1911335785
11
153.9988371544
21
256.4035271702
0
LINE
8
10000_FRONT
62
7
6
CONTINUOUS
10
154.0628916516
20
254.9592505680
11
154.0628916516
21
255.1291654415
0
LINE
8
13000_TOP
62
7
6
CONTINUOUS
10
154.1046818814
20
83.9279547472
11
154.1046818814
21
78.8584049316
0
LINE
8
13000_TOP
62
7
6
CONTINUOUS
10
154.1046818814
20
78.1779547472
11
154.1046818814
21
73.1084049316
0
LINE
8
13000_TOP
62
7
6
CONTINUOUS
10
154.1046818814
20
72.4279547472
11
154.1046818814
21
67.3584049316
0
LINE
8
13000_TOP
62
7
6
CONTINUOUS
10
154.1046818814
20
66.6779547472
11
154.1046818814
21
61.6084049316
0
LINE
8
13000_TOP
62
7
6
CONTINUOUS
10
154.1046818814
20
60.9279547472
11
154.1046818814
21
55.8584049316
0
LINE
8
13000_TOP
62
7
6
CONTINUOUS
10
154.1046818814
20
55.1779547472
11
154.1046818814
21
50.1084049316
0
LINE
8
13000_TOP
62
7
6
CONTINUOUS
10
154.1046818814
20
49.4279547472
11
154.1046818814
21
44.3584049316
0
LINE
8
13000_TOP
62
7
6
CONTINUOUS
10
154.1046818814
20
43.6779547472
11
154.1046818814
21
38.6084049316
0
LINE
8
10000_FRONT
62
7
6
CONTINUOUS
10
154.3224069736
20
259.0071364853
11
154.3224069736
21
257.0071364853
0
LINE
8
10000_FRONT
62
7
6
CONTINUOUS
10
154.5174069736
20
257.2624556336
11
154.5174069736
21
257.9433067057
0
LINE
8
10000_FRONT
62
7
6
CONTINUOUS
10
154.5174069736
20
258.1986258242
11
154.5174069736
21
258.7518173668
0
LINE
8
10000_FRONT
62
7
6
CONTINUOUS
10
155.3624067257
20
257.9433067057
11
155.3624067257
21
258.1986258242
0
LINE
8
10000_FRONT
62
7
6
CONTINUOUS
10
155.4924069736
20
257.0071364853
11
155.4924069736
21
257.2624556336
0
LINE
8
10000_FRONT
62
7
6
CONTINUOUS
10
155.4924069736
20
258.7518173668
11
155.4924069736
21
259.0071364853
0
LINE
8
10000_FRONT
62
7
6
CONTINUOUS
10
156.4449069736
20
260.0474131330
11
156.4449069736
21
160.9668598376
0
LINE
8
13000_TOP
62
7
6
CONTINUOUS
10
156.4449069736
20
37.1058533502
11
156.4449069736
21
35.1072897186
0
LINE
8
13000_TOP
62
7
6
CONTINUOUS
10
156.5449069736
20
37.6042285017
11
156.5449069736
21
87.1431798394
0
LINE
8
13000_TOP
62
7
6
CONTINUOUS
10
156.5449069736
20
87.6431798394
11
156.5449069736
21
122.1431798394
0
LINE
8
10000_FRONT
62
7
6
CONTINUOUS
10
156.9449069736
20
260.1071364853
11
156.9449069736
21
160.9071364853
0
LINE
8
13000_TOP
62
7
6
CONTINUOUS
10
156.9449069736
20
35.6073256076
11
156.9449069736
21
121.7431798394
0
LINE
8
13000_TOP
62
7
6
CONTINUOUS
10
156.9449069736
20
37.6123183106
11
156.9445000180
21
37.5921885974
0
LINE
8
13000_TOP
62
7
6
CONTINUOUS
10
156.5430899416
20
37.5493578426
11
156.5445788404
21
37.6041359725
0
LINE
8
13000_TOP
62
7
6
CONTINUOUS
10
156.9445000180
20
37.5921885974
11
156.9432788570
21
37.5720800849
0
LINE
8
10000_FRONT
62
7
6
CONTINUOUS
10
156.9432784418
20
160.9045331353
11
156.9121880693
21
160.7522610649
0
LINE
8
10000_FRONT
62
7
6
CONTINUOUS
10
156.9444997904
20
160.9058340203
11
156.9449069736
21
160.9071364853
0
LINE
8
10000_FRONT
62
7
6
CONTINUOUS
10
156.9121880693
20
160.7522610649
11
156.8255898016
21
160.6233748741
0
LINE
8
13000_TOP
62
7
6
CONTINUOUS
10
140.4753579988
20
121.8947702978
11
140.5620747185
21
122.0232803012
0
LINE
8
10000_FRONT
62
7
6
CONTINUOUS
10
156.9432788570
20
160.9045331326
11
156.9444997904
21
160.9058340203
0
LINE
8
11000_LEFT
62
7
6
CONTINUOUS
10
267.9113524316
20
250.6950216301
11
267.9492619761
21
250.7251071373
0
LINE
8
10000_FRONT
62
7
6
CONTINUOUS
10
136.7886569140
20
163.4645832989
11
136.6636570332
21
163.3794769260
0
LINE
8
10000_FRONT
62
7
6
CONTINUOUS
10
138.2261569736
20
163.4645832989
11
138.1011570928
21
163.3794769260
0
LINE
8
10000_FRONT
62
7
6
CONTINUOUS
10
135.8511570034
20
161.5496896754
11
135.9761569736
21
161.6347960594
0
LINE
8
10000_FRONT
62
7
6
CONTINUOUS
10
137.3824069736
20
161.5496896754
11
137.5074070332
21
161.6347960594
0
LINE
8
10000_FRONT
62
7
6
CONTINUOUS
10
131.5345948408
20
163.4752215955
11
131.4383441064
21
163.4113918158
0
LINE
8
10000_FRONT
62
7
6
CONTINUOUS
10
130.9570948408
20
162.7730939302
11
131.0052191064
21
162.8050088200
0
LINE
8
10000_FRONT
62
7
6
CONTINUOUS
10
113.7336569736
20
163.3156471464
11
113.8058444736
21
163.3475620362
0
LINE
8
10000_FRONT
62
7
6
CONTINUOUS
10
113.7336569736
20
162.7730939302
11
113.8058444736
21
162.8050088200
0
LINE
8
10000_FRONT
62
7
6
CONTINUOUS
10
114.0464694507
20
162.1986258465
11
113.9742819851
21
162.1667109567
0
LINE
8
10000_FRONT
62
7
6
CONTINUOUS
10
124.3639691064
20
162.9007534894
11
124.2917816064
21
162.8688385996
0
LINE
8
10000_FRONT
62
7
6
CONTINUOUS
10
124.3639691064
20
162.2305407363
11
124.2917816064
21
162.1986258465
0
LINE
8
10000_FRONT
62
7
6
CONTINUOUS
10
130.8849073408
20
162.9007534894
11
130.8127198408
21
162.8688385996
0
LINE
8
10000_FRONT
62
7
6
CONTINUOUS
10
130.8849073408
20
162.2305407363
11
130.8127198408
21
162.1986258465
0
LINE
8
10000_FRONT
62
7
6
CONTINUOUS
10
148.1041340548
20
176.0132755765
11
148.3448292114
21
176.1131297238
0
LINE
8
10000_FRONT
62
7
6
CONTINUOUS
10
114.7924069277
20
163.2837322566
11
114.8886569736
21
163.3156471464
0
LINE
8
10000_FRONT
62
7
6
CONTINUOUS
10
115.2014695195
20
162.2305407363
11
115.1052194736
21
162.1986258465
0
LINE
8
10000_FRONT
62
7
6
CONTINUOUS
10
116.9580320654
20
162.7730939302
11
117.0542819736
21
162.8050088200
0
LINE
8
10000_FRONT
62
7
6
CONTINUOUS
10
117.2949068818
20
162.1986258465
11
117.1986569736
21
162.1667109567
0
LINE
8
13000_TOP
62
7
6
CONTINUOUS
10
119.0351320658
20
95.4279547472
11
124.1046818814
21
95.4279547472
0
LINE
8
13000_TOP
62
7
6
CONTINUOUS
10
124.7851320658
20
95.4279547472
11
134.1046818814
21
95.4279547472
0
LINE
8
13000_TOP
62
7
6
CONTINUOUS
10
134.7851320658
20
95.4279547472
11
144.1046818814
21
95.4279547472
0
LINE
8
13000_TOP
62
7
6
CONTINUOUS
10
144.7851320658
20
95.4279547472
11
149.8546818814
21
95.4279547472
0
LINE
8
13000_TOP
62
7
6
CONTINUOUS
10
149.8546818814
20
96.1084049316
11
144.7851320658
21
96.1084049316
0
LINE
8
13000_TOP
62
7
6
CONTINUOUS
10
144.1046818814
20
96.1084049316
11
134.7851320658
21
96.1084049316
0
LINE
8
13000_TOP
62
7
6
CONTINUOUS
10
134.1046818814
20
96.1084049316
11
124.7851320658
21
96.1084049316
0
LINE
8
13000_TOP
62
7
6
CONTINUOUS
10
124.1046818814
20
96.1084049316
11
119.0351320658
21
96.1084049316
0
LINE
8
13000_TOP
62
7
6
CONTINUOUS
10
119.0351320658
20
101.1779547472
11
124.1046818814
21
101.1779547472
0
LINE
8
13000_TOP
62
7
6
CONTINUOUS
10
124.7851320658
20
101.1779547472
11
134.1046818814
21
101.1779547472
0
LINE
8
13000_TOP
62
7
6
CONTINUOUS
10
134.7851320658
20
101.1779547472
11
144.1046818814
21
101.1779547472
0
LINE
8
13000_TOP
62
7
6
CONTINUOUS
10
144.7851320658
20
101.1779547472
11
149.8546818814
21
101.1779547472
0
LINE
8
13000_TOP
62
7
6
CONTINUOUS
10
149.8546818814
20
101.8584049316
11
144.7851320658
21
101.8584049316
0
LINE
8
13000_TOP
62
7
6
CONTINUOUS
10
144.1046818814
20
101.8584049316
11
134.7851320658
21
101.8584049316
0
LINE
8
13000_TOP
62
7
6
CONTINUOUS
10
134.1046818814
20
101.8584049316
11
124.7851320658
21
101.8584049316
0
LINE
8
13000_TOP
62
7
6
CONTINUOUS
10
124.1046818814
20
101.8584049316
11
119.0351320658
21
101.8584049316
0
LINE
8
13000_TOP
62
7
6
CONTINUOUS
10
126.5949069736
20
119.3807556777
11
126.7485155511
21
119.3503838289
0
LINE
8
13000_TOP
62
7
6
CONTINUOUS
10
128.0449069736
20
120.2240006859
11
128.1985155511
21
120.1936288371
0
LINE
8
13000_TOP
62
7
6
CONTINUOUS
10
142.2673190710
20
120.1408322717
11
142.1867291202
21
120.1680256652
0
LINE
8
13000_TOP
62
7
6
CONTINUOUS
10
156.8277392263
20
122.0232803036
11
156.6979502987
21
122.1091475232
0
LINE
8
13000_TOP
62
7
6
CONTINUOUS
10
156.8286360942
20
119.2638580156
11
156.6985155512
21
119.3503838289
0
LINE
8
10000_FRONT
62
7
6
CONTINUOUS
10
112.1932539702
20
160.5373360903
11
112.0642238180
21
160.6233748357
0
LINE
8
10000_FRONT
62
7
6
CONTINUOUS
10
113.5892819736
20
162.1347960557
11
113.7095944794
21
162.0390513779
0
LINE
8
10000_FRONT
62
7
6
CONTINUOUS
10
114.1908444507
20
162.8369237098
11
114.0705319966
21
162.9326683792
0
LINE
8
10000_FRONT
62
7
6
CONTINUOUS
10
114.1667819736
20
163.3794769260
11
114.0464694507
21
163.4752215955
0
LINE
8
10000_FRONT
62
7
6
CONTINUOUS
10
116.8136570654
20
162.1347960557
11
116.9339693818
21
162.0390513779
0
LINE
8
10000_FRONT
62
7
6
CONTINUOUS
10
117.4392818818
20
162.8369237098
11
117.3189695654
21
162.9326683792
0
LINE
8
10000_FRONT
62
7
6
CONTINUOUS
10
119.0755319736
20
162.1347960557
11
119.1958442900
21
162.0390513779
0
LINE
8
10000_FRONT
62
7
6
CONTINUOUS
10
120.1342817900
20
162.1347960557
11
120.2545946572
21
162.0390513779
0
LINE
8
10000_FRONT
62
7
6
CONTINUOUS
10
121.1512974350
20
162.1363546542
11
121.2716097514
21
162.0406099764
0
LINE
8
10000_FRONT
62
7
6
CONTINUOUS
10
119.6049071572
20
163.3794769260
11
119.4845942900
21
163.4752215955
0
LINE
8
10000_FRONT
62
7
6
CONTINUOUS
10
120.6636569736
20
163.3794769260
11
120.5433446572
21
163.4752215955
0
LINE
8
10000_FRONT
62
7
6
CONTINUOUS
10
121.7769222514
20
162.8384823083
11
121.6566099350
21
162.9342269777
0
LINE
8
10000_FRONT
62
7
6
CONTINUOUS
10
122.8185934312
20
162.1268328872
11
122.9389062984
21
162.0310882094
0
LINE
8
10000_FRONT
62
7
6
CONTINUOUS
10
123.3479691656
20
163.3715137575
11
123.2276562984
21
163.4672584270
0
LINE
8
10000_FRONT
62
7
6
CONTINUOUS
10
113.7336569736
20
162.1986258465
11
113.6614694736
21
162.2624556261
0
LINE
8
10000_FRONT
62
7
6
CONTINUOUS
10
114.0464694507
20
162.7730939302
11
114.1186569507
21
162.7092641506
0
LINE
8
10000_FRONT
62
7
6
CONTINUOUS
10
114.7924069277
20
162.2305407363
11
114.7202194277
21
162.2943705383
0
LINE
8
10000_FRONT
62
7
6
CONTINUOUS
10
114.0224069736
20
163.3156471464
11
114.0945944736
21
163.2518173668
0
LINE
8
10000_FRONT
62
7
6
CONTINUOUS
10
115.2014695195
20
163.2837322566
11
115.2736570195
21
163.2199024770
0
LINE
8
10000_FRONT
62
7
6
CONTINUOUS
10
116.9580320654
20
162.1986258465
11
116.8858445654
21
162.2624556261
0
LINE
8
10000_FRONT
62
7
6
CONTINUOUS
10
117.2949068818
20
162.7730939302
11
117.3670943818
21
162.7092641506
0
LINE
8
10000_FRONT
62
7
6
CONTINUOUS
10
119.2199069736
20
162.1986258465
11
119.1477194736
21
162.2624556261
0
LINE
8
10000_FRONT
62
7
6
CONTINUOUS
10
120.2786567900
20
162.1986258465
11
120.2064692900
21
162.2624556261
0
LINE
8
10000_FRONT
62
7
6
CONTINUOUS
10
119.4605321572
20
163.3156471464
11
119.5327196572
21
163.2518173668
0
LINE
8
10000_FRONT
62
7
6
CONTINUOUS
10
121.2956724350
20
162.2001844450
11
121.2234849350
21
162.2640142246
0
LINE
8
10000_FRONT
62
7
6
CONTINUOUS
10
120.5192819736
20
163.3156471464
11
120.5914694736
21
163.2518173668
0
LINE
8
10000_FRONT
62
7
6
CONTINUOUS
10
121.6325472514
20
162.7746525287
11
121.7047347514
21
162.7108227491
0
LINE
8
10000_FRONT
62
7
6
CONTINUOUS
10
122.9629684312
20
162.1906626780
11
122.8907809312
21
162.2544924576
0
LINE
8
10000_FRONT
62
7
6
CONTINUOUS
10
123.2035941656
20
163.3076839779
11
123.2757816656
21
163.2438541983
0
LINE
8
10000_FRONT
62
7
6
CONTINUOUS
10
126.2408441064
20
162.1986258465
11
126.1686566064
21
162.2624556261
0
LINE
8
10000_FRONT
62
7
6
CONTINUOUS
10
127.2995944736
20
162.1986258465
11
127.2274069736
21
162.2624556261
0
LINE
8
10000_FRONT
62
7
6
CONTINUOUS
10
126.4814698408
20
163.3156471464
11
126.5536573408
21
163.2518173668
0
LINE
8
10000_FRONT
62
7
6
CONTINUOUS
10
127.5402191064
20
163.3156471464
11
127.6124066064
21
163.2518173668
0
LINE
8
10000_FRONT
62
7
6
CONTINUOUS
10
124.4842819736
20
163.3794769260
11
124.3880323408
21
163.4752215955
0
LINE
8
10000_FRONT
62
7
6
CONTINUOUS
10
131.0052191064
20
163.3794769260
11
130.9089694736
21
163.4752215955
0
LINE
8
10000_FRONT
62
7
6
CONTINUOUS
10
120.1795454562
20
176.4783804243
11
120.3383061643
21
176.2717184692
0
LINE
8
10000_FRONT
62
7
6
CONTINUOUS
10
130.8849073408
20
162.6454343709
11
130.9330316064
21
162.5816045913
0
LINE
8
10000_FRONT
62
7
6
CONTINUOUS
10
130.8849073408
20
163.2837322566
11
130.9330316064
21
163.2199024770
0
LINE
8
10000_FRONT
62
7
6
CONTINUOUS
10
132.1361569736
20
163.2837322566
11
132.0399073408
21
163.4113918158
0
LINE
8
10000_FRONT
62
7
6
CONTINUOUS
10
136.5386569736
20
161.8050088200
11
136.6636570332
21
161.6347960594
0
LINE
8
10000_FRONT
62
7
6
CONTINUOUS
10
136.1011569438
20
163.2092641804
11
135.9761569736
21
163.3794769260
0
LINE
8
10000_FRONT
62
7
6
CONTINUOUS
10
137.6324069140
20
163.2092641804
11
137.5074070332
21
163.3794769260
0
LINE
8
10000_FRONT
62
7
6
CONTINUOUS
10
139.0074068544
20
163.2092641804
11
138.8824069736
21
163.3794769260
0
LINE
8
10000_FRONT
62
7
6
CONTINUOUS
10
156.5445798861
20
160.5071364884
11
156.5432166537
21
160.5098026535
0
LINE
8
10000_FRONT
62
7
6
CONTINUOUS
10
116.1641438466
20
256.5516344525
11
116.2189669399
21
256.4159263717
0
LINE
8
10000_FRONT
62
7
6
CONTINUOUS
10
121.0185385030
20
255.5427424856
11
120.3601586866
21
257.1865115835
0
LINE
8
10000_FRONT
62
7
6
CONTINUOUS
10
120.7386737725
20
257.8549050300
11
121.3145541712
21
256.3924149096
0
LINE
8
10000_FRONT
62
7
6
CONTINUOUS
10
115.0833006536
20
257.2918807837
11
115.1126417786
21
257.2054914694
0
LINE
8
10000_FRONT
62
7
6
CONTINUOUS
10
128.3535036370
20
257.2918807837
11
128.3829212898
21
257.2052628410
0
LINE
8
10000_FRONT
62
7
6
CONTINUOUS
10
156.5432166537
20
160.5098026535
11
156.5408412046
21
160.5176524441
0
LINE
8
10000_FRONT
62
7
6
CONTINUOUS
10
156.5408412046
20
160.5176524441
11
156.5374324306
21
160.5307347823
0
LINE
8
10000_FRONT
62
7
6
CONTINUOUS
10
156.5374324306
20
160.5307347823
11
156.5329841403
21
160.5491036730
0
LINE
8
10000_FRONT
62
7
6
CONTINUOUS
10
156.5329841403
20
160.5491036730
11
156.5275639165
21
160.5725068686
0
LINE
8
10000_FRONT
62
7
6
CONTINUOUS
10
156.5275639165
20
160.5725068686
11
156.5212988174
21
160.6003984698
0
LINE
8
10000_FRONT
62
7
6
CONTINUOUS
10
156.5212988174
20
160.6003984698
11
156.5065817586
21
160.6680266848
0
LINE
8
10000_FRONT
62
7
6
CONTINUOUS
10
156.5065817586
20
160.6680266848
11
156.4869179362
21
160.7611749811
0
LINE
8
10000_FRONT
62
7
6
CONTINUOUS
10
156.4869179362
20
160.7611749811
11
156.4746408018
21
160.8205557322
0
LINE
8
10000_FRONT
62
7
6
CONTINUOUS
10
156.4746408018
20
160.8205557322
11
156.4448656092
21
160.9670668614
0
LINE
8
10000_FRONT
62
7
6
CONTINUOUS
10
143.6949069736
20
257.5603279683
11
143.7274069746
21
257.3901152226
0
LINE
8
10000_FRONT
62
7
6
CONTINUOUS
10
143.7924069736
20
258.3688385698
11
143.8249069775
21
258.1986258242
0
LINE
8
10000_FRONT
62
7
6
CONTINUOUS
10
145.3849070356
20
257.5177747819
11
145.3524069736
21
257.6879875276
0
LINE
8
10000_FRONT
62
7
6
CONTINUOUS
10
145.1574069736
20
257.6879875276
11
145.1899069426
21
257.4752215955
0
LINE
8
10000_FRONT
62
7
6
CONTINUOUS
10
146.4249069736
20
258.4964981291
11
146.3924069116
21
258.7092641804
0
LINE
8
10000_FRONT
62
7
6
CONTINUOUS
10
150.0786569736
20
255.2156471464
11
150.1107403681
21
255.0028811547
0
LINE
8
10000_FRONT
62
7
6
CONTINUOUS
10
151.2336569736
20
255.5986258242
11
151.2015737627
21
255.8113917562
0
LINE
8
10000_FRONT
62
7
6
CONTINUOUS
10
148.8449069736
20
252.0409037758
11
148.8104285426
21
252.3014344422
0
LINE
8
10000_FRONT
62
7
6
CONTINUOUS
10
150.2711569736
20
255.0028811547
11
150.2390737627
21
255.2582003328
0
LINE
8
10000_FRONT
62
7
6
CONTINUOUS
10
151.0411569736
20
255.8113917562
11
151.0732401846
21
255.5560726377
0
LINE
8
10000_FRONT
62
7
6
CONTINUOUS
10
151.6828237627
20
255.0028811547
11
151.6507401846
21
255.2582003328
0
LINE
8
10000_FRONT
62
7
6
CONTINUOUS
10
152.4528237627
20
255.8113917562
11
152.4849069736
21
255.5560726377
0
LINE
8
13000_TOP
62
7
6
CONTINUOUS
10
156.9432788570
20
37.5720800849
11
156.9358444197
21
37.5176895621
0
LINE
8
13000_TOP
62
7
6
CONTINUOUS
10
140.4746301605
20
119.9777321160
11
140.5611778528
21
120.1071030236
0
LINE
8
13000_TOP
62
7
6
CONTINUOUS
10
141.9246301605
20
119.1344871078
11
142.0111778528
21
119.2638580154
0
LINE
8
13000_TOP
62
7
6
CONTINUOUS
10
126.5949069736
20
120.1115680181
11
126.6225911794
21
120.1408767363
0
LINE
8
11000_LEFT
62
7
6
CONTINUOUS
10
267.8740747856
20
250.6571319062
11
267.9113524316
21
250.6950216301
0
LINE
8
11000_LEFT
62
7
6
CONTINUOUS
10
242.0564974017
20
228.1071364853
11
242.4564974017
21
228.5071364853
0
LINE
8
10000_FRONT
62
7
6
CONTINUOUS
10
156.8255898016
20
160.6233748741
11
156.6965598045
21
160.5373361209
0
LINE
8
13000_TOP
62
7
6
CONTINUOUS
10
112.1912983955
20
119.3503838287
11
112.0611778552
21
119.2638580178
0
LINE
8
13000_TOP
62
7
6
CONTINUOUS
10
112.1918636487
20
122.1091475233
11
112.0620747210
21
122.0232803037
0
LINE
8
10000_FRONT
62
7
6
CONTINUOUS
10
156.9364634775
20
160.9017617992
11
156.9432788570
21
160.9045331326
0
LINE
8
10000_FRONT
62
7
6
CONTINUOUS
10
136.8199069736
20
163.2092641804
11
136.9449070332
21
163.2518173668
0
LINE
8
10000_FRONT
62
7
6
CONTINUOUS
10
135.8199069438
20
161.8050088200
11
135.6949069736
21
161.7624556336
0
LINE
8
10000_FRONT
62
7
6
CONTINUOUS
10
137.3511569140
20
161.8050088200
11
137.2261570332
21
161.7624556336
0
LINE
8
10000_FRONT
62
7
6
CONTINUOUS
10
121.2956724350
20
162.7746525287
11
121.3919223432
21
162.8065674185
0
LINE
8
10000_FRONT
62
7
6
CONTINUOUS
10
121.6325472514
20
162.2001844450
11
121.5362973432
21
162.1682695552
0
LINE
8
13000_TOP
62
7
6
CONTINUOUS
10
119.0351320658
20
106.9279547472
11
124.1046818814
21
106.9279547472
0
LINE
8
13000_TOP
62
7
6
CONTINUOUS
10
124.7851320658
20
106.9279547472
11
134.1046818814
21
106.9279547472
0
LINE
8
13000_TOP
62
7
6
CONTINUOUS
10
134.7851320658
20
106.9279547472
11
144.1046818814
21
106.9279547472
0
LINE
8
13000_TOP
62
7
6
CONTINUOUS
10
144.7851320658
20
106.9279547472
11
149.8546818814
21
106.9279547472
0
LINE
8
13000_TOP
62
7
6
CONTINUOUS
10
117.1449069736
20
110.8431798394
11
151.7449069736
21
110.8431798394
0
LINE
8
13000_TOP
62
7
6
CONTINUOUS
10
117.1449069736
20
111.0431798394
11
151.7449069736
21
111.0431798394
0
LINE
8
13000_TOP
62
7
6
CONTINUOUS
10
141.4949069736
20
112.0431798394
11
127.3949069736
21
112.0431798394
0
LINE
8
13000_TOP
62
7
6
CONTINUOUS
10
141.8949069736
20
117.1431798394
11
126.9949069736
21
117.1431798394
0
LINE
8
13000_TOP
62
7
6
CONTINUOUS
10
141.8449069736
20
117.1931798394
11
127.0449069736
21
117.1931798394
0
LINE
8
13000_TOP
62
7
6
CONTINUOUS
10
156.9449069736
20
118.9846484502
11
141.8949069736
21
118.9846484502
0
LINE
8
13000_TOP
62
7
6
CONTINUOUS
10
111.9449069736
20
118.9846484502
11
126.9949069736
21
118.9846484502
0
LINE
8
13000_TOP
62
7
6
CONTINUOUS
10
156.5449069736
20
119.3807556777
11
142.2949069736
21
119.3807556777
0
LINE
8
13000_TOP
62
7
6
CONTINUOUS
10
112.3449069736
20
119.3807556777
11
126.5949069736
21
119.3807556777
0
LINE
8
13000_TOP
62
7
6
CONTINUOUS
10
128.4449069736
20
119.4431798394
11
126.9949069736
21
119.4431798394
0
LINE
8
13000_TOP
62
7
6
CONTINUOUS
10
140.4449069736
20
119.4431798394
11
141.8949069736
21
119.4431798394
0
LINE
8
13000_TOP
62
7
6
CONTINUOUS
10
141.4949069736
20
120.2240006859
11
140.8449069736
21
120.2240006859
0
LINE
8
13000_TOP
62
7
6
CONTINUOUS
10
127.3949069736
20
120.2240006859
11
128.0449069736
21
120.2240006859
0
LINE
8
13000_TOP
62
7
6
CONTINUOUS
10
140.4199069736
20
121.1431798394
11
128.4699069736
21
121.1431798394
0
LINE
8
13000_TOP
62
7
6
CONTINUOUS
10
141.7011658431
20
120.2201982316
11
141.4949069736
21
120.2240006859
0
LINE
8
13000_TOP
62
7
6
CONTINUOUS
10
141.8930753382
20
120.2090856519
11
141.7011658431
21
120.2201982316
0
LINE
8
13000_TOP
62
7
6
CONTINUOUS
10
142.0590026497
20
120.1912925919
11
141.8930753382
21
120.2090856519
0
LINE
8
13000_TOP
62
7
6
CONTINUOUS
10
142.1867291202
20
120.1680256652
11
142.0590026497
21
120.1912925919
0
LINE
8
13000_TOP
62
7
6
CONTINUOUS
10
128.0449069736
20
122.1392870669
11
128.1979503225
21
122.1091475135
0
LINE
8
13000_TOP
62
7
6
CONTINUOUS
10
156.6979502987
20
122.1091475232
11
156.5449069736
21
122.1392870669
0
LINE
8
13000_TOP
62
7
6
CONTINUOUS
10
156.6985155512
20
119.3503838289
11
156.5449069736
21
119.3807556777
0
LINE
8
10000_FRONT
62
7
6
CONTINUOUS
10
114.6720944736
20
162.1028811659
11
114.7683445195
21
162.0390513779
0
LINE
8
10000_FRONT
62
7
6
CONTINUOUS
10
115.3217819736
20
163.4113918158
11
115.2255319277
21
163.4752215955
0
LINE
8
10000_FRONT
62
7
6
CONTINUOUS
10
124.4842819736
20
162.7411790404
11
124.4361566064
21
162.7730939302
0
LINE
8
10000_FRONT
62
7
6
CONTINUOUS
10
131.0052191064
20
162.7411790404
11
130.9570948408
21
162.7730939302
0
LINE
8
10000_FRONT
62
7
6
CONTINUOUS
10
132.0399073408
20
163.4113918158
11
131.9436566064
21
163.4752215955
0
LINE
8
10000_FRONT
62
7
6
CONTINUOUS
10
136.6636570332
20
161.6347960594
11
136.7886569140
21
161.5496896754
0
LINE
8
10000_FRONT
62
7
6
CONTINUOUS
10
135.9761569736
20
163.3794769260
11
135.8511570034
21
163.4645832989
0
LINE
8
10000_FRONT
62
7
6
CONTINUOUS
10
137.5074070332
20
163.3794769260
11
137.3824069736
21
163.4645832989
0
LINE
8
10000_FRONT
62
7
6
CONTINUOUS
10
138.8824069736
20
163.3794769260
11
138.7574070928
21
163.4645832989
0
LINE
8
10000_FRONT
62
7
6
CONTINUOUS
10
120.3383061643
20
176.2717184692
11
120.5448342270
21
176.1132150118
0
LINE
8
10000_FRONT
62
7
6
CONTINUOUS
10
126.0964691064
20
162.1347960557
11
126.2167819736
21
162.0390513779
0
LINE
8
10000_FRONT
62
7
6
CONTINUOUS
10
127.1552194736
20
162.1347960557
11
127.2755323408
21
162.0390513779
0
LINE
8
10000_FRONT
62
7
6
CONTINUOUS
10
126.6258448408
20
163.3794769260
11
126.5055319736
21
163.4752215955
0
LINE
8
10000_FRONT
62
7
6
CONTINUOUS
10
127.6845941064
20
163.3794769260
11
127.5642823408
21
163.4752215955
0
LINE
8
10000_FRONT
62
7
6
CONTINUOUS
10
131.8955323408
20
163.3156471464
11
131.9677198408
21
163.2518173668
0
LINE
8
10000_FRONT
62
7
6
CONTINUOUS
10
136.8199069736
20
161.8050088200
11
136.7261569736
21
161.8901152226
0
LINE
8
10000_FRONT
62
7
6
CONTINUOUS
10
135.8199069438
20
163.2092641804
11
135.9136569438
21
163.1241578075
0
LINE
8
10000_FRONT
62
7
6
CONTINUOUS
10
137.3511569140
20
163.2092641804
11
137.4449069140
21
163.1241578075
0
LINE
8
10000_FRONT
62
7
6
CONTINUOUS
10
138.6949069736
20
163.2518173668
11
138.7886569736
21
163.1667109939
0
LINE
8
10000_FRONT
62
7
6
CONTINUOUS
10
121.3449069736
20
194.7071364853
11
121.5449069736
21
194.5071364853
0
LINE
8
10000_FRONT
62
7
6
CONTINUOUS
10
112.3452338226
20
260.5071364831
11
112.3466009753
21
260.5044577133
0
LINE
8
10000_FRONT
62
7
6
CONTINUOUS
10
114.5710635327
20
256.8708127659
11
114.5123331704
21
256.9939907898
0
LINE
8
10000_FRONT
62
7
6
CONTINUOUS
10
127.8361531222
20
256.8783558935
11
127.7769723601
21
257.0111961779
0
LINE
8
10000_FRONT
62
7
6
CONTINUOUS
10
129.4283637344
20
256.5615316726
11
129.4829383633
21
256.4376682743
0
LINE
8
10000_FRONT
62
7
6
CONTINUOUS
10
147.9849069736
20
257.0071364853
11
147.4649070976
21
259.0071364853
0
LINE
8
10000_FRONT
62
7
6
CONTINUOUS
10
150.9749067257
20
257.0071364853
11
150.4549072216
21
259.0071364853
0
LINE
8
10000_FRONT
62
7
6
CONTINUOUS
10
143.9224069659
20
257.4326684091
11
143.8899069736
21
257.5603279683
0
LINE
8
10000_FRONT
62
7
6
CONTINUOUS
10
144.0199069659
20
258.2837321970
11
143.9874069736
21
258.4113917562
0
LINE
8
10000_FRONT
62
7
6
CONTINUOUS
10
144.7999069426
20
258.5390514347
11
144.7674069736
21
258.6667109939
0
LINE
8
10000_FRONT
62
7
6
CONTINUOUS
10
146.1974069116
20
258.6241578075
11
146.2299069736
21
258.4964981291
0
LINE
8
10000_FRONT
62
7
6
CONTINUOUS
10
147.6599070976
20
257.5177747819
11
147.7899069736
21
257.0071364853
0
LINE
8
10000_FRONT
62
7
6
CONTINUOUS
10
147.3349068496
20
258.8369237396
11
147.6274068496
21
257.6879875276
0
LINE
8
10000_FRONT
62
7
6
CONTINUOUS
10
150.6499072216
20
257.5177747819
11
150.7799067257
21
257.0071364853
0
LINE
8
10000_FRONT
62
7
6
CONTINUOUS
10
150.3249069736
20
258.8369237396
11
150.6174069736
21
257.6879875276
0
LINE
8
10000_FRONT
62
7
6
CONTINUOUS
10
149.5974069736
20
255.1730939600
11
149.6294903681
21
255.0454343411
0
LINE
8
10000_FRONT
62
7
6
CONTINUOUS
10
149.8219903681
20
255.0879875276
11
149.7899069736
21
255.2156471464
0
LINE
8
10000_FRONT
62
7
6
CONTINUOUS
10
149.5974069736
20
256.0241578075
11
149.6294903681
21
255.8964981291
0
LINE
8
10000_FRONT
62
7
6
CONTINUOUS
10
149.8219903681
20
255.9390514347
11
149.7899069736
21
256.0667109939
0
LINE
8
10000_FRONT
62
7
6
CONTINUOUS
10
151.2015737627
20
255.8113917562
11
151.1694901846
21
255.9390514347
0
LINE
8
10000_FRONT
62
7
6
CONTINUOUS
10
150.1107403681
20
255.0028811547
11
150.1428235791
21
254.8752215955
0
LINE
8
10000_FRONT
62
7
6
CONTINUOUS
10
151.5224069736
20
255.0028811547
11
151.5544901846
21
254.8752215955
0
LINE
8
10000_FRONT
62
7
6
CONTINUOUS
10
152.6132401846
20
255.8113917562
11
152.5811569736
21
255.9390514347
0
LINE
8
10000_FRONT
62
7
6
CONTINUOUS
10
153.8707285266
20
255.2141229376
11
153.9027555919
21
255.0866867231
0
LINE
8
10000_FRONT
62
7
6
CONTINUOUS
10
156.9121883985
20
260.2620119253
11
156.9432788011
21
260.1097398376
0
LINE
8
10000_FRONT
62
7
6
CONTINUOUS
10
153.0224067257
20
257.5177747819
11
152.9899072216
21
257.6879875276
0
LINE
8
10000_FRONT
62
7
6
CONTINUOUS
10
152.7949072216
20
257.6879875276
11
152.8274067257
21
257.4752215955
0
LINE
8
10000_FRONT
62
7
6
CONTINUOUS
10
154.0624072216
20
258.4964981291
11
154.0299069736
21
258.7092641804
0
LINE
8
10000_FRONT
62
7
6
CONTINUOUS
10
151.4903237627
20
255.2156471464
11
151.5224069736
21
255.0028811547
0
LINE
8
10000_FRONT
62
7
6
CONTINUOUS
10
152.6453237627
20
255.5986258242
11
152.6132401846
21
255.8113917562
0
LINE
8
13000_TOP
62
7
6
CONTINUOUS
10
156.9358444197
20
37.5176895621
11
156.9223361137
21
37.4638810425
0
LINE
8
11000_LEFT
62
7
6
CONTINUOUS
10
267.8385508698
20
250.6103110319
11
267.8740747856
21
250.6571319062
0
LINE
8
13000_TOP
62
7
6
CONTINUOUS
10
140.5611778528
20
120.1071030236
11
140.6912983961
21
120.1936288371
0
LINE
8
13000_TOP
62
7
6
CONTINUOUS
10
142.0111778528
20
119.2638580154
11
142.1412983961
21
119.3503838289
0
LINE
8
13000_TOP
62
7
6
CONTINUOUS
10
140.5620747185
20
122.0232803012
11
140.6918636450
21
122.1091475218
0
LINE
8
11000_LEFT
62
7
6
CONTINUOUS
10
238.1064974017
20
193.3967735142
11
240.2617532900
21
194.6411110815
0
LINE
8
13000_TOP
62
7
6
CONTINUOUS
10
142.1412983961
20
119.3503838289
11
142.2949069736
21
119.3807556777
0
LINE
8
13000_TOP
62
7
6
CONTINUOUS
10
140.6912983961
20
120.1936288371
11
140.8449069736
21
120.2240006859
0
LINE
8
13000_TOP
62
7
6
CONTINUOUS
10
126.7030554658
20
120.1680146335
11
126.8305114199
21
120.1912482396
0
LINE
8
13000_TOP
62
7
6
CONTINUOUS
10
126.8305114199
20
120.1912482396
11
126.9962304937
21
120.2090442273
0
LINE
8
13000_TOP
62
7
6
CONTINUOUS
10
126.9962304937
20
120.2090442273
11
127.1883912837
21
120.2201892808
0
LINE
8
13000_TOP
62
7
6
CONTINUOUS
10
112.3449072810
20
122.1431798394
11
112.3186361741
21
122.1423162134
0
LINE
8
13000_TOP
62
7
6
CONTINUOUS
10
127.1883912837
20
120.2201892808
11
127.3949069736
21
120.2240006859
0
LINE
8
13000_TOP
62
7
6
CONTINUOUS
10
128.0449069736
20
122.1392870669
11
123.3378506631
21
122.1392870669
0
LINE
8
13000_TOP
62
7
6
CONTINUOUS
10
117.5519632841
20
122.1392870669
11
112.3449069736
21
122.1392870669
0
LINE
8
13000_TOP
62
7
6
CONTINUOUS
10
140.8449069736
20
122.1392870669
11
156.5449069736
21
122.1392870669
0
LINE
8
13000_TOP
62
7
6
CONTINUOUS
10
140.4199069736
20
122.1431798394
11
128.4699069736
21
122.1431798394
0
LINE
8
13000_TOP
62
7
6
CONTINUOUS
10
112.3449069736
20
122.1431798394
11
128.0449069736
21
122.1431798394
0
LINE
8
13000_TOP
62
7
6
CONTINUOUS
10
140.8449069736
20
122.1431798394
11
156.5449639069
21
122.1431798394
0
LINE
8
10000_FRONT
62
7
6
CONTINUOUS
10
114.8886569736
20
162.1986258465
11
114.7924069277
21
162.2305407363
0
LINE
8
10000_FRONT
62
7
6
CONTINUOUS
10
117.0542819736
20
162.1667109567
11
116.9580320654
21
162.1986258465
0
LINE
8
10000_FRONT
62
7
6
CONTINUOUS
10
115.1052194736
20
163.3156471464
11
115.2014695195
21
163.2837322566
0
LINE
8
10000_FRONT
62
7
6
CONTINUOUS
10
117.1986569736
20
162.8050088200
11
117.2949068818
21
162.7730939302
0
LINE
8
10000_FRONT
62
7
6
CONTINUOUS
10
121.3919223432
20
162.1682695552
11
121.2956724350
21
162.2001844450
0
LINE
8
10000_FRONT
62
7
6
CONTINUOUS
10
121.5362973432
20
162.8065674185
11
121.6325472514
21
162.7746525287
0
LINE
8
10000_FRONT
62
7
6
CONTINUOUS
10
113.8058444736
20
162.1667109567
11
113.7336569736
21
162.1986258465
0
LINE
8
10000_FRONT
62
7
6
CONTINUOUS
10
113.9742819851
20
162.8050088200
11
114.0464694507
21
162.7730939302
0
LINE
8
10000_FRONT
62
7
6
CONTINUOUS
10
113.9502194736
20
163.3475620362
11
114.0224069736
21
163.3156471464
0
LINE
8
10000_FRONT
62
7
6
CONTINUOUS
10
124.2917816064
20
162.6773492607
11
124.3639691064
21
162.6454343709
0
LINE
8
10000_FRONT
62
7
6
CONTINUOUS
10
124.2917816064
20
163.3156471464
11
124.3639691064
21
163.2837322566
0
LINE
8
10000_FRONT
62
7
6
CONTINUOUS
10
130.8127198408
20
162.6773492607
11
130.8849073408
21
162.6454343709
0
LINE
8
10000_FRONT
62
7
6
CONTINUOUS
10
130.8127198408
20
163.3156471464
11
130.8849073408
21
163.2837322566
0
LINE
8
10000_FRONT
62
7
6
CONTINUOUS
10
147.5449069736
20
177.3071364853
11
147.3449069736
21
177.5071364853
0
LINE
8
10000_FRONT
62
7
6
CONTINUOUS
10
121.3449069736
20
213.7071364853
11
121.5449069736
21
213.5071364853
0
LINE
8
10000_FRONT
62
7
6
CONTINUOUS
10
115.6143546638
20
256.1973640151
11
115.5602076835
21
256.2860766220
0
LINE
8
10000_FRONT
62
7
6
CONTINUOUS
10
128.8840400633
20
256.1992615638
11
128.8300590527
21
256.2878631474
0
LINE
8
10000_FRONT
62
7
6
CONTINUOUS
10
126.6230198098
20
255.5659999521
11
125.8160506921
21
257.1188711522
0
LINE
8
10000_FRONT
62
7
6
CONTINUOUS
10
126.1065104730
20
257.8549050300
11
126.8926125012
21
256.3226425103
0
LINE
8
10000_FRONT
62
7
6
CONTINUOUS
10
143.7274069746
20
257.3901152226
11
143.8249069775
21
257.1773492458
0
LINE
8
10000_FRONT
62
7
6
CONTINUOUS
10
148.8104285426
20
252.3014344422
11
148.7101588854
21
252.5425918656
0
LINE
8
10000_FRONT
62
7
6
CONTINUOUS
10
144.8974069426
20
257.6879875276
11
144.8324070046
21
257.8582003328
0
LINE
8
10000_FRONT
62
7
6
CONTINUOUS
10
144.5724069736
20
258.6241578075
11
144.6049069426
21
258.5390514347
0
LINE
8
10000_FRONT
62
7
6
CONTINUOUS
10
145.1899069426
20
257.4752215955
11
145.2549069736
21
257.3050088200
0
LINE
8
10000_FRONT
62
7
6
CONTINUOUS
10
152.8274067257
20
257.4752215955
11
152.8924072216
21
257.3050088200
0
LINE
8
10000_FRONT
62
7
6
CONTINUOUS
10
150.1428235791
20
254.8752215955
11
150.2069901846
21
254.7050088200
0
LINE
8
10000_FRONT
62
7
6
CONTINUOUS
10
151.5544901846
20
254.8752215955
11
151.6186569736
21
254.7050088200
0
LINE
8
10000_FRONT
62
7
6
CONTINUOUS
10
151.1694901846
20
255.9390514347
11
151.1053237627
21
256.1092641804
0
LINE
8
10000_FRONT
62
7
6
CONTINUOUS
10
152.9099129016
20
254.9167718497
11
152.9739673987
21
254.7468569466
0
LINE
8
10000_FRONT
62
7
6
CONTINUOUS
10
152.5811569736
20
255.9390514347
11
152.5169901846
21
256.1092641804
0
LINE
8
10000_FRONT
62
7
6
CONTINUOUS
10
153.1661305237
20
254.7468569466
11
153.1020760266
21
254.9167718497
0
LINE
8
10000_FRONT
62
7
6
CONTINUOUS
10
156.9449069736
20
260.1071364853
11
156.9445000180
21
260.1084373856
0
LINE
8
10000_FRONT
62
7
6
CONTINUOUS
10
154.0628916516
20
255.1291654415
11
153.9988371544
21
255.3415590927
0
LINE
8
10000_FRONT
62
7
6
CONTINUOUS
10
153.8349069736
20
258.6241578075
11
153.8674072216
21
258.4964981291
0
LINE
8
13000_TOP
62
7
6
CONTINUOUS
10
156.9223361137
20
37.4638810425
11
156.9026209536
21
37.4110245800
0
LINE
8
11000_LEFT
62
7
6
CONTINUOUS
10
267.8068125213
20
250.5543128804
11
267.8385508698
21
250.6103110319
0
LINE
8
11000_LEFT
62
7
6
CONTINUOUS
10
267.9880229418
20
175.4989618331
11
268.0288141959
21
175.5177649419
0
LINE
8
13000_TOP
62
7
6
CONTINUOUS
10
126.6225911794
20
120.1408767363
11
126.7030554658
21
120.1680146335
0
LINE
8
11000_LEFT
62
7
6
CONTINUOUS
10
268.0288141959
20
175.5177649419
11
268.0730235368
21
175.5317586596
0
LINE
8
13000_TOP
62
7
6
CONTINUOUS
10
112.2810253168
20
122.1380458089
11
112.1854101566
21
122.1100050911
0
LINE
8
13000_TOP
62
7
6
CONTINUOUS
10
112.3449069736
20
119.3807556777
11
112.1912983955
21
119.3503838287
0
LINE
8
13000_TOP
62
7
6
CONTINUOUS
10
140.6918636450
20
122.1091475218
11
140.8449069736
21
122.1392870669
0
LINE
8
13000_TOP
62
7
6
CONTINUOUS
10
112.3449069736
20
122.1392870669
11
112.1918636487
21
122.1091475233
0
LINE
8
11000_LEFT
62
7
6
CONTINUOUS
10
321.8992206793
20
160.9038636826
11
322.0018823704
21
160.9175395440
0
LINE
8
10000_FRONT
62
7
6
CONTINUOUS
10
111.9465350902
20
160.9045331326
11
111.9798102222
21
160.8998308937
0
LINE
8
10000_FRONT
62
7
6
CONTINUOUS
10
112.3449884424
20
160.5071364853
11
112.1932539702
21
160.5373360903
0
LINE
8
10000_FRONT
62
7
6
CONTINUOUS
10
119.1958442900
20
162.0390513779
11
119.3402192900
21
162.0071364853
0
LINE
8
10000_FRONT
62
7
6
CONTINUOUS
10
120.2545946572
20
162.0390513779
11
120.3989696572
21
162.0071364853
0
LINE
8
10000_FRONT
62
7
6
CONTINUOUS
10
122.9389062984
20
162.0310882094
11
123.0832812984
21
161.9991733168
0
LINE
8
10000_FRONT
62
7
6
CONTINUOUS
10
119.4845942900
20
163.4752215955
11
119.3402192900
21
163.5071364853
0
LINE
8
10000_FRONT
62
7
6
CONTINUOUS
10
126.2167819736
20
162.0390513779
11
126.3611569736
21
162.0071364853
0
LINE
8
10000_FRONT
62
7
6
CONTINUOUS
10
120.5433446572
20
163.4752215955
11
120.3989696572
21
163.5071364853
0
LINE
8
10000_FRONT
62
7
6
CONTINUOUS
10
127.2755323408
20
162.0390513779
11
127.4199073408
21
162.0071364853
0
LINE
8
10000_FRONT
62
7
6
CONTINUOUS
10
123.2276562984
20
163.4672584270
11
123.0832812984
21
163.4991733168
0
LINE
8
10000_FRONT
62
7
6
CONTINUOUS
10
126.5055319736
20
163.4752215955
11
126.3611569736
21
163.5071364853
0
LINE
8
10000_FRONT
62
7
6
CONTINUOUS
10
127.5642823408
20
163.4752215955
11
127.4199073408
21
163.5071364853
0
LINE
8
10000_FRONT
62
7
6
CONTINUOUS
10
131.9436566064
20
163.4752215955
11
131.7992816064
21
163.5071364853
0
LINE
8
10000_FRONT
62
7
6
CONTINUOUS
10
138.7574070928
20
163.4645832989
11
138.5699070928
21
163.5071364853
0
LINE
8
10000_FRONT
62
7
6
CONTINUOUS
10
113.7095944794
20
162.0390513779
11
113.8299069851
21
162.0071364853
0
LINE
8
10000_FRONT
62
7
6
CONTINUOUS
10
114.7683445195
20
162.0390513779
11
114.8886569736
21
162.0071364853
0
LINE
8
10000_FRONT
62
7
6
CONTINUOUS
10
116.9339693818
20
162.0390513779
11
117.0542819736
21
162.0071364853
0
LINE
8
10000_FRONT
62
7
6
CONTINUOUS
10
114.0705319966
20
162.9326683792
11
113.9502194736
21
162.9645832691
0
LINE
8
10000_FRONT
62
7
6
CONTINUOUS
10
114.0464694507
20
163.4752215955
11
113.9261569621
21
163.5071364853
0
LINE
8
10000_FRONT
62
7
6
CONTINUOUS
10
119.3402192900
20
162.1667109567
11
119.2199069736
21
162.1986258465
0
LINE
8
10000_FRONT
62
7
6
CONTINUOUS
10
115.2255319277
20
163.4752215955
11
115.1052194736
21
163.5071364853
0
LINE
8
10000_FRONT
62
7
6
CONTINUOUS
10
117.3189695654
20
162.9326683792
11
117.1986569736
21
162.9645832691
0
LINE
8
10000_FRONT
62
7
6
CONTINUOUS
10
120.3989696572
20
162.1667109567
11
120.2786567900
21
162.1986258465
0
LINE
8
10000_FRONT
62
7
6
CONTINUOUS
10
121.2716097514
20
162.0406099764
11
121.3919223432
21
162.0086950838
0
LINE
8
10000_FRONT
62
7
6
CONTINUOUS
10
123.0832812984
20
162.1587477882
11
122.9629684312
21
162.1906626780
0
LINE
8
10000_FRONT
62
7
6
CONTINUOUS
10
119.3402192900
20
163.3475620362
11
119.4605321572
21
163.3156471464
0
LINE
8
10000_FRONT
62
7
6
CONTINUOUS
10
121.6566099350
20
162.9342269777
11
121.5362973432
21
162.9661418676
0
LINE
8
10000_FRONT
62
7
6
CONTINUOUS
10
120.3989696572
20
163.3475620362
11
120.5192819736
21
163.3156471464
0
LINE
8
10000_FRONT
62
7
6
CONTINUOUS
10
126.3611569736
20
162.1667109567
11
126.2408441064
21
162.1986258465
0
LINE
8
10000_FRONT
62
7
6
CONTINUOUS
10
127.4199073408
20
162.1667109567
11
127.2995944736
21
162.1986258465
0
LINE
8
10000_FRONT
62
7
6
CONTINUOUS
10
123.0832812984
20
163.3395988677
11
123.2035941656
21
163.3076839779
0
LINE
8
10000_FRONT
62
7
6
CONTINUOUS
10
124.3880323408
20
163.4752215955
11
124.2677194736
21
163.5071364853
0
LINE
8
10000_FRONT
62
7
6
CONTINUOUS
10
126.3611569736
20
163.3475620362
11
126.4814698408
21
163.3156471464
0
LINE
8
10000_FRONT
62
7
6
CONTINUOUS
10
127.4199073408
20
163.3475620362
11
127.5402191064
21
163.3156471464
0
LINE
8
10000_FRONT
62
7
6
CONTINUOUS
10
130.9089694736
20
163.4752215955
11
130.7886566064
21
163.5071364853
0
LINE
8
10000_FRONT
62
7
6
CONTINUOUS
10
131.7752194736
20
163.3475620362
11
131.8955323408
21
163.3156471464
0
LINE
8
10000_FRONT
62
7
6
CONTINUOUS
10
136.7886569140
20
161.5496896754
11
136.9449070332
21
161.5071364853
0
LINE
8
10000_FRONT
62
7
6
CONTINUOUS
10
135.8511570034
20
163.4645832989
11
135.6949069736
21
163.5071364853
0
LINE
8
10000_FRONT
62
7
6
CONTINUOUS
10
137.3824069736
20
163.4645832989
11
137.2261570332
21
163.5071364853
0
LINE
8
10000_FRONT
62
7
6
CONTINUOUS
10
138.5386568544
20
163.2943705532
11
138.6949069736
21
163.2518173668
0
LINE
8
10000_FRONT
62
7
6
CONTINUOUS
10
136.9449070332
20
161.7624556336
11
136.8199069736
21
161.8050088200
0
LINE
8
10000_FRONT
62
7
6
CONTINUOUS
10
135.6949069736
20
163.2518173668
11
135.8199069438
21
163.2092641804
0
LINE
8
10000_FRONT
62
7
6
CONTINUOUS
10
137.2261570332
20
163.2518173668
11
137.3511569140
21
163.2092641804
0
LINE
8
10000_FRONT
62
7
6
CONTINUOUS
10
120.5448342270
20
176.1132150118
11
120.7853284591
21
176.0133704887
0
LINE
8
10000_FRONT
62
7
6
CONTINUOUS
10
147.5449069736
20
196.3071364853
11
147.3449069736
21
196.5071364853
0
LINE
8
10000_FRONT
62
7
6
CONTINUOUS
10
114.6580122523
20
256.7646472060
11
114.5710635327
21
256.8708127659
0
LINE
8
10000_FRONT
62
7
6
CONTINUOUS
10
116.0744558490
20
256.6676926916
11
116.1641438466
21
256.5516344525
0
LINE
8
10000_FRONT
62
7
6
CONTINUOUS
10
144.7674069736
20
258.6667109939
11
144.6699069736
21
258.8369237396
0
LINE
8
10000_FRONT
62
7
6
CONTINUOUS
10
149.7899069736
20
255.2156471464
11
149.6936569736
21
255.3858598921
0
LINE
8
10000_FRONT
62
7
6
CONTINUOUS
10
149.7899069736
20
256.0667109939
11
149.6936569736
21
256.2369237396
0
LINE
8
10000_FRONT
62
7
6
CONTINUOUS
10
147.0949069736
20
256.4071364853
11
147.6403236250
21
255.4284130785
0
LINE
8
10000_FRONT
62
7
6
CONTINUOUS
10
147.7365736250
20
255.2156471464
11
148.1857402763
21
254.4071364853
0
LINE
8
10000_FRONT
62
7
6
CONTINUOUS
10
147.7365736250
20
255.5986258242
11
147.2874069736
21
256.4071364853
0
LINE
8
10000_FRONT
62
7
6
CONTINUOUS
10
148.3782402763
20
254.4071364853
11
147.8328236250
21
255.4284130785
0
LINE
8
10000_FRONT
62
7
6
CONTINUOUS
10
144.6374070046
20
257.7730939600
11
144.7024069426
21
257.6454343411
0
LINE
8
10000_FRONT
62
7
6
CONTINUOUS
10
145.4499069736
20
257.3901152226
11
145.3849070356
21
257.5177747819
0
LINE
8
10000_FRONT
62
7
6
CONTINUOUS
10
153.0874072216
20
257.3901152226
11
153.0224067257
21
257.5177747819
0
LINE
8
10000_FRONT
62
7
6
CONTINUOUS
10
150.3994901846
20
254.7475620064
11
150.2711569736
21
255.0028811547
0
LINE
8
10000_FRONT
62
7
6
CONTINUOUS
10
150.9128237627
20
256.0667109939
11
151.0411569736
21
255.8113917562
0
LINE
8
10000_FRONT
62
7
6
CONTINUOUS
10
151.8111569736
20
254.7475620064
11
151.6828237627
21
255.0028811547
0
LINE
8
10000_FRONT
62
7
6
CONTINUOUS
10
152.3244901846
20
256.0667109939
11
152.4528237627
21
255.8113917562
0
LINE
8
10000_FRONT
62
7
6
CONTINUOUS
10
153.8066740294
20
255.3415590927
11
153.8707285266
21
255.2141229376
0
LINE
8
10000_FRONT
62
7
6
CONTINUOUS
10
152.3399067257
20
257.3050088200
11
151.5274072216
21
259.0071364853
0
LINE
8
10000_FRONT
62
7
6
CONTINUOUS
10
151.4299072216
20
258.7518173668
11
152.2424067257
21
257.0071364853
0
LINE
8
11000_LEFT
62
7
6
CONTINUOUS
10
237.0603901742
20
240.5348350009
11
239.8189215634
21
260.1628057257
0
LINE
8
11000_LEFT
62
7
6
CONTINUOUS
10
237.4564974017
20
240.4791657605
11
240.2150287909
21
260.1071364853
0
LINE
8
11000_LEFT
62
7
6
CONTINUOUS
10
240.0175867058
20
225.0071364853
11
240.5351850698
21
226.8122164960
0
LINE
8
11000_LEFT
62
7
6
CONTINUOUS
10
267.7809735092
20
250.4891381477
11
267.8068125213
21
250.5543128804
0
LINE
8
13000_TOP
62
7
6
CONTINUOUS
10
156.9026209536
20
37.4110245800
11
156.8770657599
21
37.3605435261
0
LINE
8
13000_TOP
62
7
6
CONTINUOUS
10
156.8770657599
20
37.3605435261
11
156.8467292585
21
37.3141224673
0
LINE
8
11000_LEFT
62
7
6
CONTINUOUS
10
267.9113524316
20
175.4450216301
11
267.9492619761
21
175.4751071373
0
LINE
8
11000_LEFT
62
7
6
CONTINUOUS
10
267.9492619761
20
175.4751071373
11
267.9880229418
21
175.4989618331
0
LINE
8
11000_LEFT
62
7
6
CONTINUOUS
10
321.7709028545
20
160.8998308937
11
321.8992206793
21
160.9038636826
0
LINE
8
10000_FRONT
62
7
6
CONTINUOUS
10
156.9075188124
20
160.8996077322
11
156.9245723675
21
160.9001267417
0
LINE
8
11000_LEFT
62
7
6
CONTINUOUS
10
321.5954487393
20
160.5071364853
11
237.4564974017
21
160.5071364853
0
LINE
8
10000_FRONT
62
7
6
CONTINUOUS
10
156.5449069736
20
160.5071364853
11
112.3449069736
21
160.5071364853
0
LINE
8
11000_LEFT
62
7
6
CONTINUOUS
10
237.1064974017
20
160.6411110815
11
237.1627260175
21
160.6411110815
0
LINE
8
11000_LEFT
62
7
6
CONTINUOUS
10
321.5873663086
20
160.9071364853
11
272.0564974017
21
160.9071364853
0
LINE
8
11000_LEFT
62
7
6
CONTINUOUS
10
271.5564974017
20
160.9071364853
11
237.0564974017
21
160.9071364853
0
LINE
8
10000_FRONT
62
7
6
CONTINUOUS
10
133.9449069736
20
160.9571364853
11
134.1949069736
21
160.9571364853
0
LINE
8
10000_FRONT
62
7
6
CONTINUOUS
10
142.6949069736
20
160.9571364853
11
142.9449069736
21
160.9571364853
0
LINE
8
10000_FRONT
62
7
6
CONTINUOUS
10
156.4449069736
20
160.9668598376
11
142.9449069736
21
160.9668598376
0
LINE
8
10000_FRONT
62
7
6
CONTINUOUS
10
142.6949069736
20
160.9668598376
11
134.1949069736
21
160.9668598376
0
LINE
8
10000_FRONT
62
7
6
CONTINUOUS
10
133.9449069736
20
160.9668598376
11
112.4449069736
21
160.9668598376
0
LINE
8
10000_FRONT
62
7
6
CONTINUOUS
10
134.9449069736
20
161.5071364853
11
135.6949069736
21
161.5071364853
0
LINE
8
10000_FRONT
62
7
6
CONTINUOUS
10
136.9449070332
20
161.5071364853
11
137.2261570332
21
161.5071364853
0
LINE
8
10000_FRONT
62
7
6
CONTINUOUS
10
137.9136569140
20
161.5071364853
11
139.0386570928
21
161.5071364853
0
LINE
8
10000_FRONT
62
7
6
CONTINUOUS
10
140.0386568544
20
161.5071364853
11
140.2261568544
21
161.5071364853
0
LINE
8
10000_FRONT
62
7
6
CONTINUOUS
10
141.2886567352
20
161.5071364853
11
141.5386572120
21
161.5071364853
0
LINE
8
10000_FRONT
62
7
6
CONTINUOUS
10
139.0386570928
20
161.7199024472
11
138.1636568544
21
161.7199024472
0
LINE
8
10000_FRONT
62
7
6
CONTINUOUS
10
137.2261570332
20
161.7624556336
11
136.9449070332
21
161.7624556336
0
LINE
8
10000_FRONT
62
7
6
CONTINUOUS
10
135.6949069736
20
161.7624556336
11
135.1324069736
21
161.7624556336
0
LINE
8
10000_FRONT
62
7
6
CONTINUOUS
10
113.8299069851
20
162.0071364853
11
113.9502194736
21
162.0071364853
0
LINE
8
10000_FRONT
62
7
6
CONTINUOUS
10
114.8886569736
20
162.0071364853
11
115.1052194736
21
162.0071364853
0
LINE
8
10000_FRONT
62
7
6
CONTINUOUS
10
115.6345945195
20
162.0071364853
11
115.7789693818
21
162.0071364853
0
LINE
8
10000_FRONT
62
7
6
CONTINUOUS
10
116.3083445654
20
162.0071364853
11
116.5008443818
21
162.0071364853
0
LINE
8
10000_FRONT
62
7
6
CONTINUOUS
10
117.0542819736
20
162.0071364853
11
117.1986569736
21
162.0071364853
0
LINE
8
10000_FRONT
62
7
6
CONTINUOUS
10
123.6902194736
20
162.0071364853
11
124.2677194736
21
162.0071364853
0
LINE
8
10000_FRONT
62
7
6
CONTINUOUS
10
128.7192823408
20
162.0071364853
11
128.8636573408
21
162.0071364853
0
LINE
8
10000_FRONT
62
7
6
CONTINUOUS
10
129.0561566064
20
162.0071364853
11
129.2005316064
21
162.0071364853
0
LINE
8
10000_FRONT
62
7
6
CONTINUOUS
10
129.8742823408
20
162.0071364853
11
130.0186573408
21
162.0071364853
0
LINE
8
10000_FRONT
62
7
6
CONTINUOUS
10
130.2111566064
20
162.0071364853
11
130.7886566064
21
162.0071364853
0
LINE
8
10000_FRONT
62
7
6
CONTINUOUS
10
131.2939691064
20
162.0071364853
11
132.1602191064
21
162.0071364853
0
LINE
8
10000_FRONT
62
7
6
CONTINUOUS
10
121.3919223432
20
162.0086950838
11
121.5362973432
21
162.0086950838
0
LINE
8
10000_FRONT
62
7
6
CONTINUOUS
10
124.7726646870
20
162.0089430538
11
124.9170396870
21
162.0089430538
0
LINE
8
10000_FRONT
62
7
6
CONTINUOUS
10
125.5907904214
20
162.0089430538
11
125.7351654214
21
162.0089430538
0
LINE
8
10000_FRONT
62
7
6
CONTINUOUS
10
137.6636569736
20
162.0177747819
11
137.4761569736
21
162.0177747819
0
LINE
8
10000_FRONT
62
7
6
CONTINUOUS
10
139.2886568544
20
162.1028811547
11
140.0386568544
21
162.1028811547
0
LINE
8
10000_FRONT
62
7
6
CONTINUOUS
10
140.2261568544
20
162.1028811547
11
140.5386570928
21
162.1028811547
0
LINE
8
10000_FRONT
62
7
6
CONTINUOUS
10
132.1602191064
20
162.1667109567
11
131.4864694736
21
162.1667109567
0
LINE
8
10000_FRONT
62
7
6
CONTINUOUS
10
117.1986569736
20
162.1667109567
11
117.0542819736
21
162.1667109567
0
LINE
8
10000_FRONT
62
7
6
CONTINUOUS
10
113.9742819851
20
162.1667109567
11
113.8058444736
21
162.1667109567
0
LINE
8
10000_FRONT
62
7
6
CONTINUOUS
10
121.5362973432
20
162.1682695552
11
121.3919223432
21
162.1682695552
0
LINE
8
10000_FRONT
62
7
6
CONTINUOUS
10
130.8127198408
20
162.1986258465
11
130.3555316064
21
162.1986258465
0
LINE
8
10000_FRONT
62
7
6
CONTINUOUS
10
124.2917816064
20
162.1986258465
11
123.8345944736
21
162.1986258465
0
LINE
8
10000_FRONT
62
7
6
CONTINUOUS
10
115.1052194736
20
162.1986258465
11
114.8886569736
21
162.1986258465
0
LINE
8
10000_FRONT
62
7
6
CONTINUOUS
10
140.5386570928
20
162.3582003328
11
140.2261568544
21
162.3582003328
0
LINE
8
10000_FRONT
62
7
6
CONTINUOUS
10
140.0386568544
20
162.3582003328
11
139.5074070928
21
162.3582003328
0
LINE
8
10000_FRONT
62
7
6
CONTINUOUS
10
134.1949069736
20
162.3821364853
11
134.6449069736
21
162.3821364853
0
LINE
8
10000_FRONT
62
7
6
CONTINUOUS
10
142.2449069736
20
162.3821364853
11
142.6949069736
21
162.3821364853
0
LINE
8
10000_FRONT
62
7
6
CONTINUOUS
10
116.8377194736
20
162.3901152077
11
116.6933444736
21
162.3901152077
0
LINE
8
10000_FRONT
62
7
6
CONTINUOUS
10
129.2967823408
20
162.3901152077
11
129.7780316064
21
162.3901152077
0
LINE
8
10000_FRONT
62
7
6
CONTINUOUS
10
121.1753598432
20
162.3916738062
11
121.0309848432
21
162.3916738062
0
LINE
8
10000_FRONT
62
7
6
CONTINUOUS
10
125.0132904214
20
162.3919217762
11
125.4945396870
21
162.3919217762
0
LINE
8
10000_FRONT
62
7
6
CONTINUOUS
10
129.7539694736
20
162.5177747670
11
129.3208444736
21
162.5177747670
0
LINE
8
10000_FRONT
62
7
6
CONTINUOUS
10
125.4704775542
20
162.5195813355
11
125.0373525542
21
162.5195813355
0
LINE
8
10000_FRONT
62
7
6
CONTINUOUS
10
122.1795944736
20
162.5496896568
11
122.5164692900
21
162.5496896568
0
LINE
8
10000_FRONT
62
7
6
CONTINUOUS
10
128.0455316064
20
162.5496896568
11
128.3824069736
21
162.5496896568
0
LINE
8
10000_FRONT
62
7
6
CONTINUOUS
10
142.9449069736
20
162.6321364853
11
142.2449069736
21
162.6321364853
0
LINE
8
10000_FRONT
62
7
6
CONTINUOUS
10
134.6449069736
20
162.6321364853
11
133.9449069736
21
162.6321364853
0
LINE
8
10000_FRONT
62
7
6
CONTINUOUS
10
115.0811569277
20
162.6454343709
11
115.2977194277
21
162.6454343709
0
LINE
8
10000_FRONT
62
7
6
CONTINUOUS
10
116.6933444736
20
162.6773492607
11
116.8617818818
21
162.6773492607
0
LINE
8
10000_FRONT
62
7
6
CONTINUOUS
10
123.8345944736
20
162.6773492607
11
124.2917816064
21
162.6773492607
0
LINE
8
10000_FRONT
62
7
6
CONTINUOUS
10
130.3555316064
20
162.6773492607
11
130.8127198408
21
162.6773492607
0
LINE
8
10000_FRONT
62
7
6
CONTINUOUS
10
121.0309848432
20
162.6789078592
11
121.1994222514
21
162.6789078592
0
LINE
8
10000_FRONT
62
7
6
CONTINUOUS
10
128.3824069736
20
162.7092641506
11
128.0455316064
21
162.7092641506
0
LINE
8
10000_FRONT
62
7
6
CONTINUOUS
10
122.5164692900
20
162.7092641506
11
122.1795944736
21
162.7092641506
0
LINE
8
10000_FRONT
62
7
6
CONTINUOUS
10
113.8058444736
20
162.8050088200
11
113.9742819851
21
162.8050088200
0
LINE
8
10000_FRONT
62
7
6
CONTINUOUS
10
117.0542819736
20
162.8050088200
11
117.1986569736
21
162.8050088200
0
LINE
8
10000_FRONT
62
7
6
CONTINUOUS
10
121.3919223432
20
162.8065674185
11
121.5362973432
21
162.8065674185
0
LINE
8
10000_FRONT
62
7
6
CONTINUOUS
10
115.4420944277
20
162.8369237098
11
115.0811569277
21
162.8369237098
0
LINE
8
10000_FRONT
62
7
6
CONTINUOUS
10
130.8127198408
20
162.8688385996
11
130.3555316064
21
162.8688385996
0
LINE
8
10000_FRONT
62
7
6
CONTINUOUS
10
124.2917816064
20
162.8688385996
11
123.8345944736
21
162.8688385996
0
LINE
8
10000_FRONT
62
7
6
CONTINUOUS
10
117.1986569736
20
162.9645832691
11
117.0542819736
21
162.9645832691
0
LINE
8
10000_FRONT
62
7
6
CONTINUOUS
10
113.9502194736
20
162.9645832691
11
113.8299069851
21
162.9645832691
0
LINE
8
10000_FRONT
62
7
6
CONTINUOUS
10
121.5362973432
20
162.9661418676
11
121.3919223432
21
162.9661418676
0
LINE
8
10000_FRONT
62
7
6
CONTINUOUS
10
137.4761569736
20
162.9964981291
11
137.6636569736
21
162.9964981291
0
LINE
8
10000_FRONT
62
7
6
CONTINUOUS
10
137.9449069736
20
163.0390514347
11
138.1011570928
21
163.0390514347
0
LINE
8
10000_FRONT
62
7
6
CONTINUOUS
10
115.2977194277
20
163.1241577181
11
115.4420944277
21
163.1241577181
0
LINE
8
10000_FRONT
62
7
6
CONTINUOUS
10
114.1427194966
20
163.1560726973
11
114.2630319507
21
163.1560726973
0
LINE
8
10000_FRONT
62
7
6
CONTINUOUS
10
131.3180323408
20
163.1560726973
11
131.4383441064
21
163.1560726973
0
LINE
8
10000_FRONT
62
7
6
CONTINUOUS
10
135.1324069736
20
163.2518173668
11
135.6949069736
21
163.2518173668
0
LINE
8
10000_FRONT
62
7
6
CONTINUOUS
10
136.9449070332
20
163.2518173668
11
137.2261570332
21
163.2518173668
0
LINE
8
10000_FRONT
62
7
6
CONTINUOUS
10
138.4136569736
20
163.2943705532
11
138.5386568544
21
163.2943705532
0
LINE
8
10000_FRONT
62
7
6
CONTINUOUS
10
114.8886569736
20
163.3156471464
11
115.1052194736
21
163.3156471464
0
LINE
8
10000_FRONT
62
7
6
CONTINUOUS
10
123.8345944736
20
163.3156471464
11
124.2917816064
21
163.3156471464
0
LINE
8
10000_FRONT
62
7
6
CONTINUOUS
10
130.3555316064
20
163.3156471464
11
130.8127198408
21
163.3156471464
0
LINE
8
10000_FRONT
62
7
6
CONTINUOUS
10
113.8058444736
20
163.3475620362
11
113.9502194736
21
163.3475620362
0
LINE
8
10000_FRONT
62
7
6
CONTINUOUS
10
116.8136570654
20
163.3475620362
11
117.5114693818
21
163.3475620362
0
LINE
8
10000_FRONT
62
7
6
CONTINUOUS
10
131.6789698408
20
163.3475620362
11
131.7752194736
21
163.3475620362
0
LINE
8
10000_FRONT
62
7
6
CONTINUOUS
10
121.1512974350
20
163.3491206347
11
121.8491097514
21
163.3491206347
0
LINE
8
10000_FRONT
62
7
6
CONTINUOUS
10
142.0386567352
20
163.5071364853
11
141.8511567352
21
163.5071364853
0
LINE
8
10000_FRONT
62
7
6
CONTINUOUS
10
140.9761572120
20
163.5071364853
11
140.7886568544
21
163.5071364853
0
LINE
8
10000_FRONT
62
7
6
CONTINUOUS
10
140.2261568544
20
163.5071364853
11
140.0386568544
21
163.5071364853
0
LINE
8
10000_FRONT
62
7
6
CONTINUOUS
10
138.5699070928
20
163.5071364853
11
138.4449068544
21
163.5071364853
0
LINE
8
10000_FRONT
62
7
6
CONTINUOUS
10
137.2261570332
20
163.5071364853
11
136.9449070332
21
163.5071364853
0
LINE
8
10000_FRONT
62
7
6
CONTINUOUS
10
135.6949069736
20
163.5071364853
11
134.9449069736
21
163.5071364853
0
LINE
8
10000_FRONT
62
7
6
CONTINUOUS
10
131.7992816064
20
163.5071364853
11
131.7030319736
21
163.5071364853
0
LINE
8
10000_FRONT
62
7
6
CONTINUOUS
10
130.7886566064
20
163.5071364853
11
130.2111566064
21
163.5071364853
0
LINE
8
10000_FRONT
62
7
6
CONTINUOUS
10
129.6336566064
20
163.5071364853
11
129.4411573408
21
163.5071364853
0
LINE
8
10000_FRONT
62
7
6
CONTINUOUS
10
128.8636573408
20
163.5071364853
11
128.7192823408
21
163.5071364853
0
LINE
8
10000_FRONT
62
7
6
CONTINUOUS
10
124.2677194736
20
163.5071364853
11
123.6902194736
21
163.5071364853
0
LINE
8
10000_FRONT
62
7
6
CONTINUOUS
10
117.5114693818
20
163.5071364853
11
116.6933444736
21
163.5071364853
0
LINE
8
10000_FRONT
62
7
6
CONTINUOUS
10
116.5008443818
20
163.5071364853
11
116.3083445654
21
163.5071364853
0
LINE
8
10000_FRONT
62
7
6
CONTINUOUS
10
115.7789693818
20
163.5071364853
11
115.6345945195
21
163.5071364853
0
LINE
8
10000_FRONT
62
7
6
CONTINUOUS
10
115.1052194736
20
163.5071364853
11
114.8886569736
21
163.5071364853
0
LINE
8
10000_FRONT
62
7
6
CONTINUOUS
10
113.9261569621
20
163.5071364853
11
113.8299069851
21
163.5071364853
0
LINE
8
10000_FRONT
62
7
6
CONTINUOUS
10
121.8491097514
20
163.5086950838
11
121.0309848432
21
163.5086950838
0
LINE
8
10000_FRONT
62
7
6
CONTINUOUS
10
125.3501646870
20
163.5089430538
11
125.1576654214
21
163.5089430538
0
LINE
8
10000_FRONT
62
7
6
CONTINUOUS
10
137.7949069736
20
164.5571364853
11
142.0949069736
21
164.5571364853
0
LINE
8
10000_FRONT
62
7
6
CONTINUOUS
10
141.9449069736
20
164.7071364853
11
140.0199069736
21
164.7071364853
0
LINE
8
10000_FRONT
62
7
6
CONTINUOUS
10
139.8699069736
20
164.7071364853
11
137.9449069736
21
164.7071364853
0
LINE
8
10000_FRONT
62
7
6
CONTINUOUS
10
134.9449069736
20
164.7071364853
11
135.8449069736
21
164.7071364853
0
LINE
8
10000_FRONT
62
7
6
CONTINUOUS
10
135.8449069736
20
164.8986258465
11
135.0949069736
21
164.8986258465
0
LINE
8
10000_FRONT
62
7
6
CONTINUOUS
10
113.4449069736
20
165.0071364853
11
118.6449069736
21
165.0071364853
0
LINE
8
10000_FRONT
62
7
6
CONTINUOUS
10
156.8852823355
20
160.9002428434
11
156.9075188124
21
160.8996077322
0
LINE
8
11000_LEFT
62
7
6
CONTINUOUS
10
321.6275971562
20
160.9045331326
11
321.7709028545
21
160.8998308937
0
LINE
8
10000_FRONT
62
7
6
CONTINUOUS
10
156.8581941216
20
160.9020441849
11
156.8852823355
21
160.9002428434
0
LINE
8
10000_FRONT
62
7
6
CONTINUOUS
10
156.8268779917
20
160.9049633962
11
156.8581941216
21
160.9020441849
0
LINE
8
10000_FRONT
62
7
6
CONTINUOUS
10
156.7920439135
20
160.9089091679
11
156.8268779917
21
160.9049633962
0
LINE
8
10000_FRONT
62
7
6
CONTINUOUS
10
156.7532967016
20
160.9139185166
11
156.7920439135
21
160.9089091679
0
LINE
8
10000_FRONT
62
7
6
CONTINUOUS
10
120.7853284591
20
176.0133704887
11
121.0449069736
21
175.9790648824
0
LINE
8
10000_FRONT
62
7
6
CONTINUOUS
10
156.7080713146
20
160.9203903716
11
156.7532967016
21
160.9139185166
0
LINE
8
10000_FRONT
62
7
6
CONTINUOUS
10
156.6549865798
20
160.9286811656
11
156.7080713146
21
160.9203903716
0
LINE
8
10000_FRONT
62
7
6
CONTINUOUS
10
156.5935023243
20
160.9390206190
11
156.6549865798
21
160.9286811656
0
LINE
8
10000_FRONT
62
7
6
CONTINUOUS
10
156.5234874354
20
160.9516834621
11
156.5935023243
21
160.9390206190
0
LINE
8
10000_FRONT
62
7
6
CONTINUOUS
10
156.4446994120
20
160.9669010787
11
156.5234874354
21
160.9516834621
0
LINE
8
10000_FRONT
62
7
6
CONTINUOUS
10
148.3693783206
20
176.9987133862
11
148.3449069736
21
177.0071364853
0
LINE
8
10000_FRONT
62
7
6
CONTINUOUS
10
127.9281506317
20
256.7646472060
11
127.8361531222
21
256.8783558935
0
LINE
8
10000_FRONT
62
7
6
CONTINUOUS
10
129.3444004163
20
256.6676926916
11
129.4283637344
21
256.5615316726
0
LINE
8
10000_FRONT
62
7
6
CONTINUOUS
10
148.7101588854
20
252.5425918656
11
148.5513274983
21
252.7492442486
0
LINE
8
10000_FRONT
62
7
6
CONTINUOUS
10
144.0199069659
20
257.3050088200
11
143.9224069659
21
257.4326684091
0
LINE
8
10000_FRONT
62
7
6
CONTINUOUS
10
143.8249069775
20
258.1986258242
11
143.9549069814
21
258.0284130785
0
LINE
8
10000_FRONT
62
7
6
CONTINUOUS
10
145.2549069736
20
257.3050088200
11
145.3849070356
21
257.1347960594
0
LINE
8
10000_FRONT
62
7
6
CONTINUOUS
10
144.8324070046
20
257.8582003328
11
144.7024069426
21
258.0284130785
0
LINE
8
10000_FRONT
62
7
6
CONTINUOUS
10
144.5074069426
20
258.7092641804
11
144.5724069736
21
258.6241578075
0
LINE
8
10000_FRONT
62
7
6
CONTINUOUS
10
146.3924069116
20
258.7092641804
11
146.2624070356
21
258.8794769260
0
LINE
8
10000_FRONT
62
7
6
CONTINUOUS
10
149.5332403681
20
255.2582003328
11
149.5974069736
21
255.1730939600
0
LINE
8
10000_FRONT
62
7
6
CONTINUOUS
10
150.2069901846
20
254.7050088200
11
150.3032401846
21
254.5773492458
0
LINE
8
10000_FRONT
62
7
6
CONTINUOUS
10
149.5332403681
20
256.1092641804
11
149.5974069736
21
256.0241578075
0
LINE
8
10000_FRONT
62
7
6
CONTINUOUS
10
152.9739673987
20
254.7468569466
11
153.0700489612
21
254.5769420584
0
LINE
8
10000_FRONT
62
7
6
CONTINUOUS
10
153.9988371544
20
255.3415590927
11
153.9027555919
21
255.5114739660
0
LINE
8
11000_LEFT
62
7
6
CONTINUOUS
10
237.0564974017
20
228.5071364853
11
237.0609220877
21
228.3884777165
0
LINE
8
11000_LEFT
62
7
6
CONTINUOUS
10
237.0564974017
20
248.6071364853
11
237.0564974017
21
240.5628057257
0
LINE
8
11000_LEFT
62
7
6
CONTINUOUS
10
237.0564974017
20
191.2898617293
11
237.0564974017
21
160.9071364853
0
LINE
8
11000_LEFT
62
7
6
CONTINUOUS
10
237.0564974017
20
225.4071364853
11
237.0564974017
21
240.5348350009
0
LINE
8
11000_LEFT
62
7
6
CONTINUOUS
10
237.1064974017
20
160.6411110815
11
237.1064974017
21
160.7247318939
0
LINE
8
11000_LEFT
62
7
6
CONTINUOUS
10
237.1064974017
20
191.4712265763
11
237.1064974017
21
191.6647227066
0
LINE
8
11000_LEFT
62
7
6
CONTINUOUS
10
237.4564974017
20
191.2898617293
11
237.4564974017
21
160.5071364853
0
LINE
8
11000_LEFT
62
7
6
CONTINUOUS
10
237.4564974017
20
225.0071364853
11
237.4564974017
21
240.4791657605
0
LINE
8
90000_FRAME
62
7
6
CONTINUOUS
10
239.5286472489
20
22.3724221598
11
239.5286472489
21
17.3724222619
0
LINE
8
11000_LEFT
62
7
6
CONTINUOUS
10
240.2150287909
20
260.1071364853
11
240.2150287909
21
260.5071364853
0
LINE
8
11000_LEFT
62
7
6
CONTINUOUS
10
267.8385508698
20
175.3603110319
11
267.8740747856
21
175.4071319062
0
LINE
8
13000_TOP
62
7
6
CONTINUOUS
10
156.8467292585
20
37.3141224673
11
156.8126302552
21
37.2724698409
0
LINE
8
11000_LEFT
62
7
6
CONTINUOUS
10
267.8740747856
20
175.4071319062
11
267.9113524316
21
175.4450216301
0
LINE
8
11000_LEFT
62
7
6
CONTINUOUS
10
322.0018823704
20
160.9175395440
11
322.0690453360
21
160.9389389081
0
LINE
8
10000_FRONT
62
7
6
CONTINUOUS
10
127.4199073408
20
162.0071364853
11
127.5642823408
21
162.0390513779
0
LINE
8
10000_FRONT
62
7
6
CONTINUOUS
10
126.3611569736
20
162.0071364853
11
126.5055319736
21
162.0390513779
0
LINE
8
10000_FRONT
62
7
6
CONTINUOUS
10
156.6965598045
20
160.5373361209
11
156.5448256254
21
160.5071364853
0
LINE
8
10000_FRONT
62
7
6
CONTINUOUS
10
138.4449068544
20
163.5071364853
11
138.2261569736
21
163.4645832989
0
LINE
8
10000_FRONT
62
7
6
CONTINUOUS
10
131.7030319736
20
163.5071364853
11
131.5345948408
21
163.4752215955
0
LINE
8
10000_FRONT
62
7
6
CONTINUOUS
10
112.2967710062
20
160.9389389081
11
112.4471299550
21
160.9672996844
0
LINE
8
11000_LEFT
62
7
6
CONTINUOUS
10
268.0730235368
20
175.5317586596
11
268.1216351046
21
175.5401714331
0
LINE
8
10000_FRONT
62
7
6
CONTINUOUS
10
112.1620966446
20
160.9175395440
11
112.2967710062
21
160.9389389081
0
LINE
8
10000_FRONT
62
7
6
CONTINUOUS
10
156.9245723675
20
160.9001267417
11
156.9364634775
21
160.9017617992
0
LINE
8
10000_FRONT
62
7
6
CONTINUOUS
10
112.0534847608
20
160.9038636826
11
112.1620966446
21
160.9175395440
0
LINE
8
11000_LEFT
62
7
6
CONTINUOUS
10
270.4187164039
20
184.6578858128
11
270.0064974017
21
184.6071364853
0
LINE
8
11000_LEFT
62
7
6
CONTINUOUS
10
272.0564974017
20
175.4098441701
11
268.1564974017
21
175.0158536633
0
LINE
8
11000_LEFT
62
7
6
CONTINUOUS
10
268.1216351046
20
175.5401714331
11
271.5564974017
21
175.8871722376
0
LINE
8
10000_FRONT
62
7
6
CONTINUOUS
10
111.9798102222
20
160.8998308937
11
112.0534847608
21
160.9038636826
0
LINE
8
10000_FRONT
62
7
6
CONTINUOUS
10
136.2449070213
20
165.1858598772
11
136.2949069736
21
165.1858598772
0
LINE
8
10000_FRONT
62
7
6
CONTINUOUS
10
118.4449069736
20
165.2071364853
11
113.6449069736
21
165.2071364853
0
LINE
8
10000_FRONT
62
7
6
CONTINUOUS
10
136.0449069975
20
165.4411790404
11
136.2449070213
21
165.4411790404
0
LINE
8
10000_FRONT
62
7
6
CONTINUOUS
10
136.2949069736
20
165.4411790404
11
136.4949069259
21
165.4411790404
0
LINE
8
10000_FRONT
62
7
6
CONTINUOUS
10
136.4949069259
20
165.5050088200
11
136.2949069736
21
165.5050088200
0
LINE
8
10000_FRONT
62
7
6
CONTINUOUS
10
136.2449070213
20
165.5050088200
11
136.0449069975
21
165.5050088200
0
LINE
8
10000_FRONT
62
7
6
CONTINUOUS
10
136.2949069736
20
165.7603279385
11
136.2449070213
21
165.7603279385
0
LINE
8
10000_FRONT
62
7
6
CONTINUOUS
10
135.0949069736
20
166.2071364853
11
134.9449069736
21
166.2071364853
0
LINE
8
10000_FRONT
62
7
6
CONTINUOUS
10
140.0199069736
20
166.3321364853
11
141.9449069736
21
166.3321364853
0
LINE
8
10000_FRONT
62
7
6
CONTINUOUS
10
141.9449069736
20
166.4821364853
11
140.0199069736
21
166.4821364853
0
LINE
8
10000_FRONT
62
7
6
CONTINUOUS
10
134.9449069736
20
166.6071364853
11
135.0949069736
21
166.6071364853
0
LINE
8
10000_FRONT
62
7
6
CONTINUOUS
10
135.4449069617
20
166.6071364853
11
135.6449069498
21
166.6071364853
0
LINE
8
10000_FRONT
62
7
6
CONTINUOUS
10
135.9949069736
20
166.6071364853
11
136.1449069736
21
166.6071364853
0
LINE
8
10000_FRONT
62
7
6
CONTINUOUS
10
143.3949069736
20
166.9071364853
11
145.9949069736
21
166.9071364853
0
LINE
8
10000_FRONT
62
7
6
CONTINUOUS
10
143.4449069736
20
166.9571364853
11
145.9449069736
21
166.9571364853
0
LINE
8
10000_FRONT
62
7
6
CONTINUOUS
10
146.9449069736
20
167.6571364853
11
147.9649069736
21
167.6571364853
0
LINE
8
10000_FRONT
62
7
6
CONTINUOUS
10
147.9649069736
20
167.8741577613
11
147.1149069736
21
167.8741577613
0
LINE
8
10000_FRONT
62
7
6
CONTINUOUS
10
136.1449069736
20
168.1071364853
11
135.9199069736
21
168.1071364853
0
LINE
8
10000_FRONT
62
7
6
CONTINUOUS
10
135.1699069736
20
168.1071364853
11
134.9449069736
21
168.1071364853
0
LINE
8
10000_FRONT
62
7
6
CONTINUOUS
10
140.0199069736
20
168.2321364853
11
141.9449069736
21
168.2321364853
0
LINE
8
10000_FRONT
62
7
6
CONTINUOUS
10
141.9449069736
20
168.3821364853
11
140.0199069736
21
168.3821364853
0
LINE
8
10000_FRONT
62
7
6
CONTINUOUS
10
135.3199069736
20
168.5071364853
11
136.0699069736
21
168.5071364853
0
LINE
8
10000_FRONT
62
7
6
CONTINUOUS
10
136.0699069736
20
168.6571364853
11
135.3199069736
21
168.6571364853
0
LINE
8
10000_FRONT
62
7
6
CONTINUOUS
10
135.1324069736
20
168.8821364853
11
136.2574069736
21
168.8821364853
0
LINE
8
10000_FRONT
62
7
6
CONTINUOUS
10
136.2574069736
20
169.0321364853
11
135.1324069736
21
169.0321364853
0
LINE
8
10000_FRONT
62
7
6
CONTINUOUS
10
134.9449069736
20
169.2571364853
11
136.4449069736
21
169.2571364853
0
LINE
8
10000_FRONT
62
7
6
CONTINUOUS
10
147.1149069736
20
169.3571364853
11
146.9449069736
21
169.3571364853
0
LINE
8
10000_FRONT
62
7
6
CONTINUOUS
10
136.4449069736
20
169.4071364853
11
135.7699069736
21
169.4071364853
0
LINE
8
10000_FRONT
62
7
6
CONTINUOUS
10
135.6199069736
20
169.4071364853
11
134.9449069736
21
169.4071364853
0
LINE
8
10000_FRONT
62
7
6
CONTINUOUS
10
135.7699069736
20
170.0071364853
11
135.6199069736
21
170.0071364853
0
LINE
8
10000_FRONT
62
7
6
CONTINUOUS
10
113.6449069736
20
170.0071364853
11
118.4449069736
21
170.0071364853
0
LINE
8
10000_FRONT
62
7
6
CONTINUOUS
10
137.9449069736
20
170.0071364853
11
139.8699069736
21
170.0071364853
0
LINE
8
10000_FRONT
62
7
6
CONTINUOUS
10
140.0199069736
20
170.0071364853
11
141.9449069736
21
170.0071364853
0
LINE
8
10000_FRONT
62
7
6
CONTINUOUS
10
145.9449069736
20
170.0571364853
11
143.4449069736
21
170.0571364853
0
LINE
8
10000_FRONT
62
7
6
CONTINUOUS
10
143.3956714254
20
170.1063720335
11
145.9941425218
21
170.1063720335
0
LINE
8
10000_FRONT
62
7
6
CONTINUOUS
10
142.0949069736
20
170.1571364853
11
137.7949069736
21
170.1571364853
0
LINE
8
10000_FRONT
62
7
6
CONTINUOUS
10
118.6449069736
20
170.2071364853
11
113.4449069736
21
170.2071364853
0
LINE
8
10000_FRONT
62
7
6
CONTINUOUS
10
147.8449069736
20
175.9790648824
11
121.0449069736
21
175.9790648824
0
LINE
8
10000_FRONT
62
7
6
CONTINUOUS
10
147.8449069736
20
176.5071364853
11
121.0449069736
21
176.5071364853
0
LINE
8
10000_FRONT
62
7
6
CONTINUOUS
10
147.5449069736
20
177.3071364853
11
121.3449069736
21
177.3071364853
0
LINE
8
10000_FRONT
62
7
6
CONTINUOUS
10
147.3449069736
20
177.5071364853
11
121.5449069736
21
177.5071364853
0
LINE
8
10000_FRONT
62
7
6
CONTINUOUS
10
146.9049069736
20
179.3571364853
11
122.2749069736
21
179.3571364853
0
LINE
8
10000_FRONT
62
7
6
CONTINUOUS
10
148.8449069736
20
176.9798785505
11
148.6903975544
21
176.9812126649
0
LINE
8
10000_FRONT
62
7
6
CONTINUOUS
10
148.6903975544
20
176.9812126649
11
148.5510130128
21
176.9850844058
0
LINE
8
10000_FRONT
62
7
6
CONTINUOUS
10
148.5510130128
20
176.9850844058
11
148.4403974164
21
176.9911147528
0
LINE
8
11000_LEFT
62
7
6
CONTINUOUS
10
321.5873589304
20
160.9071364853
11
321.6275971562
21
160.9045331326
0
LINE
8
11000_LEFT
62
7
6
CONTINUOUS
10
271.5564974017
20
169.1271007330
11
268.1216351046
21
169.4741015374
0
LINE
8
11000_LEFT
62
7
6
CONTINUOUS
10
268.1564974017
20
169.9984193073
11
272.0564974017
21
169.6044288005
0
LINE
8
10000_FRONT
62
7
6
CONTINUOUS
10
148.4403974164
20
176.9911147528
11
148.3693783206
21
176.9987133862
0
LINE
8
11000_LEFT
62
7
6
CONTINUOUS
10
268.1216351046
20
169.4741015374
11
268.0758272006
21
169.4818345898
0
LINE
8
10000_FRONT
62
7
6
CONTINUOUS
10
115.9162700062
20
256.7873086009
11
116.0744558490
21
256.6676926916
0
LINE
8
10000_FRONT
62
7
6
CONTINUOUS
10
115.1126417786
20
257.2054914694
11
115.1935858671
21
257.1439962198
0
LINE
8
10000_FRONT
62
7
6
CONTINUOUS
10
152.8924072216
20
257.3050088200
11
153.0224067257
21
257.1347960594
0
LINE
8
10000_FRONT
62
7
6
CONTINUOUS
10
154.0299069736
20
258.7092641804
11
153.8999067257
21
258.8794769260
0
LINE
8
10000_FRONT
62
7
6
CONTINUOUS
10
151.6186569736
20
254.7050088200
11
151.7149069736
21
254.5773492458
0
LINE
8
10000_FRONT
62
7
6
CONTINUOUS
10
151.1053237627
20
256.1092641804
11
151.0090737627
21
256.2369237396
0
LINE
8
10000_FRONT
62
7
6
CONTINUOUS
10
152.5169901846
20
256.1092641804
11
152.4207401846
21
256.2369237396
0
LINE
8
10000_FRONT
62
7
6
CONTINUOUS
10
156.8255900495
20
260.3908981248
11
156.9121883985
21
260.2620119253
0
LINE
8
90000_FRAME
62
7
6
CONTINUOUS
10
308.8496008213
20
21.4969115175
11
310.5370113459
21
18.5498846858
0
LINE
8
90000_FRAME
62
7
6
CONTINUOUS
10
309.9666190559
20
16.7436424342
11
308.2554421859
21
19.7857346475
0
LINE
8
90000_FRAME
62
7
6
CONTINUOUS
10
298.2973434565
20
16.6961097434
11
296.9664281131
21
19.7857346475
0
LINE
8
90000_FRAME
62
7
6
CONTINUOUS
10
297.7269511665
20
21.4969115175
11
298.9628011281
21
18.5974173767
0
LINE
8
11000_LEFT
62
7
6
CONTINUOUS
10
242.0564974017
20
192.5071364853
11
242.0564974017
21
228.1071364853
0
LINE
8
11000_LEFT
62
7
6
CONTINUOUS
10
242.4565013029
20
194.1396903275
11
242.4564974017
21
228.5071364853
0
LINE
8
11000_LEFT
62
7
6
CONTINUOUS
10
242.5564974017
20
194.1220583173
11
242.5564974017
21
192.1891293309
0
LINE
8
90000_FRAME
62
7
6
CONTINUOUS
10
249.5286470447
20
24.8724221087
11
249.5286470447
21
14.8724223130
0
LINE
8
11000_LEFT
62
7
6
CONTINUOUS
10
267.7632347143
20
250.4144685119
11
267.7809735092
21
250.4891381477
0
LINE
8
11000_LEFT
62
7
6
CONTINUOUS
10
267.7809735092
20
175.2391381477
11
267.8068125213
21
175.3043128804
0
LINE
8
11000_LEFT
62
7
6
CONTINUOUS
10
267.8068125213
20
175.3043128804
11
267.8385508698
21
175.3603110319
0
LINE
8
13000_TOP
62
7
6
CONTINUOUS
10
156.8126302552
20
37.2724698409
11
156.7738003870
21
37.2341555845
0
LINE
8
10000_FRONT
62
7
6
CONTINUOUS
10
137.2261570332
20
161.5071364853
11
137.3824069736
21
161.5496896754
0
LINE
8
10000_FRONT
62
7
6
CONTINUOUS
10
135.6949069736
20
161.5071364853
11
135.8511570034
21
161.5496896754
0
LINE
8
10000_FRONT
62
7
6
CONTINUOUS
10
138.2574068544
20
163.2518173668
11
138.4136569736
21
163.2943705532
0
LINE
8
10000_FRONT
62
7
6
CONTINUOUS
10
136.9449070332
20
163.5071364853
11
136.7886569140
21
163.4645832989
0
LINE
8
10000_FRONT
62
7
6
CONTINUOUS
10
130.7886566064
20
162.0071364853
11
130.9089694736
21
162.0390513779
0
LINE
8
10000_FRONT
62
7
6
CONTINUOUS
10
127.5402191064
20
162.1986258465
11
127.4199073408
21
162.1667109567
0
LINE
8
10000_FRONT
62
7
6
CONTINUOUS
10
131.5586569736
20
163.3156471464
11
131.6789698408
21
163.3475620362
0
LINE
8
10000_FRONT
62
7
6
CONTINUOUS
10
126.4814698408
20
162.1986258465
11
126.3611569736
21
162.1667109567
0
LINE
8
10000_FRONT
62
7
6
CONTINUOUS
10
124.2677194736
20
162.0071364853
11
124.3880323408
21
162.0390513779
0
LINE
8
10000_FRONT
62
7
6
CONTINUOUS
10
123.2035941656
20
162.1906626780
11
123.0832812984
21
162.1587477882
0
LINE
8
10000_FRONT
62
7
6
CONTINUOUS
10
127.2995944736
20
163.3156471464
11
127.4199073408
21
163.3475620362
0
LINE
8
10000_FRONT
62
7
6
CONTINUOUS
10
121.5362973432
20
162.0086950838
11
121.6566099350
21
162.0406099764
0
LINE
8
10000_FRONT
62
7
6
CONTINUOUS
10
126.2408441064
20
163.3156471464
11
126.3611569736
21
163.3475620362
0
LINE
8
10000_FRONT
62
7
6
CONTINUOUS
10
120.5192819736
20
162.1986258465
11
120.3989696572
21
162.1667109567
0
LINE
8
10000_FRONT
62
7
6
CONTINUOUS
10
119.4605321572
20
162.1986258465
11
119.3402192900
21
162.1667109567
0
LINE
8
10000_FRONT
62
7
6
CONTINUOUS
10
122.9629684312
20
163.3076839779
11
123.0832812984
21
163.3395988677
0
LINE
8
10000_FRONT
62
7
6
CONTINUOUS
10
121.3919223432
20
162.9661418676
11
121.2716097514
21
162.9342269777
0
LINE
8
10000_FRONT
62
7
6
CONTINUOUS
10
117.1986569736
20
162.0071364853
11
117.3189695654
21
162.0390513779
0
LINE
8
10000_FRONT
62
7
6
CONTINUOUS
10
120.2786567900
20
163.3156471464
11
120.3989696572
21
163.3475620362
0
LINE
8
10000_FRONT
62
7
6
CONTINUOUS
10
115.1052194736
20
162.0071364853
11
115.2255319277
21
162.0390513779
0
LINE
8
10000_FRONT
62
7
6
CONTINUOUS
10
119.2199069736
20
163.3156471464
11
119.3402192900
21
163.3475620362
0
LINE
8
10000_FRONT
62
7
6
CONTINUOUS
10
113.9502194736
20
162.0071364853
11
114.0705319966
21
162.0390513779
0
LINE
8
10000_FRONT
62
7
6
CONTINUOUS
10
117.0542819736
20
162.9645832691
11
116.9339693818
21
162.9326683792
0
LINE
8
10000_FRONT
62
7
6
CONTINUOUS
10
113.8299069851
20
162.9645832691
11
113.7095944794
21
162.9326683792
0
LINE
8
10000_FRONT
62
7
6
CONTINUOUS
10
114.8886569736
20
163.5071364853
11
114.7683445195
21
163.4752215955
0
LINE
8
10000_FRONT
62
7
6
CONTINUOUS
10
113.8299069851
20
163.5071364853
11
113.7095944794
21
163.4752215955
0
LINE
8
10000_FRONT
62
7
6
CONTINUOUS
10
123.0832812984
20
161.9991733168
11
123.2276562984
21
162.0310882094
0
LINE
8
10000_FRONT
62
7
6
CONTINUOUS
10
127.4199073408
20
163.5071364853
11
127.2755323408
21
163.4752215955
0
LINE
8
10000_FRONT
62
7
6
CONTINUOUS
10
120.3989696572
20
162.0071364853
11
120.5433446572
21
162.0390513779
0
LINE
8
10000_FRONT
62
7
6
CONTINUOUS
10
126.3611569736
20
163.5071364853
11
126.2167819736
21
163.4752215955
0
LINE
8
10000_FRONT
62
7
6
CONTINUOUS
10
119.3402192900
20
162.0071364853
11
119.4845942900
21
162.0390513779
0
LINE
8
10000_FRONT
62
7
6
CONTINUOUS
10
123.0832812984
20
163.4991733168
11
122.9389062984
21
163.4672584270
0
LINE
8
10000_FRONT
62
7
6
CONTINUOUS
10
120.3989696572
20
163.5071364853
11
120.2545946572
21
163.4752215955
0
LINE
8
10000_FRONT
62
7
6
CONTINUOUS
10
119.3402192900
20
163.5071364853
11
119.1958442900
21
163.4752215955
0
LINE
8
11000_LEFT
62
7
6
CONTINUOUS
10
237.4564974017
20
191.2898617293
11
242.5564974017
21
192.1891293309
0
LINE
8
11000_LEFT
62
7
6
CONTINUOUS
10
237.3870381306
20
191.6837848305
11
242.5564974017
21
192.5952999756
0
LINE
8
10000_FRONT
62
7
6
CONTINUOUS
10
147.8449069736
20
175.9790648824
11
148.1041340548
21
176.0132755765
0
LINE
8
11000_LEFT
62
7
6
CONTINUOUS
10
272.0564974017
20
188.5071364853
11
270.4564974017
21
188.3671546236
0
LINE
8
11000_LEFT
62
7
6
CONTINUOUS
10
270.1564974017
20
188.7571364853
11
272.0564974017
21
188.9233649460
0
LINE
8
10000_FRONT
62
7
6
CONTINUOUS
10
146.4599069736
20
182.6571364853
11
141.2574069736
21
182.6571364853
0
LINE
8
10000_FRONT
62
7
6
CONTINUOUS
10
127.6324069736
20
182.6571364853
11
122.4299069736
21
182.6571364853
0
LINE
8
11000_LEFT
62
7
6
CONTINUOUS
10
270.0064974017
20
183.2571364853
11
270.1564974017
21
183.2571364853
0
LINE
8
10000_FRONT
62
7
6
CONTINUOUS
10
146.4599069736
20
183.7571364853
11
145.5599069736
21
183.7571364853
0
LINE
8
10000_FRONT
62
7
6
CONTINUOUS
10
123.3299069736
20
183.7571364853
11
122.4299069736
21
183.7571364853
0
LINE
8
11000_LEFT
62
7
6
CONTINUOUS
10
270.1564974017
20
186.2571364853
11
270.0064974017
21
186.2571364853
0
LINE
8
10000_FRONT
62
7
6
CONTINUOUS
10
146.4599069736
20
188.2571364853
11
145.5599069736
21
188.2571364853
0
LINE
8
10000_FRONT
62
7
6
CONTINUOUS
10
123.3299069736
20
188.2571364853
11
122.4299069736
21
188.2571364853
0
LINE
8
10000_FRONT
62
7
6
CONTINUOUS
10
146.4599069736
20
189.3571364853
11
141.2574069736
21
189.3571364853
0
LINE
8
10000_FRONT
62
7
6
CONTINUOUS
10
127.6324069736
20
189.3571364853
11
122.4299069736
21
189.3571364853
0
LINE
8
11000_LEFT
62
7
6
CONTINUOUS
10
237.4564974017
20
191.2898617293
11
237.0564974017
21
191.2898617293
0
LINE
8
11000_LEFT
62
7
6
CONTINUOUS
10
271.5564974017
20
192.2571364853
11
265.5564974017
21
192.2571364853
0
LINE
8
10000_FRONT
62
7
6
CONTINUOUS
10
146.9049069736
20
192.6571364853
11
122.2749069736
21
192.6571364853
0
LINE
8
11000_LEFT
62
7
6
CONTINUOUS
10
277.3564974017
20
192.7571364853
11
283.3564974017
21
192.7571364853
0
LINE
8
11000_LEFT
62
7
6
CONTINUOUS
10
242.0564974017
20
193.5411110815
11
241.0564974017
21
193.5411110815
0
LINE
8
11000_LEFT
62
7
6
CONTINUOUS
10
272.0564974017
20
181.2484089528
11
270.1564974017
21
181.2815735762
0
LINE
8
11000_LEFT
62
7
6
CONTINUOUS
10
272.0564974017
20
181.5071364853
11
270.4564974017
21
181.5350645892
0
LINE
8
11000_LEFT
62
7
6
CONTINUOUS
10
270.0064974017
20
184.9071364853
11
270.4187164039
21
184.8563871578
0
LINE
8
11000_LEFT
62
7
6
CONTINUOUS
10
268.0758272006
20
169.4818345898
11
268.0266583323
21
169.4973539662
0
LINE
8
11000_LEFT
62
7
6
CONTINUOUS
10
268.0266583323
20
169.4973539662
11
267.9744719180
21
169.5229392042
0
LINE
8
10000_FRONT
62
7
6
CONTINUOUS
10
128.8300590527
20
256.2878631474
11
128.7396173425
21
256.3470671677
0
LINE
8
10000_FRONT
62
7
6
CONTINUOUS
10
115.5602076835
20
256.2860766220
11
115.4700384790
21
256.3461148971
0
LINE
8
10000_FRONT
62
7
6
CONTINUOUS
10
114.8248941336
20
256.6464799229
11
114.6580122523
21
256.7646472060
0
LINE
8
10000_FRONT
62
7
6
CONTINUOUS
10
128.0948322942
20
256.6461817342
11
127.9281506317
21
256.7646472060
0
LINE
8
10000_FRONT
62
7
6
CONTINUOUS
10
129.1862936547
20
256.7870560803
11
129.3444004163
21
256.6676926916
0
LINE
8
10000_FRONT
62
7
6
CONTINUOUS
10
128.3829212898
20
257.2052628410
11
128.4641652151
21
257.1437146921
0
LINE
8
10000_FRONT
62
7
6
CONTINUOUS
10
148.5513274983
20
252.7492442486
11
148.3447863344
21
252.9076792836
0
LINE
8
10000_FRONT
62
7
6
CONTINUOUS
10
143.8249069775
20
257.1773492458
11
143.9874069736
21
257.0496896754
0
LINE
8
10000_FRONT
62
7
6
CONTINUOUS
10
150.3032401846
20
254.5773492458
11
150.4636569736
21
254.4496896754
0
LINE
8
10000_FRONT
62
7
6
CONTINUOUS
10
144.1174069891
20
258.1986258242
11
144.0199069659
21
258.2837321970
0
LINE
8
10000_FRONT
62
7
6
CONTINUOUS
10
144.5399070046
20
257.8582003328
11
144.6374070046
21
257.7730939600
0
LINE
8
10000_FRONT
62
7
6
CONTINUOUS
10
145.5474069736
20
257.3050088200
11
145.4499069736
21
257.3901152226
0
LINE
8
10000_FRONT
62
7
6
CONTINUOUS
10
146.0999069116
20
258.7092641804
11
146.1974069116
21
258.6241578075
0
LINE
8
10000_FRONT
62
7
6
CONTINUOUS
10
153.1849072216
20
257.3050088200
11
153.0874072216
21
257.3901152226
0
LINE
8
10000_FRONT
62
7
6
CONTINUOUS
10
150.4957401846
20
254.6624556336
11
150.3994901846
21
254.7475620064
0
LINE
8
10000_FRONT
62
7
6
CONTINUOUS
10
151.9074069736
20
254.6624556336
11
151.8111569736
21
254.7475620064
0
LINE
8
10000_FRONT
62
7
6
CONTINUOUS
10
150.8165737627
20
256.1518173668
11
150.9128237627
21
256.0667109939
0
LINE
8
10000_FRONT
62
7
6
CONTINUOUS
10
153.2622120862
20
254.6618995100
11
153.1661305237
21
254.7468569466
0
LINE
8
10000_FRONT
62
7
6
CONTINUOUS
10
152.2282401846
20
256.1518173668
11
152.3244901846
21
256.0667109939
0
LINE
8
10000_FRONT
62
7
6
CONTINUOUS
10
153.7105924669
20
255.4265165294
11
153.8066740294
21
255.3415590927
0
LINE
8
10000_FRONT
62
7
6
CONTINUOUS
10
144.6699069736
20
258.8369237396
11
144.5399070046
21
258.9645832989
0
LINE
8
10000_FRONT
62
7
6
CONTINUOUS
10
149.6936569736
20
256.2369237396
11
149.5653235791
21
256.3645832989
0
LINE
8
10000_FRONT
62
7
6
CONTINUOUS
10
156.9445000180
20
260.1084373856
11
156.9432788570
21
260.1097398379
0
LINE
8
11000_LEFT
62
7
6
CONTINUOUS
10
240.7617532900
20
194.6411110815
11
241.0564974017
21
193.5411110815
0
LINE
8
11000_LEFT
62
7
6
CONTINUOUS
10
237.0737105165
20
228.2749829642
11
237.0925157573
21
228.1753739622
0
LINE
8
11000_LEFT
62
7
6
CONTINUOUS
10
237.3870381306
20
191.6837848305
11
237.4564974017
21
191.2898617293
0
LINE
8
11000_LEFT
62
7
6
CONTINUOUS
10
237.0609220877
20
228.3884777165
11
237.0737105165
21
228.2749829642
0
LINE
8
11000_LEFT
62
7
6
CONTINUOUS
10
267.7651895177
20
169.8384571913
11
267.7564974017
21
169.9342241591
0
LINE
8
90000_FRAME
62
7
6
CENTER
10
256.0286469120
20
14.1509410045
11
256.0286469120
21
25.4343270045
0
LINE
8
11000_LEFT
62
7
6
CONTINUOUS
10
265.5564974017
20
228.7571364853
11
265.5564974017
21
222.2571364853
0
LINE
8
11000_LEFT
62
7
6
CONTINUOUS
10
265.5564974017
20
192.2571364853
11
265.5564974017
21
198.7571364853
0
LINE
8
11000_LEFT
62
7
6
CONTINUOUS
10
267.7564974017
20
169.9342241591
11
267.7564974017
21
175.0800488114
0
LINE
8
11000_LEFT
62
7
6
CONTINUOUS
10
267.7564974017
20
246.6842241591
11
267.7564974017
21
250.3300488114
0
LINE
8
11000_LEFT
62
7
6
CONTINUOUS
10
268.1564974017
20
169.9984193073
11
268.1564974017
21
175.0158536633
0
LINE
8
11000_LEFT
62
7
6
CONTINUOUS
10
268.1564974017
20
246.7484193073
11
268.1564974017
21
250.2658536633
0
LINE
8
11000_LEFT
62
7
6
CONTINUOUS
10
270.0064974017
20
237.7571364853
11
270.0064974017
21
236.4071364853
0
LINE
8
11000_LEFT
62
7
6
CONTINUOUS
10
270.0064974017
20
236.1071364853
11
270.0064974017
21
234.7571364853
0
LINE
8
11000_LEFT
62
7
6
CONTINUOUS
10
270.0064974017
20
186.2571364853
11
270.0064974017
21
184.9071364853
0
LINE
8
11000_LEFT
62
7
6
CONTINUOUS
10
270.0064974017
20
184.6071364853
11
270.0064974017
21
183.2571364853
0
LINE
8
11000_LEFT
62
7
6
CONTINUOUS
10
270.1564974017
20
239.7326993944
11
270.1564974017
21
237.7571364853
0
LINE
8
11000_LEFT
62
7
6
CONTINUOUS
10
270.1564974017
20
234.7571364853
11
270.1564974017
21
232.2571364853
0
LINE
8
11000_LEFT
62
7
6
CONTINUOUS
10
270.1564974017
20
188.7571364853
11
270.1564974017
21
186.2571364853
0
LINE
8
11000_LEFT
62
7
6
CONTINUOUS
10
270.1564974017
20
183.2571364853
11
270.1564974017
21
181.2815735762
0
LINE
8
11000_LEFT
62
7
6
CONTINUOUS
10
270.4564974017
20
181.5350645892
11
270.4564974017
21
188.3671546236
0
LINE
8
11000_LEFT
62
7
6
CONTINUOUS
10
270.4564974017
20
232.6471183469
11
270.4564974017
21
239.4792083814
0
LINE
8
11000_LEFT
62
7
6
CONTINUOUS
10
267.7564974017
20
250.3300488114
11
267.7632347143
21
250.4144685119
0
LINE
8
11000_LEFT
62
7
6
CONTINUOUS
10
267.7564974017
20
175.0800488114
11
267.7632347143
21
175.1644685119
0
LINE
8
11000_LEFT
62
7
6
CONTINUOUS
10
267.7632347143
20
175.1644685119
11
267.7809735092
21
175.2391381477
0
LINE
8
13000_TOP
62
7
6
CONTINUOUS
10
156.7738003870
20
37.2341555845
11
156.7271030057
21
37.1973686223
0
LINE
8
10000_FRONT
62
7
6
CONTINUOUS
10
121.5449069736
20
194.5071364853
11
147.3449069736
21
194.5071364853
0
LINE
8
11000_LEFT
62
7
6
CONTINUOUS
10
240.2617532900
20
194.6411110815
11
240.7617532900
21
194.6411110815
0
LINE
8
10000_FRONT
62
7
6
CONTINUOUS
10
121.3449069736
20
194.7071364853
11
147.5449069736
21
194.7071364853
0
LINE
8
10000_FRONT
62
7
6
CONTINUOUS
10
147.5449069736
20
196.3071364853
11
121.3449069736
21
196.3071364853
0
LINE
8
10000_FRONT
62
7
6
CONTINUOUS
10
147.3449069736
20
196.5071364853
11
121.5449069736
21
196.5071364853
0
LINE
8
11000_LEFT
62
7
6
CONTINUOUS
10
283.3564974017
20
198.2571364853
11
277.3564974017
21
198.2571364853
0
LINE
8
10000_FRONT
62
7
6
CONTINUOUS
10
146.9049069736
20
198.3571364853
11
122.2749069736
21
198.3571364853
0
LINE
8
11000_LEFT
62
7
6
CONTINUOUS
10
271.5564974017
20
198.7571364853
11
265.5564974017
21
198.7571364853
0
LINE
8
10000_FRONT
62
7
6
CONTINUOUS
10
146.4599069736
20
201.6571364853
11
141.2574069736
21
201.6571364853
0
LINE
8
10000_FRONT
62
7
6
CONTINUOUS
10
127.6324069736
20
201.6571364853
11
122.4299069736
21
201.6571364853
0
LINE
8
10000_FRONT
62
7
6
CONTINUOUS
10
146.4599069736
20
202.7571364853
11
145.5599069736
21
202.7571364853
0
LINE
8
10000_FRONT
62
7
6
CONTINUOUS
10
123.3299069736
20
202.7571364853
11
122.4299069736
21
202.7571364853
0
LINE
8
10000_FRONT
62
7
6
CONTINUOUS
10
146.4599069736
20
207.2571364853
11
145.5599069736
21
207.2571364853
0
LINE
8
10000_FRONT
62
7
6
CONTINUOUS
10
123.3299069736
20
207.2571364853
11
122.4299069736
21
207.2571364853
0
LINE
8
10000_FRONT
62
7
6
CONTINUOUS
10
146.4599069736
20
208.3571364853
11
141.2574069736
21
208.3571364853
0
LINE
8
10000_FRONT
62
7
6
CONTINUOUS
10
127.6324069736
20
208.3571364853
11
122.4299069736
21
208.3571364853
0
LINE
8
11000_LEFT
62
7
6
CONTINUOUS
10
242.2217677662
20
193.9779948609
11
242.5564974017
21
193.9189729949
0
LINE
8
11000_LEFT
62
7
6
CONTINUOUS
10
242.4565013029
20
194.1396903275
11
242.5564974017
21
194.1220583173
0
LINE
8
10000_FRONT
62
7
6
CONTINUOUS
10
120.5449069736
20
252.0071364853
11
120.5204356323
21
252.0175710694
0
LINE
8
10000_FRONT
62
7
6
CONTINUOUS
10
115.4004064671
20
257.0439900350
11
115.5165999559
21
256.9911489733
0
LINE
8
10000_FRONT
62
7
6
CONTINUOUS
10
115.2922418637
20
257.0946660638
11
115.4004064671
21
257.0439900350
0
LINE
8
10000_FRONT
62
7
6
CONTINUOUS
10
115.5165999559
20
256.9911489733
11
115.7272470669
21
256.8916750590
0
LINE
8
10000_FRONT
62
7
6
CONTINUOUS
10
115.4700384790
20
256.3461148971
11
115.3638965537
21
256.3972423728
0
LINE
8
10000_FRONT
62
7
6
CONTINUOUS
10
115.1935858671
20
257.1439962198
11
115.2922418637
21
257.0946660638
0
LINE
8
10000_FRONT
62
7
6
CONTINUOUS
10
115.0245187882
20
256.5450823400
11
114.8248941336
21
256.6464799229
0
LINE
8
10000_FRONT
62
7
6
CONTINUOUS
10
128.2944995599
20
256.5447538960
11
128.0948322942
21
256.6461817342
0
LINE
8
10000_FRONT
62
7
6
CONTINUOUS
10
115.7272470669
20
256.8916750590
11
115.9162700062
21
256.7873086009
0
LINE
8
10000_FRONT
62
7
6
CONTINUOUS
10
128.9979136237
20
256.8915025628
11
129.1862936547
21
256.7870560803
0
LINE
8
10000_FRONT
62
7
6
CONTINUOUS
10
143.9549069814
20
258.0284130785
11
144.0849069736
21
257.9433067057
0
LINE
8
10000_FRONT
62
7
6
CONTINUOUS
10
145.3849070356
20
257.1347960594
11
145.5149069116
21
257.0496896754
0
LINE
8
10000_FRONT
62
7
6
CONTINUOUS
10
144.7024069426
20
258.0284130785
11
144.5724069736
21
258.1135194513
0
LINE
8
10000_FRONT
62
7
6
CONTINUOUS
10
146.2624070356
20
258.8794769260
11
146.1324069736
21
258.9645832989
0
LINE
8
10000_FRONT
62
7
6
CONTINUOUS
10
153.0224067257
20
257.1347960594
11
153.1524069736
21
257.0496896754
0
LINE
8
10000_FRONT
62
7
6
CONTINUOUS
10
149.6936569736
20
255.3858598921
11
149.6294903681
21
255.4284130785
0
LINE
8
11000_LEFT
62
7
6
CONTINUOUS
10
267.9744719180
20
169.5229392042
11
267.9216776633
21
169.5603089357
0
LINE
8
10000_FRONT
62
7
6
CONTINUOUS
10
151.7149069736
20
254.5773492458
11
151.8753237627
21
254.4496896754
0
LINE
8
10000_FRONT
62
7
6
CONTINUOUS
10
153.0700489612
20
254.5769420584
11
153.2301846544
21
254.4495058923
0
LINE
8
10000_FRONT
62
7
6
CONTINUOUS
10
151.0090737627
20
256.2369237396
11
150.8486569736
21
256.3645832989
0
LINE
8
10000_FRONT
62
7
6
CONTINUOUS
10
152.4207401846
20
256.2369237396
11
152.2603237627
21
256.3645832989
0
LINE
8
10000_FRONT
62
7
6
CONTINUOUS
10
153.9027555919
20
255.5114739660
11
153.7426198987
21
255.6389101210
0
LINE
8
10000_FRONT
62
7
6
CONTINUOUS
10
153.7374069736
20
258.7092641804
11
153.8349069736
21
258.6241578075
0
LINE
8
11000_LEFT
62
7
6
CONTINUOUS
10
267.9216776633
20
169.5603089357
11
267.8715924293
21
169.6100246322
0
LINE
8
11000_LEFT
62
7
6
CONTINUOUS
10
267.8715924293
20
169.6100246322
11
267.8268679353
21
169.6725771312
0
LINE
8
11000_LEFT
62
7
6
CONTINUOUS
10
237.1418242673
20
228.0132525609
11
237.1714605718
21
227.9458736501
0
LINE
8
11000_LEFT
62
7
6
CONTINUOUS
10
237.1154932898
20
228.0889712300
11
237.1418242673
21
228.0132525609
0
LINE
8
11000_LEFT
62
7
6
CONTINUOUS
10
237.0925157573
20
228.1753739622
11
237.1154932898
21
228.0889712300
0
LINE
8
11000_LEFT
62
7
6
CONTINUOUS
10
267.7651895177
20
246.5884571913
11
267.7564974017
21
246.6842241591
0
LINE
8
11000_LEFT
62
7
6
CONTINUOUS
10
271.5564974017
20
160.5071364853
11
271.5564974017
21
169.4539224258
0
LINE
8
11000_LEFT
62
7
6
CONTINUOUS
10
271.5564974017
20
175.5603505448
11
271.5564974017
21
181.2571364853
0
LINE
8
11000_LEFT
62
7
6
CONTINUOUS
10
271.5564974017
20
188.8796206142
11
271.5564974017
21
232.1346523563
0
LINE
8
11000_LEFT
62
7
6
CONTINUOUS
10
271.5564974017
20
239.7571364853
11
271.5564974017
21
246.2039224258
0
LINE
8
11000_LEFT
62
7
6
CONTINUOUS
10
271.5564974017
20
250.8103505448
11
271.5564974017
21
260.5071364853
0
LINE
8
11000_LEFT
62
7
6
CONTINUOUS
10
272.0564974017
20
246.3544288005
11
272.0564974017
21
239.5071364853
0
LINE
8
11000_LEFT
62
7
6
CONTINUOUS
10
272.0564974017
20
232.5071364853
11
272.0564974017
21
188.5071364853
0
LINE
8
11000_LEFT
62
7
6
CONTINUOUS
10
272.0564974017
20
181.5071364853
11
272.0564974017
21
175.4098441701
0
LINE
8
11000_LEFT
62
7
6
CONTINUOUS
10
272.0564974017
20
160.5071364853
11
272.0564974017
21
169.6044288005
0
LINE
8
11000_LEFT
62
7
6
CONTINUOUS
10
272.0564974017
20
250.6598441701
11
272.0564974017
21
260.5071364853
0
LINE
8
90000_FRAME
62
7
6
CONTINUOUS
10
275.0000000000
20
10.0000000000
11
275.0000000000
21
28.0000000000
0
LINE
8
11000_LEFT
62
7
6
CONTINUOUS
10
277.3564974017
20
228.2571364853
11
277.3564974017
21
222.7571364853
0
LINE
8
11000_LEFT
62
7
6
CONTINUOUS
10
277.3564974017
20
198.2571364853
11
277.3564974017
21
192.7571364853
0
LINE
8
11000_LEFT
62
7
6
CONTINUOUS
10
283.3564974017
20
192.7571364853
11
283.3564974017
21
198.2571364853
0
LINE
8
11000_LEFT
62
7
6
CONTINUOUS
10
283.3564974017
20
222.7571364853
11
283.3564974017
21
228.2571364853
0
LINE
8
90000_FRAME
62
7
6
CONTINUOUS
10
284.7029938783
20
16.8387078159
11
284.7029938783
21
17.7893616325
0
LINE
8
13000_TOP
62
7
6
CONTINUOUS
10
156.7271030057
20
37.1973686223
11
156.6712557568
21
37.1634958754
0
LINE
8
10000_FRONT
62
7
6
CONTINUOUS
10
146.9049069736
20
211.6571364853
11
122.2749069736
21
211.6571364853
0
LINE
8
10000_FRONT
62
7
6
CONTINUOUS
10
121.5449069736
20
213.5071364853
11
147.3449069736
21
213.5071364853
0
LINE
8
10000_FRONT
62
7
6
CONTINUOUS
10
121.3449069736
20
213.7071364853
11
147.5449069736
21
213.7071364853
0
LINE
8
10000_FRONT
62
7
6
CONTINUOUS
10
147.6449069736
20
215.3071364853
11
137.2449069736
21
215.3071364853
0
LINE
8
10000_FRONT
62
7
6
CONTINUOUS
10
138.4049069736
20
217.6571364853
11
146.4049069736
21
217.6571364853
0
LINE
8
11000_LEFT
62
7
6
CONTINUOUS
10
271.5564974017
20
222.2571364853
11
265.5564974017
21
222.2571364853
0
LINE
8
11000_LEFT
62
7
6
CONTINUOUS
10
277.3564974017
20
222.7571364853
11
283.3564974017
21
222.7571364853
0
LINE
8
10000_FRONT
62
7
6
CONTINUOUS
10
116.0605013762
20
257.3764474733
11
115.8563059415
21
257.4462455146
0
LINE
8
10000_FRONT
62
7
6
CONTINUOUS
10
148.3447863344
20
252.9076792836
11
148.1043626603
21
253.0074448263
0
LINE
8
10000_FRONT
62
7
6
CONTINUOUS
10
128.6337061626
20
256.3977259382
11
128.5172748807
21
256.4477805364
0
LINE
8
10000_FRONT
62
7
6
CONTINUOUS
10
115.3638965537
20
256.3972423728
11
115.2470718972
21
256.4477805364
0
LINE
8
10000_FRONT
62
7
6
CONTINUOUS
10
128.5172748807
20
256.4477805364
11
128.2944995599
21
256.5447538960
0
LINE
8
10000_FRONT
62
7
6
CONTINUOUS
10
144.2149069891
20
258.1560726377
11
144.1174069891
21
258.1986258242
0
LINE
8
10000_FRONT
62
7
6
CONTINUOUS
10
144.4099069891
20
258.7518173668
11
144.5074069426
21
258.7092641804
0
LINE
8
10000_FRONT
62
7
6
CONTINUOUS
10
115.2470718972
20
256.4477805364
11
115.0245187882
21
256.5450823400
0
LINE
8
10000_FRONT
62
7
6
CONTINUOUS
10
149.4369903681
20
255.3007535192
11
149.5332403681
21
255.2582003328
0
LINE
8
10000_FRONT
62
7
6
CONTINUOUS
10
149.4369903681
20
256.1518173668
11
149.5332403681
21
256.1092641804
0
LINE
8
10000_FRONT
62
7
6
CONTINUOUS
10
128.6717497783
20
257.0439185808
11
128.7882888322
21
256.9911489734
0
LINE
8
10000_FRONT
62
7
6
CONTINUOUS
10
128.5632130506
20
257.0945074159
11
128.6717497783
21
257.0439185808
0
LINE
8
10000_FRONT
62
7
6
CONTINUOUS
10
128.7882888322
20
256.9911489734
11
128.9979136237
21
256.8915025628
0
LINE
8
10000_FRONT
62
7
6
CONTINUOUS
10
128.7396173425
20
256.3470671677
11
128.6337061626
21
256.3977259382
0
LINE
8
10000_FRONT
62
7
6
CONTINUOUS
10
128.4641652151
20
257.1437146921
11
128.5632130506
21
257.0945074159
0
LINE
8
10000_FRONT
62
7
6
CONTINUOUS
10
153.8999067257
20
258.8794769260
11
153.7699072216
21
258.9645832989
0
LINE
8
10000_FRONT
62
7
6
CONTINUOUS
10
156.6965599352
20
260.4769368722
11
156.8255900495
21
260.3908981248
0
LINE
8
11000_LEFT
62
7
6
CONTINUOUS
10
237.2066945545
20
227.8823186357
11
237.2520094764
21
227.8195596466
0
LINE
8
11000_LEFT
62
7
6
CONTINUOUS
10
237.1714605718
20
227.9458736501
11
237.2066945545
21
227.8823186357
0
LINE
8
11000_LEFT
62
7
6
CONTINUOUS
10
267.8268679353
20
169.6725771312
11
267.7902051397
21
169.7486443337
0
LINE
8
11000_LEFT
62
7
6
CONTINUOUS
10
267.7902051397
20
169.7486443337
11
267.7651895177
21
169.8384571913
0
LINE
8
90000_FRAME
62
7
6
CONTINUOUS
10
288.0302822366
20
20.4987250100
11
288.0302822366
21
21.4493788266
0
LINE
8
90000_FRAME
62
7
6
CONTINUOUS
10
289.1235341257
20
21.4969115175
11
289.1235341257
21
16.7436424342
0
LINE
8
90000_FRAME
62
7
6
CONTINUOUS
10
290.5495148507
20
21.4969115175
11
290.5495148507
21
16.7436424342
0
LINE
8
90000_FRAME
62
7
6
CONTINUOUS
10
291.6427667399
20
21.4969115175
11
291.6427667399
21
16.7436424342
0
LINE
8
90000_FRAME
62
7
6
CONTINUOUS
10
293.0212147740
20
20.6175567371
11
293.0212147740
21
19.5480711933
0
LINE
8
90000_FRAME
62
7
6
CONTINUOUS
10
293.0212147740
20
18.7637817946
11
293.0212147740
21
17.6467635600
0
LINE
8
90000_FRAME
62
7
6
CONTINUOUS
10
294.8749897165
20
19.5480711933
11
294.8749897165
21
18.7637817946
0
LINE
8
90000_FRAME
62
7
6
CONTINUOUS
10
295.1601858615
20
21.4969115175
11
295.1601858615
21
20.6175567371
0
LINE
8
90000_FRAME
62
7
6
CONTINUOUS
10
295.2077185523
20
17.6467635600
11
295.2077185523
21
16.7436424342
0
LINE
8
90000_FRAME
62
7
6
CONTINUOUS
10
296.0157742965
20
16.7436424342
11
296.0157742965
21
21.4969115175
0
LINE
8
90000_FRAME
62
7
6
CONTINUOUS
10
296.9664281131
20
16.7436424342
11
296.9664281131
21
19.7857346475
0
LINE
8
11000_LEFT
62
7
6
CONTINUOUS
10
322.0690453360
20
160.9389389081
11
322.0938218549
21
160.9668346489
0
LINE
8
13000_TOP
62
7
6
CONTINUOUS
10
156.6712557568
20
37.1634958754
11
156.6056852786
21
37.1349164447
0
LINE
8
11000_LEFT
62
7
6
CONTINUOUS
10
270.4187164039
20
236.1578858128
11
270.0064974017
21
236.1071364853
0
LINE
8
11000_LEFT
62
7
6
CONTINUOUS
10
237.4564974017
20
225.0071364853
11
240.0175867058
21
225.0071364853
0
LINE
8
10000_FRONT
62
7
6
CONTINUOUS
10
146.4049069736
20
226.6571364853
11
138.4049069736
21
226.6571364853
0
LINE
8
11000_LEFT
62
7
6
CONTINUOUS
10
237.4564974017
20
227.7071364853
11
240.8609093080
21
227.7071364853
0
LINE
8
11000_LEFT
62
7
6
CONTINUOUS
10
237.4564974017
20
228.1071364853
11
242.0564974017
21
228.1071364853
0
LINE
8
11000_LEFT
62
7
6
CONTINUOUS
10
283.3564974017
20
228.2571364853
11
277.3564974017
21
228.2571364853
0
LINE
8
11000_LEFT
62
7
6
CONTINUOUS
10
237.0564974017
20
228.5071364853
11
242.4564974017
21
228.5071364853
0
LINE
8
11000_LEFT
62
7
6
CONTINUOUS
10
271.5564974017
20
228.7571364853
11
265.5564974017
21
228.7571364853
0
LINE
8
10000_FRONT
62
7
6
CONTINUOUS
10
137.2448623949
20
229.3498539218
11
147.6415100439
21
229.3498539218
0
LINE
8
11000_LEFT
62
7
6
CONTINUOUS
10
270.0064974017
20
234.7571364853
11
270.1564974017
21
234.7571364853
0
LINE
8
11000_LEFT
62
7
6
CONTINUOUS
10
270.1564974017
20
237.7571364853
11
270.0064974017
21
237.7571364853
0
LINE
8
11000_LEFT
62
7
6
CONTINUOUS
10
270.1564974017
20
232.2571364853
11
272.0564974017
21
232.0909080246
0
LINE
8
11000_LEFT
62
7
6
CONTINUOUS
10
272.0564974017
20
232.5071364853
11
270.4564974017
21
232.6471183469
0
LINE
8
11000_LEFT
62
7
6
CONTINUOUS
10
237.3811797588
20
227.7215074016
11
237.4564974017
21
227.7071364853
0
LINE
8
10000_FRONT
62
7
6
CONTINUOUS
10
114.7676843936
20
255.5562239276
11
114.5268014453
21
255.6030180976
0
LINE
8
10000_FRONT
62
7
6
CONTINUOUS
10
128.0372894157
20
255.5563133641
11
127.7968752206
21
255.6030180976
0
LINE
8
10000_FRONT
62
7
6
CONTINUOUS
10
115.8563059415
20
257.4462455146
11
115.6579767250
21
257.4892005799
0
LINE
8
10000_FRONT
62
7
6
CONTINUOUS
10
114.6988940577
20
256.0058318194
11
114.8589151966
21
255.9698209687
0
LINE
8
10000_FRONT
62
7
6
CONTINUOUS
10
127.9692157251
20
256.0054648352
11
128.1294907569
21
255.9694047220
0
LINE
8
10000_FRONT
62
7
6
CONTINUOUS
10
129.1600157333
20
257.4363952709
11
128.9987752583
21
257.4768527913
0
LINE
8
10000_FRONT
62
7
6
CONTINUOUS
10
143.9874069736
20
257.0496896754
11
144.1499069581
21
257.0071364853
0
LINE
8
10000_FRONT
62
7
6
CONTINUOUS
10
145.5149069116
20
257.0496896754
11
145.6774070356
21
257.0071364853
0
LINE
8
10000_FRONT
62
7
6
CONTINUOUS
10
144.5724069736
20
258.1135194513
11
144.4099069891
21
258.1560726377
0
LINE
8
10000_FRONT
62
7
6
CONTINUOUS
10
150.6561569736
20
254.6199024472
11
150.4957401846
21
254.6624556336
0
LINE
8
10000_FRONT
62
7
6
CONTINUOUS
10
152.0678237627
20
254.6199024472
11
151.9074069736
21
254.6624556336
0
LINE
8
10000_FRONT
62
7
6
CONTINUOUS
10
153.2301846544
20
254.4495058923
11
153.3903207141
21
254.4070271702
0
LINE
8
10000_FRONT
62
7
6
CONTINUOUS
10
149.5653235791
20
256.3645832989
11
149.4049069736
21
256.4071364853
0
LINE
8
10000_FRONT
62
7
6
CONTINUOUS
10
150.6561569736
20
256.1943705532
11
150.8165737627
21
256.1518173668
0
LINE
8
10000_FRONT
62
7
6
CONTINUOUS
10
153.7426198987
20
255.6389101210
11
153.5824838391
21
255.6813888394
0
LINE
8
10000_FRONT
62
7
6
CONTINUOUS
10
152.0678237627
20
256.1943705532
11
152.2282401846
21
256.1518173668
0
LINE
8
10000_FRONT
62
7
6
CONTINUOUS
10
114.5268014453
20
256.0551171758
11
114.6988940577
21
256.0058318194
0
LINE
8
10000_FRONT
62
7
6
CONTINUOUS
10
127.7968752206
20
256.0551171758
11
127.9692157251
21
256.0054648352
0
LINE
8
10000_FRONT
62
7
6
CONTINUOUS
10
144.1499069581
20
257.2624556336
11
144.0199069659
21
257.3050088200
0
LINE
8
10000_FRONT
62
7
6
CONTINUOUS
10
145.6774070356
20
257.2624556336
11
145.5474069736
21
257.3050088200
0
LINE
8
10000_FRONT
62
7
6
CONTINUOUS
10
144.0849069736
20
257.9433067057
11
144.2149069891
21
257.9007535192
0
LINE
8
10000_FRONT
62
7
6
CONTINUOUS
10
144.4099069891
20
257.9007535192
11
144.5399070046
21
257.8582003328
0
LINE
8
10000_FRONT
62
7
6
CONTINUOUS
10
145.9699070356
20
258.7518173668
11
146.0999069116
21
258.7092641804
0
LINE
8
10000_FRONT
62
7
6
CONTINUOUS
10
153.3149067257
20
257.2624556336
11
153.1849072216
21
257.3050088200
0
LINE
8
10000_FRONT
62
7
6
CONTINUOUS
10
153.6074067257
20
258.7518173668
11
153.7374069736
21
258.7092641804
0
LINE
8
10000_FRONT
62
7
6
CONTINUOUS
10
153.3903207141
20
254.6194207916
11
153.2622120862
21
254.6618995100
0
LINE
8
10000_FRONT
62
7
6
CONTINUOUS
10
153.5824838391
20
255.4689952477
11
153.7105924669
21
255.4265165294
0
LINE
8
10000_FRONT
62
7
6
CONTINUOUS
10
129.3305751515
20
257.3764474733
11
129.1600157333
21
257.4363952709
0
LINE
8
10000_FRONT
62
7
6
CONTINUOUS
10
156.9432788570
20
260.1097398379
11
156.9358444197
21
260.1126509714
0
LINE
8
11000_LEFT
62
7
6
CONTINUOUS
10
237.3108065919
20
227.7620740816
11
237.3811797588
21
227.7215074016
0
LINE
8
11000_LEFT
62
7
6
CONTINUOUS
10
237.2520094764
20
227.8195596466
11
237.3108065919
21
227.7620740816
0
LINE
8
11000_LEFT
62
7
6
CONTINUOUS
10
267.7902051398
20
246.4986443337
11
267.7651895177
21
246.5884571913
0
LINE
8
90000_FRAME
62
7
6
CONTINUOUS
10
300.4838472348
20
19.8332673383
11
300.4838472348
21
16.7436424342
0
LINE
8
90000_FRAME
62
7
6
CONTINUOUS
10
301.8622952689
20
21.4969115175
11
301.8622952689
21
16.7436424342
0
LINE
8
90000_FRAME
62
7
6
CONTINUOUS
10
302.9555471581
20
21.4969115175
11
302.9555471581
21
16.7436424342
0
LINE
8
90000_FRAME
62
7
6
CONTINUOUS
10
304.3339951922
20
20.6175567371
11
304.3339951922
21
19.5480711933
0
LINE
8
90000_FRAME
62
7
6
CONTINUOUS
10
304.3339951922
20
18.7637817946
11
304.3339951922
21
17.6467635600
0
LINE
8
90000_FRAME
62
7
6
CONTINUOUS
10
306.1877701347
20
19.5480711933
11
306.1877701347
21
18.7637817946
0
LINE
8
90000_FRAME
62
7
6
CONTINUOUS
10
306.4729662797
20
21.4969115175
11
306.4729662797
21
20.6175567371
0
LINE
8
90000_FRAME
62
7
6
CONTINUOUS
10
306.5204989705
20
17.6467635600
11
306.5204989705
21
16.7436424342
0
LINE
8
90000_FRAME
62
7
6
CONTINUOUS
10
307.3047883693
20
16.7436424342
11
307.3047883693
21
21.4969115175
0
LINE
8
90000_FRAME
62
7
6
CONTINUOUS
10
308.2554421859
20
16.7436424342
11
308.2554421859
21
19.7857346475
0
LINE
8
90000_FRAME
62
7
6
CONTINUOUS
10
310.5370113459
20
21.4969115175
11
310.5370113459
21
18.5498846858
0
LINE
8
90000_FRAME
62
7
6
CONTINUOUS
10
311.4876651625
20
21.4969115175
11
311.4876651625
21
16.7436424342
0
LINE
8
90000_FRAME
62
7
6
CONTINUOUS
10
312.2957209067
20
16.8387078159
11
312.2957209067
21
17.7893616325
0
LINE
8
11000_LEFT
62
7
6
CONTINUOUS
10
268.0730235368
20
250.7817586596
11
268.1216351046
21
250.7901714331
0
LINE
8
11000_LEFT
62
7
6
CONTINUOUS
10
272.0564974017
20
250.6598441701
11
268.1564974017
21
250.2658536633
0
LINE
8
11000_LEFT
62
7
6
CONTINUOUS
10
268.1216351046
20
250.7901714331
11
271.5564974017
21
251.1371722376
0
LINE
8
11000_LEFT
62
7
6
CONTINUOUS
10
321.6275971562
20
260.1097398379
11
321.5873589304
21
260.1071364853
0
LINE
8
11000_LEFT
62
7
6
CONTINUOUS
10
272.0564974017
20
239.5071364853
11
270.4564974017
21
239.4792083814
0
LINE
8
11000_LEFT
62
7
6
CONTINUOUS
10
272.0564974017
20
239.7658640177
11
270.1564974017
21
239.7326993944
0
LINE
8
10000_FRONT
62
7
6
CONTINUOUS
10
148.6903972274
20
252.0392510662
11
148.8449069736
21
252.0409037781
0
LINE
8
10000_FRONT
62
7
6
CONTINUOUS
10
156.9649069736
20
238.6071364853
11
157.0649069736
21
238.6071364853
0
LINE
8
10000_FRONT
62
7
6
CONTINUOUS
10
145.9949069736
20
243.9071364853
11
143.3949069736
21
243.9071364853
0
LINE
8
10000_FRONT
62
7
6
CONTINUOUS
10
143.3949069736
20
247.1071364853
11
145.9949069736
21
247.1071364853
0
LINE
8
11000_LEFT
62
7
6
CONTINUOUS
10
238.3354189975
20
249.6071364853
11
238.0564974017
21
249.6071364853
0
LINE
8
10000_FRONT
62
7
6
CONTINUOUS
10
121.0449069736
20
252.5071364853
11
147.8449069736
21
252.5071364853
0
LINE
8
10000_FRONT
62
7
6
CONTINUOUS
10
121.0449069736
20
253.0417174454
11
147.8449069736
21
253.0417174454
0
LINE
8
10000_FRONT
62
7
6
CONTINUOUS
10
120.1994164064
20
252.0392510681
11
120.0449069736
21
252.0409037773
0
LINE
8
10000_FRONT
62
7
6
CONTINUOUS
10
120.3388009539
20
252.0344547318
11
120.1994164064
21
252.0392510681
0
LINE
8
10000_FRONT
62
7
6
CONTINUOUS
10
128.5068736301
20
255.5197434889
11
128.2738052329
21
255.5287791659
0
LINE
8
10000_FRONT
62
7
6
CONTINUOUS
10
115.2366706467
20
255.5196364853
11
115.0044341273
21
255.5286593481
0
LINE
8
10000_FRONT
62
7
6
CONTINUOUS
10
120.4494165461
20
252.0269843015
11
120.3388009539
21
252.0344547318
0
LINE
8
10000_FRONT
62
7
6
CONTINUOUS
10
115.4054810055
20
257.8996364853
11
115.6149063772
21
257.8853169055
0
LINE
8
10000_FRONT
62
7
6
CONTINUOUS
10
115.6579767250
20
257.4892005799
11
115.4683407373
21
257.5037174338
0
LINE
8
10000_FRONT
62
7
6
CONTINUOUS
10
128.2781309698
20
255.9461664733
11
128.4155969480
21
255.9349524361
0
LINE
8
10000_FRONT
62
7
6
CONTINUOUS
10
115.0073395422
20
255.9464307973
11
115.1446507629
21
255.9350153070
0
LINE
8
10000_FRONT
62
7
6
CONTINUOUS
10
112.0630996971
20
260.1092926338
11
112.0316961140
21
260.1122227058
0
LINE
8
11000_LEFT
62
7
6
CONTINUOUS
10
271.5564974017
20
245.8771007330
11
268.1216351046
21
246.2241015374
0
LINE
8
11000_LEFT
62
7
6
CONTINUOUS
10
268.1564974017
20
246.7484193073
11
272.0564974017
21
246.3544288005
0
LINE
8
10000_FRONT
62
7
6
CONTINUOUS
10
112.0980831617
20
260.1053257365
11
112.0630996971
21
260.1092926338
0
LINE
8
10000_FRONT
62
7
6
CONTINUOUS
10
115.0044341273
20
255.5286593481
11
114.7676843936
21
255.5562239276
0
LINE
8
10000_FRONT
62
7
6
CONTINUOUS
10
128.2738052329
20
255.5287791659
11
128.0372894157
21
255.5563133641
0
LINE
8
10000_FRONT
62
7
6
CONTINUOUS
10
156.9358444197
20
260.1126509714
11
156.9223361137
21
260.1142961835
0
LINE
8
11000_LEFT
62
7
6
CONTINUOUS
10
270.0064974017
20
236.4071364853
11
270.4187164039
21
236.3563871578
0
LINE
8
10000_FRONT
62
7
6
CONTINUOUS
10
128.8673812254
20
257.8844984949
11
129.0671168888
21
257.8587137819
0
LINE
8
10000_FRONT
62
7
6
CONTINUOUS
10
112.1369094247
20
260.1003009796
11
112.0980831617
21
260.1053257365
0
LINE
8
10000_FRONT
62
7
6
CONTINUOUS
10
148.1043626603
20
253.0074448263
11
147.8449069736
21
253.0417174454
0
LINE
8
10000_FRONT
62
7
6
CONTINUOUS
10
120.5204356323
20
252.0175710694
11
120.4494165461
21
252.0269843015
0
LINE
8
10000_FRONT
62
7
6
CONTINUOUS
10
112.1820888402
20
260.0938307405
11
112.1369094247
21
260.1003009796
0
LINE
8
10000_FRONT
62
7
6
CONTINUOUS
10
128.9987752583
20
257.4768527913
11
128.8476167205
21
257.4987203180
0
LINE
8
10000_FRONT
62
7
6
CONTINUOUS
10
115.6149063772
20
257.8853169055
11
115.8334148974
21
257.8536282151
0
LINE
8
10000_FRONT
62
7
6
CONTINUOUS
10
112.2350683344
20
260.0855526582
11
112.1820888402
21
260.0938307405
0
LINE
8
10000_FRONT
62
7
6
CONTINUOUS
10
128.1294907569
20
255.9694047220
11
128.2781309698
21
255.9461664733
0
LINE
8
10000_FRONT
62
7
6
CONTINUOUS
10
114.8589151966
20
255.9698209687
11
115.0073395422
21
255.9464307973
0
LINE
8
10000_FRONT
62
7
6
CONTINUOUS
10
112.2964419480
20
260.0752294328
11
112.2350683344
21
260.0855526582
0
LINE
8
10000_FRONT
62
7
6
CONTINUOUS
10
129.2740466157
20
257.8210524827
11
129.3305751515
21
257.8112326685
0
LINE
8
10000_FRONT
62
7
6
CONTINUOUS
10
112.3663865471
20
260.0625781134
11
112.2964419480
21
260.0752294328
0
LINE
8
10000_FRONT
62
7
6
CONTINUOUS
10
129.0671168888
20
257.8587137819
11
129.2740466157
21
257.8210524827
0
LINE
8
10000_FRONT
62
7
6
CONTINUOUS
10
115.8334148974
20
257.8536282151
11
116.0605013762
21
257.8112326685
0
LINE
8
10000_FRONT
62
7
6
CONTINUOUS
10
112.4451132734
20
260.0473721429
11
112.3663865471
21
260.0625781134
0
LINE
8
10000_FRONT
62
7
6
CONTINUOUS
10
156.5448255076
20
260.5071364853
11
156.6965599352
21
260.4769368722
0
LINE
8
10000_FRONT
62
7
6
CONTINUOUS
10
150.4636569736
20
254.4496896754
11
150.6561569736
21
254.4071364853
0
LINE
8
10000_FRONT
62
7
6
CONTINUOUS
10
151.8753237627
20
254.4496896754
11
152.0678237627
21
254.4071364853
0
LINE
8
10000_FRONT
62
7
6
CONTINUOUS
10
150.8486569736
20
256.3645832989
11
150.6561569736
21
256.4071364853
0
LINE
8
10000_FRONT
62
7
6
CONTINUOUS
10
152.2603237627
20
256.3645832989
11
152.0678237627
21
256.4071364853
0
LINE
8
10000_FRONT
62
7
6
CONTINUOUS
10
144.5399070046
20
258.9645832989
11
144.3774069736
21
259.0071364853
0
LINE
8
10000_FRONT
62
7
6
CONTINUOUS
10
153.1524069736
20
257.0496896754
11
153.3149067257
21
257.0071364853
0
LINE
8
10000_FRONT
62
7
6
CONTINUOUS
10
146.1324069736
20
258.9645832989
11
145.9699070356
21
259.0071364853
0
LINE
8
10000_FRONT
62
7
6
CONTINUOUS
10
153.7699072216
20
258.9645832989
11
153.6074067257
21
259.0071364853
0
LINE
8
11000_LEFT
62
7
6
CONTINUOUS
10
267.8715924293
20
246.3600246322
11
267.8268679353
21
246.4225771312
0
LINE
8
11000_LEFT
62
7
6
CONTINUOUS
10
267.8268679353
20
246.4225771312
11
267.7902051398
21
246.4986443337
0
LINE
8
11000_LEFT
62
7
6
CONTINUOUS
10
324.0063032785
20
220.7967530797
11
324.0066270440
21
220.7773864183
0
LINE
8
11000_LEFT
62
7
6
CONTINUOUS
10
324.0158253630
20
220.2110323209
11
324.0160451982
21
220.1970916297
0
LINE
8
90000_FRAME
62
7
6
CONTINUOUS
10
315.6230092650
20
20.4987250100
11
315.6230092650
21
21.4493788266
0
LINE
8
11000_LEFT
62
7
6
CONTINUOUS
10
321.5873589304
20
160.5071364853
11
321.5873589304
21
160.9071364853
0
LINE
8
11000_LEFT
62
7
6
CONTINUOUS
10
321.5873589304
20
260.1071364853
11
321.5873589304
21
260.5071364853
0
LINE
8
90000_FRAME
62
7
6
CONTINUOUS
10
325.0000000000
20
10.0000000000
11
325.0000000000
21
28.0000000000
0
LINE
8
11000_LEFT
62
7
6
CONTINUOUS
10
324.0071477532
20
200.2681106355
11
324.0068848690
21
200.2523350190
0
LINE
8
11000_LEFT
62
7
6
CONTINUOUS
10
323.3767146184
20
180.8462955607
11
323.3737491257
21
180.7849429776
0
LINE
8
11000_LEFT
62
7
6
CONTINUOUS
10
323.3689483173
20
180.6858880518
11
323.3666586919
21
180.6387622520
0
LINE
8
10000_FRONT
62
7
6
CONTINUOUS
10
153.5824838391
20
254.4070271702
11
153.7426198987
21
254.4495058923
0
LINE
8
10000_FRONT
62
7
6
CONTINUOUS
10
152.2282401846
20
254.6624556336
11
152.0678237627
21
254.6199024472
0
LINE
8
10000_FRONT
62
7
6
CONTINUOUS
10
150.8165737627
20
254.6624556336
11
150.6561569736
21
254.6199024472
0
LINE
8
10000_FRONT
62
7
6
CONTINUOUS
10
149.4049069736
20
254.4071364853
11
149.5653235791
21
254.4496896754
0
LINE
8
10000_FRONT
62
7
6
CONTINUOUS
10
153.3903207141
20
255.6813888394
11
153.2301846544
21
255.6389101210
0
LINE
8
10000_FRONT
62
7
6
CONTINUOUS
10
151.9074069736
20
256.1518173668
11
152.0678237627
21
256.1943705532
0
LINE
8
10000_FRONT
62
7
6
CONTINUOUS
10
152.0678237627
20
254.4071364853
11
152.2603237627
21
254.4496896754
0
LINE
8
10000_FRONT
62
7
6
CONTINUOUS
10
150.6561569736
20
254.4071364853
11
150.8486569736
21
254.4496896754
0
LINE
8
10000_FRONT
62
7
6
CONTINUOUS
10
152.0678237627
20
256.4071364853
11
151.8753237627
21
256.3645832989
0
LINE
8
10000_FRONT
62
7
6
CONTINUOUS
10
150.6561569736
20
256.4071364853
11
150.4636569736
21
256.3645832989
0
LINE
8
10000_FRONT
62
7
6
CONTINUOUS
10
156.6712557568
20
260.0882010236
11
156.6056852786
21
260.0773682503
0
LINE
8
10000_FRONT
62
7
6
CONTINUOUS
10
156.7271030057
20
260.0966813592
11
156.6712557568
21
260.0882010236
0
LINE
8
10000_FRONT
62
7
6
CONTINUOUS
10
128.8389814832
20
255.5492883481
11
128.6810920617
21
255.5271580075
0
LINE
8
10000_FRONT
62
7
6
CONTINUOUS
10
156.7738003870
20
260.1030761931
11
156.7271030057
21
260.0966813592
0
LINE
8
10000_FRONT
62
7
6
CONTINUOUS
10
148.3693781783
20
252.0175710451
11
148.4403970359
21
252.0269842737
0
LINE
8
10000_FRONT
62
7
6
CONTINUOUS
10
121.0449069736
20
253.0417174454
11
120.7858095330
21
253.0075415177
0
LINE
8
10000_FRONT
62
7
6
CONTINUOUS
10
156.8126302552
20
260.1077706658
11
156.7738003870
21
260.1030761931
0
LINE
8
10000_FRONT
62
7
6
CONTINUOUS
10
128.5421168004
20
255.9349213769
11
128.6575641969
21
255.9468354863
0
LINE
8
10000_FRONT
62
7
6
CONTINUOUS
10
115.2710531691
20
255.9348772579
11
115.3864350233
21
255.9466648504
0
LINE
8
10000_FRONT
62
7
6
CONTINUOUS
10
156.8467292585
20
260.1112446068
11
156.8126302552
21
260.1077706658
0
LINE
8
10000_FRONT
62
7
6
CONTINUOUS
10
128.7074279618
20
257.5034280619
11
128.5785218188
21
257.4921248827
0
LINE
8
10000_FRONT
62
7
6
CONTINUOUS
10
115.4040505305
20
257.5021169313
11
115.3453185480
21
257.4971925597
0
LINE
8
10000_FRONT
62
7
6
CONTINUOUS
10
115.1518368832
20
257.8787038303
11
115.4054810055
21
257.8996364853
0
LINE
8
10000_FRONT
62
7
6
CONTINUOUS
10
156.8770657599
20
260.1135762307
11
156.8467292585
21
260.1112446068
0
LINE
8
10000_FRONT
62
7
6
CONTINUOUS
10
148.4403970359
20
252.0269842737
11
148.5510125361
21
252.0344547159
0
LINE
8
11000_LEFT
62
7
6
CONTINUOUS
10
321.6788428967
20
260.1125164594
11
321.6275971562
21
260.1097398379
0
LINE
8
10000_FRONT
62
7
6
CONTINUOUS
10
128.5017156923
20
257.8860756234
11
128.6757485930
21
257.8946364853
0
LINE
8
10000_FRONT
62
7
6
CONTINUOUS
10
115.4239458477
20
255.5282866956
11
115.2366706467
21
255.5196364853
0
LINE
8
10000_FRONT
62
7
6
CONTINUOUS
10
128.6810920617
20
255.5271580075
11
128.5068736301
21
255.5197434889
0
LINE
8
10000_FRONT
62
7
6
CONTINUOUS
10
156.9026209536
20
260.1146186632
11
156.8770657599
21
260.1135762307
0
LINE
8
10000_FRONT
62
7
6
CONTINUOUS
10
148.5510125361
20
252.0344547159
11
148.6903972274
21
252.0392510662
0
LINE
8
11000_LEFT
62
7
6
CONTINUOUS
10
321.7285290220
20
260.1141492580
11
321.6788428967
21
260.1125164594
0
LINE
8
10000_FRONT
62
7
6
CONTINUOUS
10
111.9823393576
20
260.1146652337
11
111.9652808442
21
260.1141492580
0
LINE
8
10000_FRONT
62
7
6
CONTINUOUS
10
115.4683407373
20
257.5037174338
11
115.4040505305
21
257.5021169313
0
LINE
8
11000_LEFT
62
7
6
CONTINUOUS
10
321.7771894434
20
260.1146652337
11
321.7285290220
21
260.1141492580
0
LINE
8
10000_FRONT
62
7
6
CONTINUOUS
10
153.3903207141
20
254.4070271702
11
153.5824838391
21
254.4070271702
0
LINE
8
10000_FRONT
62
7
6
CONTINUOUS
10
113.3449069736
20
254.4071364853
11
130.6449069736
21
254.4071364853
0
LINE
8
10000_FRONT
62
7
6
CONTINUOUS
10
147.0949069736
20
254.4071364853
11
147.2874069736
21
254.4071364853
0
LINE
8
10000_FRONT
62
7
6
CONTINUOUS
10
148.1857402763
20
254.4071364853
11
148.3782402763
21
254.4071364853
0
LINE
8
10000_FRONT
62
7
6
CONTINUOUS
10
148.6349069736
20
254.4071364853
11
149.4049069736
21
254.4071364853
0
LINE
8
10000_FRONT
62
7
6
CONTINUOUS
10
153.5824838391
20
254.6194207916
11
153.3903207141
21
254.6194207916
0
LINE
8
10000_FRONT
62
7
6
CONTINUOUS
10
149.4369903681
20
254.6624556336
11
148.8274069736
21
254.6624556336
0
LINE
8
10000_FRONT
62
7
6
CONTINUOUS
10
153.1020760266
20
254.9167718497
11
152.9099129016
21
254.9167718497
0
LINE
8
10000_FRONT
62
7
6
CONTINUOUS
10
152.9099129016
20
255.2990803743
11
153.1341030919
21
255.2990803743
0
LINE
8
10000_FRONT
62
7
6
CONTINUOUS
10
148.8274069736
20
255.3007535192
11
149.4369903681
21
255.3007535192
0
LINE
8
10000_FRONT
62
7
6
CONTINUOUS
10
153.3903207141
20
255.4689952477
11
153.5824838391
21
255.4689952477
0
LINE
8
10000_FRONT
62
7
6
CONTINUOUS
10
121.4148196765
20
255.5427424856
11
121.0185385030
21
255.5427424856
0
LINE
8
10000_FRONT
62
7
6
CONTINUOUS
10
149.4369903681
20
255.5560726377
11
148.8274069736
21
255.5560726377
0
LINE
8
10000_FRONT
62
7
6
CONTINUOUS
10
127.3429672584
20
255.5659999521
11
126.6230198098
21
255.5659999521
0
LINE
8
10000_FRONT
62
7
6
CONTINUOUS
10
125.8160506921
20
255.5659999521
11
125.3655667304
21
255.5659999521
0
LINE
8
10000_FRONT
62
7
6
CONTINUOUS
10
124.9448006477
20
255.5659999521
11
123.2785977855
21
255.5659999521
0
LINE
8
10000_FRONT
62
7
6
CONTINUOUS
10
122.6922515409
20
255.5659999521
11
122.0860718429
21
255.5659999521
0
LINE
8
10000_FRONT
62
7
6
CONTINUOUS
10
120.3601586866
20
255.5659999521
11
119.9097393271
21
255.5659999521
0
LINE
8
10000_FRONT
62
7
6
CONTINUOUS
10
119.4922680530
20
255.5659999521
11
117.8261297930
21
255.5659999521
0
LINE
8
10000_FRONT
62
7
6
CONTINUOUS
10
117.2397835484
20
255.5659999521
11
116.6004619584
21
255.5659999521
0
LINE
8
10000_FRONT
62
7
6
CONTINUOUS
10
153.5824838391
20
255.6813888394
11
153.3903207141
21
255.6813888394
0
LINE
8
10000_FRONT
62
7
6
CONTINUOUS
10
118.4422585188
20
256.0031755689
11
119.4922680530
21
256.0031755689
0
LINE
8
10000_FRONT
62
7
6
CONTINUOUS
10
123.8947911136
20
256.0031755689
11
124.9448006477
21
256.0031755689
0
LINE
8
10000_FRONT
62
7
6
CONTINUOUS
10
148.8274069736
20
256.1518173668
11
149.4369903681
21
256.1518173668
0
LINE
8
10000_FRONT
62
7
6
CONTINUOUS
10
153.0700489612
20
256.1911335785
11
153.9988371544
21
256.1911335785
0
LINE
8
10000_FRONT
62
7
6
CONTINUOUS
10
153.9988371544
20
256.4035271702
11
152.9099129016
21
256.4035271702
0
LINE
8
10000_FRONT
62
7
6
CONTINUOUS
10
149.4049069736
20
256.4071364853
11
148.6349069736
21
256.4071364853
0
LINE
8
10000_FRONT
62
7
6
CONTINUOUS
10
148.3782402763
20
256.4071364853
11
148.1857402763
21
256.4071364853
0
LINE
8
10000_FRONT
62
7
6
CONTINUOUS
10
147.2874069736
20
256.4071364853
11
147.0949069736
21
256.4071364853
0
LINE
8
10000_FRONT
62
7
6
CONTINUOUS
10
124.7858101029
20
256.5464308936
11
123.8947911136
21
256.5464308936
0
LINE
8
10000_FRONT
62
7
6
CONTINUOUS
10
119.3332775081
20
256.5464308936
11
118.4422585188
21
256.5464308936
0
LINE
8
10000_FRONT
62
7
6
CONTINUOUS
10
118.4422585188
20
256.9240254209
11
119.3332775081
21
256.9240254209
0
LINE
8
10000_FRONT
62
7
6
CONTINUOUS
10
123.8947911136
20
256.9240254209
11
124.7858101029
21
256.9240254209
0
LINE
8
10000_FRONT
62
7
6
CONTINUOUS
10
144.1499069581
20
257.0071364853
11
144.4099069891
21
257.0071364853
0
LINE
8
10000_FRONT
62
7
6
CONTINUOUS
10
145.6774070356
20
257.0071364853
11
145.9699070356
21
257.0071364853
0
LINE
8
10000_FRONT
62
7
6
CONTINUOUS
10
146.6849069116
20
257.0071364853
11
146.8799070976
21
257.0071364853
0
LINE
8
10000_FRONT
62
7
6
CONTINUOUS
10
147.7899069736
20
257.0071364853
11
147.9849069736
21
257.0071364853
0
LINE
8
10000_FRONT
62
7
6
CONTINUOUS
10
148.2449070976
20
257.0071364853
11
149.4149070976
21
257.0071364853
0
LINE
8
10000_FRONT
62
7
6
CONTINUOUS
10
149.6749068496
20
257.0071364853
11
149.8699068496
21
257.0071364853
0
LINE
8
10000_FRONT
62
7
6
CONTINUOUS
10
150.7799067257
20
257.0071364853
11
150.9749067257
21
257.0071364853
0
LINE
8
10000_FRONT
62
7
6
CONTINUOUS
10
151.2349072216
20
257.0071364853
11
151.4299072216
21
257.0071364853
0
LINE
8
10000_FRONT
62
7
6
CONTINUOUS
10
152.2424067257
20
257.0071364853
11
152.5349067257
21
257.0071364853
0
LINE
8
10000_FRONT
62
7
6
CONTINUOUS
10
153.3149067257
20
257.0071364853
11
153.6074067257
21
257.0071364853
0
LINE
8
10000_FRONT
62
7
6
CONTINUOUS
10
154.3224069736
20
257.0071364853
11
155.4924069736
21
257.0071364853
0
LINE
8
10000_FRONT
62
7
6
CONTINUOUS
10
155.4924069736
20
257.2624556336
11
154.5174069736
21
257.2624556336
0
LINE
8
10000_FRONT
62
7
6
CONTINUOUS
10
153.6074067257
20
257.2624556336
11
153.3149067257
21
257.2624556336
0
LINE
8
10000_FRONT
62
7
6
CONTINUOUS
10
149.4149070976
20
257.2624556336
11
148.4399070976
21
257.2624556336
0
LINE
8
10000_FRONT
62
7
6
CONTINUOUS
10
145.9699070356
20
257.2624556336
11
145.6774070356
21
257.2624556336
0
LINE
8
10000_FRONT
62
7
6
CONTINUOUS
10
144.4099069891
20
257.2624556336
11
144.1499069581
21
257.2624556336
0
LINE
8
10000_FRONT
62
7
6
CONTINUOUS
10
124.9183129750
20
257.4408576751
11
123.8947911136
21
257.4408576751
0
LINE
8
10000_FRONT
62
7
6
CONTINUOUS
10
119.4658449825
20
257.4408576751
11
118.4422585188
21
257.4408576751
0
LINE
8
10000_FRONT
62
7
6
CONTINUOUS
10
154.0624072216
20
257.5177747819
11
153.8674072216
21
257.5177747819
0
LINE
8
10000_FRONT
62
7
6
CONTINUOUS
10
146.4249069736
20
257.5177747819
11
146.2299069736
21
257.5177747819
0
LINE
8
10000_FRONT
62
7
6
CONTINUOUS
10
147.0099069736
20
257.5177747819
11
147.6599070976
21
257.5177747819
0
LINE
8
10000_FRONT
62
7
6
CONTINUOUS
10
149.9999067257
20
257.5177747819
11
150.6499072216
21
257.5177747819
0
LINE
8
10000_FRONT
62
7
6
CONTINUOUS
10
143.8899069736
20
257.5603279683
11
143.6949069736
21
257.5603279683
0
LINE
8
10000_FRONT
62
7
6
CONTINUOUS
10
150.6174069736
20
257.6879875276
11
150.0324069736
21
257.6879875276
0
LINE
8
10000_FRONT
62
7
6
CONTINUOUS
10
147.6274068496
20
257.6879875276
11
147.0424068496
21
257.6879875276
0
LINE
8
10000_FRONT
62
7
6
CONTINUOUS
10
116.6004619584
20
257.8549050300
11
117.2397835484
21
257.8549050300
0
LINE
8
10000_FRONT
62
7
6
CONTINUOUS
10
117.8261297930
20
257.8549050300
11
119.4658449825
21
257.8549050300
0
LINE
8
10000_FRONT
62
7
6
CONTINUOUS
10
119.9097393271
20
257.8549050300
11
120.7386737725
21
257.8549050300
0
LINE
8
10000_FRONT
62
7
6
CONTINUOUS
10
121.9049059428
20
257.8549050300
11
122.6922515409
21
257.8549050300
0
LINE
8
10000_FRONT
62
7
6
CONTINUOUS
10
123.2785977855
20
257.8549050300
11
124.9183129750
21
257.8549050300
0
LINE
8
10000_FRONT
62
7
6
CONTINUOUS
10
125.3655667304
20
257.8549050300
11
126.1065104730
21
257.8549050300
0
LINE
8
10000_FRONT
62
7
6
CONTINUOUS
10
126.8926125012
20
257.8549050300
11
127.3429672584
21
257.8549050300
0
LINE
8
10000_FRONT
62
7
6
CONTINUOUS
10
144.2149069891
20
257.9007535192
11
144.4099069891
21
257.9007535192
0
LINE
8
10000_FRONT
62
7
6
CONTINUOUS
10
154.5174069736
20
257.9433067057
11
155.3624067257
21
257.9433067057
0
LINE
8
10000_FRONT
62
7
6
CONTINUOUS
10
144.4099069891
20
258.1560726377
11
144.2149069891
21
258.1560726377
0
LINE
8
10000_FRONT
62
7
6
CONTINUOUS
10
155.3624067257
20
258.1986258242
11
154.5174069736
21
258.1986258242
0
LINE
8
10000_FRONT
62
7
6
CONTINUOUS
10
146.2299069736
20
258.4964981291
11
146.4249069736
21
258.4964981291
0
LINE
8
10000_FRONT
62
7
6
CONTINUOUS
10
153.8674072216
20
258.4964981291
11
154.0624072216
21
258.4964981291
0
LINE
8
10000_FRONT
62
7
6
CONTINUOUS
10
144.6049069426
20
258.5390514347
11
144.7999069426
21
258.5390514347
0
LINE
8
10000_FRONT
62
7
6
CONTINUOUS
10
144.2149069891
20
258.7518173668
11
144.4099069891
21
258.7518173668
0
LINE
8
10000_FRONT
62
7
6
CONTINUOUS
10
145.6774070356
20
258.7518173668
11
145.9699070356
21
258.7518173668
0
LINE
8
10000_FRONT
62
7
6
CONTINUOUS
10
153.3149067257
20
258.7518173668
11
153.6074067257
21
258.7518173668
0
LINE
8
10000_FRONT
62
7
6
CONTINUOUS
10
154.5174069736
20
258.7518173668
11
155.4924069736
21
258.7518173668
0
LINE
8
10000_FRONT
62
7
6
CONTINUOUS
10
155.4924069736
20
259.0071364853
11
154.3224069736
21
259.0071364853
0
LINE
8
10000_FRONT
62
7
6
CONTINUOUS
10
153.6074067257
20
259.0071364853
11
153.3149067257
21
259.0071364853
0
LINE
8
10000_FRONT
62
7
6
CONTINUOUS
10
152.5349067257
20
259.0071364853
11
152.3399067257
21
259.0071364853
0
LINE
8
10000_FRONT
62
7
6
CONTINUOUS
10
151.5274072216
20
259.0071364853
11
151.2349072216
21
259.0071364853
0
LINE
8
10000_FRONT
62
7
6
CONTINUOUS
10
150.4549072216
20
259.0071364853
11
150.1949067257
21
259.0071364853
0
LINE
8
10000_FRONT
62
7
6
CONTINUOUS
10
148.4399070976
20
259.0071364853
11
148.2449070976
21
259.0071364853
0
LINE
8
10000_FRONT
62
7
6
CONTINUOUS
10
147.4649070976
20
259.0071364853
11
147.2049069736
21
259.0071364853
0
LINE
8
10000_FRONT
62
7
6
CONTINUOUS
10
145.9699070356
20
259.0071364853
11
145.6774070356
21
259.0071364853
0
LINE
8
10000_FRONT
62
7
6
CONTINUOUS
10
144.3774069736
20
259.0071364853
11
144.2149069891
21
259.0071364853
0
LINE
8
10000_FRONT
62
7
6
CONTINUOUS
10
130.6449069736
20
259.0071364853
11
113.3449069736
21
259.0071364853
0
LINE
8
10000_FRONT
62
7
6
CONTINUOUS
10
112.4449069736
20
260.0474131330
11
156.4449069736
21
260.0474131330
0
LINE
8
11000_LEFT
62
7
6
CONTINUOUS
10
321.5873658497
20
260.1071364853
11
272.0564974017
21
260.1071364853
0
LINE
8
11000_LEFT
62
7
6
CONTINUOUS
10
271.5564974017
20
260.1071364853
11
240.2150287909
21
260.1071364853
0
LINE
8
11000_LEFT
62
7
6
CONTINUOUS
10
321.5954487393
20
260.5071364853
11
240.2150287909
21
260.5071364853
0
LINE
8
10000_FRONT
62
7
6
CONTINUOUS
10
112.3449069736
20
260.5071364853
11
156.5449069736
21
260.5071364853
0
LINE
8
10000_FRONT
62
7
6
CONTINUOUS
10
128.4155969480
20
255.9349524361
11
128.5421168004
21
255.9349213769
0
LINE
8
10000_FRONT
62
7
6
CONTINUOUS
10
115.1446507629
20
255.9350153070
11
115.2710531691
21
255.9348772579
0
LINE
8
11000_LEFT
62
7
6
CONTINUOUS
10
321.8244581373
20
260.1140278038
11
321.7771894434
21
260.1146652337
0
LINE
8
10000_FRONT
62
7
6
CONTINUOUS
10
156.9223361137
20
260.1142961835
11
156.9026209536
21
260.1146186632
0
LINE
8
10000_FRONT
62
7
6
CONTINUOUS
10
112.0045810226
20
260.1140278038
11
111.9823393576
21
260.1146652337
0
LINE
8
10000_FRONT
62
7
6
CONTINUOUS
10
128.8476167205
20
257.4987203180
11
128.7074279618
21
257.5034280619
0
LINE
8
11000_LEFT
62
7
6
CONTINUOUS
10
321.8693941951
20
260.1122227058
11
321.8244581373
21
260.1140278038
0
LINE
8
10000_FRONT
62
7
6
CONTINUOUS
10
128.6757485930
20
257.8946364853
11
128.8673812254
21
257.8844984949
0
LINE
8
10000_FRONT
62
7
6
CONTINUOUS
10
112.0316961140
20
260.1122227058
11
112.0045810226
21
260.1140278038
0
LINE
8
11000_LEFT
62
7
6
CONTINUOUS
10
321.9110768609
20
260.1092926338
11
321.8693941951
21
260.1122227058
0
LINE
8
11000_LEFT
62
7
6
CONTINUOUS
10
239.8189215634
20
260.1628057257
11
240.2150287909
21
260.1071364853
0
LINE
8
11000_LEFT
62
7
6
CONTINUOUS
10
268.1216351046
20
246.2241015374
11
268.0758272006
21
246.2318345898
0
LINE
8
11000_LEFT
62
7
6
CONTINUOUS
10
268.0758272006
20
246.2318345898
11
268.0266583323
21
246.2473539662
0
LINE
8
11000_LEFT
62
7
6
CONTINUOUS
10
268.0266583323
20
246.2473539662
11
267.9744719180
21
246.2729392042
0
LINE
8
11000_LEFT
62
7
6
CONTINUOUS
10
267.9744719180
20
246.2729392042
11
267.9216776633
21
246.3103089357
0
LINE
8
11000_LEFT
62
7
6
CONTINUOUS
10
267.9216776633
20
246.3103089357
11
267.8715924293
21
246.3600246322
0
LINE
8
11000_LEFT
62
7
6
CONTINUOUS
10
322.0938271608
20
260.0473721429
11
322.0938237081
21
260.0474153933
0
LINE
8
90000_FRAME
62
7
6
CONTINUOUS
10
300.1511183989
20
21.4969115175
11
298.9628011281
21
18.5974173767
0
LINE
8
90000_FRAME
62
7
6
CONTINUOUS
10
300.4838472348
20
19.8332673383
11
299.1529318914
21
16.6961097434
0
LINE
8
10000_FRONT
62
7
6
CONTINUOUS
10
115.7462003496
20
255.5976935808
11
115.5926239419
21
255.5541481884
0
LINE
8
10000_FRONT
62
7
6
CONTINUOUS
10
114.9266973821
20
257.8179039197
11
115.1518368832
21
257.8787038303
0
LINE
8
10000_FRONT
62
7
6
CONTINUOUS
10
128.6575641969
20
255.9468354863
11
128.7585614968
21
255.9740820740
0
LINE
8
10000_FRONT
62
7
6
CONTINUOUS
10
115.3864350233
20
255.9466648504
11
115.4873791493
21
255.9736335717
0
LINE
8
10000_FRONT
62
7
6
CONTINUOUS
10
150.4957401846
20
256.1518173668
11
150.6561569736
21
256.1943705532
0
LINE
8
10000_FRONT
62
7
6
CONTINUOUS
10
153.6074067257
20
257.0071364853
11
153.7699072216
21
257.0496896754
0
LINE
8
10000_FRONT
62
7
6
CONTINUOUS
10
145.9699070356
20
257.0071364853
11
146.1324069736
21
257.0496896754
0
LINE
8
10000_FRONT
62
7
6
CONTINUOUS
10
153.3149067257
20
259.0071364853
11
153.1524069736
21
258.9645832989
0
LINE
8
10000_FRONT
62
7
6
CONTINUOUS
10
144.4099069891
20
257.0071364853
11
144.5724069736
21
257.0496896754
0
LINE
8
10000_FRONT
62
7
6
CONTINUOUS
10
145.6774070356
20
259.0071364853
11
145.5149069116
21
258.9645832989
0
LINE
8
10000_FRONT
62
7
6
CONTINUOUS
10
128.9832075961
20
255.5862394266
11
128.8389814832
21
255.5492883481
0
LINE
8
10000_FRONT
62
7
6
CONTINUOUS
10
115.2908026640
20
257.4887911876
11
115.2395027040
21
257.4761248451
0
LINE
8
10000_FRONT
62
7
6
CONTINUOUS
10
112.1932540367
20
260.4769368679
11
112.3449883632
21
260.5071364853
0
LINE
8
10000_FRONT
62
7
6
CONTINUOUS
10
156.5303242608
20
260.0638635118
11
156.4446324893
21
260.0473586297
0
LINE
8
10000_FRONT
62
7
6
CONTINUOUS
10
156.6056852786
20
260.0773682503
11
156.5303242608
21
260.0638635118
0
LINE
8
10000_FRONT
62
7
6
CONTINUOUS
10
128.3450183367
20
257.8607339055
11
128.5017156923
21
257.8860756234
0
LINE
8
10000_FRONT
62
7
6
CONTINUOUS
10
115.3453185480
20
257.4971925597
11
115.2908026640
21
257.4887911876
0
LINE
8
10000_FRONT
62
7
6
CONTINUOUS
10
115.5926239419
20
255.5541481884
11
115.4239458477
21
255.5282866956
0
LINE
8
10000_FRONT
62
7
6
CONTINUOUS
10
111.9652808442
20
260.1141492580
11
111.9533728173
21
260.1125164594
0
LINE
8
11000_LEFT
62
7
6
CONTINUOUS
10
321.9488410207
20
260.1053257365
11
321.9110768609
21
260.1092926338
0
LINE
8
11000_LEFT
62
7
6
CONTINUOUS
10
321.9830756056
20
260.1003009796
11
321.9488410207
21
260.1053257365
0
LINE
8
11000_LEFT
62
7
6
CONTINUOUS
10
322.0151816958
20
260.0938307405
11
321.9830756056
21
260.1003009796
0
LINE
8
90000_FRAME
62
7
6
CONTINUOUS
10
284.8948224676
20
20.9161059766
11
285.1688882922
21
21.1901790542
0
LINE
8
90000_FRAME
62
7
6
CONTINUOUS
10
415.0000000000
20
292.0000000000
11
5.0000000000
21
292.0000000000
0
LINE
8
90000_FRAME
62
7
6
CONTINUOUS
10
420.0000000000
20
297.0000000000
11
0.0000000000
21
297.0000000000
0
LINE
8
11000_LEFT
62
7
6
CONTINUOUS
10
322.0444263602
20
260.0855526582
11
322.0151816958
21
260.0938307405
0
LINE
8
11000_LEFT
62
7
6
CONTINUOUS
10
322.0689512655
20
260.0752294328
11
322.0444263602
21
260.0855526582
0
LINE
8
90000_FRAME
62
7
6
CONTINUOUS
10
367.5000000000
20
10.0000000000
11
367.5000000000
21
16.0000000000
0
LINE
8
11000_LEFT
62
7
6
CONTINUOUS
10
322.0863739445
20
260.0625781134
11
322.0689512655
21
260.0752294328
0
LINE
8
11000_LEFT
62
7
6
CONTINUOUS
10
322.0938237081
20
260.0474153933
11
322.0863739445
21
260.0625781134
0
LINE
8
90000_FRAME
62
7
6
CONTINUOUS
10
410.0000000000
20
10.0000000000
11
410.0000000000
21
28.0000000000
0
LINE
8
90000_FRAME
62
7
6
CONTINUOUS
10
415.0000000000
20
5.0000000000
11
415.0000000000
21
292.0000000000
0
LINE
8
90000_FRAME
62
7
6
CONTINUOUS
10
420.0000000000
20
0.0000000000
11
420.0000000000
21
297.0000000000
0
ARC
8
90000_FRAME
62
7
6
CONTINUOUS
10
314.0003620317
20
18.7008009792
40
1.1116193606
50
277.7099956934
51
295.6884927746
0
ARC
8
90000_FRAME
62
7
6
CONTINUOUS
10
314.2846720145
20
17.9759752156
40
0.3401689265
50
305.5032212550
51
72.4652898523
0
ARC
8
90000_FRAME
62
7
6
CONTINUOUS
10
313.7186782063
20
21.3776821252
40
4.7567946411
50
252.5939200548
51
280.9816604256
0
ARC
8
90000_FRAME
62
7
6
CONTINUOUS
10
314.1735135694
20
18.7596683887
40
2.1007265953
50
282.4058358520
51
311.8644433928
0
ARC
8
90000_FRAME
62
7
6
CONTINUOUS
10
313.8999492223
20
20.3680101102
40
0.3029626476
50
154.4400348282
51
221.8201698801
0
ARC
8
90000_FRAME
62
7
6
CONTINUOUS
10
313.9791703737
20
20.2887889588
40
0.4103089737
50
102.8287828681
51
149.2259639003
0
ARC
8
90000_FRAME
62
7
6
CONTINUOUS
10
314.3961972093
20
18.5464536290
40
2.2018365570
50
84.0400061857
51
103.3427657871
0
ARC
8
90000_FRAME
62
7
6
CONTINUOUS
10
314.0552333846
20
16.1290897051
40
4.6423737365
50
70.2625858546
51
82.9524186380
0
ARC
8
90000_FRAME
62
7
6
CONTINUOUS
10
313.5412151824
20
20.8007125947
40
3.2587559909
50
247.5300206145
51
280.7579522143
0
ARC
8
90000_FRAME
62
7
6
CONTINUOUS
10
307.1562487104
20
2.5491926343
40
17.3316084133
50
65.3414674650
51
67.3997770736
0
ARC
8
90000_FRAME
62
7
6
CONTINUOUS
10
317.9521111158
20
28.3416189974
40
10.6291642039
50
242.8620101252
51
247.1042029186
0
ARC
8
90000_FRAME
62
7
6
CONTINUOUS
10
314.0972098893
20
20.8076875004
40
2.1662916292
50
227.3119280794
51
242.7040315235
0
ARC
8
90000_FRAME
62
7
6
CONTINUOUS
10
313.4931790796
20
20.1020098596
40
1.2385217340
50
194.7952194236
51
225.7176549047
0
ARC
8
90000_FRAME
62
7
6
CONTINUOUS
10
313.5553372138
20
20.1422298287
40
1.3090920729
50
164.1974860461
51
195.8025139539
0
ARC
8
90000_FRAME
62
7
6
CONTINUOUS
10
314.1123609345
20
19.2539626688
40
2.3669248153
50
86.2218022928
51
120.4272602309
0
ARC
8
90000_FRAME
62
7
6
CONTINUOUS
10
313.8435041519
20
12.5577948477
40
9.0679051661
50
78.6827049226
51
87.3147599624
0
ARC
8
90000_FRAME
62
7
6
CONTINUOUS
10
313.3874349735
20
20.2497375912
40
1.1197474440
50
142.8139179030
51
167.1522951417
0
ARC
8
90000_FRAME
62
7
6
CONTINUOUS
10
313.7327443151
20
19.9431558946
40
1.5805466845
50
121.2140948535
51
141.5254768286
0
ARC
8
90000_FRAME
62
7
6
CONTINUOUS
10
314.3099186807
20
20.7542132232
40
0.8661276052
50
222.7760387596
51
239.0362434679
0
ARC
8
90000_FRAME
62
7
6
CONTINUOUS
10
311.8032091024
20
13.4239410246
40
6.8587735763
50
59.9020272560
51
68.2036481279
0
ARC
8
90000_FRAME
62
7
6
CONTINUOUS
10
315.2117035963
20
22.3498275319
40
2.6987410171
50
240.0481997804
51
251.3779673737
0
ARC
8
90000_FRAME
62
7
6
CONTINUOUS
10
314.5462464295
20
18.1929289165
40
1.4334474881
50
315.8904553224
51
333.5229264373
0
ARC
8
90000_FRAME
62
7
6
CONTINUOUS
10
314.5508846732
20
18.1395217664
40
1.4062287119
50
335.3867972702
51
24.3915119402
0
ARC
8
90000_FRAME
62
7
6
CONTINUOUS
10
314.4786797697
20
18.0616650746
40
1.5047025148
50
25.9562916605
51
59.4834829668
0
ARC
8
90000_FRAME
62
7
6
CONTINUOUS
10
286.4076350033
20
18.7008009792
40
1.1116193606
50
277.7099956934
51
295.6884927746
0
ARC
8
90000_FRAME
62
7
6
CONTINUOUS
10
286.6919449860
20
17.9759752156
40
0.3401689265
50
305.5032212556
51
72.4652898515
0
ARC
8
90000_FRAME
62
7
6
CONTINUOUS
10
286.1259511779
20
21.3776821252
40
4.7567946411
50
252.5939200545
51
280.9816604253
0
ARC
8
90000_FRAME
62
7
6
CONTINUOUS
10
286.5807865410
20
18.7596683887
40
2.1007265953
50
282.4058358513
51
311.8644433923
0
ARC
8
90000_FRAME
62
7
6
CONTINUOUS
10
286.3072221939
20
20.3680101102
40
0.3029626476
50
154.4400348282
51
221.8201698801
0
ARC
8
90000_FRAME
62
7
6
CONTINUOUS
10
286.3864433453
20
20.2887889588
40
0.4103089737
50
102.8287828727
51
149.2259639027
0
ARC
8
90000_FRAME
62
7
6
CONTINUOUS
10
286.8034701809
20
18.5464536290
40
2.2018365570
50
84.0400061859
51
103.3427657872
0
ARC
8
90000_FRAME
62
7
6
CONTINUOUS
10
286.4625063562
20
16.1290897051
40
4.6423737365
50
70.2625858546
51
82.9524186379
0
ARC
8
90000_FRAME
62
7
6
CONTINUOUS
10
285.9484881540
20
20.8007125947
40
3.2587559909
50
247.5300206148
51
280.7579522145
0
ARC
8
90000_FRAME
62
7
6
CONTINUOUS
10
279.5635216820
20
2.5491926343
40
17.3316084133
50
65.3414674650
51
67.3997770736
0
ARC
8
90000_FRAME
62
7
6
CONTINUOUS
10
290.3593840874
20
28.3416189974
40
10.6291642039
50
242.8620101252
51
247.1042029185
0
ARC
8
90000_FRAME
62
7
6
CONTINUOUS
10
286.5044828608
20
20.8076875004
40
2.1662916292
50
227.3119280794
51
242.7040315235
0
ARC
8
90000_FRAME
62
7
6
CONTINUOUS
10
285.9004520512
20
20.1020098596
40
1.2385217340
50
194.7952194234
51
225.7176549042
0
ARC
8
90000_FRAME
62
7
6
CONTINUOUS
10
286.5196339060
20
19.2539626688
40
2.3669248153
50
86.2218022928
51
120.4272602309
0
ARC
8
90000_FRAME
62
7
6
CONTINUOUS
10
286.2507771235
20
12.5577948477
40
9.0679051661
50
78.6827049226
51
87.3147599624
0
ARC
8
90000_FRAME
62
7
6
CONTINUOUS
10
286.1400172867
20
19.9431558946
40
1.5805466846
50
121.2140948541
51
141.5254768290
0
ARC
8
90000_FRAME
62
7
6
CONTINUOUS
10
286.7171916523
20
20.7542132232
40
0.8661276052
50
222.7760387596
51
239.0362434679
0
ARC
8
90000_FRAME
62
7
6
CONTINUOUS
10
284.2104820740
20
13.4239410246
40
6.8587735763
50
59.9020272562
51
68.2036481282
0
ARC
8
90000_FRAME
62
7
6
CONTINUOUS
10
287.6189765678
20
22.3498275319
40
2.6987410171
50
240.0481997804
51
251.3779673734
0
ARC
8
90000_FRAME
62
7
6
CONTINUOUS
10
286.9535194010
20
18.1929289165
40
1.4334474881
50
315.8904553226
51
333.5229264375
0
ARC
8
90000_FRAME
62
7
6
CONTINUOUS
10
286.9581576447
20
18.1395217664
40
1.4062287119
50
335.3867972703
51
24.3915119403
0
ARC
8
90000_FRAME
62
7
6
CONTINUOUS
10
286.8859527412
20
18.0616650746
40
1.5047025147
50
25.9562916611
51
59.4834829676
0
ARC
8
90000_FRAME
62
7
6
CONTINUOUS
10
285.9626101853
20
20.1422298287
40
1.3090920729
50
164.1974860461
51
195.8025139539
0
ARC
8
90000_FRAME
62
7
6
CONTINUOUS
10
285.7947079451
20
20.2497375912
40
1.1197474440
50
142.8139179030
51
167.1522951417
0
CIRCLE
8
90000_FRAME
62
7
6
CONTINUOUS
10
256.0286469120
20
19.8724222109
40
4.9999998979
0
CIRCLE
8
90000_FRAME
62
7
6
CONTINUOUS
10
256.0286469120
20
19.8724222109
40
2.4999999489
0
CIRCLE
8
10000_FRONT
62
7
6
CONTINUOUS
10
144.6949069736
20
245.5071364853
40
0.5500000000
0
CIRCLE
8
10000_FRONT
62
7
6
CONTINUOUS
10
144.6949069736
20
168.5071364853
40
0.5500000000
0
CIRCLE
8
10000_FRONT
62
7
6
CONTINUOUS
10
142.4049069736
20
222.1571364853
40
1.2500000000
0
CIRCLE
8
10000_FRONT
62
7
6
CONTINUOUS
10
138.9074069736
20
165.4571364853
40
0.6000000000
0
CIRCLE
8
10000_FRONT
62
7
6
CONTINUOUS
10
138.9074069736
20
167.3571364853
40
0.6000000000
0
CIRCLE
8
10000_FRONT
62
7
6
CONTINUOUS
10
138.9074069736
20
169.2571364853
40
0.6000000000
0
ARC
8
10000_FRONT
62
7
6
CONTINUOUS
10
156.5449069736
20
160.9071364853
40
0.4000000000
50
270.0000000000
51
360.0000000000
0
ARC
8
10000_FRONT
62
7
6
CONTINUOUS
10
112.3449069736
20
160.9071364853
40
0.4000000000
50
180.0000000000
51
270.0000000000
0
ARC
8
10000_FRONT
62
7
6
CONTINUOUS
10
112.3449069736
20
260.1071364853
40
0.4000000000
50
90.0000000000
51
180.0000000000
0
ARC
8
10000_FRONT
62
7
6
CONTINUOUS
10
156.5449069736
20
260.1071364853
40
0.4000000000
50
0.0000000000
51
90.0000000000
0
ARC
8
10000_FRONT
62
7
6
CONTINUOUS
10
121.0449069736
20
252.0071364853
40
0.5000000000
50
90.0109644862
51
179.9777625278
0
ARC
8
10000_FRONT
62
7
6
CONTINUOUS
10
121.0449069736
20
177.0071364853
40
0.5000000000
50
180.0246511646
51
269.9917184350
0
ARC
8
10000_FRONT
62
7
6
CONTINUOUS
10
147.8449069736
20
177.0071364853
40
0.5000000000
50
270.0110995845
51
359.9778194635
0
ARC
8
10000_FRONT
62
7
6
CONTINUOUS
10
147.8449069736
20
252.0071364853
40
0.5000000000
50
0.0246706345
51
89.9918853434
0
ARC
8
11000_LEFT
62
7
6
CONTINUOUS
10
238.0564974017
20
248.6071364853
40
1.0000000000
50
90.0000000000
51
180.0000000000
0
ARC
8
11000_LEFT
62
7
6
CONTINUOUS
10
239.1064974017
20
191.6647227066
40
2.0000000000
50
120.0000000000
51
180.0000000000
0
ARC
8
11000_LEFT
62
7
6
CONTINUOUS
10
270.4064974017
20
236.2571364853
40
0.1000000000
50
277.0185118660
51
82.9814881340
0
ARC
8
11000_LEFT
62
7
6
CONTINUOUS
10
270.4064974017
20
184.7571364853
40
0.1000000000
50
277.0185118659
51
82.9814881340
0
ARC
8
11000_LEFT
62
7
6
CONTINUOUS
10
240.2150287909
20
260.1071364853
40
0.4000000000
50
90.0000000000
51
172.0000000000
0
ARC
8
11000_LEFT
62
7
6
CONTINUOUS
10
237.4564974017
20
225.4071364853
40
0.4000000000
50
180.0000000000
51
270.0000000000
0
ARC
8
11000_LEFT
62
7
6
CONTINUOUS
10
242.2564974757
20
194.1749563985
40
0.2000000000
50
179.9999962631
51
259.9999784802
0
ARC
8
11000_LEFT
62
7
6
CONTINUOUS
10
237.4564974017
20
160.9071364853
40
0.4000000000
50
180.0000000000
51
270.0000000000
0
ARC
8
11000_LEFT
62
7
6
CONTINUOUS
10
237.4564974017
20
191.2898617293
40
0.4000000000
50
100.0000000000
51
180.0000000000
0
ARC
8
11000_LEFT
62
7
6
CONTINUOUS
10
321.5954487393
20
260.0071364853
40
0.5000000000
50
4.5888953590
51
89.9946854532
0
ARC
8
11000_LEFT
62
7
6
CONTINUOUS
10
321.5954487393
20
161.0071364853
40
0.5000000000
50
270.0475722398
51
355.6343953427
0
ARC
8
11000_LEFT
62
7
6
CONTINUOUS
10
-290.9076124775
20
210.5071364853
40
615.0000000000
50
355.3787213117
51
4.6203698692
0
ARC
8
11000_LEFT
62
7
6
CONTINUOUS
10
-290.9076124775
20
210.5071364853
40
614.5000000000
50
355.3702757583
51
4.6297242451
0
ARC
8
13000_TOP
62
7
6
CONTINUOUS
10
141.6449069736
20
119.2431798394
40
0.2000000000
50
0.0000000000
51
60.0000000000
0
ARC
8
13000_TOP
62
7
6
CONTINUOUS
10
127.2449069736
20
119.2431798394
40
0.2000000000
50
90.0000000000
51
180.0000000000
0
ARC
8
13000_TOP
62
7
6
CONTINUOUS
10
128.2699069736
20
119.6431798394
40
0.2000000000
50
330.0000000000
51
360.0000000000
0
ARC
8
13000_TOP
62
7
6
CONTINUOUS
10
140.6199069736
20
119.6431798394
40
0.2000000000
50
180.0000000000
51
210.0000000000
0
ARC
8
13000_TOP
62
7
6
CONTINUOUS
10
117.1449069736
20
110.6431798394
40
0.2000000000
50
89.9999988025
51
179.9999999452
0
ARC
8
13000_TOP
62
7
6
CONTINUOUS
10
151.7449069736
20
110.6431798394
40
0.2000000000
50
0.0000000000
51
90.0000000000
0
ARC
8
13000_TOP
62
7
6
CONTINUOUS
10
112.3449069736
20
121.7431798394
40
0.4000000000
50
93.6130604841
51
172.0953164986
0
ARC
8
13000_TOP
62
7
6
CONTINUOUS
10
128.0449069736
20
121.7431798394
40
0.4000000000
50
0.0000000001
51
90.0000000000
0
ARC
8
13000_TOP
62
7
6
CONTINUOUS
10
140.8449069736
20
121.7431798394
40
0.4000000000
50
90.0000000000
51
180.0000000000
0
ARC
8
13000_TOP
62
7
6
CONTINUOUS
10
156.5449069736
20
121.7431798394
40
0.4000000000
50
37.1146641807
51
90.0000000000
0
ARC
8
13000_TOP
62
7
6
CONTINUOUS
10
156.5449069736
20
121.7431798394
40
0.4000000000
50
359.9999998398
51
35.9540542134
0
ARC
8
13000_TOP
62
7
6
CONTINUOUS
10
127.3949069736
20
112.8431798394
40
0.7999879797
50
180.0000000000
51
270.0000000000
0
ARC
8
13000_TOP
62
7
6
CONTINUOUS
10
141.4949069736
20
112.8431798394
40
0.7999879344
50
270.0000000000
51
360.0000000000
0
ARC
8
13000_TOP
62
7
6
CONTINUOUS
10
151.7449069736
20
110.6431798394
40
0.3999895010
50
0.0000000000
51
90.0000000000
0
ARC
8
13000_TOP
62
7
6
CONTINUOUS
10
117.1449069736
20
110.6431798394
40
0.3999894531
50
90.0000000000
51
180.0000000000
0
ARC
8
13000_TOP
62
7
6
CONTINUOUS
10
156.4449069736
20
35.6072897186
40
0.5000000000
50
270.0000000000
51
360.0000000000
0
ARC
8
13000_TOP
62
7
6
CONTINUOUS
10
112.4449069736
20
35.6072897186
40
0.5000000000
50
180.0000000000
51
270.0000000000
0
ARC
8
13000_TOP
62
7
6
CONTINUOUS
10
120.0449069736
20
35.6072897186
40
0.5000000000
50
270.0000000000
51
360.0000000000
0
ARC
8
13000_TOP
62
7
6
CONTINUOUS
10
148.8449069736
20
35.6072897186
40
0.5000000000
50
180.0000000000
51
270.0000000000
0
ENDSEC
0
EOF
