  0
SECTION
  2
HEADER
  9
$ACADVER
  1
AC1015
  9
$ACADMAINTVER
 70
     6
  9
$DWGCODEPAGE
  3
ANSI_1252
  9
$INSBASE
 10
0.0
 20
0.0
 30
0.0
  9
$EXTMIN
 10
-264.999999999999
 20
2.6500001552441
 30
0.0
  9
$EXTMAX
 10
31.99999999999905
 20
212.6500001552441
 30
0.0
  9
$LIMMIN
 10
0.0
 20
0.0
  9
$LIMMAX
 10
12.0
 20
9.0
  9
$ORTHOMODE
 70
     0
  9
$REGENMODE
 70
     1
  9
$FILLMODE
 70
     1
  9
$QTEXTMODE
 70
     0
  9
$MIRRTEXT
 70
     1
  9
$LTSCALE
 40
1.0
  9
$ATTMODE
 70
     1
  9
$TEXTSIZE
 40
0.2
  9
$TRACEWID
 40
0.05
  9
$TEXTSTYLE
  7
Standard
  9
$CLAYER
  8
0
  9
$CELTYPE
  6
ByLayer
  9
$CECOLOR
 62
   256
  9
$CELTSCALE
 40
1.0
  9
$DISPSILH
 70
     0
  9
$DIMSCALE
 40
1.0
  9
$DIMASZ
 40
0.18
  9
$DIMEXO
 40
0.0625
  9
$DIMDLI
 40
0.38
  9
$DIMRND
 40
0.0
  9
$DIMDLE
 40
0.0
  9
$DIMEXE
 40
0.18
  9
$DIMTP
 40
0.0
  9
$DIMTM
 40
0.0
  9
$DIMTXT
 40
0.18
  9
$DIMCEN
 40
0.09
  9
$DIMTSZ
 40
0.0
  9
$DIMTOL
 70
     0
  9
$DIMLIM
 70
     0
  9
$DIMTIH
 70
     1
  9
$DIMTOH
 70
     1
  9
$DIMSE1
 70
     0
  9
$DIMSE2
 70
     0
  9
$DIMTAD
 70
     0
  9
$DIMZIN
 70
     0
  9
$DIMBLK
  1

  9
$DIMASO
 70
     1
  9
$DIMSHO
 70
     1
  9
$DIMPOST
  1

  9
$DIMAPOST
  1

  9
$DIMALT
 70
     0
  9
$DIMALTD
 70
     2
  9
$DIMALTF
 40
25.4
  9
$DIMLFAC
 40
1.0
  9
$DIMTOFL
 70
     0
  9
$DIMTVP
 40
0.0
  9
$DIMTIX
 70
     0
  9
$DIMSOXD
 70
     0
  9
$DIMSAH
 70
     0
  9
$DIMBLK1
  1

  9
$DIMBLK2
  1

  9
$DIMSTYLE
  2
Standard
  9
$DIMCLRD
 70
     0
  9
$DIMCLRE
 70
     0
  9
$DIMCLRT
 70
     0
  9
$DIMTFAC
 40
1.0
  9
$DIMGAP
 40
0.09
  9
$DIMJUST
 70
     0
  9
$DIMSD1
 70
     0
  9
$DIMSD2
 70
     0
  9
$DIMTOLJ
 70
     1
  9
$DIMTZIN
 70
     0
  9
$DIMALTZ
 70
     0
  9
$DIMALTTZ
 70
     0
  9
$DIMUPT
 70
     0
  9
$DIMDEC
 70
     4
  9
$DIMTDEC
 70
     4
  9
$DIMALTU
 70
     2
  9
$DIMALTTD
 70
     2
  9
$DIMTXSTY
  7
Standard
  9
$DIMAUNIT
 70
     0
  9
$DIMADEC
 70
     0
  9
$DIMALTRND
 40
0.0
  9
$DIMAZIN
 70
     0
  9
$DIMDSEP
 70
    46
  9
$DIMATFIT
 70
     3
  9
$DIMFRAC
 70
     0
  9
$DIMLDRBLK
  1

  9
$DIMLUNIT
 70
     2
  9
$DIMLWD
 70
    -2
  9
$DIMLWE
 70
    -2
  9
$DIMTMOVE
 70
     0
  9
$LUNITS
 70
     2
  9
$LUPREC
 70
     4
  9
$SKETCHINC
 40
0.1
  9
$FILLETRAD
 40
0.5
  9
$AUNITS
 70
     0
  9
$AUPREC
 70
     0
  9
$MENU
  1
.
  9
$ELEVATION
 40
0.0
  9
$PELEVATION
 40
0.0
  9
$THICKNESS
 40
0.0
  9
$LIMCHECK
 70
     0
  9
$CHAMFERA
 40
0.5
  9
$CHAMFERB
 40
0.5
  9
$CHAMFERC
 40
1.0
  9
$CHAMFERD
 40
0.0
  9
$SKPOLY
 70
     0
  9
$TDCREATE
 40
2455539.580981192
  9
$TDUCREATE
 40
2455539.539314526
  9
$TDUPDATE
 40
2455539.580981204
  9
$TDUUPDATE
 40
2455539.539314537
  9
$TDINDWG
 40
0.0000000116
  9
$TDUSRTIMER
 40
0.0000000116
  9
$USRTIMER
 70
     1
  9
$ANGBASE
 50
0.0
  9
$ANGDIR
 70
     0
  9
$PDMODE
 70
     0
  9
$PDSIZE
 40
0.0
  9
$PLINEWID
 40
0.0
  9
$SPLFRAME
 70
     0
  9
$SPLINETYPE
 70
     6
  9
$SPLINESEGS
 70
     8
  9
$HANDSEED
  5
3A3
  9
$SURFTAB1
 70
     6
  9
$SURFTAB2
 70
     6
  9
$SURFTYPE
 70
     6
  9
$SURFU
 70
     6
  9
$SURFV
 70
     6
  9
$UCSBASE
  2

  9
$UCSNAME
  2

  9
$UCSORG
 10
0.0
 20
0.0
 30
0.0
  9
$UCSXDIR
 10
1.0
 20
0.0
 30
0.0
  9
$UCSYDIR
 10
0.0
 20
1.0
 30
0.0
  9
$UCSORTHOREF
  2

  9
$UCSORTHOVIEW
 70
     0
  9
$UCSORGTOP
 10
0.0
 20
0.0
 30
0.0
  9
$UCSORGBOTTOM
 10
0.0
 20
0.0
 30
0.0
  9
$UCSORGLEFT
 10
0.0
 20
0.0
 30
0.0
  9
$UCSORGRIGHT
 10
0.0
 20
0.0
 30
0.0
  9
$UCSORGFRONT
 10
0.0
 20
0.0
 30
0.0
  9
$UCSORGBACK
 10
0.0
 20
0.0
 30
0.0
  9
$PUCSBASE
  2

  9
$PUCSNAME
  2

  9
$PUCSORG
 10
0.0
 20
0.0
 30
0.0
  9
$PUCSXDIR
 10
1.0
 20
0.0
 30
0.0
  9
$PUCSYDIR
 10
0.0
 20
1.0
 30
0.0
  9
$PUCSORTHOREF
  2

  9
$PUCSORTHOVIEW
 70
     0
  9
$PUCSORGTOP
 10
0.0
 20
0.0
 30
0.0
  9
$PUCSORGBOTTOM
 10
0.0
 20
0.0
 30
0.0
  9
$PUCSORGLEFT
 10
0.0
 20
0.0
 30
0.0
  9
$PUCSORGRIGHT
 10
0.0
 20
0.0
 30
0.0
  9
$PUCSORGFRONT
 10
0.0
 20
0.0
 30
0.0
  9
$PUCSORGBACK
 10
0.0
 20
0.0
 30
0.0
  9
$USERI1
 70
     0
  9
$USERI2
 70
     0
  9
$USERI3
 70
     0
  9
$USERI4
 70
     0
  9
$USERI5
 70
     0
  9
$USERR1
 40
16.0
  9
$USERR2
 40
0.0
  9
$USERR3
 40
0.0
  9
$USERR4
 40
0.0
  9
$USERR5
 40
0.0
  9
$WORLDVIEW
 70
     1
  9
$SHADEDGE
 70
     3
  9
$SHADEDIF
 70
    70
  9
$TILEMODE
 70
     1
  9
$MAXACTVP
 70
    64
  9
$PINSBASE
 10
0.0
 20
0.0
 30
0.0
  9
$PLIMCHECK
 70
     0
  9
$PEXTMIN
 10
1.00000000000000E+20
 20
1.00000000000000E+20
 30
1.00000000000000E+20
  9
$PEXTMAX
 10
-1.00000000000000E+20
 20
-1.00000000000000E+20
 30
-1.00000000000000E+20
  9
$PLIMMIN
 10
0.0
 20
0.0
  9
$PLIMMAX
 10
12.0
 20
9.0
  9
$UNITMODE
 70
     0
  9
$VISRETAIN
 70
     1
  9
$PLINEGEN
 70
     0
  9
$PSLTSCALE
 70
     1
  9
$TREEDEPTH
 70
  3020
  9
$CMLSTYLE
  2
Standard
  9
$CMLJUST
 70
     0
  9
$CMLSCALE
 40
1.0
  9
$PROXYGRAPHICS
 70
     1
  9
$MEASUREMENT
 70
     1
  9
$CELWEIGHT
370
    -1
  9
$ENDCAPS
280
     0
  9
$JOINSTYLE
280
     0
  9
$LWDISPLAY
290
     0
  9
$INSUNITS
 70
     1
  9
$HYPERLINKBASE
  1

  9
$STYLESHEET
  1

  9
$XEDIT
290
     1
  9
$CEPSNTYPE
380
     0
  9
$PSTYLEMODE
290
     1
  9
$FINGERPRINTGUID
  2
{BB28ECC0-F743-4BC1-BEFD-180123EB9C01}
  9
$VERSIONGUID
  2
{FAEB1C32-E019-11D5-929B-00C0DF256EC4}
  9
$EXTNAMES
290
     1
  9
$PSVPSCALE
 40
0.0
  9
$OLESTARTUP
290
     0
  0
ENDSEC
  0
SECTION
  2
CLASSES
  0
CLASS
  1
ACDBDICTIONARYWDFLT
  2
AcDbDictionaryWithDefault
  3
ObjectDBX Classes
 90
        0
280
     0
281
     0
  0
CLASS
  1
VISUALSTYLE
  2
AcDbVisualStyle
  3
ObjectDBX Classes
 90
     4095
280
     0
281
     0
  0
CLASS
  1

  2
exOdDbCircle
  3

 90
        0
280
     0
281
     1
  0
CLASS
  1
ACDBPLACEHOLDER
  2
AcDbPlaceHolder
  3
ObjectDBX Classes
 90
        0
280
     0
281
     0
  0
CLASS
  1
LAYOUT
  2
AcDbLayout
  3
ObjectDBX Classes
 90
        0
280
     0
281
     0
  0
ENDSEC
  0
SECTION
  2
TABLES
  0
TABLE
  2
VPORT
  5
8
330
0
100
AcDbSymbolTable
 70
     1
  0
VPORT
  5
29
330
8
100
AcDbSymbolTableRecord
100
AcDbViewportTableRecord
  2
*Active
 70
     0
 10
0.0
 20
0.0
 11
1.0
 21
1.0
 12
-116.5
 22
107.6500001552441
 13
0.0
 23
0.0
 14
0.5
 24
0.5
 15
0.5
 25
0.5
 16
0.0
 26
0.0
 36
1.0
 17
0.0
 27
0.0
 37
0.0
 40
231.0
 41
1.60267857142857
 42
50.0
 43
0.0
 44
0.0
 50
0.0
 51
0.0
 71
     0
 72
   100
 73
     1
 74
     3
 75
     0
 76
     0
 77
     0
 78
     0
281
     0
 65
     1
110
0.0
120
0.0
130
0.0
111
1.0
121
0.0
131
0.0
112
0.0
122
1.0
132
0.0
 79
     0
146
0.0
  0
ENDTAB
  0
TABLE
  2
LTYPE
  5
5
330
0
100
AcDbSymbolTable
 70
     8
  0
LTYPE
  5
14
330
5
100
AcDbSymbolTableRecord
100
AcDbLinetypeTableRecord
  2
ByBlock
 70
     0
  3

 72
    65
 73
     0
 40
0.0
  0
LTYPE
  5
15
330
5
100
AcDbSymbolTableRecord
100
AcDbLinetypeTableRecord
  2
ByLayer
 70
     0
  3

 72
    65
 73
     0
 40
0.0
  0
LTYPE
  5
16
330
5
100
AcDbSymbolTableRecord
100
AcDbLinetypeTableRecord
  2
Continuous
 70
     0
  3
Solid line
 72
    65
 73
     0
 40
0.0
  0
LTYPE
  5
3B
330
5
100
AcDbSymbolTableRecord
100
AcDbLinetypeTableRecord
  2
DASHED
 70
     0
  3
Dashed
 72
    65
 73
     2
 40
15.0
 49
7.0
 74
     0
 49
-8.0
 74
     0
  0
LTYPE
  5
3C
330
5
100
AcDbSymbolTableRecord
100
AcDbLinetypeTableRecord
  2
DOTTED
 70
     0
  3
Dotted
 72
    65
 73
     2
 40
1.0
 49
0.0
 74
     0
 49
-1.0
 74
     0
  0
LTYPE
  5
3D
330
5
100
AcDbSymbolTableRecord
100
AcDbLinetypeTableRecord
  2
DOT_CENTER
 70
     0
  3
Dot_Center
 72
    65
 73
     4
 40
14.0
 49
12.0
 74
     0
 49
-1.0
 74
     0
 49
0.0
 74
     0
 49
-1.0
 74
     0
  0
LTYPE
  5
3E
330
5
100
AcDbSymbolTableRecord
100
AcDbLinetypeTableRecord
  2
LONG_DASHED
 70
     0
  3
Long_Dashed
 72
    65
 73
     2
 40
15.0
 49
10.0
 74
     0
 49
-5.0
 74
     0
  0
LTYPE
  5
3F
330
5
100
AcDbSymbolTableRecord
100
AcDbLinetypeTableRecord
  2
DASH_CENTER
 70
     0
  3
Dash_Center
 72
    65
 73
     4
 40
14.0
 49
11.0
 74
     0
 49
-1.0
 74
     0
 49
1.0
 74
     0
 49
-1.0
 74
     0
  0
LTYPE
  5
40
330
5
100
AcDbSymbolTableRecord
100
AcDbLinetypeTableRecord
  2
PHANTOM
 70
     0
  3
Phantom
 72
    65
 73
     6
 40
13.0
 49
10.0
 74
     0
 49
-1.0
 74
     0
 49
0.0
 74
     0
 49
-1.0
 74
     0
 49
0.0
 74
     0
 49
-1.0
 74
     0
  0
LTYPE
  5
41
330
5
100
AcDbSymbolTableRecord
100
AcDbLinetypeTableRecord
  2
CENTER_DASH_DASH
 70
     0
  3
Center_Dash_Dash
 72
    65
 73
     6
 40
14.0
 49
9.0
 74
     0
 49
-1.0
 74
     0
 49
1.0
 74
     0
 49
-1.0
 74
     0
 49
1.0
 74
     0
 49
-1.0
 74
     0
  0
ENDTAB
  0
TABLE
  2
LAYER
  5
2
330
0
100
AcDbSymbolTable
 70
     2
  0
LAYER
  5
10
330
2
100
AcDbSymbolTableRecord
100
AcDbLayerTableRecord
  2
0
 70
     0
 62
     7
  6
Continuous
370
    -3
390
F
  0
LAYER
  5
42
330
2
100
AcDbSymbolTableRecord
100
AcDbLayerTableRecord
  2
1
 70
     0
 62
     7
  6
Continuous
370
    -3
390
F
  0
ENDTAB
  0
TABLE
  2
STYLE
  5
3
330
0
100
AcDbSymbolTable
 70
     9
  0
STYLE
  5
11
330
3
100
AcDbSymbolTableRecord
100
AcDbTextStyleTableRecord
  2
Standard
 70
     0
 40
0.0
 41
1.0
 50
0.0
 71
     0
 42
0.2
  3
txt
  4

  0
STYLE
  5
DD
330
3
100
AcDbSymbolTableRecord
100
AcDbTextStyleTableRecord
  2
CONVERTER_11
 70
     0
 40
0.0
 41
0.9
 50
0.0
 71
     0
 42
0.2
  3
txt.shx
  4

  0
STYLE
  5
32A
330
3
100
AcDbSymbolTableRecord
100
AcDbTextStyleTableRecord
  2
CONVERTER_12
 70
     0
 40
0.0
 41
0.63
 50
0.0
 71
     0
 42
0.2
  3
txt.shx
  4

  0
STYLE
  5
32D
330
3
100
AcDbSymbolTableRecord
100
AcDbTextStyleTableRecord
  2
CONVERTER_13
 70
     0
 40
0.0
 41
0.72
 50
0.0
 71
     0
 42
0.2
  3
txt.shx
  4

  0
STYLE
  5
331
330
3
100
AcDbSymbolTableRecord
100
AcDbTextStyleTableRecord
  2
CONVERTER_14
 70
     0
 40
0.0
 41
0.765
 50
0.0
 71
     0
 42
0.2
  3
txt.shx
  4

  0
STYLE
  5
369
330
3
100
AcDbSymbolTableRecord
100
AcDbTextStyleTableRecord
  2
CONVERTER_15
 70
     0
 40
0.0
 41
0.855
 50
0.0
 71
     0
 42
0.2
  3
txt.shx
  4

  0
STYLE
  5
385
330
3
100
AcDbSymbolTableRecord
100
AcDbTextStyleTableRecord
  2
CONVERTER_16
 70
     0
 40
0.0
 41
0.54
 50
0.0
 71
     0
 42
0.2
  3
txt.shx
  4

  0
STYLE
  5
387
330
3
100
AcDbSymbolTableRecord
100
AcDbTextStyleTableRecord
  2
CONVERTER_17
 70
     0
 40
0.0
 41
0.81
 50
0.0
 71
     0
 42
0.2
  3
txt.shx
  4

  0
STYLE
  5
38E
330
3
100
AcDbSymbolTableRecord
100
AcDbTextStyleTableRecord
  2
CONVERTER_18
 70
     0
 40
0.0
 41
0.45
 50
0.0
 71
     0
 42
0.2
  3
txt.shx
  4

  0
ENDTAB
  0
TABLE
  2
VIEW
  5
6
330
0
100
AcDbSymbolTable
 70
     0
  0
ENDTAB
  0
TABLE
  2
UCS
  5
7
330
0
100
AcDbSymbolTable
 70
     0
  0
ENDTAB
  0
TABLE
  2
APPID
  5
9
330
0
100
AcDbSymbolTable
 70
     1
  0
APPID
  5
12
330
9
100
AcDbSymbolTableRecord
100
AcDbRegAppTableRecord
  2
ACAD
 70
     0
  0
ENDTAB
  0
TABLE
  2
DIMSTYLE
  5
A
330
0
100
AcDbSymbolTable
 70
     6
100
AcDbDimStyleTable
  0
DIMSTYLE
105
27
330
A
100
AcDbSymbolTableRecord
100
AcDbDimStyleTableRecord
  2
Standard
 70
     0
340
11
  0
DIMSTYLE
105
FC
102
{ACAD_REACTORS
330
FD
102
}
330
A
100
AcDbSymbolTableRecord
100
AcDbDimStyleTableRecord
  2
ME10_DIM_10
 70
     0
 41
3.5
 42
0.0
 44
2.0
 73
     0
 74
     0
 77
     1
 78
     8
140
3.5
147
2.0
172
     1
173
     1
176
     2
177
     2
178
     3
340
DD
  0
DIMSTYLE
105
109
102
{ACAD_REACTORS
330
10A
102
}
330
A
100
AcDbSymbolTableRecord
100
AcDbDimStyleTableRecord
  2
ME10_DIM_11
 70
     0
 41
3.5
 42
0.0
 44
2.0
 73
     0
 74
     0
 77
     1
 78
     8
140
3.5
147
2.0
172
     1
173
     1
176
     2
177
     2
178
     3
340
DD
  0
DIMSTYLE
105
158
102
{ACAD_REACTORS
330
159
102
}
330
A
100
AcDbSymbolTableRecord
100
AcDbDimStyleTableRecord
  2
ME10_DIM_12
 70
     0
 41
3.5
 42
0.0
 44
2.0
 73
     0
 74
     0
 77
     1
 78
     8
140
3.5
147
2.0
172
     1
173
     1
176
     2
177
     2
178
     3
271
     0
340
DD
  0
DIMSTYLE
105
163
102
{ACAD_REACTORS
330
164
102
}
330
A
100
AcDbSymbolTableRecord
100
AcDbDimStyleTableRecord
  2
ME10_DIM_13
 70
     0
 41
3.5
 42
0.0
 44
2.0
 73
     0
 74
     0
 77
     1
 78
     8
140
3.5
147
2.0
172
     1
173
     1
176
     2
177
     2
178
     3
340
DD
  0
DIMSTYLE
105
16E
102
{ACAD_REACTORS
330
16F
102
}
330
A
100
AcDbSymbolTableRecord
100
AcDbDimStyleTableRecord
  2
ME10_DIM_14
 70
     0
 41
3.5
 42
0.0
 44
2.0
 73
     0
 74
     0
 77
     1
 78
     8
140
3.5
147
2.0
172
     1
173
     1
176
     2
177
     2
178
     3
340
DD
  0
ENDTAB
  0
TABLE
  2
BLOCK_RECORD
  5
1
330
0
100
AcDbSymbolTable
 70
    21
  0
BLOCK_RECORD
  5
1F
330
1
100
AcDbSymbolTableRecord
100
AcDbBlockTableRecord
  2
*Model_Space
340
22
  0
BLOCK_RECORD
  5
1B
330
1
100
AcDbSymbolTableRecord
100
AcDbBlockTableRecord
  2
*Paper_Space
340
1E
  0
BLOCK_RECORD
  5
23
330
1
100
AcDbSymbolTableRecord
100
AcDbBlockTableRecord
  2
*Paper_Space0
340
26
  0
BLOCK_RECORD
  5
43
330
1
100
AcDbSymbolTableRecord
100
AcDbBlockTableRecord
  2
3030349_FBS_5-6_select__1
340
0
102
{BLKREFS
331
47
102
}
  0
BLOCK_RECORD
  5
46
330
1
100
AcDbSymbolTableRecord
100
AcDbBlockTableRecord
  2
AllgSicht1
340
0
102
{BLKREFS
331
78
102
}
  0
BLOCK_RECORD
  5
4A
330
1
100
AcDbSymbolTableRecord
100
AcDbBlockTableRecord
  2
3030349_FBS_5-6_select__2
340
0
102
{BLKREFS
331
4E
102
}
  0
BLOCK_RECORD
  5
4D
330
1
100
AcDbSymbolTableRecord
100
AcDbBlockTableRecord
  2
Drfsicht1
340
0
102
{BLKREFS
331
79
102
}
  0
BLOCK_RECORD
  5
51
330
1
100
AcDbSymbolTableRecord
100
AcDbBlockTableRecord
  2
3030349_FBS_5-6_select__3
340
0
102
{BLKREFS
331
55
102
}
  0
BLOCK_RECORD
  5
54
330
1
100
AcDbSymbolTableRecord
100
AcDbBlockTableRecord
  2
Vordans1
340
0
102
{BLKREFS
331
7A
102
}
  0
BLOCK_RECORD
  5
58
330
1
100
AcDbSymbolTableRecord
100
AcDbBlockTableRecord
  2
3030349_FBS_5-6_select__4
340
0
102
{BLKREFS
331
5C
102
}
  0
BLOCK_RECORD
  5
5B
330
1
100
AcDbSymbolTableRecord
100
AcDbBlockTableRecord
  2
SA_Rechts1
340
0
102
{BLKREFS
331
7B
102
}
  0
BLOCK_RECORD
  5
5F
330
1
100
AcDbSymbolTableRecord
100
AcDbBlockTableRecord
  2
3030349_FBS_5-6_select__5
340
0
102
{BLKREFS
331
63
102
}
  0
BLOCK_RECORD
  5
62
330
1
100
AcDbSymbolTableRecord
100
AcDbBlockTableRecord
  2
SA_Links1
340
0
102
{BLKREFS
331
7C
102
}
  0
BLOCK_RECORD
  5
66
330
1
100
AcDbSymbolTableRecord
100
AcDbBlockTableRecord
  2
3030349_FBS_5-6_select__6
340
0
102
{BLKREFS
331
6A
102
}
  0
BLOCK_RECORD
  5
69
330
1
100
AcDbSymbolTableRecord
100
AcDbBlockTableRecord
  2
Rckans1
340
0
102
{BLKREFS
331
7D
102
}
  0
BLOCK_RECORD
  5
6D
330
1
100
AcDbSymbolTableRecord
100
AcDbBlockTableRecord
  2
_rahmen
340
0
102
{BLKREFS
331
74
102
}
  0
BLOCK_RECORD
  5
70
330
1
100
AcDbSymbolTableRecord
100
AcDbBlockTableRecord
  2
_punkt
340
0
102
{BLKREFS
331
75
102
}
  0
BLOCK_RECORD
  5
73
330
1
100
AcDbSymbolTableRecord
100
AcDbBlockTableRecord
  2
A4I
340
0
102
{BLKREFS
331
7E
102
}
  0
BLOCK_RECORD
  5
F1
330
1
100
AcDbSymbolTableRecord
100
AcDbBlockTableRecord
  2
*D16
340
0
  0
BLOCK_RECORD
  5
FE
330
1
100
AcDbSymbolTableRecord
100
AcDbBlockTableRecord
  2
*D17
340
0
  0
BLOCK_RECORD
  5
14F
330
1
100
AcDbSymbolTableRecord
100
AcDbBlockTableRecord
  2
*D18
340
0
  0
BLOCK_RECORD
  5
15A
330
1
100
AcDbSymbolTableRecord
100
AcDbBlockTableRecord
  2
*D19
340
0
  0
BLOCK_RECORD
  5
165
330
1
100
AcDbSymbolTableRecord
100
AcDbBlockTableRecord
  2
*D20
340
0
  0
ENDTAB
  0
ENDSEC
  0
SECTION
  2
BLOCKS
  0
BLOCK
  5
20
330
1F
100
AcDbEntity
  8
0
100
AcDbBlockBegin
  2
*Model_Space
 70
     0
 10
0.0
 20
0.0
 30
0.0
  3
*Model_Space
  1

  0
ENDBLK
  5
21
330
1F
100
AcDbEntity
  8
0
100
AcDbBlockEnd
  0
BLOCK
  5
1C
330
1B
100
AcDbEntity
 67
     1
  8
0
100
AcDbBlockBegin
  2
*Paper_Space
 70
     0
 10
0.0
 20
0.0
 30
0.0
  3
*Paper_Space
  1

  0
ENDBLK
  5
1D
330
1B
100
AcDbEntity
 67
     1
  8
0
100
AcDbBlockEnd
  0
BLOCK
  5
24
330
23
100
AcDbEntity
  8
0
100
AcDbBlockBegin
  2
*Paper_Space0
 70
     0
 10
0.0
 20
0.0
 30
0.0
  3
*Paper_Space0
  1

  0
ENDBLK
  5
25
330
23
100
AcDbEntity
  8
0
100
AcDbBlockEnd
  0
BLOCK
  5
44
330
43
100
AcDbEntity
  8
0
100
AcDbBlockBegin
  2
3030349_FBS_5-6_select__1
 70
     0
 10
-45.62403802805461
 20
69.22894517158541
 30
0.0
  3
3030349_FBS_5-6_select__1
  1

  0
LINE
  5
7F
330
43
100
AcDbEntity
  8
0
  6
Continuous
 62
     7
100
AcDbLine
 10
-42.94958507385204
 20
69.22894517158541
 30
0.0
 11
-43.13217959934296
 21
71.6465690702714
 31
0.0
  0
LINE
  5
80
330
43
100
AcDbEntity
  8
0
  6
Continuous
 62
     7
100
AcDbLine
 10
-44.33522571990714
 20
69.62894517158541
 30
0.0
 11
-44.51782024539807
 21
72.0465690702714
 31
0.0
  0
LINE
  5
81
330
43
100
AcDbEntity
  8
0
  6
Continuous
 62
     7
100
AcDbLine
 10
-44.51782024539807
 20
72.0465690702714
 30
0.0
 11
-43.13217959934296
 21
71.6465690702714
 31
0.0
  0
LINE
  5
82
330
43
100
AcDbEntity
  8
0
  6
Continuous
 62
     7
100
AcDbLine
 10
-44.51782024539806
 20
76.75264394406503
 30
0.0
 11
-44.51782024539807
 21
72.0465690702714
 31
0.0
  0
LINE
  5
83
330
43
100
AcDbEntity
  8
0
  6
Continuous
 62
     7
100
AcDbLine
 10
-41.88217959934165
 20
72.72910082501025
 30
0.0
 11
-41.88217959934165
 21
77.31252596799493
 31
0.0
  0
LINE
  5
84
330
43
100
AcDbEntity
  8
0
  6
Continuous
 62
     7
100
AcDbLine
 10
-43.13217959934294
 20
76.35264394406502
 30
0.0
 11
-43.13217959934296
 21
71.6465690702714
 31
0.0
  0
LINE
  5
85
330
43
100
AcDbEntity
  8
0
  6
Continuous
 62
     7
100
AcDbLine
 10
-40.03217959934438
 20
74.33124782200402
 30
0.0
 11
-41.4178202453995
 21
74.73124782200401
 31
0.0
  0
LINE
  5
86
330
43
100
AcDbEntity
  8
0
  6
Continuous
 62
     7
100
AcDbLine
 10
-41.23522571990799
 20
72.31362392331023
 30
0.0
 11
-41.4178202453995
 21
74.73124782200401
 31
0.0
  0
LINE
  5
87
330
43
100
AcDbEntity
  8
0
  6
Continuous
 62
     7
100
AcDbLine
 10
-39.84958507385289
 20
71.91362392331024
 30
0.0
 11
-40.03217959934438
 21
74.33124782200402
 31
0.0
  0
LINE
  5
88
330
43
100
AcDbEntity
  8
0
  6
Continuous
 62
     7
100
AcDbLine
 10
-38.13522571990407
 20
74.99830267504538
 30
0.0
 11
-38.31782024539594
 21
77.415926573744
 31
0.0
  0
LINE
  5
89
330
43
100
AcDbEntity
  8
0
  6
Continuous
 62
     7
100
AcDbLine
 10
-38.96477412483691
 20
72.67989268267722
 30
0.0
 11
-38.7821795993431
 21
75.41377957674081
 31
0.0
  0
LINE
  5
8A
330
43
100
AcDbEntity
  8
0
  6
Continuous
 62
     7
100
AcDbLine
 10
-35.03522571990213
 20
77.68298142675137
 30
0.0
 11
-33.64958507384702
 21
77.28298142675136
 31
0.0
  0
LINE
  5
8B
330
43
100
AcDbEntity
  8
0
  6
Continuous
 62
     7
100
AcDbLine
 10
-39.84958507385289
 20
71.91362392331024
 30
0.0
 11
-38.96477412483691
 21
72.67989268267722
 31
0.0
  0
LINE
  5
8C
330
43
100
AcDbEntity
  8
0
  6
Continuous
 62
     7
100
AcDbLine
 10
-36.74958507384896
 20
74.59830267504539
 30
0.0
 11
-36.93217959934084
 21
77.015926573744
 31
0.0
  0
LINE
  5
8D
330
43
100
AcDbEntity
  8
0
  6
Continuous
 62
     7
100
AcDbLine
 10
-41.23522571990799
 20
72.31362392331023
 30
0.0
 11
-39.84958507385289
 21
71.91362392331024
 31
0.0
  0
LINE
  5
8E
330
43
100
AcDbEntity
  8
0
  6
Continuous
 62
     7
100
AcDbLine
 10
-36.74958507384896
 20
74.59830267504539
 30
0.0
 11
-38.13522571990407
 21
74.99830267504538
 31
0.0
  0
LINE
  5
8F
330
43
100
AcDbEntity
  8
0
  6
Continuous
 62
     7
100
AcDbLine
 10
-38.31782024539594
 20
77.415926573744
 30
0.0
 11
-36.93217959934084
 21
77.015926573744
 31
0.0
  0
LINE
  5
90
330
43
100
AcDbEntity
  8
0
  6
Continuous
 62
     7
100
AcDbLine
 10
-36.74958507384896
 20
74.59830267504539
 30
0.0
 11
-35.86477412483693
 21
75.36457143440897
 31
0.0
  0
LINE
  5
91
330
43
100
AcDbEntity
  8
0
  6
Continuous
 62
     7
100
AcDbLine
 10
-41.88217959934165
 20
72.72910082501025
 30
0.0
 11
-42.06477412483505
 21
69.9952139309533
 31
0.0
  0
LINE
  5
92
330
43
100
AcDbEntity
  8
0
  6
Continuous
 62
     7
100
AcDbLine
 10
-44.33522571990714
 20
69.62894517158541
 30
0.0
 11
-42.94958507385204
 21
69.22894517158541
 31
0.0
  0
LINE
  5
93
330
43
100
AcDbEntity
  8
0
  6
Continuous
 62
     7
100
AcDbLine
 10
-42.06477412483505
 20
69.9952139309533
 30
0.0
 11
-42.94958507385204
 21
69.22894517158541
 31
0.0
  0
LINE
  5
94
330
43
100
AcDbEntity
  8
0
  6
Continuous
 62
     7
100
AcDbLine
 10
-28.37596181670131
 20
89.00925367680661
 30
0.0
 11
-28.37596181670131
 21
100.787199168275
 31
0.0
  0
LINE
  5
95
330
43
100
AcDbEntity
  8
0
  6
Continuous
 62
     7
100
AcDbLine
 10
-33.7259618167013
 20
90.9578108353216
 30
0.0
 11
-33.7259618167013
 21
87.92672192207606
 31
0.0
  0
LINE
  5
96
330
43
100
AcDbEntity
  8
0
  6
Continuous
 62
     7
100
AcDbLine
 10
-30.97403802805462
 20
101.537199168275
 30
0.0
 11
-28.37596181670131
 21
100.787199168275
 31
0.0
  0
LINE
  5
97
330
43
100
AcDbEntity
  8
0
  6
Continuous
 62
     7
100
AcDbLine
 10
-45.62403802805461
 20
88.84992700283296
 30
0.0
 11
-30.97403802805462
 21
101.537199168275
 31
0.0
  0
LINE
  5
98
330
43
100
AcDbEntity
  8
0
  6
Continuous
 62
     7
100
AcDbLine
 10
-35.68217959934312
 20
78.09845832847259
 30
0.0
 11
-35.68217959934312
 21
84.42111395598768
 31
0.0
  0
LINE
  5
99
330
43
100
AcDbEntity
  8
0
  6
Continuous
 62
     7
100
AcDbLine
 10
-36.8259618167013
 20
88.27313208358984
 30
0.0
 11
-36.8259618167013
 21
85.2420431703443
 31
0.0
  0
LINE
  5
9A
330
43
100
AcDbEntity
  8
0
  6
Continuous
 62
     7
100
AcDbLine
 10
-35.03522571990213
 20
77.68298142675137
 30
0.0
 11
-35.21782024539594
 21
80.10060532547575
 31
0.0
  0
LINE
  5
9B
330
43
100
AcDbEntity
  8
0
  6
Continuous
 62
     7
100
AcDbLine
 10
-35.21782024539594
 20
80.10060532547575
 30
0.0
 11
-35.2178202453961
 21
86.42326095299099
 31
0.0
  0
LINE
  5
9C
330
43
100
AcDbEntity
  8
0
  6
Continuous
 62
     7
100
AcDbLine
 10
-36.93217959934084
 20
77.015926573744
 30
0.0
 11
-36.93217959934083
 21
83.3385822012591
 31
0.0
  0
LINE
  5
9D
330
43
100
AcDbEntity
  8
0
  6
Continuous
 62
     7
100
AcDbLine
 10
-35.86477412483693
 20
75.36457143440897
 30
0.0
 11
-35.68217959934312
 21
78.09845832847259
 31
0.0
  0
LINE
  5
9E
330
43
100
AcDbEntity
  8
0
  6
Continuous
 62
     7
100
AcDbLine
 10
-38.31782024539594
 20
77.415926573744
 30
0.0
 11
-38.31782024539594
 21
83.73858220125938
 31
0.0
  0
LINE
  5
9F
330
43
100
AcDbEntity
  8
0
  6
Continuous
 62
     7
100
AcDbLine
 10
-38.60717959934246
 20
82.19109854124441
 30
0.0
 11
-38.78217959934311
 21
81.73643520425591
 31
0.0
  0
LINE
  5
A0
330
43
100
AcDbEntity
  8
0
  6
Continuous
 62
     7
100
AcDbLine
 10
-29.66477412483189
 20
80.73392893791052
 30
0.0
 11
-29.48217959934098
 21
83.46781583193045
 31
0.0
  0
LINE
  5
A1
330
43
100
AcDbEntity
  8
0
  6
Continuous
 62
     7
100
AcDbLine
 10
-40.03217959934438
 20
80.65390344952674
 30
0.0
 11
-40.2071795993436
 21
80.80545789518833
 31
0.0
  0
LINE
  5
A2
330
43
100
AcDbEntity
  8
0
  6
Continuous
 62
     7
100
AcDbLine
 10
-40.2071795993436
 20
80.80545789518833
 30
0.0
 11
-40.77596181670129
 21
80.9696511783392
 31
0.0
  0
LINE
  5
A3
330
43
100
AcDbEntity
  8
0
  6
Continuous
 62
     7
100
AcDbLine
 10
-40.77596181670129
 20
80.86861488123148
 30
0.0
 11
-40.03217959934438
 21
80.65390344952674
 31
0.0
  0
LINE
  5
A4
330
43
100
AcDbEntity
  8
0
  6
Continuous
 62
     7
100
AcDbLine
 10
-30.73217959934227
 20
82.3852840772062
 30
0.0
 11
-32.11782024539738
 21
82.78528407720627
 31
0.0
  0
LINE
  5
A5
330
43
100
AcDbEntity
  8
0
  6
Continuous
 62
     7
100
AcDbLine
 10
-31.4759618167013
 20
92.90636799383658
 30
0.0
 11
-30.62596181670131
 21
93.64248958705335
 31
0.0
  0
LINE
  5
A6
330
43
100
AcDbEntity
  8
0
  6
Continuous
 62
     7
100
AcDbLine
 10
-31.4759618167013
 20
92.90636799383658
 30
0.0
 11
-31.4759618167013
 21
89.87527908059104
 31
0.0
  0
LINE
  5
A7
330
43
100
AcDbEntity
  8
0
  6
Continuous
 62
     7
100
AcDbLine
 10
-33.7259618167013
 20
90.9578108353216
 30
0.0
 11
-34.5759618167013
 21
90.22168924210482
 31
0.0
  0
LINE
  5
A8
330
43
100
AcDbEntity
  8
0
  6
Continuous
 62
     7
100
AcDbLine
 10
-30.62596181670131
 20
93.64248958705335
 30
0.0
 11
-30.62596181670131
 21
87.06069651829162
 31
0.0
  0
LINE
  5
A9
330
43
100
AcDbEntity
  8
0
  6
Continuous
 62
     7
100
AcDbLine
 10
-34.5759618167013
 20
90.22168924210482
 30
0.0
 11
-34.5759618167013
 21
87.19060032885929
 31
0.0
  0
LINE
  5
AA
330
43
100
AcDbEntity
  8
0
  6
Continuous
 62
     7
100
AcDbLine
 10
-32.40717959934035
 20
89.06882082436981
 30
0.0
 11
-32.40717959934035
 21
87.56045604470975
 31
0.0
  0
LINE
  5
AB
330
43
100
AcDbEntity
  8
0
  6
Continuous
 62
     7
100
AcDbLine
 10
-34.00717959934148
 20
86.17481539865368
 30
0.0
 11
-34.00717959934148
 21
88.00790250333016
 31
0.0
  0
LINE
  5
AC
330
43
100
AcDbEntity
  8
0
  6
Continuous
 62
     7
100
AcDbLine
 10
-35.31346181670079
 20
86.55190659356869
 30
0.0
 11
-34.00717959934148
 21
86.17481539865368
 31
0.0
  0
LINE
  5
AD
330
43
100
AcDbEntity
  8
0
  6
Continuous
 62
     7
100
AcDbLine
 10
-33.83217959934085
 20
86.02326095299085
 30
0.0
 11
-34.00717959934148
 21
86.17481539865368
 31
0.0
  0
LINE
  5
AE
330
43
100
AcDbEntity
  8
0
  6
Continuous
 62
     7
100
AcDbLine
 10
-35.2178202453961
 20
86.42326095299099
 30
0.0
 11
-33.83217959934085
 21
86.02326095299085
 31
0.0
  0
LINE
  5
AF
330
43
100
AcDbEntity
  8
0
  6
Continuous
 62
     7
100
AcDbLine
 10
-32.40717959934035
 20
87.56045604470975
 30
0.0
 11
-32.58217959933955
 21
87.105792707725
 31
0.0
  0
LINE
  5
B0
330
43
100
AcDbEntity
  8
0
  6
Continuous
 62
     7
100
AcDbLine
 10
-30.62596181670131
 20
87.06069651829162
 30
0.0
 11
-32.40717959934035
 21
87.57488980143762
 31
0.0
  0
LINE
  5
B1
330
43
100
AcDbEntity
  8
0
  6
Continuous
 62
     7
100
AcDbLine
 10
-33.7259618167013
 20
87.92672192207606
 30
0.0
 11
-31.4759618167013
 21
89.87527908059104
 31
0.0
  0
LINE
  5
B2
330
43
100
AcDbEntity
  8
0
  6
Continuous
 62
     7
100
AcDbLine
 10
-36.93217959934083
 20
83.3385822012591
 30
0.0
 11
-37.10717959934148
 21
83.49013664692193
 31
0.0
  0
LINE
  5
B3
330
43
100
AcDbEntity
  8
0
  6
Continuous
 62
     7
100
AcDbLine
 10
-38.41346181670079
 20
83.86722784183694
 30
0.0
 11
-37.10717959934148
 21
83.49013664692193
 31
0.0
  0
LINE
  5
B4
330
43
100
AcDbEntity
  8
0
  6
Continuous
 62
     7
100
AcDbLine
 10
-38.31782024539594
 20
83.73858220125938
 30
0.0
 11
-36.93217959934083
 21
83.3385822012591
 31
0.0
  0
LINE
  5
B5
330
43
100
AcDbEntity
  8
0
  6
Continuous
 62
     7
100
AcDbLine
 10
-35.68217959934312
 20
84.42111395598768
 30
0.0
 11
-35.50717959934246
 21
84.87577729297617
 31
0.0
  0
LINE
  5
B6
330
43
100
AcDbEntity
  8
0
  6
Continuous
 62
     7
100
AcDbLine
 10
-35.50717959934246
 20
84.87577729297617
 30
0.0
 11
-35.50717959934246
 21
86.38414207263622
 31
0.0
  0
LINE
  5
B7
330
43
100
AcDbEntity
  8
0
  6
Continuous
 62
     7
100
AcDbLine
 10
-38.31782024539594
 20
83.73858220125938
 30
0.0
 11
-38.43991462626606
 21
83.84431903675195
 31
0.0
  0
LINE
  5
B8
330
43
100
AcDbEntity
  8
0
  6
Continuous
 62
     7
100
AcDbLine
 10
-37.10717959934148
 20
83.49013664692193
 30
0.0
 11
-37.10717959934148
 21
85.3232237515984
 31
0.0
  0
LINE
  5
B9
330
43
100
AcDbEntity
  8
0
  6
Continuous
 62
     7
100
AcDbLine
 10
-37.67596181670129
 20
87.53701049037306
 30
0.0
 11
-37.67596181670129
 21
84.50592157712754
 31
0.0
  0
LINE
  5
BA
330
43
100
AcDbEntity
  8
0
  6
Continuous
 62
     7
100
AcDbLine
 10
-38.60717959934246
 20
83.69946332090446
 30
0.0
 11
-38.60717959934246
 21
82.19109854124441
 31
0.0
  0
LINE
  5
BB
330
43
100
AcDbEntity
  8
0
  6
Continuous
 62
     7
100
AcDbLine
 10
-36.8259618167013
 20
85.2420431703443
 30
0.0
 11
-37.67596181670129
 21
85.4874170347499
 31
0.0
  0
LINE
  5
BC
330
43
100
AcDbEntity
  8
0
  6
Continuous
 62
     7
100
AcDbLine
 10
-33.7259618167013
 20
87.92672192207606
 30
0.0
 11
-34.5759618167013
 21
88.17209578648165
 31
0.0
  0
LINE
  5
BD
330
43
100
AcDbEntity
  8
0
  6
Continuous
 62
     7
100
AcDbLine
 10
-35.2178202453961
 20
86.42326095299099
 30
0.0
 11
-35.33991462626607
 21
86.52899778848371
 31
0.0
  0
LINE
  5
BE
330
43
100
AcDbEntity
  8
0
  6
Continuous
 62
     7
100
AcDbLine
 10
-34.5759618167013
 20
87.19060032885929
 30
0.0
 11
-36.8259618167013
 21
85.2420431703443
 31
0.0
  0
LINE
  5
BF
330
43
100
AcDbEntity
  8
0
  6
Continuous
 62
     7
100
AcDbLine
 10
-37.67596181670129
 20
84.50592157712754
 30
0.0
 11
-39.9259618167013
 21
82.55736441861254
 31
0.0
  0
LINE
  5
C0
330
43
100
AcDbEntity
  8
0
  6
Continuous
 62
     7
100
AcDbLine
 10
-32.11782024539738
 20
87.49135895099187
 30
0.0
 11
-32.11782024539738
 21
82.78528407720627
 31
0.0
  0
LINE
  5
C1
330
43
100
AcDbEntity
  8
0
  6
Continuous
 62
     7
100
AcDbLine
 10
-31.935225719904
 20
80.36766017848772
 30
0.0
 11
-30.54958507384889
 21
79.96766017848772
 31
0.0
  0
LINE
  5
C2
330
43
100
AcDbEntity
  8
0
  6
Continuous
 62
     7
100
AcDbLine
 10
-31.935225719904
 20
80.36766017848772
 30
0.0
 11
-32.11782024539738
 21
82.78528407720627
 31
0.0
  0
LINE
  5
C3
330
43
100
AcDbEntity
  8
0
  6
Continuous
 62
     7
100
AcDbLine
 10
-30.54958507384889
 20
79.96766017848772
 30
0.0
 11
-30.73217959934227
 21
82.3852840772062
 31
0.0
  0
LINE
  5
C4
330
43
100
AcDbEntity
  8
0
  6
Continuous
 62
     7
100
AcDbLine
 10
-29.48217959934098
 20
83.46781583193045
 30
0.0
 11
-29.48217959934098
 21
88.05124097492255
 31
0.0
  0
LINE
  5
C5
330
43
100
AcDbEntity
  8
0
  6
Continuous
 62
     7
100
AcDbLine
 10
-30.73217959934227
 20
87.09135895099188
 30
0.0
 11
-30.73217959934227
 21
82.3852840772062
 31
0.0
  0
LINE
  5
C6
330
43
100
AcDbEntity
  8
0
  6
Continuous
 62
     7
100
AcDbLine
 10
-35.21782024539594
 20
80.10060532547575
 30
0.0
 11
-33.83217959934085
 21
79.70060532547576
 31
0.0
  0
LINE
  5
C7
330
43
100
AcDbEntity
  8
0
  6
Continuous
 62
     7
100
AcDbLine
 10
-33.83217959934085
 20
79.70060532547576
 30
0.0
 11
-33.83217959934085
 21
86.02326095299085
 31
0.0
  0
LINE
  5
C8
330
43
100
AcDbEntity
  8
0
  6
Continuous
 62
     7
100
AcDbLine
 10
-30.54958507384889
 20
79.96766017848772
 30
0.0
 11
-29.66477412483189
 21
80.73392893791052
 31
0.0
  0
LINE
  5
C9
330
43
100
AcDbEntity
  8
0
  6
Continuous
 62
     7
100
AcDbLine
 10
-37.67596181670129
 20
87.53701049037306
 30
0.0
 11
-36.8259618167013
 21
88.27313208358984
 31
0.0
  0
LINE
  5
CA
330
43
100
AcDbEntity
  8
0
  6
Continuous
 62
     7
100
AcDbLine
 10
-45.62403802805461
 20
88.84992700283296
 30
0.0
 11
-43.02596181670129
 21
88.09992700283296
 31
0.0
  0
LINE
  5
CB
330
43
100
AcDbEntity
  8
0
  6
Continuous
 62
     7
100
AcDbLine
 10
-30.62596181670131
 20
87.06069651829162
 30
0.0
 11
-28.37596181670131
 21
89.00925367680661
 31
0.0
  0
LINE
  5
CC
330
43
100
AcDbEntity
  8
0
  6
Continuous
 62
     7
100
AcDbLine
 10
-32.58217959933955
 20
80.78313708020227
 30
0.0
 11
-32.58217959933955
 21
87.105792707725
 31
0.0
  0
LINE
  5
CD
330
43
100
AcDbEntity
  8
0
  6
Continuous
 62
     7
100
AcDbLine
 10
-33.64958507384702
 20
77.28298142675136
 30
0.0
 11
-33.83217959934085
 21
79.70060532547576
 31
0.0
  0
LINE
  5
CE
330
43
100
AcDbEntity
  8
0
  6
Continuous
 62
     7
100
AcDbLine
 10
-32.76477412483106
 20
78.04925018617328
 30
0.0
 11
-32.58217959933955
 21
80.78313708020227
 31
0.0
  0
LINE
  5
CF
330
43
100
AcDbEntity
  8
0
  6
Continuous
 62
     7
100
AcDbLine
 10
-32.76477412483106
 20
78.04925018617328
 30
0.0
 11
-33.64958507384702
 21
77.28298142675136
 31
0.0
  0
LINE
  5
D0
330
43
100
AcDbEntity
  8
0
  6
Continuous
 62
     7
100
AcDbLine
 10
-45.62403802805461
 20
88.84992700283296
 30
0.0
 11
-45.62403802805461
 21
77.07198151136458
 31
0.0
  0
LINE
  5
D1
330
43
100
AcDbEntity
  8
0
  6
Continuous
 62
     7
100
AcDbLine
 10
-43.02596181670129
 20
76.32198151136458
 30
0.0
 11
-43.02596181670129
 21
88.09992700283296
 31
0.0
  0
LINE
  5
D2
330
43
100
AcDbEntity
  8
0
  6
Continuous
 62
     7
100
AcDbLine
 10
-41.4178202453995
 20
77.71467296499377
 30
0.0
 11
-41.4178202453995
 21
74.73124782200401
 31
0.0
  0
LINE
  5
D3
330
43
100
AcDbEntity
  8
0
  6
Continuous
 62
     7
100
AcDbLine
 10
-40.03217959934438
 20
80.65390344952674
 30
0.0
 11
-40.03217959934438
 21
74.33124782200402
 31
0.0
  0
LINE
  5
D4
330
43
100
AcDbEntity
  8
0
  6
Continuous
 62
     7
100
AcDbLine
 10
-40.77596181670129
 20
84.85233173864131
 30
0.0
 11
-40.77596181670129
 21
78.27053866987957
 31
0.0
  0
LINE
  5
D5
330
43
100
AcDbEntity
  8
0
  6
Continuous
 62
     7
100
AcDbLine
 10
-38.78217959934311
 20
81.73643520425591
 30
0.0
 11
-38.7821795993431
 21
75.41377957674081
 31
0.0
  0
LINE
  5
D6
330
43
100
AcDbEntity
  8
0
  6
Continuous
 62
     7
100
AcDbLine
 10
-40.2071795993436
 20
80.80545789518833
 30
0.0
 11
-40.2071795993436
 21
82.63854499986726
 31
0.0
  0
LINE
  5
D7
330
43
100
AcDbEntity
  8
0
  6
Continuous
 62
     7
100
AcDbLine
 10
-39.9259618167013
 20
85.58845333185808
 30
0.0
 11
-39.9259618167013
 21
82.55736441861254
 31
0.0
  0
LINE
  5
D8
330
43
100
AcDbEntity
  8
0
  6
Continuous
 62
     7
100
AcDbLine
 10
-39.9259618167013
 20
82.55736441861254
 30
0.0
 11
-40.77596181670129
 21
82.80273828301813
 31
0.0
  0
LINE
  5
D9
330
43
100
AcDbEntity
  8
0
  6
Continuous
 62
     7
100
AcDbLine
 10
-39.9259618167013
 20
85.58845333185808
 30
0.0
 11
-40.77596181670129
 21
84.85233173864131
 31
0.0
  0
LINE
  5
DA
330
43
100
AcDbEntity
  8
0
  6
Continuous
 62
     7
100
AcDbLine
 10
-40.77596181670129
 20
78.27053866987957
 30
0.0
 11
-43.02596181670129
 21
76.32198151136458
 31
0.0
  0
LINE
  5
DB
330
43
100
AcDbEntity
  8
0
  6
Continuous
 62
     7
100
AcDbLine
 10
-43.02596181670129
 20
76.32198151136458
 30
0.0
 11
-45.62403802805461
 21
77.07198151136458
 31
0.0
  0
LINE
  5
DC
330
43
100
AcDbEntity
  8
0
  6
Continuous
 62
     7
100
AcDbLine
 10
-43.02596181670129
 20
88.09992700283296
 30
0.0
 11
-28.37596181670131
 21
100.787199168275
 31
0.0
  0
ENDBLK
  5
45
330
43
100
AcDbEntity
  8
0
100
AcDbBlockEnd
  0
BLOCK
  5
48
330
46
100
AcDbEntity
  8
0
100
AcDbBlockBegin
  2
AllgSicht1
 70
     0
 10
-37.00000000000003
 20
85.00000000005002
 30
0.0
  3
AllgSicht1
  1

  0
INSERT
  5
47
330
46
100
AcDbEntity
  8
0
100
AcDbBlockReference
  2
3030349_FBS_5-6_select__1
 10
-45.62403802805461
 20
69.22894517158541
 30
0.0
  0
MTEXT
  5
DE
330
46
100
AcDbEntity
  8
1
 62
     6
100
AcDbMText
 10
-37.0
 20
63.46280077803704
 30
0.0
 40
5.0
 41
0.0
 71
     2
 72
     1
  1
 
  7
CONVERTER_11
 73
     1
 44
1.32052821128451
  0
ENDBLK
  5
49
330
46
100
AcDbEntity
  8
0
100
AcDbBlockEnd
  0
BLOCK
  5
4B
330
4A
100
AcDbEntity
  8
0
100
AcDbBlockBegin
  2
3030349_FBS_5-6_select__2
 70
     0
 10
-116.5
 20
78.35000015524413
 30
0.0
  3
3030349_FBS_5-6_select__2
  1

  0
LINE
  5
DF
330
4A
100
AcDbEntity
  8
0
  6
Continuous
 62
     7
100
AcDbLine
 10
-116.5
 20
78.35000015524413
 30
0.0
 11
-113.5
 21
78.35000015524413
 31
0.0
  0
LINE
  5
E0
330
4A
100
AcDbEntity
  8
0
  6
Continuous
 62
     7
100
AcDbLine
 10
-116.5
 20
78.35000015524413
 30
0.0
 11
-116.5
 21
107.6500001552441
 31
0.0
  0
LINE
  5
E1
330
4A
100
AcDbEntity
  8
0
  6
Continuous
 62
     7
100
AcDbLine
 10
-116.5
 20
107.6500001552441
 30
0.0
 11
-113.5
 21
107.6500001552441
 31
0.0
  0
LINE
  5
E2
330
4A
100
AcDbEntity
  8
0
  6
Continuous
 62
     7
100
AcDbLine
 10
-113.5
 20
78.35000015524413
 30
0.0
 11
-113.5
 21
107.6500001552441
 31
0.0
  0
ENDBLK
  5
4C
330
4A
100
AcDbEntity
  8
0
100
AcDbBlockEnd
  0
BLOCK
  5
4F
330
4D
100
AcDbEntity
  8
0
100
AcDbBlockBegin
  2
Drfsicht1
 70
     0
 10
-115.0
 20
92.99999999999999
 30
0.0
  3
Drfsicht1
  1

  0
INSERT
  5
4E
330
4D
100
AcDbEntity
  8
0
100
AcDbBlockReference
  2
3030349_FBS_5-6_select__2
 10
-116.5
 20
78.35000015524413
 30
0.0
  0
MTEXT
  5
E3
330
4D
100
AcDbEntity
  8
1
 62
     6
100
AcDbMText
 10
-115.0
 20
73.34999990463257
 30
0.0
 40
5.0
 41
0.0
 71
     2
 72
     1
  1
 
  7
CONVERTER_11
 73
     1
 44
1.32052821128451
  0
ENDBLK
  5
50
330
4D
100
AcDbEntity
  8
0
100
AcDbBlockEnd
  0
BLOCK
  5
52
330
51
100
AcDbEntity
  8
0
100
AcDbBlockBegin
  2
3030349_FBS_5-6_select__3
 70
     0
 10
-116.5
 20
137.650000194086
 30
0.0
  3
3030349_FBS_5-6_select__3
  1

  0
LINE
  5
E4
330
51
100
AcDbEntity
  8
0
  6
Continuous
 62
     7
100
AcDbLine
 10
-116.5
 20
160.325000194115
 30
0.0
 11
-113.5
 21
160.325000194115
 31
0.0
  0
LINE
  5
E5
330
51
100
AcDbEntity
  8
0
  6
Continuous
 62
     7
100
AcDbLine
 10
-116.5
 20
160.325000194115
 30
0.0
 11
-116.5
 21
146.725000194115
 31
0.0
  0
LINE
  5
E6
330
51
100
AcDbEntity
  8
0
  6
Continuous
 62
     7
100
AcDbLine
 10
-113.5
 20
160.325000194115
 30
0.0
 11
-113.5
 21
146.725000194115
 31
0.0
  0
LINE
  5
E7
330
51
100
AcDbEntity
  8
0
  6
Continuous
 62
     7
100
AcDbLine
 10
-113.5
 20
146.725000194115
 30
0.0
 11
-114.1999999999902
 21
146.725000194115
 31
0.0
  0
LINE
  5
E8
330
51
100
AcDbEntity
  8
0
  6
Continuous
 62
     7
100
AcDbLine
 10
-115.7999999999902
 20
137.650000194086
 30
0.0
 11
-115.7999999999902
 21
140.6242263370354
 31
0.0
  0
LINE
  5
E9
330
51
100
AcDbEntity
  8
0
  6
Continuous
 62
     7
100
AcDbLine
 10
-115.7999999999902
 20
140.6242263370354
 30
0.0
 11
-114.1999999999902
 21
140.6242263370354
 31
0.0
  0
LINE
  5
EA
330
51
100
AcDbEntity
  8
0
  6
Continuous
 62
     7
100
AcDbLine
 10
-115.7999999999902
 20
146.725000194115
 30
0.0
 11
-116.5
 21
146.725000194115
 31
0.0
  0
LINE
  5
EB
330
51
100
AcDbEntity
  8
0
  6
Continuous
 62
     7
100
AcDbLine
 10
-114.1999999999902
 20
146.725000194115
 30
0.0
 11
-115.7999999999902
 21
146.725000194115
 31
0.0
  0
LINE
  5
EC
330
51
100
AcDbEntity
  8
0
  6
Continuous
 62
     7
100
AcDbLine
 10
-115.7999999999902
 20
137.650000194086
 30
0.0
 11
-114.1999999999902
 21
137.650000194086
 31
0.0
  0
LINE
  5
ED
330
51
100
AcDbEntity
  8
0
  6
Continuous
 62
     7
100
AcDbLine
 10
-114.1999999999902
 20
137.650000194086
 30
0.0
 11
-114.1999999999902
 21
140.6242263370354
 31
0.0
  0
LINE
  5
EE
330
51
100
AcDbEntity
  8
0
  6
Continuous
 62
     7
100
AcDbLine
 10
-114.1999999999902
 20
140.6242263370354
 30
0.0
 11
-114.1999999999902
 21
146.725000194115
 31
0.0
  0
LINE
  5
EF
330
51
100
AcDbEntity
  8
0
  6
Continuous
 62
     7
100
AcDbLine
 10
-115.7999999999902
 20
140.6242263370354
 30
0.0
 11
-115.7999999999902
 21
146.725000194115
 31
0.0
  0
ENDBLK
  5
53
330
51
100
AcDbEntity
  8
0
100
AcDbBlockEnd
  0
BLOCK
  5
56
330
54
100
AcDbEntity
  8
0
100
AcDbBlockBegin
  2
Vordans1
 70
     0
 10
-115.0
 20
148.987500190795
 30
0.0
  3
Vordans1
  1

  0
INSERT
  5
55
330
54
100
AcDbEntity
  8
0
100
AcDbBlockReference
  2
3030349_FBS_5-6_select__3
 10
-116.5
 20
137.650000194086
 30
0.0
  0
MTEXT
  5
F0
330
54
100
AcDbEntity
  8
1
 62
     6
100
AcDbMText
 10
-115.0
 20
132.6500000954276
 30
0.0
 40
5.0
 41
0.0
 71
     2
 72
     1
  1
 
  7
CONVERTER_11
 73
     1
 44
1.32052821128451
  0
DIMENSION
  5
FD
330
54
100
AcDbEntity
  8
1
100
AcDbDimension
  2
*D16
 10
-114.1999999999902
 20
127.222968842011
 30
0.0
 11
-106.382042322636
 21
131.147968842011
 31
0.0
 70
    32
  1
<>
 71
     5
 42
-1.0
 53
0.00013888888889
  3
ME10_DIM_10
100
AcDbAlignedDimension
 13
-115.7999999999902
 23
137.650000194086
 33
0.0
 14
-114.1999999999902
 24
137.650000194086
 34
0.0
100
AcDbRotatedDimension
  0
DIMENSION
  5
10A
330
54
100
AcDbEntity
  8
1
100
AcDbDimension
  2
*D17
 10
-113.5
 20
170.5000001941149
 30
0.0
 11
-108.026922486789
 21
174.2500001941149
 31
0.0
 70
    32
  1
<>
 71
     5
 42
-1.0
 53
0.00013888888889
  3
ME10_DIM_11
100
AcDbAlignedDimension
 13
-116.5
 23
146.725000194115
 33
0.0
 14
-113.5
 24
146.725000194115
 34
0.0
100
AcDbRotatedDimension
  0
ENDBLK
  5
57
330
54
100
AcDbEntity
  8
0
100
AcDbBlockEnd
  0
BLOCK
  5
59
330
58
100
AcDbEntity
  8
0
100
AcDbBlockBegin
  2
3030349_FBS_5-6_select__4
 70
     0
 10
-178.1999999401159
 20
137.6500001940859
 30
0.0
  3
3030349_FBS_5-6_select__4
  1

  0
LINE
  5
10B
330
58
100
AcDbEntity
  8
0
  6
Continuous
 62
     7
100
AcDbLine
 10
-156.4651889910941
 20
137.6500001941176
 30
0.0
 11
-158.234810889126
 21
137.6500001940859
 31
0.0
  0
LINE
  5
10C
330
58
100
AcDbEntity
  8
0
  6
Continuous
 62
     7
100
AcDbLine
 10
-170.6348108891377
 20
137.6500001941176
 30
0.0
 11
-168.8651889911058
 21
137.6500001940859
 31
0.0
  0
LINE
  5
10D
330
58
100
AcDbEntity
  8
0
  6
Continuous
 62
     7
100
AcDbLine
 10
-170.6348108891377
 20
137.6500001941176
 30
0.0
 11
-170.9999999401207
 21
140.6242263370294
 31
0.0
  0
LINE
  5
10E
330
58
100
AcDbEntity
  8
0
  6
Continuous
 62
     7
100
AcDbLine
 10
-175.0651889911021
 20
137.6500001940931
 30
0.0
 11
-176.834810889136
 21
137.6500001941248
 31
0.0
  0
LINE
  5
10F
330
58
100
AcDbEntity
  8
0
  6
Continuous
 62
     7
100
AcDbLine
 10
-176.834810889136
 20
137.6500001941248
 30
0.0
 11
-177.1999999401179
 21
140.624226337027
 31
0.0
  0
LINE
  5
110
330
58
100
AcDbEntity
  8
0
  6
Continuous
 62
     7
100
AcDbLine
 10
-165.7999999401159
 20
154.3250001941149
 30
0.0
 11
-165.7999999401159
 21
150.8250001941149
 31
0.0
  0
LINE
  5
111
330
58
100
AcDbEntity
  8
0
  6
Continuous
 62
     7
100
AcDbLine
 10
-167.4999999401159
 20
154.3250001941149
 30
0.0
 11
-165.7999999401159
 21
154.3250001941149
 31
0.0
  0
LINE
  5
112
330
58
100
AcDbEntity
  8
0
  6
Continuous
 62
     7
100
AcDbLine
 10
-167.4999999401159
 20
154.3250001941149
 30
0.0
 11
-167.4999999401159
 21
150.8250001941149
 31
0.0
  0
LINE
  5
113
330
58
100
AcDbEntity
  8
0
  6
Continuous
 62
     7
100
AcDbLine
 10
-171.3499999401191
 20
150.8250001941149
 30
0.0
 11
-171.9999999401159
 21
150.8250001941149
 31
0.0
  0
LINE
  5
114
330
58
100
AcDbEntity
  8
0
  6
Continuous
 62
     7
100
AcDbLine
 10
-171.9999999401159
 20
154.3250001941149
 30
0.0
 11
-171.9999999401159
 21
150.8250001941149
 31
0.0
  0
LINE
  5
115
330
58
100
AcDbEntity
  8
0
  6
Continuous
 62
     7
100
AcDbLine
 10
-171.9999999401159
 20
154.3250001941149
 30
0.0
 11
-173.6999999401159
 21
154.3250001941149
 31
0.0
  0
LINE
  5
116
330
58
100
AcDbEntity
  8
0
  6
Continuous
 62
     7
100
AcDbLine
 10
-168.1499999401169
 20
150.8250001941149
 30
0.0
 11
-171.3499999401191
 21
150.8250001941149
 31
0.0
  0
LINE
  5
117
330
58
100
AcDbEntity
  8
0
  6
Continuous
 62
     7
100
AcDbLine
 10
-171.3499999401191
 20
148.2750001941149
 30
0.0
 11
-171.3499999401191
 21
150.8250001941149
 31
0.0
  0
LINE
  5
118
330
58
100
AcDbEntity
  8
0
  6
Continuous
 62
     7
100
AcDbLine
 10
-161.2999999401159
 20
150.8250001941149
 30
0.0
 11
-161.9499999401169
 21
150.8250001941149
 31
0.0
  0
LINE
  5
119
330
58
100
AcDbEntity
  8
0
  6
Continuous
 62
     7
100
AcDbLine
 10
-161.9499999401169
 20
148.2750001941149
 30
0.0
 11
-161.9499999401169
 21
150.8250001941149
 31
0.0
  0
LINE
  5
11A
330
58
100
AcDbEntity
  8
0
  6
Continuous
 62
     7
100
AcDbLine
 10
-165.1499999401149
 20
148.2750001941149
 30
0.0
 11
-165.1499999401149
 21
150.8250001941149
 31
0.0
  0
LINE
  5
11B
330
58
100
AcDbEntity
  8
0
  6
Continuous
 62
     7
100
AcDbLine
 10
-165.1499999401149
 20
150.8250001941149
 30
0.0
 11
-165.7999999401159
 21
150.8250001941149
 31
0.0
  0
LINE
  5
11C
330
58
100
AcDbEntity
  8
0
  6
Continuous
 62
     7
100
AcDbLine
 10
-167.4999999401159
 20
150.8250001941149
 30
0.0
 11
-168.1499999401169
 21
150.8250001941149
 31
0.0
  0
LINE
  5
11D
330
58
100
AcDbEntity
  8
0
  6
Continuous
 62
     7
100
AcDbLine
 10
-158.9499999401149
 20
148.2750001941149
 30
0.0
 11
-158.9499999401149
 21
150.8250001941149
 31
0.0
  0
LINE
  5
11E
330
58
100
AcDbEntity
  8
0
  6
Continuous
 62
     7
100
AcDbLine
 10
-168.1499999401169
 20
150.8250001941149
 30
0.0
 11
-168.1499999401169
 21
148.2750001941149
 31
0.0
  0
LINE
  5
11F
330
58
100
AcDbEntity
  8
0
  6
Continuous
 62
     7
100
AcDbLine
 10
-161.9499999401169
 20
150.8250001941149
 30
0.0
 11
-165.1499999401149
 21
150.8250001941149
 31
0.0
  0
LINE
  5
120
330
58
100
AcDbEntity
  8
0
  6
Continuous
 62
     7
100
AcDbLine
 10
-159.5999999401159
 20
150.8250001941149
 30
0.0
 11
-158.9499999401149
 21
150.8250001941149
 31
0.0
  0
LINE
  5
121
330
58
100
AcDbEntity
  8
0
  6
Continuous
 62
     7
100
AcDbLine
 10
-158.9499999401149
 20
150.8250001941149
 30
0.0
 11
-155.7499999401126
 21
150.8250001941149
 31
0.0
  0
LINE
  5
122
330
58
100
AcDbEntity
  8
0
  6
Continuous
 62
     7
100
AcDbLine
 10
-159.5999999401159
 20
154.3250001941149
 30
0.0
 11
-159.5999999401159
 21
150.8250001941149
 31
0.0
  0
LINE
  5
123
330
58
100
AcDbEntity
  8
0
  6
Continuous
 62
     7
100
AcDbLine
 10
-159.5999999401159
 20
154.3250001941149
 30
0.0
 11
-161.2999999401159
 21
154.3250001941149
 31
0.0
  0
LINE
  5
124
330
58
100
AcDbEntity
  8
0
  6
Continuous
 62
     7
100
AcDbLine
 10
-155.7499999401126
 20
150.8250001941149
 30
0.0
 11
-155.7499999401126
 21
148.2750001941149
 31
0.0
  0
LINE
  5
125
330
58
100
AcDbEntity
  8
0
  6
Continuous
 62
     7
100
AcDbLine
 10
-161.2999999401159
 20
154.3250001941149
 30
0.0
 11
-161.2999999401159
 21
150.8250001941149
 31
0.0
  0
LINE
  5
126
330
58
100
AcDbEntity
  8
0
  6
Continuous
 62
     7
100
AcDbLine
 10
-178.1999999401159
 20
160.3250001941149
 30
0.0
 11
-148.8999999401159
 21
160.3250001941149
 31
0.0
  0
LINE
  5
127
330
58
100
AcDbEntity
  8
0
  6
Continuous
 62
     7
100
AcDbLine
 10
-178.1999999401159
 20
146.7250001941149
 30
0.0
 11
-178.1999999401159
 21
160.3250001941149
 31
0.0
  0
LINE
  5
128
330
58
100
AcDbEntity
  8
0
  6
Continuous
 62
     7
100
AcDbLine
 10
-173.6999999401159
 20
154.3250001941149
 30
0.0
 11
-173.6999999401159
 21
146.7250001941149
 31
0.0
  0
LINE
  5
129
330
58
100
AcDbEntity
  8
0
  6
Continuous
 62
     7
100
AcDbLine
 10
-174.6999999401153
 20
140.6242263370352
 30
0.0
 11
-174.6999999401153
 21
146.7250001941149
 31
0.0
  0
LINE
  5
12A
330
58
100
AcDbEntity
  8
0
  6
Continuous
 62
     7
100
AcDbLine
 10
-177.1999999401179
 20
146.7250001941149
 30
0.0
 11
-177.1999999401179
 21
140.624226337027
 31
0.0
  0
LINE
  5
12B
330
58
100
AcDbEntity
  8
0
  6
Continuous
 62
     7
100
AcDbLine
 10
-162.2999999401182
 20
140.6242263370352
 30
0.0
 11
-162.2999999401182
 21
147.9250001941136
 31
0.0
  0
LINE
  5
12C
330
58
100
AcDbEntity
  8
0
  6
Continuous
 62
     7
100
AcDbLine
 10
-164.7999999401136
 20
140.6242263370353
 30
0.0
 11
-164.7999999401136
 21
147.9250001941136
 31
0.0
  0
LINE
  5
12D
330
58
100
AcDbEntity
  8
0
  6
Continuous
 62
     7
100
AcDbLine
 10
-158.5999999401136
 20
140.6242263370353
 30
0.0
 11
-158.5999999401136
 21
147.9250001941136
 31
0.0
  0
LINE
  5
12E
330
58
100
AcDbEntity
  8
0
  6
Continuous
 62
     7
100
AcDbLine
 10
-168.4999999401182
 20
147.9250001941136
 30
0.0
 11
-168.4999999401182
 21
140.6242263370353
 31
0.0
  0
LINE
  5
12F
330
58
100
AcDbEntity
  8
0
  6
Continuous
 62
     7
100
AcDbLine
 10
-170.9999999401207
 20
147.9250001941165
 30
0.0
 11
-170.9999999401207
 21
140.6242263370294
 31
0.0
  0
LINE
  5
130
330
58
100
AcDbEntity
  8
0
  6
Continuous
 62
     7
100
AcDbLine
 10
-164.7999999401136
 20
147.9250001941136
 30
0.0
 11
-165.1499999401149
 21
148.2750001941149
 31
0.0
  0
LINE
  5
131
330
58
100
AcDbEntity
  8
0
  6
Continuous
 62
     7
100
AcDbLine
 10
-177.1999999401179
 20
146.7250001941149
 30
0.0
 11
-178.1999999401159
 21
146.7250001941149
 31
0.0
  0
LINE
  5
132
330
58
100
AcDbEntity
  8
0
  6
Continuous
 62
     7
100
AcDbLine
 10
-173.6999999401159
 20
146.7250001941149
 30
0.0
 11
-174.6999999401153
 21
146.7250001941149
 31
0.0
  0
LINE
  5
133
330
58
100
AcDbEntity
  8
0
  6
Continuous
 62
     7
100
AcDbLine
 10
-158.5999999401136
 20
147.9250001941136
 30
0.0
 11
-158.9499999401149
 21
148.2750001941149
 31
0.0
  0
LINE
  5
134
330
58
100
AcDbEntity
  8
0
  6
Continuous
 62
     7
100
AcDbLine
 10
-168.1499999401169
 20
148.2750001941149
 30
0.0
 11
-168.4999999401182
 21
147.9250001941136
 31
0.0
  0
LINE
  5
135
330
58
100
AcDbEntity
  8
0
  6
Continuous
 62
     7
100
AcDbLine
 10
-170.9999999401207
 20
147.9250001941165
 30
0.0
 11
-171.3499999401191
 21
148.2750001941149
 31
0.0
  0
LINE
  5
136
330
58
100
AcDbEntity
  8
0
  6
Continuous
 62
     7
100
AcDbLine
 10
-174.6999999401153
 20
146.7250001941149
 30
0.0
 11
-177.1999999401179
 21
146.7250001941149
 31
0.0
  0
LINE
  5
137
330
58
100
AcDbEntity
  8
0
  6
Continuous
 62
     7
100
AcDbLine
 10
-162.2999999401182
 20
147.9250001941136
 30
0.0
 11
-161.9499999401169
 21
148.2750001941149
 31
0.0
  0
LINE
  5
138
330
58
100
AcDbEntity
  8
0
  6
Continuous
 62
     7
100
AcDbLine
 10
-164.4348108891299
 20
137.6500001941176
 30
0.0
 11
-162.6651889911058
 21
137.6500001940859
 31
0.0
  0
LINE
  5
139
330
58
100
AcDbEntity
  8
0
  6
Continuous
 62
     7
100
AcDbLine
 10
-156.4651889910941
 20
137.6500001941176
 30
0.0
 11
-156.0999999401111
 21
140.6242263370293
 31
0.0
  0
LINE
  5
13A
330
58
100
AcDbEntity
  8
0
  6
Continuous
 62
     7
100
AcDbLine
 10
-168.8651889911058
 20
137.6500001940859
 30
0.0
 11
-168.4999999401182
 21
140.6242263370353
 31
0.0
  0
LINE
  5
13B
330
58
100
AcDbEntity
  8
0
  6
Continuous
 62
     7
100
AcDbLine
 10
-164.4348108891299
 20
137.6500001941176
 30
0.0
 11
-164.7999999401136
 21
140.6242263370353
 31
0.0
  0
LINE
  5
13C
330
58
100
AcDbEntity
  8
0
  6
Continuous
 62
     7
100
AcDbLine
 10
-174.6999999401153
 20
140.6242263370352
 30
0.0
 11
-175.0651889911021
 21
137.6500001940931
 31
0.0
  0
LINE
  5
13D
330
58
100
AcDbEntity
  8
0
  6
Continuous
 62
     7
100
AcDbLine
 10
-155.7499999401126
 20
148.2750001941149
 30
0.0
 11
-156.0999999401111
 21
147.9250001941165
 31
0.0
  0
LINE
  5
13E
330
58
100
AcDbEntity
  8
0
  6
Continuous
 62
     7
100
AcDbLine
 10
-155.7499999401126
 20
150.8250001941149
 30
0.0
 11
-155.0999999401159
 21
150.8250001941149
 31
0.0
  0
LINE
  5
13F
330
58
100
AcDbEntity
  8
0
  6
Continuous
 62
     7
100
AcDbLine
 10
-155.0999999401159
 20
154.3250001941149
 30
0.0
 11
-155.0999999401159
 21
150.8250001941149
 31
0.0
  0
LINE
  5
140
330
58
100
AcDbEntity
  8
0
  6
Continuous
 62
     7
100
AcDbLine
 10
-155.0999999401159
 20
154.3250001941149
 30
0.0
 11
-153.3999999401159
 21
154.3250001941149
 31
0.0
  0
LINE
  5
141
330
58
100
AcDbEntity
  8
0
  6
Continuous
 62
     7
100
AcDbLine
 10
-153.3999999401159
 20
154.3250001941149
 30
0.0
 11
-153.3999999401159
 21
146.7250001941149
 31
0.0
  0
LINE
  5
142
330
58
100
AcDbEntity
  8
0
  6
Continuous
 62
     7
100
AcDbLine
 10
-152.0348108891297
 20
137.6500001940931
 30
0.0
 11
-150.2651889910958
 21
137.6500001941248
 31
0.0
  0
LINE
  5
143
330
58
100
AcDbEntity
  8
0
  6
Continuous
 62
     7
100
AcDbLine
 10
-150.2651889910958
 20
137.6500001941248
 30
0.0
 11
-149.8999999401139
 21
140.6242263370267
 31
0.0
  0
LINE
  5
144
330
58
100
AcDbEntity
  8
0
  6
Continuous
 62
     7
100
AcDbLine
 10
-152.0348108891297
 20
137.6500001940931
 30
0.0
 11
-152.3999999401165
 21
140.6242263370352
 31
0.0
  0
LINE
  5
145
330
58
100
AcDbEntity
  8
0
  6
Continuous
 62
     7
100
AcDbLine
 10
-162.6651889911058
 20
137.6500001940859
 30
0.0
 11
-162.2999999401182
 21
140.6242263370352
 31
0.0
  0
LINE
  5
146
330
58
100
AcDbEntity
  8
0
  6
Continuous
 62
     7
100
AcDbLine
 10
-149.8999999401139
 20
146.7250001941149
 30
0.0
 11
-148.8999999401159
 21
146.7250001941149
 31
0.0
  0
LINE
  5
147
330
58
100
AcDbEntity
  8
0
  6
Continuous
 62
     7
100
AcDbLine
 10
-149.8999999401139
 20
140.6242263370267
 30
0.0
 11
-149.8999999401139
 21
146.7250001941149
 31
0.0
  0
LINE
  5
148
330
58
100
AcDbEntity
  8
0
  6
Continuous
 62
     7
100
AcDbLine
 10
-152.3999999401165
 20
146.7250001941149
 30
0.0
 11
-152.3999999401165
 21
140.6242263370352
 31
0.0
  0
LINE
  5
149
330
58
100
AcDbEntity
  8
0
  6
Continuous
 62
     7
100
AcDbLine
 10
-152.3999999401165
 20
146.7250001941149
 30
0.0
 11
-149.8999999401139
 21
146.7250001941149
 31
0.0
  0
LINE
  5
14A
330
58
100
AcDbEntity
  8
0
  6
Continuous
 62
     7
100
AcDbLine
 10
-148.8999999401159
 20
146.7250001941149
 30
0.0
 11
-148.8999999401159
 21
160.3250001941149
 31
0.0
  0
LINE
  5
14B
330
58
100
AcDbEntity
  8
0
  6
Continuous
 62
     7
100
AcDbLine
 10
-156.0999999401111
 20
140.6242263370293
 30
0.0
 11
-156.0999999401111
 21
147.9250001941165
 31
0.0
  0
LINE
  5
14C
330
58
100
AcDbEntity
  8
0
  6
Continuous
 62
     7
100
AcDbLine
 10
-153.3999999401159
 20
146.7250001941149
 30
0.0
 11
-152.3999999401165
 21
146.7250001941149
 31
0.0
  0
LINE
  5
14D
330
58
100
AcDbEntity
  8
0
  6
Continuous
 62
     7
100
AcDbLine
 10
-158.234810889126
 20
137.6500001940859
 30
0.0
 11
-158.5999999401136
 21
140.6242263370353
 31
0.0
  0
ENDBLK
  5
5A
330
58
100
AcDbEntity
  8
0
100
AcDbBlockEnd
  0
BLOCK
  5
5D
330
5B
100
AcDbEntity
  8
0
100
AcDbBlockBegin
  2
SA_Rechts1
 70
     0
 10
-163.55000009536
 20
148.9875001907949
 30
0.0
  3
SA_Rechts1
  1

  0
INSERT
  5
5C
330
5B
100
AcDbEntity
  8
0
100
AcDbBlockReference
  2
3030349_FBS_5-6_select__4
 10
-178.1999999401159
 20
137.6500001940859
 30
0.0
  0
MTEXT
  5
14E
330
5B
100
AcDbEntity
  8
1
 62
     6
100
AcDbMText
 10
-163.55000009536
 20
132.6500000954273
 30
0.0
 40
5.0
 41
0.0
 71
     2
 72
     1
  1
 
  7
CONVERTER_11
 73
     1
 44
1.32052821128451
  0
DIMENSION
  5
159
330
5B
100
AcDbEntity
  8
1
100
AcDbDimension
  2
*D18
 10
-198.0727609551211
 20
160.3250001941149
 30
0.0
 11
-201.8227609551211
 21
149.140405194053
 31
0.0
 70
    32
  1
<>
 71
     5
 42
-1.0
 53
90.0
  3
ME10_DIM_12
100
AcDbAlignedDimension
 13
-175.0651889911021
 23
137.6500001940931
 33
0.0
 14
-178.1999999401159
 24
160.3250001941149
 34
0.0
 50
90.0
100
AcDbRotatedDimension
  0
DIMENSION
  5
164
330
5B
100
AcDbEntity
  8
1
100
AcDbDimension
  2
*D19
 10
-188.1999999401159
 20
146.7250001941149
 30
0.0
 11
-192.1249999401159
 21
153.095463830656
 31
0.0
 70
    32
  1
<>
 71
     5
 42
-1.0
 53
90.0
  3
ME10_DIM_13
100
AcDbAlignedDimension
 13
-178.1999999401159
 23
160.3250001941149
 33
0.0
 14
-174.6999999401153
 24
146.7250001941149
 34
0.0
 50
90.0
100
AcDbRotatedDimension
  0
DIMENSION
  5
16F
330
5B
100
AcDbEntity
  8
1
100
AcDbDimension
  2
*D20
 10
-148.8999999401159
 20
170.3250001941149
 30
0.0
 11
-163.5499999401159
 21
174.2500001941149
 31
0.0
 70
    32
  1
<>
 71
     5
 42
-1.0
 53
0.00013888888889
  3
ME10_DIM_14
100
AcDbAlignedDimension
 13
-178.1999999401159
 23
160.3250001941149
 33
0.0
 14
-148.8999999401159
 24
160.3250001941149
 34
0.0
100
AcDbRotatedDimension
  0
ENDBLK
  5
5E
330
5B
100
AcDbEntity
  8
0
100
AcDbBlockEnd
  0
BLOCK
  5
60
330
5F
100
AcDbEntity
  8
0
100
AcDbBlockBegin
  2
3030349_FBS_5-6_select__5
 70
     0
 10
-84.57978010289673
 20
137.6500001940859
 30
0.0
  3
3030349_FBS_5-6_select__5
  1

  0
LINE
  5
170
330
5F
100
AcDbEntity
  8
0
  6
Continuous
 62
     7
100
AcDbLine
 10
-81.44496915388288
 20
137.6500001940931
 30
0.0
 11
-83.21459105191687
 21
137.6500001941248
 31
0.0
  0
LINE
  5
171
330
5F
100
AcDbEntity
  8
0
  6
Continuous
 62
     7
100
AcDbLine
 10
-75.24496915388663
 20
137.6500001940859
 30
0.0
 11
-77.01459105191857
 21
137.6500001941176
 31
0.0
  0
LINE
  5
172
330
5F
100
AcDbEntity
  8
0
  6
Continuous
 62
     7
100
AcDbLine
 10
-83.21459105191687
 20
137.6500001941248
 30
0.0
 11
-83.57978010289874
 21
140.624226337027
 31
0.0
  0
LINE
  5
173
330
5F
100
AcDbEntity
  8
0
  6
Continuous
 62
     7
100
AcDbLine
 10
-69.04496915388275
 20
137.6500001941176
 30
0.0
 11
-68.67978010289902
 21
140.6242263370353
 31
0.0
  0
LINE
  5
174
330
5F
100
AcDbEntity
  8
0
  6
Continuous
 62
     7
100
AcDbLine
 10
-69.04496915388275
 20
137.6500001941176
 30
0.0
 11
-70.81459105190683
 21
137.6500001940859
 31
0.0
  0
LINE
  5
175
330
5F
100
AcDbEntity
  8
0
  6
Continuous
 62
     7
100
AcDbLine
 10
-72.17978010289673
 20
154.3250001941149
 30
0.0
 11
-73.87978010289673
 21
154.3250001941149
 31
0.0
  0
LINE
  5
176
330
5F
100
AcDbEntity
  8
0
  6
Continuous
 62
     7
100
AcDbLine
 10
-61.47978010289674
 20
154.3250001941149
 30
0.0
 11
-59.77978010289674
 21
154.3250001941149
 31
0.0
  0
LINE
  5
177
330
5F
100
AcDbEntity
  8
0
  6
Continuous
 62
     7
100
AcDbLine
 10
-67.67978010289673
 20
154.3250001941149
 30
0.0
 11
-65.97978010289674
 21
154.3250001941149
 31
0.0
  0
LINE
  5
178
330
5F
100
AcDbEntity
  8
0
  6
Continuous
 62
     7
100
AcDbLine
 10
-67.67978010289673
 20
150.8250001941149
 30
0.0
 11
-67.67978010289673
 21
154.3250001941149
 31
0.0
  0
LINE
  5
179
330
5F
100
AcDbEntity
  8
0
  6
Continuous
 62
     7
100
AcDbLine
 10
-65.97978010289674
 20
150.8250001941149
 30
0.0
 11
-65.97978010289674
 21
154.3250001941149
 31
0.0
  0
LINE
  5
17A
330
5F
100
AcDbEntity
  8
0
  6
Continuous
 62
     7
100
AcDbLine
 10
-72.17978010289673
 20
150.8250001941149
 30
0.0
 11
-72.17978010289673
 21
154.3250001941149
 31
0.0
  0
LINE
  5
17B
330
5F
100
AcDbEntity
  8
0
  6
Continuous
 62
     7
100
AcDbLine
 10
-62.12978010289351
 20
150.8250001941149
 30
0.0
 11
-65.32978010289575
 21
150.8250001941149
 31
0.0
  0
LINE
  5
17C
330
5F
100
AcDbEntity
  8
0
  6
Continuous
 62
     7
100
AcDbLine
 10
-61.47978010289674
 20
150.8250001941149
 30
0.0
 11
-62.12978010289351
 21
150.8250001941149
 31
0.0
  0
LINE
  5
17D
330
5F
100
AcDbEntity
  8
0
  6
Continuous
 62
     7
100
AcDbLine
 10
-61.47978010289674
 20
154.3250001941149
 30
0.0
 11
-61.47978010289674
 21
150.8250001941149
 31
0.0
  0
LINE
  5
17E
330
5F
100
AcDbEntity
  8
0
  6
Continuous
 62
     7
100
AcDbLine
 10
-73.87978010289673
 20
150.8250001941149
 30
0.0
 11
-73.87978010289673
 21
154.3250001941149
 31
0.0
  0
LINE
  5
17F
330
5F
100
AcDbEntity
  8
0
  6
Continuous
 62
     7
100
AcDbLine
 10
-78.37978010289673
 20
150.8250001941149
 30
0.0
 11
-77.72978010289997
 21
150.8250001941149
 31
0.0
  0
LINE
  5
180
330
5F
100
AcDbEntity
  8
0
  6
Continuous
 62
     7
100
AcDbLine
 10
-77.72978010289997
 20
150.8250001941149
 30
0.0
 11
-74.52978010289772
 21
150.8250001941149
 31
0.0
  0
LINE
  5
181
330
5F
100
AcDbEntity
  8
0
  6
Continuous
 62
     7
100
AcDbLine
 10
-78.37978010289673
 20
154.3250001941149
 30
0.0
 11
-78.37978010289673
 21
150.8250001941149
 31
0.0
  0
LINE
  5
182
330
5F
100
AcDbEntity
  8
0
  6
Continuous
 62
     7
100
AcDbLine
 10
-78.37978010289673
 20
154.3250001941149
 30
0.0
 11
-80.07978010289673
 21
154.3250001941149
 31
0.0
  0
LINE
  5
183
330
5F
100
AcDbEntity
  8
0
  6
Continuous
 62
     7
100
AcDbLine
 10
-71.52978010289574
 20
148.2750001941149
 30
0.0
 11
-71.52978010289574
 21
150.8250001941149
 31
0.0
  0
LINE
  5
184
330
5F
100
AcDbEntity
  8
0
  6
Continuous
 62
     7
100
AcDbLine
 10
-71.52978010289574
 20
150.8250001941149
 30
0.0
 11
-72.17978010289673
 21
150.8250001941149
 31
0.0
  0
LINE
  5
185
330
5F
100
AcDbEntity
  8
0
  6
Continuous
 62
     7
100
AcDbLine
 10
-67.67978010289673
 20
150.8250001941149
 30
0.0
 11
-68.32978010289773
 21
150.8250001941149
 31
0.0
  0
LINE
  5
186
330
5F
100
AcDbEntity
  8
0
  6
Continuous
 62
     7
100
AcDbLine
 10
-68.32978010289773
 20
148.2750001941149
 30
0.0
 11
-68.32978010289773
 21
150.8250001941149
 31
0.0
  0
LINE
  5
187
330
5F
100
AcDbEntity
  8
0
  6
Continuous
 62
     7
100
AcDbLine
 10
-65.32978010289575
 20
150.8250001941149
 30
0.0
 11
-65.97978010289674
 21
150.8250001941149
 31
0.0
  0
LINE
  5
188
330
5F
100
AcDbEntity
  8
0
  6
Continuous
 62
     7
100
AcDbLine
 10
-62.12978010289351
 20
148.2750001941149
 30
0.0
 11
-62.12978010289351
 21
150.8250001941149
 31
0.0
  0
LINE
  5
189
330
5F
100
AcDbEntity
  8
0
  6
Continuous
 62
     7
100
AcDbLine
 10
-74.52978010289772
 20
150.8250001941149
 30
0.0
 11
-73.87978010289673
 21
150.8250001941149
 31
0.0
  0
LINE
  5
18A
330
5F
100
AcDbEntity
  8
0
  6
Continuous
 62
     7
100
AcDbLine
 10
-65.32978010289575
 20
150.8250001941149
 30
0.0
 11
-65.32978010289575
 21
148.2750001941149
 31
0.0
  0
LINE
  5
18B
330
5F
100
AcDbEntity
  8
0
  6
Continuous
 62
     7
100
AcDbLine
 10
-74.52978010289772
 20
148.2750001941149
 30
0.0
 11
-74.52978010289772
 21
150.8250001941149
 31
0.0
  0
LINE
  5
18C
330
5F
100
AcDbEntity
  8
0
  6
Continuous
 62
     7
100
AcDbLine
 10
-68.32978010289773
 20
150.8250001941149
 30
0.0
 11
-71.52978010289574
 21
150.8250001941149
 31
0.0
  0
LINE
  5
18D
330
5F
100
AcDbEntity
  8
0
  6
Continuous
 62
     7
100
AcDbLine
 10
-77.72978010289997
 20
150.8250001941149
 30
0.0
 11
-77.72978010289998
 21
148.2750001941149
 31
0.0
  0
LINE
  5
18E
330
5F
100
AcDbEntity
  8
0
  6
Continuous
 62
     7
100
AcDbLine
 10
-55.27978010289674
 20
160.3250001941149
 30
0.0
 11
-84.57978010289673
 21
160.3250001941149
 31
0.0
  0
LINE
  5
18F
330
5F
100
AcDbEntity
  8
0
  6
Continuous
 62
     7
100
AcDbLine
 10
-84.57978010289673
 20
160.3250001941149
 30
0.0
 11
-84.57978010289673
 21
146.7250001941149
 31
0.0
  0
LINE
  5
190
330
5F
100
AcDbEntity
  8
0
  6
Continuous
 62
     7
100
AcDbLine
 10
-83.57978010289874
 20
140.624226337027
 30
0.0
 11
-83.57978010289871
 21
146.7250001941149
 31
0.0
  0
LINE
  5
191
330
5F
100
AcDbEntity
  8
0
  6
Continuous
 62
     7
100
AcDbLine
 10
-56.6449691538766
 20
137.6500001941248
 30
0.0
 11
-56.27978010289473
 21
140.624226337027
 31
0.0
  0
LINE
  5
192
330
5F
100
AcDbEntity
  8
0
  6
Continuous
 62
     7
100
AcDbLine
 10
-58.41459105191059
 20
137.6500001940931
 30
0.0
 11
-56.6449691538766
 21
137.6500001941248
 31
0.0
  0
LINE
  5
193
330
5F
100
AcDbEntity
  8
0
  6
Continuous
 62
     7
100
AcDbLine
 10
-55.27978010289674
 20
160.3250001941149
 30
0.0
 11
-55.27978010289674
 21
146.7250001941149
 31
0.0
  0
LINE
  5
194
330
5F
100
AcDbEntity
  8
0
  6
Continuous
 62
     7
100
AcDbLine
 10
-58.77978010289736
 20
146.7250001941149
 30
0.0
 11
-58.77978010289735
 21
140.6242263370352
 31
0.0
  0
LINE
  5
195
330
5F
100
AcDbEntity
  8
0
  6
Continuous
 62
     7
100
AcDbLine
 10
-56.27978010289476
 20
146.7250001941149
 30
0.0
 11
-56.27978010289473
 21
140.624226337027
 31
0.0
  0
LINE
  5
196
330
5F
100
AcDbEntity
  8
0
  6
Continuous
 62
     7
100
AcDbLine
 10
-64.61459105190684
 20
137.6500001940859
 30
0.0
 11
-62.8449691538749
 21
137.6500001941176
 31
0.0
  0
LINE
  5
197
330
5F
100
AcDbEntity
  8
0
  6
Continuous
 62
     7
100
AcDbLine
 10
-62.8449691538749
 20
137.6500001941176
 30
0.0
 11
-62.47978010289189
 21
140.6242263370293
 31
0.0
  0
LINE
  5
198
330
5F
100
AcDbEntity
  8
0
  6
Continuous
 62
     7
100
AcDbLine
 10
-62.47978010289189
 20
147.9250001941165
 30
0.0
 11
-62.47978010289189
 21
140.6242263370293
 31
0.0
  0
LINE
  5
199
330
5F
100
AcDbEntity
  8
0
  6
Continuous
 62
     7
100
AcDbLine
 10
-59.77978010289674
 20
146.7250001941149
 30
0.0
 11
-59.77978010289674
 21
154.3250001941149
 31
0.0
  0
LINE
  5
19A
330
5F
100
AcDbEntity
  8
0
  6
Continuous
 62
     7
100
AcDbLine
 10
-58.77978010289735
 20
140.6242263370352
 30
0.0
 11
-58.41459105191059
 21
137.6500001940931
 31
0.0
  0
LINE
  5
19B
330
5F
100
AcDbEntity
  8
0
  6
Continuous
 62
     7
100
AcDbLine
 10
-81.07978010289611
 20
146.7250001941149
 30
0.0
 11
-80.07978010289673
 21
146.7250001941149
 31
0.0
  0
LINE
  5
19C
330
5F
100
AcDbEntity
  8
0
  6
Continuous
 62
     7
100
AcDbLine
 10
-83.57978010289871
 20
146.7250001941149
 30
0.0
 11
-81.07978010289611
 21
146.7250001941149
 31
0.0
  0
LINE
  5
19D
330
5F
100
AcDbEntity
  8
0
  6
Continuous
 62
     7
100
AcDbLine
 10
-84.57978010289673
 20
146.7250001941149
 30
0.0
 11
-83.57978010289871
 21
146.7250001941149
 31
0.0
  0
LINE
  5
19E
330
5F
100
AcDbEntity
  8
0
  6
Continuous
 62
     7
100
AcDbLine
 10
-77.72978010289998
 20
148.2750001941149
 30
0.0
 11
-77.37978010290158
 21
147.9250001941165
 31
0.0
  0
LINE
  5
19F
330
5F
100
AcDbEntity
  8
0
  6
Continuous
 62
     7
100
AcDbLine
 10
-65.32978010289575
 20
148.2750001941149
 30
0.0
 11
-64.9797801028948
 21
147.9250001941139
 31
0.0
  0
LINE
  5
1A0
330
5F
100
AcDbEntity
  8
0
  6
Continuous
 62
     7
100
AcDbLine
 10
-71.17978010289445
 20
147.9250001941139
 30
0.0
 11
-71.52978010289574
 21
148.2750001941149
 31
0.0
  0
LINE
  5
1A1
330
5F
100
AcDbEntity
  8
0
  6
Continuous
 62
     7
100
AcDbLine
 10
-77.01459105191857
 20
137.6500001941176
 30
0.0
 11
-77.37978010290158
 21
140.6242263370294
 31
0.0
  0
LINE
  5
1A2
330
5F
100
AcDbEntity
  8
0
  6
Continuous
 62
     7
100
AcDbLine
 10
-81.44496915388288
 20
137.6500001940931
 30
0.0
 11
-81.07978010289611
 21
140.6242263370353
 31
0.0
  0
LINE
  5
1A3
330
5F
100
AcDbEntity
  8
0
  6
Continuous
 62
     7
100
AcDbLine
 10
-81.07978010289611
 20
146.7250001941149
 30
0.0
 11
-81.07978010289611
 21
140.6242263370353
 31
0.0
  0
LINE
  5
1A4
330
5F
100
AcDbEntity
  8
0
  6
Continuous
 62
     7
100
AcDbLine
 10
-74.87978010289899
 20
140.6242263370353
 30
0.0
 11
-74.87978010289868
 21
147.9250001941139
 31
0.0
  0
LINE
  5
1A5
330
5F
100
AcDbEntity
  8
0
  6
Continuous
 62
     7
100
AcDbLine
 10
-71.17978010289445
 20
140.6242263370353
 30
0.0
 11
-71.17978010289445
 21
147.9250001941139
 31
0.0
  0
LINE
  5
1A6
330
5F
100
AcDbEntity
  8
0
  6
Continuous
 62
     7
100
AcDbLine
 10
-75.24496915388663
 20
137.6500001940859
 30
0.0
 11
-74.87978010289899
 21
140.6242263370353
 31
0.0
  0
LINE
  5
1A7
330
5F
100
AcDbEntity
  8
0
  6
Continuous
 62
     7
100
AcDbLine
 10
-64.97978010289447
 20
140.6242263370353
 30
0.0
 11
-64.61459105190684
 21
137.6500001940859
 31
0.0
  0
LINE
  5
1A8
330
5F
100
AcDbEntity
  8
0
  6
Continuous
 62
     7
100
AcDbLine
 10
-64.9797801028948
 20
147.9250001941139
 30
0.0
 11
-64.97978010289447
 21
140.6242263370353
 31
0.0
  0
LINE
  5
1A9
330
5F
100
AcDbEntity
  8
0
  6
Continuous
 62
     7
100
AcDbLine
 10
-68.67978010289902
 20
140.6242263370353
 30
0.0
 11
-68.67978010289902
 21
147.9250001941139
 31
0.0
  0
LINE
  5
1AA
330
5F
100
AcDbEntity
  8
0
  6
Continuous
 62
     7
100
AcDbLine
 10
-77.37978010290158
 20
140.6242263370294
 30
0.0
 11
-77.37978010290158
 21
147.9250001941165
 31
0.0
  0
LINE
  5
1AB
330
5F
100
AcDbEntity
  8
0
  6
Continuous
 62
     7
100
AcDbLine
 10
-80.07978010289673
 20
146.7250001941149
 30
0.0
 11
-80.07978010289673
 21
154.3250001941149
 31
0.0
  0
LINE
  5
1AC
330
5F
100
AcDbEntity
  8
0
  6
Continuous
 62
     7
100
AcDbLine
 10
-58.77978010289736
 20
146.7250001941149
 30
0.0
 11
-59.77978010289674
 21
146.7250001941149
 31
0.0
  0
LINE
  5
1AD
330
5F
100
AcDbEntity
  8
0
  6
Continuous
 62
     7
100
AcDbLine
 10
-55.27978010289674
 20
146.7250001941149
 30
0.0
 11
-56.27978010289476
 21
146.7250001941149
 31
0.0
  0
LINE
  5
1AE
330
5F
100
AcDbEntity
  8
0
  6
Continuous
 62
     7
100
AcDbLine
 10
-74.87978010289868
 20
147.9250001941139
 30
0.0
 11
-74.52978010289772
 21
148.2750001941149
 31
0.0
  0
LINE
  5
1AF
330
5F
100
AcDbEntity
  8
0
  6
Continuous
 62
     7
100
AcDbLine
 10
-62.47978010289189
 20
147.9250001941165
 30
0.0
 11
-62.12978010289351
 21
148.2750001941149
 31
0.0
  0
LINE
  5
1B0
330
5F
100
AcDbEntity
  8
0
  6
Continuous
 62
     7
100
AcDbLine
 10
-56.27978010289476
 20
146.7250001941149
 30
0.0
 11
-58.77978010289736
 21
146.7250001941149
 31
0.0
  0
LINE
  5
1B1
330
5F
100
AcDbEntity
  8
0
  6
Continuous
 62
     7
100
AcDbLine
 10
-68.67978010289902
 20
147.9250001941139
 30
0.0
 11
-68.32978010289773
 21
148.2750001941149
 31
0.0
  0
LINE
  5
1B2
330
5F
100
AcDbEntity
  8
0
  6
Continuous
 62
     7
100
AcDbLine
 10
-70.81459105190683
 20
137.6500001940859
 30
0.0
 11
-71.17978010289445
 21
140.6242263370353
 31
0.0
  0
ENDBLK
  5
61
330
5F
100
AcDbEntity
  8
0
100
AcDbBlockEnd
  0
BLOCK
  5
64
330
62
100
AcDbEntity
  8
0
100
AcDbBlockBegin
  2
SA_Links1
 70
     0
 10
-69.9297799476526
 20
148.9875001907949
 30
0.0
  3
SA_Links1
  1

  0
INSERT
  5
63
330
62
100
AcDbEntity
  8
0
100
AcDbBlockReference
  2
3030349_FBS_5-6_select__5
 10
-84.57978010289673
 20
137.6500001940859
 30
0.0
  0
MTEXT
  5
1B3
330
62
100
AcDbEntity
  8
1
 62
     6
100
AcDbMText
 10
-69.9297799476526
 20
132.6500000954275
 30
0.0
 40
5.0
 41
0.0
 71
     2
 72
     1
  1
 
  7
CONVERTER_11
 73
     1
 44
1.32052821128451
  0
ENDBLK
  5
65
330
62
100
AcDbEntity
  8
0
100
AcDbBlockEnd
  0
BLOCK
  5
67
330
66
100
AcDbEntity
  8
0
100
AcDbBlockBegin
  2
3030349_FBS_5-6_select__6
 70
     0
 10
-27.16537029243555
 20
137.6500001941176
 30
0.0
  3
3030349_FBS_5-6_select__6
  1

  0
LINE
  5
1B4
330
66
100
AcDbEntity
  8
0
  6
Continuous
 62
     7
100
AcDbLine
 10
-27.16537029243555
 20
146.7250001941148
 30
0.0
 11
-27.16537029243555
 21
160.3250001941148
 31
0.0
  0
LINE
  5
1B5
330
66
100
AcDbEntity
  8
0
  6
Continuous
 62
     7
100
AcDbLine
 10
-26.46537029244529
 20
137.6500001941176
 30
0.0
 11
-26.46537029244529
 21
140.6242263370293
 31
0.0
  0
LINE
  5
1B6
330
66
100
AcDbEntity
  8
0
  6
Continuous
 62
     7
100
AcDbLine
 10
-26.46537029244529
 20
146.7250001941148
 30
0.0
 11
-26.46537029244529
 21
140.6242263370293
 31
0.0
  0
LINE
  5
1B7
330
66
100
AcDbEntity
  8
0
  6
Continuous
 62
     7
100
AcDbLine
 10
-27.16537029243555
 20
146.7250001941148
 30
0.0
 11
-26.46537029244529
 21
146.7250001941148
 31
0.0
  0
LINE
  5
1B8
330
66
100
AcDbEntity
  8
0
  6
Continuous
 62
     7
100
AcDbLine
 10
-24.8653702924453
 20
146.7250001941148
 30
0.0
 11
-24.16537029243555
 21
146.7250001941148
 31
0.0
  0
LINE
  5
1B9
330
66
100
AcDbEntity
  8
0
  6
Continuous
 62
     7
100
AcDbLine
 10
-26.46537029244529
 20
146.7250001941148
 30
0.0
 11
-24.8653702924453
 21
146.7250001941148
 31
0.0
  0
LINE
  5
1BA
330
66
100
AcDbEntity
  8
0
  6
Continuous
 62
     7
100
AcDbLine
 10
-24.16537029243555
 20
146.7250001941148
 30
0.0
 11
-24.16537029243555
 21
160.3250001941148
 31
0.0
  0
LINE
  5
1BB
330
66
100
AcDbEntity
  8
0
  6
Continuous
 62
     7
100
AcDbLine
 10
-24.8653702924453
 20
137.6500001941176
 30
0.0
 11
-24.8653702924453
 21
140.6242263370293
 31
0.0
  0
LINE
  5
1BC
330
66
100
AcDbEntity
  8
0
  6
Continuous
 62
     7
100
AcDbLine
 10
-24.8653702924453
 20
137.6500001941176
 30
0.0
 11
-26.46537029244529
 21
137.6500001941176
 31
0.0
  0
LINE
  5
1BD
330
66
100
AcDbEntity
  8
0
  6
Continuous
 62
     7
100
AcDbLine
 10
-24.16537029243555
 20
160.3250001941148
 30
0.0
 11
-27.16537029243555
 21
160.3250001941148
 31
0.0
  0
LINE
  5
1BE
330
66
100
AcDbEntity
  8
0
  6
Continuous
 62
     7
100
AcDbLine
 10
-24.8653702924453
 20
140.6242263370293
 30
0.0
 11
-26.46537029244529
 21
140.6242263370293
 31
0.0
  0
LINE
  5
1BF
330
66
100
AcDbEntity
  8
0
  6
Continuous
 62
     7
100
AcDbLine
 10
-24.8653702924453
 20
146.7250001941148
 30
0.0
 11
-24.8653702924453
 21
140.6242263370293
 31
0.0
  0
ENDBLK
  5
68
330
66
100
AcDbEntity
  8
0
100
AcDbBlockEnd
  0
BLOCK
  5
6B
330
69
100
AcDbEntity
  8
0
100
AcDbBlockBegin
  2
Rckans1
 70
     0
 10
-25.66537029243555
 20
148.9875001907949
 30
0.0
  3
Rckans1
  1

  0
INSERT
  5
6A
330
69
100
AcDbEntity
  8
0
100
AcDbBlockReference
  2
3030349_FBS_5-6_select__6
 10
-27.16537029243555
 20
137.6500001941176
 30
0.0
  0
MTEXT
  5
1C0
330
69
100
AcDbEntity
  8
1
 62
     6
100
AcDbMText
 10
-25.6653702924356
 20
132.6500000954275
 30
0.0
 40
5.0
 41
0.0
 71
     2
 72
     1
  1
 
  7
CONVERTER_11
 73
     1
 44
1.32052821128451
  0
ENDBLK
  5
6C
330
69
100
AcDbEntity
  8
0
100
AcDbBlockEnd
  0
BLOCK
  5
6E
330
6D
100
AcDbEntity
  8
0
100
AcDbBlockBegin
  2
_rahmen
 70
     0
 10
27.00000000000004
 20
2.6500001552441
 30
0.0
  3
_rahmen
  1

  0
POINT
  5
1C1
330
6D
100
AcDbEntity
  8
1
 62
     3
 60
     1
100
AcDbPoint
 10
-36.49999999999758
 20
28.90000015524408
 30
0.0
  0
LINE
  5
1C2
330
6D
100
AcDbEntity
  8
1
  6
Continuous
 62
     7
100
AcDbLine
 10
-36.49999999999758
 20
24.6500001552441
 30
0.0
 11
-36.49999999999758
 21
28.90000015524408
 31
0.0
  0
LINE
  5
1C3
330
6D
100
AcDbEntity
  8
1
  6
Continuous
 62
     6
100
AcDbLine
 10
-116.5
 20
7.65000015524421
 30
0.0
 11
-116.04480452675
 21
7.6500001552441
 31
0.0
  0
LINE
  5
1C4
330
6D
100
AcDbEntity
  8
1
  6
Continuous
 62
     6
100
AcDbLine
 10
-166.5000000000001
 20
7.65000015524421
 30
0.0
 11
-205.3000000000001
 21
7.65000015524421
 31
0.0
  0
LINE
  5
1C5
330
6D
100
AcDbEntity
  8
1
  6
Continuous
 62
     6
100
AcDbLine
 10
-216.4999999999999
 20
7.65000015524421
 30
0.0
 11
-205.3000000000001
 21
7.65000015524421
 31
0.0
  0
LINE
  5
1C6
330
6D
100
AcDbEntity
  8
1
  6
Continuous
 62
     6
100
AcDbLine
 10
-16.49999999999995
 20
7.65000015524421
 30
0.0
 11
27.00000000000004
 21
7.65000015524421
 31
0.0
  0
LINE
  5
1C7
330
6D
100
AcDbEntity
  8
1
  6
Continuous
 62
     6
100
AcDbLine
 10
-66.49999999999996
 20
7.65000015524421
 30
0.0
 11
-84.34480452675
 21
7.65000015524421
 31
0.0
  0
LINE
  5
1C8
330
6D
100
AcDbEntity
  8
1
  6
PHANTOM
 62
     2
100
AcDbLine
 10
-94.4255413119496
 20
22.5250001552441
 30
0.0
 11
-90.1099463427606
 21
22.5250001552441
 31
0.0
  0
LINE
  5
1C9
330
6D
100
AcDbEntity
  8
1
  6
PHANTOM
 62
     2
100
AcDbLine
 10
-97.4525447016466
 20
24.17500015524413
 30
0.0
 11
-97.4525447016466
 21
20.87500015524412
 31
0.0
  0
LINE
  5
1CA
330
6D
100
AcDbEntity
  8
1
  6
PHANTOM
 62
     2
100
AcDbLine
 10
-95.8025447016466
 20
22.5250001552441
 30
0.0
 11
-99.1025447016466
 21
22.5250001552441
 31
0.0
  0
LINE
  5
1CB
330
6D
100
AcDbEntity
  8
1
  6
Continuous
 62
     2
100
AcDbLine
 10
27.00000000000004
 20
7.65000015524421
 30
0.0
 11
31.99999999999905
 21
7.65000015524421
 31
0.0
  0
LINE
  5
1CC
330
6D
100
AcDbEntity
  8
1
  6
Continuous
 62
     2
100
AcDbLine
 10
27.00000000000004
 20
7.65000015524421
 30
0.0
 11
27.00000000000004
 21
2.6500001552441
 31
0.0
  0
LINE
  5
1CD
330
6D
100
AcDbEntity
  8
1
  6
Continuous
 62
     7
100
AcDbLine
 10
-66.14480452674997
 20
20.4000001552441
 30
0.0
 11
-66.14480452674997
 21
24.6500001552441
 31
0.0
  0
LINE
  5
1CE
330
6D
100
AcDbEntity
  8
1
  6
Continuous
 62
     7
100
AcDbLine
 10
-102.5448045267499
 20
20.4000001552441
 30
0.0
 11
-66.14480452674997
 21
20.4000001552441
 31
0.0
  0
LINE
  5
1CF
330
6D
100
AcDbEntity
  8
1
  6
Continuous
 62
     2
100
AcDbLine
 10
31.99999999999905
 20
2.6500001552441
 30
0.0
 11
31.99999999999905
 21
7.65000015524421
 31
0.0
  0
LINE
  5
1D0
330
6D
100
AcDbEntity
  8
1
  6
Continuous
 62
     2
100
AcDbLine
 10
31.99999999999905
 20
2.6500001552441
 30
0.0
 11
27.00000000000004
 21
2.6500001552441
 31
0.0
  0
LINE
  5
1D1
330
6D
100
AcDbEntity
  8
1
  6
Continuous
 62
     2
100
AcDbLine
 10
27.00000000000004
 20
2.6500001552441
 30
0.0
 11
-16.49999999999995
 21
2.6500001552441
 31
0.0
  0
LINE
  5
1D2
330
6D
100
AcDbEntity
  8
1
  6
Continuous
 62
     6
100
AcDbLine
 10
27.00000000000175
 20
37.4000001552441
 30
0.0
 11
27.00000000000095
 21
57.65000015524421
 31
0.0
  0
LINE
  5
1D3
330
6D
100
AcDbEntity
  8
1
  6
Continuous
 62
     2
100
AcDbLine
 10
31.99999999999905
 20
212.6500001552441
 30
0.0
 11
-116.5
 21
212.6500001552441
 31
0.0
  0
LINE
  5
1D4
330
6D
100
AcDbEntity
  8
1
  6
Continuous
 62
     6
100
AcDbLine
 10
26.99999999999905
 20
192.6500001552441
 30
0.0
 11
-259.999999999999
 21
192.6500001552441
 31
0.0
  0
LINE
  5
1D5
330
6D
100
AcDbEntity
  8
1
  6
Continuous
 62
     2
100
AcDbLine
 10
27.00000000000095
 20
57.65000015524421
 30
0.0
 11
31.99999999999905
 21
57.65000015524421
 31
0.0
  0
LINE
  5
1D6
330
6D
100
AcDbEntity
  8
1
  6
Continuous
 62
     6
100
AcDbLine
 10
27.00000000000095
 20
57.65000015524421
 30
0.0
 11
27.00000000000044
 21
107.650000155244
 31
0.0
  0
LINE
  5
1D7
330
6D
100
AcDbEntity
  8
1
  6
Continuous
 62
     2
100
AcDbLine
 10
31.99999999999905
 20
57.65000015524421
 30
0.0
 11
31.99999999999905
 21
107.650000155244
 31
0.0
  0
LINE
  5
1D8
330
6D
100
AcDbEntity
  8
1
  6
Continuous
 62
     2
100
AcDbLine
 10
27.00000000000044
 20
107.650000155244
 30
0.0
 11
31.99999999999905
 21
107.650000155244
 31
0.0
  0
LINE
  5
1D9
330
6D
100
AcDbEntity
  8
1
  6
Continuous
 62
     6
100
AcDbLine
 10
27.00000000000044
 20
107.650000155244
 30
0.0
 11
26.99999999999933
 21
157.6500001552441
 31
0.0
  0
LINE
  5
1DA
330
6D
100
AcDbEntity
  8
1
  6
Continuous
 62
     2
100
AcDbLine
 10
31.99999999999905
 20
107.650000155244
 30
0.0
 11
31.99999999999905
 21
157.6500001552441
 31
0.0
  0
LINE
  5
1DB
330
6D
100
AcDbEntity
  8
1
  6
Continuous
 62
     2
100
AcDbLine
 10
26.99999999999933
 20
157.6500001552441
 30
0.0
 11
31.99999999999905
 21
157.6500001552441
 31
0.0
  0
LINE
  5
1DC
330
6D
100
AcDbEntity
  8
1
  6
Continuous
 62
     6
100
AcDbLine
 10
26.99999999999933
 20
157.6500001552441
 30
0.0
 11
26.99999999999905
 21
192.6500001552441
 31
0.0
  0
LINE
  5
1DD
330
6D
100
AcDbEntity
  8
1
  6
Continuous
 62
     2
100
AcDbLine
 10
31.99999999999905
 20
157.6500001552441
 30
0.0
 11
31.99999999999905
 21
212.6500001552441
 31
0.0
  0
LINE
  5
1DE
330
6D
100
AcDbEntity
  8
1
  6
Continuous
 62
     2
100
AcDbLine
 10
31.99999999999905
 20
7.65000015524421
 30
0.0
 11
31.99999999999905
 21
57.65000015524421
 31
0.0
  0
LINE
  5
1DF
330
6D
100
AcDbEntity
  8
1
  6
Continuous
 62
     2
100
AcDbLine
 10
-116.5
 20
212.6500001552441
 30
0.0
 11
-264.999999999999
 21
212.6500001552441
 31
0.0
  0
LINE
  5
1E0
330
6D
100
AcDbEntity
  8
1
  6
Continuous
 62
     2
100
AcDbLine
 10
-116.5
 20
212.6500001552441
 30
0.0
 11
-116.5
 21
203.4413083105428
 31
0.0
  0
LINE
  5
1E1
330
6D
100
AcDbEntity
  8
1
  6
Continuous
 62
     2
100
AcDbLine
 10
-264.999999999999
 20
2.6500001552441
 30
0.0
 11
-259.999999999998
 21
2.6500001552441
 31
0.0
  0
LINE
  5
1E2
330
6D
100
AcDbEntity
  8
1
  6
Continuous
 62
     2
100
AcDbLine
 10
-264.999999999999
 20
212.6500001552441
 30
0.0
 11
-264.999999999999
 21
157.6500001552441
 31
0.0
  0
LINE
  5
1E3
330
6D
100
AcDbEntity
  8
1
  6
Continuous
 62
     6
100
AcDbLine
 10
-259.999999999999
 20
192.6500001552441
 30
0.0
 11
-259.9999999999989
 21
157.6500001552441
 31
0.0
  0
LINE
  5
1E4
330
6D
100
AcDbEntity
  8
1
  6
Continuous
 62
     2
100
AcDbLine
 10
-264.999999999999
 20
157.6500001552441
 30
0.0
 11
-259.9999999999989
 21
157.6500001552441
 31
0.0
  0
LINE
  5
1E5
330
6D
100
AcDbEntity
  8
1
  6
Continuous
 62
     2
100
AcDbLine
 10
-264.999999999999
 20
157.6500001552441
 30
0.0
 11
-264.999999999999
 21
107.650000155244
 31
0.0
  0
LINE
  5
1E6
330
6D
100
AcDbEntity
  8
1
  6
Continuous
 62
     6
100
AcDbLine
 10
-259.9999999999989
 20
157.6500001552441
 30
0.0
 11
-259.9999999999985
 21
107.650000155244
 31
0.0
  0
LINE
  5
1E7
330
6D
100
AcDbEntity
  8
1
  6
Continuous
 62
     2
100
AcDbLine
 10
-264.999999999999
 20
107.650000155244
 30
0.0
 11
-259.9999999999985
 21
107.650000155244
 31
0.0
  0
LINE
  5
1E8
330
6D
100
AcDbEntity
  8
1
  6
Continuous
 62
     2
100
AcDbLine
 10
-264.999999999999
 20
107.650000155244
 30
0.0
 11
-264.999999999999
 21
57.65000015524421
 31
0.0
  0
LINE
  5
1E9
330
6D
100
AcDbEntity
  8
1
  6
Continuous
 62
     6
100
AcDbLine
 10
-259.9999999999985
 20
107.650000155244
 30
0.0
 11
-259.9999999999982
 21
57.65000015524421
 31
0.0
  0
LINE
  5
1EA
330
6D
100
AcDbEntity
  8
1
  6
Continuous
 62
     2
100
AcDbLine
 10
-264.999999999999
 20
57.65000015524421
 30
0.0
 11
-259.9999999999982
 21
57.65000015524421
 31
0.0
  0
LINE
  5
1EB
330
6D
100
AcDbEntity
  8
1
  6
Continuous
 62
     2
100
AcDbLine
 10
-264.999999999999
 20
57.65000015524421
 30
0.0
 11
-264.999999999999
 21
7.65000015524421
 31
0.0
  0
LINE
  5
1EC
330
6D
100
AcDbEntity
  8
1
  6
Continuous
 62
     6
100
AcDbLine
 10
-259.9999999999982
 20
57.65000015524421
 30
0.0
 11
-259.999999999998
 21
7.65000015524421
 31
0.0
  0
LINE
  5
1ED
330
6D
100
AcDbEntity
  8
1
  6
Continuous
 62
     2
100
AcDbLine
 10
-216.4999999999999
 20
2.6500001552441
 30
0.0
 11
-216.4999999999999
 21
7.65000015524421
 31
0.0
  0
LINE
  5
1EE
330
6D
100
AcDbEntity
  8
1
  6
Continuous
 62
     2
100
AcDbLine
 10
-216.4999999999999
 20
2.6500001552441
 30
0.0
 11
-166.5000000000001
 21
2.6500001552441
 31
0.0
  0
LINE
  5
1EF
330
6D
100
AcDbEntity
  8
1
  6
Continuous
 62
     2
100
AcDbLine
 10
-166.5000000000001
 20
2.6500001552441
 30
0.0
 11
-166.5000000000001
 21
7.65000015524421
 31
0.0
  0
LINE
  5
1F0
330
6D
100
AcDbEntity
  8
1
  6
Continuous
 62
     2
100
AcDbLine
 10
-166.5000000000001
 20
2.6500001552441
 30
0.0
 11
-116.5
 21
2.6500001552441
 31
0.0
  0
LINE
  5
1F1
330
6D
100
AcDbEntity
  8
1
  6
Continuous
 62
     2
100
AcDbLine
 10
-116.5
 20
2.6500001552441
 30
0.0
 11
-116.5
 21
7.65000015524421
 31
0.0
  0
LINE
  5
1F2
330
6D
100
AcDbEntity
  8
1
  6
Continuous
 62
     2
100
AcDbLine
 10
-116.5
 20
2.6500001552441
 30
0.0
 11
-66.49999999999996
 21
2.6500001552441
 31
0.0
  0
LINE
  5
1F3
330
6D
100
AcDbEntity
  8
1
  6
Continuous
 62
     2
100
AcDbLine
 10
-66.49999999999996
 20
2.6500001552441
 30
0.0
 11
-66.49999999999996
 21
7.65000015524421
 31
0.0
  0
LINE
  5
1F4
330
6D
100
AcDbEntity
  8
1
  6
Continuous
 62
     2
100
AcDbLine
 10
-16.49999999999995
 20
2.6500001552441
 30
0.0
 11
-16.49999999999995
 21
7.65000015524421
 31
0.0
  0
LINE
  5
1F5
330
6D
100
AcDbEntity
  8
1
  6
Continuous
 62
     2
100
AcDbLine
 10
-16.49999999999995
 20
2.6500001552441
 30
0.0
 11
-66.49999999999996
 21
2.6500001552441
 31
0.0
  0
LINE
  5
1F6
330
6D
100
AcDbEntity
  8
1
  6
Continuous
 62
     2
100
AcDbLine
 10
-259.999999999998
 20
7.65000015524421
 30
0.0
 11
-259.999999999998
 21
2.6500001552441
 31
0.0
  0
LINE
  5
1F7
330
6D
100
AcDbEntity
  8
1
  6
Continuous
 62
     2
100
AcDbLine
 10
-259.999999999998
 20
2.6500001552441
 30
0.0
 11
-216.4999999999999
 21
2.6500001552441
 31
0.0
  0
LINE
  5
1F8
330
6D
100
AcDbEntity
  8
1
  6
Continuous
 62
     2
100
AcDbLine
 10
-259.999999999998
 20
7.65000015524421
 30
0.0
 11
-264.999999999999
 21
7.65000015524421
 31
0.0
  0
LINE
  5
1F9
330
6D
100
AcDbEntity
  8
1
  6
Continuous
 62
     2
100
AcDbLine
 10
-264.999999999999
 20
7.65000015524421
 30
0.0
 11
-264.999999999999
 21
2.6500001552441
 31
0.0
  0
LINE
  5
1FA
330
6D
100
AcDbEntity
  8
1
  6
Continuous
 62
     7
100
AcDbLine
 10
-205.3000000000001
 20
11.90000015524421
 30
0.0
 11
-143.0448045267499
 21
11.90000015524421
 31
0.0
  0
LINE
  5
1FB
330
6D
100
AcDbEntity
  8
1
  6
Continuous
 62
     2
100
AcDbLine
 10
-205.3000000000001
 20
11.90000015524421
 30
0.0
 11
-205.3000000000001
 21
7.65000015524421
 31
0.0
  0
LINE
  5
1FC
330
6D
100
AcDbEntity
  8
1
  6
Continuous
 62
     2
100
AcDbLine
 10
-205.3000000000001
 20
16.1500001552441
 30
0.0
 11
-218.8000000000001
 21
16.1500001552441
 31
0.0
  0
LINE
  5
1FD
330
6D
100
AcDbEntity
  8
1
  6
Continuous
 62
     2
100
AcDbLine
 10
-205.3000000000001
 20
16.1500001552441
 30
0.0
 11
-205.3000000000001
 21
11.90000015524421
 31
0.0
  0
LINE
  5
1FE
330
6D
100
AcDbEntity
  8
1
  6
Continuous
 62
     2
100
AcDbLine
 10
-205.3000000000001
 20
24.6500001552441
 30
0.0
 11
-218.8000000000001
 21
24.6500001552441
 31
0.0
  0
LINE
  5
1FF
330
6D
100
AcDbEntity
  8
1
  6
Continuous
 62
     2
100
AcDbLine
 10
-205.3000000000001
 20
24.6500001552441
 30
0.0
 11
-205.3000000000001
 21
20.4000001552441
 31
0.0
  0
LINE
  5
200
330
6D
100
AcDbEntity
  8
1
  6
Continuous
 62
     2
100
AcDbLine
 10
-205.3000000000001
 20
20.4000001552441
 30
0.0
 11
-218.8000000000001
 21
20.4000001552441
 31
0.0
  0
LINE
  5
201
330
6D
100
AcDbEntity
  8
1
  6
Continuous
 62
     2
100
AcDbLine
 10
-205.3000000000001
 20
20.4000001552441
 30
0.0
 11
-205.3000000000001
 21
16.1500001552441
 31
0.0
  0
LINE
  5
202
330
6D
100
AcDbEntity
  8
1
  6
Continuous
 62
     2
100
AcDbLine
 10
-205.3000000000001
 20
33.1500001552441
 30
0.0
 11
-218.8000000000001
 21
33.1500001552441
 31
0.0
  0
LINE
  5
203
330
6D
100
AcDbEntity
  8
1
  6
Continuous
 62
     2
100
AcDbLine
 10
-205.3000000000001
 20
28.9000001552441
 30
0.0
 11
-218.8000000000001
 21
28.9000001552441
 31
0.0
  0
LINE
  5
204
330
6D
100
AcDbEntity
  8
1
  6
Continuous
 62
     2
100
AcDbLine
 10
-205.3000000000001
 20
28.9000001552441
 30
0.0
 11
-205.3000000000001
 21
24.6500001552441
 31
0.0
  0
LINE
  5
205
330
6D
100
AcDbEntity
  8
1
  6
Continuous
 62
     2
100
AcDbLine
 10
-205.3000000000001
 20
33.1500001552441
 30
0.0
 11
-205.3000000000001
 21
28.9000001552441
 31
0.0
  0
LINE
  5
206
330
6D
100
AcDbEntity
  8
1
  6
Continuous
 62
     6
100
AcDbLine
 10
-205.3000000000001
 20
37.4000001552441
 30
0.0
 11
-218.8000000000001
 21
37.4000001552441
 31
0.0
  0
LINE
  5
207
330
6D
100
AcDbEntity
  8
1
  6
Continuous
 62
     2
100
AcDbLine
 10
-205.3000000000001
 20
37.4000001552441
 30
0.0
 11
-205.3000000000001
 21
33.1500001552441
 31
0.0
  0
LINE
  5
208
330
6D
100
AcDbEntity
  8
1
  6
Continuous
 62
     6
100
AcDbLine
 10
27.00000000000004
 20
7.65000015524421
 30
0.0
 11
27.00000000000135
 21
16.1500001552441
 31
0.0
  0
LINE
  5
209
330
6D
100
AcDbEntity
  8
1
  6
Continuous
 62
     6
100
AcDbLine
 10
27.00000000000084
 20
28.9000001552441
 30
0.0
 11
27.00000000000183
 21
24.6500001552441
 31
0.0
  0
LINE
  5
20A
330
6D
100
AcDbEntity
  8
1
  6
Continuous
 62
     6
100
AcDbLine
 10
-66.14480452674997
 20
7.6500001552441
 30
0.0
 11
-16.49999999999995
 21
7.65000015524421
 31
0.0
  0
LINE
  5
20B
330
6D
100
AcDbEntity
  8
1
  6
Continuous
 62
     6
100
AcDbLine
 10
-102.5448045267499
 20
7.6500001552441
 30
0.0
 11
-84.34480452675
 21
7.65000015524421
 31
0.0
  0
LINE
  5
20C
330
6D
100
AcDbEntity
  8
1
  6
Continuous
 62
     6
100
AcDbLine
 10
-218.8000000000001
 20
7.6500001552441
 30
0.0
 11
-216.4999999999999
 21
7.65000015524421
 31
0.0
  0
LINE
  5
20D
330
6D
100
AcDbEntity
  8
1
  6
Continuous
 62
     6
100
AcDbLine
 10
-143.0448045267499
 20
7.6500001552441
 30
0.0
 11
-166.5000000000001
 21
7.65000015524421
 31
0.0
  0
LINE
  5
20E
330
6D
100
AcDbEntity
  8
1
  6
Continuous
 62
     6
100
AcDbLine
 10
27.00000000000175
 20
37.4000001552441
 30
0.0
 11
9.11840828168094
 21
37.4000001552441
 31
0.0
  0
LINE
  5
20F
330
6D
100
AcDbEntity
  8
1
  6
Continuous
 62
     7
100
AcDbLine
 10
27.00000000000135
 20
16.1500001552441
 30
0.0
 11
-17.99999999999796
 21
16.1500001552441
 31
0.0
  0
LINE
  5
210
330
6D
100
AcDbEntity
  8
1
  6
Continuous
 62
     7
100
AcDbLine
 10
27.00000000000084
 20
28.9000001552441
 30
0.0
 11
9.11840828168094
 21
28.9000001552441
 31
0.0
  0
LINE
  5
211
330
6D
100
AcDbEntity
  8
1
  6
Continuous
 62
     7
100
AcDbLine
 10
-17.99999999999796
 20
24.6500001552441
 30
0.0
 11
27.00000000000183
 21
24.6500001552441
 31
0.0
  0
LINE
  5
212
330
6D
100
AcDbEntity
  8
1
  6
Continuous
 62
     2
100
AcDbLine
 10
-74.62779772402989
 20
15.26870763824283
 30
0.0
 11
-75.41458053251371
 21
15.26870763824283
 31
0.0
  0
LINE
  5
213
330
6D
100
AcDbEntity
  8
1
  6
Continuous
 62
     2
100
AcDbLine
 10
-74.62779772402989
 20
15.26870763824283
 30
0.0
 11
-74.62779772402989
 21
13.50000015525004
 31
0.0
  0
LINE
  5
214
330
6D
100
AcDbEntity
  8
1
  6
Continuous
 62
     2
100
AcDbLine
 10
-74.62779772402989
 20
13.50000015525004
 30
0.0
 11
-73.77745758797579
 21
13.50000015525004
 31
0.0
  0
LINE
  5
215
330
6D
100
AcDbEntity
  8
1
  6
Continuous
 62
     2
100
AcDbLine
 10
-73.77745758797579
 20
13.50000015525004
 30
0.0
 11
-73.77745758797579
 21
15.26870763824283
 31
0.0
  0
LINE
  5
216
330
6D
100
AcDbEntity
  8
1
  6
Continuous
 62
     2
100
AcDbLine
 10
-73.77745758797579
 20
15.26870763824283
 30
0.0
 11
-73.1992262954588
 21
15.26870763824283
 31
0.0
  0
LINE
  5
217
330
6D
100
AcDbEntity
  8
1
  6
Continuous
 62
     2
100
AcDbLine
 10
-73.1992262954588
 20
15.26870763824283
 30
0.0
 11
-73.1992262954588
 21
15.88095253620415
 31
0.0
  0
LINE
  5
218
330
6D
100
AcDbEntity
  8
1
  6
Continuous
 62
     2
100
AcDbLine
 10
-73.1992262954588
 20
15.88095253620415
 30
0.0
 11
-75.54617995039159
 21
15.88095253620415
 31
0.0
  0
LINE
  5
219
330
6D
100
AcDbEntity
  8
1
  6
Continuous
 62
     2
100
AcDbLine
 10
-75.58261377408482
 20
15.88092145270841
 30
0.0
 11
-75.54617995039159
 21
15.88095253620415
 31
0.0
  0
LINE
  5
21A
330
6D
100
AcDbEntity
  8
1
  6
Continuous
 62
     2
100
AcDbLine
 10
-74.96589296212461
 20
14.25582457057331
 30
0.0
 11
-74.96589296212461
 21
13.6097510631773
 31
0.0
  0
LINE
  5
21B
102
{ACAD_REACTORS
330
392
330
392
102
}
330
6D
100
AcDbEntity
  8
1
  6
Continuous
 62
     2
100
AcDbLine
 10
-74.69582493491309
 20
18.2699648195468
 30
0.0
 11
-74.2672535063424
 21
18.80000015523822
 31
0.0
  0
LINE
  5
21C
102
{ACAD_REACTORS
330
392
330
392
102
}
330
6D
100
AcDbEntity
  8
1
  6
Continuous
 62
     2
100
AcDbLine
 10
-75.12439636348539
 20
18.80000015523822
 30
0.0
 11
-74.69582493491309
 21
18.2699648195468
 31
0.0
  0
LINE
  5
21D
102
{ACAD_REACTORS
330
392
330
392
102
}
330
6D
100
AcDbEntity
  8
1
  6
Continuous
 62
     2
100
AcDbLine
 10
-75.12439636348539
 20
18.80000015523822
 30
0.0
 11
-76.12439636348539
 21
18.80000015523822
 31
0.0
  0
LINE
  5
21E
102
{ACAD_REACTORS
330
392
330
392
102
}
330
6D
100
AcDbEntity
  8
1
  6
Continuous
 62
     2
100
AcDbLine
 10
-76.12439636348539
 20
18.80000015523822
 30
0.0
 11
-75.19582493491389
 21
17.65159026124374
 31
0.0
  0
LINE
  5
21F
102
{ACAD_REACTORS
330
392
330
392
102
}
330
6D
100
AcDbEntity
  8
1
  6
Continuous
 62
     2
100
AcDbLine
 10
-76.19242357436981
 20
16.41904777428422
 30
0.0
 11
-75.19582493491389
 21
17.65159026124374
 31
0.0
  0
LINE
  5
220
102
{ACAD_REACTORS
330
392
330
392
102
}
330
6D
100
AcDbEntity
  8
1
  6
Continuous
 62
     2
100
AcDbLine
 10
-75.19242357436981
 20
16.41904777428422
 30
0.0
 11
-76.19242357436981
 21
16.41904777428422
 31
0.0
  0
LINE
  5
221
102
{ACAD_REACTORS
330
392
330
392
102
}
330
6D
100
AcDbEntity
  8
1
  6
Continuous
 62
     2
100
AcDbLine
 10
-75.19242357436981
 20
16.41904777428422
 30
0.0
 11
-74.69582493491309
 21
17.03321570294085
 31
0.0
  0
LINE
  5
222
102
{ACAD_REACTORS
330
392
330
392
102
}
330
6D
100
AcDbEntity
  8
1
  6
Continuous
 62
     2
100
AcDbLine
 10
-74.69582493491309
 20
17.03321570294085
 30
0.0
 11
-74.19922629545839
 21
16.41904777428422
 31
0.0
  0
LINE
  5
223
102
{ACAD_REACTORS
330
392
330
392
102
}
330
6D
100
AcDbEntity
  8
1
  6
Continuous
 62
     2
100
AcDbLine
 10
-74.19922629545839
 20
16.41904777428422
 30
0.0
 11
-73.19922629545839
 21
16.41904777428422
 31
0.0
  0
LINE
  5
224
102
{ACAD_REACTORS
330
392
330
392
102
}
330
6D
100
AcDbEntity
  8
1
  6
Continuous
 62
     2
100
AcDbLine
 10
-74.19582493491389
 20
17.65159026124374
 30
0.0
 11
-73.19922629545839
 21
16.41904777428422
 31
0.0
  0
LINE
  5
225
102
{ACAD_REACTORS
330
392
330
392
102
}
330
6D
100
AcDbEntity
  8
1
  6
Continuous
 62
     2
100
AcDbLine
 10
-74.19582493491389
 20
17.65159026124374
 30
0.0
 11
-73.2672535063424
 21
18.80000015523822
 31
0.0
  0
LINE
  5
226
102
{ACAD_REACTORS
330
392
330
392
102
}
330
6D
100
AcDbEntity
  8
1
  6
Continuous
 62
     2
100
AcDbLine
 10
-74.2672535063424
 20
18.80000015523822
 30
0.0
 11
-73.2672535063424
 21
18.80000015523822
 31
0.0
  0
LINE
  5
227
102
{ACAD_REACTORS
330
396
330
396
102
}
330
6D
100
AcDbEntity
  8
1
  6
Continuous
 62
     2
100
AcDbLine
 10
-77.4618113294718
 20
18.80000015523822
 30
0.0
 11
-76.57745758797438
 21
18.80000015523822
 31
0.0
  0
LINE
  5
228
102
{ACAD_REACTORS
330
396
330
396
102
}
330
6D
100
AcDbEntity
  8
1
  6
Continuous
 62
     2
100
AcDbLine
 10
-76.57745758797438
 20
16.41904777428422
 30
0.0
 11
-77.4618113294718
 21
16.41904777428422
 31
0.0
  0
LINE
  5
229
102
{ACAD_REACTORS
330
396
330
396
102
}
330
6D
100
AcDbEntity
  8
1
  6
Continuous
 62
     2
100
AcDbLine
 10
-76.57745758797438
 20
18.80000015523822
 30
0.0
 11
-76.57745758797438
 21
16.41904777428422
 31
0.0
  0
LINE
  5
22A
330
6D
100
AcDbEntity
  8
1
  6
Continuous
 62
     7
100
AcDbLine
 10
-66.14480452674997
 20
33.1500001552441
 30
0.0
 11
-66.14480452674997
 21
28.9000001552441
 31
0.0
  0
LINE
  5
22B
330
6D
100
AcDbEntity
  8
1
  6
Continuous
 62
     7
100
AcDbLine
 10
-79.64480452675
 20
33.1500001552441
 30
0.0
 11
-66.14480452674997
 21
33.1500001552441
 31
0.0
  0
LINE
  5
22C
330
6D
100
AcDbEntity
  8
1
  6
Continuous
 62
     7
100
AcDbLine
 10
-79.64480452675
 20
33.1500001552441
 30
0.0
 11
-93.1448045267499
 21
33.1500001552441
 31
0.0
  0
LINE
  5
22D
330
6D
100
AcDbEntity
  8
1
  6
Continuous
 62
     7
100
AcDbLine
 10
9.11840828168094
 20
28.9000001552441
 30
0.0
 11
9.11840828168094
 21
37.4000001552441
 31
0.0
  0
LINE
  5
22E
330
6D
100
AcDbEntity
  8
1
  6
Continuous
 62
     6
100
AcDbLine
 10
0.20000000000174
 20
37.4000001552441
 30
0.0
 11
9.11840828168094
 21
37.4000001552441
 31
0.0
  0
LINE
  5
22F
330
6D
100
AcDbEntity
  8
1
  6
Continuous
 62
     7
100
AcDbLine
 10
0.20000000000174
 20
37.4000001552441
 30
0.0
 11
0.20000000000205
 21
28.90000015524421
 31
0.0
  0
LINE
  5
230
330
6D
100
AcDbEntity
  8
1
  6
Continuous
 62
     7
100
AcDbLine
 10
-17.99999999999796
 20
16.1500001552441
 30
0.0
 11
-36.49999999999758
 21
16.1500001552441
 31
0.0
  0
LINE
  5
231
330
6D
100
AcDbEntity
  8
1
  6
Continuous
 62
     7
100
AcDbLine
 10
-17.99999999999796
 20
24.6500001552441
 30
0.0
 11
-17.99999999999796
 21
16.1500001552441
 31
0.0
  0
LINE
  5
232
330
6D
100
AcDbEntity
  8
1
  6
Continuous
 62
     2
100
AcDbLine
 10
-116.04480452675
 20
37.4000001552441
 30
0.0
 11
-116.04480452675
 21
33.1500001552441
 31
0.0
  0
LINE
  5
233
330
6D
100
AcDbEntity
  8
1
  6
Continuous
 62
     2
100
AcDbLine
 10
-129.5448045267499
 20
37.4000001552441
 30
0.0
 11
-129.5448045267499
 21
33.1500001552441
 31
0.0
  0
LINE
  5
234
330
6D
100
AcDbEntity
  8
1
  6
Continuous
 62
     6
100
AcDbLine
 10
-116.04480452675
 20
37.4000001552441
 30
0.0
 11
-129.5448045267499
 21
37.4000001552441
 31
0.0
  0
LINE
  5
235
330
6D
100
AcDbEntity
  8
1
  6
Continuous
 62
     6
100
AcDbLine
 10
-129.5448045267499
 20
37.4000001552441
 30
0.0
 11
-143.0448045267499
 21
37.4000001552441
 31
0.0
  0
LINE
  5
236
330
6D
100
AcDbEntity
  8
1
  6
Continuous
 62
     2
100
AcDbLine
 10
-143.0448045267499
 20
37.4000001552441
 30
0.0
 11
-143.0448045267499
 21
33.1500001552441
 31
0.0
  0
LINE
  5
237
330
6D
100
AcDbEntity
  8
1
  6
Continuous
 62
     7
100
AcDbLine
 10
-84.34480452675
 20
11.90000015524421
 30
0.0
 11
-84.34480452675
 21
7.65000015524421
 31
0.0
  0
LINE
  5
238
330
6D
100
AcDbEntity
  8
1
  6
Continuous
 62
     7
100
AcDbLine
 10
-84.34480452675
 20
11.90000015524421
 30
0.0
 11
-102.5448045267499
 21
11.90000015524421
 31
0.0
  0
LINE
  5
239
330
6D
100
AcDbEntity
  8
1
  6
Continuous
 62
     7
100
AcDbLine
 10
-79.64480452675
 20
24.6500001552441
 30
0.0
 11
-93.1448045267499
 21
24.65000015524421
 31
0.0
  0
LINE
  5
23A
330
6D
100
AcDbEntity
  8
1
  6
Continuous
 62
     7
100
AcDbLine
 10
-66.14480452674997
 20
11.90000015524421
 30
0.0
 11
-84.34480452675
 21
11.90000015524421
 31
0.0
  0
LINE
  5
23B
330
6D
100
AcDbEntity
  8
1
  6
Continuous
 62
     6
100
AcDbLine
 10
-66.14480452674997
 20
37.4000001552441
 30
0.0
 11
-43.24480452674995
 21
37.4000001552441
 31
0.0
  0
LINE
  5
23C
330
6D
100
AcDbEntity
  8
1
  6
Continuous
 62
     6
100
AcDbLine
 10
0.20000000000174
 20
37.4000001552441
 30
0.0
 11
-43.24480452674995
 21
37.4000001552441
 31
0.0
  0
LINE
  5
23D
330
6D
100
AcDbEntity
  8
1
  6
Continuous
 62
     7
100
AcDbLine
 10
-43.24480452674995
 20
37.4000001552441
 30
0.0
 11
-43.24480452674995
 21
28.90000015524404
 31
0.0
  0
LINE
  5
23E
330
6D
100
AcDbEntity
  8
1
  6
Continuous
 62
     6
100
AcDbLine
 10
-218.8000000000001
 20
37.4000001552441
 30
0.0
 11
-224.9999999999981
 21
37.4000001552441
 31
0.0
  0
LINE
  5
23F
330
6D
100
AcDbEntity
  8
1
  6
Continuous
 62
     6
100
AcDbLine
 10
-224.9999999999981
 20
7.65000015524421
 30
0.0
 11
-224.9999999999981
 21
11.90000015524421
 31
0.0
  0
LINE
  5
240
330
6D
100
AcDbEntity
  8
1
  6
Continuous
 62
     6
100
AcDbLine
 10
-224.9999999999981
 20
11.90000015524421
 30
0.0
 11
-224.9999999999981
 21
16.1500001552441
 31
0.0
  0
LINE
  5
241
330
6D
100
AcDbEntity
  8
1
  6
Continuous
 62
     7
100
AcDbLine
 10
-79.64480452675
 20
28.9000001552441
 30
0.0
 11
-79.64480452675
 21
24.6500001552441
 31
0.0
  0
LINE
  5
242
330
6D
100
AcDbEntity
  8
1
  6
Continuous
 62
     7
100
AcDbLine
 10
-93.1448045267499
 20
28.9000001552441
 30
0.0
 11
-93.1448045267499
 21
24.65000015524421
 31
0.0
  0
LINE
  5
243
330
6D
100
AcDbEntity
  8
1
  6
Continuous
 62
     7
100
AcDbLine
 10
-79.64480452675
 20
28.9000001552441
 30
0.0
 11
-93.1448045267499
 21
28.9000001552441
 31
0.0
  0
LINE
  5
244
330
6D
100
AcDbEntity
  8
1
  6
Continuous
 62
     2
100
AcDbLine
 10
-102.5448045267499
 20
24.6500001552441
 30
0.0
 11
-116.04480452675
 21
24.6500001552441
 31
0.0
  0
LINE
  5
245
330
6D
100
AcDbEntity
  8
1
  6
Continuous
 62
     2
100
AcDbLine
 10
-218.8000000000001
 20
24.6500001552441
 30
0.0
 11
-218.8000000000001
 21
28.9000001552441
 31
0.0
  0
LINE
  5
246
330
6D
100
AcDbEntity
  8
1
  6
Continuous
 62
     2
100
AcDbLine
 10
-218.8000000000001
 20
24.6500001552441
 30
0.0
 11
-224.9999999999981
 21
24.6500001552441
 31
0.0
  0
LINE
  5
247
330
6D
100
AcDbEntity
  8
1
  6
Continuous
 62
     2
100
AcDbLine
 10
-102.5448045267499
 20
28.9000001552441
 30
0.0
 11
-116.04480452675
 21
28.9000001552441
 31
0.0
  0
LINE
  5
248
330
6D
100
AcDbEntity
  8
1
  6
Continuous
 62
     2
100
AcDbLine
 10
-218.8000000000001
 20
28.9000001552441
 30
0.0
 11
-218.8000000000001
 21
33.1500001552441
 31
0.0
  0
LINE
  5
249
330
6D
100
AcDbEntity
  8
1
  6
Continuous
 62
     2
100
AcDbLine
 10
-102.5448045267499
 20
33.1500001552441
 30
0.0
 11
-116.04480452675
 21
33.1500001552441
 31
0.0
  0
LINE
  5
24A
330
6D
100
AcDbEntity
  8
1
  6
Continuous
 62
     2
100
AcDbLine
 10
-218.8000000000001
 20
33.1500001552441
 30
0.0
 11
-218.8000000000001
 21
37.4000001552441
 31
0.0
  0
LINE
  5
24B
330
6D
100
AcDbEntity
  8
1
  6
Continuous
 62
     2
100
AcDbLine
 10
-218.8000000000001
 20
33.1500001552441
 30
0.0
 11
-224.9999999999981
 21
33.1500001552441
 31
0.0
  0
LINE
  5
24C
330
6D
100
AcDbEntity
  8
1
  6
Continuous
 62
     6
100
AcDbLine
 10
-102.5448045267499
 20
37.4000001552441
 30
0.0
 11
-116.04480452675
 21
37.4000001552441
 31
0.0
  0
LINE
  5
24D
330
6D
100
AcDbEntity
  8
1
  6
Continuous
 62
     2
100
AcDbLine
 10
-102.5448045267499
 20
16.1500001552441
 30
0.0
 11
-116.04480452675
 21
16.1500001552441
 31
0.0
  0
LINE
  5
24E
330
6D
100
AcDbEntity
  8
1
  6
Continuous
 62
     2
100
AcDbLine
 10
-102.5448045267499
 20
20.4000001552441
 30
0.0
 11
-116.04480452675
 21
20.4000001552441
 31
0.0
  0
LINE
  5
24F
330
6D
100
AcDbEntity
  8
1
  6
Continuous
 62
     2
100
AcDbLine
 10
-218.8000000000001
 20
16.1500001552441
 30
0.0
 11
-218.8000000000001
 21
20.4000001552441
 31
0.0
  0
LINE
  5
250
330
6D
100
AcDbEntity
  8
1
  6
Continuous
 62
     2
100
AcDbLine
 10
-218.8000000000001
 20
20.4000001552441
 30
0.0
 11
-218.8000000000001
 21
24.6500001552441
 31
0.0
  0
LINE
  5
251
330
6D
100
AcDbEntity
  8
1
  6
Continuous
 62
     7
100
AcDbLine
 10
-218.8000000000001
 20
11.90000015524421
 30
0.0
 11
-205.3000000000001
 21
11.90000015524421
 31
0.0
  0
LINE
  5
252
330
6D
100
AcDbEntity
  8
1
  6
Continuous
 62
     2
100
AcDbLine
 10
-218.8000000000001
 20
11.90000015524421
 30
0.0
 11
-218.8000000000001
 21
16.1500001552441
 31
0.0
  0
LINE
  5
253
330
6D
100
AcDbEntity
  8
1
  6
Continuous
 62
     7
100
AcDbLine
 10
-66.14480452674997
 20
16.1500001552441
 30
0.0
 11
-66.14480452674997
 21
20.4000001552441
 31
0.0
  0
LINE
  5
254
330
6D
100
AcDbEntity
  8
1
  6
Continuous
 62
     6
100
AcDbLine
 10
-79.64480452675
 20
37.4000001552441
 30
0.0
 11
-66.14480452674997
 21
37.4000001552441
 31
0.0
  0
LINE
  5
255
330
6D
100
AcDbEntity
  8
1
  6
Continuous
 62
     7
100
AcDbLine
 10
-66.14480452674997
 20
37.4000001552441
 30
0.0
 11
-66.14480452674997
 21
33.1500001552441
 31
0.0
  0
LINE
  5
256
330
6D
100
AcDbEntity
  8
1
  6
Continuous
 62
     6
100
AcDbLine
 10
-93.1448045267499
 20
37.4000001552441
 30
0.0
 11
-79.64480452675
 21
37.4000001552441
 31
0.0
  0
LINE
  5
257
330
6D
100
AcDbEntity
  8
1
  6
Continuous
 62
     7
100
AcDbLine
 10
-102.5448045267499
 20
24.6500001552441
 30
0.0
 11
-102.5448045267499
 21
20.4000001552441
 31
0.0
  0
LINE
  5
258
330
6D
100
AcDbEntity
  8
1
  6
Continuous
 62
     7
100
AcDbLine
 10
-102.5448045267499
 20
28.9000001552441
 30
0.0
 11
-102.5448045267499
 21
24.6500001552441
 31
0.0
  0
LINE
  5
259
330
6D
100
AcDbEntity
  8
1
  6
Continuous
 62
     2
100
AcDbLine
 10
-224.9999999999981
 20
28.9000001552441
 30
0.0
 11
-218.8000000000001
 21
28.9000001552441
 31
0.0
  0
LINE
  5
25A
330
6D
100
AcDbEntity
  8
1
  6
Continuous
 62
     7
100
AcDbLine
 10
-102.5448045267499
 20
33.1500001552441
 30
0.0
 11
-102.5448045267499
 21
28.9000001552441
 31
0.0
  0
LINE
  5
25B
330
6D
100
AcDbEntity
  8
1
  6
Continuous
 62
     7
100
AcDbLine
 10
-66.14480452674997
 20
28.9000001552441
 30
0.0
 11
-66.14480452674997
 21
24.6500001552441
 31
0.0
  0
LINE
  5
25C
330
6D
100
AcDbEntity
  8
1
  6
Continuous
 62
     7
100
AcDbLine
 10
-79.64480452675
 20
37.4000001552441
 30
0.0
 11
-79.64480452675
 21
33.1500001552441
 31
0.0
  0
LINE
  5
25D
330
6D
100
AcDbEntity
  8
1
  6
Continuous
 62
     7
100
AcDbLine
 10
-93.1448045267499
 20
37.4000001552441
 30
0.0
 11
-93.1448045267499
 21
33.1500001552441
 31
0.0
  0
LINE
  5
25E
330
6D
100
AcDbEntity
  8
1
  6
Continuous
 62
     2
100
AcDbLine
 10
-218.8000000000001
 20
7.6500001552441
 30
0.0
 11
-218.8000000000001
 21
11.90000015524421
 31
0.0
  0
LINE
  5
25F
330
6D
100
AcDbEntity
  8
1
  6
Continuous
 62
     2
100
AcDbLine
 10
-224.9999999999981
 20
16.1500001552441
 30
0.0
 11
-218.8000000000001
 21
16.1500001552441
 31
0.0
  0
LINE
  5
260
330
6D
100
AcDbEntity
  8
1
  6
Continuous
 62
     2
100
AcDbLine
 10
-224.9999999999981
 20
20.4000001552441
 30
0.0
 11
-218.8000000000001
 21
20.4000001552441
 31
0.0
  0
LINE
  5
261
330
6D
100
AcDbEntity
  8
1
  6
Continuous
 62
     7
100
AcDbLine
 10
-224.9999999999981
 20
11.90000015524421
 30
0.0
 11
-218.8000000000001
 21
11.90000015524421
 31
0.0
  0
LINE
  5
262
330
6D
100
AcDbEntity
  8
1
  6
Continuous
 62
     7
100
AcDbLine
 10
-66.14480452674997
 20
16.1500001552441
 30
0.0
 11
-66.14480452674997
 21
11.90000015524421
 31
0.0
  0
LINE
  5
263
330
6D
100
AcDbEntity
  8
1
  6
Continuous
 62
     7
100
AcDbLine
 10
-102.5448045267499
 20
20.4000001552441
 30
0.0
 11
-102.5448045267499
 21
16.1500001552441
 31
0.0
  0
LINE
  5
264
330
6D
100
AcDbEntity
  8
1
  6
Continuous
 62
     7
100
AcDbLine
 10
-102.5448045267499
 20
16.1500001552441
 30
0.0
 11
-102.5448045267499
 21
11.90000015524421
 31
0.0
  0
LINE
  5
265
330
6D
100
AcDbEntity
  8
1
  6
Continuous
 62
     7
100
AcDbLine
 10
-79.64480452675
 20
33.1500001552441
 30
0.0
 11
-79.64480452675
 21
28.9000001552441
 31
0.0
  0
LINE
  5
266
330
6D
100
AcDbEntity
  8
1
  6
Continuous
 62
     7
100
AcDbLine
 10
-93.1448045267499
 20
33.1500001552441
 30
0.0
 11
-93.1448045267499
 21
28.9000001552441
 31
0.0
  0
LINE
  5
267
330
6D
100
AcDbEntity
  8
1
  6
Continuous
 62
     7
100
AcDbLine
 10
-102.5448045267499
 20
28.9000001552441
 30
0.0
 11
-93.1448045267499
 21
28.9000001552441
 31
0.0
  0
LINE
  5
268
330
6D
100
AcDbEntity
  8
1
  6
Continuous
 62
     7
100
AcDbLine
 10
-66.14480452674997
 20
24.6500001552441
 30
0.0
 11
-79.64480452675
 21
24.6500001552441
 31
0.0
  0
LINE
  5
269
330
6D
100
AcDbEntity
  8
1
  6
Continuous
 62
     7
100
AcDbLine
 10
-66.14480452674997
 20
11.90000015524421
 30
0.0
 11
-66.14480452674997
 21
7.6500001552441
 31
0.0
  0
LINE
  5
26A
330
6D
100
AcDbEntity
  8
1
  6
Continuous
 62
     7
100
AcDbLine
 10
-102.5448045267499
 20
11.90000015524421
 30
0.0
 11
-102.5448045267499
 21
7.6500001552441
 31
0.0
  0
LINE
  5
26B
330
6D
100
AcDbEntity
  8
1
  6
Continuous
 62
     7
100
AcDbLine
 10
-102.5448045267499
 20
37.4000001552441
 30
0.0
 11
-102.5448045267499
 21
33.1500001552441
 31
0.0
  0
LINE
  5
26C
330
6D
100
AcDbEntity
  8
1
  6
Continuous
 62
     7
100
AcDbLine
 10
-66.14480452674997
 20
16.1500001552441
 30
0.0
 11
-36.49999999999758
 21
16.1500001552441
 31
0.0
  0
LINE
  5
26D
330
6D
100
AcDbEntity
  8
1
  6
Continuous
 62
     7
100
AcDbLine
 10
-66.14480452674997
 20
24.6500001552441
 30
0.0
 11
-36.49999999999758
 21
24.6500001552441
 31
0.0
  0
LINE
  5
26E
330
6D
100
AcDbEntity
  8
1
  6
Continuous
 62
     7
100
AcDbLine
 10
0.20000000000205
 20
28.90000015524421
 30
0.0
 11
9.11840828168094
 21
28.9000001552441
 31
0.0
  0
LINE
  5
26F
330
6D
100
AcDbEntity
  8
1
  6
Continuous
 62
     2
100
AcDbLine
 10
-87.8454847988587
 20
14.31632668586215
 30
0.0
 11
-87.8454847988587
 21
13.63605457701871
 31
0.0
  0
LINE
  5
270
330
6D
100
AcDbEntity
  8
1
  6
Continuous
 62
     2
100
AcDbLine
 10
-87.8454847988587
 20
15.06462600559203
 30
0.0
 11
-87.8454847988587
 21
15.7448981144353
 31
0.0
  0
LINE
  5
271
102
{ACAD_REACTORS
330
399
330
399
102
}
330
6D
100
AcDbEntity
  8
1
  6
Continuous
 62
     2
100
AcDbLine
 10
-86.1509928805658
 20
13.50000015525004
 30
0.0
 11
-86.2530336968931
 21
13.50000015525004
 31
0.0
  0
LINE
  5
272
102
{ACAD_REACTORS
330
399
330
399
102
}
330
6D
100
AcDbEntity
  8
1
  6
Continuous
 62
     2
100
AcDbLine
 10
-86.2530336968931
 20
15.88095253620415
 30
0.0
 11
-86.1509928805658
 21
15.88095253620415
 31
0.0
  0
LINE
  5
273
102
{ACAD_REACTORS
330
39A
330
39A
102
}
330
6D
100
AcDbEntity
  8
1
  6
Continuous
 62
     2
100
AcDbLine
 10
-83.0278415719319
 20
16.41904777428422
 30
0.0
 11
-83.129882388258
 21
16.41904777428422
 31
0.0
  0
LINE
  5
274
102
{ACAD_REACTORS
330
39A
330
39A
102
}
330
6D
100
AcDbEntity
  8
1
  6
Continuous
 62
     2
100
AcDbLine
 10
-80.98698139749871
 20
16.41904777428422
 30
0.0
 11
-83.0278415719319
 21
16.41904777428422
 31
0.0
  0
LINE
  5
275
102
{ACAD_REACTORS
330
39A
330
39A
102
}
330
6D
100
AcDbEntity
  8
1
  6
Continuous
 62
     2
100
AcDbLine
 10
-80.98698139749871
 20
16.41904777428422
 30
0.0
 11
-80.98698139749871
 21
16.96326546135893
 31
0.0
  0
LINE
  5
276
102
{ACAD_REACTORS
330
39A
330
39A
102
}
330
6D
100
AcDbEntity
  8
1
  6
Continuous
 62
     2
100
AcDbLine
 10
-80.98698139749871
 20
16.96326546135893
 30
0.0
 11
-81.93936234988
 21
16.96326546135893
 31
0.0
  0
LINE
  5
277
102
{ACAD_REACTORS
330
39A
330
39A
102
}
330
6D
100
AcDbEntity
  8
1
  6
Continuous
 62
     2
100
AcDbLine
 10
-81.93936234988
 20
16.96326546135893
 30
0.0
 11
-81.93936234988
 21
17.33741512122381
 31
0.0
  0
LINE
  5
278
102
{ACAD_REACTORS
330
39A
330
39A
102
}
330
6D
100
AcDbEntity
  8
1
  6
Continuous
 62
     2
100
AcDbLine
 10
-81.93936234988
 20
17.33741512122381
 30
0.0
 11
-80.98698139749871
 21
17.33741512122381
 31
0.0
  0
LINE
  5
279
102
{ACAD_REACTORS
330
39A
330
39A
102
}
330
6D
100
AcDbEntity
  8
1
  6
Continuous
 62
     2
100
AcDbLine
 10
-80.98698139749871
 20
17.33741512122381
 30
0.0
 11
-80.98698139749871
 21
17.88163280829863
 31
0.0
  0
LINE
  5
27A
102
{ACAD_REACTORS
330
39A
330
39A
102
}
330
6D
100
AcDbEntity
  8
1
  6
Continuous
 62
     2
100
AcDbLine
 10
-80.98698139749871
 20
17.88163280829863
 30
0.0
 11
-81.93936234988
 21
17.88163280829863
 31
0.0
  0
LINE
  5
27B
102
{ACAD_REACTORS
330
39A
330
39A
102
}
330
6D
100
AcDbEntity
  8
1
  6
Continuous
 62
     2
100
AcDbLine
 10
-81.93936234988
 20
17.88163280829863
 30
0.0
 11
-81.93936234988
 21
18.25578246816363
 31
0.0
  0
LINE
  5
27C
102
{ACAD_REACTORS
330
39A
330
39A
102
}
330
6D
100
AcDbEntity
  8
1
  6
Continuous
 62
     2
100
AcDbLine
 10
-81.93936234988
 20
18.25578246816363
 30
0.0
 11
-80.98698139749871
 21
18.25578246816363
 31
0.0
  0
LINE
  5
27D
102
{ACAD_REACTORS
330
39A
330
39A
102
}
330
6D
100
AcDbEntity
  8
1
  6
Continuous
 62
     2
100
AcDbLine
 10
-80.98698139749871
 20
18.25578246816363
 30
0.0
 11
-80.98698139749871
 21
18.80000015523822
 31
0.0
  0
LINE
  5
27E
102
{ACAD_REACTORS
330
39A
330
39A
102
}
330
6D
100
AcDbEntity
  8
1
  6
Continuous
 62
     2
100
AcDbLine
 10
-80.98698139749871
 20
18.80000015523822
 30
0.0
 11
-83.0278415719319
 21
18.80000015523822
 31
0.0
  0
LINE
  5
27F
102
{ACAD_REACTORS
330
39A
330
39A
102
}
330
6D
100
AcDbEntity
  8
1
  6
Continuous
 62
     2
100
AcDbLine
 10
-83.129882388258
 20
18.80000015523822
 30
0.0
 11
-83.0278415719319
 21
18.80000015523822
 31
0.0
  0
LINE
  5
280
102
{ACAD_REACTORS
330
39C
330
39C
102
}
330
6D
100
AcDbEntity
  8
1
  6
Continuous
 62
     2
100
AcDbLine
 10
-92.4737160913755
 20
14.78888904413921
 30
0.0
 11
-92.5144568321159
 21
14.78888904413921
 31
0.0
  0
LINE
  5
281
102
{ACAD_REACTORS
330
39C
330
39C
102
}
330
6D
100
AcDbEntity
  8
1
  6
Continuous
 62
     2
100
AcDbLine
 10
-92.4737160913755
 20
18.2518520071018
 30
0.0
 11
-92.5144568321159
 21
18.2518520071018
 31
0.0
  0
LINE
  5
282
102
{ACAD_REACTORS
330
39C
330
39C
102
}
330
6D
100
AcDbEntity
  8
1
  6
Continuous
 62
     2
100
AcDbLine
 10
-92.7792716469301
 20
17.98703719229272
 30
0.0
 11
-92.7792716469301
 21
17.49304237931952
 31
0.0
  0
LINE
  5
283
102
{ACAD_REACTORS
330
39C
330
39C
102
}
330
6D
100
AcDbEntity
  8
1
  6
Continuous
 62
     2
100
AcDbLine
 10
-92.7792716469301
 20
15.05370385894375
 30
0.0
 11
-92.7792716469301
 21
15.54769867190791
 31
0.0
  0
LINE
  5
284
102
{ACAD_REACTORS
330
39C
330
39C
102
}
330
6D
100
AcDbEntity
  8
1
  6
Continuous
 62
     2
100
AcDbLine
 10
-95.020012387671
 20
17.98703719229272
 30
0.0
 11
-95.020012387671
 21
14.23888904413181
 31
0.0
  0
LINE
  5
285
102
{ACAD_REACTORS
330
39C
330
39C
102
}
330
6D
100
AcDbEntity
  8
1
  6
Continuous
 62
     2
100
AcDbLine
 10
-93.4514938691526
 20
13.97407422932722
 30
0.0
 11
-94.755197572857
 21
13.97407422932722
 31
0.0
  0
LINE
  5
286
102
{ACAD_REACTORS
330
39C
330
39C
102
}
330
6D
100
AcDbEntity
  8
1
  6
Continuous
 62
     2
100
AcDbLine
 10
-93.1866790543375
 20
15.54769867191683
 30
0.0
 11
-93.1866790543375
 21
14.23888904413181
 31
0.0
  0
LINE
  5
287
102
{ACAD_REACTORS
330
39C
330
39C
102
}
330
6D
100
AcDbEntity
  8
1
  6
Continuous
 62
     2
100
AcDbLine
 10
-93.1866790543375
 20
17.98703719228351
 30
0.0
 11
-93.1866790543375
 21
17.49304237931952
 31
0.0
  0
LINE
  5
288
102
{ACAD_REACTORS
330
39C
330
39C
102
}
330
6D
100
AcDbEntity
  8
1
  6
Continuous
 62
     2
100
AcDbLine
 10
-94.755197572857
 20
18.2518520071018
 30
0.0
 11
-93.4514938691526
 21
18.2518520071018
 31
0.0
  0
LINE
  5
289
102
{ACAD_REACTORS
330
39C
330
39C
102
}
330
6D
100
AcDbEntity
  8
1
  6
Continuous
 62
     2
100
AcDbLine
 10
-95.1570494247079
 20
18.80000015523822
 30
0.0
 11
-90.6237160913746
 21
18.80000015523822
 31
0.0
  0
LINE
  5
28A
102
{ACAD_REACTORS
330
39C
330
39C
102
}
330
6D
100
AcDbEntity
  8
1
  6
Continuous
 62
     2
100
AcDbLine
 10
-95.4903827580415
 20
18.46666682190525
 30
0.0
 11
-95.4903827580415
 21
13.83333348858301
 31
0.0
  0
LINE
  5
28B
102
{ACAD_REACTORS
330
39C
330
39C
102
}
330
6D
100
AcDbEntity
  8
1
  6
Continuous
 62
     2
100
AcDbLine
 10
-90.6237160913746
 20
13.50000015525004
 30
0.0
 11
-95.1570494247079
 21
13.50000015525004
 31
0.0
  0
LINE
  5
28C
102
{ACAD_REACTORS
330
39C
330
39C
102
}
330
6D
100
AcDbEntity
  8
1
  6
Continuous
 62
     2
100
AcDbLine
 10
-90.2903827580419
 20
18.46666682190525
 30
0.0
 11
-90.2903827580419
 21
13.83333348858301
 31
0.0
  0
LINE
  5
28D
102
{ACAD_REACTORS
330
39B
330
39B
102
}
330
6D
100
AcDbEntity
  8
1
  6
Continuous
 62
     2
100
AcDbLine
 10
-88.7186699195376
 20
18.28299887234161
 30
0.0
 11
-88.6634871473281
 21
18.28299887234161
 31
0.0
  0
LINE
  5
28E
102
{ACAD_REACTORS
330
39B
330
39B
102
}
330
6D
100
AcDbEntity
  8
1
  6
Continuous
 62
     2
100
AcDbLine
 10
-88.865892962124
 20
18.28299887234161
 30
0.0
 11
-88.7186699195376
 21
18.28299887234161
 31
0.0
  0
LINE
  5
28F
102
{ACAD_REACTORS
330
39B
330
39B
102
}
330
6D
100
AcDbEntity
  8
1
  6
Continuous
 62
     2
100
AcDbLine
 10
-88.865892962124
 20
17.73276680517952
 30
0.0
 11
-88.865892962124
 21
18.28299887234161
 31
0.0
  0
LINE
  5
290
102
{ACAD_REACTORS
330
39B
330
39B
102
}
330
6D
100
AcDbEntity
  8
1
  6
Continuous
 62
     2
100
AcDbLine
 10
-88.7186699195376
 20
17.73276680517952
 30
0.0
 11
-88.865892962124
 21
17.73276680517952
 31
0.0
  0
LINE
  5
291
102
{ACAD_REACTORS
330
39B
330
39B
102
}
330
6D
100
AcDbEntity
  8
1
  6
Continuous
 62
     2
100
AcDbLine
 10
-88.7186699195376
 20
17.73276680517952
 30
0.0
 11
-88.6634871473281
 21
17.73276680517952
 31
0.0
  0
LINE
  5
292
102
{ACAD_REACTORS
330
39B
330
39B
102
}
330
6D
100
AcDbEntity
  8
1
  6
Continuous
 62
     2
100
AcDbLine
 10
-89.7502467036198
 20
18.80000015523822
 30
0.0
 11
-88.592455098267
 21
18.80000015523822
 31
0.0
  0
LINE
  5
293
102
{ACAD_REACTORS
330
39B
330
39B
102
}
330
6D
100
AcDbEntity
  8
1
  6
Continuous
 62
     2
100
AcDbLine
 10
-89.7502467036198
 20
18.80000015523822
 30
0.0
 11
-89.7502467036198
 21
16.41904777428422
 31
0.0
  0
LINE
  5
294
102
{ACAD_REACTORS
330
39B
330
39B
102
}
330
6D
100
AcDbEntity
  8
1
  6
Continuous
 62
     2
100
AcDbLine
 10
-89.7502467036198
 20
16.41904777428422
 30
0.0
 11
-89.0147941744334
 21
16.41904777428422
 31
0.0
  0
LINE
  5
295
102
{ACAD_REACTORS
330
39B
330
39B
102
}
330
6D
100
AcDbEntity
  8
1
  6
Continuous
 62
     2
100
AcDbLine
 10
-89.0147941744334
 20
16.41904777428422
 30
0.0
 11
-88.865892962124
 21
16.41904777428422
 31
0.0
  0
LINE
  5
296
102
{ACAD_REACTORS
330
39B
330
39B
102
}
330
6D
100
AcDbEntity
  8
1
  6
Continuous
 62
     2
100
AcDbLine
 10
-88.865892962124
 20
16.41904777428422
 30
0.0
 11
-88.865892962124
 21
17.15433409982782
 31
0.0
  0
LINE
  5
297
102
{ACAD_REACTORS
330
39B
330
39B
102
}
330
6D
100
AcDbEntity
  8
1
  6
Continuous
 62
     2
100
AcDbLine
 10
-88.865892962124
 20
17.15433409982782
 30
0.0
 11
-88.4435538859566
 21
17.15433409982782
 31
0.0
  0
LINE
  5
298
102
{ACAD_REACTORS
330
39B
330
39B
102
}
330
6D
100
AcDbEntity
  8
1
  6
Continuous
 62
     2
100
AcDbLine
 10
-88.4435538859566
 20
17.15433409982782
 30
0.0
 11
-88.3087619037937
 21
17.15433409982782
 31
0.0
  0
LINE
  5
299
102
{ACAD_REACTORS
330
39B
330
39B
102
}
330
6D
100
AcDbEntity
  8
1
  6
Continuous
 62
     2
100
AcDbLine
 10
-88.592455098267
 20
18.80000015523822
 30
0.0
 11
-88.3087619037937
 21
18.80000015523822
 31
0.0
  0
LINE
  5
29A
102
{ACAD_REACTORS
330
393
330
393
102
}
330
6D
100
AcDbEntity
  8
1
  6
Continuous
 62
     2
100
AcDbLine
 10
-78.45005593706351
 20
14.45238110763071
 30
0.0
 11
-78.02208123841241
 21
14.45238110763071
 31
0.0
  0
LINE
  5
29B
102
{ACAD_REACTORS
330
393
330
393
102
}
330
6D
100
AcDbEntity
  8
1
  6
Continuous
 62
     2
100
AcDbLine
 10
-78.02208123841241
 20
14.45238110763071
 30
0.0
 11
-78.23606858773859
 21
15.05102056341471
 31
0.0
  0
LINE
  5
29C
102
{ACAD_REACTORS
330
393
330
393
102
}
330
6D
100
AcDbEntity
  8
1
  6
Continuous
 62
     2
100
AcDbLine
 10
-78.45005593706351
 20
14.45238110763071
 30
0.0
 11
-78.23606858773859
 21
15.05102056341471
 31
0.0
  0
LINE
  5
29D
102
{ACAD_REACTORS
330
393
330
393
102
}
330
6D
100
AcDbEntity
  8
1
  6
Continuous
 62
     2
100
AcDbLine
 10
-78.6782454584871
 20
15.88095253620415
 30
0.0
 11
-79.67484409794298
 21
13.50000015525004
 31
0.0
  0
LINE
  5
29E
102
{ACAD_REACTORS
330
393
330
393
102
}
330
6D
100
AcDbEntity
  8
1
  6
Continuous
 62
     2
100
AcDbLine
 10
-79.67484409794298
 20
13.50000015525004
 30
0.0
 11
-78.790490356446
 21
13.50000015525004
 31
0.0
  0
LINE
  5
29F
102
{ACAD_REACTORS
330
393
330
393
102
}
330
6D
100
AcDbEntity
  8
1
  6
Continuous
 62
     2
100
AcDbLine
 10
-78.790490356446
 20
13.50000015525004
 30
0.0
 11
-78.63972654214881
 21
13.92176886273333
 31
0.0
  0
LINE
  5
2A0
102
{ACAD_REACTORS
330
393
330
393
102
}
330
6D
100
AcDbEntity
  8
1
  6
Continuous
 62
     2
100
AcDbLine
 10
-78.63972654214881
 20
13.92176886273333
 30
0.0
 11
-77.83241063332859
 21
13.92176886273333
 31
0.0
  0
LINE
  5
2A1
102
{ACAD_REACTORS
330
393
330
393
102
}
330
6D
100
AcDbEntity
  8
1
  6
Continuous
 62
     2
100
AcDbLine
 10
-77.68164681903087
 20
13.50000015525004
 30
0.0
 11
-77.83241063332859
 21
13.92176886273333
 31
0.0
  0
LINE
  5
2A2
102
{ACAD_REACTORS
330
393
330
393
102
}
330
6D
100
AcDbEntity
  8
1
  6
Continuous
 62
     2
100
AcDbLine
 10
-76.79729307753449
 20
13.50000015525004
 30
0.0
 11
-77.68164681903087
 21
13.50000015525004
 31
0.0
  0
LINE
  5
2A3
102
{ACAD_REACTORS
330
393
330
393
102
}
330
6D
100
AcDbEntity
  8
1
  6
Continuous
 62
     2
100
AcDbLine
 10
-77.79389171698989
 20
15.88095253620415
 30
0.0
 11
-76.79729307753449
 21
13.50000015525004
 31
0.0
  0
LINE
  5
2A4
102
{ACAD_REACTORS
330
393
330
393
102
}
330
6D
100
AcDbEntity
  8
1
  6
Continuous
 62
     2
100
AcDbLine
 10
-78.6782454584871
 20
15.88095253620415
 30
0.0
 11
-77.79389171698989
 21
15.88095253620415
 31
0.0
  0
LINE
  5
2A5
102
{ACAD_REACTORS
330
394
330
394
102
}
330
6D
100
AcDbEntity
  8
1
  6
Continuous
 62
     2
100
AcDbLine
 10
-79.56464001631008
 20
15.88095253620415
 30
0.0
 11
-81.5714427373972
 21
15.88095253620415
 31
0.0
  0
LINE
  5
2A6
102
{ACAD_REACTORS
330
394
330
394
102
}
330
6D
100
AcDbEntity
  8
1
  6
Continuous
 62
     2
100
AcDbLine
 10
-81.5714427373972
 20
15.88095253620415
 30
0.0
 11
-81.5714427373972
 21
15.26870763824283
 31
0.0
  0
LINE
  5
2A7
102
{ACAD_REACTORS
330
394
330
394
102
}
330
6D
100
AcDbEntity
  8
1
  6
Continuous
 62
     2
100
AcDbLine
 10
-81.5714427373972
 20
15.26870763824283
 30
0.0
 11
-80.9932114448812
 21
15.26870763824283
 31
0.0
  0
LINE
  5
2A8
102
{ACAD_REACTORS
330
394
330
394
102
}
330
6D
100
AcDbEntity
  8
1
  6
Continuous
 62
     2
100
AcDbLine
 10
-80.9932114448812
 20
15.26870763824283
 30
0.0
 11
-80.9932114448812
 21
13.50000015525004
 31
0.0
  0
LINE
  5
2A9
102
{ACAD_REACTORS
330
394
330
394
102
}
330
6D
100
AcDbEntity
  8
1
  6
Continuous
 62
     2
100
AcDbLine
 10
-80.9932114448812
 20
13.50000015525004
 30
0.0
 11
-80.1428713088261
 21
13.50000015525004
 31
0.0
  0
LINE
  5
2AA
102
{ACAD_REACTORS
330
394
330
394
102
}
330
6D
100
AcDbEntity
  8
1
  6
Continuous
 62
     2
100
AcDbLine
 10
-80.1428713088261
 20
13.50000015525004
 30
0.0
 11
-80.1428713088261
 21
15.26870763824283
 31
0.0
  0
LINE
  5
2AB
102
{ACAD_REACTORS
330
394
330
394
102
}
330
6D
100
AcDbEntity
  8
1
  6
Continuous
 62
     2
100
AcDbLine
 10
-80.1428713088261
 20
15.26870763824283
 30
0.0
 11
-79.56464001631008
 21
15.26870763824283
 31
0.0
  0
LINE
  5
2AC
102
{ACAD_REACTORS
330
394
330
394
102
}
330
6D
100
AcDbEntity
  8
1
  6
Continuous
 62
     2
100
AcDbLine
 10
-79.56464001631008
 20
15.26870763824283
 30
0.0
 11
-79.56464001631008
 21
15.88095253620415
 31
0.0
  0
LINE
  5
2AD
102
{ACAD_REACTORS
330
395
330
395
102
}
330
6D
100
AcDbEntity
  8
1
  6
Continuous
 62
     2
100
AcDbLine
 10
-83.70817743127438
 20
15.88095253620415
 30
0.0
 11
-84.5585175673301
 21
15.88095253620415
 31
0.0
  0
LINE
  5
2AE
102
{ACAD_REACTORS
330
395
330
395
102
}
330
6D
100
AcDbEntity
  8
1
  6
Continuous
 62
     2
100
AcDbLine
 10
-84.5585175673301
 20
15.88095253620415
 30
0.0
 11
-84.5585175673301
 21
13.50000015525004
 31
0.0
  0
LINE
  5
2AF
102
{ACAD_REACTORS
330
395
330
395
102
}
330
6D
100
AcDbEntity
  8
1
  6
Continuous
 62
     2
100
AcDbLine
 10
-84.5585175673301
 20
13.50000015525004
 30
0.0
 11
-83.70817743127438
 21
13.50000015525004
 31
0.0
  0
LINE
  5
2B0
102
{ACAD_REACTORS
330
395
330
395
102
}
330
6D
100
AcDbEntity
  8
1
  6
Continuous
 62
     2
100
AcDbLine
 10
-83.70817743127438
 20
13.50000015525004
 30
0.0
 11
-83.70817743127438
 21
14.52040831851721
 31
0.0
  0
LINE
  5
2B1
102
{ACAD_REACTORS
330
395
330
395
102
}
330
6D
100
AcDbEntity
  8
1
  6
Continuous
 62
     2
100
AcDbLine
 10
-83.70817743127438
 20
14.52040831851721
 30
0.0
 11
-82.8238236897788
 21
13.50000015525004
 31
0.0
  0
LINE
  5
2B2
102
{ACAD_REACTORS
330
395
330
395
102
}
330
6D
100
AcDbEntity
  8
1
  6
Continuous
 62
     2
100
AcDbLine
 10
-82.8238236897788
 20
13.50000015525004
 30
0.0
 11
-81.97348355372472
 21
13.50000015525004
 31
0.0
  0
LINE
  5
2B3
102
{ACAD_REACTORS
330
395
330
395
102
}
330
6D
100
AcDbEntity
  8
1
  6
Continuous
 62
     2
100
AcDbLine
 10
-81.97348355372472
 20
13.50000015525004
 30
0.0
 11
-81.97348355372472
 21
15.88095253620415
 31
0.0
  0
LINE
  5
2B4
102
{ACAD_REACTORS
330
395
330
395
102
}
330
6D
100
AcDbEntity
  8
1
  6
Continuous
 62
     2
100
AcDbLine
 10
-81.97348355372472
 20
15.88095253620415
 30
0.0
 11
-82.8238236897788
 21
15.88095253620415
 31
0.0
  0
LINE
  5
2B5
102
{ACAD_REACTORS
330
395
330
395
102
}
330
6D
100
AcDbEntity
  8
1
  6
Continuous
 62
     2
100
AcDbLine
 10
-82.8238236897788
 20
15.88095253620415
 30
0.0
 11
-82.8238236897788
 21
14.8605443729368
 31
0.0
  0
LINE
  5
2B6
102
{ACAD_REACTORS
330
395
330
395
102
}
330
6D
100
AcDbEntity
  8
1
  6
Continuous
 62
     2
100
AcDbLine
 10
-82.8238236897788
 20
14.8605443729368
 30
0.0
 11
-83.70817743127438
 21
15.88095253620415
 31
0.0
  0
LINE
  5
2B7
102
{ACAD_REACTORS
330
396
330
396
102
}
330
6D
100
AcDbEntity
  8
1
  6
Continuous
 62
     2
100
AcDbLine
 10
-77.4618113294718
 20
16.41904777428422
 30
0.0
 11
-77.4618113294718
 21
18.80000015523822
 31
0.0
  0
LINE
  5
2B8
102
{ACAD_REACTORS
330
397
330
397
102
}
330
6D
100
AcDbEntity
  8
1
  6
Continuous
 62
     2
100
AcDbLine
 10
-77.93187935668301
 20
18.80000015523822
 30
0.0
 11
-78.7822194927366
 21
18.80000015523822
 31
0.0
  0
LINE
  5
2B9
102
{ACAD_REACTORS
330
397
330
397
102
}
330
6D
100
AcDbEntity
  8
1
  6
Continuous
 62
     2
100
AcDbLine
 10
-78.7822194927366
 20
18.80000015523822
 30
0.0
 11
-78.7822194927366
 21
17.77959199197105
 31
0.0
  0
LINE
  5
2BA
102
{ACAD_REACTORS
330
397
330
397
102
}
330
6D
100
AcDbEntity
  8
1
  6
Continuous
 62
     2
100
AcDbLine
 10
-78.7822194927366
 20
17.77959199197105
 30
0.0
 11
-79.66657323423388
 21
18.80000015523822
 31
0.0
  0
LINE
  5
2BB
102
{ACAD_REACTORS
330
397
330
397
102
}
330
6D
100
AcDbEntity
  8
1
  6
Continuous
 62
     2
100
AcDbLine
 10
-79.66657323423388
 20
18.80000015523822
 30
0.0
 11
-80.5169133702875
 21
18.80000015523822
 31
0.0
  0
LINE
  5
2BC
102
{ACAD_REACTORS
330
397
330
397
102
}
330
6D
100
AcDbEntity
  8
1
  6
Continuous
 62
     2
100
AcDbLine
 10
-80.5169133702875
 20
18.80000015523822
 30
0.0
 11
-80.5169133702875
 21
16.41904777428422
 31
0.0
  0
LINE
  5
2BD
102
{ACAD_REACTORS
330
397
330
397
102
}
330
6D
100
AcDbEntity
  8
1
  6
Continuous
 62
     2
100
AcDbLine
 10
-80.5169133702875
 20
16.41904777428422
 30
0.0
 11
-79.66657323423388
 21
16.41904777428422
 31
0.0
  0
LINE
  5
2BE
102
{ACAD_REACTORS
330
397
330
397
102
}
330
6D
100
AcDbEntity
  8
1
  6
Continuous
 62
     2
100
AcDbLine
 10
-79.66657323423388
 20
16.41904777428422
 30
0.0
 11
-79.66657323423388
 21
17.43945593755163
 31
0.0
  0
LINE
  5
2BF
102
{ACAD_REACTORS
330
397
330
397
102
}
330
6D
100
AcDbEntity
  8
1
  6
Continuous
 62
     2
100
AcDbLine
 10
-79.66657323423388
 20
17.43945593755163
 30
0.0
 11
-78.7822194927366
 21
16.41904777428422
 31
0.0
  0
LINE
  5
2C0
102
{ACAD_REACTORS
330
397
330
397
102
}
330
6D
100
AcDbEntity
  8
1
  6
Continuous
 62
     2
100
AcDbLine
 10
-78.7822194927366
 20
16.41904777428422
 30
0.0
 11
-77.93187935668301
 21
16.41904777428422
 31
0.0
  0
LINE
  5
2C1
102
{ACAD_REACTORS
330
397
330
397
102
}
330
6D
100
AcDbEntity
  8
1
  6
Continuous
 62
     2
100
AcDbLine
 10
-77.93187935668301
 20
16.41904777428422
 30
0.0
 11
-77.93187935668301
 21
18.80000015523822
 31
0.0
  0
LINE
  5
2C2
102
{ACAD_REACTORS
330
398
330
398
102
}
330
6D
100
AcDbEntity
  8
1
  6
Continuous
 62
     2
100
AcDbLine
 10
-87.1713351389946
 20
18.80000015523822
 30
0.0
 11
-86.3209950029402
 21
18.80000015523822
 31
0.0
  0
LINE
  5
2C3
102
{ACAD_REACTORS
330
398
330
398
102
}
330
6D
100
AcDbEntity
  8
1
  6
Continuous
 62
     2
100
AcDbLine
 10
-87.1713351389946
 20
18.80000015523822
 30
0.0
 11
-87.1713351389946
 21
16.41904777428422
 31
0.0
  0
LINE
  5
2C4
102
{ACAD_REACTORS
330
398
330
398
102
}
330
6D
100
AcDbEntity
  8
1
  6
Continuous
 62
     2
100
AcDbLine
 10
-86.3209950029402
 20
16.41904777428422
 30
0.0
 11
-87.1713351389946
 21
16.41904777428422
 31
0.0
  0
LINE
  5
2C5
102
{ACAD_REACTORS
330
398
330
398
102
}
330
6D
100
AcDbEntity
  8
1
  6
Continuous
 62
     2
100
AcDbLine
 10
-86.3209950029402
 20
17.30340151578284
 30
0.0
 11
-86.3209950029402
 21
16.41904777428422
 31
0.0
  0
LINE
  5
2C6
102
{ACAD_REACTORS
330
398
330
398
102
}
330
6D
100
AcDbEntity
  8
1
  6
Continuous
 62
     2
100
AcDbLine
 10
-85.5726956832127
 20
17.30340151578284
 30
0.0
 11
-86.3209950029402
 21
17.30340151578284
 31
0.0
  0
LINE
  5
2C7
102
{ACAD_REACTORS
330
398
330
398
102
}
330
6D
100
AcDbEntity
  8
1
  6
Continuous
 62
     2
100
AcDbLine
 10
-85.5726956832127
 20
16.41904777428422
 30
0.0
 11
-85.5726956832127
 21
17.30340151578284
 31
0.0
  0
LINE
  5
2C8
102
{ACAD_REACTORS
330
398
330
398
102
}
330
6D
100
AcDbEntity
  8
1
  6
Continuous
 62
     2
100
AcDbLine
 10
-84.7223555471578
 20
16.41904777428422
 30
0.0
 11
-85.5726956832127
 21
16.41904777428422
 31
0.0
  0
LINE
  5
2C9
102
{ACAD_REACTORS
330
398
330
398
102
}
330
6D
100
AcDbEntity
  8
1
  6
Continuous
 62
     2
100
AcDbLine
 10
-84.7223555471578
 20
18.80000015523822
 30
0.0
 11
-84.7223555471578
 21
16.41904777428422
 31
0.0
  0
LINE
  5
2CA
102
{ACAD_REACTORS
330
398
330
398
102
}
330
6D
100
AcDbEntity
  8
1
  6
Continuous
 62
     2
100
AcDbLine
 10
-85.5726956832127
 20
18.80000015523822
 30
0.0
 11
-84.7223555471578
 21
18.80000015523822
 31
0.0
  0
LINE
  5
2CB
102
{ACAD_REACTORS
330
398
330
398
102
}
330
6D
100
AcDbEntity
  8
1
  6
Continuous
 62
     2
100
AcDbLine
 10
-85.5726956832127
 20
17.96666682190343
 30
0.0
 11
-85.5726956832127
 21
18.80000015523822
 31
0.0
  0
LINE
  5
2CC
102
{ACAD_REACTORS
330
398
330
398
102
}
330
6D
100
AcDbEntity
  8
1
  6
Continuous
 62
     2
100
AcDbLine
 10
-86.3209950029402
 20
17.96666682190343
 30
0.0
 11
-85.5726956832127
 21
17.96666682190343
 31
0.0
  0
LINE
  5
2CD
102
{ACAD_REACTORS
330
398
330
398
102
}
330
6D
100
AcDbEntity
  8
1
  6
Continuous
 62
     2
100
AcDbLine
 10
-86.3209950029402
 20
18.80000015523822
 30
0.0
 11
-86.3209950029402
 21
17.96666682190343
 31
0.0
  0
LINE
  5
2CE
330
6D
100
AcDbEntity
  8
1
  6
Continuous
 62
     7
100
AcDbLine
 10
0.20000000000205
 20
28.90000015524421
 30
0.0
 11
-36.49999999999758
 21
28.90000015524408
 31
0.0
  0
LINE
  5
2CF
330
6D
100
AcDbEntity
  8
1
  6
Continuous
 62
     7
100
AcDbLine
 10
-36.49999999999758
 20
24.6500001552441
 30
0.0
 11
-17.99999999999796
 21
24.6500001552441
 31
0.0
  0
LINE
  5
2D0
330
6D
100
AcDbEntity
  8
1
  6
Continuous
 62
     7
100
AcDbLine
 10
-36.49999999999758
 20
24.6500001552441
 30
0.0
 11
-36.49999999999758
 21
16.1500001552441
 31
0.0
  0
LINE
  5
2D1
330
6D
100
AcDbEntity
  8
1
  6
Continuous
 62
     6
100
AcDbLine
 10
-218.8000000000001
 20
7.6500001552441
 30
0.0
 11
-224.9999999999981
 21
7.65000015524421
 31
0.0
  0
LINE
  5
2D2
330
6D
100
AcDbEntity
  8
1
  6
Continuous
 62
     6
100
AcDbLine
 10
-224.9999999999981
 20
33.1500001552441
 30
0.0
 11
-224.9999999999981
 21
37.4000001552441
 31
0.0
  0
LINE
  5
2D3
330
6D
100
AcDbEntity
  8
1
  6
Continuous
 62
     6
100
AcDbLine
 10
-224.9999999999981
 20
28.9000001552441
 30
0.0
 11
-224.9999999999981
 21
33.1500001552441
 31
0.0
  0
LINE
  5
2D4
330
6D
100
AcDbEntity
  8
1
  6
Continuous
 62
     6
100
AcDbLine
 10
-224.9999999999981
 20
24.6500001552441
 30
0.0
 11
-224.9999999999981
 21
28.9000001552441
 31
0.0
  0
LINE
  5
2D5
330
6D
100
AcDbEntity
  8
1
  6
Continuous
 62
     6
100
AcDbLine
 10
-224.9999999999981
 20
16.1500001552441
 30
0.0
 11
-224.9999999999981
 21
20.4000001552441
 31
0.0
  0
LINE
  5
2D6
330
6D
100
AcDbEntity
  8
1
  6
Continuous
 62
     6
100
AcDbLine
 10
-143.0448045267499
 20
37.4000001552441
 30
0.0
 11
-205.3000000000001
 21
37.4000001552441
 31
0.0
  0
LINE
  5
2D7
330
6D
100
AcDbEntity
  8
1
  6
Continuous
 62
     2
100
AcDbLine
 10
-205.3000000000001
 20
33.1500001552441
 30
0.0
 11
-143.0448045267499
 21
33.1500001552441
 31
0.0
  0
LINE
  5
2D8
330
6D
100
AcDbEntity
  8
1
  6
Continuous
 62
     2
100
AcDbLine
 10
-205.3000000000001
 20
28.9000001552441
 30
0.0
 11
-143.0448045267499
 21
28.9000001552441
 31
0.0
  0
LINE
  5
2D9
330
6D
100
AcDbEntity
  8
1
  6
Continuous
 62
     6
100
AcDbLine
 10
-66.14480452674997
 20
7.6500001552441
 30
0.0
 11
-66.49999999999996
 21
7.65000015524421
 31
0.0
  0
LINE
  5
2DA
330
6D
100
AcDbEntity
  8
1
  6
Continuous
 62
     7
100
AcDbLine
 10
-79.64480452675
 20
28.9000001552441
 30
0.0
 11
-66.14480452674997
 21
28.9000001552441
 31
0.0
  0
LINE
  5
2DB
330
6D
100
AcDbEntity
  8
1
  6
Continuous
 62
     7
100
AcDbLine
 10
-43.24480452674995
 20
28.90000015524404
 30
0.0
 11
-66.14480452674997
 21
28.9000001552441
 31
0.0
  0
LINE
  5
2DC
330
6D
100
AcDbEntity
  8
1
  6
Continuous
 62
     6
100
AcDbLine
 10
27.00000000000183
 20
24.6500001552441
 30
0.0
 11
27.00000000000135
 21
16.1500001552441
 31
0.0
  0
LINE
  5
2DD
330
6D
100
AcDbEntity
  8
1
  6
Continuous
 62
     6
100
AcDbLine
 10
-116.04480452675
 20
7.6500001552441
 30
0.0
 11
-102.5448045267499
 21
7.6500001552441
 31
0.0
  0
LINE
  5
2DE
330
6D
100
AcDbEntity
  8
1
  6
Continuous
 62
     2
100
AcDbLine
 10
-116.04480452675
 20
16.1500001552441
 30
0.0
 11
-116.04480452675
 21
11.90000015524421
 31
0.0
  0
LINE
  5
2DF
330
6D
100
AcDbEntity
  8
1
  6
Continuous
 62
     2
100
AcDbLine
 10
-116.04480452675
 20
16.1500001552441
 30
0.0
 11
-129.5448045267499
 21
16.1500001552441
 31
0.0
  0
LINE
  5
2E0
330
6D
100
AcDbEntity
  8
1
  6
Continuous
 62
     2
100
AcDbLine
 10
-116.04480452675
 20
11.90000015524421
 30
0.0
 11
-116.04480452675
 21
7.6500001552441
 31
0.0
  0
LINE
  5
2E1
330
6D
100
AcDbEntity
  8
1
  6
Continuous
 62
     7
100
AcDbLine
 10
-116.04480452675
 20
11.90000015524421
 30
0.0
 11
-102.5448045267499
 21
11.90000015524421
 31
0.0
  0
LINE
  5
2E2
330
6D
100
AcDbEntity
  8
1
  6
Continuous
 62
     2
100
AcDbLine
 10
-116.04480452675
 20
24.6500001552441
 30
0.0
 11
-116.04480452675
 21
20.4000001552441
 31
0.0
  0
LINE
  5
2E3
330
6D
100
AcDbEntity
  8
1
  6
Continuous
 62
     2
100
AcDbLine
 10
-116.04480452675
 20
24.6500001552441
 30
0.0
 11
-129.5448045267499
 21
24.6500001552441
 31
0.0
  0
LINE
  5
2E4
330
6D
100
AcDbEntity
  8
1
  6
Continuous
 62
     2
100
AcDbLine
 10
-116.04480452675
 20
28.9000001552441
 30
0.0
 11
-116.04480452675
 21
24.6500001552441
 31
0.0
  0
LINE
  5
2E5
330
6D
100
AcDbEntity
  8
1
  6
Continuous
 62
     2
100
AcDbLine
 10
-116.04480452675
 20
28.9000001552441
 30
0.0
 11
-129.5448045267499
 21
28.9000001552441
 31
0.0
  0
LINE
  5
2E6
330
6D
100
AcDbEntity
  8
1
  6
Continuous
 62
     2
100
AcDbLine
 10
-116.04480452675
 20
33.1500001552441
 30
0.0
 11
-116.04480452675
 21
28.9000001552441
 31
0.0
  0
LINE
  5
2E7
330
6D
100
AcDbEntity
  8
1
  6
Continuous
 62
     2
100
AcDbLine
 10
-116.04480452675
 20
33.1500001552441
 30
0.0
 11
-129.5448045267499
 21
33.1500001552441
 31
0.0
  0
LINE
  5
2E8
330
6D
100
AcDbEntity
  8
1
  6
Continuous
 62
     2
100
AcDbLine
 10
-116.04480452675
 20
20.4000001552441
 30
0.0
 11
-116.04480452675
 21
16.1500001552441
 31
0.0
  0
LINE
  5
2E9
330
6D
100
AcDbEntity
  8
1
  6
Continuous
 62
     2
100
AcDbLine
 10
-116.04480452675
 20
20.4000001552441
 30
0.0
 11
-129.5448045267499
 21
20.4000001552441
 31
0.0
  0
LINE
  5
2EA
330
6D
100
AcDbEntity
  8
1
  6
Continuous
 62
     6
100
AcDbLine
 10
-129.5448045267499
 20
7.6500001552441
 30
0.0
 11
-116.5
 21
7.65000015524421
 31
0.0
  0
LINE
  5
2EB
330
6D
100
AcDbEntity
  8
1
  6
Continuous
 62
     2
100
AcDbLine
 10
-129.5448045267499
 20
16.1500001552441
 30
0.0
 11
-129.5448045267499
 21
11.90000015524421
 31
0.0
  0
LINE
  5
2EC
330
6D
100
AcDbEntity
  8
1
  6
Continuous
 62
     2
100
AcDbLine
 10
-129.5448045267499
 20
16.1500001552441
 30
0.0
 11
-143.0448045267499
 21
16.1500001552441
 31
0.0
  0
LINE
  5
2ED
330
6D
100
AcDbEntity
  8
1
  6
Continuous
 62
     2
100
AcDbLine
 10
-129.5448045267499
 20
11.90000015524421
 30
0.0
 11
-129.5448045267499
 21
7.6500001552441
 31
0.0
  0
LINE
  5
2EE
330
6D
100
AcDbEntity
  8
1
  6
Continuous
 62
     7
100
AcDbLine
 10
-129.5448045267499
 20
11.90000015524421
 30
0.0
 11
-116.04480452675
 21
11.90000015524421
 31
0.0
  0
LINE
  5
2EF
330
6D
100
AcDbEntity
  8
1
  6
Continuous
 62
     2
100
AcDbLine
 10
-129.5448045267499
 20
24.6500001552441
 30
0.0
 11
-129.5448045267499
 21
20.4000001552441
 31
0.0
  0
LINE
  5
2F0
330
6D
100
AcDbEntity
  8
1
  6
Continuous
 62
     2
100
AcDbLine
 10
-129.5448045267499
 20
24.6500001552441
 30
0.0
 11
-143.0448045267499
 21
24.6500001552441
 31
0.0
  0
LINE
  5
2F1
330
6D
100
AcDbEntity
  8
1
  6
Continuous
 62
     2
100
AcDbLine
 10
-129.5448045267499
 20
28.9000001552441
 30
0.0
 11
-129.5448045267499
 21
24.6500001552441
 31
0.0
  0
LINE
  5
2F2
330
6D
100
AcDbEntity
  8
1
  6
Continuous
 62
     2
100
AcDbLine
 10
-129.5448045267499
 20
28.9000001552441
 30
0.0
 11
-143.0448045267499
 21
28.9000001552441
 31
0.0
  0
LINE
  5
2F3
330
6D
100
AcDbEntity
  8
1
  6
Continuous
 62
     2
100
AcDbLine
 10
-129.5448045267499
 20
33.1500001552441
 30
0.0
 11
-129.5448045267499
 21
28.9000001552441
 31
0.0
  0
LINE
  5
2F4
330
6D
100
AcDbEntity
  8
1
  6
Continuous
 62
     2
100
AcDbLine
 10
-129.5448045267499
 20
33.1500001552441
 30
0.0
 11
-143.0448045267499
 21
33.1500001552441
 31
0.0
  0
LINE
  5
2F5
330
6D
100
AcDbEntity
  8
1
  6
Continuous
 62
     2
100
AcDbLine
 10
-129.5448045267499
 20
20.4000001552441
 30
0.0
 11
-129.5448045267499
 21
16.1500001552441
 31
0.0
  0
LINE
  5
2F6
330
6D
100
AcDbEntity
  8
1
  6
Continuous
 62
     2
100
AcDbLine
 10
-129.5448045267499
 20
20.4000001552441
 30
0.0
 11
-143.0448045267499
 21
20.4000001552441
 31
0.0
  0
LINE
  5
2F7
330
6D
100
AcDbEntity
  8
1
  6
Continuous
 62
     6
100
AcDbLine
 10
-143.0448045267499
 20
7.6500001552441
 30
0.0
 11
-129.5448045267499
 21
7.6500001552441
 31
0.0
  0
LINE
  5
2F8
330
6D
100
AcDbEntity
  8
1
  6
Continuous
 62
     2
100
AcDbLine
 10
-143.0448045267499
 20
16.1500001552441
 30
0.0
 11
-143.0448045267499
 21
11.90000015524421
 31
0.0
  0
LINE
  5
2F9
330
6D
100
AcDbEntity
  8
1
  6
Continuous
 62
     2
100
AcDbLine
 10
-143.0448045267499
 20
16.1500001552441
 30
0.0
 11
-205.3000000000001
 21
16.1500001552441
 31
0.0
  0
LINE
  5
2FA
330
6D
100
AcDbEntity
  8
1
  6
Continuous
 62
     2
100
AcDbLine
 10
-143.0448045267499
 20
11.90000015524421
 30
0.0
 11
-143.0448045267499
 21
7.6500001552441
 31
0.0
  0
LINE
  5
2FB
330
6D
100
AcDbEntity
  8
1
  6
Continuous
 62
     7
100
AcDbLine
 10
-143.0448045267499
 20
11.90000015524421
 30
0.0
 11
-129.5448045267499
 21
11.90000015524421
 31
0.0
  0
LINE
  5
2FC
330
6D
100
AcDbEntity
  8
1
  6
Continuous
 62
     2
100
AcDbLine
 10
-143.0448045267499
 20
24.6500001552441
 30
0.0
 11
-143.0448045267499
 21
20.4000001552441
 31
0.0
  0
LINE
  5
2FD
330
6D
100
AcDbEntity
  8
1
  6
Continuous
 62
     2
100
AcDbLine
 10
-143.0448045267499
 20
24.6500001552441
 30
0.0
 11
-205.3000000000001
 21
24.6500001552441
 31
0.0
  0
LINE
  5
2FE
330
6D
100
AcDbEntity
  8
1
  6
Continuous
 62
     2
100
AcDbLine
 10
-143.0448045267499
 20
28.9000001552441
 30
0.0
 11
-143.0448045267499
 21
24.6500001552441
 31
0.0
  0
LINE
  5
2FF
330
6D
100
AcDbEntity
  8
1
  6
Continuous
 62
     2
100
AcDbLine
 10
-143.0448045267499
 20
33.1500001552441
 30
0.0
 11
-143.0448045267499
 21
28.9000001552441
 31
0.0
  0
LINE
  5
300
330
6D
100
AcDbEntity
  8
1
  6
Continuous
 62
     2
100
AcDbLine
 10
-143.0448045267499
 20
20.4000001552441
 30
0.0
 11
-143.0448045267499
 21
16.1500001552441
 31
0.0
  0
LINE
  5
301
330
6D
100
AcDbEntity
  8
1
  6
Continuous
 62
     2
100
AcDbLine
 10
-143.0448045267499
 20
20.4000001552441
 30
0.0
 11
-205.3000000000001
 21
20.4000001552441
 31
0.0
  0
LINE
  5
302
330
6D
100
AcDbEntity
  8
1
  6
Continuous
 62
     7
100
AcDbLine
 10
-93.1448045267499
 20
24.65000015524421
 30
0.0
 11
-102.5448045267499
 21
24.6500001552441
 31
0.0
  0
LINE
  5
303
330
6D
100
AcDbEntity
  8
1
  6
Continuous
 62
     6
100
AcDbLine
 10
-93.1448045267499
 20
37.4000001552441
 30
0.0
 11
-102.5448045267499
 21
37.4000001552441
 31
0.0
  0
LINE
  5
304
330
6D
100
AcDbEntity
  8
1
  6
Continuous
 62
     7
100
AcDbLine
 10
-102.5448045267499
 20
33.1500001552441
 30
0.0
 11
-93.1448045267499
 21
33.1500001552441
 31
0.0
  0
LINE
  5
305
330
6D
100
AcDbEntity
  8
1
  6
Continuous
 62
     6
100
AcDbLine
 10
-224.9999999999981
 20
20.4000001552441
 30
0.0
 11
-224.9999999999981
 21
24.6500001552441
 31
0.0
  0
LINE
  5
306
330
6D
100
AcDbEntity
  8
1
  6
Continuous
 62
     6
100
AcDbLine
 10
27.00000000000175
 20
37.4000001552441
 30
0.0
 11
27.00000000000084
 21
28.9000001552441
 31
0.0
  0
LINE
  5
307
330
6D
100
AcDbEntity
  8
1
  6
Continuous
 62
     6
100
AcDbLine
 10
-224.9999999999981
 20
7.65000015524421
 30
0.0
 11
-259.999999999998
 21
7.65000015524421
 31
0.0
  0
LINE
  5
308
330
6D
100
AcDbEntity
  8
1
  6
Continuous
 62
     2
100
AcDbLine
 10
-94.2645353922346
 20
24.0250001552441
 30
0.0
 11
-90.2645353922346
 21
23.5250001552441
 31
0.0
  0
LINE
  5
309
330
6D
100
AcDbEntity
  8
1
  6
Continuous
 62
     2
100
AcDbLine
 10
-90.2645353922346
 20
23.5250001552441
 30
0.0
 11
-90.2645353922346
 21
21.5250001552441
 31
0.0
  0
LINE
  5
30A
330
6D
100
AcDbEntity
  8
1
  6
Continuous
 62
     2
100
AcDbLine
 10
-90.2645353922346
 20
21.5250001552441
 30
0.0
 11
-94.2645353922346
 21
21.0250001552441
 31
0.0
  0
LINE
  5
30B
330
6D
100
AcDbEntity
  8
1
  6
Continuous
 62
     2
100
AcDbLine
 10
-94.2645353922346
 20
21.0250001552441
 30
0.0
 11
-94.2645353922346
 21
24.0250001552441
 31
0.0
  0
LINE
  5
30C
330
6D
100
AcDbEntity
  8
1
  6
Continuous
 62
     7
100
AcDbLine
 10
-36.49999999999758
 20
28.90000015524408
 30
0.0
 11
-43.24480452674995
 21
28.90000015524404
 31
0.0
  0
LINE
  5
30D
330
6D
100
AcDbEntity
  8
1
  6
Continuous
 62
     7
100
AcDbLine
 10
-36.49999999999758
 20
24.6500001552441
 30
0.0
 11
-34.49999999999758
 21
24.6500001552441
 31
0.0
  0
LINE
  5
30E
330
6D
100
AcDbEntity
  8
1
  6
Continuous
 62
     2
100
AcDbLine
 10
-1.56526331521097
 20
23.09978087621134
 30
0.0
 11
-1.56526331521097
 21
21.04238491135784
 31
0.0
  0
ARC
  5
30F
330
6D
100
AcDbEntity
  8
1
  6
Continuous
 62
     2
100
AcDbCircle
 10
-75.54867878398531
 20
14.67504855979334
 30
0.0
 40
1.206350288026
100
AcDbArc
 50
91.6119598515516
 51
216.1353968693295
  0
ARC
  5
310
330
6D
100
AcDbEntity
  8
1
  6
Continuous
 62
     2
100
AcDbCircle
 10
-75.5732354892361
 20
14.69945793036024
 30
0.0
 40
1.201398482875451
100
AcDbArc
 50
217.7663890934396
 51
250.482095160258
  0
ARC
  5
311
102
{ACAD_REACTORS
330
399
330
399
102
}
330
6D
100
AcDbEntity
  8
1
  6
Continuous
 62
     2
100
AcDbCircle
 10
-86.2530336968931
 20
14.69047634572704
 30
0.0
 40
1.19047619047711
100
AcDbArc
 50
90.0
 51
270.0
  0
ARC
  5
312
102
{ACAD_REACTORS
330
399
330
399
102
}
330
6D
100
AcDbEntity
  8
1
  6
Continuous
 62
     2
100
AcDbCircle
 10
-86.1509928805658
 20
14.69047634572704
 30
0.0
 40
1.190476190477
100
AcDbArc
 50
270.0
 51
90.0
  0
ARC
  5
313
102
{ACAD_REACTORS
330
39A
330
39A
102
}
330
6D
100
AcDbEntity
  8
1
  6
Continuous
 62
     2
100
AcDbCircle
 10
-83.129882388258
 20
17.60952396476134
 30
0.0
 40
1.190476190476879
100
AcDbArc
 50
90.0
 51
270.0
  0
ARC
  5
314
102
{ACAD_REACTORS
330
39C
330
39C
102
}
330
6D
100
AcDbEntity
  8
1
  6
Continuous
 62
     2
100
AcDbCircle
 10
-92.4737160913755
 20
16.52037052561363
 30
0.0
 40
1.731481481474418
100
AcDbArc
 50
270.0
 51
90.0
  0
ARC
  5
315
102
{ACAD_REACTORS
330
39C
330
39C
102
}
330
6D
100
AcDbEntity
  8
1
  6
Continuous
 62
     2
100
AcDbCircle
 10
-92.9829753506336
 20
16.52037052561363
 30
0.0
 40
0.8148148148132878
100
AcDbArc
 50
295.719279502167
 51
64.2807204979753
  0
ARC
  5
316
102
{ACAD_REACTORS
330
39C
330
39C
102
}
330
6D
100
AcDbEntity
  8
1
  6
Continuous
 62
     2
100
AcDbCircle
 10
-92.9829753506336
 20
16.52037052561363
 30
0.0
 40
0.8148148148137929
100
AcDbArc
 50
115.7192795022131
 51
244.2807204978133
  0
ARC
  5
317
102
{ACAD_REACTORS
330
39B
330
39B
102
}
330
6D
100
AcDbEntity
  8
1
  6
Continuous
 62
     2
100
AcDbCircle
 10
-88.6634871473281
 20
18.00788283876065
 30
0.0
 40
0.2751160335811313
100
AcDbArc
 50
270.0
 51
90.0
  0
ARC
  5
318
102
{ACAD_REACTORS
330
39B
330
39B
102
}
330
6D
100
AcDbEntity
  8
1
  6
Continuous
 62
     2
100
AcDbCircle
 10
-88.4013333230151
 20
17.97716712753302
 30
0.0
 40
0.8280239484092029
100
AcDbArc
 50
276.4189726355862
 51
83.58102736441384
  0
CIRCLE
  5
319
102
{ACAD_REACTORS
330
39C
330
39C
102
}
330
6D
100
AcDbEntity
  8
1
  6
Continuous
 62
     2
100
AcDbCircle
 10
-92.9829753506336
 20
16.52037052561363
 30
0.0
 40
0.4074074074073053
  0
CIRCLE
  5
31A
330
6D
100
AcDbEntity
  8
1
  6
Continuous
 62
     2
100
AcDbCircle
 10
-97.4525447016466
 20
22.5250001552441
 30
0.0
 40
1.0
  0
CIRCLE
  5
31B
330
6D
100
AcDbEntity
  8
1
  6
Continuous
 62
     2
100
AcDbCircle
 10
-97.4525447016466
 20
22.5250001552441
 30
0.0
 40
1.5
  0
ARC
  5
31C
102
{ACAD_REACTORS
330
39C
330
39C
102
}
330
6D
100
AcDbEntity
  8
1
  6
Continuous
 62
     2
100
AcDbCircle
 10
-92.5144568321159
 20
15.05370385894375
 30
0.0
 40
0.2648148148142013
100
AcDbArc
 50
180.0
 51
270.0
  0
ARC
  5
31D
102
{ACAD_REACTORS
330
39C
330
39C
102
}
330
6D
100
AcDbEntity
  8
1
  6
Continuous
 62
     2
100
AcDbCircle
 10
-92.5144568321159
 20
17.98703719229272
 30
0.0
 40
0.2648148148090783
100
AcDbArc
 50
90.0
 51
180.0
  0
ARC
  5
31E
102
{ACAD_REACTORS
330
39C
330
39C
102
}
330
6D
100
AcDbEntity
  8
1
  6
Continuous
 62
     2
100
AcDbCircle
 10
-92.5144568321159
 20
17.49304237931952
 30
0.0
 40
0.2648148148142013
100
AcDbArc
 50
180.0
 51
244.2807204980797
  0
ARC
  5
31F
102
{ACAD_REACTORS
330
39C
330
39C
102
}
330
6D
100
AcDbEntity
  8
1
  6
Continuous
 62
     2
100
AcDbCircle
 10
-92.5144568321159
 20
15.54769867190791
 30
0.0
 40
0.2648148148214952
100
AcDbArc
 50
115.7192795014987
 51
180.0
  0
ARC
  5
320
102
{ACAD_REACTORS
330
39C
330
39C
102
}
330
6D
100
AcDbEntity
  8
1
  6
Continuous
 62
     2
100
AcDbCircle
 10
-94.755197572857
 20
17.98703719229272
 30
0.0
 40
0.2648148148090783
100
AcDbArc
 50
90.0
 51
180.0
  0
ARC
  5
321
102
{ACAD_REACTORS
330
39C
330
39C
102
}
330
6D
100
AcDbEntity
  8
1
  6
Continuous
 62
     2
100
AcDbCircle
 10
-94.755197572857
 20
14.23888904413181
 30
0.0
 40
0.2648148148140024
100
AcDbArc
 50
180.0
 51
270.0
  0
ARC
  5
322
102
{ACAD_REACTORS
330
39C
330
39C
102
}
330
6D
100
AcDbEntity
  8
1
  6
Continuous
 62
     2
100
AcDbCircle
 10
-93.4514938691526
 20
14.23888904413181
 30
0.0
 40
0.2648148148045895
100
AcDbArc
 50
270.0
 51
0.0
  0
ARC
  5
323
102
{ACAD_REACTORS
330
39C
330
39C
102
}
330
6D
100
AcDbEntity
  8
1
  6
Continuous
 62
     2
100
AcDbCircle
 10
-93.4514938691526
 20
15.54769867190791
 30
0.0
 40
0.2648148148150966
100
AcDbArc
 50
0.00000000193013
 51
64.28072049830739
  0
ARC
  5
324
102
{ACAD_REACTORS
330
39C
330
39C
102
}
330
6D
100
AcDbEntity
  8
1
  6
Continuous
 62
     2
100
AcDbCircle
 10
-93.4514938691526
 20
17.49304237931952
 30
0.0
 40
0.2648148148217111
100
AcDbArc
 50
295.7192795015957
 51
0.0
  0
ARC
  5
325
102
{ACAD_REACTORS
330
39C
330
39C
102
}
330
6D
100
AcDbEntity
  8
1
  6
Continuous
 62
     2
100
AcDbCircle
 10
-93.4514938691526
 20
17.98703719229272
 30
0.0
 40
0.2648148148150966
100
AcDbArc
 50
359.9999999980068
 51
90.0
  0
ARC
  5
326
102
{ACAD_REACTORS
330
39C
330
39C
102
}
330
6D
100
AcDbEntity
  8
1
  6
Continuous
 62
     2
100
AcDbCircle
 10
-95.1570494247079
 20
18.46666682190525
 30
0.0
 40
0.3333333333329698
100
AcDbArc
 50
90.0
 51
180.0
  0
ARC
  5
327
102
{ACAD_REACTORS
330
39C
330
39C
102
}
330
6D
100
AcDbEntity
  8
1
  6
Continuous
 62
     2
100
AcDbCircle
 10
-95.1570494247079
 20
13.83333348858301
 30
0.0
 40
0.3333333333335986
100
AcDbArc
 50
180.0
 51
270.0
  0
ARC
  5
328
102
{ACAD_REACTORS
330
39C
330
39C
102
}
330
6D
100
AcDbEntity
  8
1
  6
Continuous
 62
     2
100
AcDbCircle
 10
-90.6237160913746
 20
13.83333348858301
 30
0.0
 40
0.3333333333329698
100
AcDbArc
 50
270.0
 51
0.0
  0
ARC
  5
329
102
{ACAD_REACTORS
330
39C
330
39C
102
}
330
6D
100
AcDbEntity
  8
1
  6
Continuous
 62
     2
100
AcDbCircle
 10
-90.6237160913746
 20
18.46666682190525
 30
0.0
 40
0.3333333333327033
100
AcDbArc
 50
0.0
 51
90.0
  0
MTEXT
  5
32B
330
6D
100
AcDbEntity
  8
1
 62
     2
100
AcDbMText
 10
-65.04480452674996
 20
26.97500015524409
 30
0.0
 40
1.4
 41
0.0
 71
     4
 72
     1
  1
SAP\Pchange-No.
  7
CONVERTER_12
 73
     1
 44
0.66026410564226
  0
MTEXT
  5
32C
330
6D
100
AcDbEntity
  8
1
 62
     3
100
AcDbMText
 10
-55.81256770863507
 20
26.77500015524409
 30
0.0
 40
2.5
 41
0.0
 71
     4
 72
     1
  1
MIG-020018
  7
CONVERTER_12
 73
     1
 44
1.20048019207683
  0
TEXT
  5
32E
330
6D
100
AcDbEntity
  8
1
 62
     3
100
AcDbText
 10
-65.04480452675004
 20
39.69477172884835
 30
0.0
 40
2.5
  1
 
 41
0.72
  7
CONVERTER_13
100
AcDbText
  0
TEXT
  5
32F
330
6D
100
AcDbEntity
  8
1
 62
     3
100
AcDbText
 10
-65.04480452675004
 20
43.19477172884835
 30
0.0
 40
2.5
  1
 
 41
0.72
  7
CONVERTER_13
100
AcDbText
  0
TEXT
  5
330
330
6D
100
AcDbEntity
  8
1
 62
     3
100
AcDbText
 10
-65.04480452675004
 20
46.69477172884835
 30
0.0
 40
2.5
  1
 
 41
0.72
  7
CONVERTER_13
100
AcDbText
  0
MTEXT
  5
332
330
6D
100
AcDbEntity
  8
1
 62
     2
100
AcDbMText
 10
-204.3000000000001
 20
14.02500015524421
 30
0.0
 40
2.0
 41
0.0
 71
     4
 72
     1
  1
 
  7
CONVERTER_14
 73
     1
 44
1.20048019207683
  0
MTEXT
  5
333
330
6D
100
AcDbEntity
  8
1
 62
     2
100
AcDbMText
 10
-204.3000000000001
 20
18.2750001552441
 30
0.0
 40
2.0
 41
0.0
 71
     4
 72
     1
  1
 
  7
CONVERTER_14
 73
     1
 44
1.20048019207683
  0
MTEXT
  5
334
330
6D
100
AcDbEntity
  8
1
 62
     2
100
AcDbMText
 10
-204.3000000000001
 20
22.5250001552441
 30
0.0
 40
2.0
 41
0.0
 71
     4
 72
     1
  1
 
  7
CONVERTER_14
 73
     1
 44
1.20048019207683
  0
MTEXT
  5
335
330
6D
100
AcDbEntity
  8
1
 62
     2
100
AcDbMText
 10
-204.3000000000001
 20
26.7750001552441
 30
0.0
 40
2.0
 41
0.0
 71
     4
 72
     1
  1
 
  7
CONVERTER_14
 73
     1
 44
1.20048019207683
  0
MTEXT
  5
336
330
6D
100
AcDbEntity
  8
1
 62
     2
100
AcDbMText
 10
-204.3000000000001
 20
31.0250001552441
 30
0.0
 40
2.0
 41
0.0
 71
     4
 72
     1
  1
 
  7
CONVERTER_14
 73
     1
 44
1.20048019207683
  0
MTEXT
  5
337
330
6D
100
AcDbEntity
  8
1
 62
     2
100
AcDbMText
 10
-204.3000000000001
 20
35.2750001552441
 30
0.0
 40
2.0
 41
0.0
 71
     4
 72
     1
  1
 
  7
CONVERTER_14
 73
     1
 44
1.20048019207683
  0
MTEXT
  5
338
330
6D
100
AcDbEntity
  8
1
 62
     2
100
AcDbMText
 10
-109.2948045267499
 20
14.02500015524421
 30
0.0
 40
2.0
 41
0.0
 71
     5
 72
     1
  1
 
  7
CONVERTER_11
 73
     1
 44
1.20048019207683
  0
MTEXT
  5
339
330
6D
100
AcDbEntity
  8
1
 62
     2
100
AcDbMText
 10
-109.2948045267499
 20
18.2750001552441
 30
0.0
 40
2.0
 41
0.0
 71
     5
 72
     1
  1
 
  7
CONVERTER_11
 73
     1
 44
1.20048019207683
  0
MTEXT
  5
33A
330
6D
100
AcDbEntity
  8
1
 62
     2
100
AcDbMText
 10
-109.2948045267499
 20
22.5250001552441
 30
0.0
 40
2.0
 41
0.0
 71
     5
 72
     1
  1
 
  7
CONVERTER_11
 73
     1
 44
1.20048019207683
  0
MTEXT
  5
33B
330
6D
100
AcDbEntity
  8
1
 62
     2
100
AcDbMText
 10
-109.2948045267499
 20
26.7750001552441
 30
0.0
 40
2.0
 41
0.0
 71
     5
 72
     1
  1
 
  7
CONVERTER_11
 73
     1
 44
1.20048019207683
  0
MTEXT
  5
33C
330
6D
100
AcDbEntity
  8
1
 62
     2
100
AcDbMText
 10
-109.2948045267499
 20
31.0250001552441
 30
0.0
 40
2.0
 41
0.0
 71
     5
 72
     1
  1
 
  7
CONVERTER_11
 73
     1
 44
1.20048019207683
  0
MTEXT
  5
33D
330
6D
100
AcDbEntity
  8
1
 62
     2
100
AcDbMText
 10
-109.2948045267499
 20
35.2750001552441
 30
0.0
 40
2.0
 41
0.0
 71
     5
 72
     1
  1
 
  7
CONVERTER_11
 73
     1
 44
1.20048019207683
  0
MTEXT
  5
33E
330
6D
100
AcDbEntity
  8
1
 62
     2
100
AcDbMText
 10
-122.79480452675
 20
14.02500015524421
 30
0.0
 40
2.0
 41
0.0
 71
     5
 72
     1
  1
 
  7
CONVERTER_11
 73
     1
 44
1.20048019207683
  0
MTEXT
  5
33F
330
6D
100
AcDbEntity
  8
1
 62
     2
100
AcDbMText
 10
-122.79480452675
 20
18.2750001552441
 30
0.0
 40
2.0
 41
0.0
 71
     5
 72
     1
  1
 
  7
CONVERTER_11
 73
     1
 44
1.20048019207683
  0
MTEXT
  5
340
330
6D
100
AcDbEntity
  8
1
 62
     2
100
AcDbMText
 10
-122.79480452675
 20
22.5250001552441
 30
0.0
 40
2.0
 41
0.0
 71
     5
 72
     1
  1
 
  7
CONVERTER_11
 73
     1
 44
1.20048019207683
  0
MTEXT
  5
341
330
6D
100
AcDbEntity
  8
1
 62
     2
100
AcDbMText
 10
-122.79480452675
 20
26.7750001552441
 30
0.0
 40
2.0
 41
0.0
 71
     5
 72
     1
  1
 
  7
CONVERTER_11
 73
     1
 44
1.20048019207683
  0
MTEXT
  5
342
330
6D
100
AcDbEntity
  8
1
 62
     2
100
AcDbMText
 10
-122.79480452675
 20
31.0250001552441
 30
0.0
 40
2.0
 41
0.0
 71
     5
 72
     1
  1
 
  7
CONVERTER_11
 73
     1
 44
1.20048019207683
  0
MTEXT
  5
343
330
6D
100
AcDbEntity
  8
1
 62
     2
100
AcDbMText
 10
-122.79480452675
 20
35.2750001552441
 30
0.0
 40
2.0
 41
0.0
 71
     5
 72
     1
  1
 
  7
CONVERTER_11
 73
     1
 44
1.20048019207683
  0
MTEXT
  5
344
330
6D
100
AcDbEntity
  8
1
 62
     2
100
AcDbMText
 10
-136.2948045267499
 20
35.2750001552441
 30
0.0
 40
2.0
 41
0.0
 71
     5
 72
     1
  1
 
  7
CONVERTER_11
 73
     1
 44
1.20048019207683
  0
MTEXT
  5
345
330
6D
100
AcDbEntity
  8
1
 62
     2
100
AcDbMText
 10
-136.2948045267499
 20
31.0250001552441
 30
0.0
 40
2.0
 41
0.0
 71
     5
 72
     1
  1
 
  7
CONVERTER_11
 73
     1
 44
1.20048019207683
  0
MTEXT
  5
346
330
6D
100
AcDbEntity
  8
1
 62
     2
100
AcDbMText
 10
-136.2948045267499
 20
26.7750001552441
 30
0.0
 40
2.0
 41
0.0
 71
     5
 72
     1
  1
 
  7
CONVERTER_11
 73
     1
 44
1.20048019207683
  0
MTEXT
  5
347
330
6D
100
AcDbEntity
  8
1
 62
     2
100
AcDbMText
 10
-136.2948045267499
 20
22.5250001552441
 30
0.0
 40
2.0
 41
0.0
 71
     5
 72
     1
  1
 
  7
CONVERTER_11
 73
     1
 44
1.20048019207683
  0
MTEXT
  5
348
330
6D
100
AcDbEntity
  8
1
 62
     2
100
AcDbMText
 10
-136.2948045267499
 20
18.2750001552441
 30
0.0
 40
2.0
 41
0.0
 71
     5
 72
     1
  1
 
  7
CONVERTER_11
 73
     1
 44
1.20048019207683
  0
MTEXT
  5
349
330
6D
100
AcDbEntity
  8
1
 62
     2
100
AcDbMText
 10
-136.2948045267499
 20
14.02500015524421
 30
0.0
 40
2.0
 41
0.0
 71
     5
 72
     1
  1
 
  7
CONVERTER_11
 73
     1
 44
1.20048019207683
  0
MTEXT
  5
34A
330
6D
100
AcDbEntity
  8
1
 62
     2
100
AcDbMText
 10
-212.0500000000001
 20
35.2750001552441
 30
0.0
 40
2.0
 41
0.0
 71
     5
 72
     1
  1
 
  7
CONVERTER_11
 73
     1
 44
1.20048019207683
  0
MTEXT
  5
34B
330
6D
100
AcDbEntity
  8
1
 62
     2
100
AcDbMText
 10
-212.0500000000001
 20
31.0250001552441
 30
0.0
 40
2.0
 41
0.0
 71
     5
 72
     1
  1
 
  7
CONVERTER_11
 73
     1
 44
1.20048019207683
  0
MTEXT
  5
34C
330
6D
100
AcDbEntity
  8
1
 62
     2
100
AcDbMText
 10
-212.0500000000001
 20
26.7750001552441
 30
0.0
 40
2.0
 41
0.0
 71
     5
 72
     1
  1
 
  7
CONVERTER_11
 73
     1
 44
1.20048019207683
  0
MTEXT
  5
34D
330
6D
100
AcDbEntity
  8
1
 62
     2
100
AcDbMText
 10
-212.0500000000001
 20
22.5250001552441
 30
0.0
 40
2.0
 41
0.0
 71
     5
 72
     1
  1
 
  7
CONVERTER_11
 73
     1
 44
1.20048019207683
  0
MTEXT
  5
34E
330
6D
100
AcDbEntity
  8
1
 62
     2
100
AcDbMText
 10
-212.0500000000001
 20
18.2750001552441
 30
0.0
 40
2.0
 41
0.0
 71
     5
 72
     1
  1
 
  7
CONVERTER_11
 73
     1
 44
1.20048019207683
  0
MTEXT
  5
34F
330
6D
100
AcDbEntity
  8
1
 62
     2
100
AcDbMText
 10
-212.0500000000001
 20
14.02500015524421
 30
0.0
 40
2.0
 41
0.0
 71
     5
 72
     1
  1
 
  7
CONVERTER_11
 73
     1
 44
1.20048019207683
  0
MTEXT
  5
350
330
6D
100
AcDbEntity
  8
1
 62
     2
100
AcDbMText
 10
-221.8999999999991
 20
14.02500015524421
 30
0.0
 40
2.0
 41
0.0
 71
     5
 72
     1
  1
 
  7
CONVERTER_11
 73
     1
 44
1.20048019207683
  0
MTEXT
  5
351
330
6D
100
AcDbEntity
  8
1
 62
     2
100
AcDbMText
 10
-221.8999999999991
 20
18.2750001552441
 30
0.0
 40
2.0
 41
0.0
 71
     5
 72
     1
  1
 
  7
CONVERTER_11
 73
     1
 44
1.20048019207683
  0
MTEXT
  5
352
330
6D
100
AcDbEntity
  8
1
 62
     2
100
AcDbMText
 10
-221.8999999999991
 20
22.5250001552441
 30
0.0
 40
2.0
 41
0.0
 71
     5
 72
     1
  1
 
  7
CONVERTER_11
 73
     1
 44
1.20048019207683
  0
MTEXT
  5
353
330
6D
100
AcDbEntity
  8
1
 62
     2
100
AcDbMText
 10
-221.8999999999991
 20
26.7750001552441
 30
0.0
 40
2.0
 41
0.0
 71
     5
 72
     1
  1
 
  7
CONVERTER_11
 73
     1
 44
1.20048019207683
  0
MTEXT
  5
354
330
6D
100
AcDbEntity
  8
1
 62
     2
100
AcDbMText
 10
-221.8999999999991
 20
31.0250001552441
 30
0.0
 40
2.0
 41
0.0
 71
     5
 72
     1
  1
 
  7
CONVERTER_11
 73
     1
 44
1.20048019207683
  0
MTEXT
  5
355
330
6D
100
AcDbEntity
  8
1
 62
     2
100
AcDbMText
 10
-221.8999999999991
 20
35.2750001552441
 30
0.0
 40
2.0
 41
0.0
 71
     5
 72
     1
  1
 
  7
CONVERTER_11
 73
     1
 44
1.20048019207683
  0
MTEXT
  5
356
330
6D
100
AcDbEntity
  8
1
 62
     2
100
AcDbMText
 10
-35.49999999999758
 20
27.9000001552441
 30
0.0
 40
1.8
 41
0.0
 71
     1
 72
     1
  1
part-rev.
  7
CONVERTER_13
 73
     1
 44
1.20048019207683
  0
MTEXT
  5
357
330
6D
100
AcDbEntity
  8
1
 62
     2
100
AcDbMText
 10
-16.99999999999796
 20
23.6500001552441
 30
0.0
 40
1.8
 41
0.0
 71
     1
 72
     1
  1
surface in um
  7
CONVERTER_11
 73
     1
 44
1.32052821128451
  0
MTEXT
  5
358
330
6D
100
AcDbEntity
  8
1
 62
     7
100
AcDbMText
 10
29.49999999999913
 20
82.65000015524603
 30
0.0
 40
3.5
 41
0.0
 71
     5
 72
     1
  1
C
  7
CONVERTER_11
 73
     1
 44
1.20048019207683
  0
MTEXT
  5
359
330
6D
100
AcDbEntity
  8
1
 62
     7
100
AcDbMText
 10
29.49999999999913
 20
185.1500001552441
 30
0.0
 40
3.5
 41
0.0
 71
     5
 72
     1
  1
A
  7
CONVERTER_11
 73
     1
 44
1.20048019207683
  0
MTEXT
  5
35A
330
6D
100
AcDbEntity
  8
1
 62
     7
100
AcDbMText
 10
29.49999999999913
 20
132.650000155246
 30
0.0
 40
3.5
 41
0.0
 71
     5
 72
     1
  1
B
  7
CONVERTER_11
 73
     1
 44
1.20048019207683
  0
MTEXT
  5
35B
330
6D
100
AcDbEntity
  8
1
 62
     7
100
AcDbMText
 10
29.49999999999913
 20
30.1500001552441
 30
0.0
 40
3.5
 41
0.0
 71
     5
 72
     1
  1
D
  7
CONVERTER_11
 73
     1
 44
1.20048019207683
  0
MTEXT
  5
35C
330
6D
100
AcDbEntity
  8
1
 62
     3
100
AcDbMText
 10
-259.9949322139281
 20
194.4413083105429
 30
0.0
 40
1.8
 41
0.0
 71
     7
 72
     1
  3
Weitergabe sowie Vervielf\U+00e4ltigung dieses Dokuments, Verwertung und\PMitteilung seines Inhalts gem\U+00e4\U+00df \U+00a718 UWG verboten, soweit nicht aus-\Pdr\U+00fccklich gestattet. Zuwiderhandlungen verpflichten zu Schadenersatz\P(\U+00a719 U
  1
WG). Alle Rechte vorbehalten, insbesondere das Recht, Patent-,\PGebrauchsmuster- oder Geschmacksmusteranmeldungen durchzuf\U+00fchren.\PPhoenix Contact GmbH & Co. KG
  7
CONVERTER_11
 73
     1
 44
0.99639855942377
  0
MTEXT
  5
35D
330
6D
100
AcDbEntity
  8
1
 62
     3
100
AcDbMText
 10
-87.14182237514
 20
194.4413083105429
 30
0.0
 40
1.8
 41
0.0
 71
     7
 72
     1
  3
The copying, distribution and utilistion of this document as well as the communication\Pof the contents to others without expressed authorization is prohibited according to\P\U+00a718 UWG German Law. Offenders will be held liable for the payment of 
  1
damages\Paccording to (\U+00a719 UWG German Law). All rights reserved, in particular the right to\Pcarry out patent, utility model or ornamental design registrations.\PFlachsmarktstra\U+00dfe 8  D-32825 Blomberg
  7
CONVERTER_11
 73
     1
 44
0.99639855942377
  0
MTEXT
  5
35E
330
6D
100
AcDbEntity
  8
1
 62
     7
100
AcDbMText
 10
-240.7499999999996
 20
5.1500001552441
 30
0.0
 40
3.5
 41
0.0
 71
     5
 72
     1
  1
1
  7
CONVERTER_11
 73
     1
 44
1.20048019207683
  0
MTEXT
  5
35F
330
6D
100
AcDbEntity
  8
1
 62
     7
100
AcDbMText
 10
-191.4999999999999
 20
5.1500001552441
 30
0.0
 40
3.5
 41
0.0
 71
     5
 72
     1
  1
2
  7
CONVERTER_11
 73
     1
 44
1.20048019207683
  0
MTEXT
  5
360
330
6D
100
AcDbEntity
  8
1
 62
     7
100
AcDbMText
 10
-141.4999999999999
 20
5.1500001552441
 30
0.0
 40
3.5
 41
0.0
 71
     5
 72
     1
  1
3
  7
CONVERTER_11
 73
     1
 44
1.20048019207683
  0
MTEXT
  5
361
330
6D
100
AcDbEntity
  8
1
 62
     7
100
AcDbMText
 10
-91.5
 20
5.1500001552441
 30
0.0
 40
3.5
 41
0.0
 71
     5
 72
     1
  1
4
  7
CONVERTER_11
 73
     1
 44
1.20048019207683
  0
MTEXT
  5
362
330
6D
100
AcDbEntity
  8
1
 62
     7
100
AcDbMText
 10
-41.49999999999995
 20
5.1500001552441
 30
0.0
 40
3.5
 41
0.0
 71
     5
 72
     1
  1
5
  7
CONVERTER_11
 73
     1
 44
1.20048019207683
  0
MTEXT
  5
363
330
6D
100
AcDbEntity
  8
1
 62
     7
100
AcDbMText
 10
7.74999999999933
 20
5.1500001552441
 30
0.0
 40
3.5
 41
0.0
 71
     5
 72
     1
  1
6
  7
CONVERTER_11
 73
     1
 44
1.20048019207683
  0
MTEXT
  5
364
330
6D
100
AcDbEntity
  8
1
 62
     7
100
AcDbMText
 10
-262.499999999999
 20
185.1500001552441
 30
0.0
 40
3.5
 41
0.0
 71
     5
 72
     1
  1
A
  7
CONVERTER_11
 73
     1
 44
1.20048019207683
  0
MTEXT
  5
365
330
6D
100
AcDbEntity
  8
1
 62
     7
100
AcDbMText
 10
-262.499999999999
 20
132.6500001552441
 30
0.0
 40
3.5
 41
0.0
 71
     5
 72
     1
  1
B
  7
CONVERTER_11
 73
     1
 44
1.20048019207683
  0
MTEXT
  5
366
330
6D
100
AcDbEntity
  8
1
 62
     7
100
AcDbMText
 10
-262.499999999999
 20
82.6500001552441
 30
0.0
 40
3.5
 41
0.0
 71
     5
 72
     1
  1
C
  7
CONVERTER_11
 73
     1
 44
1.20048019207683
  0
MTEXT
  5
367
330
6D
100
AcDbEntity
  8
1
 62
     7
100
AcDbMText
 10
-262.499999999999
 20
30.1500001552441
 30
0.0
 40
3.5
 41
0.0
 71
     5
 72
     1
  1
D
  7
CONVERTER_11
 73
     1
 44
1.20048019207683
  0
MTEXT
  5
368
330
6D
100
AcDbEntity
  8
1
 62
     2
100
AcDbMText
 10
10.41840828168084
 20
36.4000001552441
 30
0.0
 40
1.8
 41
0.0
 71
     1
 72
     1
  1
dim.var.
  7
CONVERTER_11
 73
     1
 44
1.20048019207683
  0
MTEXT
  5
36A
330
6D
100
AcDbEntity
  8
1
 62
     2
100
AcDbMText
 10
-35.49999999999758
 20
23.6500001552441
 30
0.0
 40
1.8
 41
0.0
 71
     1
 72
     1
  1
document-No.
  7
CONVERTER_15
 73
     1
 44
1.32052821128451
  0
TEXT
  5
36B
330
6D
100
AcDbEntity
  8
1
 62
     2
100
AcDbText
 10
-83.34480452675
 20
8.89098294025254
 30
0.0
 40
1.8
  1
of
 41
0.9
  7
CONVERTER_11
100
AcDbText
  0
TEXT
  5
36C
330
6D
100
AcDbEntity
  8
1
 62
     2
100
AcDbText
 10
-101.5448045267499
 20
8.89098294025243
 30
0.0
 40
1.8
  1
page
 41
0.9
  7
CONVERTER_11
100
AcDbText
  0
MTEXT
  5
36D
330
6D
100
AcDbEntity
  8
1
 62
     2
100
AcDbMText
 10
-109.29480452675
 20
8.9000001552441
 30
0.0
 40
1.8
 41
0.0
 71
     8
 72
     1
  1
name
  7
CONVERTER_11
 73
     1
 44
1.32052821128451
  0
MTEXT
  5
36E
330
6D
100
AcDbEntity
  8
1
 62
     2
100
AcDbMText
 10
-122.7948045267499
 20
8.9000001552441
 30
0.0
 40
1.8
 41
0.0
 71
     8
 72
     1
  1
check.on
  7
CONVERTER_11
 73
     1
 44
1.32052821128451
  0
MTEXT
  5
36F
330
6D
100
AcDbEntity
  8
1
 62
     2
100
AcDbMText
 10
-136.2948045267499
 20
8.9000001552441
 30
0.0
 40
1.8
 41
0.0
 71
     8
 72
     1
  1
name
  7
CONVERTER_11
 73
     1
 44
1.32052821128451
  0
MTEXT
  5
370
330
6D
100
AcDbEntity
  8
1
 62
     2
100
AcDbMText
 10
-212.0500000000001
 20
8.9000001552441
 30
0.0
 40
1.8
 41
0.0
 71
     8
 72
     1
  1
date
  7
CONVERTER_11
 73
     1
 44
1.32052821128451
  0
MTEXT
  5
371
330
6D
100
AcDbEntity
  8
1
 62
     2
100
AcDbMText
 10
-42.01961536915847
 20
36.40000015524393
 30
0.0
 40
1.8
 41
0.0
 71
     1
 72
     1
  1
material
  7
CONVERTER_11
 73
     1
 44
1.20048019207683
  0
MTEXT
  5
372
330
6D
100
AcDbEntity
  8
1
 62
     2
100
AcDbMText
 10
-221.8999999999991
 20
8.9000001552441
 30
0.0
 40
1.8
 41
0.0
 71
     8
 72
     1
  1
RI
  7
CONVERTER_11
 73
     1
 44
1.32052821128451
  0
MTEXT
  5
373
330
6D
100
AcDbEntity
  8
1
 62
     2
100
AcDbMText
 10
-86.39480452675
 20
34.35000015524415
 30
0.0
 40
1.8
 41
0.0
 71
     8
 72
     1
  1
date
  7
CONVERTER_11
 73
     1
 44
1.32052821128451
  0
MTEXT
  5
374
330
6D
100
AcDbEntity
  8
1
 62
     2
100
AcDbMText
 10
-72.89480452675001
 20
34.35000015524415
 30
0.0
 40
1.8
 41
0.0
 71
     8
 72
     1
  1
name
  7
CONVERTER_11
 73
     1
 44
1.32052821128451
  0
MTEXT
  5
375
330
6D
100
AcDbEntity
  8
1
 62
     2
100
AcDbMText
 10
-174.172402263375
 20
8.9000001552441
 30
0.0
 40
1.8
 41
0.0
 71
     8
 72
     1
  1
revision
  7
CONVERTER_11
 73
     1
 44
1.32052821128451
  0
MTEXT
  5
376
330
6D
100
AcDbEntity
  8
1
 62
     2
100
AcDbMText
 10
1.30000000000193
 20
36.4000001552441
 30
0.0
 40
1.8
 41
0.0
 71
     1
 72
     1
  1
scale
  7
CONVERTER_11
 73
     1
 44
1.20048019207683
  0
MTEXT
  5
377
330
6D
100
AcDbEntity
  8
1
 62
     2
100
AcDbMText
 10
-97.8448045267499
 20
31.0250001552441
 30
0.0
 40
1.8
 41
0.0
 71
     5
 72
     1
  1
creat.
  7
CONVERTER_11
 73
     1
 44
1.20048019207683
  0
MTEXT
  5
378
330
6D
100
AcDbEntity
  8
1
 62
     2
100
AcDbMText
 10
-97.8448045267499
 20
26.7750001552441
 30
0.0
 40
1.8
 41
0.0
 71
     5
 72
     1
  1
check.
  7
CONVERTER_11
 73
     1
 44
1.20048019207683
  0
MTEXT
  5
379
330
6D
100
AcDbEntity
  8
1
 62
     3
100
AcDbMText
 10
-76.34480452675
 20
22.52500015524421
 30
0.0
 40
2.5
 41
0.0
 71
     5
 72
     1
  1
DIN A4
  7
CONVERTER_11
 73
     1
 44
1.20048019207683
  0
MTEXT
  5
37A
330
6D
100
AcDbEntity
  8
1
 62
     2
100
AcDbMText
 10
-65.04480452674996
 20
36.4000001552441
 30
0.0
 40
1.8
 41
0.0
 71
     1
 72
     1
  1
ident.-No. / RI
  7
CONVERTER_11
 73
     1
 44
1.20048019207683
  0
TEXT
  5
37B
330
6D
100
AcDbEntity
  8
1
 62
     2
100
AcDbText
 10
-92.8985395564078
 20
8.85075150144215
 30
0.0
 40
1.8
  1
 
 41
0.9
  7
CONVERTER_11
100
AcDbText
  0
TEXT
  5
37C
330
6D
100
AcDbEntity
  8
1
 62
     2
100
AcDbText
 10
-78.1094957169363
 20
8.9000001552441
 30
0.0
 40
1.8
  1
1
 41
0.9
  7
CONVERTER_11
100
AcDbText
  0
MTEXT
  5
37D
330
6D
100
AcDbEntity
  8
1
 62
     2
100
AcDbMText
 10
-65.14480452674997
 20
15.1500001552441
 30
0.0
 40
1.8
 41
0.0
 71
     1
 72
     1
  1
description
  7
CONVERTER_11
 73
     1
 44
1.20048019207683
  0
MTEXT
  5
37E
330
6D
100
AcDbEntity
  8
1
 62
     2
100
AcDbMText
 10
-97.8448045267499
 20
34.35000015524415
 30
0.0
 40
1.8
 41
0.0
 71
     8
 72
     1
  1
00
  7
CONVERTER_11
 73
     1
 44
1.20048019207683
  0
MTEXT
  5
37F
330
6D
100
AcDbEntity
  8
1
 62
     2
100
AcDbMText
 10
-65.14480452674997
 20
23.65000015524404
 30
0.0
 40
1.8
 41
0.0
 71
     1
 72
     1
  1
document-type
  7
CONVERTER_11
 73
     1
 44
1.20048019207683
  0
MTEXT
  5
380
330
6D
100
AcDbEntity
  8
1
 62
     2
100
AcDbMText
 10
-72.89480452675001
 20
26.7750001552441
 30
0.0
 40
1.8
 41
0.0
 71
     5
 72
     1
  1
pbam06
  7
CONVERTER_11
 73
     1
 44
1.32052821128451
  0
MTEXT
  5
381
330
6D
100
AcDbEntity
  8
1
 62
     2
100
AcDbMText
 10
-72.89480452675001
 20
31.0250001552441
 30
0.0
 40
1.8
 41
0.0
 71
     5
 72
     1
  1
pbfm09
  7
CONVERTER_11
 73
     1
 44
1.32052821128451
  0
MTEXT
  5
382
330
6D
100
AcDbEntity
  8
1
 62
     2
100
AcDbMText
 10
-86.39480452674995
 20
26.7750001552441
 30
0.0
 40
1.8
 41
0.0
 71
     5
 72
     1
  1
08.12.10
  7
CONVERTER_11
 73
     1
 44
1.32052821128451
  0
MTEXT
  5
383
330
6D
100
AcDbEntity
  8
1
 62
     2
100
AcDbMText
 10
-86.39480452674995
 20
31.0250001552441
 30
0.0
 40
1.8
 41
0.0
 71
     5
 72
     1
  1
01.06.05
  7
CONVERTER_11
 73
     1
 44
1.32052821128451
  0
TEXT
  5
384
330
6D
100
AcDbEntity
  8
1
 62
     7
100
AcDbText
 10
-50.17125680473616
 20
30.2000001552441
 30
0.0
 40
2.5
  1
/
 41
0.9
  7
CONVERTER_11
100
AcDbText
  0
TEXT
  5
386
330
6D
100
AcDbEntity
  8
1
 62
     3
100
AcDbText
 10
-16.99999999999796
 20
17.4500001552441
 30
0.0
 40
2.5
  1
 
 41
0.54
  7
CONVERTER_16
100
AcDbText
  0
MTEXT
  5
388
330
6D
100
AcDbEntity
  8
1
 62
     7
100
AcDbMText
 10
-19.57240226337446
 20
10.90000015524433
 30
0.0
 40
3.0
 41
0.0
 71
     5
 72
     1
  1
FBS  5-6
  7
CONVERTER_17
 73
     1
 44
1.20048019207683
  0
MTEXT
  5
389
330
6D
100
AcDbEntity
  8
1
 62
     3
100
AcDbMText
 10
4.65920414084145
 20
30.20000015524421
 30
0.0
 40
2.5
 41
0.0
 71
     8
 72
     1
  1
1:1
  7
CONVERTER_13
 73
     1
 44
1.32052821128451
  0
TEXT
  5
38A
330
6D
100
AcDbEntity
  8
1
 62
     3
100
AcDbText
 10
-42.24480452674995
 20
30.2000001552441
 30
0.0
 40
2.5
  1
-
 41
0.54
  7
CONVERTER_16
100
AcDbText
  0
TEXT
  5
38B
330
6D
100
AcDbEntity
  8
1
 62
     7
100
AcDbText
 10
-64.64480452675016
 20
30.2000001552441
 30
0.0
 40
2.5
  1
3030349
 41
0.81
  7
CONVERTER_17
100
AcDbText
  0
TEXT
  5
38C
330
6D
100
AcDbEntity
  8
1
 62
     7
100
AcDbText
 10
-35.49999999999758
 20
17.4500001552441
 30
0.0
 40
2.5
  1
00357339
 41
0.81
  7
CONVERTER_17
100
AcDbText
  0
TEXT
  5
38D
330
6D
100
AcDbEntity
  8
1
 62
     3
100
AcDbText
 10
10.11840828168094
 20
30.2000001552441
 30
0.0
 40
2.5
  1
 
 41
0.54
  7
CONVERTER_16
100
AcDbText
  0
TEXT
  5
38F
330
6D
100
AcDbEntity
  8
1
 62
     3
100
AcDbText
 10
-65.14480452674997
 20
17.4500001552441
 30
0.0
 40
2.5
  1
KUNDENZCHNG-SELECT
 41
0.45
  7
CONVERTER_18
100
AcDbText
  0
TEXT
  5
390
330
6D
100
AcDbEntity
  8
1
 62
     7
100
AcDbText
 10
-48.01489230769415
 20
30.2000001552441
 30
0.0
 40
2.5
  1
00
 41
0.81
  7
CONVERTER_17
100
AcDbText
  0
MTEXT
  5
391
330
6D
100
AcDbEntity
  8
1
 62
     3
100
AcDbMText
 10
-25.29298011338956
 20
28.0000001552441
 30
0.0
 40
2.0
 41
0.0
 71
     1
 72
     1
  1
 
  7
CONVERTER_13
 73
     1
 44
1.20048019207683
  0
HATCH
  5
392
330
6D
100
AcDbEntity
  8
1
  6
Continuous
 62
     2
100
AcDbHatch
 10
0.0
 20
0.0
 30
0.0
210
0.0
220
0.0
230
1.0
  2
CUSTOM0
 70
     0
 71
     1
 91
        1
 92
        1
 93
       12
 72
     1
 10
-74.2672535063424
 20
18.80000015523822
 11
-73.2672535063424
 21
18.80000015523822
 72
     1
 10
-73.2672535063424
 20
18.80000015523822
 11
-74.19582493491389
 21
17.65159026124374
 72
     1
 10
-74.19582493491389
 20
17.65159026124374
 11
-73.19922629545839
 21
16.41904777428422
 72
     1
 10
-73.19922629545839
 20
16.41904777428422
 11
-74.19922629545839
 21
16.41904777428422
 72
     1
 10
-74.19922629545839
 20
16.41904777428422
 11
-74.69582493491309
 21
17.03321570294085
 72
     1
 10
-74.69582493491309
 20
17.03321570294085
 11
-75.19242357436981
 21
16.41904777428422
 72
     1
 10
-75.19242357436981
 20
16.41904777428422
 11
-76.19242357436981
 21
16.41904777428422
 72
     1
 10
-76.19242357436981
 20
16.41904777428422
 11
-75.19582493491389
 21
17.65159026124374
 72
     1
 10
-75.19582493491389
 20
17.65159026124374
 11
-76.12439636348539
 21
18.80000015523822
 72
     1
 10
-76.12439636348539
 20
18.80000015523822
 11
-75.12439636348539
 21
18.80000015523822
 72
     1
 10
-75.12439636348539
 20
18.80000015523822
 11
-74.69582493491309
 21
18.2699648195468
 72
     1
 10
-74.69582493491309
 20
18.2699648195468
 11
-74.2672535063424
 21
18.80000015523822
 97
       12
330
226
330
225
330
224
330
223
330
222
330
221
330
220
330
21F
330
21E
330
21D
330
21C
330
21B
 75
     1
 76
     2
 52
0.02257274673786
 41
0.05
 77
     0
 78
     1
 53
0.02257274673786
 43
-1699.81996388569
 44
12438.36661982803
 45
-0.0500196945567958
 46
0.0499802976826355
 79
     0
 98
        1
 10
0.0
 20
0.0
  0
HATCH
  5
393
330
6D
100
AcDbEntity
  8
1
  6
Continuous
 62
     2
100
AcDbHatch
 10
0.0
 20
0.0
 30
0.0
210
0.0
220
0.0
230
1.0
  2
CUSTOM1
 70
     0
 71
     1
 91
        2
 92
        1
 93
        8
 72
     1
 10
-78.6782454584871
 20
15.88095253620415
 11
-77.79389171698989
 21
15.88095253620415
 72
     1
 10
-77.79389171698989
 20
15.88095253620415
 11
-76.79729307753449
 21
13.50000015525004
 72
     1
 10
-76.79729307753449
 20
13.50000015525004
 11
-77.68164681903087
 21
13.50000015525004
 72
     1
 10
-77.68164681903087
 20
13.50000015525004
 11
-77.83241063332859
 21
13.92176886273333
 72
     1
 10
-77.83241063332859
 20
13.92176886273333
 11
-78.63972654214881
 21
13.92176886273333
 72
     1
 10
-78.63972654214881
 20
13.92176886273333
 11
-78.790490356446
 21
13.50000015525004
 72
     1
 10
-78.790490356446
 20
13.50000015525004
 11
-79.67484409794298
 21
13.50000015525004
 72
     1
 10
-79.67484409794298
 20
13.50000015525004
 11
-78.6782454584871
 21
15.88095253620415
 97
        8
330
2A4
330
2A3
330
2A2
330
2A1
330
2A0
330
29F
330
29E
330
29D
 92
       16
 93
        3
 72
     1
 10
-78.45005593706351
 20
14.45238110763071
 11
-78.23606858773859
 21
15.05102056341471
 72
     1
 10
-78.23606858773859
 20
15.05102056341471
 11
-78.02208123841241
 21
14.45238110763071
 72
     1
 10
-78.02208123841241
 20
14.45238110763071
 11
-78.45005593706351
 21
14.45238110763071
 97
        3
330
29C
330
29B
330
29A
 75
     1
 76
     2
 52
0.02257274673786
 41
0.05
 77
     0
 78
     1
 53
0.02257274673786
 43
-1699.81996388569
 44
12438.36661982803
 45
-0.0500196945567958
 46
0.0499802976826355
 79
     0
 98
        1
 10
0.0
 20
0.0
  0
HATCH
  5
394
330
6D
100
AcDbEntity
  8
1
  6
Continuous
 62
     2
100
AcDbHatch
 10
0.0
 20
0.0
 30
0.0
210
0.0
220
0.0
230
1.0
  2
CUSTOM2
 70
     0
 71
     1
 91
        1
 92
        1
 93
        8
 72
     1
 10
-81.5714427373972
 20
15.88095253620415
 11
-81.5714427373972
 21
15.26870763824283
 72
     1
 10
-81.5714427373972
 20
15.26870763824283
 11
-80.9932114448812
 21
15.26870763824283
 72
     1
 10
-80.9932114448812
 20
15.26870763824283
 11
-80.9932114448812
 21
13.50000015525004
 72
     1
 10
-80.9932114448812
 20
13.50000015525004
 11
-80.1428713088261
 21
13.50000015525004
 72
     1
 10
-80.1428713088261
 20
13.50000015525004
 11
-80.1428713088261
 21
15.26870763824283
 72
     1
 10
-80.1428713088261
 20
15.26870763824283
 11
-79.56464001631008
 21
15.26870763824283
 72
     1
 10
-79.56464001631008
 20
15.26870763824283
 11
-79.56464001631008
 21
15.88095253620415
 72
     1
 10
-79.56464001631008
 20
15.88095253620415
 11
-81.5714427373972
 21
15.88095253620415
 97
        8
330
2AC
330
2AB
330
2AA
330
2A9
330
2A8
330
2A7
330
2A6
330
2A5
 75
     1
 76
     2
 52
0.02257274673786
 41
0.05
 77
     0
 78
     1
 53
0.02257274673786
 43
-1699.81996388569
 44
12438.36661982803
 45
-0.0500196945567958
 46
0.0499802976826355
 79
     0
 98
        1
 10
0.0
 20
0.0
  0
HATCH
  5
395
330
6D
100
AcDbEntity
  8
1
  6
Continuous
 62
     2
100
AcDbHatch
 10
0.0
 20
0.0
 30
0.0
210
0.0
220
0.0
230
1.0
  2
CUSTOM3
 70
     0
 71
     1
 91
        1
 92
        1
 93
       10
 72
     1
 10
-84.5585175673301
 20
15.88095253620415
 11
-84.5585175673301
 21
13.50000015525004
 72
     1
 10
-84.5585175673301
 20
13.50000015525004
 11
-83.70817743127438
 21
13.50000015525004
 72
     1
 10
-83.70817743127438
 20
13.50000015525004
 11
-83.70817743127438
 21
14.52040831851721
 72
     1
 10
-83.70817743127438
 20
14.52040831851721
 11
-82.8238236897788
 21
13.50000015525004
 72
     1
 10
-82.8238236897788
 20
13.50000015525004
 11
-81.97348355372472
 21
13.50000015525004
 72
     1
 10
-81.97348355372472
 20
13.50000015525004
 11
-81.97348355372472
 21
15.88095253620415
 72
     1
 10
-81.97348355372472
 20
15.88095253620415
 11
-82.8238236897788
 21
15.88095253620415
 72
     1
 10
-82.8238236897788
 20
15.88095253620415
 11
-82.8238236897788
 21
14.8605443729368
 72
     1
 10
-82.8238236897788
 20
14.8605443729368
 11
-83.70817743127438
 21
15.88095253620415
 72
     1
 10
-83.70817743127438
 20
15.88095253620415
 11
-84.5585175673301
 21
15.88095253620415
 97
       10
330
2B6
330
2B5
330
2B4
330
2B3
330
2B2
330
2B1
330
2B0
330
2AF
330
2AE
330
2AD
 75
     1
 76
     2
 52
0.02257274673786
 41
0.05
 77
     0
 78
     1
 53
0.02257274673786
 43
-1699.81996388569
 44
12438.36661982803
 45
-0.0500196945567958
 46
0.0499802976826355
 79
     0
 98
        1
 10
0.0
 20
0.0
  0
HATCH
  5
396
330
6D
100
AcDbEntity
  8
1
  6
Continuous
 62
     2
100
AcDbHatch
 10
0.0
 20
0.0
 30
0.0
210
0.0
220
0.0
230
1.0
  2
_USER
 70
     0
 71
     1
 91
        1
 92
        1
 93
        4
 72
     1
 10
-76.57745758797438
 20
18.80000015523822
 11
-76.57745758797438
 21
16.41904777428422
 72
     1
 10
-76.57745758797438
 20
16.41904777428422
 11
-77.4618113294718
 21
16.41904777428422
 72
     1
 10
-77.4618113294718
 20
16.41904777428422
 11
-77.4618113294718
 21
18.80000015523822
 72
     1
 10
-77.4618113294718
 20
18.80000015523822
 11
-76.57745758797438
 21
18.80000015523822
 97
        4
330
229
330
228
330
2B7
330
227
 75
     1
 76
     0
 52
0.0
 41
0.05
 77
     0
 78
     1
 53
0.0
 43
0.0
 44
0.0
 45
0.0
 46
0.05
 79
     0
 98
        1
 10
0.0
 20
0.0
  0
HATCH
  5
397
330
6D
100
AcDbEntity
  8
1
  6
Continuous
 62
     2
100
AcDbHatch
 10
0.0
 20
0.0
 30
0.0
210
0.0
220
0.0
230
1.0
  2
CUSTOM4
 70
     0
 71
     1
 91
        1
 92
        1
 93
       10
 72
     1
 10
-78.7822194927366
 20
18.80000015523822
 11
-78.7822194927366
 21
17.77959199197105
 72
     1
 10
-78.7822194927366
 20
17.77959199197105
 11
-79.66657323423388
 21
18.80000015523822
 72
     1
 10
-79.66657323423388
 20
18.80000015523822
 11
-80.5169133702875
 21
18.80000015523822
 72
     1
 10
-80.5169133702875
 20
18.80000015523822
 11
-80.5169133702875
 21
16.41904777428422
 72
     1
 10
-80.5169133702875
 20
16.41904777428422
 11
-79.66657323423388
 21
16.41904777428422
 72
     1
 10
-79.66657323423388
 20
16.41904777428422
 11
-79.66657323423388
 21
17.43945593755163
 72
     1
 10
-79.66657323423388
 20
17.43945593755163
 11
-78.7822194927366
 21
16.41904777428422
 72
     1
 10
-78.7822194927366
 20
16.41904777428422
 11
-77.93187935668301
 21
16.41904777428422
 72
     1
 10
-77.93187935668301
 20
16.41904777428422
 11
-77.93187935668301
 21
18.80000015523822
 72
     1
 10
-77.93187935668301
 20
18.80000015523822
 11
-78.7822194927366
 21
18.80000015523822
 97
       10
330
2C1
330
2C0
330
2BF
330
2BE
330
2BD
330
2BC
330
2BB
330
2BA
330
2B9
330
2B8
 75
     1
 76
     2
 52
0.02257274673786
 41
0.05
 77
     0
 78
     1
 53
0.02257274673786
 43
-1699.81996388569
 44
12438.36661982803
 45
-0.0500196945567958
 46
0.0499802976826355
 79
     0
 98
        1
 10
0.0
 20
0.0
  0
HATCH
  5
398
330
6D
100
AcDbEntity
  8
1
  6
Continuous
 62
     2
100
AcDbHatch
 10
0.0
 20
0.0
 30
0.0
210
0.0
220
0.0
230
1.0
  2
CUSTOM5
 70
     0
 71
     1
 91
        1
 92
        1
 93
       12
 72
     1
 10
-86.3209950029402
 20
18.80000015523822
 11
-86.3209950029402
 21
17.96666682190343
 72
     1
 10
-86.3209950029402
 20
17.96666682190343
 11
-85.5726956832127
 21
17.96666682190343
 72
     1
 10
-85.5726956832127
 20
17.96666682190343
 11
-85.5726956832127
 21
18.80000015523822
 72
     1
 10
-85.5726956832127
 20
18.80000015523822
 11
-84.7223555471578
 21
18.80000015523822
 72
     1
 10
-84.7223555471578
 20
18.80000015523822
 11
-84.7223555471578
 21
16.41904777428422
 72
     1
 10
-84.7223555471578
 20
16.41904777428422
 11
-85.5726956832127
 21
16.41904777428422
 72
     1
 10
-85.5726956832127
 20
16.41904777428422
 11
-85.5726956832127
 21
17.30340151578284
 72
     1
 10
-85.5726956832127
 20
17.30340151578284
 11
-86.3209950029402
 21
17.30340151578284
 72
     1
 10
-86.3209950029402
 20
17.30340151578284
 11
-86.3209950029402
 21
16.41904777428422
 72
     1
 10
-86.3209950029402
 20
16.41904777428422
 11
-87.1713351389946
 21
16.41904777428422
 72
     1
 10
-87.1713351389946
 20
16.41904777428422
 11
-87.1713351389946
 21
18.80000015523822
 72
     1
 10
-87.1713351389946
 20
18.80000015523822
 11
-86.3209950029402
 21
18.80000015523822
 97
       12
330
2CD
330
2CC
330
2CB
330
2CA
330
2C9
330
2C8
330
2C7
330
2C6
330
2C5
330
2C4
330
2C3
330
2C2
 75
     1
 76
     2
 52
0.02257274673786
 41
0.05
 77
     0
 78
     1
 53
0.02257274673786
 43
-1699.81996388569
 44
12438.36661982803
 45
-0.0500196945567958
 46
0.0499802976826355
 79
     0
 98
        1
 10
0.0
 20
0.0
  0
HATCH
  5
399
330
6D
100
AcDbEntity
  8
1
  6
Continuous
 62
     2
100
AcDbHatch
 10
0.0
 20
0.0
 30
0.0
210
0.0
220
0.0
230
1.0
  2
CUSTOM6
 70
     0
 71
     1
 91
        1
 92
        1
 93
        4
 72
     1
 10
-86.2530336968931
 20
15.88095253620415
 11
-86.1509928805658
 21
15.88095253620415
 72
     2
 10
-86.1509928805658
 20
14.69047634572704
 40
1.190476190477
 50
270.0
 51
450.0
 73
     0
 72
     1
 10
-86.1509928805658
 20
13.50000015525004
 11
-86.2530336968931
 21
13.50000015525004
 72
     2
 10
-86.2530336968931
 20
14.69047634572704
 40
1.19047619047711
 50
90.0
 51
270.0
 73
     0
 97
        4
330
272
330
312
330
271
330
311
 75
     1
 76
     2
 52
0.02257274673786
 41
0.05
 77
     0
 78
     1
 53
0.02257274673786
 43
-1699.81996388569
 44
12438.36661982803
 45
-0.0500196945567958
 46
0.0499802976826355
 79
     0
 98
        1
 10
0.0
 20
0.0
  0
HATCH
  5
39A
330
6D
100
AcDbEntity
  8
1
  6
Continuous
 62
     2
100
AcDbHatch
 10
0.0
 20
0.0
 30
0.0
210
0.0
220
0.0
230
1.0
  2
CUSTOM7
 70
     0
 71
     1
 91
        1
 92
        1
 93
       14
 72
     1
 10
-83.129882388258
 20
18.80000015523822
 11
-83.0278415719319
 21
18.80000015523822
 72
     1
 10
-83.0278415719319
 20
18.80000015523822
 11
-80.98698139749871
 21
18.80000015523822
 72
     1
 10
-80.98698139749871
 20
18.80000015523822
 11
-80.98698139749871
 21
18.25578246816363
 72
     1
 10
-80.98698139749871
 20
18.25578246816363
 11
-81.93936234988
 21
18.25578246816363
 72
     1
 10
-81.93936234988
 20
18.25578246816363
 11
-81.93936234988
 21
17.88163280829863
 72
     1
 10
-81.93936234988
 20
17.88163280829863
 11
-80.98698139749871
 21
17.88163280829863
 72
     1
 10
-80.98698139749871
 20
17.88163280829863
 11
-80.98698139749871
 21
17.33741512122381
 72
     1
 10
-80.98698139749871
 20
17.33741512122381
 11
-81.93936234988
 21
17.33741512122381
 72
     1
 10
-81.93936234988
 20
17.33741512122381
 11
-81.93936234988
 21
16.96326546135893
 72
     1
 10
-81.93936234988
 20
16.96326546135893
 11
-80.98698139749871
 21
16.96326546135893
 72
     1
 10
-80.98698139749871
 20
16.96326546135893
 11
-80.98698139749871
 21
16.41904777428422
 72
     1
 10
-80.98698139749871
 20
16.41904777428422
 11
-83.0278415719319
 21
16.41904777428422
 72
     1
 10
-83.0278415719319
 20
16.41904777428422
 11
-83.129882388258
 21
16.41904777428422
 72
     2
 10
-83.129882388258
 20
17.60952396476134
 40
1.190476190476879
 50
90.0
 51
270.0
 73
     0
 97
       14
330
27F
330
27E
330
27D
330
27C
330
27B
330
27A
330
279
330
278
330
277
330
276
330
275
330
274
330
273
330
313
 75
     1
 76
     2
 52
0.02257274673786
 41
0.05
 77
     0
 78
     1
 53
0.02257274673786
 43
-1699.81996388569
 44
12438.36661982803
 45
-0.0500196945567958
 46
0.0499802976826355
 79
     0
 98
        1
 10
0.0
 20
0.0
  0
HATCH
  5
39B
330
6D
100
AcDbEntity
  8
1
  6
Continuous
 62
     2
100
AcDbHatch
 10
0.0
 20
0.0
 30
0.0
210
0.0
220
0.0
230
1.0
  2
CUSTOM8
 70
     0
 71
     1
 91
        2
 92
        1
 93
        9
 72
     1
 10
-88.592455098267
 20
18.80000015523822
 11
-88.3087619037937
 21
18.80000015523822
 72
     2
 10
-88.4013333230151
 20
17.97716712753302
 40
0.8280239484092029
 50
276.4189726355862
 51
443.5810273644138
 73
     0
 72
     1
 10
-88.3087619037937
 20
17.15433409982782
 11
-88.4435538859566
 21
17.15433409982782
 72
     1
 10
-88.4435538859566
 20
17.15433409982782
 11
-88.865892962124
 21
17.15433409982782
 72
     1
 10
-88.865892962124
 20
17.15433409982782
 11
-88.865892962124
 21
16.41904777428422
 72
     1
 10
-88.865892962124
 20
16.41904777428422
 11
-89.0147941744334
 21
16.41904777428422
 72
     1
 10
-89.0147941744334
 20
16.41904777428422
 11
-89.7502467036198
 21
16.41904777428422
 72
     1
 10
-89.7502467036198
 20
16.41904777428422
 11
-89.7502467036198
 21
18.80000015523822
 72
     1
 10
-89.7502467036198
 20
18.80000015523822
 11
-88.592455098267
 21
18.80000015523822
 97
        9
330
299
330
318
330
298
330
297
330
296
330
295
330
294
330
293
330
292
 92
       16
 93
        6
 72
     1
 10
-88.6634871473281
 20
18.28299887234161
 11
-88.7186699195376
 21
18.28299887234161
 72
     1
 10
-88.7186699195376
 20
18.28299887234161
 11
-88.865892962124
 21
18.28299887234161
 72
     1
 10
-88.865892962124
 20
18.28299887234161
 11
-88.865892962124
 21
17.73276680517952
 72
     1
 10
-88.865892962124
 20
17.73276680517952
 11
-88.7186699195376
 21
17.73276680517952
 72
     1
 10
-88.7186699195376
 20
17.73276680517952
 11
-88.6634871473281
 21
17.73276680517952
 72
     2
 10
-88.6634871473281
 20
18.00788283876065
 40
0.2751160335811313
 50
270.0
 51
450.0
 73
     1
 97
        6
330
291
330
290
330
28F
330
28E
330
28D
330
317
 75
     1
 76
     2
 52
0.02257274673786
 41
0.05
 77
     0
 78
     1
 53
0.02257274673786
 43
-1699.81996388569
 44
12438.36661982803
 45
-0.0500196945567958
 46
0.0499802976826355
 79
     0
 98
        1
 10
0.0
 20
0.0
  0
HATCH
  5
39C
330
6D
100
AcDbEntity
  8
1
  6
Continuous
 62
     2
100
AcDbHatch
 10
0.0
 20
0.0
 30
0.0
210
0.0
220
0.0
230
1.0
  2
CUSTOM9
 70
     0
 71
     1
 91
        4
 92
        1
 93
        8
 72
     2
 10
-95.1570494247079
 20
18.46666682190525
 40
0.3333333333329698
 50
90.0
 51
180.0
 73
     1
 72
     1
 10
-95.4903827580415
 20
18.46666682190525
 11
-95.4903827580415
 21
13.83333348858301
 72
     2
 10
-95.1570494247079
 20
13.83333348858301
 40
0.3333333333335986
 50
180.0
 51
270.0
 73
     1
 72
     1
 10
-95.1570494247079
 20
13.50000015525004
 11
-90.6237160913746
 21
13.50000015525004
 72
     2
 10
-90.6237160913746
 20
13.83333348858301
 40
0.3333333333329698
 50
270.0
 51
360.0
 73
     1
 72
     1
 10
-90.2903827580419
 20
13.83333348858301
 11
-90.2903827580419
 21
18.46666682190525
 72
     2
 10
-90.6237160913746
 20
18.46666682190525
 40
0.3333333333327033
 50
0.0
 51
90.0
 73
     1
 72
     1
 10
-90.6237160913746
 20
18.80000015523822
 11
-95.1570494247079
 21
18.80000015523822
 97
        8
330
329
330
28C
330
328
330
28B
330
327
330
28A
330
326
330
289
 92
       16
 93
       10
 72
     1
 10
-92.7792716469301
 20
15.05370385894375
 11
-92.7792716469301
 21
15.54769867190791
 72
     2
 10
-92.5144568321159
 20
15.54769867190791
 40
0.2648148148214952
 50
180.0
 51
244.2807204985013
 73
     0
 72
     2
 10
-92.9829753506336
 20
16.52037052561363
 40
0.8148148148132878
 50
295.719279502167
 51
424.2807204979753
 73
     1
 72
     2
 10
-92.5144568321159
 20
17.49304237931952
 40
0.2648148148142013
 50
115.7192795019203
 51
180.0
 73
     0
 72
     1
 10
-92.7792716469301
 20
17.49304237931952
 11
-92.7792716469301
 21
17.98703719229272
 72
     2
 10
-92.5144568321159
 20
17.98703719229272
 40
0.2648148148090783
 50
180.0
 51
270.0
 73
     0
 72
     1
 10
-92.5144568321159
 20
18.2518520071018
 11
-92.4737160913755
 21
18.2518520071018
 72
     2
 10
-92.4737160913755
 20
16.52037052561363
 40
1.731481481474418
 50
270.0
 51
450.0
 73
     0
 72
     1
 10
-92.4737160913755
 20
14.78888904413921
 11
-92.5144568321159
 21
14.78888904413921
 72
     2
 10
-92.5144568321159
 20
15.05370385894375
 40
0.2648148148142013
 50
90.0
 51
180.0
 73
     0
 97
       10
330
283
330
31F
330
315
330
31E
330
282
330
31D
330
281
330
314
330
280
330
31C
 92
       16
 93
       12
 72
     1
 10
-94.755197572857
 20
18.2518520071018
 11
-93.4514938691526
 21
18.2518520071018
 72
     2
 10
-93.4514938691526
 20
17.98703719229272
 40
0.2648148148150966
 50
270.0
 51
360.0000000019931
 73
     0
 72
     1
 10
-93.1866790543375
 20
17.98703719228351
 11
-93.1866790543375
 21
17.49304237931952
 72
     2
 10
-93.4514938691526
 20
17.49304237931952
 40
0.2648148148217111
 50
0.0
 51
64.28072049840434
 73
     0
 72
     2
 10
-92.9829753506336
 20
16.52037052561363
 40
0.8148148148137929
 50
115.7192795022131
 51
244.2807204978133
 73
     1
 72
     2
 10
-93.4514938691526
 20
15.54769867190791
 40
0.2648148148150966
 50
295.7192795016926
 51
359.9999999980699
 73
     0
 72
     1
 10
-93.1866790543375
 20
15.54769867191683
 11
-93.1866790543375
 21
14.23888904413181
 72
     2
 10
-93.4514938691526
 20
14.23888904413181
 40
0.2648148148045895
 50
0.0
 51
90.0
 73
     0
 72
     1
 10
-93.4514938691526
 20
13.97407422932722
 11
-94.755197572857
 21
13.97407422932722
 72
     2
 10
-94.755197572857
 20
14.23888904413181
 40
0.2648148148140024
 50
90.0
 51
180.0
 73
     0
 72
     1
 10
-95.020012387671
 20
14.23888904413181
 11
-95.020012387671
 21
17.98703719229272
 72
     2
 10
-94.755197572857
 20
17.98703719229272
 40
0.2648148148090783
 50
180.0
 51
270.0
 73
     0
 97
       12
330
288
330
325
330
287
330
324
330
316
330
323
330
286
330
322
330
285
330
321
330
284
330
320
 92
       16
 93
        1
 72
     2
 10
-92.9829753506336
 20
16.52037052561363
 40
0.4074074074073053
 50
0.0
 51
360.0
 73
     1
 97
        1
330
319
 75
     1
 76
     2
 52
0.0
 41
0.05
 77
     0
 78
     1
 53
0.0
 43
-1699.81996388569
 44
12438.36661982803
 45
-0.05
 46
0.05
 79
     0
 98
        1
 10
0.0
 20
0.0
  0
ENDBLK
  5
6F
330
6D
100
AcDbEntity
  8
0
100
AcDbBlockEnd
  0
BLOCK
  5
71
330
70
100
AcDbEntity
  8
0
100
AcDbBlockBegin
  2
_punkt
 70
     0
 10
27.00000000000004
 20
7.65000015524421
 30
0.0
  3
_punkt
  1

  0
LINE
  5
39F
330
70
100
AcDbEntity
  8
1
  6
Continuous
 62
     2
100
AcDbLine
 10
27.00000000000004
 20
7.65000015524421
 30
0.0
 11
27.00000000000004
 21
2.6500001552441
 31
0.0
  0
LINE
  5
3A0
330
70
100
AcDbEntity
  8
1
  6
Continuous
 62
     2
100
AcDbLine
 10
27.00000000000004
 20
7.65000015524421
 30
0.0
 11
31.99999999999905
 21
7.65000015524421
 31
0.0
  0
ENDBLK
  5
72
330
70
100
AcDbEntity
  8
0
100
AcDbBlockEnd
  0
BLOCK
  5
76
330
73
100
AcDbEntity
  8
0
100
AcDbBlockBegin
  2
A4I
 70
     0
 10
27.00000000000004
 20
2.6500001552441
 30
0.0
  3
A4I
  1

  0
INSERT
  5
74
330
73
100
AcDbEntity
  8
1
100
AcDbBlockReference
  2
_rahmen
 10
27.00000000000004
 20
2.6500001552441
 30
0.0
  0
INSERT
  5
75
330
73
100
AcDbEntity
  8
1
100
AcDbBlockReference
  2
_punkt
 10
27.00000000000004
 20
7.65000015524421
 30
0.0
  0
ENDBLK
  5
77
330
73
100
AcDbEntity
  8
0
100
AcDbBlockEnd
  0
BLOCK
  5
FA
330
F1
100
AcDbEntity
  8
0
100
AcDbBlockBegin
  2
*D16
 70
     1
 10
0.0
 20
0.0
 30
0.0
  3
*D16
  1

  0
LINE
  5
F2
330
F1
100
AcDbEntity
  8
1
  6
Continuous
 62
     2
100
AcDbLine
 10
-115.7999999999902
 20
127.222968842011
 30
0.0
 11
-122.7999999999902
 21
127.222968842011
 31
0.0
  0
LINE
  5
F3
330
F1
100
AcDbEntity
  8
1
  6
Continuous
 62
     2
100
AcDbLine
 10
-114.1999999999902
 20
127.222968842011
 30
0.0
 11
-115.7999999999902
 21
127.222968842011
 31
0.0
  0
LINE
  5
F4
330
F1
100
AcDbEntity
  8
1
  6
Continuous
 62
     2
100
AcDbLine
 10
-103.669542322636
 20
127.222968842011
 30
0.0
 11
-114.1999999999902
 21
127.222968842011
 31
0.0
  0
LINE
  5
F5
330
F1
100
AcDbEntity
  8
1
  6
Continuous
 62
     2
100
AcDbLine
 10
-115.7999999999902
 20
137.650000194086
 30
0.0
 11
-115.7999999999902
 21
125.222968842011
 31
0.0
  0
LINE
  5
F6
330
F1
100
AcDbEntity
  8
1
  6
Continuous
 62
     2
100
AcDbLine
 10
-114.1999999999902
 20
137.650000194086
 30
0.0
 11
-114.1999999999902
 21
125.222968842011
 31
0.0
  0
SOLID
  5
F7
330
F1
100
AcDbEntity
  8
1
 62
     2
100
AcDbTrace
 10
-110.6999999999902
 20
127.6837525835669
 30
0.0
 11
-110.6999999999902
 21
126.7621851004551
 31
0.0
 12
-114.1999999999902
 22
127.222968842011
 32
0.0
 13
-114.1999999999902
 23
127.222968842011
 33
0.0
  0
SOLID
  5
F8
330
F1
100
AcDbEntity
  8
1
 62
     2
100
AcDbTrace
 10
-119.2999999999902
 20
126.7621851004551
 30
0.0
 11
-119.2999999999902
 21
127.6837525835669
 31
0.0
 12
-115.7999999999902
 22
127.222968842011
 32
0.0
 13
-115.7999999999902
 23
127.222968842011
 33
0.0
  0
MTEXT
  5
F9
330
F1
100
AcDbEntity
  8
1
 62
     3
100
AcDbMText
 10
-109.094542322636
 20
129.572968842011
 30
0.0
 40
3.5
 41
0.0
 71
     7
 72
     1
  1
1,6
  7
CONVERTER_11
 11
0.9999999999970619
 21
2.424068405545306E-6
 31
0.0
 73
     1
 44
0.60024009603842
  0
ENDBLK
  5
FB
330
F1
100
AcDbEntity
  8
0
100
AcDbBlockEnd
  0
BLOCK
  5
107
330
FE
100
AcDbEntity
  8
0
100
AcDbBlockBegin
  2
*D17
 70
     1
 10
0.0
 20
0.0
 30
0.0
  3
*D17
  1

  0
LINE
  5
FF
330
FE
100
AcDbEntity
  8
1
  6
Continuous
 62
     2
100
AcDbLine
 10
-116.5
 20
170.5000001941149
 30
0.0
 11
-123.5
 21
170.5000001941149
 31
0.0
  0
LINE
  5
100
330
FE
100
AcDbEntity
  8
1
  6
Continuous
 62
     2
100
AcDbLine
 10
-113.5
 20
170.5000001941149
 30
0.0
 11
-116.5
 21
170.5000001941149
 31
0.0
  0
LINE
  5
101
330
FE
100
AcDbEntity
  8
1
  6
Continuous
 62
     2
100
AcDbLine
 10
-106.5
 20
170.5000001941149
 30
0.0
 11
-113.5
 21
170.5000001941149
 31
0.0
  0
LINE
  5
102
330
FE
100
AcDbEntity
  8
1
  6
Continuous
 62
     2
100
AcDbLine
 10
-116.5
 20
146.725000194115
 30
0.0
 11
-116.5
 21
172.5000001941149
 31
0.0
  0
LINE
  5
103
330
FE
100
AcDbEntity
  8
1
  6
Continuous
 62
     2
100
AcDbLine
 10
-113.5
 20
146.725000194115
 30
0.0
 11
-113.5
 21
172.5000001941149
 31
0.0
  0
SOLID
  5
104
330
FE
100
AcDbEntity
  8
1
 62
     2
100
AcDbTrace
 10
-110.0
 20
170.9607839356708
 30
0.0
 11
-110.0
 21
170.039216452559
 31
0.0
 12
-113.5
 22
170.5000001941149
 32
0.0
 13
-113.5
 23
170.5000001941149
 33
0.0
  0
SOLID
  5
105
330
FE
100
AcDbEntity
  8
1
 62
     2
100
AcDbTrace
 10
-120.0
 20
170.039216452559
 30
0.0
 11
-120.0
 21
170.9607839356708
 31
0.0
 12
-116.5
 22
170.5000001941149
 32
0.0
 13
-116.5
 23
170.5000001941149
 33
0.0
  0
MTEXT
  5
106
330
FE
100
AcDbEntity
  8
1
 62
     3
100
AcDbMText
 10
-109.076922486789
 20
172.5000001941149
 30
0.0
 40
3.5
 41
0.0
 71
     7
 72
     1
  1
3
  7
CONVERTER_11
 11
0.9999999999970619
 21
2.424068405545306E-6
 31
0.0
 73
     1
 44
0.60024009603842
  0
ENDBLK
  5
108
330
FE
100
AcDbEntity
  8
0
100
AcDbBlockEnd
  0
BLOCK
  5
156
330
14F
100
AcDbEntity
  8
0
100
AcDbBlockBegin
  2
*D18
 70
     1
 10
0.0
 20
0.0
 30
0.0
  3
*D18
  1

  0
LINE
  5
150
330
14F
100
AcDbEntity
  8
1
  6
Continuous
 62
     2
100
AcDbLine
 10
-198.0727609551211
 20
160.3250001941149
 30
0.0
 11
-198.0727609551211
 21
137.6500001940931
 31
0.0
  0
LINE
  5
151
330
14F
100
AcDbEntity
  8
1
  6
Continuous
 62
     2
100
AcDbLine
 10
-178.1999999401159
 20
160.3250001941149
 30
0.0
 11
-200.0727609551211
 21
160.3250001941149
 31
0.0
  0
LINE
  5
152
330
14F
100
AcDbEntity
  8
1
  6
Continuous
 62
     2
100
AcDbLine
 10
-175.065188991102
 20
137.6500001940931
 30
0.0
 11
-200.0727609551211
 21
137.6500001940931
 31
0.0
  0
SOLID
  5
153
330
14F
100
AcDbEntity
  8
1
 62
     2
100
AcDbTrace
 10
-197.6119772135652
 20
156.8250001941149
 30
0.0
 11
-198.533544696677
 21
156.8250001941149
 31
0.0
 12
-198.0727609551211
 22
160.3250001941149
 32
0.0
 13
-198.0727609551211
 23
160.3250001941149
 33
0.0
  0
SOLID
  5
154
330
14F
100
AcDbEntity
  8
1
 62
     2
100
AcDbTrace
 10
-198.533544696677
 20
141.1500001940931
 30
0.0
 11
-197.6119772135652
 21
141.1500001940931
 31
0.0
 12
-198.0727609551211
 22
137.6500001940931
 32
0.0
 13
-198.0727609551211
 23
137.6500001940931
 33
0.0
  0
MTEXT
  5
155
330
14F
100
AcDbEntity
  8
1
 62
     3
100
AcDbMText
 10
-200.0727609551211
 20
146.515405194053
 30
0.0
 40
3.5
 41
0.0
 71
     7
 72
     1
  1
23
  7
CONVERTER_11
 11
0.0
 21
1.0
 31
0.0
 73
     1
 44
0.60024009603842
  0
ENDBLK
  5
157
330
14F
100
AcDbEntity
  8
0
100
AcDbBlockEnd
  0
BLOCK
  5
161
330
15A
100
AcDbEntity
  8
0
100
AcDbBlockBegin
  2
*D19
 70
     1
 10
0.0
 20
0.0
 30
0.0
  3
*D19
  1

  0
LINE
  5
15B
330
15A
100
AcDbEntity
  8
1
  6
Continuous
 62
     2
100
AcDbLine
 10
-188.1999999401159
 20
146.7250001941149
 30
0.0
 11
-188.1999999401159
 21
160.3250001941149
 31
0.0
  0
LINE
  5
15C
330
15A
100
AcDbEntity
  8
1
  6
Continuous
 62
     2
100
AcDbLine
 10
-178.1999999401159
 20
160.3250001941149
 30
0.0
 11
-190.1999999401159
 21
160.3250001941149
 31
0.0
  0
LINE
  5
15D
330
15A
100
AcDbEntity
  8
1
  6
Continuous
 62
     2
100
AcDbLine
 10
-174.6999999401153
 20
146.7250001941149
 30
0.0
 11
-190.1999999401159
 21
146.7250001941149
 31
0.0
  0
SOLID
  5
15E
330
15A
100
AcDbEntity
  8
1
 62
     2
100
AcDbTrace
 10
-188.6607836816718
 20
150.2250001941149
 30
0.0
 11
-187.73921619856
 21
150.2250001941149
 31
0.0
 12
-188.1999999401159
 22
146.7250001941149
 32
0.0
 13
-188.1999999401159
 23
146.7250001941149
 33
0.0
  0
SOLID
  5
15F
330
15A
100
AcDbEntity
  8
1
 62
     2
100
AcDbTrace
 10
-187.73921619856
 20
156.8250001941149
 30
0.0
 11
-188.6607836816718
 21
156.8250001941149
 31
0.0
 12
-188.1999999401159
 22
160.3250001941149
 32
0.0
 13
-188.1999999401159
 23
160.3250001941149
 33
0.0
  0
MTEXT
  5
160
330
15A
100
AcDbEntity
  8
1
 62
     3
100
AcDbMText
 10
-190.5499999401159
 20
148.807963830656
 30
0.0
 40
3.5
 41
0.0
 71
     7
 72
     1
  1
13,6
  7
CONVERTER_11
 11
0.0
 21
1.0
 31
0.0
 73
     1
 44
0.60024009603842
  0
ENDBLK
  5
162
330
15A
100
AcDbEntity
  8
0
100
AcDbBlockEnd
  0
BLOCK
  5
16C
330
165
100
AcDbEntity
  8
0
100
AcDbBlockBegin
  2
*D20
 70
     1
 10
0.0
 20
0.0
 30
0.0
  3
*D20
  1

  0
LINE
  5
166
330
165
100
AcDbEntity
  8
1
  6
Continuous
 62
     2
100
AcDbLine
 10
-148.8999999401159
 20
170.3250001941149
 30
0.0
 11
-178.1999999401159
 21
170.3250001941149
 31
0.0
  0
LINE
  5
167
330
165
100
AcDbEntity
  8
1
  6
Continuous
 62
     2
100
AcDbLine
 10
-178.1999999401159
 20
160.3250001941149
 30
0.0
 11
-178.1999999401159
 21
172.3250001941149
 31
0.0
  0
LINE
  5
168
330
165
100
AcDbEntity
  8
1
  6
Continuous
 62
     2
100
AcDbLine
 10
-148.8999999401159
 20
160.3250001941149
 30
0.0
 11
-148.8999999401159
 21
172.3250001941149
 31
0.0
  0
SOLID
  5
169
330
165
100
AcDbEntity
  8
1
 62
     2
100
AcDbTrace
 10
-152.3999999401159
 20
169.864216452559
 30
0.0
 11
-152.3999999401159
 21
170.7857839356708
 31
0.0
 12
-148.8999999401159
 22
170.3250001941149
 32
0.0
 13
-148.8999999401159
 23
170.3250001941149
 33
0.0
  0
SOLID
  5
16A
330
165
100
AcDbEntity
  8
1
 62
     2
100
AcDbTrace
 10
-174.6999999401159
 20
170.7857839356708
 30
0.0
 11
-174.6999999401159
 21
169.864216452559
 31
0.0
 12
-178.1999999401159
 22
170.3250001941149
 32
0.0
 13
-178.1999999401159
 23
170.3250001941149
 33
0.0
  0
MTEXT
  5
16B
330
165
100
AcDbEntity
  8
1
 62
     3
100
AcDbMText
 10
-168.3624999401159
 20
172.6750001941149
 30
0.0
 40
3.5
 41
0.0
 71
     7
 72
     1
  1
29,3
  7
CONVERTER_11
 11
0.9999999999970619
 21
2.424068405545306E-6
 31
0.0
 73
     1
 44
0.60024009603842
  0
ENDBLK
  5
16D
330
165
100
AcDbEntity
  8
0
100
AcDbBlockEnd
  0
ENDSEC
  0
SECTION
  2
ENTITIES
  0
INSERT
  5
78
330
1F
100
AcDbEntity
  8
0
100
AcDbBlockReference
  2
AllgSicht1
 10
-37.00000000000003
 20
85.00000000005002
 30
0.0
  0
INSERT
  5
79
330
1F
100
AcDbEntity
  8
0
100
AcDbBlockReference
  2
Drfsicht1
 10
-115.0
 20
92.99999999999999
 30
0.0
  0
INSERT
  5
7A
330
1F
100
AcDbEntity
  8
0
100
AcDbBlockReference
  2
Vordans1
 10
-115.0
 20
148.987500190795
 30
0.0
  0
INSERT
  5
7B
330
1F
100
AcDbEntity
  8
0
100
AcDbBlockReference
  2
SA_Rechts1
 10
-163.55000009536
 20
148.9875001907949
 30
0.0
  0
INSERT
  5
7C
330
1F
100
AcDbEntity
  8
0
100
AcDbBlockReference
  2
SA_Links1
 10
-69.9297799476526
 20
148.9875001907949
 30
0.0
  0
INSERT
  5
7D
330
1F
100
AcDbEntity
  8
0
100
AcDbBlockReference
  2
Rckans1
 10
-25.66537029243555
 20
148.9875001907949
 30
0.0
  0
INSERT
  5
7E
330
1F
100
AcDbEntity
  8
0
100
AcDbBlockReference
  2
A4I
 10
27.00000000000004
 20
2.6500001552441
 30
0.0
  0
ENDSEC
  0
SECTION
  2
OBJECTS
  0
DICTIONARY
  5
C
330
0
100
AcDbDictionary
281
     1
  3
ACAD_GROUP
350
D
  3
ACAD_LAYOUT
350
1A
  3
ACAD_MLEADERSTYLE
350
3A2
  3
ACAD_MLINESTYLE
350
17
  3
ACAD_PLOTSETTINGS
350
19
  3
ACAD_PLOTSTYLENAME
350
E
  3
ACAD_TABLESTYLE
350
3A1
  3
ACAD_VISUALSTYLE
350
2A
  0
DICTIONARY
  5
D
102
{ACAD_REACTORS
330
C
102
}
330
C
100
AcDbDictionary
281
     1
  0
DICTIONARY
  5
1A
102
{ACAD_REACTORS
330
C
102
}
330
C
100
AcDbDictionary
281
     1
  3
Layout1
350
1E
  3
Layout2
350
26
  3
Model
350
22
  0
DICTIONARY
  5
3A2
102
{ACAD_REACTORS
330
C
102
}
330
C
100
AcDbDictionary
281
     1
  0
DICTIONARY
  5
17
102
{ACAD_REACTORS
330
C
102
}
330
C
100
AcDbDictionary
281
     1
  3
Standard
350
18
  0
DICTIONARY
  5
19
102
{ACAD_REACTORS
330
C
102
}
330
C
100
AcDbDictionary
281
     1
  0
ACDBDICTIONARYWDFLT
  5
E
102
{ACAD_REACTORS
330
C
102
}
330
C
100
AcDbDictionary
281
     1
  3
Normal
350
F
100
AcDbDictionaryWithDefault
340
F
  0
DICTIONARY
  5
3A1
102
{ACAD_REACTORS
330
C
102
}
330
C
100
AcDbDictionary
281
     1
  0
DICTIONARY
  5
2A
102
{ACAD_REACTORS
330
C
102
}
330
C
100
AcDbDictionary
281
     1
  3
2dWireframe
350
2F
  3
3D Hidden
350
31
  3
3dWireframe
350
30
  3
Basic
350
32
  3
Brighten
350
36
  3
ColorChange
350
3A
  3
Conceptual
350
34
  3
Dim
350
35
  3
Facepattern
350
39
  3
Flat
350
2B
  3
FlatWithEdges
350
2C
  3
Gouraud
350
2D
  3
GouraudWithEdges
350
2E
  3
Linepattern
350
38
  3
Realistic
350
33
  3
Thicken
350
37
  0
LAYOUT
  5
1E
102
{ACAD_REACTORS
330
1A
102
}
330
1A
100
AcDbPlotSettings
  1

  2
none_device
  4

  6

 40
0.0
 41
0.0
 42
0.0
 43
0.0
 44
0.0
 45
0.0
 46
0.0
 47
0.0
 48
0.0
 49
0.0
140
0.0
141
0.0
142
1.0
143
1.0
 70
   688
 72
     0
 73
     0
 74
     5
  7

 75
    16
147
1.0
148
0.0
149
0.0
100
AcDbLayout
  1
Layout1
 70
     1
 71
     1
 10
0.0
 20
0.0
 11
12.0
 21
9.0
 12
0.0
 22
0.0
 32
0.0
 14
1.00000000000000E+20
 24
1.00000000000000E+20
 34
1.00000000000000E+20
 15
-1.00000000000000E+20
 25
-1.00000000000000E+20
 35
-1.00000000000000E+20
146
0.0
 13
0.0
 23
0.0
 33
0.0
 16
1.0
 26
0.0
 36
0.0
 17
0.0
 27
1.0
 37
0.0
 76
     0
330
1B
  0
LAYOUT
  5
26
102
{ACAD_REACTORS
330
1A
102
}
330
1A
100
AcDbPlotSettings
  1

  2
none_device
  4

  6

 40
0.0
 41
0.0
 42
0.0
 43
0.0
 44
0.0
 45
0.0
 46
0.0
 47
0.0
 48
0.0
 49
0.0
140
0.0
141
0.0
142
1.0
143
1.0
 70
   688
 72
     0
 73
     0
 74
     5
  7

 75
    16
147
1.0
148
0.0
149
0.0
100
AcDbLayout
  1
Layout2
 70
     1
 71
     2
 10
0.0
 20
0.0
 11
0.0
 21
0.0
 12
0.0
 22
0.0
 32
0.0
 14
0.0
 24
0.0
 34
0.0
 15
0.0
 25
0.0
 35
0.0
146
0.0
 13
0.0
 23
0.0
 33
0.0
 16
1.0
 26
0.0
 36
0.0
 17
0.0
 27
1.0
 37
0.0
 76
     0
330
23
  0
LAYOUT
  5
22
102
{ACAD_REACTORS
330
1A
102
}
330
1A
100
AcDbPlotSettings
  1

  2
none_device
  4

  6

 40
0.0
 41
0.0
 42
0.0
 43
0.0
 44
0.0
 45
0.0
 46
0.0
 47
0.0
 48
0.0
 49
0.0
140
0.0
141
0.0
142
1.0
143
1.0
 70
  1712
 72
     0
 73
     0
 74
     0
  7

 75
     0
147
1.0
148
0.0
149
0.0
100
AcDbLayout
  1
Model
 70
     1
 71
     0
 10
0.0
 20
0.0
 11
12.0
 21
9.0
 12
0.0
 22
0.0
 32
0.0
 14
-264.999999999999
 24
2.6500001552441
 34
0.0
 15
31.99999999999905
 25
212.6500001552441
 35
0.0
146
0.0
 13
0.0
 23
0.0
 33
0.0
 16
1.0
 26
0.0
 36
0.0
 17
0.0
 27
1.0
 37
0.0
 76
     0
330
1F
331
29
  0
MLINESTYLE
  5
18
102
{ACAD_REACTORS
330
17
102
}
330
17
100
AcDbMlineStyle
  2
Standard
 70
     0
  3

 62
   256
 51
90.0
 52
90.0
 71
     2
 49
0.5
 62
   256
  6
BYLAYER
 49
-0.5
 62
   256
  6
BYLAYER
  0
ACDBPLACEHOLDER
  5
F
102
{ACAD_REACTORS
330
E
102
}
330
E
  0
VISUALSTYLE
  5
2F
102
{ACAD_REACTORS
330
2A
102
}
330
2A
100
AcDbVisualStyle
  2
2dWireframe
 70
     4
 71
     0
 72
     2
 73
     0
 90
        0
 40
-0.6
 41
-30.0
 62
     5
 63
     7
 74
     1
 91
        4
 64
     7
 65
   257
 75
     1
175
     1
 42
1.0
 92
        0
 66
   257
 43
1.0
 76
     1
 77
     6
 78
     2
 67
     7
 79
     5
170
     0
171
     0
290
     0
174
     0
 93
        1
 44
0.0
173
     0
291
     0
 45
0.0
1001
ACAD
1000
AcDbSavedByObjectVersion
1070
     0
  0
VISUALSTYLE
  5
31
102
{ACAD_REACTORS
330
2A
102
}
330
2A
100
AcDbVisualStyle
  2
3D Hidden
 70
     6
 71
     1
 72
     2
 73
     2
 90
        0
 40
-0.6
 41
-30.0
 62
     5
 63
     7
 74
     2
 91
        2
 64
     7
 65
   257
 75
     2
175
     1
 42
40.0
 92
        0
 66
   257
 43
1.0
 76
     1
 77
     6
 78
     2
 67
     7
 79
     3
170
     0
171
     0
290
     0
174
     0
 93
        1
 44
0.0
173
     0
291
     0
 45
0.0
1001
ACAD
1000
AcDbSavedByObjectVersion
1070
     0
  0
VISUALSTYLE
  5
30
102
{ACAD_REACTORS
330
2A
102
}
330
2A
100
AcDbVisualStyle
  2
3dWireframe
 70
     5
 71
     0
 72
     2
 73
     0
 90
        0
 40
-0.6
 41
-30.0
 62
     5
 63
     7
 74
     1
 91
        4
 64
     7
 65
   257
 75
     1
175
     1
 42
1.0
 92
        0
 66
   257
 43
1.0
 76
     1
 77
     6
 78
     2
 67
     7
 79
     5
170
     0
171
     0
290
     0
174
     0
 93
        1
 44
0.0
173
     0
291
     0
 45
0.0
1001
ACAD
1000
AcDbSavedByObjectVersion
1070
     0
  0
VISUALSTYLE
  5
32
102
{ACAD_REACTORS
330
2A
102
}
330
2A
100
AcDbVisualStyle
  2
Basic
 70
     7
 71
     1
 72
     0
 73
     1
 90
        0
 40
-0.6
 41
-30.0
 62
     5
 63
     7
 74
     0
 91
        4
 64
     7
 65
   257
 75
     1
175
     1
 42
1.0
 92
        8
 66
     7
 43
1.0
 76
     1
 77
     6
 78
     2
 67
     7
 79
     5
170
     0
171
     0
290
     0
174
     0
 93
        1
 44
0.0
173
     0
291
     1
 45
0.0
1001
ACAD
1000
AcDbSavedByObjectVersion
1070
     0
  0
VISUALSTYLE
  5
36
102
{ACAD_REACTORS
330
2A
102
}
330
2A
100
AcDbVisualStyle
  2
Brighten
 70
    12
 71
     2
 72
     2
 73
     0
 90
        0
 40
-0.6
 41
-30.0
 62
     5
 63
     7
 74
     1
 91
        4
 64
     7
 65
   257
 75
     1
175
     1
 42
1.0
 92
        8
 66
     7
 43
1.0
 76
     1
 77
     6
 78
     2
 67
     7
 79
     5
170
     0
171
     0
290
     0
174
     0
 93
        1
 44
50.0
173
     0
291
     1
 45
0.0
1001
ACAD
1000
AcDbSavedByObjectVersion
1070
     0
  0
VISUALSTYLE
  5
3A
102
{ACAD_REACTORS
330
2A
102
}
330
2A
100
AcDbVisualStyle
  2
ColorChange
 70
    16
 71
     2
 72
     2
 73
     3
 90
        0
 40
-0.6
 41
-30.0
 62
     5
 63
     8
 74
     1
 91
        4
 64
     7
 65
   257
 75
     1
175
     1
 42
1.0
 92
        8
 66
     8
 43
1.0
 76
     1
 77
     6
 78
     2
 67
     7
 79
     5
170
     0
171
     0
290
     0
174
     0
 93
        1
 44
0.0
173
     0
291
     1
 45
0.0
1001
ACAD
1000
AcDbSavedByObjectVersion
1070
     0
  0
VISUALSTYLE
  5
34
102
{ACAD_REACTORS
330
2A
102
}
330
2A
100
AcDbVisualStyle
  2
Conceptual
 70
     9
 71
     3
 72
     2
 73
     0
 90
        0
 40
-0.6
 41
-30.0
 62
     5
 63
     7
 74
     2
 91
        2
 64
     7
 65
   257
 75
     1
175
     1
 42
40.0
 92
        8
 66
     7
 43
1.0
 76
     1
 77
     6
 78
     2
 67
     7
 79
     3
170
     0
171
     0
290
     0
174
     0
 93
        1
 44
0.0
173
     0
291
     0
 45
0.0
1001
ACAD
1000
AcDbSavedByObjectVersion
1070
     0
  0
VISUALSTYLE
  5
35
102
{ACAD_REACTORS
330
2A
102
}
330
2A
100
AcDbVisualStyle
  2
Dim
 70
    11
 71
     2
 72
     2
 73
     0
 90
        0
 40
-0.6
 41
-30.0
 62
     5
 63
     7
 74
     1
 91
        4
 64
     7
 65
   257
 75
     1
175
     1
 42
1.0
 92
        8
 66
     7
 43
1.0
 76
     1
 77
     6
 78
     2
 67
     7
 79
     5
170
     0
171
     0
290
     0
174
     0
 93
        1
 44
-50.0
173
     0
291
     1
 45
0.0
1001
ACAD
1000
AcDbSavedByObjectVersion
1070
     0
  0
VISUALSTYLE
  5
39
102
{ACAD_REACTORS
330
2A
102
}
330
2A
100
AcDbVisualStyle
  2
Facepattern
 70
    15
 71
     2
 72
     2
 73
     0
 90
        0
 40
-0.6
 41
-30.0
 62
     5
 63
     7
 74
     1
 91
        4
 64
     7
 65
   257
 75
     1
175
     1
 42
1.0
 92
        8
 66
     7
 43
1.0
 76
     1
 77
     6
 78
     2
 67
     7
 79
     5
170
     0
171
     0
290
     0
174
     0
 93
        1
 44
0.0
173
     0
291
     1
 45
0.0
1001
ACAD
1000
AcDbSavedByObjectVersion
1070
     0
  0
VISUALSTYLE
  5
2B
102
{ACAD_REACTORS
330
2A
102
}
330
2A
100
AcDbVisualStyle
  2
Flat
 70
     0
 71
     2
 72
     1
 73
     1
 90
        2
 40
-0.6
 41
30.0
 62
     5
 63
     7
 74
     0
 91
        4
 64
     7
 65
   257
 75
     1
175
     1
 42
1.0
 92
        8
 66
     7
 43
1.0
 76
     1
 77
     6
 78
     2
 67
     7
 79
     5
170
     0
171
     0
290
     0
174
     0
 93
       13
 44
0.0
173
     0
291
     1
 45
0.0
1001
ACAD
1000
AcDbSavedByObjectVersion
1070
     0
  0
VISUALSTYLE
  5
2C
102
{ACAD_REACTORS
330
2A
102
}
330
2A
100
AcDbVisualStyle
  2
FlatWithEdges
 70
     1
 71
     2
 72
     1
 73
     1
 90
        2
 40
-0.6
 41
30.0
 62
     5
 63
     7
 74
     1
 91
        4
 64
     7
 65
   257
 75
     1
175
     1
 42
1.0
 92
        0
 66
   257
 43
1.0
 76
     1
 77
     6
 78
     2
 67
     7
 79
     5
170
     0
171
     0
290
     0
174
     0
 93
       13
 44
0.0
173
     0
291
     1
 45
0.0
1001
ACAD
1000
AcDbSavedByObjectVersion
1070
     0
  0
VISUALSTYLE
  5
2D
102
{ACAD_REACTORS
330
2A
102
}
330
2A
100
AcDbVisualStyle
  2
Gouraud
 70
     2
 71
     2
 72
     2
 73
     1
 90
        2
 40
-0.6
 41
30.0
 62
     5
 63
     7
 74
     0
 91
        4
 64
     7
 65
   257
 75
     1
175
     1
 42
1.0
 92
        0
 66
     7
 43
1.0
 76
     1
 77
     6
 78
     2
 67
     7
 79
     5
170
     0
171
     0
290
     0
174
     0
 93
       13
 44
0.0
173
     0
291
     1
 45
0.0
1001
ACAD
1000
AcDbSavedByObjectVersion
1070
     0
  0
VISUALSTYLE
  5
2E
102
{ACAD_REACTORS
330
2A
102
}
330
2A
100
AcDbVisualStyle
  2
GouraudWithEdges
 70
     3
 71
     2
 72
     2
 73
     1
 90
        2
 40
-0.6
 41
30.0
 62
     5
 63
     7
 74
     1
 91
        4
 64
     7
 65
   257
 75
     1
175
     1
 42
1.0
 92
        0
 66
   257
 43
1.0
 76
     1
 77
     6
 78
     2
 67
     7
 79
     5
170
     0
171
     0
290
     0
174
     0
 93
       13
 44
0.0
173
     0
291
     1
 45
0.0
1001
ACAD
1000
AcDbSavedByObjectVersion
1070
     0
  0
VISUALSTYLE
  5
38
102
{ACAD_REACTORS
330
2A
102
}
330
2A
100
AcDbVisualStyle
  2
Linepattern
 70
    14
 71
     2
 72
     2
 73
     0
 90
        0
 40
-0.6
 41
-30.0
 62
     5
 63
     7
 74
     1
 91
        4
 64
     7
 65
   257
 75
     7
175
     7
 42
1.0
 92
        8
 66
     7
 43
1.0
 76
     1
 77
     6
 78
     2
 67
     7
 79
     5
170
     0
171
     0
290
     0
174
     0
 93
        1
 44
0.0
173
     0
291
     1
 45
0.0
1001
ACAD
1000
AcDbSavedByObjectVersion
1070
     0
  0
VISUALSTYLE
  5
33
102
{ACAD_REACTORS
330
2A
102
}
330
2A
100
AcDbVisualStyle
  2
Realistic
 70
     8
 71
     2
 72
     2
 73
     0
 90
        0
 40
-0.6
 41
-30.0
 62
     5
 63
     7
 74
     1
 91
        0
 64
     7
 65
   257
 75
     1
175
     1
 42
1.0
 92
        8
 66
     8
 43
1.0
 76
     1
 77
     6
 78
     2
 67
     7
 79
     5
170
     0
171
     0
290
     0
174
     0
 93
       13
 44
0.0
173
     0
291
     0
 45
0.0
1001
ACAD
1000
AcDbSavedByObjectVersion
1070
     0
  0
VISUALSTYLE
  5
37
102
{ACAD_REACTORS
330
2A
102
}
330
2A
100
AcDbVisualStyle
  2
Thicken
 70
    13
 71
     2
 72
     2
 73
     0
 90
        0
 40
-0.6
 41
-30.0
 62
     5
 63
     7
 74
     1
 91
        4
 64
     7
 65
   257
 75
     1
175
     1
 42
1.0
 92
       12
 66
     7
 43
1.0
 76
     1
 77
     6
 78
     2
 67
     7
 79
     5
170
     0
171
     0
290
     0
174
     0
 93
        1
 44
0.0
173
     0
291
     1
 45
0.0
1001
ACAD
1000
AcDbSavedByObjectVersion
1070
     0
  0
ENDSEC
  0
EOF
