  0
SECTION
  2
HEADER
  9
$ACADVER
  1
AC1015
  9
$ACADMAINTVER
 70
     6
  9
$DWGCODEPAGE
  3
ANSI_1252
  9
$INSBASE
 10
0.0
 20
0.0
 30
0.0
  9
$EXTMIN
 10
-259.0355026503941
 20
7.95723463187099
 30
0.0
  9
$EXTMAX
 10
37.96449734960405
 20
217.957234631871
 30
0.0
  9
$LIMMIN
 10
0.0
 20
0.0
  9
$LIMMAX
 10
12.0
 20
9.0
  9
$ORTHOMODE
 70
     0
  9
$REGENMODE
 70
     1
  9
$FILLMODE
 70
     1
  9
$QTEXTMODE
 70
     0
  9
$MIRRTEXT
 70
     1
  9
$LTSCALE
 40
1.0
  9
$ATTMODE
 70
     1
  9
$TEXTSIZE
 40
0.2
  9
$TRACEWID
 40
0.05
  9
$TEXTSTYLE
  7
Standard
  9
$CLAYER
  8
0
  9
$CELTYPE
  6
ByLayer
  9
$CECOLOR
 62
   256
  9
$CELTSCALE
 40
1.0
  9
$DISPSILH
 70
     0
  9
$DIMSCALE
 40
1.0
  9
$DIMASZ
 40
0.18
  9
$DIMEXO
 40
0.0625
  9
$DIMDLI
 40
0.38
  9
$DIMRND
 40
0.0
  9
$DIMDLE
 40
0.0
  9
$DIMEXE
 40
0.18
  9
$DIMTP
 40
0.0
  9
$DIMTM
 40
0.0
  9
$DIMTXT
 40
0.18
  9
$DIMCEN
 40
0.09
  9
$DIMTSZ
 40
0.0
  9
$DIMTOL
 70
     0
  9
$DIMLIM
 70
     0
  9
$DIMTIH
 70
     1
  9
$DIMTOH
 70
     1
  9
$DIMSE1
 70
     0
  9
$DIMSE2
 70
     0
  9
$DIMTAD
 70
     0
  9
$DIMZIN
 70
     0
  9
$DIMBLK
  1

  9
$DIMASO
 70
     1
  9
$DIMSHO
 70
     1
  9
$DIMPOST
  1

  9
$DIMAPOST
  1

  9
$DIMALT
 70
     0
  9
$DIMALTD
 70
     2
  9
$DIMALTF
 40
25.4
  9
$DIMLFAC
 40
1.0
  9
$DIMTOFL
 70
     0
  9
$DIMTVP
 40
0.0
  9
$DIMTIX
 70
     0
  9
$DIMSOXD
 70
     0
  9
$DIMSAH
 70
     0
  9
$DIMBLK1
  1

  9
$DIMBLK2
  1

  9
$DIMSTYLE
  2
Standard
  9
$DIMCLRD
 70
     0
  9
$DIMCLRE
 70
     0
  9
$DIMCLRT
 70
     0
  9
$DIMTFAC
 40
1.0
  9
$DIMGAP
 40
0.09
  9
$DIMJUST
 70
     0
  9
$DIMSD1
 70
     0
  9
$DIMSD2
 70
     0
  9
$DIMTOLJ
 70
     1
  9
$DIMTZIN
 70
     0
  9
$DIMALTZ
 70
     0
  9
$DIMALTTZ
 70
     0
  9
$DIMUPT
 70
     0
  9
$DIMDEC
 70
     4
  9
$DIMTDEC
 70
     4
  9
$DIMALTU
 70
     2
  9
$DIMALTTD
 70
     2
  9
$DIMTXSTY
  7
Standard
  9
$DIMAUNIT
 70
     0
  9
$DIMADEC
 70
     0
  9
$DIMALTRND
 40
0.0
  9
$DIMAZIN
 70
     0
  9
$DIMDSEP
 70
    46
  9
$DIMATFIT
 70
     3
  9
$DIMFRAC
 70
     0
  9
$DIMLDRBLK
  1

  9
$DIMLUNIT
 70
     2
  9
$DIMLWD
 70
    -2
  9
$DIMLWE
 70
    -2
  9
$DIMTMOVE
 70
     0
  9
$LUNITS
 70
     2
  9
$LUPREC
 70
     4
  9
$SKETCHINC
 40
0.1
  9
$FILLETRAD
 40
0.5
  9
$AUNITS
 70
     0
  9
$AUPREC
 70
     0
  9
$MENU
  1
.
  9
$ELEVATION
 40
0.0
  9
$PELEVATION
 40
0.0
  9
$THICKNESS
 40
0.0
  9
$LIMCHECK
 70
     0
  9
$CHAMFERA
 40
0.5
  9
$CHAMFERB
 40
0.5
  9
$CHAMFERC
 40
1.0
  9
$CHAMFERD
 40
0.0
  9
$SKPOLY
 70
     0
  9
$TDCREATE
 40
2455539.579519398
  9
$TDUCREATE
 40
2455539.537852732
  9
$TDUPDATE
 40
2455539.57951941
  9
$TDUUPDATE
 40
2455539.537852743
  9
$TDINDWG
 40
0.0000000116
  9
$TDUSRTIMER
 40
0.0000000116
  9
$USRTIMER
 70
     1
  9
$ANGBASE
 50
0.0
  9
$ANGDIR
 70
     0
  9
$PDMODE
 70
     0
  9
$PDSIZE
 40
0.0
  9
$PLINEWID
 40
0.0
  9
$SPLFRAME
 70
     0
  9
$SPLINETYPE
 70
     6
  9
$SPLINESEGS
 70
     8
  9
$HANDSEED
  5
370
  9
$SURFTAB1
 70
     6
  9
$SURFTAB2
 70
     6
  9
$SURFTYPE
 70
     6
  9
$SURFU
 70
     6
  9
$SURFV
 70
     6
  9
$UCSBASE
  2

  9
$UCSNAME
  2

  9
$UCSORG
 10
0.0
 20
0.0
 30
0.0
  9
$UCSXDIR
 10
1.0
 20
0.0
 30
0.0
  9
$UCSYDIR
 10
0.0
 20
1.0
 30
0.0
  9
$UCSORTHOREF
  2

  9
$UCSORTHOVIEW
 70
     0
  9
$UCSORGTOP
 10
0.0
 20
0.0
 30
0.0
  9
$UCSORGBOTTOM
 10
0.0
 20
0.0
 30
0.0
  9
$UCSORGLEFT
 10
0.0
 20
0.0
 30
0.0
  9
$UCSORGRIGHT
 10
0.0
 20
0.0
 30
0.0
  9
$UCSORGFRONT
 10
0.0
 20
0.0
 30
0.0
  9
$UCSORGBACK
 10
0.0
 20
0.0
 30
0.0
  9
$PUCSBASE
  2

  9
$PUCSNAME
  2

  9
$PUCSORG
 10
0.0
 20
0.0
 30
0.0
  9
$PUCSXDIR
 10
1.0
 20
0.0
 30
0.0
  9
$PUCSYDIR
 10
0.0
 20
1.0
 30
0.0
  9
$PUCSORTHOREF
  2

  9
$PUCSORTHOVIEW
 70
     0
  9
$PUCSORGTOP
 10
0.0
 20
0.0
 30
0.0
  9
$PUCSORGBOTTOM
 10
0.0
 20
0.0
 30
0.0
  9
$PUCSORGLEFT
 10
0.0
 20
0.0
 30
0.0
  9
$PUCSORGRIGHT
 10
0.0
 20
0.0
 30
0.0
  9
$PUCSORGFRONT
 10
0.0
 20
0.0
 30
0.0
  9
$PUCSORGBACK
 10
0.0
 20
0.0
 30
0.0
  9
$USERI1
 70
     0
  9
$USERI2
 70
     0
  9
$USERI3
 70
     0
  9
$USERI4
 70
     0
  9
$USERI5
 70
     0
  9
$USERR1
 40
16.0
  9
$USERR2
 40
0.0
  9
$USERR3
 40
0.0
  9
$USERR4
 40
0.0
  9
$USERR5
 40
0.0
  9
$WORLDVIEW
 70
     1
  9
$SHADEDGE
 70
     3
  9
$SHADEDIF
 70
    70
  9
$TILEMODE
 70
     1
  9
$MAXACTVP
 70
    64
  9
$PINSBASE
 10
0.0
 20
0.0
 30
0.0
  9
$PLIMCHECK
 70
     0
  9
$PEXTMIN
 10
1.00000000000000E+20
 20
1.00000000000000E+20
 30
1.00000000000000E+20
  9
$PEXTMAX
 10
-1.00000000000000E+20
 20
-1.00000000000000E+20
 30
-1.00000000000000E+20
  9
$PLIMMIN
 10
0.0
 20
0.0
  9
$PLIMMAX
 10
12.0
 20
9.0
  9
$UNITMODE
 70
     0
  9
$VISRETAIN
 70
     1
  9
$PLINEGEN
 70
     0
  9
$PSLTSCALE
 70
     1
  9
$TREEDEPTH
 70
  3020
  9
$CMLSTYLE
  2
Standard
  9
$CMLJUST
 70
     0
  9
$CMLSCALE
 40
1.0
  9
$PROXYGRAPHICS
 70
     1
  9
$MEASUREMENT
 70
     1
  9
$CELWEIGHT
370
    -1
  9
$ENDCAPS
280
     0
  9
$JOINSTYLE
280
     0
  9
$LWDISPLAY
290
     0
  9
$INSUNITS
 70
     1
  9
$HYPERLINKBASE
  1

  9
$STYLESHEET
  1

  9
$XEDIT
290
     1
  9
$CEPSNTYPE
380
     0
  9
$PSTYLEMODE
290
     1
  9
$FINGERPRINTGUID
  2
{FD3AA750-FEFD-4BC7-894B-84D888E7FF23}
  9
$VERSIONGUID
  2
{FAEB1C32-E019-11D5-929B-00C0DF256EC4}
  9
$EXTNAMES
290
     1
  9
$PSVPSCALE
 40
0.0
  9
$OLESTARTUP
290
     0
  0
ENDSEC
  0
SECTION
  2
CLASSES
  0
CLASS
  1
ACDBDICTIONARYWDFLT
  2
AcDbDictionaryWithDefault
  3
ObjectDBX Classes
 90
        0
280
     0
281
     0
  0
CLASS
  1
VISUALSTYLE
  2
AcDbVisualStyle
  3
ObjectDBX Classes
 90
     4095
280
     0
281
     0
  0
CLASS
  1

  2
exOdDbCircle
  3

 90
        0
280
     0
281
     1
  0
CLASS
  1
ACDBPLACEHOLDER
  2
AcDbPlaceHolder
  3
ObjectDBX Classes
 90
        0
280
     0
281
     0
  0
CLASS
  1
LAYOUT
  2
AcDbLayout
  3
ObjectDBX Classes
 90
        0
280
     0
281
     0
  0
ENDSEC
  0
SECTION
  2
TABLES
  0
TABLE
  2
VPORT
  5
8
330
0
100
AcDbSymbolTable
 70
     1
  0
VPORT
  5
29
330
8
100
AcDbSymbolTableRecord
100
AcDbViewportTableRecord
  2
*Active
 70
     0
 10
0.0
 20
0.0
 11
1.0
 21
1.0
 12
-110.535502650395
 22
112.957234631871
 13
0.0
 23
0.0
 14
0.5
 24
0.5
 15
0.5
 25
0.5
 16
0.0
 26
0.0
 36
1.0
 17
0.0
 27
0.0
 37
0.0
 40
231.0
 41
1.60267857142857
 42
50.0
 43
0.0
 44
0.0
 50
0.0
 51
0.0
 71
     0
 72
   100
 73
     1
 74
     3
 75
     0
 76
     0
 77
     0
 78
     0
281
     0
 65
     1
110
0.0
120
0.0
130
0.0
111
1.0
121
0.0
131
0.0
112
0.0
122
1.0
132
0.0
 79
     0
146
0.0
  0
ENDTAB
  0
TABLE
  2
LTYPE
  5
5
330
0
100
AcDbSymbolTable
 70
     8
  0
LTYPE
  5
14
330
5
100
AcDbSymbolTableRecord
100
AcDbLinetypeTableRecord
  2
ByBlock
 70
     0
  3

 72
    65
 73
     0
 40
0.0
  0
LTYPE
  5
15
330
5
100
AcDbSymbolTableRecord
100
AcDbLinetypeTableRecord
  2
ByLayer
 70
     0
  3

 72
    65
 73
     0
 40
0.0
  0
LTYPE
  5
16
330
5
100
AcDbSymbolTableRecord
100
AcDbLinetypeTableRecord
  2
Continuous
 70
     0
  3
Solid line
 72
    65
 73
     0
 40
0.0
  0
LTYPE
  5
3B
330
5
100
AcDbSymbolTableRecord
100
AcDbLinetypeTableRecord
  2
DASHED
 70
     0
  3
Dashed
 72
    65
 73
     2
 40
15.0
 49
7.0
 74
     0
 49
-8.0
 74
     0
  0
LTYPE
  5
3C
330
5
100
AcDbSymbolTableRecord
100
AcDbLinetypeTableRecord
  2
DOTTED
 70
     0
  3
Dotted
 72
    65
 73
     2
 40
1.0
 49
0.0
 74
     0
 49
-1.0
 74
     0
  0
LTYPE
  5
3D
330
5
100
AcDbSymbolTableRecord
100
AcDbLinetypeTableRecord
  2
DOT_CENTER
 70
     0
  3
Dot_Center
 72
    65
 73
     4
 40
14.0
 49
12.0
 74
     0
 49
-1.0
 74
     0
 49
0.0
 74
     0
 49
-1.0
 74
     0
  0
LTYPE
  5
3E
330
5
100
AcDbSymbolTableRecord
100
AcDbLinetypeTableRecord
  2
LONG_DASHED
 70
     0
  3
Long_Dashed
 72
    65
 73
     2
 40
15.0
 49
10.0
 74
     0
 49
-5.0
 74
     0
  0
LTYPE
  5
3F
330
5
100
AcDbSymbolTableRecord
100
AcDbLinetypeTableRecord
  2
DASH_CENTER
 70
     0
  3
Dash_Center
 72
    65
 73
     4
 40
14.0
 49
11.0
 74
     0
 49
-1.0
 74
     0
 49
1.0
 74
     0
 49
-1.0
 74
     0
  0
LTYPE
  5
40
330
5
100
AcDbSymbolTableRecord
100
AcDbLinetypeTableRecord
  2
PHANTOM
 70
     0
  3
Phantom
 72
    65
 73
     6
 40
13.0
 49
10.0
 74
     0
 49
-1.0
 74
     0
 49
0.0
 74
     0
 49
-1.0
 74
     0
 49
0.0
 74
     0
 49
-1.0
 74
     0
  0
LTYPE
  5
41
330
5
100
AcDbSymbolTableRecord
100
AcDbLinetypeTableRecord
  2
CENTER_DASH_DASH
 70
     0
  3
Center_Dash_Dash
 72
    65
 73
     6
 40
14.0
 49
9.0
 74
     0
 49
-1.0
 74
     0
 49
1.0
 74
     0
 49
-1.0
 74
     0
 49
1.0
 74
     0
 49
-1.0
 74
     0
  0
ENDTAB
  0
TABLE
  2
LAYER
  5
2
330
0
100
AcDbSymbolTable
 70
     2
  0
LAYER
  5
10
330
2
100
AcDbSymbolTableRecord
100
AcDbLayerTableRecord
  2
0
 70
     0
 62
     7
  6
Continuous
370
    -3
390
F
  0
LAYER
  5
42
330
2
100
AcDbSymbolTableRecord
100
AcDbLayerTableRecord
  2
1
 70
     0
 62
     7
  6
Continuous
370
    -3
390
F
  0
ENDTAB
  0
TABLE
  2
STYLE
  5
3
330
0
100
AcDbSymbolTable
 70
     9
  0
STYLE
  5
11
330
3
100
AcDbSymbolTableRecord
100
AcDbTextStyleTableRecord
  2
Standard
 70
     0
 40
0.0
 41
1.0
 50
0.0
 71
     0
 42
0.2
  3
txt
  4

  0
STYLE
  5
C8
330
3
100
AcDbSymbolTableRecord
100
AcDbTextStyleTableRecord
  2
CONVERTER_11
 70
     0
 40
0.0
 41
0.9
 50
0.0
 71
     0
 42
0.2
  3
txt.shx
  4

  0
STYLE
  5
2F7
330
3
100
AcDbSymbolTableRecord
100
AcDbTextStyleTableRecord
  2
CONVERTER_12
 70
     0
 40
0.0
 41
0.63
 50
0.0
 71
     0
 42
0.2
  3
txt.shx
  4

  0
STYLE
  5
2FA
330
3
100
AcDbSymbolTableRecord
100
AcDbTextStyleTableRecord
  2
CONVERTER_13
 70
     0
 40
0.0
 41
0.72
 50
0.0
 71
     0
 42
0.2
  3
txt.shx
  4

  0
STYLE
  5
2FE
330
3
100
AcDbSymbolTableRecord
100
AcDbTextStyleTableRecord
  2
CONVERTER_14
 70
     0
 40
0.0
 41
0.765
 50
0.0
 71
     0
 42
0.2
  3
txt.shx
  4

  0
STYLE
  5
336
330
3
100
AcDbSymbolTableRecord
100
AcDbTextStyleTableRecord
  2
CONVERTER_15
 70
     0
 40
0.0
 41
0.855
 50
0.0
 71
     0
 42
0.2
  3
txt.shx
  4

  0
STYLE
  5
352
330
3
100
AcDbSymbolTableRecord
100
AcDbTextStyleTableRecord
  2
CONVERTER_16
 70
     0
 40
0.0
 41
0.54
 50
0.0
 71
     0
 42
0.2
  3
txt.shx
  4

  0
STYLE
  5
354
330
3
100
AcDbSymbolTableRecord
100
AcDbTextStyleTableRecord
  2
CONVERTER_17
 70
     0
 40
0.0
 41
0.81
 50
0.0
 71
     0
 42
0.2
  3
txt.shx
  4

  0
STYLE
  5
35B
330
3
100
AcDbSymbolTableRecord
100
AcDbTextStyleTableRecord
  2
CONVERTER_18
 70
     0
 40
0.0
 41
0.45
 50
0.0
 71
     0
 42
0.2
  3
txt.shx
  4

  0
ENDTAB
  0
TABLE
  2
VIEW
  5
6
330
0
100
AcDbSymbolTable
 70
     0
  0
ENDTAB
  0
TABLE
  2
UCS
  5
7
330
0
100
AcDbSymbolTable
 70
     0
  0
ENDTAB
  0
TABLE
  2
APPID
  5
9
330
0
100
AcDbSymbolTable
 70
     1
  0
APPID
  5
12
330
9
100
AcDbSymbolTableRecord
100
AcDbRegAppTableRecord
  2
ACAD
 70
     0
  0
ENDTAB
  0
TABLE
  2
DIMSTYLE
  5
A
330
0
100
AcDbSymbolTable
 70
     6
100
AcDbDimStyleTable
  0
DIMSTYLE
105
27
330
A
100
AcDbSymbolTableRecord
100
AcDbDimStyleTableRecord
  2
Standard
 70
     0
340
11
  0
DIMSTYLE
105
14F
102
{ACAD_REACTORS
330
150
102
}
330
A
100
AcDbSymbolTableRecord
100
AcDbDimStyleTableRecord
  2
ME10_DIM_10
 70
     0
 41
3.5
 42
0.0
 44
2.0
 73
     0
 74
     0
 77
     1
 78
     8
140
3.5
147
2.0
172
     1
173
     1
176
     2
177
     2
178
     3
340
C8
  0
DIMSTYLE
105
15A
102
{ACAD_REACTORS
330
15B
102
}
330
A
100
AcDbSymbolTableRecord
100
AcDbDimStyleTableRecord
  2
ME10_DIM_11
 70
     0
 41
3.5
 42
0.0
 44
2.0
 73
     0
 74
     0
 77
     1
 78
     8
140
3.5
147
2.0
172
     1
173
     1
176
     2
177
     2
178
     3
271
     0
340
C8
  0
DIMSTYLE
105
165
102
{ACAD_REACTORS
330
166
102
}
330
A
100
AcDbSymbolTableRecord
100
AcDbDimStyleTableRecord
  2
ME10_DIM_12
 70
     0
 41
3.5
 42
0.0
 44
2.0
 73
     0
 74
     0
 77
     1
 78
     8
140
3.5
147
2.0
172
     1
173
     1
176
     2
177
     2
178
     3
340
C8
  0
DIMSTYLE
105
17F
102
{ACAD_REACTORS
330
180
102
}
330
A
100
AcDbSymbolTableRecord
100
AcDbDimStyleTableRecord
  2
ME10_DIM_13
 70
     0
 41
3.5
 42
0.0
 44
2.0
 73
     0
 74
     0
 77
     1
 78
     8
140
3.5
147
2.0
172
     1
173
     1
176
     2
177
     2
178
     3
340
C8
  0
DIMSTYLE
105
18C
102
{ACAD_REACTORS
330
18D
102
}
330
A
100
AcDbSymbolTableRecord
100
AcDbDimStyleTableRecord
  2
ME10_DIM_14
 70
     0
 41
3.5
 42
0.0
 44
2.0
 73
     0
 74
     0
 77
     1
 78
     8
140
3.5
147
2.0
172
     1
173
     1
176
     2
177
     2
178
     3
340
C8
  0
ENDTAB
  0
TABLE
  2
BLOCK_RECORD
  5
1
330
0
100
AcDbSymbolTable
 70
    21
  0
BLOCK_RECORD
  5
1F
330
1
100
AcDbSymbolTableRecord
100
AcDbBlockTableRecord
  2
*Model_Space
340
22
  0
BLOCK_RECORD
  5
1B
330
1
100
AcDbSymbolTableRecord
100
AcDbBlockTableRecord
  2
*Paper_Space
340
1E
  0
BLOCK_RECORD
  5
23
330
1
100
AcDbSymbolTableRecord
100
AcDbBlockTableRecord
  2
*Paper_Space0
340
26
  0
BLOCK_RECORD
  5
43
330
1
100
AcDbSymbolTableRecord
100
AcDbBlockTableRecord
  2
3030255_FBS_4-6_select__1
340
0
102
{BLKREFS
331
47
102
}
  0
BLOCK_RECORD
  5
46
330
1
100
AcDbSymbolTableRecord
100
AcDbBlockTableRecord
  2
AllgSicht1
340
0
102
{BLKREFS
331
78
102
}
  0
BLOCK_RECORD
  5
4A
330
1
100
AcDbSymbolTableRecord
100
AcDbBlockTableRecord
  2
3030255_FBS_4-6_select__2
340
0
102
{BLKREFS
331
4E
102
}
  0
BLOCK_RECORD
  5
4D
330
1
100
AcDbSymbolTableRecord
100
AcDbBlockTableRecord
  2
Drfsicht1
340
0
102
{BLKREFS
331
79
102
}
  0
BLOCK_RECORD
  5
51
330
1
100
AcDbSymbolTableRecord
100
AcDbBlockTableRecord
  2
3030255_FBS_4-6_select__3
340
0
102
{BLKREFS
331
55
102
}
  0
BLOCK_RECORD
  5
54
330
1
100
AcDbSymbolTableRecord
100
AcDbBlockTableRecord
  2
Rckans1
340
0
102
{BLKREFS
331
7A
102
}
  0
BLOCK_RECORD
  5
58
330
1
100
AcDbSymbolTableRecord
100
AcDbBlockTableRecord
  2
3030255_FBS_4-6_select__4
340
0
102
{BLKREFS
331
5C
102
}
  0
BLOCK_RECORD
  5
5B
330
1
100
AcDbSymbolTableRecord
100
AcDbBlockTableRecord
  2
SA_Links1
340
0
102
{BLKREFS
331
7B
102
}
  0
BLOCK_RECORD
  5
5F
330
1
100
AcDbSymbolTableRecord
100
AcDbBlockTableRecord
  2
3030255_FBS_4-6_select__5
340
0
102
{BLKREFS
331
63
102
}
  0
BLOCK_RECORD
  5
62
330
1
100
AcDbSymbolTableRecord
100
AcDbBlockTableRecord
  2
SA_Rechts1
340
0
102
{BLKREFS
331
7C
102
}
  0
BLOCK_RECORD
  5
66
330
1
100
AcDbSymbolTableRecord
100
AcDbBlockTableRecord
  2
3030255_FBS_4-6_select__6
340
0
102
{BLKREFS
331
6A
102
}
  0
BLOCK_RECORD
  5
69
330
1
100
AcDbSymbolTableRecord
100
AcDbBlockTableRecord
  2
Vordans1
340
0
102
{BLKREFS
331
7D
102
}
  0
BLOCK_RECORD
  5
6D
330
1
100
AcDbSymbolTableRecord
100
AcDbBlockTableRecord
  2
_rahmen
340
0
102
{BLKREFS
331
74
102
}
  0
BLOCK_RECORD
  5
70
330
1
100
AcDbSymbolTableRecord
100
AcDbBlockTableRecord
  2
_punkt
340
0
102
{BLKREFS
331
75
102
}
  0
BLOCK_RECORD
  5
73
330
1
100
AcDbSymbolTableRecord
100
AcDbBlockTableRecord
  2
A4I
340
0
102
{BLKREFS
331
7E
102
}
  0
BLOCK_RECORD
  5
146
330
1
100
AcDbSymbolTableRecord
100
AcDbBlockTableRecord
  2
*D16
340
0
  0
BLOCK_RECORD
  5
151
330
1
100
AcDbSymbolTableRecord
100
AcDbBlockTableRecord
  2
*D17
340
0
  0
BLOCK_RECORD
  5
15C
330
1
100
AcDbSymbolTableRecord
100
AcDbBlockTableRecord
  2
*D18
340
0
  0
BLOCK_RECORD
  5
174
330
1
100
AcDbSymbolTableRecord
100
AcDbBlockTableRecord
  2
*D19
340
0
  0
BLOCK_RECORD
  5
181
330
1
100
AcDbSymbolTableRecord
100
AcDbBlockTableRecord
  2
*D20
340
0
  0
ENDTAB
  0
ENDSEC
  0
SECTION
  2
BLOCKS
  0
BLOCK
  5
20
330
1F
100
AcDbEntity
  8
0
100
AcDbBlockBegin
  2
*Model_Space
 70
     0
 10
0.0
 20
0.0
 30
0.0
  3
*Model_Space
  1

  0
ENDBLK
  5
21
330
1F
100
AcDbEntity
  8
0
100
AcDbBlockEnd
  0
BLOCK
  5
1C
330
1B
100
AcDbEntity
 67
     1
  8
0
100
AcDbBlockBegin
  2
*Paper_Space
 70
     0
 10
0.0
 20
0.0
 30
0.0
  3
*Paper_Space
  1

  0
ENDBLK
  5
1D
330
1B
100
AcDbEntity
 67
     1
  8
0
100
AcDbBlockEnd
  0
BLOCK
  5
24
330
23
100
AcDbEntity
  8
0
100
AcDbBlockBegin
  2
*Paper_Space0
 70
     0
 10
0.0
 20
0.0
 30
0.0
  3
*Paper_Space0
  1

  0
ENDBLK
  5
25
330
23
100
AcDbEntity
  8
0
100
AcDbBlockEnd
  0
BLOCK
  5
44
330
43
100
AcDbEntity
  8
0
100
AcDbBlockBegin
  2
3030255_FBS_4-6_select__1
 70
     0
 10
-31.07403823098256
 20
82.57128437163593
 30
0.0
  3
3030255_FBS_4-6_select__1
  1

  0
LINE
  5
7F
330
43
100
AcDbEntity
  8
0
  6
Continuous
 62
     7
100
AcDbLine
 10
-31.07403823098256
 20
102.1922662028835
 30
0.0
 11
-19.52403823098256
 21
112.1948596165938
 31
0.0
  0
LINE
  5
80
330
43
100
AcDbEntity
  8
0
  6
Continuous
 62
     7
100
AcDbLine
 10
-24.41477432776486
 20
86.02223188272775
 30
0.0
 11
-25.29958527678083
 21
85.25596312336077
 31
0.0
  0
LINE
  5
81
330
43
100
AcDbEntity
  8
0
  6
Continuous
 62
     7
100
AcDbLine
 10
-24.41477432776486
 20
86.02223188272775
 30
0.0
 11
-24.23217980227105
 21
88.75611877679134
 31
0.0
  0
LINE
  5
82
330
43
100
AcDbEntity
  8
0
  6
Continuous
 62
     7
100
AcDbLine
 10
-23.76782044832388
 20
90.75826577379452
 30
0.0
 11
-23.58522592283006
 21
88.34064187507015
 31
0.0
  0
LINE
  5
83
330
43
100
AcDbEntity
  8
0
  6
Continuous
 62
     7
100
AcDbLine
 10
-23.76782044832404
 20
97.08092140130977
 30
0.0
 11
-23.76782044832388
 21
90.75826577379452
 31
0.0
  0
LINE
  5
84
330
43
100
AcDbEntity
  8
0
  6
Continuous
 62
     7
100
AcDbLine
 10
-24.05717980227041
 20
95.53343774129495
 30
0.0
 11
-24.05717980227041
 21
97.04180252095499
 31
0.0
  0
LINE
  5
85
330
43
100
AcDbEntity
  8
0
  6
Continuous
 62
     7
100
AcDbLine
 10
-24.23217980227105
 20
88.75611877679134
 30
0.0
 11
-24.23217980227105
 21
95.07877440430644
 31
0.0
  0
LINE
  5
86
330
43
100
AcDbEntity
  8
0
  6
Continuous
 62
     7
100
AcDbLine
 10
-24.23217980227105
 20
95.07877440430644
 30
0.0
 11
-24.05717980227041
 21
95.53343774129495
 31
0.0
  0
LINE
  5
87
330
43
100
AcDbEntity
  8
0
  6
Continuous
 62
     7
100
AcDbLine
 10
-25.29958527678083
 20
85.25596312336077
 30
0.0
 11
-25.48217980227233
 21
87.67358702205453
 31
0.0
  0
LINE
  5
88
330
43
100
AcDbEntity
  8
0
  6
Continuous
 62
     7
100
AcDbLine
 10
-25.48217980227233
 20
87.67358702205453
 30
0.0
 11
-25.48217980227233
 21
93.99624264957727
 31
0.0
  0
LINE
  5
89
330
43
100
AcDbEntity
  8
0
  6
Continuous
 62
     7
100
AcDbLine
 10
-21.314774327759
 20
88.70691063449205
 30
0.0
 11
-21.13217980226749
 21
91.44079752852105
 31
0.0
  0
LINE
  5
8A
330
43
100
AcDbEntity
  8
0
  6
Continuous
 62
     7
100
AcDbLine
 10
-22.27596201962925
 20
98.58438237039483
 30
0.0
 11
-20.02596201962924
 21
100.5329395289098
 31
0.0
  0
LINE
  5
8B
330
43
100
AcDbEntity
  8
0
  6
Continuous
 62
     7
100
AcDbLine
 10
-22.27596201962924
 20
101.6154712836404
 30
0.0
 11
-22.27596201962925
 21
98.58438237039483
 31
0.0
  0
LINE
  5
8C
330
43
100
AcDbEntity
  8
0
  6
Continuous
 62
     7
100
AcDbLine
 10
-20.02596201962924
 20
103.5640284421554
 30
0.0
 11
-20.02596201962924
 21
100.5329395289098
 31
0.0
  0
LINE
  5
8D
330
43
100
AcDbEntity
  8
0
  6
Continuous
 62
     7
100
AcDbLine
 10
-20.66782044832532
 20
93.44294452552496
 30
0.0
 11
-20.66782044832532
 21
98.14901939931065
 31
0.0
  0
LINE
  5
8E
330
43
100
AcDbEntity
  8
0
  6
Continuous
 62
     7
100
AcDbLine
 10
-19.17596201962924
 20
97.7183569666104
 30
0.0
 11
-20.9571798022683
 21
98.2325502497564
 31
0.0
  0
LINE
  5
8F
330
43
100
AcDbEntity
  8
0
  6
Continuous
 62
     7
100
AcDbLine
 10
-19.17596201962924
 20
97.7183569666104
 30
0.0
 11
-16.92596201962924
 21
99.66691412512539
 31
0.0
  0
LINE
  5
90
330
43
100
AcDbEntity
  8
0
  6
Continuous
 62
     7
100
AcDbLine
 10
-21.13217980226749
 20
97.76345315604377
 30
0.0
 11
-20.9571798022683
 21
98.21811649302853
 31
0.0
  0
LINE
  5
91
330
43
100
AcDbEntity
  8
0
  6
Continuous
 62
     7
100
AcDbLine
 10
-19.28217980227021
 20
93.04294452552497
 30
0.0
 11
-19.28217980227022
 21
97.74901939931064
 31
0.0
  0
LINE
  5
92
330
43
100
AcDbEntity
  8
0
  6
Continuous
 62
     7
100
AcDbLine
 10
-18.03217980226893
 20
98.70890142324133
 30
0.0
 11
-18.03217980226891
 21
94.12547628024949
 31
0.0
  0
LINE
  5
93
330
43
100
AcDbEntity
  8
0
  6
Continuous
 62
     7
100
AcDbLine
 10
-18.21477432775984
 20
91.39158938622928
 30
0.0
 11
-18.03217980226891
 21
94.12547628024949
 31
0.0
  0
LINE
  5
94
330
43
100
AcDbEntity
  8
0
  6
Continuous
 62
     7
100
AcDbLine
 10
-20.48522592283194
 20
91.02532062680649
 30
0.0
 11
-20.66782044832532
 21
93.44294452552496
 31
0.0
  0
LINE
  5
95
330
43
100
AcDbEntity
  8
0
  6
Continuous
 62
     7
100
AcDbLine
 10
-20.66782044832532
 20
93.44294452552496
 30
0.0
 11
-19.28217980227021
 21
93.04294452552497
 31
0.0
  0
LINE
  5
96
330
43
100
AcDbEntity
  8
0
  6
Continuous
 62
     7
100
AcDbLine
 10
-20.48522592283194
 20
91.02532062680649
 30
0.0
 11
-19.09958527677683
 21
90.6253206268065
 31
0.0
  0
LINE
  5
97
330
43
100
AcDbEntity
  8
0
  6
Continuous
 62
     7
100
AcDbLine
 10
-19.09958527677683
 20
90.6253206268065
 30
0.0
 11
-18.21477432775984
 21
91.39158938622928
 31
0.0
  0
LINE
  5
98
330
43
100
AcDbEntity
  8
0
  6
Continuous
 62
     7
100
AcDbLine
 10
-21.13217980226749
 20
97.76345315604377
 30
0.0
 11
-21.13217980226749
 21
91.44079752852105
 31
0.0
  0
LINE
  5
99
330
43
100
AcDbEntity
  8
0
  6
Continuous
 62
     7
100
AcDbLine
 10
-28.39958527677998
 20
82.57128437163593
 30
0.0
 11
-29.78522592283508
 21
82.97128437163593
 31
0.0
  0
LINE
  5
9A
330
43
100
AcDbEntity
  8
0
  6
Continuous
 62
     7
100
AcDbLine
 10
-31.07403823098256
 20
102.1922662028835
 30
0.0
 11
-31.07403823098256
 21
90.41432071141512
 31
0.0
  0
LINE
  5
9B
330
43
100
AcDbEntity
  8
0
  6
Continuous
 62
     7
100
AcDbLine
 10
-28.47596201962924
 20
89.66432071141512
 30
0.0
 11
-31.07403823098256
 21
90.41432071141512
 31
0.0
  0
LINE
  5
9C
330
43
100
AcDbEntity
  8
0
  6
Continuous
 62
     7
100
AcDbLine
 10
-29.96782044832602
 20
85.38890827032192
 30
0.0
 11
-28.58217980227091
 21
84.9889082703219
 31
0.0
  0
LINE
  5
9D
330
43
100
AcDbEntity
  8
0
  6
Continuous
 62
     7
100
AcDbLine
 10
-28.58217980227091
 20
84.9889082703219
 30
0.0
 11
-28.58217980227089
 21
89.69498314411555
 31
0.0
  0
LINE
  5
9E
330
43
100
AcDbEntity
  8
0
  6
Continuous
 62
     7
100
AcDbLine
 10
-29.96782044832599
 20
90.09498314411556
 30
0.0
 11
-29.96782044832602
 21
85.38890827032192
 31
0.0
  0
LINE
  5
9F
330
43
100
AcDbEntity
  8
0
  6
Continuous
 62
     7
100
AcDbLine
 10
-31.07403823098256
 20
102.1922662028835
 30
0.0
 11
-28.47596201962924
 21
101.4422662028835
 31
0.0
  0
LINE
  5
A0
330
43
100
AcDbEntity
  8
0
  6
Continuous
 62
     7
100
AcDbLine
 10
-28.39958527677998
 20
82.57128437163593
 30
0.0
 11
-28.58217980227091
 21
84.9889082703219
 31
0.0
  0
LINE
  5
A1
330
43
100
AcDbEntity
  8
0
  6
Continuous
 62
     7
100
AcDbLine
 10
-29.78522592283508
 20
82.97128437163593
 30
0.0
 11
-29.96782044832602
 21
85.38890827032192
 31
0.0
  0
LINE
  5
A2
330
43
100
AcDbEntity
  8
0
  6
Continuous
 62
     7
100
AcDbLine
 10
-25.29958527678083
 20
85.25596312336077
 30
0.0
 11
-26.68522592283593
 21
85.65596312336075
 31
0.0
  0
LINE
  5
A3
330
43
100
AcDbEntity
  8
0
  6
Continuous
 62
     7
100
AcDbLine
 10
-26.86782044832743
 20
88.07358702205454
 30
0.0
 11
-25.48217980227233
 21
87.67358702205453
 31
0.0
  0
LINE
  5
A4
330
43
100
AcDbEntity
  8
0
  6
Continuous
 62
     7
100
AcDbLine
 10
-23.12596201962923
 20
97.84826077717806
 30
0.0
 11
-25.37596201962924
 21
95.89970361866307
 31
0.0
  0
LINE
  5
A5
330
43
100
AcDbEntity
  8
0
  6
Continuous
 62
     7
100
AcDbLine
 10
-25.37596201962924
 20
98.93079253190861
 30
0.0
 11
-26.22596201962924
 21
98.19467093869183
 31
0.0
  0
LINE
  5
A6
330
43
100
AcDbEntity
  8
0
  6
Continuous
 62
     7
100
AcDbLine
 10
-23.889914829194
 20
97.18665823680249
 30
0.0
 11
-23.76782044832404
 21
97.08092140130977
 31
0.0
  0
LINE
  5
A7
330
43
100
AcDbEntity
  8
0
  6
Continuous
 62
     7
100
AcDbLine
 10
-21.314774327759
 20
88.70691063449205
 30
0.0
 11
-22.19958527677497
 21
87.94064187507014
 31
0.0
  0
LINE
  5
A8
330
43
100
AcDbEntity
  8
0
  6
Continuous
 62
     7
100
AcDbLine
 10
-22.19958527677497
 20
87.94064187507014
 30
0.0
 11
-23.58522592283006
 21
88.34064187507015
 31
0.0
  0
LINE
  5
A9
330
43
100
AcDbEntity
  8
0
  6
Continuous
 62
     7
100
AcDbLine
 10
-22.38217980226878
 20
90.35826577379453
 30
0.0
 11
-22.19958527677497
 21
87.94064187507014
 31
0.0
  0
LINE
  5
AA
330
43
100
AcDbEntity
  8
0
  6
Continuous
 62
     7
100
AcDbLine
 10
-22.38217980226878
 20
90.35826577379453
 30
0.0
 11
-23.76782044832388
 21
90.75826577379452
 31
0.0
  0
LINE
  5
AB
330
43
100
AcDbEntity
  8
0
  6
Continuous
 62
     7
100
AcDbLine
 10
-23.86346201962874
 20
97.20956704188747
 30
0.0
 11
-22.55717980226942
 21
96.83247584697246
 31
0.0
  0
LINE
  5
AC
330
43
100
AcDbEntity
  8
0
  6
Continuous
 62
     7
100
AcDbLine
 10
-23.76782044832404
 20
97.08092140130977
 30
0.0
 11
-22.38217980226878
 21
96.68092140130962
 31
0.0
  0
LINE
  5
AD
330
43
100
AcDbEntity
  8
0
  6
Continuous
 62
     7
100
AcDbLine
 10
-23.12596201962924
 20
100.8793496904236
 30
0.0
 11
-23.12596201962923
 21
97.84826077717806
 31
0.0
  0
LINE
  5
AE
330
43
100
AcDbEntity
  8
0
  6
Continuous
 62
     7
100
AcDbLine
 10
-22.55717980226942
 20
96.83247584697246
 30
0.0
 11
-22.38217980226878
 21
96.68092140130962
 31
0.0
  0
LINE
  5
AF
330
43
100
AcDbEntity
  8
0
  6
Continuous
 62
     7
100
AcDbLine
 10
-22.55717980226942
 20
98.66556295164894
 30
0.0
 11
-22.55717980226942
 21
96.83247584697246
 31
0.0
  0
LINE
  5
B0
330
43
100
AcDbEntity
  8
0
  6
Continuous
 62
     7
100
AcDbLine
 10
-22.38217980226878
 20
96.68092140130962
 30
0.0
 11
-22.38217980226878
 21
90.35826577379453
 31
0.0
  0
LINE
  5
B1
330
43
100
AcDbEntity
  8
0
  6
Continuous
 62
     7
100
AcDbLine
 10
-19.28217980227021
 20
93.04294452552497
 30
0.0
 11
-19.09958527677683
 21
90.6253206268065
 31
0.0
  0
LINE
  5
B2
330
43
100
AcDbEntity
  8
0
  6
Continuous
 62
     7
100
AcDbLine
 10
-20.9571798022683
 20
98.21811649302853
 30
0.0
 11
-20.95717980226829
 21
99.72648127268857
 31
0.0
  0
LINE
  5
B3
330
43
100
AcDbEntity
  8
0
  6
Continuous
 62
     7
100
AcDbLine
 10
-16.92596201962924
 20
111.4448596165938
 30
0.0
 11
-28.47596201962924
 21
101.4422662028835
 31
0.0
  0
LINE
  5
B4
330
43
100
AcDbEntity
  8
0
  6
Continuous
 62
     7
100
AcDbLine
 10
-20.02596201962924
 20
103.5640284421554
 30
0.0
 11
-19.17596201962924
 21
104.3001500353721
 31
0.0
  0
LINE
  5
B5
330
43
100
AcDbEntity
  8
0
  6
Continuous
 62
     7
100
AcDbLine
 10
-23.12596201962924
 20
100.8793496904236
 30
0.0
 11
-22.27596201962924
 21
101.6154712836404
 31
0.0
  0
LINE
  5
B6
330
43
100
AcDbEntity
  8
0
  6
Continuous
 62
     7
100
AcDbLine
 10
-22.27596201962925
 20
98.58438237039483
 30
0.0
 11
-23.12596201962924
 21
98.82975623480041
 31
0.0
  0
LINE
  5
B7
330
43
100
AcDbEntity
  8
0
  6
Continuous
 62
     7
100
AcDbLine
 10
-16.92596201962924
 20
99.66691412512539
 30
0.0
 11
-16.92596201962924
 21
111.4448596165938
 31
0.0
  0
LINE
  5
B8
330
43
100
AcDbEntity
  8
0
  6
Continuous
 62
     7
100
AcDbLine
 10
-19.17596201962924
 20
104.3001500353721
 30
0.0
 11
-19.17596201962924
 21
97.7183569666104
 31
0.0
  0
LINE
  5
B9
330
43
100
AcDbEntity
  8
0
  6
Continuous
 62
     7
100
AcDbLine
 10
-19.52403823098256
 20
112.1948596165938
 30
0.0
 11
-16.92596201962924
 21
111.4448596165938
 31
0.0
  0
LINE
  5
BA
330
43
100
AcDbEntity
  8
0
  6
Continuous
 62
     7
100
AcDbLine
 10
-27.51477432776298
 20
83.33755313100383
 30
0.0
 11
-28.39958527677998
 21
82.57128437163593
 31
0.0
  0
LINE
  5
BB
330
43
100
AcDbEntity
  8
0
  6
Continuous
 62
     7
100
AcDbLine
 10
-27.33217980226959
 20
86.07144002506077
 30
0.0
 11
-27.51477432776298
 21
83.33755313100383
 31
0.0
  0
LINE
  5
BC
330
43
100
AcDbEntity
  8
0
  6
Continuous
 62
     7
100
AcDbLine
 10
-25.37596201962924
 20
95.89970361866307
 30
0.0
 11
-26.22596201962924
 21
96.14507748306866
 31
0.0
  0
LINE
  5
BD
330
43
100
AcDbEntity
  8
0
  6
Continuous
 62
     7
100
AcDbLine
 10
-26.22596201962924
 20
91.6128778699301
 30
0.0
 11
-28.47596201962924
 21
89.66432071141512
 31
0.0
  0
LINE
  5
BE
330
43
100
AcDbEntity
  8
0
  6
Continuous
 62
     7
100
AcDbLine
 10
-26.22596201962924
 20
94.210954081282
 30
0.0
 11
-25.48217980227233
 21
93.99624264957727
 31
0.0
  0
LINE
  5
BF
330
43
100
AcDbEntity
  8
0
  6
Continuous
 62
     7
100
AcDbLine
 10
-25.37596201962924
 20
98.93079253190861
 30
0.0
 11
-25.37596201962924
 21
95.89970361866307
 31
0.0
  0
LINE
  5
C0
330
43
100
AcDbEntity
  8
0
  6
Continuous
 62
     7
100
AcDbLine
 10
-25.65717980227153
 20
95.9808841999178
 30
0.0
 11
-25.65717980227153
 21
94.14779709523886
 31
0.0
  0
LINE
  5
C1
330
43
100
AcDbEntity
  8
0
  6
Continuous
 62
     7
100
AcDbLine
 10
-26.22596201962924
 20
98.19467093869183
 30
0.0
 11
-26.22596201962924
 21
91.6128778699301
 31
0.0
  0
LINE
  5
C2
330
43
100
AcDbEntity
  8
0
  6
Continuous
 62
     7
100
AcDbLine
 10
-25.65717980227153
 20
94.14779709523886
 30
0.0
 11
-25.48217980227233
 21
93.99624264957727
 31
0.0
  0
LINE
  5
C3
330
43
100
AcDbEntity
  8
0
  6
Continuous
 62
     7
100
AcDbLine
 10
-25.65717980227153
 20
94.14779709523886
 30
0.0
 11
-26.22596201962924
 21
94.31199037838972
 31
0.0
  0
LINE
  5
C4
330
43
100
AcDbEntity
  8
0
  6
Continuous
 62
     7
100
AcDbLine
 10
-28.47596201962924
 20
89.66432071141512
 30
0.0
 11
-28.47596201962924
 21
101.4422662028835
 31
0.0
  0
LINE
  5
C5
330
43
100
AcDbEntity
  8
0
  6
Continuous
 62
     7
100
AcDbLine
 10
-26.86782044832743
 20
88.07358702205454
 30
0.0
 11
-26.86782044832743
 21
91.0570121650443
 31
0.0
  0
LINE
  5
C6
330
43
100
AcDbEntity
  8
0
  6
Continuous
 62
     7
100
AcDbLine
 10
-26.68522592283593
 20
85.65596312336075
 30
0.0
 11
-26.86782044832743
 21
88.07358702205454
 31
0.0
  0
LINE
  5
C7
330
43
100
AcDbEntity
  8
0
  6
Continuous
 62
     7
100
AcDbLine
 10
-27.33217980226959
 20
86.07144002506077
 30
0.0
 11
-27.3321798022696
 21
90.65486516804546
 31
0.0
  0
ENDBLK
  5
45
330
43
100
AcDbEntity
  8
0
100
AcDbBlockEnd
  0
BLOCK
  5
48
330
46
100
AcDbEntity
  8
0
100
AcDbBlockBegin
  2
AllgSicht1
 70
     0
 10
-24.0000000000001
 20
97.00000000001
 30
0.0
  3
AllgSicht1
  1

  0
INSERT
  5
47
330
46
100
AcDbEntity
  8
0
100
AcDbBlockReference
  2
3030255_FBS_4-6_select__1
 10
-31.07403823098256
 20
82.57128437163593
 30
0.0
  0
MTEXT
  5
C9
330
46
100
AcDbEntity
  8
1
 62
     6
100
AcDbMText
 10
-23.99999999999989
 20
76.80514011256753
 30
0.0
 40
5.0
 41
0.0
 71
     2
 72
     1
  1
 
  7
CONVERTER_11
 73
     1
 44
1.32052821128451
  0
ENDBLK
  5
49
330
46
100
AcDbEntity
  8
0
100
AcDbBlockEnd
  0
BLOCK
  5
4B
330
4A
100
AcDbEntity
  8
0
100
AcDbBlockBegin
  2
3030255_FBS_4-6_select__2
 70
     0
 10
-121.5
 20
88.44999974938841
 30
0.0
  3
3030255_FBS_4-6_select__2
  1

  0
LINE
  5
CA
330
4A
100
AcDbEntity
  8
0
  6
Continuous
 62
     7
100
AcDbLine
 10
-121.5
 20
88.44999974938841
 30
0.0
 11
-121.5
 21
111.5499997493884
 31
0.0
  0
LINE
  5
CB
330
4A
100
AcDbEntity
  8
0
  6
Continuous
 62
     7
100
AcDbLine
 10
-121.5
 20
111.5499997493884
 30
0.0
 11
-118.5
 21
111.5499997493884
 31
0.0
  0
LINE
  5
CC
330
4A
100
AcDbEntity
  8
0
  6
Continuous
 62
     7
100
AcDbLine
 10
-118.5
 20
111.5499997493884
 30
0.0
 11
-118.5
 21
88.44999974938841
 31
0.0
  0
LINE
  5
CD
330
4A
100
AcDbEntity
  8
0
  6
Continuous
 62
     7
100
AcDbLine
 10
-121.5
 20
88.44999974938841
 30
0.0
 11
-118.5
 21
88.44999974938841
 31
0.0
  0
ENDBLK
  5
4C
330
4A
100
AcDbEntity
  8
0
100
AcDbBlockEnd
  0
BLOCK
  5
4F
330
4D
100
AcDbEntity
  8
0
100
AcDbBlockBegin
  2
Drfsicht1
 70
     0
 10
-120.0
 20
100.0
 30
0.0
  3
Drfsicht1
  1

  0
INSERT
  5
4E
330
4D
100
AcDbEntity
  8
0
100
AcDbBlockReference
  2
3030255_FBS_4-6_select__2
 10
-121.5
 20
88.44999974938841
 30
0.0
  0
MTEXT
  5
CE
330
4D
100
AcDbEntity
  8
1
 62
     6
100
AcDbMText
 10
-120.0
 20
83.44999980926514
 30
0.0
 40
5.0
 41
0.0
 71
     2
 72
     1
  1
 
  7
CONVERTER_11
 73
     1
 44
1.32052821128451
  0
ENDBLK
  5
50
330
4D
100
AcDbEntity
  8
0
100
AcDbBlockEnd
  0
BLOCK
  5
52
330
51
100
AcDbEntity
  8
0
100
AcDbBlockBegin
  2
3030255_FBS_4-6_select__3
 70
     0
 10
-40.39999961853017
 20
141.550000289405
 30
0.0
  3
3030255_FBS_4-6_select__3
  1

  0
LINE
  5
CF
330
51
100
AcDbEntity
  8
0
  6
Continuous
 62
     7
100
AcDbLine
 10
-39.69999961853991
 20
150.6250002894023
 30
0.0
 11
-39.69999961853991
 21
144.5242264323144
 31
0.0
  0
LINE
  5
D0
330
51
100
AcDbEntity
  8
0
  6
Continuous
 62
     7
100
AcDbLine
 10
-39.69999961853991
 20
150.6250002894023
 30
0.0
 11
-38.0999996185399
 21
150.6250002894023
 31
0.0
  0
LINE
  5
D1
330
51
100
AcDbEntity
  8
0
  6
Continuous
 62
     7
100
AcDbLine
 10
-38.0999996185399
 20
150.6250002894023
 30
0.0
 11
-37.39999961853016
 21
150.6250002894023
 31
0.0
  0
LINE
  5
D2
330
51
100
AcDbEntity
  8
0
  6
Continuous
 62
     7
100
AcDbLine
 10
-38.0999996185399
 20
150.6250002894023
 30
0.0
 11
-38.09999961853991
 21
144.5242264323144
 31
0.0
  0
LINE
  5
D3
330
51
100
AcDbEntity
  8
0
  6
Continuous
 62
     7
100
AcDbLine
 10
-37.39999961853016
 20
164.2250002894023
 30
0.0
 11
-37.39999961853016
 21
150.6250002894023
 31
0.0
  0
LINE
  5
D4
330
51
100
AcDbEntity
  8
0
  6
Continuous
 62
     7
100
AcDbLine
 10
-40.39999961853017
 20
150.6250002894023
 30
0.0
 11
-40.39999961853017
 21
164.2250002894023
 31
0.0
  0
LINE
  5
D5
330
51
100
AcDbEntity
  8
0
  6
Continuous
 62
     7
100
AcDbLine
 10
-37.39999961853016
 20
164.2250002894023
 30
0.0
 11
-40.39999961853017
 21
164.2250002894023
 31
0.0
  0
LINE
  5
D6
330
51
100
AcDbEntity
  8
0
  6
Continuous
 62
     7
100
AcDbLine
 10
-40.39999961853017
 20
150.6250002894023
 30
0.0
 11
-39.69999961853991
 21
150.6250002894023
 31
0.0
  0
LINE
  5
D7
330
51
100
AcDbEntity
  8
0
  6
Continuous
 62
     7
100
AcDbLine
 10
-39.69999961853991
 20
141.550000289405
 30
0.0
 11
-39.69999961853991
 21
144.5242264323144
 31
0.0
  0
LINE
  5
D8
330
51
100
AcDbEntity
  8
0
  6
Continuous
 62
     7
100
AcDbLine
 10
-39.69999961853991
 20
144.5242264323144
 30
0.0
 11
-38.09999961853991
 21
144.5242264323144
 31
0.0
  0
LINE
  5
D9
330
51
100
AcDbEntity
  8
0
  6
Continuous
 62
     7
100
AcDbLine
 10
-38.09999961853991
 20
141.550000289405
 30
0.0
 11
-38.09999961853991
 21
144.5242264323144
 31
0.0
  0
LINE
  5
DA
330
51
100
AcDbEntity
  8
0
  6
Continuous
 62
     7
100
AcDbLine
 10
-38.09999961853991
 20
141.550000289405
 30
0.0
 11
-39.69999961853991
 21
141.550000289405
 31
0.0
  0
ENDBLK
  5
53
330
51
100
AcDbEntity
  8
0
100
AcDbBlockEnd
  0
BLOCK
  5
56
330
54
100
AcDbEntity
  8
0
100
AcDbBlockBegin
  2
Rckans1
 70
     0
 10
-38.89999961853016
 20
152.8875002861223
 30
0.0
  3
Rckans1
  1

  0
INSERT
  5
55
330
54
100
AcDbEntity
  8
0
100
AcDbBlockReference
  2
3030255_FBS_4-6_select__3
 10
-40.39999961853017
 20
141.550000289405
 30
0.0
  0
MTEXT
  5
DB
330
54
100
AcDbEntity
  8
1
 62
     6
100
AcDbMText
 10
-38.89999961853016
 20
136.5500001907549
 30
0.0
 40
5.0
 41
0.0
 71
     2
 72
     1
  1
 
  7
CONVERTER_11
 73
     1
 44
1.32052821128451
  0
ENDBLK
  5
57
330
54
100
AcDbEntity
  8
0
100
AcDbBlockEnd
  0
BLOCK
  5
59
330
58
100
AcDbEntity
  8
0
100
AcDbBlockBegin
  2
3030255_FBS_4-6_select__4
 70
     0
 10
-88.43037766061772
 20
141.5500002893733
 30
0.0
  3
3030255_FBS_4-6_select__4
  1

  0
LINE
  5
DC
330
58
100
AcDbEntity
  8
0
  6
Continuous
 62
     7
100
AcDbLine
 10
-78.73037766061998
 20
144.5242264323227
 30
0.0
 11
-79.09556671160762
 21
141.5500002893733
 31
0.0
  0
LINE
  5
DD
330
58
100
AcDbEntity
  8
0
  6
Continuous
 62
     7
100
AcDbLine
 10
-65.33037766061771
 20
164.2250002894023
 30
0.0
 11
-88.43037766061772
 21
164.2250002894023
 31
0.0
  0
LINE
  5
DE
330
58
100
AcDbEntity
  8
0
  6
Continuous
 62
     7
100
AcDbLine
 10
-82.23037766061773
 20
158.2250002894023
 30
0.0
 11
-83.93037766061772
 21
158.2250002894023
 31
0.0
  0
LINE
  5
DF
330
58
100
AcDbEntity
  8
0
  6
Continuous
 62
     7
100
AcDbLine
 10
-77.7303776606177
 20
158.2250002894023
 30
0.0
 11
-76.03037766061772
 21
158.2250002894023
 31
0.0
  0
LINE
  5
E0
330
58
100
AcDbEntity
  8
0
  6
Continuous
 62
     7
100
AcDbLine
 10
-71.53037766061772
 20
158.2250002894023
 30
0.0
 11
-69.83037766061771
 21
158.2250002894023
 31
0.0
  0
LINE
  5
E1
330
58
100
AcDbEntity
  8
0
  6
Continuous
 62
     7
100
AcDbLine
 10
-72.18037766061448
 20
154.7250002894023
 30
0.0
 11
-75.38037766061673
 21
154.7250002894023
 31
0.0
  0
LINE
  5
E2
330
58
100
AcDbEntity
  8
0
  6
Continuous
 62
     7
100
AcDbLine
 10
-75.38037766061673
 20
154.7250002894023
 30
0.0
 11
-76.03037766061772
 21
154.7250002894023
 31
0.0
  0
LINE
  5
E3
330
58
100
AcDbEntity
  8
0
  6
Continuous
 62
     7
100
AcDbLine
 10
-71.53037766061772
 20
154.7250002894023
 30
0.0
 11
-72.18037766061448
 21
154.7250002894023
 31
0.0
  0
LINE
  5
E4
330
58
100
AcDbEntity
  8
0
  6
Continuous
 62
     7
100
AcDbLine
 10
-78.3803776606187
 20
154.7250002894023
 30
0.0
 11
-77.7303776606177
 21
154.7250002894023
 31
0.0
  0
LINE
  5
E5
330
58
100
AcDbEntity
  8
0
  6
Continuous
 62
     7
100
AcDbLine
 10
-81.58037766062097
 20
154.7250002894023
 30
0.0
 11
-78.3803776606187
 21
154.7250002894023
 31
0.0
  0
LINE
  5
E6
330
58
100
AcDbEntity
  8
0
  6
Continuous
 62
     7
100
AcDbLine
 10
-82.23037766061773
 20
154.7250002894023
 30
0.0
 11
-81.58037766062097
 21
154.7250002894023
 31
0.0
  0
LINE
  5
E7
330
58
100
AcDbEntity
  8
0
  6
Continuous
 62
     7
100
AcDbLine
 10
-88.43037766061772
 20
164.2250002894023
 30
0.0
 11
-88.43037766061772
 21
150.6250002894023
 31
0.0
  0
LINE
  5
E8
330
58
100
AcDbEntity
  8
0
  6
Continuous
 62
     7
100
AcDbLine
 10
-68.46518860963155
 20
141.5500002893805
 30
0.0
 11
-66.69556671159756
 21
141.5500002894121
 31
0.0
  0
LINE
  5
E9
330
58
100
AcDbEntity
  8
0
  6
Continuous
 62
     7
100
AcDbLine
 10
-66.33037766061574
 20
150.6250002894023
 30
0.0
 11
-68.83037766061832
 21
150.6250002894023
 31
0.0
  0
LINE
  5
EA
330
58
100
AcDbEntity
  8
0
  6
Continuous
 62
     7
100
AcDbLine
 10
-68.83037766061832
 20
150.6250002894023
 30
0.0
 11
-69.83037766061771
 21
150.6250002894023
 31
0.0
  0
LINE
  5
EB
330
58
100
AcDbEntity
  8
0
  6
Continuous
 62
     7
100
AcDbLine
 10
-65.33037766061771
 20
150.6250002894023
 30
0.0
 11
-66.33037766061574
 21
150.6250002894023
 31
0.0
  0
LINE
  5
EC
330
58
100
AcDbEntity
  8
0
  6
Continuous
 62
     7
100
AcDbLine
 10
-66.69556671159756
 20
141.5500002894121
 30
0.0
 11
-66.33037766061572
 21
144.5242264323144
 31
0.0
  0
LINE
  5
ED
330
58
100
AcDbEntity
  8
0
  6
Continuous
 62
     7
100
AcDbLine
 10
-66.33037766061574
 20
150.6250002894023
 30
0.0
 11
-66.33037766061572
 21
144.5242264323144
 31
0.0
  0
LINE
  5
EE
330
58
100
AcDbEntity
  8
0
  6
Continuous
 62
     7
100
AcDbLine
 10
-65.33037766061771
 20
164.2250002894023
 30
0.0
 11
-65.33037766061771
 21
150.6250002894023
 31
0.0
  0
LINE
  5
EF
330
58
100
AcDbEntity
  8
0
  6
Continuous
 62
     7
100
AcDbLine
 10
-75.03037766061546
 20
151.8250002894013
 30
0.0
 11
-75.38037766061673
 21
152.1750002894023
 31
0.0
  0
LINE
  5
F0
330
58
100
AcDbEntity
  8
0
  6
Continuous
 62
     7
100
AcDbLine
 10
-78.73037766061967
 20
151.8250002894013
 30
0.0
 11
-78.73037766061998
 21
144.5242264323227
 31
0.0
  0
LINE
  5
F1
330
58
100
AcDbEntity
  8
0
  6
Continuous
 62
     7
100
AcDbLine
 10
-78.3803776606187
 20
152.1750002894023
 30
0.0
 11
-78.73037766061967
 21
151.8250002894013
 31
0.0
  0
LINE
  5
F2
330
58
100
AcDbEntity
  8
0
  6
Continuous
 62
     7
100
AcDbLine
 10
-78.3803776606187
 20
154.7250002894023
 30
0.0
 11
-78.3803776606187
 21
152.1750002894023
 31
0.0
  0
LINE
  5
F3
330
58
100
AcDbEntity
  8
0
  6
Continuous
 62
     7
100
AcDbLine
 10
-77.7303776606177
 20
154.7250002894023
 30
0.0
 11
-77.7303776606177
 21
158.2250002894023
 31
0.0
  0
LINE
  5
F4
330
58
100
AcDbEntity
  8
0
  6
Continuous
 62
     7
100
AcDbLine
 10
-76.03037766061772
 20
154.7250002894023
 30
0.0
 11
-76.03037766061772
 21
158.2250002894023
 31
0.0
  0
LINE
  5
F5
330
58
100
AcDbEntity
  8
0
  6
Continuous
 62
     7
100
AcDbLine
 10
-75.03037766061546
 20
144.5242264323227
 30
0.0
 11
-75.03037766061546
 21
151.8250002894013
 31
0.0
  0
LINE
  5
F6
330
58
100
AcDbEntity
  8
0
  6
Continuous
 62
     7
100
AcDbLine
 10
-75.38037766061673
 20
152.1750002894023
 30
0.0
 11
-75.38037766061673
 21
154.7250002894023
 31
0.0
  0
LINE
  5
F7
330
58
100
AcDbEntity
  8
0
  6
Continuous
 62
     7
100
AcDbLine
 10
-85.29556671160387
 20
141.5500002893805
 30
0.0
 11
-84.9303776606171
 21
144.5242264323226
 31
0.0
  0
LINE
  5
F8
330
58
100
AcDbEntity
  8
0
  6
Continuous
 62
     7
100
AcDbLine
 10
-87.06518860963786
 20
141.5500002894122
 30
0.0
 11
-87.43037766061973
 21
144.5242264323144
 31
0.0
  0
LINE
  5
F9
330
58
100
AcDbEntity
  8
0
  6
Continuous
 62
     7
100
AcDbLine
 10
-87.43037766061968
 20
150.6250002894023
 30
0.0
 11
-84.9303776606171
 21
150.6250002894023
 31
0.0
  0
LINE
  5
FA
330
58
100
AcDbEntity
  8
0
  6
Continuous
 62
     7
100
AcDbLine
 10
-88.43037766061772
 20
150.6250002894023
 30
0.0
 11
-87.43037766061968
 21
150.6250002894023
 31
0.0
  0
LINE
  5
FB
330
58
100
AcDbEntity
  8
0
  6
Continuous
 62
     7
100
AcDbLine
 10
-84.9303776606171
 20
150.6250002894023
 30
0.0
 11
-83.93037766061772
 21
150.6250002894023
 31
0.0
  0
LINE
  5
FC
330
58
100
AcDbEntity
  8
0
  6
Continuous
 62
     7
100
AcDbLine
 10
-87.06518860963786
 20
141.5500002894122
 30
0.0
 11
-85.29556671160387
 21
141.5500002893805
 31
0.0
  0
LINE
  5
FD
330
58
100
AcDbEntity
  8
0
  6
Continuous
 62
     7
100
AcDbLine
 10
-87.43037766061968
 20
150.6250002894023
 30
0.0
 11
-87.43037766061973
 21
144.5242264323144
 31
0.0
  0
LINE
  5
FE
330
58
100
AcDbEntity
  8
0
  6
Continuous
 62
     7
100
AcDbLine
 10
-84.9303776606171
 20
144.5242264323226
 30
0.0
 11
-84.9303776606171
 21
150.6250002894023
 31
0.0
  0
LINE
  5
FF
330
58
100
AcDbEntity
  8
0
  6
Continuous
 62
     7
100
AcDbLine
 10
-74.66518860962782
 20
141.5500002893733
 30
0.0
 11
-75.03037766061546
 21
144.5242264323227
 31
0.0
  0
LINE
  5
100
330
58
100
AcDbEntity
  8
0
  6
Continuous
 62
     7
100
AcDbLine
 10
-71.53037766061772
 20
158.2250002894023
 30
0.0
 11
-71.53037766061772
 21
154.7250002894023
 31
0.0
  0
LINE
  5
101
330
58
100
AcDbEntity
  8
0
  6
Continuous
 62
     7
100
AcDbLine
 10
-72.18037766061448
 20
154.7250002894023
 30
0.0
 11
-72.18037766061448
 21
152.1750002894023
 31
0.0
  0
LINE
  5
102
330
58
100
AcDbEntity
  8
0
  6
Continuous
 62
     7
100
AcDbLine
 10
-72.18037766061448
 20
152.1750002894023
 30
0.0
 11
-72.53037766061287
 21
151.8250002894039
 31
0.0
  0
LINE
  5
103
330
58
100
AcDbEntity
  8
0
  6
Continuous
 62
     7
100
AcDbLine
 10
-72.53037766061287
 20
144.5242264323167
 30
0.0
 11
-72.53037766061287
 21
151.8250002894039
 31
0.0
  0
LINE
  5
104
330
58
100
AcDbEntity
  8
0
  6
Continuous
 62
     7
100
AcDbLine
 10
-72.89556671159588
 20
141.550000289405
 30
0.0
 11
-72.53037766061287
 21
144.5242264323167
 31
0.0
  0
LINE
  5
105
330
58
100
AcDbEntity
  8
0
  6
Continuous
 62
     7
100
AcDbLine
 10
-74.66518860962782
 20
141.5500002893733
 30
0.0
 11
-72.89556671159588
 21
141.550000289405
 31
0.0
  0
LINE
  5
106
330
58
100
AcDbEntity
  8
0
  6
Continuous
 62
     7
100
AcDbLine
 10
-80.86518860963955
 20
141.550000289405
 30
0.0
 11
-81.23037766062257
 21
144.5242264323168
 31
0.0
  0
LINE
  5
107
330
58
100
AcDbEntity
  8
0
  6
Continuous
 62
     7
100
AcDbLine
 10
-82.23037766061773
 20
158.2250002894023
 30
0.0
 11
-82.23037766061773
 21
154.7250002894023
 31
0.0
  0
LINE
  5
108
330
58
100
AcDbEntity
  8
0
  6
Continuous
 62
     7
100
AcDbLine
 10
-83.93037766061772
 20
150.6250002894023
 30
0.0
 11
-83.93037766061772
 21
158.2250002894023
 31
0.0
  0
LINE
  5
109
330
58
100
AcDbEntity
  8
0
  6
Continuous
 62
     7
100
AcDbLine
 10
-80.86518860963955
 20
141.550000289405
 30
0.0
 11
-79.09556671160762
 21
141.5500002893733
 31
0.0
  0
LINE
  5
10A
330
58
100
AcDbEntity
  8
0
  6
Continuous
 62
     7
100
AcDbLine
 10
-81.23037766062257
 20
151.8250002894039
 30
0.0
 11
-81.23037766062257
 21
144.5242264323168
 31
0.0
  0
LINE
  5
10B
330
58
100
AcDbEntity
  8
0
  6
Continuous
 62
     7
100
AcDbLine
 10
-81.23037766062257
 20
151.8250002894039
 30
0.0
 11
-81.58037766062097
 21
152.1750002894023
 31
0.0
  0
LINE
  5
10C
330
58
100
AcDbEntity
  8
0
  6
Continuous
 62
     7
100
AcDbLine
 10
-81.58037766062097
 20
152.1750002894023
 30
0.0
 11
-81.58037766062097
 21
154.7250002894023
 31
0.0
  0
LINE
  5
10D
330
58
100
AcDbEntity
  8
0
  6
Continuous
 62
     7
100
AcDbLine
 10
-68.83037766061832
 20
144.5242264323226
 30
0.0
 11
-68.46518860963155
 21
141.5500002893805
 31
0.0
  0
LINE
  5
10E
330
58
100
AcDbEntity
  8
0
  6
Continuous
 62
     7
100
AcDbLine
 10
-68.83037766061832
 20
150.6250002894023
 30
0.0
 11
-68.83037766061832
 21
144.5242264323226
 31
0.0
  0
LINE
  5
10F
330
58
100
AcDbEntity
  8
0
  6
Continuous
 62
     7
100
AcDbLine
 10
-69.83037766061771
 20
150.6250002894023
 30
0.0
 11
-69.83037766061771
 21
158.2250002894023
 31
0.0
  0
ENDBLK
  5
5A
330
58
100
AcDbEntity
  8
0
100
AcDbBlockEnd
  0
BLOCK
  5
5D
330
5B
100
AcDbEntity
  8
0
100
AcDbBlockBegin
  2
SA_Links1
 70
     0
 10
-76.88037791122932
 20
152.8875002861223
 30
0.0
  3
SA_Links1
  1

  0
INSERT
  5
5C
330
5B
100
AcDbEntity
  8
0
100
AcDbBlockReference
  2
3030255_FBS_4-6_select__4
 10
-88.43037766061772
 20
141.5500002893733
 30
0.0
  0
MTEXT
  5
110
330
5B
100
AcDbEntity
  8
1
 62
     6
100
AcDbMText
 10
-76.88037791122946
 20
136.5500001907549
 30
0.0
 40
5.0
 41
0.0
 71
     2
 72
     1
  1
 
  7
CONVERTER_11
 73
     1
 44
1.32052821128451
  0
ENDBLK
  5
5E
330
5B
100
AcDbEntity
  8
0
100
AcDbBlockEnd
  0
BLOCK
  5
60
330
5F
100
AcDbEntity
  8
0
100
AcDbBlockBegin
  2
3030255_FBS_4-6_select__5
 70
     0
 10
-175.1000004413465
 20
141.5500002893733
 30
0.0
  3
3030255_FBS_4-6_select__5
  1

  0
LINE
  5
111
330
5F
100
AcDbEntity
  8
0
  6
Continuous
 62
     7
100
AcDbLine
 10
-161.7000004413442
 20
144.5242264323227
 30
0.0
 11
-161.3348113903566
 21
141.5500002893733
 31
0.0
  0
LINE
  5
112
330
5F
100
AcDbEntity
  8
0
  6
Continuous
 62
     7
100
AcDbLine
 10
-153.3651894923263
 20
141.5500002894122
 30
0.0
 11
-153.0000004413444
 21
144.5242264323144
 31
0.0
  0
LINE
  5
113
330
5F
100
AcDbEntity
  8
0
  6
Continuous
 62
     7
100
AcDbLine
 10
-152.0000004413464
 20
150.6250002894023
 30
0.0
 11
-152.0000004413464
 21
164.2250002894023
 31
0.0
  0
LINE
  5
114
330
5F
100
AcDbEntity
  8
0
  6
Continuous
 62
     7
100
AcDbLine
 10
-155.1348113903603
 20
141.5500002893805
 30
0.0
 11
-153.3651894923263
 21
141.5500002894122
 31
0.0
  0
LINE
  5
115
330
5F
100
AcDbEntity
  8
0
  6
Continuous
 62
     7
100
AcDbLine
 10
-153.0000004413445
 20
150.6250002894023
 30
0.0
 11
-153.0000004413444
 21
144.5242264323144
 31
0.0
  0
LINE
  5
116
330
5F
100
AcDbEntity
  8
0
  6
Continuous
 62
     7
100
AcDbLine
 10
-161.7000004413442
 20
151.825000289401
 30
0.0
 11
-161.7000004413442
 21
144.5242264323227
 31
0.0
  0
LINE
  5
117
330
5F
100
AcDbEntity
  8
0
  6
Continuous
 62
     7
100
AcDbLine
 10
-164.4000004413464
 20
158.2250002894023
 30
0.0
 11
-164.4000004413464
 21
154.7250002894023
 31
0.0
  0
LINE
  5
118
330
5F
100
AcDbEntity
  8
0
  6
Continuous
 62
     7
100
AcDbLine
 10
-171.6000004413458
 20
150.6250002894023
 30
0.0
 11
-174.1000004413484
 21
150.6250002894023
 31
0.0
  0
LINE
  5
119
330
5F
100
AcDbEntity
  8
0
  6
Continuous
 62
     7
100
AcDbLine
 10
-170.6000004413465
 20
150.6250002894023
 30
0.0
 11
-171.6000004413458
 21
150.6250002894023
 31
0.0
  0
LINE
  5
11A
330
5F
100
AcDbEntity
  8
0
  6
Continuous
 62
     7
100
AcDbLine
 10
-174.1000004413484
 20
150.6250002894023
 30
0.0
 11
-175.1000004413465
 21
150.6250002894023
 31
0.0
  0
LINE
  5
11B
330
5F
100
AcDbEntity
  8
0
  6
Continuous
 62
     7
100
AcDbLine
 10
-153.0000004413445
 20
150.6250002894023
 30
0.0
 11
-152.0000004413464
 21
150.6250002894023
 31
0.0
  0
LINE
  5
11C
330
5F
100
AcDbEntity
  8
0
  6
Continuous
 62
     7
100
AcDbLine
 10
-155.5000004413471
 20
150.6250002894023
 30
0.0
 11
-153.0000004413445
 21
150.6250002894023
 31
0.0
  0
LINE
  5
11D
330
5F
100
AcDbEntity
  8
0
  6
Continuous
 62
     7
100
AcDbLine
 10
-156.5000004413464
 20
150.6250002894023
 30
0.0
 11
-155.5000004413471
 21
150.6250002894023
 31
0.0
  0
LINE
  5
11E
330
5F
100
AcDbEntity
  8
0
  6
Continuous
 62
     7
100
AcDbLine
 10
-159.5651894923246
 20
141.550000289405
 30
0.0
 11
-159.2000004413416
 21
144.5242264323168
 31
0.0
  0
LINE
  5
11F
330
5F
100
AcDbEntity
  8
0
  6
Continuous
 62
     7
100
AcDbLine
 10
-155.5000004413471
 20
144.5242264323227
 30
0.0
 11
-155.1348113903603
 21
141.5500002893805
 31
0.0
  0
LINE
  5
120
330
5F
100
AcDbEntity
  8
0
  6
Continuous
 62
     7
100
AcDbLine
 10
-159.5651894923246
 20
141.550000289405
 30
0.0
 11
-161.3348113903566
 21
141.5500002893733
 31
0.0
  0
LINE
  5
121
330
5F
100
AcDbEntity
  8
0
  6
Continuous
 62
     7
100
AcDbLine
 10
-155.5000004413471
 20
144.5242264323227
 30
0.0
 11
-155.5000004413471
 21
150.6250002894023
 31
0.0
  0
LINE
  5
122
330
5F
100
AcDbEntity
  8
0
  6
Continuous
 62
     7
100
AcDbLine
 10
-159.2000004413416
 20
151.8250002894039
 30
0.0
 11
-159.2000004413416
 21
144.5242264323168
 31
0.0
  0
LINE
  5
123
330
5F
100
AcDbEntity
  8
0
  6
Continuous
 62
     7
100
AcDbLine
 10
-165.7651894923363
 20
141.5500002893733
 30
0.0
 11
-165.4000004413487
 21
144.5242264323227
 31
0.0
  0
LINE
  5
124
330
5F
100
AcDbEntity
  8
0
  6
Continuous
 62
     7
100
AcDbLine
 10
-167.5348113903683
 20
141.550000289405
 30
0.0
 11
-167.9000004413513
 21
144.5242264323168
 31
0.0
  0
LINE
  5
125
330
5F
100
AcDbEntity
  8
0
  6
Continuous
 62
     7
100
AcDbLine
 10
-168.9000004413464
 20
158.2250002894023
 30
0.0
 11
-168.9000004413464
 21
154.7250002894023
 31
0.0
  0
LINE
  5
126
330
5F
100
AcDbEntity
  8
0
  6
Continuous
 62
     7
100
AcDbLine
 10
-167.9000004413513
 20
144.5242264323168
 30
0.0
 11
-167.9000004413513
 21
151.8250002894039
 31
0.0
  0
LINE
  5
127
330
5F
100
AcDbEntity
  8
0
  6
Continuous
 62
     7
100
AcDbLine
 10
-168.2500004413497
 20
152.1750002894023
 30
0.0
 11
-167.9000004413513
 21
151.8250002894039
 31
0.0
  0
LINE
  5
128
330
5F
100
AcDbEntity
  8
0
  6
Continuous
 62
     7
100
AcDbLine
 10
-168.2500004413497
 20
154.7250002894023
 30
0.0
 11
-168.2500004413497
 21
152.1750002894023
 31
0.0
  0
LINE
  5
129
330
5F
100
AcDbEntity
  8
0
  6
Continuous
 62
     7
100
AcDbLine
 10
-165.7651894923363
 20
141.5500002893733
 30
0.0
 11
-167.5348113903683
 21
141.550000289405
 31
0.0
  0
LINE
  5
12A
330
5F
100
AcDbEntity
  8
0
  6
Continuous
 62
     7
100
AcDbLine
 10
-165.4000004413487
 20
144.5242264323227
 30
0.0
 11
-165.4000004413487
 21
151.825000289401
 31
0.0
  0
LINE
  5
12B
330
5F
100
AcDbEntity
  8
0
  6
Continuous
 62
     7
100
AcDbLine
 10
-165.4000004413487
 20
151.825000289401
 30
0.0
 11
-165.0500004413474
 21
152.1750002894023
 31
0.0
  0
LINE
  5
12C
330
5F
100
AcDbEntity
  8
0
  6
Continuous
 62
     7
100
AcDbLine
 10
-165.0500004413474
 20
152.1750002894023
 30
0.0
 11
-165.0500004413474
 21
154.7250002894023
 31
0.0
  0
LINE
  5
12D
330
5F
100
AcDbEntity
  8
0
  6
Continuous
 62
     7
100
AcDbLine
 10
-165.0500004413474
 20
154.7250002894023
 30
0.0
 11
-168.2500004413497
 21
154.7250002894023
 31
0.0
  0
LINE
  5
12E
330
5F
100
AcDbEntity
  8
0
  6
Continuous
 62
     7
100
AcDbLine
 10
-168.2500004413497
 20
154.7250002894023
 30
0.0
 11
-168.9000004413464
 21
154.7250002894023
 31
0.0
  0
LINE
  5
12F
330
5F
100
AcDbEntity
  8
0
  6
Continuous
 62
     7
100
AcDbLine
 10
-164.4000004413464
 20
154.7250002894023
 30
0.0
 11
-165.0500004413474
 21
154.7250002894023
 31
0.0
  0
LINE
  5
130
330
5F
100
AcDbEntity
  8
0
  6
Continuous
 62
     7
100
AcDbLine
 10
-162.0500004413455
 20
152.1750002894023
 30
0.0
 11
-161.7000004413442
 21
151.825000289401
 31
0.0
  0
LINE
  5
131
330
5F
100
AcDbEntity
  8
0
  6
Continuous
 62
     7
100
AcDbLine
 10
-162.7000004413465
 20
158.2250002894023
 30
0.0
 11
-162.7000004413465
 21
154.7250002894023
 31
0.0
  0
LINE
  5
132
330
5F
100
AcDbEntity
  8
0
  6
Continuous
 62
     7
100
AcDbLine
 10
-158.2000004413465
 20
158.2250002894023
 30
0.0
 11
-156.5000004413464
 21
158.2250002894023
 31
0.0
  0
LINE
  5
133
330
5F
100
AcDbEntity
  8
0
  6
Continuous
 62
     7
100
AcDbLine
 10
-158.2000004413465
 20
158.2250002894023
 30
0.0
 11
-158.2000004413465
 21
154.7250002894023
 31
0.0
  0
LINE
  5
134
330
5F
100
AcDbEntity
  8
0
  6
Continuous
 62
     7
100
AcDbLine
 10
-162.0500004413455
 20
154.7250002894023
 30
0.0
 11
-158.8500004413432
 21
154.7250002894023
 31
0.0
  0
LINE
  5
135
330
5F
100
AcDbEntity
  8
0
  6
Continuous
 62
     7
100
AcDbLine
 10
-162.7000004413465
 20
154.7250002894023
 30
0.0
 11
-162.0500004413455
 21
154.7250002894023
 31
0.0
  0
LINE
  5
136
330
5F
100
AcDbEntity
  8
0
  6
Continuous
 62
     7
100
AcDbLine
 10
-158.8500004413432
 20
154.7250002894023
 30
0.0
 11
-158.2000004413465
 21
154.7250002894023
 31
0.0
  0
LINE
  5
137
330
5F
100
AcDbEntity
  8
0
  6
Continuous
 62
     7
100
AcDbLine
 10
-156.5000004413464
 20
158.2250002894023
 30
0.0
 11
-156.5000004413464
 21
150.6250002894023
 31
0.0
  0
LINE
  5
138
330
5F
100
AcDbEntity
  8
0
  6
Continuous
 62
     7
100
AcDbLine
 10
-162.0500004413455
 20
154.7250002894023
 30
0.0
 11
-162.0500004413455
 21
152.1750002894023
 31
0.0
  0
LINE
  5
139
330
5F
100
AcDbEntity
  8
0
  6
Continuous
 62
     7
100
AcDbLine
 10
-158.8500004413432
 20
152.1750002894023
 30
0.0
 11
-158.8500004413432
 21
154.7250002894023
 31
0.0
  0
LINE
  5
13A
330
5F
100
AcDbEntity
  8
0
  6
Continuous
 62
     7
100
AcDbLine
 10
-159.2000004413416
 20
151.8250002894039
 30
0.0
 11
-158.8500004413432
 21
152.1750002894023
 31
0.0
  0
LINE
  5
13B
330
5F
100
AcDbEntity
  8
0
  6
Continuous
 62
     7
100
AcDbLine
 10
-173.7348113903666
 20
141.5500002894122
 30
0.0
 11
-174.1000004413484
 21
144.5242264323144
 31
0.0
  0
LINE
  5
13C
330
5F
100
AcDbEntity
  8
0
  6
Continuous
 62
     7
100
AcDbLine
 10
-175.1000004413465
 20
150.6250002894023
 30
0.0
 11
-175.1000004413465
 21
164.2250002894023
 31
0.0
  0
LINE
  5
13D
330
5F
100
AcDbEntity
  8
0
  6
Continuous
 62
     7
100
AcDbLine
 10
-174.1000004413484
 20
144.5242264323144
 30
0.0
 11
-174.1000004413484
 21
150.6250002894023
 31
0.0
  0
LINE
  5
13E
330
5F
100
AcDbEntity
  8
0
  6
Continuous
 62
     7
100
AcDbLine
 10
-152.0000004413464
 20
164.2250002894023
 30
0.0
 11
-175.1000004413465
 21
164.2250002894023
 31
0.0
  0
LINE
  5
13F
330
5F
100
AcDbEntity
  8
0
  6
Continuous
 62
     7
100
AcDbLine
 10
-164.4000004413464
 20
158.2250002894023
 30
0.0
 11
-162.7000004413465
 21
158.2250002894023
 31
0.0
  0
LINE
  5
140
330
5F
100
AcDbEntity
  8
0
  6
Continuous
 62
     7
100
AcDbLine
 10
-168.9000004413464
 20
158.2250002894023
 30
0.0
 11
-170.6000004413465
 21
158.2250002894023
 31
0.0
  0
LINE
  5
141
330
5F
100
AcDbEntity
  8
0
  6
Continuous
 62
     7
100
AcDbLine
 10
-171.9651894923326
 20
141.5500002893805
 30
0.0
 11
-173.7348113903666
 21
141.5500002894122
 31
0.0
  0
LINE
  5
142
330
5F
100
AcDbEntity
  8
0
  6
Continuous
 62
     7
100
AcDbLine
 10
-171.6000004413458
 20
144.5242264323227
 30
0.0
 11
-171.9651894923326
 21
141.5500002893805
 31
0.0
  0
LINE
  5
143
330
5F
100
AcDbEntity
  8
0
  6
Continuous
 62
     7
100
AcDbLine
 10
-171.6000004413458
 20
144.5242264323227
 30
0.0
 11
-171.6000004413458
 21
150.6250002894023
 31
0.0
  0
LINE
  5
144
330
5F
100
AcDbEntity
  8
0
  6
Continuous
 62
     7
100
AcDbLine
 10
-170.6000004413465
 20
158.2250002894023
 30
0.0
 11
-170.6000004413465
 21
150.6250002894023
 31
0.0
  0
ENDBLK
  5
61
330
5F
100
AcDbEntity
  8
0
100
AcDbBlockEnd
  0
BLOCK
  5
64
330
62
100
AcDbEntity
  8
0
100
AcDbBlockBegin
  2
SA_Rechts1
 70
     0
 10
-163.5500001907348
 20
152.8875002861223
 30
0.0
  3
SA_Rechts1
  1

  0
INSERT
  5
63
330
62
100
AcDbEntity
  8
0
100
AcDbBlockReference
  2
3030255_FBS_4-6_select__5
 10
-175.1000004413465
 20
141.5500002893733
 30
0.0
  0
MTEXT
  5
145
330
62
100
AcDbEntity
  8
1
 62
     6
100
AcDbMText
 10
-163.5500001907349
 20
136.5500001907549
 30
0.0
 40
5.0
 41
0.0
 71
     2
 72
     1
  1
 
  7
CONVERTER_11
 73
     1
 44
1.32052821128451
  0
DIMENSION
  5
150
330
62
100
AcDbEntity
  8
1
100
AcDbDimension
  2
*D16
 10
-152.0000004413464
 20
174.2250002894023
 30
0.0
 11
-164.018270374278
 21
178.1500002894023
 31
0.0
 70
    32
  1
<>
 71
     5
 42
-1.0
 53
0.00013888888889
  3
ME10_DIM_10
100
AcDbAlignedDimension
 13
-175.1000004413465
 23
164.2250002894023
 33
0.0
 14
-152.0000004413464
 24
164.2250002894023
 34
0.0
100
AcDbRotatedDimension
  0
DIMENSION
  5
15B
330
62
100
AcDbEntity
  8
1
100
AcDbDimension
  2
*D17
 10
-195.889262786998
 20
164.2250002894023
 30
0.0
 11
-199.639262786998
 21
153.422894584241
 31
0.0
 70
    32
  1
<>
 71
     5
 42
-1.0
 53
90.0
  3
ME10_DIM_11
100
AcDbAlignedDimension
 13
-173.7348113903666
 23
141.5500002894122
 33
0.0
 14
-175.1000004413465
 24
164.2250002894023
 34
0.0
 50
90.0
100
AcDbRotatedDimension
  0
DIMENSION
  5
166
330
62
100
AcDbEntity
  8
1
100
AcDbDimension
  2
*D18
 10
-185.220583123418
 20
150.6250002894023
 30
0.0
 11
-189.145583123418
 21
157.609338502861
 31
0.0
 70
    32
  1
<>
 71
     5
 42
-1.0
 53
90.0
  3
ME10_DIM_12
100
AcDbAlignedDimension
 13
-175.1000004413465
 23
164.2250002894023
 33
0.0
 14
-171.6000004413458
 24
150.6250002894023
 34
0.0
 50
90.0
100
AcDbRotatedDimension
  0
ENDBLK
  5
65
330
62
100
AcDbEntity
  8
0
100
AcDbBlockEnd
  0
BLOCK
  5
67
330
66
100
AcDbEntity
  8
0
100
AcDbBlockBegin
  2
3030255_FBS_4-6_select__6
 70
     0
 10
-121.4999999999999
 20
141.5500002893733
 30
0.0
  3
3030255_FBS_4-6_select__6
  1

  0
LINE
  5
167
330
66
100
AcDbEntity
  8
0
  6
Continuous
 62
     7
100
AcDbLine
 10
-120.7999999999902
 20
150.6250002894023
 30
0.0
 11
-120.7999999999902
 21
144.5242264323227
 31
0.0
  0
LINE
  5
168
330
66
100
AcDbEntity
  8
0
  6
Continuous
 62
     7
100
AcDbLine
 10
-121.4999999999999
 20
150.6250002894023
 30
0.0
 11
-121.4999999999999
 21
164.2250002894023
 31
0.0
  0
LINE
  5
169
330
66
100
AcDbEntity
  8
0
  6
Continuous
 62
     7
100
AcDbLine
 10
-119.1999999999902
 20
150.6250002894023
 30
0.0
 11
-119.1999999999902
 21
144.5242264323227
 31
0.0
  0
LINE
  5
16A
330
66
100
AcDbEntity
  8
0
  6
Continuous
 62
     7
100
AcDbLine
 10
-119.1999999999902
 20
144.5242264323227
 30
0.0
 11
-119.1999999999902
 21
141.5500002893733
 31
0.0
  0
LINE
  5
16B
330
66
100
AcDbEntity
  8
0
  6
Continuous
 62
     7
100
AcDbLine
 10
-119.1999999999902
 20
150.6250002894023
 30
0.0
 11
-120.7999999999902
 21
150.6250002894023
 31
0.0
  0
LINE
  5
16C
330
66
100
AcDbEntity
  8
0
  6
Continuous
 62
     7
100
AcDbLine
 10
-120.7999999999902
 20
150.6250002894023
 30
0.0
 11
-121.4999999999999
 21
150.6250002894023
 31
0.0
  0
LINE
  5
16D
330
66
100
AcDbEntity
  8
0
  6
Continuous
 62
     7
100
AcDbLine
 10
-118.4999999999999
 20
150.6250002894023
 30
0.0
 11
-119.1999999999902
 21
150.6250002894023
 31
0.0
  0
LINE
  5
16E
330
66
100
AcDbEntity
  8
0
  6
Continuous
 62
     7
100
AcDbLine
 10
-120.7999999999902
 20
144.5242264323227
 30
0.0
 11
-120.7999999999902
 21
141.5500002893733
 31
0.0
  0
LINE
  5
16F
330
66
100
AcDbEntity
  8
0
  6
Continuous
 62
     7
100
AcDbLine
 10
-119.1999999999902
 20
141.5500002893733
 30
0.0
 11
-120.7999999999902
 21
141.5500002893733
 31
0.0
  0
LINE
  5
170
330
66
100
AcDbEntity
  8
0
  6
Continuous
 62
     7
100
AcDbLine
 10
-119.1999999999902
 20
144.5242264323227
 30
0.0
 11
-120.7999999999902
 21
144.5242264323227
 31
0.0
  0
LINE
  5
171
330
66
100
AcDbEntity
  8
0
  6
Continuous
 62
     7
100
AcDbLine
 10
-118.4999999999999
 20
164.2250002894023
 30
0.0
 11
-118.4999999999999
 21
150.6250002894023
 31
0.0
  0
LINE
  5
172
330
66
100
AcDbEntity
  8
0
  6
Continuous
 62
     7
100
AcDbLine
 10
-121.4999999999999
 20
164.2250002894023
 30
0.0
 11
-118.4999999999999
 21
164.2250002894023
 31
0.0
  0
ENDBLK
  5
68
330
66
100
AcDbEntity
  8
0
100
AcDbBlockEnd
  0
BLOCK
  5
6B
330
69
100
AcDbEntity
  8
0
100
AcDbBlockBegin
  2
Vordans1
 70
     0
 10
-119.9999999999999
 20
152.8875002861223
 30
0.0
  3
Vordans1
  1

  0
INSERT
  5
6A
330
69
100
AcDbEntity
  8
0
100
AcDbBlockReference
  2
3030255_FBS_4-6_select__6
 10
-121.4999999999999
 20
141.5500002893733
 30
0.0
  0
MTEXT
  5
173
330
69
100
AcDbEntity
  8
1
 62
     6
100
AcDbMText
 10
-120.0
 20
136.5500001907549
 30
0.0
 40
5.0
 41
0.0
 71
     2
 72
     1
  1
 
  7
CONVERTER_11
 73
     1
 44
1.32052821128451
  0
DIMENSION
  5
180
330
69
100
AcDbEntity
  8
1
100
AcDbDimension
  2
*D19
 10
-119.1999999999902
 20
131.140209210942
 30
0.0
 11
-110.944965212419
 21
135.065209210942
 31
0.0
 70
    32
  1
<>
 71
     5
 42
-1.0
 53
0.00013888888889
  3
ME10_DIM_13
100
AcDbAlignedDimension
 13
-120.7999999999902
 23
141.5500002893733
 33
0.0
 14
-119.1999999999902
 24
141.5500002893733
 34
0.0
100
AcDbRotatedDimension
  0
DIMENSION
  5
18D
330
69
100
AcDbEntity
  8
1
100
AcDbDimension
  2
*D20
 10
-121.5
 20
174.2250002894023
 30
0.0
 11
-109.5145538622625
 21
177.9750002894023
 31
0.0
 70
    32
  1
<>
 71
     5
 42
-1.0
 53
0.00013888888889
  3
ME10_DIM_14
100
AcDbAlignedDimension
 13
-118.4999999999999
 23
164.2250002894023
 33
0.0
 14
-121.4999999999999
 24
164.2250002894023
 34
0.0
100
AcDbRotatedDimension
  0
ENDBLK
  5
6C
330
69
100
AcDbEntity
  8
0
100
AcDbBlockEnd
  0
BLOCK
  5
6E
330
6D
100
AcDbEntity
  8
0
100
AcDbBlockBegin
  2
_rahmen
 70
     0
 10
32.96449734960504
 20
7.95723463187099
 30
0.0
  3
_rahmen
  1

  0
POINT
  5
18E
330
6D
100
AcDbEntity
  8
1
 62
     3
 60
     1
100
AcDbPoint
 10
-30.53550265039258
 20
34.20723463187097
 30
0.0
  0
LINE
  5
18F
330
6D
100
AcDbEntity
  8
1
  6
Continuous
 62
     7
100
AcDbLine
 10
-30.53550265039258
 20
29.95723463187099
 30
0.0
 11
-30.53550265039258
 21
34.20723463187097
 31
0.0
  0
LINE
  5
190
330
6D
100
AcDbEntity
  8
1
  6
Continuous
 62
     6
100
AcDbLine
 10
-110.535502650395
 20
12.9572346318711
 30
0.0
 11
-110.080307177145
 21
12.95723463187099
 31
0.0
  0
LINE
  5
191
330
6D
100
AcDbEntity
  8
1
  6
Continuous
 62
     6
100
AcDbLine
 10
-160.5355026503951
 20
12.9572346318711
 30
0.0
 11
-199.3355026503951
 21
12.9572346318711
 31
0.0
  0
LINE
  5
192
330
6D
100
AcDbEntity
  8
1
  6
Continuous
 62
     6
100
AcDbLine
 10
-210.535502650395
 20
12.9572346318711
 30
0.0
 11
-199.3355026503951
 21
12.9572346318711
 31
0.0
  0
LINE
  5
193
330
6D
100
AcDbEntity
  8
1
  6
Continuous
 62
     6
100
AcDbLine
 10
-10.53550265039495
 20
12.9572346318711
 30
0.0
 11
32.96449734960504
 21
12.9572346318711
 31
0.0
  0
LINE
  5
194
330
6D
100
AcDbEntity
  8
1
  6
Continuous
 62
     6
100
AcDbLine
 10
-60.53550265039496
 20
12.9572346318711
 30
0.0
 11
-78.380307177145
 21
12.9572346318711
 31
0.0
  0
LINE
  5
195
330
6D
100
AcDbEntity
  8
1
  6
PHANTOM
 62
     2
100
AcDbLine
 10
-88.4610439623446
 20
27.83223463187099
 30
0.0
 11
-84.1454489931556
 21
27.83223463187099
 31
0.0
  0
LINE
  5
196
330
6D
100
AcDbEntity
  8
1
  6
PHANTOM
 62
     2
100
AcDbLine
 10
-91.4880473520416
 20
29.48223463187102
 30
0.0
 11
-91.4880473520416
 21
26.18223463187101
 31
0.0
  0
LINE
  5
197
330
6D
100
AcDbEntity
  8
1
  6
PHANTOM
 62
     2
100
AcDbLine
 10
-89.8380473520416
 20
27.83223463187099
 30
0.0
 11
-93.1380473520416
 21
27.83223463187099
 31
0.0
  0
LINE
  5
198
330
6D
100
AcDbEntity
  8
1
  6
Continuous
 62
     2
100
AcDbLine
 10
32.96449734960504
 20
12.9572346318711
 30
0.0
 11
37.96449734960405
 21
12.9572346318711
 31
0.0
  0
LINE
  5
199
330
6D
100
AcDbEntity
  8
1
  6
Continuous
 62
     2
100
AcDbLine
 10
32.96449734960504
 20
12.9572346318711
 30
0.0
 11
32.96449734960504
 21
7.95723463187099
 31
0.0
  0
LINE
  5
19A
330
6D
100
AcDbEntity
  8
1
  6
Continuous
 62
     7
100
AcDbLine
 10
-60.18030717714498
 20
25.70723463187099
 30
0.0
 11
-60.18030717714498
 21
29.95723463187099
 31
0.0
  0
LINE
  5
19B
330
6D
100
AcDbEntity
  8
1
  6
Continuous
 62
     7
100
AcDbLine
 10
-96.58030717714487
 20
25.70723463187099
 30
0.0
 11
-60.18030717714498
 21
25.70723463187099
 31
0.0
  0
LINE
  5
19C
330
6D
100
AcDbEntity
  8
1
  6
Continuous
 62
     2
100
AcDbLine
 10
37.96449734960405
 20
7.95723463187099
 30
0.0
 11
37.96449734960405
 21
12.9572346318711
 31
0.0
  0
LINE
  5
19D
330
6D
100
AcDbEntity
  8
1
  6
Continuous
 62
     2
100
AcDbLine
 10
37.96449734960405
 20
7.95723463187099
 30
0.0
 11
32.96449734960504
 21
7.95723463187099
 31
0.0
  0
LINE
  5
19E
330
6D
100
AcDbEntity
  8
1
  6
Continuous
 62
     2
100
AcDbLine
 10
32.96449734960504
 20
7.95723463187099
 30
0.0
 11
-10.53550265039495
 21
7.95723463187099
 31
0.0
  0
LINE
  5
19F
330
6D
100
AcDbEntity
  8
1
  6
Continuous
 62
     6
100
AcDbLine
 10
32.96449734960675
 20
42.70723463187099
 30
0.0
 11
32.96449734960595
 21
62.9572346318711
 31
0.0
  0
LINE
  5
1A0
330
6D
100
AcDbEntity
  8
1
  6
Continuous
 62
     2
100
AcDbLine
 10
37.96449734960405
 20
217.957234631871
 30
0.0
 11
-110.535502650395
 21
217.957234631871
 31
0.0
  0
LINE
  5
1A1
330
6D
100
AcDbEntity
  8
1
  6
Continuous
 62
     6
100
AcDbLine
 10
32.96449734960405
 20
197.957234631871
 30
0.0
 11
-254.0355026503941
 21
197.957234631871
 31
0.0
  0
LINE
  5
1A2
330
6D
100
AcDbEntity
  8
1
  6
Continuous
 62
     2
100
AcDbLine
 10
32.96449734960595
 20
62.9572346318711
 30
0.0
 11
37.96449734960405
 21
62.9572346318711
 31
0.0
  0
LINE
  5
1A3
330
6D
100
AcDbEntity
  8
1
  6
Continuous
 62
     6
100
AcDbLine
 10
32.96449734960595
 20
62.9572346318711
 30
0.0
 11
32.96449734960544
 21
112.9572346318709
 31
0.0
  0
LINE
  5
1A4
330
6D
100
AcDbEntity
  8
1
  6
Continuous
 62
     2
100
AcDbLine
 10
37.96449734960405
 20
62.9572346318711
 30
0.0
 11
37.96449734960405
 21
112.9572346318709
 31
0.0
  0
LINE
  5
1A5
330
6D
100
AcDbEntity
  8
1
  6
Continuous
 62
     2
100
AcDbLine
 10
32.96449734960544
 20
112.9572346318709
 30
0.0
 11
37.96449734960405
 21
112.9572346318709
 31
0.0
  0
LINE
  5
1A6
330
6D
100
AcDbEntity
  8
1
  6
Continuous
 62
     6
100
AcDbLine
 10
32.96449734960544
 20
112.9572346318709
 30
0.0
 11
32.96449734960433
 21
162.957234631871
 31
0.0
  0
LINE
  5
1A7
330
6D
100
AcDbEntity
  8
1
  6
Continuous
 62
     2
100
AcDbLine
 10
37.96449734960405
 20
112.9572346318709
 30
0.0
 11
37.96449734960405
 21
162.957234631871
 31
0.0
  0
LINE
  5
1A8
330
6D
100
AcDbEntity
  8
1
  6
Continuous
 62
     2
100
AcDbLine
 10
32.96449734960433
 20
162.957234631871
 30
0.0
 11
37.96449734960405
 21
162.957234631871
 31
0.0
  0
LINE
  5
1A9
330
6D
100
AcDbEntity
  8
1
  6
Continuous
 62
     6
100
AcDbLine
 10
32.96449734960433
 20
162.957234631871
 30
0.0
 11
32.96449734960405
 21
197.957234631871
 31
0.0
  0
LINE
  5
1AA
330
6D
100
AcDbEntity
  8
1
  6
Continuous
 62
     2
100
AcDbLine
 10
37.96449734960405
 20
162.957234631871
 30
0.0
 11
37.96449734960405
 21
217.957234631871
 31
0.0
  0
LINE
  5
1AB
330
6D
100
AcDbEntity
  8
1
  6
Continuous
 62
     2
100
AcDbLine
 10
37.96449734960405
 20
12.9572346318711
 30
0.0
 11
37.96449734960405
 21
62.9572346318711
 31
0.0
  0
LINE
  5
1AC
330
6D
100
AcDbEntity
  8
1
  6
Continuous
 62
     2
100
AcDbLine
 10
-110.535502650395
 20
217.957234631871
 30
0.0
 11
-259.0355026503941
 21
217.957234631871
 31
0.0
  0
LINE
  5
1AD
330
6D
100
AcDbEntity
  8
1
  6
Continuous
 62
     2
100
AcDbLine
 10
-110.535502650395
 20
217.957234631871
 30
0.0
 11
-110.535502650395
 21
208.7485427871697
 31
0.0
  0
LINE
  5
1AE
330
6D
100
AcDbEntity
  8
1
  6
Continuous
 62
     2
100
AcDbLine
 10
-259.0355026503941
 20
7.95723463187099
 30
0.0
 11
-254.035502650393
 21
7.95723463187099
 31
0.0
  0
LINE
  5
1AF
330
6D
100
AcDbEntity
  8
1
  6
Continuous
 62
     2
100
AcDbLine
 10
-259.0355026503941
 20
217.957234631871
 30
0.0
 11
-259.0355026503941
 21
162.957234631871
 31
0.0
  0
LINE
  5
1B0
330
6D
100
AcDbEntity
  8
1
  6
Continuous
 62
     6
100
AcDbLine
 10
-254.0355026503941
 20
197.957234631871
 30
0.0
 11
-254.0355026503939
 21
162.957234631871
 31
0.0
  0
LINE
  5
1B1
330
6D
100
AcDbEntity
  8
1
  6
Continuous
 62
     2
100
AcDbLine
 10
-259.0355026503941
 20
162.957234631871
 30
0.0
 11
-254.0355026503939
 21
162.957234631871
 31
0.0
  0
LINE
  5
1B2
330
6D
100
AcDbEntity
  8
1
  6
Continuous
 62
     2
100
AcDbLine
 10
-259.0355026503941
 20
162.957234631871
 30
0.0
 11
-259.0355026503941
 21
112.9572346318709
 31
0.0
  0
LINE
  5
1B3
330
6D
100
AcDbEntity
  8
1
  6
Continuous
 62
     6
100
AcDbLine
 10
-254.0355026503939
 20
162.957234631871
 30
0.0
 11
-254.0355026503935
 21
112.9572346318709
 31
0.0
  0
LINE
  5
1B4
330
6D
100
AcDbEntity
  8
1
  6
Continuous
 62
     2
100
AcDbLine
 10
-259.0355026503941
 20
112.9572346318709
 30
0.0
 11
-254.0355026503935
 21
112.9572346318709
 31
0.0
  0
LINE
  5
1B5
330
6D
100
AcDbEntity
  8
1
  6
Continuous
 62
     2
100
AcDbLine
 10
-259.0355026503941
 20
112.9572346318709
 30
0.0
 11
-259.0355026503941
 21
62.9572346318711
 31
0.0
  0
LINE
  5
1B6
330
6D
100
AcDbEntity
  8
1
  6
Continuous
 62
     6
100
AcDbLine
 10
-254.0355026503935
 20
112.9572346318709
 30
0.0
 11
-254.0355026503932
 21
62.9572346318711
 31
0.0
  0
LINE
  5
1B7
330
6D
100
AcDbEntity
  8
1
  6
Continuous
 62
     2
100
AcDbLine
 10
-259.0355026503941
 20
62.9572346318711
 30
0.0
 11
-254.0355026503932
 21
62.9572346318711
 31
0.0
  0
LINE
  5
1B8
330
6D
100
AcDbEntity
  8
1
  6
Continuous
 62
     2
100
AcDbLine
 10
-259.0355026503941
 20
62.9572346318711
 30
0.0
 11
-259.0355026503941
 21
12.9572346318711
 31
0.0
  0
LINE
  5
1B9
330
6D
100
AcDbEntity
  8
1
  6
Continuous
 62
     6
100
AcDbLine
 10
-254.0355026503932
 20
62.9572346318711
 30
0.0
 11
-254.035502650393
 21
12.9572346318711
 31
0.0
  0
LINE
  5
1BA
330
6D
100
AcDbEntity
  8
1
  6
Continuous
 62
     2
100
AcDbLine
 10
-210.535502650395
 20
7.95723463187099
 30
0.0
 11
-210.535502650395
 21
12.9572346318711
 31
0.0
  0
LINE
  5
1BB
330
6D
100
AcDbEntity
  8
1
  6
Continuous
 62
     2
100
AcDbLine
 10
-210.535502650395
 20
7.95723463187099
 30
0.0
 11
-160.5355026503951
 21
7.95723463187099
 31
0.0
  0
LINE
  5
1BC
330
6D
100
AcDbEntity
  8
1
  6
Continuous
 62
     2
100
AcDbLine
 10
-160.5355026503951
 20
7.95723463187099
 30
0.0
 11
-160.5355026503951
 21
12.9572346318711
 31
0.0
  0
LINE
  5
1BD
330
6D
100
AcDbEntity
  8
1
  6
Continuous
 62
     2
100
AcDbLine
 10
-160.5355026503951
 20
7.95723463187099
 30
0.0
 11
-110.535502650395
 21
7.95723463187099
 31
0.0
  0
LINE
  5
1BE
330
6D
100
AcDbEntity
  8
1
  6
Continuous
 62
     2
100
AcDbLine
 10
-110.535502650395
 20
7.95723463187099
 30
0.0
 11
-110.535502650395
 21
12.9572346318711
 31
0.0
  0
LINE
  5
1BF
330
6D
100
AcDbEntity
  8
1
  6
Continuous
 62
     2
100
AcDbLine
 10
-110.535502650395
 20
7.95723463187099
 30
0.0
 11
-60.53550265039496
 21
7.95723463187099
 31
0.0
  0
LINE
  5
1C0
330
6D
100
AcDbEntity
  8
1
  6
Continuous
 62
     2
100
AcDbLine
 10
-60.53550265039496
 20
7.95723463187099
 30
0.0
 11
-60.53550265039496
 21
12.9572346318711
 31
0.0
  0
LINE
  5
1C1
330
6D
100
AcDbEntity
  8
1
  6
Continuous
 62
     2
100
AcDbLine
 10
-10.53550265039495
 20
7.95723463187099
 30
0.0
 11
-10.53550265039495
 21
12.9572346318711
 31
0.0
  0
LINE
  5
1C2
330
6D
100
AcDbEntity
  8
1
  6
Continuous
 62
     2
100
AcDbLine
 10
-10.53550265039495
 20
7.95723463187099
 30
0.0
 11
-60.53550265039496
 21
7.95723463187099
 31
0.0
  0
LINE
  5
1C3
330
6D
100
AcDbEntity
  8
1
  6
Continuous
 62
     2
100
AcDbLine
 10
-254.035502650393
 20
12.9572346318711
 30
0.0
 11
-254.035502650393
 21
7.95723463187099
 31
0.0
  0
LINE
  5
1C4
330
6D
100
AcDbEntity
  8
1
  6
Continuous
 62
     2
100
AcDbLine
 10
-254.035502650393
 20
7.95723463187099
 30
0.0
 11
-210.535502650395
 21
7.95723463187099
 31
0.0
  0
LINE
  5
1C5
330
6D
100
AcDbEntity
  8
1
  6
Continuous
 62
     2
100
AcDbLine
 10
-254.035502650393
 20
12.9572346318711
 30
0.0
 11
-259.0355026503941
 21
12.9572346318711
 31
0.0
  0
LINE
  5
1C6
330
6D
100
AcDbEntity
  8
1
  6
Continuous
 62
     2
100
AcDbLine
 10
-259.0355026503941
 20
12.9572346318711
 30
0.0
 11
-259.0355026503941
 21
7.95723463187099
 31
0.0
  0
LINE
  5
1C7
330
6D
100
AcDbEntity
  8
1
  6
Continuous
 62
     7
100
AcDbLine
 10
-199.3355026503951
 20
17.2072346318711
 30
0.0
 11
-137.0803071771449
 21
17.2072346318711
 31
0.0
  0
LINE
  5
1C8
330
6D
100
AcDbEntity
  8
1
  6
Continuous
 62
     2
100
AcDbLine
 10
-199.3355026503951
 20
17.2072346318711
 30
0.0
 11
-199.3355026503951
 21
12.9572346318711
 31
0.0
  0
LINE
  5
1C9
330
6D
100
AcDbEntity
  8
1
  6
Continuous
 62
     2
100
AcDbLine
 10
-199.3355026503951
 20
21.45723463187099
 30
0.0
 11
-212.8355026503951
 21
21.45723463187099
 31
0.0
  0
LINE
  5
1CA
330
6D
100
AcDbEntity
  8
1
  6
Continuous
 62
     2
100
AcDbLine
 10
-199.3355026503951
 20
21.45723463187099
 30
0.0
 11
-199.3355026503951
 21
17.2072346318711
 31
0.0
  0
LINE
  5
1CB
330
6D
100
AcDbEntity
  8
1
  6
Continuous
 62
     2
100
AcDbLine
 10
-199.3355026503951
 20
29.95723463187099
 30
0.0
 11
-212.8355026503951
 21
29.95723463187099
 31
0.0
  0
LINE
  5
1CC
330
6D
100
AcDbEntity
  8
1
  6
Continuous
 62
     2
100
AcDbLine
 10
-199.3355026503951
 20
29.95723463187099
 30
0.0
 11
-199.3355026503951
 21
25.70723463187099
 31
0.0
  0
LINE
  5
1CD
330
6D
100
AcDbEntity
  8
1
  6
Continuous
 62
     2
100
AcDbLine
 10
-199.3355026503951
 20
25.70723463187099
 30
0.0
 11
-212.8355026503951
 21
25.70723463187099
 31
0.0
  0
LINE
  5
1CE
330
6D
100
AcDbEntity
  8
1
  6
Continuous
 62
     2
100
AcDbLine
 10
-199.3355026503951
 20
25.70723463187099
 30
0.0
 11
-199.3355026503951
 21
21.45723463187099
 31
0.0
  0
LINE
  5
1CF
330
6D
100
AcDbEntity
  8
1
  6
Continuous
 62
     2
100
AcDbLine
 10
-199.3355026503951
 20
38.45723463187099
 30
0.0
 11
-212.8355026503951
 21
38.45723463187099
 31
0.0
  0
LINE
  5
1D0
330
6D
100
AcDbEntity
  8
1
  6
Continuous
 62
     2
100
AcDbLine
 10
-199.3355026503951
 20
34.20723463187099
 30
0.0
 11
-212.8355026503951
 21
34.20723463187099
 31
0.0
  0
LINE
  5
1D1
330
6D
100
AcDbEntity
  8
1
  6
Continuous
 62
     2
100
AcDbLine
 10
-199.3355026503951
 20
34.20723463187099
 30
0.0
 11
-199.3355026503951
 21
29.95723463187099
 31
0.0
  0
LINE
  5
1D2
330
6D
100
AcDbEntity
  8
1
  6
Continuous
 62
     2
100
AcDbLine
 10
-199.3355026503951
 20
38.45723463187099
 30
0.0
 11
-199.3355026503951
 21
34.20723463187099
 31
0.0
  0
LINE
  5
1D3
330
6D
100
AcDbEntity
  8
1
  6
Continuous
 62
     6
100
AcDbLine
 10
-199.3355026503951
 20
42.70723463187099
 30
0.0
 11
-212.8355026503951
 21
42.70723463187099
 31
0.0
  0
LINE
  5
1D4
330
6D
100
AcDbEntity
  8
1
  6
Continuous
 62
     2
100
AcDbLine
 10
-199.3355026503951
 20
42.70723463187099
 30
0.0
 11
-199.3355026503951
 21
38.45723463187099
 31
0.0
  0
LINE
  5
1D5
330
6D
100
AcDbEntity
  8
1
  6
Continuous
 62
     6
100
AcDbLine
 10
32.96449734960504
 20
12.9572346318711
 30
0.0
 11
32.96449734960635
 21
21.45723463187099
 31
0.0
  0
LINE
  5
1D6
330
6D
100
AcDbEntity
  8
1
  6
Continuous
 62
     6
100
AcDbLine
 10
32.96449734960584
 20
34.20723463187099
 30
0.0
 11
32.96449734960683
 21
29.95723463187099
 31
0.0
  0
LINE
  5
1D7
330
6D
100
AcDbEntity
  8
1
  6
Continuous
 62
     6
100
AcDbLine
 10
-60.18030717714498
 20
12.95723463187099
 30
0.0
 11
-10.53550265039495
 21
12.9572346318711
 31
0.0
  0
LINE
  5
1D8
330
6D
100
AcDbEntity
  8
1
  6
Continuous
 62
     6
100
AcDbLine
 10
-96.58030717714487
 20
12.95723463187099
 30
0.0
 11
-78.380307177145
 21
12.9572346318711
 31
0.0
  0
LINE
  5
1D9
330
6D
100
AcDbEntity
  8
1
  6
Continuous
 62
     6
100
AcDbLine
 10
-212.8355026503951
 20
12.95723463187099
 30
0.0
 11
-210.535502650395
 21
12.9572346318711
 31
0.0
  0
LINE
  5
1DA
330
6D
100
AcDbEntity
  8
1
  6
Continuous
 62
     6
100
AcDbLine
 10
-137.0803071771449
 20
12.95723463187099
 30
0.0
 11
-160.5355026503951
 21
12.9572346318711
 31
0.0
  0
LINE
  5
1DB
330
6D
100
AcDbEntity
  8
1
  6
Continuous
 62
     6
100
AcDbLine
 10
32.96449734960675
 20
42.70723463187099
 30
0.0
 11
15.08290563128594
 21
42.70723463187099
 31
0.0
  0
LINE
  5
1DC
330
6D
100
AcDbEntity
  8
1
  6
Continuous
 62
     7
100
AcDbLine
 10
32.96449734960635
 20
21.45723463187099
 30
0.0
 11
-12.03550265039296
 21
21.45723463187099
 31
0.0
  0
LINE
  5
1DD
330
6D
100
AcDbEntity
  8
1
  6
Continuous
 62
     7
100
AcDbLine
 10
32.96449734960584
 20
34.20723463187099
 30
0.0
 11
15.08290563128594
 21
34.20723463187099
 31
0.0
  0
LINE
  5
1DE
330
6D
100
AcDbEntity
  8
1
  6
Continuous
 62
     7
100
AcDbLine
 10
-12.03550265039296
 20
29.95723463187099
 30
0.0
 11
32.96449734960683
 21
29.95723463187099
 31
0.0
  0
LINE
  5
1DF
330
6D
100
AcDbEntity
  8
1
  6
Continuous
 62
     2
100
AcDbLine
 10
-68.66330037442489
 20
20.57594211486972
 30
0.0
 11
-69.45008318290871
 21
20.57594211486972
 31
0.0
  0
LINE
  5
1E0
330
6D
100
AcDbEntity
  8
1
  6
Continuous
 62
     2
100
AcDbLine
 10
-68.66330037442489
 20
20.57594211486972
 30
0.0
 11
-68.66330037442489
 21
18.80723463187693
 31
0.0
  0
LINE
  5
1E1
330
6D
100
AcDbEntity
  8
1
  6
Continuous
 62
     2
100
AcDbLine
 10
-68.66330037442489
 20
18.80723463187693
 30
0.0
 11
-67.8129602383708
 21
18.80723463187693
 31
0.0
  0
LINE
  5
1E2
330
6D
100
AcDbEntity
  8
1
  6
Continuous
 62
     2
100
AcDbLine
 10
-67.8129602383708
 20
18.80723463187693
 30
0.0
 11
-67.8129602383708
 21
20.57594211486972
 31
0.0
  0
LINE
  5
1E3
330
6D
100
AcDbEntity
  8
1
  6
Continuous
 62
     2
100
AcDbLine
 10
-67.8129602383708
 20
20.57594211486972
 30
0.0
 11
-67.23472894585379
 21
20.57594211486972
 31
0.0
  0
LINE
  5
1E4
330
6D
100
AcDbEntity
  8
1
  6
Continuous
 62
     2
100
AcDbLine
 10
-67.23472894585379
 20
20.57594211486972
 30
0.0
 11
-67.23472894585379
 21
21.18818701283104
 31
0.0
  0
LINE
  5
1E5
330
6D
100
AcDbEntity
  8
1
  6
Continuous
 62
     2
100
AcDbLine
 10
-67.23472894585379
 20
21.18818701283104
 30
0.0
 11
-69.58168260078659
 21
21.18818701283104
 31
0.0
  0
LINE
  5
1E6
330
6D
100
AcDbEntity
  8
1
  6
Continuous
 62
     2
100
AcDbLine
 10
-69.61811642447981
 20
21.1881559293353
 30
0.0
 11
-69.58168260078659
 21
21.18818701283104
 31
0.0
  0
LINE
  5
1E7
330
6D
100
AcDbEntity
  8
1
  6
Continuous
 62
     2
100
AcDbLine
 10
-69.00139561251962
 20
19.5630590472002
 30
0.0
 11
-69.00139561251962
 21
18.91698553980419
 31
0.0
  0
LINE
  5
1E8
102
{ACAD_REACTORS
330
35F
330
35F
102
}
330
6D
100
AcDbEntity
  8
1
  6
Continuous
 62
     2
100
AcDbLine
 10
-68.7313275853081
 20
23.57719929617369
 30
0.0
 11
-68.30275615673742
 21
24.10723463186511
 31
0.0
  0
LINE
  5
1E9
102
{ACAD_REACTORS
330
35F
330
35F
102
}
330
6D
100
AcDbEntity
  8
1
  6
Continuous
 62
     2
100
AcDbLine
 10
-69.15989901388039
 20
24.10723463186511
 30
0.0
 11
-68.7313275853081
 21
23.57719929617369
 31
0.0
  0
LINE
  5
1EA
102
{ACAD_REACTORS
330
35F
330
35F
102
}
330
6D
100
AcDbEntity
  8
1
  6
Continuous
 62
     2
100
AcDbLine
 10
-69.15989901388039
 20
24.10723463186511
 30
0.0
 11
-70.15989901388039
 21
24.10723463186511
 31
0.0
  0
LINE
  5
1EB
102
{ACAD_REACTORS
330
35F
330
35F
102
}
330
6D
100
AcDbEntity
  8
1
  6
Continuous
 62
     2
100
AcDbLine
 10
-70.15989901388039
 20
24.10723463186511
 30
0.0
 11
-69.23132758530889
 21
22.95882473787063
 31
0.0
  0
LINE
  5
1EC
102
{ACAD_REACTORS
330
35F
330
35F
102
}
330
6D
100
AcDbEntity
  8
1
  6
Continuous
 62
     2
100
AcDbLine
 10
-70.22792622476481
 20
21.72628225091111
 30
0.0
 11
-69.23132758530889
 21
22.95882473787063
 31
0.0
  0
LINE
  5
1ED
102
{ACAD_REACTORS
330
35F
330
35F
102
}
330
6D
100
AcDbEntity
  8
1
  6
Continuous
 62
     2
100
AcDbLine
 10
-69.22792622476481
 20
21.72628225091111
 30
0.0
 11
-70.22792622476481
 21
21.72628225091111
 31
0.0
  0
LINE
  5
1EE
102
{ACAD_REACTORS
330
35F
330
35F
102
}
330
6D
100
AcDbEntity
  8
1
  6
Continuous
 62
     2
100
AcDbLine
 10
-69.22792622476481
 20
21.72628225091111
 30
0.0
 11
-68.7313275853081
 21
22.34045017956774
 31
0.0
  0
LINE
  5
1EF
102
{ACAD_REACTORS
330
35F
330
35F
102
}
330
6D
100
AcDbEntity
  8
1
  6
Continuous
 62
     2
100
AcDbLine
 10
-68.7313275853081
 20
22.34045017956774
 30
0.0
 11
-68.23472894585339
 21
21.72628225091111
 31
0.0
  0
LINE
  5
1F0
102
{ACAD_REACTORS
330
35F
330
35F
102
}
330
6D
100
AcDbEntity
  8
1
  6
Continuous
 62
     2
100
AcDbLine
 10
-68.23472894585339
 20
21.72628225091111
 30
0.0
 11
-67.23472894585339
 21
21.72628225091111
 31
0.0
  0
LINE
  5
1F1
102
{ACAD_REACTORS
330
35F
330
35F
102
}
330
6D
100
AcDbEntity
  8
1
  6
Continuous
 62
     2
100
AcDbLine
 10
-68.23132758530889
 20
22.95882473787063
 30
0.0
 11
-67.23472894585339
 21
21.72628225091111
 31
0.0
  0
LINE
  5
1F2
102
{ACAD_REACTORS
330
35F
330
35F
102
}
330
6D
100
AcDbEntity
  8
1
  6
Continuous
 62
     2
100
AcDbLine
 10
-68.23132758530889
 20
22.95882473787063
 30
0.0
 11
-67.30275615673742
 21
24.10723463186511
 31
0.0
  0
LINE
  5
1F3
102
{ACAD_REACTORS
330
35F
330
35F
102
}
330
6D
100
AcDbEntity
  8
1
  6
Continuous
 62
     2
100
AcDbLine
 10
-68.30275615673742
 20
24.10723463186511
 30
0.0
 11
-67.30275615673742
 21
24.10723463186511
 31
0.0
  0
LINE
  5
1F4
102
{ACAD_REACTORS
330
363
330
363
102
}
330
6D
100
AcDbEntity
  8
1
  6
Continuous
 62
     2
100
AcDbLine
 10
-71.49731397986679
 20
24.10723463186511
 30
0.0
 11
-70.6129602383694
 21
24.10723463186511
 31
0.0
  0
LINE
  5
1F5
102
{ACAD_REACTORS
330
363
330
363
102
}
330
6D
100
AcDbEntity
  8
1
  6
Continuous
 62
     2
100
AcDbLine
 10
-70.6129602383694
 20
21.72628225091111
 30
0.0
 11
-71.49731397986679
 21
21.72628225091111
 31
0.0
  0
LINE
  5
1F6
102
{ACAD_REACTORS
330
363
330
363
102
}
330
6D
100
AcDbEntity
  8
1
  6
Continuous
 62
     2
100
AcDbLine
 10
-70.6129602383694
 20
24.10723463186511
 30
0.0
 11
-70.6129602383694
 21
21.72628225091111
 31
0.0
  0
LINE
  5
1F7
330
6D
100
AcDbEntity
  8
1
  6
Continuous
 62
     7
100
AcDbLine
 10
-60.18030717714498
 20
38.45723463187099
 30
0.0
 11
-60.18030717714498
 21
34.20723463187099
 31
0.0
  0
LINE
  5
1F8
330
6D
100
AcDbEntity
  8
1
  6
Continuous
 62
     7
100
AcDbLine
 10
-73.68030717714498
 20
38.45723463187099
 30
0.0
 11
-60.18030717714498
 21
38.45723463187099
 31
0.0
  0
LINE
  5
1F9
330
6D
100
AcDbEntity
  8
1
  6
Continuous
 62
     7
100
AcDbLine
 10
-73.68030717714498
 20
38.45723463187099
 30
0.0
 11
-87.1803071771449
 21
38.45723463187099
 31
0.0
  0
LINE
  5
1FA
330
6D
100
AcDbEntity
  8
1
  6
Continuous
 62
     7
100
AcDbLine
 10
15.08290563128594
 20
34.20723463187099
 30
0.0
 11
15.08290563128594
 21
42.70723463187099
 31
0.0
  0
LINE
  5
1FB
330
6D
100
AcDbEntity
  8
1
  6
Continuous
 62
     6
100
AcDbLine
 10
6.16449734960674
 20
42.70723463187099
 30
0.0
 11
15.08290563128594
 21
42.70723463187099
 31
0.0
  0
LINE
  5
1FC
330
6D
100
AcDbEntity
  8
1
  6
Continuous
 62
     7
100
AcDbLine
 10
6.16449734960674
 20
42.70723463187099
 30
0.0
 11
6.16449734960705
 21
34.2072346318711
 31
0.0
  0
LINE
  5
1FD
330
6D
100
AcDbEntity
  8
1
  6
Continuous
 62
     7
100
AcDbLine
 10
-12.03550265039296
 20
21.45723463187099
 30
0.0
 11
-30.53550265039258
 21
21.45723463187099
 31
0.0
  0
LINE
  5
1FE
330
6D
100
AcDbEntity
  8
1
  6
Continuous
 62
     7
100
AcDbLine
 10
-12.03550265039296
 20
29.95723463187099
 30
0.0
 11
-12.03550265039296
 21
21.45723463187099
 31
0.0
  0
LINE
  5
1FF
330
6D
100
AcDbEntity
  8
1
  6
Continuous
 62
     2
100
AcDbLine
 10
-110.080307177145
 20
42.70723463187099
 30
0.0
 11
-110.080307177145
 21
38.45723463187099
 31
0.0
  0
LINE
  5
200
330
6D
100
AcDbEntity
  8
1
  6
Continuous
 62
     2
100
AcDbLine
 10
-123.5803071771449
 20
42.70723463187099
 30
0.0
 11
-123.5803071771449
 21
38.45723463187099
 31
0.0
  0
LINE
  5
201
330
6D
100
AcDbEntity
  8
1
  6
Continuous
 62
     6
100
AcDbLine
 10
-110.080307177145
 20
42.70723463187099
 30
0.0
 11
-123.5803071771449
 21
42.70723463187099
 31
0.0
  0
LINE
  5
202
330
6D
100
AcDbEntity
  8
1
  6
Continuous
 62
     6
100
AcDbLine
 10
-123.5803071771449
 20
42.70723463187099
 30
0.0
 11
-137.0803071771449
 21
42.70723463187099
 31
0.0
  0
LINE
  5
203
330
6D
100
AcDbEntity
  8
1
  6
Continuous
 62
     2
100
AcDbLine
 10
-137.0803071771449
 20
42.70723463187099
 30
0.0
 11
-137.0803071771449
 21
38.45723463187099
 31
0.0
  0
LINE
  5
204
330
6D
100
AcDbEntity
  8
1
  6
Continuous
 62
     7
100
AcDbLine
 10
-78.380307177145
 20
17.2072346318711
 30
0.0
 11
-78.380307177145
 21
12.9572346318711
 31
0.0
  0
LINE
  5
205
330
6D
100
AcDbEntity
  8
1
  6
Continuous
 62
     7
100
AcDbLine
 10
-78.380307177145
 20
17.2072346318711
 30
0.0
 11
-96.58030717714487
 21
17.2072346318711
 31
0.0
  0
LINE
  5
206
330
6D
100
AcDbEntity
  8
1
  6
Continuous
 62
     7
100
AcDbLine
 10
-73.68030717714498
 20
29.95723463187099
 30
0.0
 11
-87.1803071771449
 21
29.9572346318711
 31
0.0
  0
LINE
  5
207
330
6D
100
AcDbEntity
  8
1
  6
Continuous
 62
     7
100
AcDbLine
 10
-60.18030717714498
 20
17.2072346318711
 30
0.0
 11
-78.380307177145
 21
17.2072346318711
 31
0.0
  0
LINE
  5
208
330
6D
100
AcDbEntity
  8
1
  6
Continuous
 62
     6
100
AcDbLine
 10
-60.18030717714498
 20
42.70723463187099
 30
0.0
 11
-37.28030717714495
 21
42.70723463187099
 31
0.0
  0
LINE
  5
209
330
6D
100
AcDbEntity
  8
1
  6
Continuous
 62
     6
100
AcDbLine
 10
6.16449734960674
 20
42.70723463187099
 30
0.0
 11
-37.28030717714495
 21
42.70723463187099
 31
0.0
  0
LINE
  5
20A
330
6D
100
AcDbEntity
  8
1
  6
Continuous
 62
     7
100
AcDbLine
 10
-37.28030717714495
 20
42.70723463187099
 30
0.0
 11
-37.28030717714495
 21
34.20723463187093
 31
0.0
  0
LINE
  5
20B
330
6D
100
AcDbEntity
  8
1
  6
Continuous
 62
     6
100
AcDbLine
 10
-212.8355026503951
 20
42.70723463187099
 30
0.0
 11
-219.0355026503931
 21
42.70723463187099
 31
0.0
  0
LINE
  5
20C
330
6D
100
AcDbEntity
  8
1
  6
Continuous
 62
     6
100
AcDbLine
 10
-219.0355026503931
 20
12.9572346318711
 30
0.0
 11
-219.0355026503931
 21
17.2072346318711
 31
0.0
  0
LINE
  5
20D
330
6D
100
AcDbEntity
  8
1
  6
Continuous
 62
     6
100
AcDbLine
 10
-219.0355026503931
 20
17.2072346318711
 30
0.0
 11
-219.0355026503931
 21
21.45723463187099
 31
0.0
  0
LINE
  5
20E
330
6D
100
AcDbEntity
  8
1
  6
Continuous
 62
     7
100
AcDbLine
 10
-73.68030717714498
 20
34.20723463187099
 30
0.0
 11
-73.68030717714498
 21
29.95723463187099
 31
0.0
  0
LINE
  5
20F
330
6D
100
AcDbEntity
  8
1
  6
Continuous
 62
     7
100
AcDbLine
 10
-87.1803071771449
 20
34.20723463187099
 30
0.0
 11
-87.1803071771449
 21
29.9572346318711
 31
0.0
  0
LINE
  5
210
330
6D
100
AcDbEntity
  8
1
  6
Continuous
 62
     7
100
AcDbLine
 10
-73.68030717714498
 20
34.20723463187099
 30
0.0
 11
-87.1803071771449
 21
34.20723463187099
 31
0.0
  0
LINE
  5
211
330
6D
100
AcDbEntity
  8
1
  6
Continuous
 62
     2
100
AcDbLine
 10
-96.58030717714487
 20
29.95723463187099
 30
0.0
 11
-110.080307177145
 21
29.95723463187099
 31
0.0
  0
LINE
  5
212
330
6D
100
AcDbEntity
  8
1
  6
Continuous
 62
     2
100
AcDbLine
 10
-212.8355026503951
 20
29.95723463187099
 30
0.0
 11
-212.8355026503951
 21
34.20723463187099
 31
0.0
  0
LINE
  5
213
330
6D
100
AcDbEntity
  8
1
  6
Continuous
 62
     2
100
AcDbLine
 10
-212.8355026503951
 20
29.95723463187099
 30
0.0
 11
-219.0355026503931
 21
29.95723463187099
 31
0.0
  0
LINE
  5
214
330
6D
100
AcDbEntity
  8
1
  6
Continuous
 62
     2
100
AcDbLine
 10
-96.58030717714487
 20
34.20723463187099
 30
0.0
 11
-110.080307177145
 21
34.20723463187099
 31
0.0
  0
LINE
  5
215
330
6D
100
AcDbEntity
  8
1
  6
Continuous
 62
     2
100
AcDbLine
 10
-212.8355026503951
 20
34.20723463187099
 30
0.0
 11
-212.8355026503951
 21
38.45723463187099
 31
0.0
  0
LINE
  5
216
330
6D
100
AcDbEntity
  8
1
  6
Continuous
 62
     2
100
AcDbLine
 10
-96.58030717714487
 20
38.45723463187099
 30
0.0
 11
-110.080307177145
 21
38.45723463187099
 31
0.0
  0
LINE
  5
217
330
6D
100
AcDbEntity
  8
1
  6
Continuous
 62
     2
100
AcDbLine
 10
-212.8355026503951
 20
38.45723463187099
 30
0.0
 11
-212.8355026503951
 21
42.70723463187099
 31
0.0
  0
LINE
  5
218
330
6D
100
AcDbEntity
  8
1
  6
Continuous
 62
     2
100
AcDbLine
 10
-212.8355026503951
 20
38.45723463187099
 30
0.0
 11
-219.0355026503931
 21
38.45723463187099
 31
0.0
  0
LINE
  5
219
330
6D
100
AcDbEntity
  8
1
  6
Continuous
 62
     6
100
AcDbLine
 10
-96.58030717714487
 20
42.70723463187099
 30
0.0
 11
-110.080307177145
 21
42.70723463187099
 31
0.0
  0
LINE
  5
21A
330
6D
100
AcDbEntity
  8
1
  6
Continuous
 62
     2
100
AcDbLine
 10
-96.58030717714487
 20
21.45723463187099
 30
0.0
 11
-110.080307177145
 21
21.45723463187099
 31
0.0
  0
LINE
  5
21B
330
6D
100
AcDbEntity
  8
1
  6
Continuous
 62
     2
100
AcDbLine
 10
-96.58030717714487
 20
25.70723463187099
 30
0.0
 11
-110.080307177145
 21
25.70723463187099
 31
0.0
  0
LINE
  5
21C
330
6D
100
AcDbEntity
  8
1
  6
Continuous
 62
     2
100
AcDbLine
 10
-212.8355026503951
 20
21.45723463187099
 30
0.0
 11
-212.8355026503951
 21
25.70723463187099
 31
0.0
  0
LINE
  5
21D
330
6D
100
AcDbEntity
  8
1
  6
Continuous
 62
     2
100
AcDbLine
 10
-212.8355026503951
 20
25.70723463187099
 30
0.0
 11
-212.8355026503951
 21
29.95723463187099
 31
0.0
  0
LINE
  5
21E
330
6D
100
AcDbEntity
  8
1
  6
Continuous
 62
     7
100
AcDbLine
 10
-212.8355026503951
 20
17.2072346318711
 30
0.0
 11
-199.3355026503951
 21
17.2072346318711
 31
0.0
  0
LINE
  5
21F
330
6D
100
AcDbEntity
  8
1
  6
Continuous
 62
     2
100
AcDbLine
 10
-212.8355026503951
 20
17.2072346318711
 30
0.0
 11
-212.8355026503951
 21
21.45723463187099
 31
0.0
  0
LINE
  5
220
330
6D
100
AcDbEntity
  8
1
  6
Continuous
 62
     7
100
AcDbLine
 10
-60.18030717714498
 20
21.45723463187099
 30
0.0
 11
-60.18030717714498
 21
25.70723463187099
 31
0.0
  0
LINE
  5
221
330
6D
100
AcDbEntity
  8
1
  6
Continuous
 62
     6
100
AcDbLine
 10
-73.68030717714498
 20
42.70723463187099
 30
0.0
 11
-60.18030717714498
 21
42.70723463187099
 31
0.0
  0
LINE
  5
222
330
6D
100
AcDbEntity
  8
1
  6
Continuous
 62
     7
100
AcDbLine
 10
-60.18030717714498
 20
42.70723463187099
 30
0.0
 11
-60.18030717714498
 21
38.45723463187099
 31
0.0
  0
LINE
  5
223
330
6D
100
AcDbEntity
  8
1
  6
Continuous
 62
     6
100
AcDbLine
 10
-87.1803071771449
 20
42.70723463187099
 30
0.0
 11
-73.68030717714498
 21
42.70723463187099
 31
0.0
  0
LINE
  5
224
330
6D
100
AcDbEntity
  8
1
  6
Continuous
 62
     7
100
AcDbLine
 10
-96.58030717714487
 20
29.95723463187099
 30
0.0
 11
-96.58030717714487
 21
25.70723463187099
 31
0.0
  0
LINE
  5
225
330
6D
100
AcDbEntity
  8
1
  6
Continuous
 62
     7
100
AcDbLine
 10
-96.58030717714487
 20
34.20723463187099
 30
0.0
 11
-96.58030717714487
 21
29.95723463187099
 31
0.0
  0
LINE
  5
226
330
6D
100
AcDbEntity
  8
1
  6
Continuous
 62
     2
100
AcDbLine
 10
-219.0355026503931
 20
34.20723463187099
 30
0.0
 11
-212.8355026503951
 21
34.20723463187099
 31
0.0
  0
LINE
  5
227
330
6D
100
AcDbEntity
  8
1
  6
Continuous
 62
     7
100
AcDbLine
 10
-96.58030717714487
 20
38.45723463187099
 30
0.0
 11
-96.58030717714487
 21
34.20723463187099
 31
0.0
  0
LINE
  5
228
330
6D
100
AcDbEntity
  8
1
  6
Continuous
 62
     7
100
AcDbLine
 10
-60.18030717714498
 20
34.20723463187099
 30
0.0
 11
-60.18030717714498
 21
29.95723463187099
 31
0.0
  0
LINE
  5
229
330
6D
100
AcDbEntity
  8
1
  6
Continuous
 62
     7
100
AcDbLine
 10
-73.68030717714498
 20
42.70723463187099
 30
0.0
 11
-73.68030717714498
 21
38.45723463187099
 31
0.0
  0
LINE
  5
22A
330
6D
100
AcDbEntity
  8
1
  6
Continuous
 62
     7
100
AcDbLine
 10
-87.1803071771449
 20
42.70723463187099
 30
0.0
 11
-87.1803071771449
 21
38.45723463187099
 31
0.0
  0
LINE
  5
22B
330
6D
100
AcDbEntity
  8
1
  6
Continuous
 62
     2
100
AcDbLine
 10
-212.8355026503951
 20
12.95723463187099
 30
0.0
 11
-212.8355026503951
 21
17.2072346318711
 31
0.0
  0
LINE
  5
22C
330
6D
100
AcDbEntity
  8
1
  6
Continuous
 62
     2
100
AcDbLine
 10
-219.0355026503931
 20
21.45723463187099
 30
0.0
 11
-212.8355026503951
 21
21.45723463187099
 31
0.0
  0
LINE
  5
22D
330
6D
100
AcDbEntity
  8
1
  6
Continuous
 62
     2
100
AcDbLine
 10
-219.0355026503931
 20
25.70723463187099
 30
0.0
 11
-212.8355026503951
 21
25.70723463187099
 31
0.0
  0
LINE
  5
22E
330
6D
100
AcDbEntity
  8
1
  6
Continuous
 62
     7
100
AcDbLine
 10
-219.0355026503931
 20
17.2072346318711
 30
0.0
 11
-212.8355026503951
 21
17.2072346318711
 31
0.0
  0
LINE
  5
22F
330
6D
100
AcDbEntity
  8
1
  6
Continuous
 62
     7
100
AcDbLine
 10
-60.18030717714498
 20
21.45723463187099
 30
0.0
 11
-60.18030717714498
 21
17.2072346318711
 31
0.0
  0
LINE
  5
230
330
6D
100
AcDbEntity
  8
1
  6
Continuous
 62
     7
100
AcDbLine
 10
-96.58030717714487
 20
25.70723463187099
 30
0.0
 11
-96.58030717714487
 21
21.45723463187099
 31
0.0
  0
LINE
  5
231
330
6D
100
AcDbEntity
  8
1
  6
Continuous
 62
     7
100
AcDbLine
 10
-96.58030717714487
 20
21.45723463187099
 30
0.0
 11
-96.58030717714487
 21
17.2072346318711
 31
0.0
  0
LINE
  5
232
330
6D
100
AcDbEntity
  8
1
  6
Continuous
 62
     7
100
AcDbLine
 10
-73.68030717714498
 20
38.45723463187099
 30
0.0
 11
-73.68030717714498
 21
34.20723463187099
 31
0.0
  0
LINE
  5
233
330
6D
100
AcDbEntity
  8
1
  6
Continuous
 62
     7
100
AcDbLine
 10
-87.1803071771449
 20
38.45723463187099
 30
0.0
 11
-87.1803071771449
 21
34.20723463187099
 31
0.0
  0
LINE
  5
234
330
6D
100
AcDbEntity
  8
1
  6
Continuous
 62
     7
100
AcDbLine
 10
-96.58030717714487
 20
34.20723463187099
 30
0.0
 11
-87.1803071771449
 21
34.20723463187099
 31
0.0
  0
LINE
  5
235
330
6D
100
AcDbEntity
  8
1
  6
Continuous
 62
     7
100
AcDbLine
 10
-60.18030717714498
 20
29.95723463187099
 30
0.0
 11
-73.68030717714498
 21
29.95723463187099
 31
0.0
  0
LINE
  5
236
330
6D
100
AcDbEntity
  8
1
  6
Continuous
 62
     7
100
AcDbLine
 10
-60.18030717714498
 20
17.2072346318711
 30
0.0
 11
-60.18030717714498
 21
12.95723463187099
 31
0.0
  0
LINE
  5
237
330
6D
100
AcDbEntity
  8
1
  6
Continuous
 62
     7
100
AcDbLine
 10
-96.58030717714487
 20
17.2072346318711
 30
0.0
 11
-96.58030717714487
 21
12.95723463187099
 31
0.0
  0
LINE
  5
238
330
6D
100
AcDbEntity
  8
1
  6
Continuous
 62
     7
100
AcDbLine
 10
-96.58030717714487
 20
42.70723463187099
 30
0.0
 11
-96.58030717714487
 21
38.45723463187099
 31
0.0
  0
LINE
  5
239
330
6D
100
AcDbEntity
  8
1
  6
Continuous
 62
     7
100
AcDbLine
 10
-60.18030717714498
 20
21.45723463187099
 30
0.0
 11
-30.53550265039258
 21
21.45723463187099
 31
0.0
  0
LINE
  5
23A
330
6D
100
AcDbEntity
  8
1
  6
Continuous
 62
     7
100
AcDbLine
 10
-60.18030717714498
 20
29.95723463187099
 30
0.0
 11
-30.53550265039258
 21
29.95723463187099
 31
0.0
  0
LINE
  5
23B
330
6D
100
AcDbEntity
  8
1
  6
Continuous
 62
     7
100
AcDbLine
 10
6.16449734960705
 20
34.2072346318711
 30
0.0
 11
15.08290563128594
 21
34.20723463187099
 31
0.0
  0
LINE
  5
23C
330
6D
100
AcDbEntity
  8
1
  6
Continuous
 62
     2
100
AcDbLine
 10
-81.88098744925371
 20
19.62356116248904
 30
0.0
 11
-81.88098744925371
 21
18.9432890536456
 31
0.0
  0
LINE
  5
23D
330
6D
100
AcDbEntity
  8
1
  6
Continuous
 62
     2
100
AcDbLine
 10
-81.88098744925371
 20
20.37186048221892
 30
0.0
 11
-81.88098744925371
 21
21.05213259106219
 31
0.0
  0
LINE
  5
23E
102
{ACAD_REACTORS
330
366
330
366
102
}
330
6D
100
AcDbEntity
  8
1
  6
Continuous
 62
     2
100
AcDbLine
 10
-80.1864955309608
 20
18.80723463187693
 30
0.0
 11
-80.2885363472881
 21
18.80723463187693
 31
0.0
  0
LINE
  5
23F
102
{ACAD_REACTORS
330
366
330
366
102
}
330
6D
100
AcDbEntity
  8
1
  6
Continuous
 62
     2
100
AcDbLine
 10
-80.2885363472881
 20
21.18818701283104
 30
0.0
 11
-80.1864955309608
 21
21.18818701283104
 31
0.0
  0
LINE
  5
240
102
{ACAD_REACTORS
330
367
330
367
102
}
330
6D
100
AcDbEntity
  8
1
  6
Continuous
 62
     2
100
AcDbLine
 10
-77.0633442223269
 20
21.72628225091111
 30
0.0
 11
-77.165385038653
 21
21.72628225091111
 31
0.0
  0
LINE
  5
241
102
{ACAD_REACTORS
330
367
330
367
102
}
330
6D
100
AcDbEntity
  8
1
  6
Continuous
 62
     2
100
AcDbLine
 10
-75.0224840478937
 20
21.72628225091111
 30
0.0
 11
-77.0633442223269
 21
21.72628225091111
 31
0.0
  0
LINE
  5
242
102
{ACAD_REACTORS
330
367
330
367
102
}
330
6D
100
AcDbEntity
  8
1
  6
Continuous
 62
     2
100
AcDbLine
 10
-75.0224840478937
 20
21.72628225091111
 30
0.0
 11
-75.0224840478937
 21
22.27049993798582
 31
0.0
  0
LINE
  5
243
102
{ACAD_REACTORS
330
367
330
367
102
}
330
6D
100
AcDbEntity
  8
1
  6
Continuous
 62
     2
100
AcDbLine
 10
-75.0224840478937
 20
22.27049993798582
 30
0.0
 11
-75.974865000275
 21
22.27049993798582
 31
0.0
  0
LINE
  5
244
102
{ACAD_REACTORS
330
367
330
367
102
}
330
6D
100
AcDbEntity
  8
1
  6
Continuous
 62
     2
100
AcDbLine
 10
-75.974865000275
 20
22.27049993798582
 30
0.0
 11
-75.974865000275
 21
22.6446495978507
 31
0.0
  0
LINE
  5
245
102
{ACAD_REACTORS
330
367
330
367
102
}
330
6D
100
AcDbEntity
  8
1
  6
Continuous
 62
     2
100
AcDbLine
 10
-75.974865000275
 20
22.6446495978507
 30
0.0
 11
-75.0224840478937
 21
22.6446495978507
 31
0.0
  0
LINE
  5
246
102
{ACAD_REACTORS
330
367
330
367
102
}
330
6D
100
AcDbEntity
  8
1
  6
Continuous
 62
     2
100
AcDbLine
 10
-75.0224840478937
 20
22.6446495978507
 30
0.0
 11
-75.0224840478937
 21
23.18886728492552
 31
0.0
  0
LINE
  5
247
102
{ACAD_REACTORS
330
367
330
367
102
}
330
6D
100
AcDbEntity
  8
1
  6
Continuous
 62
     2
100
AcDbLine
 10
-75.0224840478937
 20
23.18886728492552
 30
0.0
 11
-75.974865000275
 21
23.18886728492552
 31
0.0
  0
LINE
  5
248
102
{ACAD_REACTORS
330
367
330
367
102
}
330
6D
100
AcDbEntity
  8
1
  6
Continuous
 62
     2
100
AcDbLine
 10
-75.974865000275
 20
23.18886728492552
 30
0.0
 11
-75.974865000275
 21
23.56301694479052
 31
0.0
  0
LINE
  5
249
102
{ACAD_REACTORS
330
367
330
367
102
}
330
6D
100
AcDbEntity
  8
1
  6
Continuous
 62
     2
100
AcDbLine
 10
-75.974865000275
 20
23.56301694479052
 30
0.0
 11
-75.0224840478937
 21
23.56301694479052
 31
0.0
  0
LINE
  5
24A
102
{ACAD_REACTORS
330
367
330
367
102
}
330
6D
100
AcDbEntity
  8
1
  6
Continuous
 62
     2
100
AcDbLine
 10
-75.0224840478937
 20
23.56301694479052
 30
0.0
 11
-75.0224840478937
 21
24.10723463186511
 31
0.0
  0
LINE
  5
24B
102
{ACAD_REACTORS
330
367
330
367
102
}
330
6D
100
AcDbEntity
  8
1
  6
Continuous
 62
     2
100
AcDbLine
 10
-75.0224840478937
 20
24.10723463186511
 30
0.0
 11
-77.0633442223269
 21
24.10723463186511
 31
0.0
  0
LINE
  5
24C
102
{ACAD_REACTORS
330
367
330
367
102
}
330
6D
100
AcDbEntity
  8
1
  6
Continuous
 62
     2
100
AcDbLine
 10
-77.165385038653
 20
24.10723463186511
 30
0.0
 11
-77.0633442223269
 21
24.10723463186511
 31
0.0
  0
LINE
  5
24D
102
{ACAD_REACTORS
330
369
330
369
102
}
330
6D
100
AcDbEntity
  8
1
  6
Continuous
 62
     2
100
AcDbLine
 10
-86.5092187417705
 20
20.0961235207661
 30
0.0
 11
-86.5499594825109
 21
20.0961235207661
 31
0.0
  0
LINE
  5
24E
102
{ACAD_REACTORS
330
369
330
369
102
}
330
6D
100
AcDbEntity
  8
1
  6
Continuous
 62
     2
100
AcDbLine
 10
-86.5092187417705
 20
23.55908648372869
 30
0.0
 11
-86.5499594825109
 21
23.55908648372869
 31
0.0
  0
LINE
  5
24F
102
{ACAD_REACTORS
330
369
330
369
102
}
330
6D
100
AcDbEntity
  8
1
  6
Continuous
 62
     2
100
AcDbLine
 10
-86.8147742973251
 20
23.29427166891961
 30
0.0
 11
-86.8147742973251
 21
22.80027685594641
 31
0.0
  0
LINE
  5
250
102
{ACAD_REACTORS
330
369
330
369
102
}
330
6D
100
AcDbEntity
  8
1
  6
Continuous
 62
     2
100
AcDbLine
 10
-86.8147742973251
 20
20.36093833557064
 30
0.0
 11
-86.8147742973251
 21
20.8549331485348
 31
0.0
  0
LINE
  5
251
102
{ACAD_REACTORS
330
369
330
369
102
}
330
6D
100
AcDbEntity
  8
1
  6
Continuous
 62
     2
100
AcDbLine
 10
-89.055515038066
 20
23.29427166891961
 30
0.0
 11
-89.055515038066
 21
19.5461235207587
 31
0.0
  0
LINE
  5
252
102
{ACAD_REACTORS
330
369
330
369
102
}
330
6D
100
AcDbEntity
  8
1
  6
Continuous
 62
     2
100
AcDbLine
 10
-87.4869965195476
 20
19.28130870595411
 30
0.0
 11
-88.790700223252
 21
19.28130870595411
 31
0.0
  0
LINE
  5
253
102
{ACAD_REACTORS
330
369
330
369
102
}
330
6D
100
AcDbEntity
  8
1
  6
Continuous
 62
     2
100
AcDbLine
 10
-87.2221817047325
 20
20.85493314854372
 30
0.0
 11
-87.2221817047325
 21
19.5461235207587
 31
0.0
  0
LINE
  5
254
102
{ACAD_REACTORS
330
369
330
369
102
}
330
6D
100
AcDbEntity
  8
1
  6
Continuous
 62
     2
100
AcDbLine
 10
-87.2221817047325
 20
23.2942716689104
 30
0.0
 11
-87.2221817047325
 21
22.80027685594641
 31
0.0
  0
LINE
  5
255
102
{ACAD_REACTORS
330
369
330
369
102
}
330
6D
100
AcDbEntity
  8
1
  6
Continuous
 62
     2
100
AcDbLine
 10
-88.790700223252
 20
23.55908648372869
 30
0.0
 11
-87.4869965195476
 21
23.55908648372869
 31
0.0
  0
LINE
  5
256
102
{ACAD_REACTORS
330
369
330
369
102
}
330
6D
100
AcDbEntity
  8
1
  6
Continuous
 62
     2
100
AcDbLine
 10
-89.19255207510291
 20
24.10723463186511
 30
0.0
 11
-84.6592187417696
 21
24.10723463186511
 31
0.0
  0
LINE
  5
257
102
{ACAD_REACTORS
330
369
330
369
102
}
330
6D
100
AcDbEntity
  8
1
  6
Continuous
 62
     2
100
AcDbLine
 10
-89.52588540843651
 20
23.77390129853214
 30
0.0
 11
-89.52588540843651
 21
19.1405679652099
 31
0.0
  0
LINE
  5
258
102
{ACAD_REACTORS
330
369
330
369
102
}
330
6D
100
AcDbEntity
  8
1
  6
Continuous
 62
     2
100
AcDbLine
 10
-84.6592187417696
 20
18.80723463187693
 30
0.0
 11
-89.19255207510291
 21
18.80723463187693
 31
0.0
  0
LINE
  5
259
102
{ACAD_REACTORS
330
369
330
369
102
}
330
6D
100
AcDbEntity
  8
1
  6
Continuous
 62
     2
100
AcDbLine
 10
-84.3258854084369
 20
23.77390129853214
 30
0.0
 11
-84.3258854084369
 21
19.1405679652099
 31
0.0
  0
LINE
  5
25A
102
{ACAD_REACTORS
330
368
330
368
102
}
330
6D
100
AcDbEntity
  8
1
  6
Continuous
 62
     2
100
AcDbLine
 10
-82.7541725699326
 20
23.5902333489685
 30
0.0
 11
-82.6989897977231
 21
23.5902333489685
 31
0.0
  0
LINE
  5
25B
102
{ACAD_REACTORS
330
368
330
368
102
}
330
6D
100
AcDbEntity
  8
1
  6
Continuous
 62
     2
100
AcDbLine
 10
-82.901395612519
 20
23.5902333489685
 30
0.0
 11
-82.7541725699326
 21
23.5902333489685
 31
0.0
  0
LINE
  5
25C
102
{ACAD_REACTORS
330
368
330
368
102
}
330
6D
100
AcDbEntity
  8
1
  6
Continuous
 62
     2
100
AcDbLine
 10
-82.901395612519
 20
23.04000128180641
 30
0.0
 11
-82.901395612519
 21
23.5902333489685
 31
0.0
  0
LINE
  5
25D
102
{ACAD_REACTORS
330
368
330
368
102
}
330
6D
100
AcDbEntity
  8
1
  6
Continuous
 62
     2
100
AcDbLine
 10
-82.7541725699326
 20
23.04000128180641
 30
0.0
 11
-82.901395612519
 21
23.04000128180641
 31
0.0
  0
LINE
  5
25E
102
{ACAD_REACTORS
330
368
330
368
102
}
330
6D
100
AcDbEntity
  8
1
  6
Continuous
 62
     2
100
AcDbLine
 10
-82.7541725699326
 20
23.04000128180641
 30
0.0
 11
-82.6989897977231
 21
23.04000128180641
 31
0.0
  0
LINE
  5
25F
102
{ACAD_REACTORS
330
368
330
368
102
}
330
6D
100
AcDbEntity
  8
1
  6
Continuous
 62
     2
100
AcDbLine
 10
-83.7857493540148
 20
24.10723463186511
 30
0.0
 11
-82.627957748662
 21
24.10723463186511
 31
0.0
  0
LINE
  5
260
102
{ACAD_REACTORS
330
368
330
368
102
}
330
6D
100
AcDbEntity
  8
1
  6
Continuous
 62
     2
100
AcDbLine
 10
-83.7857493540148
 20
24.10723463186511
 30
0.0
 11
-83.7857493540148
 21
21.72628225091111
 31
0.0
  0
LINE
  5
261
102
{ACAD_REACTORS
330
368
330
368
102
}
330
6D
100
AcDbEntity
  8
1
  6
Continuous
 62
     2
100
AcDbLine
 10
-83.7857493540148
 20
21.72628225091111
 30
0.0
 11
-83.05029682482841
 21
21.72628225091111
 31
0.0
  0
LINE
  5
262
102
{ACAD_REACTORS
330
368
330
368
102
}
330
6D
100
AcDbEntity
  8
1
  6
Continuous
 62
     2
100
AcDbLine
 10
-83.05029682482841
 20
21.72628225091111
 30
0.0
 11
-82.901395612519
 21
21.72628225091111
 31
0.0
  0
LINE
  5
263
102
{ACAD_REACTORS
330
368
330
368
102
}
330
6D
100
AcDbEntity
  8
1
  6
Continuous
 62
     2
100
AcDbLine
 10
-82.901395612519
 20
21.72628225091111
 30
0.0
 11
-82.901395612519
 21
22.46156857645471
 31
0.0
  0
LINE
  5
264
102
{ACAD_REACTORS
330
368
330
368
102
}
330
6D
100
AcDbEntity
  8
1
  6
Continuous
 62
     2
100
AcDbLine
 10
-82.901395612519
 20
22.46156857645471
 30
0.0
 11
-82.4790565363516
 21
22.46156857645471
 31
0.0
  0
LINE
  5
265
102
{ACAD_REACTORS
330
368
330
368
102
}
330
6D
100
AcDbEntity
  8
1
  6
Continuous
 62
     2
100
AcDbLine
 10
-82.4790565363516
 20
22.46156857645471
 30
0.0
 11
-82.3442645541887
 21
22.46156857645471
 31
0.0
  0
LINE
  5
266
102
{ACAD_REACTORS
330
368
330
368
102
}
330
6D
100
AcDbEntity
  8
1
  6
Continuous
 62
     2
100
AcDbLine
 10
-82.627957748662
 20
24.10723463186511
 30
0.0
 11
-82.3442645541887
 21
24.10723463186511
 31
0.0
  0
LINE
  5
267
102
{ACAD_REACTORS
330
360
330
360
102
}
330
6D
100
AcDbEntity
  8
1
  6
Continuous
 62
     2
100
AcDbLine
 10
-72.48555858745851
 20
19.7596155842576
 30
0.0
 11
-72.05758388880741
 21
19.7596155842576
 31
0.0
  0
LINE
  5
268
102
{ACAD_REACTORS
330
360
330
360
102
}
330
6D
100
AcDbEntity
  8
1
  6
Continuous
 62
     2
100
AcDbLine
 10
-72.05758388880741
 20
19.7596155842576
 30
0.0
 11
-72.27157123813359
 21
20.3582550400416
 31
0.0
  0
LINE
  5
269
102
{ACAD_REACTORS
330
360
330
360
102
}
330
6D
100
AcDbEntity
  8
1
  6
Continuous
 62
     2
100
AcDbLine
 10
-72.48555858745851
 20
19.7596155842576
 30
0.0
 11
-72.27157123813359
 21
20.3582550400416
 31
0.0
  0
LINE
  5
26A
102
{ACAD_REACTORS
330
360
330
360
102
}
330
6D
100
AcDbEntity
  8
1
  6
Continuous
 62
     2
100
AcDbLine
 10
-72.7137481088821
 20
21.18818701283104
 30
0.0
 11
-73.710346748338
 21
18.80723463187693
 31
0.0
  0
LINE
  5
26B
102
{ACAD_REACTORS
330
360
330
360
102
}
330
6D
100
AcDbEntity
  8
1
  6
Continuous
 62
     2
100
AcDbLine
 10
-73.710346748338
 20
18.80723463187693
 30
0.0
 11
-72.825993006841
 21
18.80723463187693
 31
0.0
  0
LINE
  5
26C
102
{ACAD_REACTORS
330
360
330
360
102
}
330
6D
100
AcDbEntity
  8
1
  6
Continuous
 62
     2
100
AcDbLine
 10
-72.825993006841
 20
18.80723463187693
 30
0.0
 11
-72.67522919254381
 21
19.22900333936022
 31
0.0
  0
LINE
  5
26D
102
{ACAD_REACTORS
330
360
330
360
102
}
330
6D
100
AcDbEntity
  8
1
  6
Continuous
 62
     2
100
AcDbLine
 10
-72.67522919254381
 20
19.22900333936022
 30
0.0
 11
-71.8679132837236
 21
19.22900333936022
 31
0.0
  0
LINE
  5
26E
102
{ACAD_REACTORS
330
360
330
360
102
}
330
6D
100
AcDbEntity
  8
1
  6
Continuous
 62
     2
100
AcDbLine
 10
-71.71714946942589
 20
18.80723463187693
 30
0.0
 11
-71.8679132837236
 21
19.22900333936022
 31
0.0
  0
LINE
  5
26F
102
{ACAD_REACTORS
330
360
330
360
102
}
330
6D
100
AcDbEntity
  8
1
  6
Continuous
 62
     2
100
AcDbLine
 10
-70.8327957279295
 20
18.80723463187693
 30
0.0
 11
-71.71714946942589
 21
18.80723463187693
 31
0.0
  0
LINE
  5
270
102
{ACAD_REACTORS
330
360
330
360
102
}
330
6D
100
AcDbEntity
  8
1
  6
Continuous
 62
     2
100
AcDbLine
 10
-71.82939436738491
 20
21.18818701283104
 30
0.0
 11
-70.8327957279295
 21
18.80723463187693
 31
0.0
  0
LINE
  5
271
102
{ACAD_REACTORS
330
360
330
360
102
}
330
6D
100
AcDbEntity
  8
1
  6
Continuous
 62
     2
100
AcDbLine
 10
-72.7137481088821
 20
21.18818701283104
 30
0.0
 11
-71.82939436738491
 21
21.18818701283104
 31
0.0
  0
LINE
  5
272
102
{ACAD_REACTORS
330
361
330
361
102
}
330
6D
100
AcDbEntity
  8
1
  6
Continuous
 62
     2
100
AcDbLine
 10
-73.6001426667051
 20
21.18818701283104
 30
0.0
 11
-75.60694538779222
 21
21.18818701283104
 31
0.0
  0
LINE
  5
273
102
{ACAD_REACTORS
330
361
330
361
102
}
330
6D
100
AcDbEntity
  8
1
  6
Continuous
 62
     2
100
AcDbLine
 10
-75.60694538779222
 20
21.18818701283104
 30
0.0
 11
-75.60694538779222
 21
20.57594211486972
 31
0.0
  0
LINE
  5
274
102
{ACAD_REACTORS
330
361
330
361
102
}
330
6D
100
AcDbEntity
  8
1
  6
Continuous
 62
     2
100
AcDbLine
 10
-75.60694538779222
 20
20.57594211486972
 30
0.0
 11
-75.0287140952762
 21
20.57594211486972
 31
0.0
  0
LINE
  5
275
102
{ACAD_REACTORS
330
361
330
361
102
}
330
6D
100
AcDbEntity
  8
1
  6
Continuous
 62
     2
100
AcDbLine
 10
-75.0287140952762
 20
20.57594211486972
 30
0.0
 11
-75.0287140952762
 21
18.80723463187693
 31
0.0
  0
LINE
  5
276
102
{ACAD_REACTORS
330
361
330
361
102
}
330
6D
100
AcDbEntity
  8
1
  6
Continuous
 62
     2
100
AcDbLine
 10
-75.0287140952762
 20
18.80723463187693
 30
0.0
 11
-74.1783739592211
 21
18.80723463187693
 31
0.0
  0
LINE
  5
277
102
{ACAD_REACTORS
330
361
330
361
102
}
330
6D
100
AcDbEntity
  8
1
  6
Continuous
 62
     2
100
AcDbLine
 10
-74.1783739592211
 20
18.80723463187693
 30
0.0
 11
-74.1783739592211
 21
20.57594211486972
 31
0.0
  0
LINE
  5
278
102
{ACAD_REACTORS
330
361
330
361
102
}
330
6D
100
AcDbEntity
  8
1
  6
Continuous
 62
     2
100
AcDbLine
 10
-74.1783739592211
 20
20.57594211486972
 30
0.0
 11
-73.6001426667051
 21
20.57594211486972
 31
0.0
  0
LINE
  5
279
102
{ACAD_REACTORS
330
361
330
361
102
}
330
6D
100
AcDbEntity
  8
1
  6
Continuous
 62
     2
100
AcDbLine
 10
-73.6001426667051
 20
20.57594211486972
 30
0.0
 11
-73.6001426667051
 21
21.18818701283104
 31
0.0
  0
LINE
  5
27A
102
{ACAD_REACTORS
330
362
330
362
102
}
330
6D
100
AcDbEntity
  8
1
  6
Continuous
 62
     2
100
AcDbLine
 10
-77.7436800816694
 20
21.18818701283104
 30
0.0
 11
-78.5940202177251
 21
21.18818701283104
 31
0.0
  0
LINE
  5
27B
102
{ACAD_REACTORS
330
362
330
362
102
}
330
6D
100
AcDbEntity
  8
1
  6
Continuous
 62
     2
100
AcDbLine
 10
-78.5940202177251
 20
21.18818701283104
 30
0.0
 11
-78.5940202177251
 21
18.80723463187693
 31
0.0
  0
LINE
  5
27C
102
{ACAD_REACTORS
330
362
330
362
102
}
330
6D
100
AcDbEntity
  8
1
  6
Continuous
 62
     2
100
AcDbLine
 10
-78.5940202177251
 20
18.80723463187693
 30
0.0
 11
-77.7436800816694
 21
18.80723463187693
 31
0.0
  0
LINE
  5
27D
102
{ACAD_REACTORS
330
362
330
362
102
}
330
6D
100
AcDbEntity
  8
1
  6
Continuous
 62
     2
100
AcDbLine
 10
-77.7436800816694
 20
18.80723463187693
 30
0.0
 11
-77.7436800816694
 21
19.8276427951441
 31
0.0
  0
LINE
  5
27E
102
{ACAD_REACTORS
330
362
330
362
102
}
330
6D
100
AcDbEntity
  8
1
  6
Continuous
 62
     2
100
AcDbLine
 10
-77.7436800816694
 20
19.8276427951441
 30
0.0
 11
-76.85932634017382
 21
18.80723463187693
 31
0.0
  0
LINE
  5
27F
102
{ACAD_REACTORS
330
362
330
362
102
}
330
6D
100
AcDbEntity
  8
1
  6
Continuous
 62
     2
100
AcDbLine
 10
-76.85932634017382
 20
18.80723463187693
 30
0.0
 11
-76.00898620411971
 21
18.80723463187693
 31
0.0
  0
LINE
  5
280
102
{ACAD_REACTORS
330
362
330
362
102
}
330
6D
100
AcDbEntity
  8
1
  6
Continuous
 62
     2
100
AcDbLine
 10
-76.00898620411971
 20
18.80723463187693
 30
0.0
 11
-76.00898620411971
 21
21.18818701283104
 31
0.0
  0
LINE
  5
281
102
{ACAD_REACTORS
330
362
330
362
102
}
330
6D
100
AcDbEntity
  8
1
  6
Continuous
 62
     2
100
AcDbLine
 10
-76.00898620411971
 20
21.18818701283104
 30
0.0
 11
-76.85932634017382
 21
21.18818701283104
 31
0.0
  0
LINE
  5
282
102
{ACAD_REACTORS
330
362
330
362
102
}
330
6D
100
AcDbEntity
  8
1
  6
Continuous
 62
     2
100
AcDbLine
 10
-76.85932634017382
 20
21.18818701283104
 30
0.0
 11
-76.85932634017382
 21
20.16777884956369
 31
0.0
  0
LINE
  5
283
102
{ACAD_REACTORS
330
362
330
362
102
}
330
6D
100
AcDbEntity
  8
1
  6
Continuous
 62
     2
100
AcDbLine
 10
-76.85932634017382
 20
20.16777884956369
 30
0.0
 11
-77.7436800816694
 21
21.18818701283104
 31
0.0
  0
LINE
  5
284
102
{ACAD_REACTORS
330
363
330
363
102
}
330
6D
100
AcDbEntity
  8
1
  6
Continuous
 62
     2
100
AcDbLine
 10
-71.49731397986679
 20
21.72628225091111
 30
0.0
 11
-71.49731397986679
 21
24.10723463186511
 31
0.0
  0
LINE
  5
285
102
{ACAD_REACTORS
330
364
330
364
102
}
330
6D
100
AcDbEntity
  8
1
  6
Continuous
 62
     2
100
AcDbLine
 10
-71.96738200707802
 20
24.10723463186511
 30
0.0
 11
-72.8177221431316
 21
24.10723463186511
 31
0.0
  0
LINE
  5
286
102
{ACAD_REACTORS
330
364
330
364
102
}
330
6D
100
AcDbEntity
  8
1
  6
Continuous
 62
     2
100
AcDbLine
 10
-72.8177221431316
 20
24.10723463186511
 30
0.0
 11
-72.8177221431316
 21
23.08682646859794
 31
0.0
  0
LINE
  5
287
102
{ACAD_REACTORS
330
364
330
364
102
}
330
6D
100
AcDbEntity
  8
1
  6
Continuous
 62
     2
100
AcDbLine
 10
-72.8177221431316
 20
23.08682646859794
 30
0.0
 11
-73.7020758846289
 21
24.10723463186511
 31
0.0
  0
LINE
  5
288
102
{ACAD_REACTORS
330
364
330
364
102
}
330
6D
100
AcDbEntity
  8
1
  6
Continuous
 62
     2
100
AcDbLine
 10
-73.7020758846289
 20
24.10723463186511
 30
0.0
 11
-74.5524160206825
 21
24.10723463186511
 31
0.0
  0
LINE
  5
289
102
{ACAD_REACTORS
330
364
330
364
102
}
330
6D
100
AcDbEntity
  8
1
  6
Continuous
 62
     2
100
AcDbLine
 10
-74.5524160206825
 20
24.10723463186511
 30
0.0
 11
-74.5524160206825
 21
21.72628225091111
 31
0.0
  0
LINE
  5
28A
102
{ACAD_REACTORS
330
364
330
364
102
}
330
6D
100
AcDbEntity
  8
1
  6
Continuous
 62
     2
100
AcDbLine
 10
-74.5524160206825
 20
21.72628225091111
 30
0.0
 11
-73.7020758846289
 21
21.72628225091111
 31
0.0
  0
LINE
  5
28B
102
{ACAD_REACTORS
330
364
330
364
102
}
330
6D
100
AcDbEntity
  8
1
  6
Continuous
 62
     2
100
AcDbLine
 10
-73.7020758846289
 20
21.72628225091111
 30
0.0
 11
-73.7020758846289
 21
22.74669041417852
 31
0.0
  0
LINE
  5
28C
102
{ACAD_REACTORS
330
364
330
364
102
}
330
6D
100
AcDbEntity
  8
1
  6
Continuous
 62
     2
100
AcDbLine
 10
-73.7020758846289
 20
22.74669041417852
 30
0.0
 11
-72.8177221431316
 21
21.72628225091111
 31
0.0
  0
LINE
  5
28D
102
{ACAD_REACTORS
330
364
330
364
102
}
330
6D
100
AcDbEntity
  8
1
  6
Continuous
 62
     2
100
AcDbLine
 10
-72.8177221431316
 20
21.72628225091111
 30
0.0
 11
-71.96738200707802
 21
21.72628225091111
 31
0.0
  0
LINE
  5
28E
102
{ACAD_REACTORS
330
364
330
364
102
}
330
6D
100
AcDbEntity
  8
1
  6
Continuous
 62
     2
100
AcDbLine
 10
-71.96738200707802
 20
21.72628225091111
 30
0.0
 11
-71.96738200707802
 21
24.10723463186511
 31
0.0
  0
LINE
  5
28F
102
{ACAD_REACTORS
330
365
330
365
102
}
330
6D
100
AcDbEntity
  8
1
  6
Continuous
 62
     2
100
AcDbLine
 10
-81.20683778938961
 20
24.10723463186511
 30
0.0
 11
-80.3564976533352
 21
24.10723463186511
 31
0.0
  0
LINE
  5
290
102
{ACAD_REACTORS
330
365
330
365
102
}
330
6D
100
AcDbEntity
  8
1
  6
Continuous
 62
     2
100
AcDbLine
 10
-81.20683778938961
 20
24.10723463186511
 30
0.0
 11
-81.20683778938961
 21
21.72628225091111
 31
0.0
  0
LINE
  5
291
102
{ACAD_REACTORS
330
365
330
365
102
}
330
6D
100
AcDbEntity
  8
1
  6
Continuous
 62
     2
100
AcDbLine
 10
-80.3564976533352
 20
21.72628225091111
 30
0.0
 11
-81.20683778938961
 21
21.72628225091111
 31
0.0
  0
LINE
  5
292
102
{ACAD_REACTORS
330
365
330
365
102
}
330
6D
100
AcDbEntity
  8
1
  6
Continuous
 62
     2
100
AcDbLine
 10
-80.3564976533352
 20
22.61063599240973
 30
0.0
 11
-80.3564976533352
 21
21.72628225091111
 31
0.0
  0
LINE
  5
293
102
{ACAD_REACTORS
330
365
330
365
102
}
330
6D
100
AcDbEntity
  8
1
  6
Continuous
 62
     2
100
AcDbLine
 10
-79.6081983336077
 20
22.61063599240973
 30
0.0
 11
-80.3564976533352
 21
22.61063599240973
 31
0.0
  0
LINE
  5
294
102
{ACAD_REACTORS
330
365
330
365
102
}
330
6D
100
AcDbEntity
  8
1
  6
Continuous
 62
     2
100
AcDbLine
 10
-79.6081983336077
 20
21.72628225091111
 30
0.0
 11
-79.6081983336077
 21
22.61063599240973
 31
0.0
  0
LINE
  5
295
102
{ACAD_REACTORS
330
365
330
365
102
}
330
6D
100
AcDbEntity
  8
1
  6
Continuous
 62
     2
100
AcDbLine
 10
-78.75785819755279
 20
21.72628225091111
 30
0.0
 11
-79.6081983336077
 21
21.72628225091111
 31
0.0
  0
LINE
  5
296
102
{ACAD_REACTORS
330
365
330
365
102
}
330
6D
100
AcDbEntity
  8
1
  6
Continuous
 62
     2
100
AcDbLine
 10
-78.75785819755279
 20
24.10723463186511
 30
0.0
 11
-78.75785819755279
 21
21.72628225091111
 31
0.0
  0
LINE
  5
297
102
{ACAD_REACTORS
330
365
330
365
102
}
330
6D
100
AcDbEntity
  8
1
  6
Continuous
 62
     2
100
AcDbLine
 10
-79.6081983336077
 20
24.10723463186511
 30
0.0
 11
-78.75785819755279
 21
24.10723463186511
 31
0.0
  0
LINE
  5
298
102
{ACAD_REACTORS
330
365
330
365
102
}
330
6D
100
AcDbEntity
  8
1
  6
Continuous
 62
     2
100
AcDbLine
 10
-79.6081983336077
 20
23.27390129853032
 30
0.0
 11
-79.6081983336077
 21
24.10723463186511
 31
0.0
  0
LINE
  5
299
102
{ACAD_REACTORS
330
365
330
365
102
}
330
6D
100
AcDbEntity
  8
1
  6
Continuous
 62
     2
100
AcDbLine
 10
-80.3564976533352
 20
23.27390129853032
 30
0.0
 11
-79.6081983336077
 21
23.27390129853032
 31
0.0
  0
LINE
  5
29A
102
{ACAD_REACTORS
330
365
330
365
102
}
330
6D
100
AcDbEntity
  8
1
  6
Continuous
 62
     2
100
AcDbLine
 10
-80.3564976533352
 20
24.10723463186511
 30
0.0
 11
-80.3564976533352
 21
23.27390129853032
 31
0.0
  0
LINE
  5
29B
330
6D
100
AcDbEntity
  8
1
  6
Continuous
 62
     7
100
AcDbLine
 10
6.16449734960705
 20
34.2072346318711
 30
0.0
 11
-30.53550265039258
 21
34.20723463187097
 31
0.0
  0
LINE
  5
29C
330
6D
100
AcDbEntity
  8
1
  6
Continuous
 62
     7
100
AcDbLine
 10
-30.53550265039258
 20
29.95723463187099
 30
0.0
 11
-12.03550265039296
 21
29.95723463187099
 31
0.0
  0
LINE
  5
29D
330
6D
100
AcDbEntity
  8
1
  6
Continuous
 62
     7
100
AcDbLine
 10
-30.53550265039258
 20
29.95723463187099
 30
0.0
 11
-30.53550265039258
 21
21.45723463187099
 31
0.0
  0
LINE
  5
29E
330
6D
100
AcDbEntity
  8
1
  6
Continuous
 62
     6
100
AcDbLine
 10
-212.8355026503951
 20
12.95723463187099
 30
0.0
 11
-219.0355026503931
 21
12.9572346318711
 31
0.0
  0
LINE
  5
29F
330
6D
100
AcDbEntity
  8
1
  6
Continuous
 62
     6
100
AcDbLine
 10
-219.0355026503931
 20
38.45723463187099
 30
0.0
 11
-219.0355026503931
 21
42.70723463187099
 31
0.0
  0
LINE
  5
2A0
330
6D
100
AcDbEntity
  8
1
  6
Continuous
 62
     6
100
AcDbLine
 10
-219.0355026503931
 20
34.20723463187099
 30
0.0
 11
-219.0355026503931
 21
38.45723463187099
 31
0.0
  0
LINE
  5
2A1
330
6D
100
AcDbEntity
  8
1
  6
Continuous
 62
     6
100
AcDbLine
 10
-219.0355026503931
 20
29.95723463187099
 30
0.0
 11
-219.0355026503931
 21
34.20723463187099
 31
0.0
  0
LINE
  5
2A2
330
6D
100
AcDbEntity
  8
1
  6
Continuous
 62
     6
100
AcDbLine
 10
-219.0355026503931
 20
21.45723463187099
 30
0.0
 11
-219.0355026503931
 21
25.70723463187099
 31
0.0
  0
LINE
  5
2A3
330
6D
100
AcDbEntity
  8
1
  6
Continuous
 62
     6
100
AcDbLine
 10
-137.0803071771449
 20
42.70723463187099
 30
0.0
 11
-199.3355026503951
 21
42.70723463187099
 31
0.0
  0
LINE
  5
2A4
330
6D
100
AcDbEntity
  8
1
  6
Continuous
 62
     2
100
AcDbLine
 10
-199.3355026503951
 20
38.45723463187099
 30
0.0
 11
-137.0803071771449
 21
38.45723463187099
 31
0.0
  0
LINE
  5
2A5
330
6D
100
AcDbEntity
  8
1
  6
Continuous
 62
     2
100
AcDbLine
 10
-199.3355026503951
 20
34.20723463187099
 30
0.0
 11
-137.0803071771449
 21
34.20723463187099
 31
0.0
  0
LINE
  5
2A6
330
6D
100
AcDbEntity
  8
1
  6
Continuous
 62
     6
100
AcDbLine
 10
-60.18030717714498
 20
12.95723463187099
 30
0.0
 11
-60.53550265039496
 21
12.9572346318711
 31
0.0
  0
LINE
  5
2A7
330
6D
100
AcDbEntity
  8
1
  6
Continuous
 62
     7
100
AcDbLine
 10
-73.68030717714498
 20
34.20723463187099
 30
0.0
 11
-60.18030717714498
 21
34.20723463187099
 31
0.0
  0
LINE
  5
2A8
330
6D
100
AcDbEntity
  8
1
  6
Continuous
 62
     7
100
AcDbLine
 10
-37.28030717714495
 20
34.20723463187093
 30
0.0
 11
-60.18030717714498
 21
34.20723463187099
 31
0.0
  0
LINE
  5
2A9
330
6D
100
AcDbEntity
  8
1
  6
Continuous
 62
     6
100
AcDbLine
 10
32.96449734960683
 20
29.95723463187099
 30
0.0
 11
32.96449734960635
 21
21.45723463187099
 31
0.0
  0
LINE
  5
2AA
330
6D
100
AcDbEntity
  8
1
  6
Continuous
 62
     6
100
AcDbLine
 10
-110.080307177145
 20
12.95723463187099
 30
0.0
 11
-96.58030717714487
 21
12.95723463187099
 31
0.0
  0
LINE
  5
2AB
330
6D
100
AcDbEntity
  8
1
  6
Continuous
 62
     2
100
AcDbLine
 10
-110.080307177145
 20
21.45723463187099
 30
0.0
 11
-110.080307177145
 21
17.2072346318711
 31
0.0
  0
LINE
  5
2AC
330
6D
100
AcDbEntity
  8
1
  6
Continuous
 62
     2
100
AcDbLine
 10
-110.080307177145
 20
21.45723463187099
 30
0.0
 11
-123.5803071771449
 21
21.45723463187099
 31
0.0
  0
LINE
  5
2AD
330
6D
100
AcDbEntity
  8
1
  6
Continuous
 62
     2
100
AcDbLine
 10
-110.080307177145
 20
17.2072346318711
 30
0.0
 11
-110.080307177145
 21
12.95723463187099
 31
0.0
  0
LINE
  5
2AE
330
6D
100
AcDbEntity
  8
1
  6
Continuous
 62
     7
100
AcDbLine
 10
-110.080307177145
 20
17.2072346318711
 30
0.0
 11
-96.58030717714487
 21
17.2072346318711
 31
0.0
  0
LINE
  5
2AF
330
6D
100
AcDbEntity
  8
1
  6
Continuous
 62
     2
100
AcDbLine
 10
-110.080307177145
 20
29.95723463187099
 30
0.0
 11
-110.080307177145
 21
25.70723463187099
 31
0.0
  0
LINE
  5
2B0
330
6D
100
AcDbEntity
  8
1
  6
Continuous
 62
     2
100
AcDbLine
 10
-110.080307177145
 20
29.95723463187099
 30
0.0
 11
-123.5803071771449
 21
29.95723463187099
 31
0.0
  0
LINE
  5
2B1
330
6D
100
AcDbEntity
  8
1
  6
Continuous
 62
     2
100
AcDbLine
 10
-110.080307177145
 20
34.20723463187099
 30
0.0
 11
-110.080307177145
 21
29.95723463187099
 31
0.0
  0
LINE
  5
2B2
330
6D
100
AcDbEntity
  8
1
  6
Continuous
 62
     2
100
AcDbLine
 10
-110.080307177145
 20
34.20723463187099
 30
0.0
 11
-123.5803071771449
 21
34.20723463187099
 31
0.0
  0
LINE
  5
2B3
330
6D
100
AcDbEntity
  8
1
  6
Continuous
 62
     2
100
AcDbLine
 10
-110.080307177145
 20
38.45723463187099
 30
0.0
 11
-110.080307177145
 21
34.20723463187099
 31
0.0
  0
LINE
  5
2B4
330
6D
100
AcDbEntity
  8
1
  6
Continuous
 62
     2
100
AcDbLine
 10
-110.080307177145
 20
38.45723463187099
 30
0.0
 11
-123.5803071771449
 21
38.45723463187099
 31
0.0
  0
LINE
  5
2B5
330
6D
100
AcDbEntity
  8
1
  6
Continuous
 62
     2
100
AcDbLine
 10
-110.080307177145
 20
25.70723463187099
 30
0.0
 11
-110.080307177145
 21
21.45723463187099
 31
0.0
  0
LINE
  5
2B6
330
6D
100
AcDbEntity
  8
1
  6
Continuous
 62
     2
100
AcDbLine
 10
-110.080307177145
 20
25.70723463187099
 30
0.0
 11
-123.5803071771449
 21
25.70723463187099
 31
0.0
  0
LINE
  5
2B7
330
6D
100
AcDbEntity
  8
1
  6
Continuous
 62
     6
100
AcDbLine
 10
-123.5803071771449
 20
12.95723463187099
 30
0.0
 11
-110.535502650395
 21
12.9572346318711
 31
0.0
  0
LINE
  5
2B8
330
6D
100
AcDbEntity
  8
1
  6
Continuous
 62
     2
100
AcDbLine
 10
-123.5803071771449
 20
21.45723463187099
 30
0.0
 11
-123.5803071771449
 21
17.2072346318711
 31
0.0
  0
LINE
  5
2B9
330
6D
100
AcDbEntity
  8
1
  6
Continuous
 62
     2
100
AcDbLine
 10
-123.5803071771449
 20
21.45723463187099
 30
0.0
 11
-137.0803071771449
 21
21.45723463187099
 31
0.0
  0
LINE
  5
2BA
330
6D
100
AcDbEntity
  8
1
  6
Continuous
 62
     2
100
AcDbLine
 10
-123.5803071771449
 20
17.2072346318711
 30
0.0
 11
-123.5803071771449
 21
12.95723463187099
 31
0.0
  0
LINE
  5
2BB
330
6D
100
AcDbEntity
  8
1
  6
Continuous
 62
     7
100
AcDbLine
 10
-123.5803071771449
 20
17.2072346318711
 30
0.0
 11
-110.080307177145
 21
17.2072346318711
 31
0.0
  0
LINE
  5
2BC
330
6D
100
AcDbEntity
  8
1
  6
Continuous
 62
     2
100
AcDbLine
 10
-123.5803071771449
 20
29.95723463187099
 30
0.0
 11
-123.5803071771449
 21
25.70723463187099
 31
0.0
  0
LINE
  5
2BD
330
6D
100
AcDbEntity
  8
1
  6
Continuous
 62
     2
100
AcDbLine
 10
-123.5803071771449
 20
29.95723463187099
 30
0.0
 11
-137.0803071771449
 21
29.95723463187099
 31
0.0
  0
LINE
  5
2BE
330
6D
100
AcDbEntity
  8
1
  6
Continuous
 62
     2
100
AcDbLine
 10
-123.5803071771449
 20
34.20723463187099
 30
0.0
 11
-123.5803071771449
 21
29.95723463187099
 31
0.0
  0
LINE
  5
2BF
330
6D
100
AcDbEntity
  8
1
  6
Continuous
 62
     2
100
AcDbLine
 10
-123.5803071771449
 20
34.20723463187099
 30
0.0
 11
-137.0803071771449
 21
34.20723463187099
 31
0.0
  0
LINE
  5
2C0
330
6D
100
AcDbEntity
  8
1
  6
Continuous
 62
     2
100
AcDbLine
 10
-123.5803071771449
 20
38.45723463187099
 30
0.0
 11
-123.5803071771449
 21
34.20723463187099
 31
0.0
  0
LINE
  5
2C1
330
6D
100
AcDbEntity
  8
1
  6
Continuous
 62
     2
100
AcDbLine
 10
-123.5803071771449
 20
38.45723463187099
 30
0.0
 11
-137.0803071771449
 21
38.45723463187099
 31
0.0
  0
LINE
  5
2C2
330
6D
100
AcDbEntity
  8
1
  6
Continuous
 62
     2
100
AcDbLine
 10
-123.5803071771449
 20
25.70723463187099
 30
0.0
 11
-123.5803071771449
 21
21.45723463187099
 31
0.0
  0
LINE
  5
2C3
330
6D
100
AcDbEntity
  8
1
  6
Continuous
 62
     2
100
AcDbLine
 10
-123.5803071771449
 20
25.70723463187099
 30
0.0
 11
-137.0803071771449
 21
25.70723463187099
 31
0.0
  0
LINE
  5
2C4
330
6D
100
AcDbEntity
  8
1
  6
Continuous
 62
     6
100
AcDbLine
 10
-137.0803071771449
 20
12.95723463187099
 30
0.0
 11
-123.5803071771449
 21
12.95723463187099
 31
0.0
  0
LINE
  5
2C5
330
6D
100
AcDbEntity
  8
1
  6
Continuous
 62
     2
100
AcDbLine
 10
-137.0803071771449
 20
21.45723463187099
 30
0.0
 11
-137.0803071771449
 21
17.2072346318711
 31
0.0
  0
LINE
  5
2C6
330
6D
100
AcDbEntity
  8
1
  6
Continuous
 62
     2
100
AcDbLine
 10
-137.0803071771449
 20
21.45723463187099
 30
0.0
 11
-199.3355026503951
 21
21.45723463187099
 31
0.0
  0
LINE
  5
2C7
330
6D
100
AcDbEntity
  8
1
  6
Continuous
 62
     2
100
AcDbLine
 10
-137.0803071771449
 20
17.2072346318711
 30
0.0
 11
-137.0803071771449
 21
12.95723463187099
 31
0.0
  0
LINE
  5
2C8
330
6D
100
AcDbEntity
  8
1
  6
Continuous
 62
     7
100
AcDbLine
 10
-137.0803071771449
 20
17.2072346318711
 30
0.0
 11
-123.5803071771449
 21
17.2072346318711
 31
0.0
  0
LINE
  5
2C9
330
6D
100
AcDbEntity
  8
1
  6
Continuous
 62
     2
100
AcDbLine
 10
-137.0803071771449
 20
29.95723463187099
 30
0.0
 11
-137.0803071771449
 21
25.70723463187099
 31
0.0
  0
LINE
  5
2CA
330
6D
100
AcDbEntity
  8
1
  6
Continuous
 62
     2
100
AcDbLine
 10
-137.0803071771449
 20
29.95723463187099
 30
0.0
 11
-199.3355026503951
 21
29.95723463187099
 31
0.0
  0
LINE
  5
2CB
330
6D
100
AcDbEntity
  8
1
  6
Continuous
 62
     2
100
AcDbLine
 10
-137.0803071771449
 20
34.20723463187099
 30
0.0
 11
-137.0803071771449
 21
29.95723463187099
 31
0.0
  0
LINE
  5
2CC
330
6D
100
AcDbEntity
  8
1
  6
Continuous
 62
     2
100
AcDbLine
 10
-137.0803071771449
 20
38.45723463187099
 30
0.0
 11
-137.0803071771449
 21
34.20723463187099
 31
0.0
  0
LINE
  5
2CD
330
6D
100
AcDbEntity
  8
1
  6
Continuous
 62
     2
100
AcDbLine
 10
-137.0803071771449
 20
25.70723463187099
 30
0.0
 11
-137.0803071771449
 21
21.45723463187099
 31
0.0
  0
LINE
  5
2CE
330
6D
100
AcDbEntity
  8
1
  6
Continuous
 62
     2
100
AcDbLine
 10
-137.0803071771449
 20
25.70723463187099
 30
0.0
 11
-199.3355026503951
 21
25.70723463187099
 31
0.0
  0
LINE
  5
2CF
330
6D
100
AcDbEntity
  8
1
  6
Continuous
 62
     7
100
AcDbLine
 10
-87.1803071771449
 20
29.9572346318711
 30
0.0
 11
-96.58030717714487
 21
29.95723463187099
 31
0.0
  0
LINE
  5
2D0
330
6D
100
AcDbEntity
  8
1
  6
Continuous
 62
     6
100
AcDbLine
 10
-87.1803071771449
 20
42.70723463187099
 30
0.0
 11
-96.58030717714487
 21
42.70723463187099
 31
0.0
  0
LINE
  5
2D1
330
6D
100
AcDbEntity
  8
1
  6
Continuous
 62
     7
100
AcDbLine
 10
-96.58030717714487
 20
38.45723463187099
 30
0.0
 11
-87.1803071771449
 21
38.45723463187099
 31
0.0
  0
LINE
  5
2D2
330
6D
100
AcDbEntity
  8
1
  6
Continuous
 62
     6
100
AcDbLine
 10
-219.0355026503931
 20
25.70723463187099
 30
0.0
 11
-219.0355026503931
 21
29.95723463187099
 31
0.0
  0
LINE
  5
2D3
330
6D
100
AcDbEntity
  8
1
  6
Continuous
 62
     6
100
AcDbLine
 10
32.96449734960675
 20
42.70723463187099
 30
0.0
 11
32.96449734960584
 21
34.20723463187099
 31
0.0
  0
LINE
  5
2D4
330
6D
100
AcDbEntity
  8
1
  6
Continuous
 62
     6
100
AcDbLine
 10
-219.0355026503931
 20
12.9572346318711
 30
0.0
 11
-254.035502650393
 21
12.9572346318711
 31
0.0
  0
LINE
  5
2D5
330
6D
100
AcDbEntity
  8
1
  6
Continuous
 62
     2
100
AcDbLine
 10
-88.30003804262961
 20
29.33223463187099
 30
0.0
 11
-84.30003804262961
 21
28.83223463187099
 31
0.0
  0
LINE
  5
2D6
330
6D
100
AcDbEntity
  8
1
  6
Continuous
 62
     2
100
AcDbLine
 10
-84.30003804262961
 20
28.83223463187099
 30
0.0
 11
-84.30003804262961
 21
26.83223463187099
 31
0.0
  0
LINE
  5
2D7
330
6D
100
AcDbEntity
  8
1
  6
Continuous
 62
     2
100
AcDbLine
 10
-84.30003804262961
 20
26.83223463187099
 30
0.0
 11
-88.30003804262961
 21
26.33223463187099
 31
0.0
  0
LINE
  5
2D8
330
6D
100
AcDbEntity
  8
1
  6
Continuous
 62
     2
100
AcDbLine
 10
-88.30003804262961
 20
26.33223463187099
 30
0.0
 11
-88.30003804262961
 21
29.33223463187099
 31
0.0
  0
LINE
  5
2D9
330
6D
100
AcDbEntity
  8
1
  6
Continuous
 62
     7
100
AcDbLine
 10
-30.53550265039258
 20
34.20723463187097
 30
0.0
 11
-37.28030717714495
 21
34.20723463187093
 31
0.0
  0
LINE
  5
2DA
330
6D
100
AcDbEntity
  8
1
  6
Continuous
 62
     7
100
AcDbLine
 10
-30.53550265039258
 20
29.95723463187099
 30
0.0
 11
-28.53550265039258
 21
29.95723463187099
 31
0.0
  0
LINE
  5
2DB
330
6D
100
AcDbEntity
  8
1
  6
Continuous
 62
     2
100
AcDbLine
 10
4.39923403439403
 20
28.40701535283823
 30
0.0
 11
4.39923403439403
 21
26.34961938798473
 31
0.0
  0
ARC
  5
2DC
330
6D
100
AcDbEntity
  8
1
  6
Continuous
 62
     2
100
AcDbCircle
 10
-69.5841814343803
 20
19.98228303642023
 30
0.0
 40
1.206350288025998
100
AcDbArc
 50
91.6119598515516
 51
216.1353968693287
  0
ARC
  5
2DD
330
6D
100
AcDbEntity
  8
1
  6
Continuous
 62
     2
100
AcDbCircle
 10
-69.6087381396311
 20
20.00669240698713
 30
0.0
 40
1.201398482875463
100
AcDbArc
 50
217.7663890934392
 51
250.482095160258
  0
ARC
  5
2DE
102
{ACAD_REACTORS
330
366
330
366
102
}
330
6D
100
AcDbEntity
  8
1
  6
Continuous
 62
     2
100
AcDbCircle
 10
-80.2885363472881
 20
19.99771082235393
 30
0.0
 40
1.19047619047711
100
AcDbArc
 50
90.0
 51
270.0
  0
ARC
  5
2DF
102
{ACAD_REACTORS
330
366
330
366
102
}
330
6D
100
AcDbEntity
  8
1
  6
Continuous
 62
     2
100
AcDbCircle
 10
-80.1864955309608
 20
19.99771082235393
 30
0.0
 40
1.190476190477
100
AcDbArc
 50
270.0
 51
90.0
  0
ARC
  5
2E0
102
{ACAD_REACTORS
330
367
330
367
102
}
330
6D
100
AcDbEntity
  8
1
  6
Continuous
 62
     2
100
AcDbCircle
 10
-77.165385038653
 20
22.91675844138823
 30
0.0
 40
1.190476190476883
100
AcDbArc
 50
90.0
 51
270.0
  0
ARC
  5
2E1
102
{ACAD_REACTORS
330
369
330
369
102
}
330
6D
100
AcDbEntity
  8
1
  6
Continuous
 62
     2
100
AcDbCircle
 10
-86.5092187417705
 20
21.82760500224052
 30
0.0
 40
1.731481481474422
100
AcDbArc
 50
270.0
 51
90.0
  0
ARC
  5
2E2
102
{ACAD_REACTORS
330
369
330
369
102
}
330
6D
100
AcDbEntity
  8
1
  6
Continuous
 62
     2
100
AcDbCircle
 10
-87.0184780010286
 20
21.82760500224052
 30
0.0
 40
0.8148148148132878
100
AcDbArc
 50
295.719279502167
 51
64.2807204979753
  0
ARC
  5
2E3
102
{ACAD_REACTORS
330
369
330
369
102
}
330
6D
100
AcDbEntity
  8
1
  6
Continuous
 62
     2
100
AcDbCircle
 10
-87.0184780010286
 20
21.82760500224052
 30
0.0
 40
0.8148148148137929
100
AcDbArc
 50
115.7192795022131
 51
244.2807204978133
  0
ARC
  5
2E4
102
{ACAD_REACTORS
330
368
330
368
102
}
330
6D
100
AcDbEntity
  8
1
  6
Continuous
 62
     2
100
AcDbCircle
 10
-82.6989897977231
 20
23.31511731538754
 30
0.0
 40
0.2751160335811278
100
AcDbArc
 50
270.0
 51
90.0
  0
ARC
  5
2E5
102
{ACAD_REACTORS
330
368
330
368
102
}
330
6D
100
AcDbEntity
  8
1
  6
Continuous
 62
     2
100
AcDbCircle
 10
-82.4368359734101
 20
23.28440160415991
 30
0.0
 40
0.8280239484092065
100
AcDbArc
 50
276.4189726355862
 51
83.58102736441384
  0
CIRCLE
  5
2E6
102
{ACAD_REACTORS
330
369
330
369
102
}
330
6D
100
AcDbEntity
  8
1
  6
Continuous
 62
     2
100
AcDbCircle
 10
-87.0184780010286
 20
21.82760500224052
 30
0.0
 40
0.4074074074073053
  0
CIRCLE
  5
2E7
330
6D
100
AcDbEntity
  8
1
  6
Continuous
 62
     2
100
AcDbCircle
 10
-91.4880473520416
 20
27.83223463187099
 30
0.0
 40
1.0
  0
CIRCLE
  5
2E8
330
6D
100
AcDbEntity
  8
1
  6
Continuous
 62
     2
100
AcDbCircle
 10
-91.4880473520416
 20
27.83223463187099
 30
0.0
 40
1.5
  0
ARC
  5
2E9
102
{ACAD_REACTORS
330
369
330
369
102
}
330
6D
100
AcDbEntity
  8
1
  6
Continuous
 62
     2
100
AcDbCircle
 10
-86.5499594825109
 20
20.36093833557064
 30
0.0
 40
0.2648148148142013
100
AcDbArc
 50
180.0
 51
270.0
  0
ARC
  5
2EA
102
{ACAD_REACTORS
330
369
330
369
102
}
330
6D
100
AcDbEntity
  8
1
  6
Continuous
 62
     2
100
AcDbCircle
 10
-86.5499594825109
 20
23.29427166891961
 30
0.0
 40
0.2648148148090819
100
AcDbArc
 50
90.0
 51
180.0
  0
ARC
  5
2EB
102
{ACAD_REACTORS
330
369
330
369
102
}
330
6D
100
AcDbEntity
  8
1
  6
Continuous
 62
     2
100
AcDbCircle
 10
-86.5499594825109
 20
22.80027685594641
 30
0.0
 40
0.2648148148142013
100
AcDbArc
 50
180.0
 51
244.2807204980797
  0
ARC
  5
2EC
102
{ACAD_REACTORS
330
369
330
369
102
}
330
6D
100
AcDbEntity
  8
1
  6
Continuous
 62
     2
100
AcDbCircle
 10
-86.5499594825109
 20
20.8549331485348
 30
0.0
 40
0.2648148148214952
100
AcDbArc
 50
115.7192795014987
 51
180.0
  0
ARC
  5
2ED
102
{ACAD_REACTORS
330
369
330
369
102
}
330
6D
100
AcDbEntity
  8
1
  6
Continuous
 62
     2
100
AcDbCircle
 10
-88.790700223252
 20
23.29427166891961
 30
0.0
 40
0.2648148148090819
100
AcDbArc
 50
90.0
 51
180.0
  0
ARC
  5
2EE
102
{ACAD_REACTORS
330
369
330
369
102
}
330
6D
100
AcDbEntity
  8
1
  6
Continuous
 62
     2
100
AcDbCircle
 10
-88.790700223252
 20
19.5461235207587
 30
0.0
 40
0.2648148148140024
100
AcDbArc
 50
180.0
 51
270.0
  0
ARC
  5
2EF
102
{ACAD_REACTORS
330
369
330
369
102
}
330
6D
100
AcDbEntity
  8
1
  6
Continuous
 62
     2
100
AcDbCircle
 10
-87.4869965195476
 20
19.5461235207587
 30
0.0
 40
0.2648148148045912
100
AcDbArc
 50
270.0
 51
0.0
  0
ARC
  5
2F0
102
{ACAD_REACTORS
330
369
330
369
102
}
330
6D
100
AcDbEntity
  8
1
  6
Continuous
 62
     2
100
AcDbCircle
 10
-87.4869965195476
 20
20.8549331485348
 30
0.0
 40
0.2648148148150966
100
AcDbArc
 50
0.00000000192936
 51
64.28072049830739
  0
ARC
  5
2F1
102
{ACAD_REACTORS
330
369
330
369
102
}
330
6D
100
AcDbEntity
  8
1
  6
Continuous
 62
     2
100
AcDbCircle
 10
-87.4869965195476
 20
22.80027685594641
 30
0.0
 40
0.2648148148217111
100
AcDbArc
 50
295.7192795015957
 51
0.0
  0
ARC
  5
2F2
102
{ACAD_REACTORS
330
369
330
369
102
}
330
6D
100
AcDbEntity
  8
1
  6
Continuous
 62
     2
100
AcDbCircle
 10
-87.4869965195476
 20
23.29427166891961
 30
0.0
 40
0.2648148148150966
100
AcDbArc
 50
359.9999999980076
 51
90.0
  0
ARC
  5
2F3
102
{ACAD_REACTORS
330
369
330
369
102
}
330
6D
100
AcDbEntity
  8
1
  6
Continuous
 62
     2
100
AcDbCircle
 10
-89.19255207510291
 20
23.77390129853214
 30
0.0
 40
0.3333333333329698
100
AcDbArc
 50
90.0
 51
180.0
  0
ARC
  5
2F4
102
{ACAD_REACTORS
330
369
330
369
102
}
330
6D
100
AcDbEntity
  8
1
  6
Continuous
 62
     2
100
AcDbCircle
 10
-89.19255207510291
 20
19.1405679652099
 30
0.0
 40
0.3333333333335986
100
AcDbArc
 50
180.0
 51
270.0
  0
ARC
  5
2F5
102
{ACAD_REACTORS
330
369
330
369
102
}
330
6D
100
AcDbEntity
  8
1
  6
Continuous
 62
     2
100
AcDbCircle
 10
-84.6592187417696
 20
19.1405679652099
 30
0.0
 40
0.3333333333329698
100
AcDbArc
 50
270.0
 51
0.0
  0
ARC
  5
2F6
102
{ACAD_REACTORS
330
369
330
369
102
}
330
6D
100
AcDbEntity
  8
1
  6
Continuous
 62
     2
100
AcDbCircle
 10
-84.6592187417696
 20
23.77390129853214
 30
0.0
 40
0.3333333333327033
100
AcDbArc
 50
0.0
 51
90.0
  0
MTEXT
  5
2F8
330
6D
100
AcDbEntity
  8
1
 62
     2
100
AcDbMText
 10
-59.08030717714496
 20
32.28223463187098
 30
0.0
 40
1.4
 41
0.0
 71
     4
 72
     1
  1
SAP\Pchange-No.
  7
CONVERTER_12
 73
     1
 44
0.66026410564226
  0
MTEXT
  5
2F9
330
6D
100
AcDbEntity
  8
1
 62
     3
100
AcDbMText
 10
-49.84807035903008
 20
32.08223463187098
 30
0.0
 40
2.5
 41
0.0
 71
     4
 72
     1
  1
MIG-020019
  7
CONVERTER_12
 73
     1
 44
1.20048019207683
  0
TEXT
  5
2FB
330
6D
100
AcDbEntity
  8
1
 62
     3
100
AcDbText
 10
-59.08030717714505
 20
45.00200620547524
 30
0.0
 40
2.5
  1
 
 41
0.72
  7
CONVERTER_13
100
AcDbText
  0
TEXT
  5
2FC
330
6D
100
AcDbEntity
  8
1
 62
     3
100
AcDbText
 10
-59.08030717714505
 20
48.50200620547524
 30
0.0
 40
2.5
  1
 
 41
0.72
  7
CONVERTER_13
100
AcDbText
  0
TEXT
  5
2FD
330
6D
100
AcDbEntity
  8
1
 62
     3
100
AcDbText
 10
-59.08030717714505
 20
52.00200620547524
 30
0.0
 40
2.5
  1
 
 41
0.72
  7
CONVERTER_13
100
AcDbText
  0
MTEXT
  5
2FF
330
6D
100
AcDbEntity
  8
1
 62
     2
100
AcDbMText
 10
-198.3355026503951
 20
19.3322346318711
 30
0.0
 40
2.0
 41
0.0
 71
     4
 72
     1
  1
 
  7
CONVERTER_14
 73
     1
 44
1.20048019207683
  0
MTEXT
  5
300
330
6D
100
AcDbEntity
  8
1
 62
     2
100
AcDbMText
 10
-198.3355026503951
 20
23.58223463187099
 30
0.0
 40
2.0
 41
0.0
 71
     4
 72
     1
  1
 
  7
CONVERTER_14
 73
     1
 44
1.20048019207683
  0
MTEXT
  5
301
330
6D
100
AcDbEntity
  8
1
 62
     2
100
AcDbMText
 10
-198.3355026503951
 20
27.83223463187099
 30
0.0
 40
2.0
 41
0.0
 71
     4
 72
     1
  1
 
  7
CONVERTER_14
 73
     1
 44
1.20048019207683
  0
MTEXT
  5
302
330
6D
100
AcDbEntity
  8
1
 62
     2
100
AcDbMText
 10
-198.3355026503951
 20
32.08223463187099
 30
0.0
 40
2.0
 41
0.0
 71
     4
 72
     1
  1
 
  7
CONVERTER_14
 73
     1
 44
1.20048019207683
  0
MTEXT
  5
303
330
6D
100
AcDbEntity
  8
1
 62
     2
100
AcDbMText
 10
-198.3355026503951
 20
36.33223463187099
 30
0.0
 40
2.0
 41
0.0
 71
     4
 72
     1
  1
 
  7
CONVERTER_14
 73
     1
 44
1.20048019207683
  0
MTEXT
  5
304
330
6D
100
AcDbEntity
  8
1
 62
     2
100
AcDbMText
 10
-198.3355026503951
 20
40.58223463187099
 30
0.0
 40
2.0
 41
0.0
 71
     4
 72
     1
  1
 
  7
CONVERTER_14
 73
     1
 44
1.20048019207683
  0
MTEXT
  5
305
330
6D
100
AcDbEntity
  8
1
 62
     2
100
AcDbMText
 10
-103.330307177145
 20
19.3322346318711
 30
0.0
 40
2.0
 41
0.0
 71
     5
 72
     1
  1
 
  7
CONVERTER_11
 73
     1
 44
1.20048019207683
  0
MTEXT
  5
306
330
6D
100
AcDbEntity
  8
1
 62
     2
100
AcDbMText
 10
-103.330307177145
 20
23.58223463187099
 30
0.0
 40
2.0
 41
0.0
 71
     5
 72
     1
  1
 
  7
CONVERTER_11
 73
     1
 44
1.20048019207683
  0
MTEXT
  5
307
330
6D
100
AcDbEntity
  8
1
 62
     2
100
AcDbMText
 10
-103.330307177145
 20
27.83223463187099
 30
0.0
 40
2.0
 41
0.0
 71
     5
 72
     1
  1
 
  7
CONVERTER_11
 73
     1
 44
1.20048019207683
  0
MTEXT
  5
308
330
6D
100
AcDbEntity
  8
1
 62
     2
100
AcDbMText
 10
-103.330307177145
 20
32.08223463187099
 30
0.0
 40
2.0
 41
0.0
 71
     5
 72
     1
  1
 
  7
CONVERTER_11
 73
     1
 44
1.20048019207683
  0
MTEXT
  5
309
330
6D
100
AcDbEntity
  8
1
 62
     2
100
AcDbMText
 10
-103.330307177145
 20
36.33223463187099
 30
0.0
 40
2.0
 41
0.0
 71
     5
 72
     1
  1
 
  7
CONVERTER_11
 73
     1
 44
1.20048019207683
  0
MTEXT
  5
30A
330
6D
100
AcDbEntity
  8
1
 62
     2
100
AcDbMText
 10
-103.330307177145
 20
40.58223463187099
 30
0.0
 40
2.0
 41
0.0
 71
     5
 72
     1
  1
 
  7
CONVERTER_11
 73
     1
 44
1.20048019207683
  0
MTEXT
  5
30B
330
6D
100
AcDbEntity
  8
1
 62
     2
100
AcDbMText
 10
-116.830307177145
 20
19.3322346318711
 30
0.0
 40
2.0
 41
0.0
 71
     5
 72
     1
  1
 
  7
CONVERTER_11
 73
     1
 44
1.20048019207683
  0
MTEXT
  5
30C
330
6D
100
AcDbEntity
  8
1
 62
     2
100
AcDbMText
 10
-116.830307177145
 20
23.58223463187099
 30
0.0
 40
2.0
 41
0.0
 71
     5
 72
     1
  1
 
  7
CONVERTER_11
 73
     1
 44
1.20048019207683
  0
MTEXT
  5
30D
330
6D
100
AcDbEntity
  8
1
 62
     2
100
AcDbMText
 10
-116.830307177145
 20
27.83223463187099
 30
0.0
 40
2.0
 41
0.0
 71
     5
 72
     1
  1
 
  7
CONVERTER_11
 73
     1
 44
1.20048019207683
  0
MTEXT
  5
30E
330
6D
100
AcDbEntity
  8
1
 62
     2
100
AcDbMText
 10
-116.830307177145
 20
32.08223463187099
 30
0.0
 40
2.0
 41
0.0
 71
     5
 72
     1
  1
 
  7
CONVERTER_11
 73
     1
 44
1.20048019207683
  0
MTEXT
  5
30F
330
6D
100
AcDbEntity
  8
1
 62
     2
100
AcDbMText
 10
-116.830307177145
 20
36.33223463187099
 30
0.0
 40
2.0
 41
0.0
 71
     5
 72
     1
  1
 
  7
CONVERTER_11
 73
     1
 44
1.20048019207683
  0
MTEXT
  5
310
330
6D
100
AcDbEntity
  8
1
 62
     2
100
AcDbMText
 10
-116.830307177145
 20
40.58223463187099
 30
0.0
 40
2.0
 41
0.0
 71
     5
 72
     1
  1
 
  7
CONVERTER_11
 73
     1
 44
1.20048019207683
  0
MTEXT
  5
311
330
6D
100
AcDbEntity
  8
1
 62
     2
100
AcDbMText
 10
-130.3303071771449
 20
40.58223463187099
 30
0.0
 40
2.0
 41
0.0
 71
     5
 72
     1
  1
 
  7
CONVERTER_11
 73
     1
 44
1.20048019207683
  0
MTEXT
  5
312
330
6D
100
AcDbEntity
  8
1
 62
     2
100
AcDbMText
 10
-130.3303071771449
 20
36.33223463187099
 30
0.0
 40
2.0
 41
0.0
 71
     5
 72
     1
  1
 
  7
CONVERTER_11
 73
     1
 44
1.20048019207683
  0
MTEXT
  5
313
330
6D
100
AcDbEntity
  8
1
 62
     2
100
AcDbMText
 10
-130.3303071771449
 20
32.08223463187099
 30
0.0
 40
2.0
 41
0.0
 71
     5
 72
     1
  1
 
  7
CONVERTER_11
 73
     1
 44
1.20048019207683
  0
MTEXT
  5
314
330
6D
100
AcDbEntity
  8
1
 62
     2
100
AcDbMText
 10
-130.3303071771449
 20
27.83223463187099
 30
0.0
 40
2.0
 41
0.0
 71
     5
 72
     1
  1
 
  7
CONVERTER_11
 73
     1
 44
1.20048019207683
  0
MTEXT
  5
315
330
6D
100
AcDbEntity
  8
1
 62
     2
100
AcDbMText
 10
-130.3303071771449
 20
23.58223463187099
 30
0.0
 40
2.0
 41
0.0
 71
     5
 72
     1
  1
 
  7
CONVERTER_11
 73
     1
 44
1.20048019207683
  0
MTEXT
  5
316
330
6D
100
AcDbEntity
  8
1
 62
     2
100
AcDbMText
 10
-130.3303071771449
 20
19.3322346318711
 30
0.0
 40
2.0
 41
0.0
 71
     5
 72
     1
  1
 
  7
CONVERTER_11
 73
     1
 44
1.20048019207683
  0
MTEXT
  5
317
330
6D
100
AcDbEntity
  8
1
 62
     2
100
AcDbMText
 10
-206.0855026503951
 20
40.58223463187099
 30
0.0
 40
2.0
 41
0.0
 71
     5
 72
     1
  1
 
  7
CONVERTER_11
 73
     1
 44
1.20048019207683
  0
MTEXT
  5
318
330
6D
100
AcDbEntity
  8
1
 62
     2
100
AcDbMText
 10
-206.0855026503951
 20
36.33223463187099
 30
0.0
 40
2.0
 41
0.0
 71
     5
 72
     1
  1
 
  7
CONVERTER_11
 73
     1
 44
1.20048019207683
  0
MTEXT
  5
319
330
6D
100
AcDbEntity
  8
1
 62
     2
100
AcDbMText
 10
-206.0855026503951
 20
32.08223463187099
 30
0.0
 40
2.0
 41
0.0
 71
     5
 72
     1
  1
 
  7
CONVERTER_11
 73
     1
 44
1.20048019207683
  0
MTEXT
  5
31A
330
6D
100
AcDbEntity
  8
1
 62
     2
100
AcDbMText
 10
-206.0855026503951
 20
27.83223463187099
 30
0.0
 40
2.0
 41
0.0
 71
     5
 72
     1
  1
 
  7
CONVERTER_11
 73
     1
 44
1.20048019207683
  0
MTEXT
  5
31B
330
6D
100
AcDbEntity
  8
1
 62
     2
100
AcDbMText
 10
-206.0855026503951
 20
23.58223463187099
 30
0.0
 40
2.0
 41
0.0
 71
     5
 72
     1
  1
 
  7
CONVERTER_11
 73
     1
 44
1.20048019207683
  0
MTEXT
  5
31C
330
6D
100
AcDbEntity
  8
1
 62
     2
100
AcDbMText
 10
-206.0855026503951
 20
19.3322346318711
 30
0.0
 40
2.0
 41
0.0
 71
     5
 72
     1
  1
 
  7
CONVERTER_11
 73
     1
 44
1.20048019207683
  0
MTEXT
  5
31D
330
6D
100
AcDbEntity
  8
1
 62
     2
100
AcDbMText
 10
-215.9355026503941
 20
19.3322346318711
 30
0.0
 40
2.0
 41
0.0
 71
     5
 72
     1
  1
 
  7
CONVERTER_11
 73
     1
 44
1.20048019207683
  0
MTEXT
  5
31E
330
6D
100
AcDbEntity
  8
1
 62
     2
100
AcDbMText
 10
-215.9355026503941
 20
23.58223463187099
 30
0.0
 40
2.0
 41
0.0
 71
     5
 72
     1
  1
 
  7
CONVERTER_11
 73
     1
 44
1.20048019207683
  0
MTEXT
  5
31F
330
6D
100
AcDbEntity
  8
1
 62
     2
100
AcDbMText
 10
-215.9355026503941
 20
27.83223463187099
 30
0.0
 40
2.0
 41
0.0
 71
     5
 72
     1
  1
 
  7
CONVERTER_11
 73
     1
 44
1.20048019207683
  0
MTEXT
  5
320
330
6D
100
AcDbEntity
  8
1
 62
     2
100
AcDbMText
 10
-215.9355026503941
 20
32.08223463187099
 30
0.0
 40
2.0
 41
0.0
 71
     5
 72
     1
  1
 
  7
CONVERTER_11
 73
     1
 44
1.20048019207683
  0
MTEXT
  5
321
330
6D
100
AcDbEntity
  8
1
 62
     2
100
AcDbMText
 10
-215.9355026503941
 20
36.33223463187099
 30
0.0
 40
2.0
 41
0.0
 71
     5
 72
     1
  1
 
  7
CONVERTER_11
 73
     1
 44
1.20048019207683
  0
MTEXT
  5
322
330
6D
100
AcDbEntity
  8
1
 62
     2
100
AcDbMText
 10
-215.9355026503941
 20
40.58223463187099
 30
0.0
 40
2.0
 41
0.0
 71
     5
 72
     1
  1
 
  7
CONVERTER_11
 73
     1
 44
1.20048019207683
  0
MTEXT
  5
323
330
6D
100
AcDbEntity
  8
1
 62
     2
100
AcDbMText
 10
-29.53550265039258
 20
33.20723463187099
 30
0.0
 40
1.8
 41
0.0
 71
     1
 72
     1
  1
part-rev.
  7
CONVERTER_13
 73
     1
 44
1.20048019207683
  0
MTEXT
  5
324
330
6D
100
AcDbEntity
  8
1
 62
     2
100
AcDbMText
 10
-11.03550265039296
 20
28.95723463187099
 30
0.0
 40
1.8
 41
0.0
 71
     1
 72
     1
  1
surface in um
  7
CONVERTER_11
 73
     1
 44
1.32052821128451
  0
MTEXT
  5
325
330
6D
100
AcDbEntity
  8
1
 62
     7
100
AcDbMText
 10
35.46449734960413
 20
87.95723463187292
 30
0.0
 40
3.5
 41
0.0
 71
     5
 72
     1
  1
C
  7
CONVERTER_11
 73
     1
 44
1.20048019207683
  0
MTEXT
  5
326
330
6D
100
AcDbEntity
  8
1
 62
     7
100
AcDbMText
 10
35.46449734960413
 20
190.457234631871
 30
0.0
 40
3.5
 41
0.0
 71
     5
 72
     1
  1
A
  7
CONVERTER_11
 73
     1
 44
1.20048019207683
  0
MTEXT
  5
327
330
6D
100
AcDbEntity
  8
1
 62
     7
100
AcDbMText
 10
35.46449734960413
 20
137.9572346318729
 30
0.0
 40
3.5
 41
0.0
 71
     5
 72
     1
  1
B
  7
CONVERTER_11
 73
     1
 44
1.20048019207683
  0
MTEXT
  5
328
330
6D
100
AcDbEntity
  8
1
 62
     7
100
AcDbMText
 10
35.46449734960413
 20
35.45723463187099
 30
0.0
 40
3.5
 41
0.0
 71
     5
 72
     1
  1
D
  7
CONVERTER_11
 73
     1
 44
1.20048019207683
  0
MTEXT
  5
329
330
6D
100
AcDbEntity
  8
1
 62
     3
100
AcDbMText
 10
-254.0304348643231
 20
199.7485427871698
 30
0.0
 40
1.8
 41
0.0
 71
     7
 72
     1
  3
Weitergabe sowie Vervielf\U+00e4ltigung dieses Dokuments, Verwertung und\PMitteilung seines Inhalts gem\U+00e4\U+00df \U+00a718 UWG verboten, soweit nicht aus-\Pdr\U+00fccklich gestattet. Zuwiderhandlungen verpflichten zu Schadenersatz\P(\U+00a719 U
  1
WG). Alle Rechte vorbehalten, insbesondere das Recht, Patent-,\PGebrauchsmuster- oder Geschmacksmusteranmeldungen durchzuf\U+00fchren.\PPhoenix Contact GmbH & Co. KG
  7
CONVERTER_11
 73
     1
 44
0.99639855942377
  0
MTEXT
  5
32A
330
6D
100
AcDbEntity
  8
1
 62
     3
100
AcDbMText
 10
-81.177325025535
 20
199.7485427871698
 30
0.0
 40
1.8
 41
0.0
 71
     7
 72
     1
  3
The copying, distribution and utilistion of this document as well as the communication\Pof the contents to others without expressed authorization is prohibited according to\P\U+00a718 UWG German Law. Offenders will be held liable for the payment of 
  1
damages\Paccording to (\U+00a719 UWG German Law). All rights reserved, in particular the right to\Pcarry out patent, utility model or ornamental design registrations.\PFlachsmarktstra\U+00dfe 8  D-32825 Blomberg
  7
CONVERTER_11
 73
     1
 44
0.99639855942377
  0
MTEXT
  5
32B
330
6D
100
AcDbEntity
  8
1
 62
     7
100
AcDbMText
 10
-234.7855026503946
 20
10.45723463187099
 30
0.0
 40
3.5
 41
0.0
 71
     5
 72
     1
  1
1
  7
CONVERTER_11
 73
     1
 44
1.20048019207683
  0
MTEXT
  5
32C
330
6D
100
AcDbEntity
  8
1
 62
     7
100
AcDbMText
 10
-185.535502650395
 20
10.45723463187099
 30
0.0
 40
3.5
 41
0.0
 71
     5
 72
     1
  1
2
  7
CONVERTER_11
 73
     1
 44
1.20048019207683
  0
MTEXT
  5
32D
330
6D
100
AcDbEntity
  8
1
 62
     7
100
AcDbMText
 10
-135.535502650395
 20
10.45723463187099
 30
0.0
 40
3.5
 41
0.0
 71
     5
 72
     1
  1
3
  7
CONVERTER_11
 73
     1
 44
1.20048019207683
  0
MTEXT
  5
32E
330
6D
100
AcDbEntity
  8
1
 62
     7
100
AcDbMText
 10
-85.535502650395
 20
10.45723463187099
 30
0.0
 40
3.5
 41
0.0
 71
     5
 72
     1
  1
4
  7
CONVERTER_11
 73
     1
 44
1.20048019207683
  0
MTEXT
  5
32F
330
6D
100
AcDbEntity
  8
1
 62
     7
100
AcDbMText
 10
-35.53550265039495
 20
10.45723463187099
 30
0.0
 40
3.5
 41
0.0
 71
     5
 72
     1
  1
5
  7
CONVERTER_11
 73
     1
 44
1.20048019207683
  0
MTEXT
  5
330
330
6D
100
AcDbEntity
  8
1
 62
     7
100
AcDbMText
 10
13.71449734960433
 20
10.45723463187099
 30
0.0
 40
3.5
 41
0.0
 71
     5
 72
     1
  1
6
  7
CONVERTER_11
 73
     1
 44
1.20048019207683
  0
MTEXT
  5
331
330
6D
100
AcDbEntity
  8
1
 62
     7
100
AcDbMText
 10
-256.5355026503939
 20
190.457234631871
 30
0.0
 40
3.5
 41
0.0
 71
     5
 72
     1
  1
A
  7
CONVERTER_11
 73
     1
 44
1.20048019207683
  0
MTEXT
  5
332
330
6D
100
AcDbEntity
  8
1
 62
     7
100
AcDbMText
 10
-256.5355026503939
 20
137.957234631871
 30
0.0
 40
3.5
 41
0.0
 71
     5
 72
     1
  1
B
  7
CONVERTER_11
 73
     1
 44
1.20048019207683
  0
MTEXT
  5
333
330
6D
100
AcDbEntity
  8
1
 62
     7
100
AcDbMText
 10
-256.5355026503939
 20
87.95723463187099
 30
0.0
 40
3.5
 41
0.0
 71
     5
 72
     1
  1
C
  7
CONVERTER_11
 73
     1
 44
1.20048019207683
  0
MTEXT
  5
334
330
6D
100
AcDbEntity
  8
1
 62
     7
100
AcDbMText
 10
-256.5355026503939
 20
35.45723463187099
 30
0.0
 40
3.5
 41
0.0
 71
     5
 72
     1
  1
D
  7
CONVERTER_11
 73
     1
 44
1.20048019207683
  0
MTEXT
  5
335
330
6D
100
AcDbEntity
  8
1
 62
     2
100
AcDbMText
 10
16.38290563128584
 20
41.70723463187099
 30
0.0
 40
1.8
 41
0.0
 71
     1
 72
     1
  1
dim.var.
  7
CONVERTER_11
 73
     1
 44
1.20048019207683
  0
MTEXT
  5
337
330
6D
100
AcDbEntity
  8
1
 62
     2
100
AcDbMText
 10
-29.53550265039258
 20
28.95723463187099
 30
0.0
 40
1.8
 41
0.0
 71
     1
 72
     1
  1
document-No.
  7
CONVERTER_15
 73
     1
 44
1.32052821128451
  0
TEXT
  5
338
330
6D
100
AcDbEntity
  8
1
 62
     2
100
AcDbText
 10
-77.380307177145
 20
14.19821741687943
 30
0.0
 40
1.8
  1
of
 41
0.9
  7
CONVERTER_11
100
AcDbText
  0
TEXT
  5
339
330
6D
100
AcDbEntity
  8
1
 62
     2
100
AcDbText
 10
-95.58030717714487
 20
14.19821741687932
 30
0.0
 40
1.8
  1
page
 41
0.9
  7
CONVERTER_11
100
AcDbText
  0
MTEXT
  5
33A
330
6D
100
AcDbEntity
  8
1
 62
     2
100
AcDbMText
 10
-103.330307177145
 20
14.20723463187099
 30
0.0
 40
1.8
 41
0.0
 71
     8
 72
     1
  1
name
  7
CONVERTER_11
 73
     1
 44
1.32052821128451
  0
MTEXT
  5
33B
330
6D
100
AcDbEntity
  8
1
 62
     2
100
AcDbMText
 10
-116.8303071771449
 20
14.20723463187099
 30
0.0
 40
1.8
 41
0.0
 71
     8
 72
     1
  1
check.on
  7
CONVERTER_11
 73
     1
 44
1.32052821128451
  0
MTEXT
  5
33C
330
6D
100
AcDbEntity
  8
1
 62
     2
100
AcDbMText
 10
-130.3303071771449
 20
14.20723463187099
 30
0.0
 40
1.8
 41
0.0
 71
     8
 72
     1
  1
name
  7
CONVERTER_11
 73
     1
 44
1.32052821128451
  0
MTEXT
  5
33D
330
6D
100
AcDbEntity
  8
1
 62
     2
100
AcDbMText
 10
-206.0855026503951
 20
14.20723463187099
 30
0.0
 40
1.8
 41
0.0
 71
     8
 72
     1
  1
date
  7
CONVERTER_11
 73
     1
 44
1.32052821128451
  0
MTEXT
  5
33E
330
6D
100
AcDbEntity
  8
1
 62
     2
100
AcDbMText
 10
-36.05511801955348
 20
41.70723463187082
 30
0.0
 40
1.8
 41
0.0
 71
     1
 72
     1
  1
material
  7
CONVERTER_11
 73
     1
 44
1.20048019207683
  0
MTEXT
  5
33F
330
6D
100
AcDbEntity
  8
1
 62
     2
100
AcDbMText
 10
-215.9355026503941
 20
14.20723463187099
 30
0.0
 40
1.8
 41
0.0
 71
     8
 72
     1
  1
RI
  7
CONVERTER_11
 73
     1
 44
1.32052821128451
  0
MTEXT
  5
340
330
6D
100
AcDbEntity
  8
1
 62
     2
100
AcDbMText
 10
-80.430307177145
 20
39.65723463187103
 30
0.0
 40
1.8
 41
0.0
 71
     8
 72
     1
  1
date
  7
CONVERTER_11
 73
     1
 44
1.32052821128451
  0
MTEXT
  5
341
330
6D
100
AcDbEntity
  8
1
 62
     2
100
AcDbMText
 10
-66.93030717714501
 20
39.65723463187103
 30
0.0
 40
1.8
 41
0.0
 71
     8
 72
     1
  1
name
  7
CONVERTER_11
 73
     1
 44
1.32052821128451
  0
MTEXT
  5
342
330
6D
100
AcDbEntity
  8
1
 62
     2
100
AcDbMText
 10
-168.20790491377
 20
14.20723463187099
 30
0.0
 40
1.8
 41
0.0
 71
     8
 72
     1
  1
revision
  7
CONVERTER_11
 73
     1
 44
1.32052821128451
  0
MTEXT
  5
343
330
6D
100
AcDbEntity
  8
1
 62
     2
100
AcDbMText
 10
7.26449734960693
 20
41.70723463187099
 30
0.0
 40
1.8
 41
0.0
 71
     1
 72
     1
  1
scale
  7
CONVERTER_11
 73
     1
 44
1.20048019207683
  0
MTEXT
  5
344
330
6D
100
AcDbEntity
  8
1
 62
     2
100
AcDbMText
 10
-91.8803071771449
 20
36.33223463187099
 30
0.0
 40
1.8
 41
0.0
 71
     5
 72
     1
  1
creat.
  7
CONVERTER_11
 73
     1
 44
1.20048019207683
  0
MTEXT
  5
345
330
6D
100
AcDbEntity
  8
1
 62
     2
100
AcDbMText
 10
-91.8803071771449
 20
32.08223463187099
 30
0.0
 40
1.8
 41
0.0
 71
     5
 72
     1
  1
check.
  7
CONVERTER_11
 73
     1
 44
1.20048019207683
  0
MTEXT
  5
346
330
6D
100
AcDbEntity
  8
1
 62
     3
100
AcDbMText
 10
-70.380307177145
 20
27.8322346318711
 30
0.0
 40
2.5
 41
0.0
 71
     5
 72
     1
  1
DIN A4
  7
CONVERTER_11
 73
     1
 44
1.20048019207683
  0
MTEXT
  5
347
330
6D
100
AcDbEntity
  8
1
 62
     2
100
AcDbMText
 10
-59.08030717714496
 20
41.70723463187099
 30
0.0
 40
1.8
 41
0.0
 71
     1
 72
     1
  1
ident.-No. / RI
  7
CONVERTER_11
 73
     1
 44
1.20048019207683
  0
TEXT
  5
348
330
6D
100
AcDbEntity
  8
1
 62
     2
100
AcDbText
 10
-86.9340422068028
 20
14.15798597806903
 30
0.0
 40
1.8
  1
 
 41
0.9
  7
CONVERTER_11
100
AcDbText
  0
TEXT
  5
349
330
6D
100
AcDbEntity
  8
1
 62
     2
100
AcDbText
 10
-72.14499836733131
 20
14.20723463187099
 30
0.0
 40
1.8
  1
1
 41
0.9
  7
CONVERTER_11
100
AcDbText
  0
MTEXT
  5
34A
330
6D
100
AcDbEntity
  8
1
 62
     2
100
AcDbMText
 10
-59.18030717714498
 20
20.45723463187099
 30
0.0
 40
1.8
 41
0.0
 71
     1
 72
     1
  1
description
  7
CONVERTER_11
 73
     1
 44
1.20048019207683
  0
MTEXT
  5
34B
330
6D
100
AcDbEntity
  8
1
 62
     2
100
AcDbMText
 10
-91.8803071771449
 20
39.65723463187103
 30
0.0
 40
1.8
 41
0.0
 71
     8
 72
     1
  1
00
  7
CONVERTER_11
 73
     1
 44
1.20048019207683
  0
MTEXT
  5
34C
330
6D
100
AcDbEntity
  8
1
 62
     2
100
AcDbMText
 10
-59.18030717714498
 20
28.95723463187093
 30
0.0
 40
1.8
 41
0.0
 71
     1
 72
     1
  1
document-type
  7
CONVERTER_11
 73
     1
 44
1.20048019207683
  0
MTEXT
  5
34D
330
6D
100
AcDbEntity
  8
1
 62
     2
100
AcDbMText
 10
-66.93030717714501
 20
32.08223463187099
 30
0.0
 40
1.8
 41
0.0
 71
     5
 72
     1
  1
pbam06
  7
CONVERTER_11
 73
     1
 44
1.32052821128451
  0
MTEXT
  5
34E
330
6D
100
AcDbEntity
  8
1
 62
     2
100
AcDbMText
 10
-66.93030717714501
 20
36.33223463187099
 30
0.0
 40
1.8
 41
0.0
 71
     5
 72
     1
  1
pbfm09
  7
CONVERTER_11
 73
     1
 44
1.32052821128451
  0
MTEXT
  5
34F
330
6D
100
AcDbEntity
  8
1
 62
     2
100
AcDbMText
 10
-80.43030717714495
 20
32.08223463187099
 30
0.0
 40
1.8
 41
0.0
 71
     5
 72
     1
  1
08.12.10
  7
CONVERTER_11
 73
     1
 44
1.32052821128451
  0
MTEXT
  5
350
330
6D
100
AcDbEntity
  8
1
 62
     2
100
AcDbMText
 10
-80.43030717714495
 20
36.33223463187099
 30
0.0
 40
1.8
 41
0.0
 71
     5
 72
     1
  1
01.06.05
  7
CONVERTER_11
 73
     1
 44
1.32052821128451
  0
TEXT
  5
351
330
6D
100
AcDbEntity
  8
1
 62
     7
100
AcDbText
 10
-44.20675945513116
 20
35.50723463187099
 30
0.0
 40
2.5
  1
/
 41
0.9
  7
CONVERTER_11
100
AcDbText
  0
TEXT
  5
353
330
6D
100
AcDbEntity
  8
1
 62
     3
100
AcDbText
 10
-11.03550265039296
 20
22.75723463187099
 30
0.0
 40
2.5
  1
 
 41
0.54
  7
CONVERTER_16
100
AcDbText
  0
MTEXT
  5
355
330
6D
100
AcDbEntity
  8
1
 62
     7
100
AcDbMText
 10
-13.60790491376946
 20
16.20723463187122
 30
0.0
 40
3.0
 41
0.0
 71
     5
 72
     1
  1
FBS  4-6
  7
CONVERTER_17
 73
     1
 44
1.20048019207683
  0
MTEXT
  5
356
330
6D
100
AcDbEntity
  8
1
 62
     3
100
AcDbMText
 10
10.62370149044645
 20
35.5072346318711
 30
0.0
 40
2.5
 41
0.0
 71
     8
 72
     1
  1
1:1
  7
CONVERTER_13
 73
     1
 44
1.32052821128451
  0
TEXT
  5
357
330
6D
100
AcDbEntity
  8
1
 62
     3
100
AcDbText
 10
-36.28030717714495
 20
35.50723463187099
 30
0.0
 40
2.5
  1
-
 41
0.54
  7
CONVERTER_16
100
AcDbText
  0
TEXT
  5
358
330
6D
100
AcDbEntity
  8
1
 62
     7
100
AcDbText
 10
-58.68030717714516
 20
35.50723463187099
 30
0.0
 40
2.5
  1
3030255
 41
0.81
  7
CONVERTER_17
100
AcDbText
  0
TEXT
  5
359
330
6D
100
AcDbEntity
  8
1
 62
     7
100
AcDbText
 10
-29.53550265039258
 20
22.75723463187099
 30
0.0
 40
2.5
  1
00357327
 41
0.81
  7
CONVERTER_17
100
AcDbText
  0
TEXT
  5
35A
330
6D
100
AcDbEntity
  8
1
 62
     3
100
AcDbText
 10
16.08290563128594
 20
35.50723463187099
 30
0.0
 40
2.5
  1
 
 41
0.54
  7
CONVERTER_16
100
AcDbText
  0
TEXT
  5
35C
330
6D
100
AcDbEntity
  8
1
 62
     3
100
AcDbText
 10
-59.18030717714498
 20
22.75723463187099
 30
0.0
 40
2.5
  1
KUNDENZCHNG-SELECT
 41
0.45
  7
CONVERTER_18
100
AcDbText
  0
TEXT
  5
35D
330
6D
100
AcDbEntity
  8
1
 62
     7
100
AcDbText
 10
-42.05039495808916
 20
35.50723463187099
 30
0.0
 40
2.5
  1
00
 41
0.81
  7
CONVERTER_17
100
AcDbText
  0
MTEXT
  5
35E
330
6D
100
AcDbEntity
  8
1
 62
     3
100
AcDbMText
 10
-19.32848276378456
 20
33.30723463187098
 30
0.0
 40
2.0
 41
0.0
 71
     1
 72
     1
  1
 
  7
CONVERTER_13
 73
     1
 44
1.20048019207683
  0
HATCH
  5
35F
330
6D
100
AcDbEntity
  8
1
  6
Continuous
 62
     2
100
AcDbHatch
 10
0.0
 20
0.0
 30
0.0
210
0.0
220
0.0
230
1.0
  2
CUSTOM0
 70
     0
 71
     1
 91
        1
 92
        1
 93
       12
 72
     1
 10
-68.30275615673742
 20
24.10723463186511
 11
-67.30275615673742
 21
24.10723463186511
 72
     1
 10
-67.30275615673742
 20
24.10723463186511
 11
-68.23132758530889
 21
22.95882473787063
 72
     1
 10
-68.23132758530889
 20
22.95882473787063
 11
-67.23472894585339
 21
21.72628225091111
 72
     1
 10
-67.23472894585339
 20
21.72628225091111
 11
-68.23472894585339
 21
21.72628225091111
 72
     1
 10
-68.23472894585339
 20
21.72628225091111
 11
-68.7313275853081
 21
22.34045017956774
 72
     1
 10
-68.7313275853081
 20
22.34045017956774
 11
-69.22792622476481
 21
21.72628225091111
 72
     1
 10
-69.22792622476481
 20
21.72628225091111
 11
-70.22792622476481
 21
21.72628225091111
 72
     1
 10
-70.22792622476481
 20
21.72628225091111
 11
-69.23132758530889
 21
22.95882473787063
 72
     1
 10
-69.23132758530889
 20
22.95882473787063
 11
-70.15989901388039
 21
24.10723463186511
 72
     1
 10
-70.15989901388039
 20
24.10723463186511
 11
-69.15989901388039
 21
24.10723463186511
 72
     1
 10
-69.15989901388039
 20
24.10723463186511
 11
-68.7313275853081
 21
23.57719929617369
 72
     1
 10
-68.7313275853081
 20
23.57719929617369
 11
-68.30275615673742
 21
24.10723463186511
 97
       12
330
1F3
330
1F2
330
1F1
330
1F0
330
1EF
330
1EE
330
1ED
330
1EC
330
1EB
330
1EA
330
1E9
330
1E8
 75
     1
 76
     2
 52
0.02257274673786
 41
0.05
 77
     0
 78
     1
 53
0.02257274673786
 43
-1699.81996388569
 44
12438.36661982803
 45
-0.0500196945567958
 46
0.0499802976826355
 79
     0
 98
        1
 10
0.0
 20
0.0
  0
HATCH
  5
360
330
6D
100
AcDbEntity
  8
1
  6
Continuous
 62
     2
100
AcDbHatch
 10
0.0
 20
0.0
 30
0.0
210
0.0
220
0.0
230
1.0
  2
CUSTOM1
 70
     0
 71
     1
 91
        2
 92
        1
 93
        8
 72
     1
 10
-72.7137481088821
 20
21.18818701283104
 11
-71.82939436738491
 21
21.18818701283104
 72
     1
 10
-71.82939436738491
 20
21.18818701283104
 11
-70.8327957279295
 21
18.80723463187693
 72
     1
 10
-70.8327957279295
 20
18.80723463187693
 11
-71.71714946942589
 21
18.80723463187693
 72
     1
 10
-71.71714946942589
 20
18.80723463187693
 11
-71.8679132837236
 21
19.22900333936022
 72
     1
 10
-71.8679132837236
 20
19.22900333936022
 11
-72.67522919254381
 21
19.22900333936022
 72
     1
 10
-72.67522919254381
 20
19.22900333936022
 11
-72.825993006841
 21
18.80723463187693
 72
     1
 10
-72.825993006841
 20
18.80723463187693
 11
-73.710346748338
 21
18.80723463187693
 72
     1
 10
-73.710346748338
 20
18.80723463187693
 11
-72.7137481088821
 21
21.18818701283104
 97
        8
330
271
330
270
330
26F
330
26E
330
26D
330
26C
330
26B
330
26A
 92
       16
 93
        3
 72
     1
 10
-72.48555858745851
 20
19.7596155842576
 11
-72.27157123813359
 21
20.3582550400416
 72
     1
 10
-72.27157123813359
 20
20.3582550400416
 11
-72.05758388880741
 21
19.7596155842576
 72
     1
 10
-72.05758388880741
 20
19.7596155842576
 11
-72.48555858745851
 21
19.7596155842576
 97
        3
330
269
330
268
330
267
 75
     1
 76
     2
 52
0.02257274673786
 41
0.05
 77
     0
 78
     1
 53
0.02257274673786
 43
-1699.81996388569
 44
12438.36661982803
 45
-0.0500196945567958
 46
0.0499802976826355
 79
     0
 98
        1
 10
0.0
 20
0.0
  0
HATCH
  5
361
330
6D
100
AcDbEntity
  8
1
  6
Continuous
 62
     2
100
AcDbHatch
 10
0.0
 20
0.0
 30
0.0
210
0.0
220
0.0
230
1.0
  2
CUSTOM2
 70
     0
 71
     1
 91
        1
 92
        1
 93
        8
 72
     1
 10
-75.60694538779222
 20
21.18818701283104
 11
-75.60694538779222
 21
20.57594211486972
 72
     1
 10
-75.60694538779222
 20
20.57594211486972
 11
-75.0287140952762
 21
20.57594211486972
 72
     1
 10
-75.0287140952762
 20
20.57594211486972
 11
-75.0287140952762
 21
18.80723463187693
 72
     1
 10
-75.0287140952762
 20
18.80723463187693
 11
-74.1783739592211
 21
18.80723463187693
 72
     1
 10
-74.1783739592211
 20
18.80723463187693
 11
-74.1783739592211
 21
20.57594211486972
 72
     1
 10
-74.1783739592211
 20
20.57594211486972
 11
-73.6001426667051
 21
20.57594211486972
 72
     1
 10
-73.6001426667051
 20
20.57594211486972
 11
-73.6001426667051
 21
21.18818701283104
 72
     1
 10
-73.6001426667051
 20
21.18818701283104
 11
-75.60694538779222
 21
21.18818701283104
 97
        8
330
279
330
278
330
277
330
276
330
275
330
274
330
273
330
272
 75
     1
 76
     2
 52
0.02257274673786
 41
0.05
 77
     0
 78
     1
 53
0.02257274673786
 43
-1699.81996388569
 44
12438.36661982803
 45
-0.0500196945567958
 46
0.0499802976826355
 79
     0
 98
        1
 10
0.0
 20
0.0
  0
HATCH
  5
362
330
6D
100
AcDbEntity
  8
1
  6
Continuous
 62
     2
100
AcDbHatch
 10
0.0
 20
0.0
 30
0.0
210
0.0
220
0.0
230
1.0
  2
CUSTOM3
 70
     0
 71
     1
 91
        1
 92
        1
 93
       10
 72
     1
 10
-78.5940202177251
 20
21.18818701283104
 11
-78.5940202177251
 21
18.80723463187693
 72
     1
 10
-78.5940202177251
 20
18.80723463187693
 11
-77.7436800816694
 21
18.80723463187693
 72
     1
 10
-77.7436800816694
 20
18.80723463187693
 11
-77.7436800816694
 21
19.8276427951441
 72
     1
 10
-77.7436800816694
 20
19.8276427951441
 11
-76.85932634017382
 21
18.80723463187693
 72
     1
 10
-76.85932634017382
 20
18.80723463187693
 11
-76.00898620411971
 21
18.80723463187693
 72
     1
 10
-76.00898620411971
 20
18.80723463187693
 11
-76.00898620411971
 21
21.18818701283104
 72
     1
 10
-76.00898620411971
 20
21.18818701283104
 11
-76.85932634017382
 21
21.18818701283104
 72
     1
 10
-76.85932634017382
 20
21.18818701283104
 11
-76.85932634017382
 21
20.16777884956369
 72
     1
 10
-76.85932634017382
 20
20.16777884956369
 11
-77.7436800816694
 21
21.18818701283104
 72
     1
 10
-77.7436800816694
 20
21.18818701283104
 11
-78.5940202177251
 21
21.18818701283104
 97
       10
330
283
330
282
330
281
330
280
330
27F
330
27E
330
27D
330
27C
330
27B
330
27A
 75
     1
 76
     2
 52
0.02257274673786
 41
0.05
 77
     0
 78
     1
 53
0.02257274673786
 43
-1699.81996388569
 44
12438.36661982803
 45
-0.0500196945567958
 46
0.0499802976826355
 79
     0
 98
        1
 10
0.0
 20
0.0
  0
HATCH
  5
363
330
6D
100
AcDbEntity
  8
1
  6
Continuous
 62
     2
100
AcDbHatch
 10
0.0
 20
0.0
 30
0.0
210
0.0
220
0.0
230
1.0
  2
_USER
 70
     0
 71
     1
 91
        1
 92
        1
 93
        4
 72
     1
 10
-70.6129602383694
 20
24.10723463186511
 11
-70.6129602383694
 21
21.72628225091111
 72
     1
 10
-70.6129602383694
 20
21.72628225091111
 11
-71.49731397986679
 21
21.72628225091111
 72
     1
 10
-71.49731397986679
 20
21.72628225091111
 11
-71.49731397986679
 21
24.10723463186511
 72
     1
 10
-71.49731397986679
 20
24.10723463186511
 11
-70.6129602383694
 21
24.10723463186511
 97
        4
330
1F6
330
1F5
330
284
330
1F4
 75
     1
 76
     0
 52
0.0
 41
0.05
 77
     0
 78
     1
 53
0.0
 43
0.0
 44
0.0
 45
0.0
 46
0.05
 79
     0
 98
        1
 10
0.0
 20
0.0
  0
HATCH
  5
364
330
6D
100
AcDbEntity
  8
1
  6
Continuous
 62
     2
100
AcDbHatch
 10
0.0
 20
0.0
 30
0.0
210
0.0
220
0.0
230
1.0
  2
CUSTOM4
 70
     0
 71
     1
 91
        1
 92
        1
 93
       10
 72
     1
 10
-72.8177221431316
 20
24.10723463186511
 11
-72.8177221431316
 21
23.08682646859794
 72
     1
 10
-72.8177221431316
 20
23.08682646859794
 11
-73.7020758846289
 21
24.10723463186511
 72
     1
 10
-73.7020758846289
 20
24.10723463186511
 11
-74.5524160206825
 21
24.10723463186511
 72
     1
 10
-74.5524160206825
 20
24.10723463186511
 11
-74.5524160206825
 21
21.72628225091111
 72
     1
 10
-74.5524160206825
 20
21.72628225091111
 11
-73.7020758846289
 21
21.72628225091111
 72
     1
 10
-73.7020758846289
 20
21.72628225091111
 11
-73.7020758846289
 21
22.74669041417852
 72
     1
 10
-73.7020758846289
 20
22.74669041417852
 11
-72.8177221431316
 21
21.72628225091111
 72
     1
 10
-72.8177221431316
 20
21.72628225091111
 11
-71.96738200707802
 21
21.72628225091111
 72
     1
 10
-71.96738200707802
 20
21.72628225091111
 11
-71.96738200707802
 21
24.10723463186511
 72
     1
 10
-71.96738200707802
 20
24.10723463186511
 11
-72.8177221431316
 21
24.10723463186511
 97
       10
330
28E
330
28D
330
28C
330
28B
330
28A
330
289
330
288
330
287
330
286
330
285
 75
     1
 76
     2
 52
0.02257274673786
 41
0.05
 77
     0
 78
     1
 53
0.02257274673786
 43
-1699.81996388569
 44
12438.36661982803
 45
-0.0500196945567958
 46
0.0499802976826355
 79
     0
 98
        1
 10
0.0
 20
0.0
  0
HATCH
  5
365
330
6D
100
AcDbEntity
  8
1
  6
Continuous
 62
     2
100
AcDbHatch
 10
0.0
 20
0.0
 30
0.0
210
0.0
220
0.0
230
1.0
  2
CUSTOM5
 70
     0
 71
     1
 91
        1
 92
        1
 93
       12
 72
     1
 10
-80.3564976533352
 20
24.10723463186511
 11
-80.3564976533352
 21
23.27390129853032
 72
     1
 10
-80.3564976533352
 20
23.27390129853032
 11
-79.6081983336077
 21
23.27390129853032
 72
     1
 10
-79.6081983336077
 20
23.27390129853032
 11
-79.6081983336077
 21
24.10723463186511
 72
     1
 10
-79.6081983336077
 20
24.10723463186511
 11
-78.75785819755279
 21
24.10723463186511
 72
     1
 10
-78.75785819755279
 20
24.10723463186511
 11
-78.75785819755279
 21
21.72628225091111
 72
     1
 10
-78.75785819755279
 20
21.72628225091111
 11
-79.6081983336077
 21
21.72628225091111
 72
     1
 10
-79.6081983336077
 20
21.72628225091111
 11
-79.6081983336077
 21
22.61063599240973
 72
     1
 10
-79.6081983336077
 20
22.61063599240973
 11
-80.3564976533352
 21
22.61063599240973
 72
     1
 10
-80.3564976533352
 20
22.61063599240973
 11
-80.3564976533352
 21
21.72628225091111
 72
     1
 10
-80.3564976533352
 20
21.72628225091111
 11
-81.20683778938961
 21
21.72628225091111
 72
     1
 10
-81.20683778938961
 20
21.72628225091111
 11
-81.20683778938961
 21
24.10723463186511
 72
     1
 10
-81.20683778938961
 20
24.10723463186511
 11
-80.3564976533352
 21
24.10723463186511
 97
       12
330
29A
330
299
330
298
330
297
330
296
330
295
330
294
330
293
330
292
330
291
330
290
330
28F
 75
     1
 76
     2
 52
0.02257274673786
 41
0.05
 77
     0
 78
     1
 53
0.02257274673786
 43
-1699.81996388569
 44
12438.36661982803
 45
-0.0500196945567958
 46
0.0499802976826355
 79
     0
 98
        1
 10
0.0
 20
0.0
  0
HATCH
  5
366
330
6D
100
AcDbEntity
  8
1
  6
Continuous
 62
     2
100
AcDbHatch
 10
0.0
 20
0.0
 30
0.0
210
0.0
220
0.0
230
1.0
  2
CUSTOM6
 70
     0
 71
     1
 91
        1
 92
        1
 93
        4
 72
     1
 10
-80.2885363472881
 20
21.18818701283104
 11
-80.1864955309608
 21
21.18818701283104
 72
     2
 10
-80.1864955309608
 20
19.99771082235393
 40
1.190476190477
 50
270.0
 51
450.0
 73
     0
 72
     1
 10
-80.1864955309608
 20
18.80723463187693
 11
-80.2885363472881
 21
18.80723463187693
 72
     2
 10
-80.2885363472881
 20
19.99771082235393
 40
1.19047619047711
 50
90.0
 51
270.0
 73
     0
 97
        4
330
23F
330
2DF
330
23E
330
2DE
 75
     1
 76
     2
 52
0.02257274673786
 41
0.05
 77
     0
 78
     1
 53
0.02257274673786
 43
-1699.81996388569
 44
12438.36661982803
 45
-0.0500196945567958
 46
0.0499802976826355
 79
     0
 98
        1
 10
0.0
 20
0.0
  0
HATCH
  5
367
330
6D
100
AcDbEntity
  8
1
  6
Continuous
 62
     2
100
AcDbHatch
 10
0.0
 20
0.0
 30
0.0
210
0.0
220
0.0
230
1.0
  2
CUSTOM7
 70
     0
 71
     1
 91
        1
 92
        1
 93
       14
 72
     1
 10
-77.165385038653
 20
24.10723463186511
 11
-77.0633442223269
 21
24.10723463186511
 72
     1
 10
-77.0633442223269
 20
24.10723463186511
 11
-75.0224840478937
 21
24.10723463186511
 72
     1
 10
-75.0224840478937
 20
24.10723463186511
 11
-75.0224840478937
 21
23.56301694479052
 72
     1
 10
-75.0224840478937
 20
23.56301694479052
 11
-75.974865000275
 21
23.56301694479052
 72
     1
 10
-75.974865000275
 20
23.56301694479052
 11
-75.974865000275
 21
23.18886728492552
 72
     1
 10
-75.974865000275
 20
23.18886728492552
 11
-75.0224840478937
 21
23.18886728492552
 72
     1
 10
-75.0224840478937
 20
23.18886728492552
 11
-75.0224840478937
 21
22.6446495978507
 72
     1
 10
-75.0224840478937
 20
22.6446495978507
 11
-75.974865000275
 21
22.6446495978507
 72
     1
 10
-75.974865000275
 20
22.6446495978507
 11
-75.974865000275
 21
22.27049993798582
 72
     1
 10
-75.974865000275
 20
22.27049993798582
 11
-75.0224840478937
 21
22.27049993798582
 72
     1
 10
-75.0224840478937
 20
22.27049993798582
 11
-75.0224840478937
 21
21.72628225091111
 72
     1
 10
-75.0224840478937
 20
21.72628225091111
 11
-77.0633442223269
 21
21.72628225091111
 72
     1
 10
-77.0633442223269
 20
21.72628225091111
 11
-77.165385038653
 21
21.72628225091111
 72
     2
 10
-77.165385038653
 20
22.91675844138823
 40
1.190476190476883
 50
90.0
 51
270.0
 73
     0
 97
       14
330
24C
330
24B
330
24A
330
249
330
248
330
247
330
246
330
245
330
244
330
243
330
242
330
241
330
240
330
2E0
 75
     1
 76
     2
 52
0.02257274673786
 41
0.05
 77
     0
 78
     1
 53
0.02257274673786
 43
-1699.81996388569
 44
12438.36661982803
 45
-0.0500196945567958
 46
0.0499802976826355
 79
     0
 98
        1
 10
0.0
 20
0.0
  0
HATCH
  5
368
330
6D
100
AcDbEntity
  8
1
  6
Continuous
 62
     2
100
AcDbHatch
 10
0.0
 20
0.0
 30
0.0
210
0.0
220
0.0
230
1.0
  2
CUSTOM8
 70
     0
 71
     1
 91
        2
 92
        1
 93
        9
 72
     1
 10
-82.627957748662
 20
24.10723463186511
 11
-82.3442645541887
 21
24.10723463186511
 72
     2
 10
-82.4368359734101
 20
23.28440160415991
 40
0.8280239484092065
 50
276.4189726355862
 51
443.5810273644138
 73
     0
 72
     1
 10
-82.3442645541887
 20
22.46156857645471
 11
-82.4790565363516
 21
22.46156857645471
 72
     1
 10
-82.4790565363516
 20
22.46156857645471
 11
-82.901395612519
 21
22.46156857645471
 72
     1
 10
-82.901395612519
 20
22.46156857645471
 11
-82.901395612519
 21
21.72628225091111
 72
     1
 10
-82.901395612519
 20
21.72628225091111
 11
-83.05029682482841
 21
21.72628225091111
 72
     1
 10
-83.05029682482841
 20
21.72628225091111
 11
-83.7857493540148
 21
21.72628225091111
 72
     1
 10
-83.7857493540148
 20
21.72628225091111
 11
-83.7857493540148
 21
24.10723463186511
 72
     1
 10
-83.7857493540148
 20
24.10723463186511
 11
-82.627957748662
 21
24.10723463186511
 97
        9
330
266
330
2E5
330
265
330
264
330
263
330
262
330
261
330
260
330
25F
 92
       16
 93
        6
 72
     1
 10
-82.6989897977231
 20
23.5902333489685
 11
-82.7541725699326
 21
23.5902333489685
 72
     1
 10
-82.7541725699326
 20
23.5902333489685
 11
-82.901395612519
 21
23.5902333489685
 72
     1
 10
-82.901395612519
 20
23.5902333489685
 11
-82.901395612519
 21
23.04000128180641
 72
     1
 10
-82.901395612519
 20
23.04000128180641
 11
-82.7541725699326
 21
23.04000128180641
 72
     1
 10
-82.7541725699326
 20
23.04000128180641
 11
-82.6989897977231
 21
23.04000128180641
 72
     2
 10
-82.6989897977231
 20
23.31511731538754
 40
0.2751160335811278
 50
270.0
 51
450.0
 73
     1
 97
        6
330
25E
330
25D
330
25C
330
25B
330
25A
330
2E4
 75
     1
 76
     2
 52
0.02257274673786
 41
0.05
 77
     0
 78
     1
 53
0.02257274673786
 43
-1699.81996388569
 44
12438.36661982803
 45
-0.0500196945567958
 46
0.0499802976826355
 79
     0
 98
        1
 10
0.0
 20
0.0
  0
HATCH
  5
369
330
6D
100
AcDbEntity
  8
1
  6
Continuous
 62
     2
100
AcDbHatch
 10
0.0
 20
0.0
 30
0.0
210
0.0
220
0.0
230
1.0
  2
CUSTOM9
 70
     0
 71
     1
 91
        4
 92
        1
 93
        8
 72
     2
 10
-89.19255207510291
 20
23.77390129853214
 40
0.3333333333329698
 50
90.0
 51
180.0
 73
     1
 72
     1
 10
-89.52588540843651
 20
23.77390129853214
 11
-89.52588540843651
 21
19.1405679652099
 72
     2
 10
-89.19255207510291
 20
19.1405679652099
 40
0.3333333333335986
 50
180.0
 51
270.0
 73
     1
 72
     1
 10
-89.19255207510291
 20
18.80723463187693
 11
-84.6592187417696
 21
18.80723463187693
 72
     2
 10
-84.6592187417696
 20
19.1405679652099
 40
0.3333333333329698
 50
270.0
 51
360.0
 73
     1
 72
     1
 10
-84.3258854084369
 20
19.1405679652099
 11
-84.3258854084369
 21
23.77390129853214
 72
     2
 10
-84.6592187417696
 20
23.77390129853214
 40
0.3333333333327033
 50
0.0
 51
90.0
 73
     1
 72
     1
 10
-84.6592187417696
 20
24.10723463186511
 11
-89.19255207510291
 21
24.10723463186511
 97
        8
330
2F6
330
259
330
2F5
330
258
330
2F4
330
257
330
2F3
330
256
 92
       16
 93
       10
 72
     1
 10
-86.8147742973251
 20
20.36093833557064
 11
-86.8147742973251
 21
20.8549331485348
 72
     2
 10
-86.5499594825109
 20
20.8549331485348
 40
0.2648148148214952
 50
180.0
 51
244.2807204985013
 73
     0
 72
     2
 10
-87.0184780010286
 20
21.82760500224052
 40
0.8148148148132878
 50
295.719279502167
 51
424.2807204979753
 73
     1
 72
     2
 10
-86.5499594825109
 20
22.80027685594641
 40
0.2648148148142013
 50
115.7192795019203
 51
180.0
 73
     0
 72
     1
 10
-86.8147742973251
 20
22.80027685594641
 11
-86.8147742973251
 21
23.29427166891961
 72
     2
 10
-86.5499594825109
 20
23.29427166891961
 40
0.2648148148090819
 50
180.0
 51
270.0
 73
     0
 72
     1
 10
-86.5499594825109
 20
23.55908648372869
 11
-86.5092187417705
 21
23.55908648372869
 72
     2
 10
-86.5092187417705
 20
21.82760500224052
 40
1.731481481474422
 50
270.0
 51
450.0
 73
     0
 72
     1
 10
-86.5092187417705
 20
20.0961235207661
 11
-86.5499594825109
 21
20.0961235207661
 72
     2
 10
-86.5499594825109
 20
20.36093833557064
 40
0.2648148148142013
 50
90.0
 51
180.0
 73
     0
 97
       10
330
250
330
2EC
330
2E2
330
2EB
330
24F
330
2EA
330
24E
330
2E1
330
24D
330
2E9
 92
       16
 93
       12
 72
     1
 10
-88.790700223252
 20
23.55908648372869
 11
-87.4869965195476
 21
23.55908648372869
 72
     2
 10
-87.4869965195476
 20
23.29427166891961
 40
0.2648148148150966
 50
270.0
 51
360.0000000019924
 73
     0
 72
     1
 10
-87.2221817047325
 20
23.2942716689104
 11
-87.2221817047325
 21
22.80027685594641
 72
     2
 10
-87.4869965195476
 20
22.80027685594641
 40
0.2648148148217111
 50
0.0
 51
64.28072049840434
 73
     0
 72
     2
 10
-87.0184780010286
 20
21.82760500224052
 40
0.8148148148137929
 50
115.7192795022131
 51
244.2807204978133
 73
     1
 72
     2
 10
-87.4869965195476
 20
20.8549331485348
 40
0.2648148148150966
 50
295.7192795016926
 51
359.9999999980707
 73
     0
 72
     1
 10
-87.2221817047325
 20
20.85493314854372
 11
-87.2221817047325
 21
19.5461235207587
 72
     2
 10
-87.4869965195476
 20
19.5461235207587
 40
0.2648148148045912
 50
0.0
 51
90.0
 73
     0
 72
     1
 10
-87.4869965195476
 20
19.28130870595411
 11
-88.790700223252
 21
19.28130870595411
 72
     2
 10
-88.790700223252
 20
19.5461235207587
 40
0.2648148148140024
 50
90.0
 51
180.0
 73
     0
 72
     1
 10
-89.055515038066
 20
19.5461235207587
 11
-89.055515038066
 21
23.29427166891961
 72
     2
 10
-88.790700223252
 20
23.29427166891961
 40
0.2648148148090819
 50
180.0
 51
270.0
 73
     0
 97
       12
330
255
330
2F2
330
254
330
2F1
330
2E3
330
2F0
330
253
330
2EF
330
252
330
2EE
330
251
330
2ED
 92
       16
 93
        1
 72
     2
 10
-87.0184780010286
 20
21.82760500224052
 40
0.4074074074073053
 50
0.0
 51
360.0
 73
     1
 97
        1
330
2E6
 75
     1
 76
     2
 52
0.0
 41
0.05
 77
     0
 78
     1
 53
0.0
 43
-1699.81996388569
 44
12438.36661982803
 45
-0.05
 46
0.05
 79
     0
 98
        1
 10
0.0
 20
0.0
  0
ENDBLK
  5
6F
330
6D
100
AcDbEntity
  8
0
100
AcDbBlockEnd
  0
BLOCK
  5
71
330
70
100
AcDbEntity
  8
0
100
AcDbBlockBegin
  2
_punkt
 70
     0
 10
32.96449734960504
 20
12.9572346318711
 30
0.0
  3
_punkt
  1

  0
LINE
  5
36C
330
70
100
AcDbEntity
  8
1
  6
Continuous
 62
     2
100
AcDbLine
 10
32.96449734960504
 20
12.9572346318711
 30
0.0
 11
32.96449734960504
 21
7.95723463187099
 31
0.0
  0
LINE
  5
36D
330
70
100
AcDbEntity
  8
1
  6
Continuous
 62
     2
100
AcDbLine
 10
32.96449734960504
 20
12.9572346318711
 30
0.0
 11
37.96449734960405
 21
12.9572346318711
 31
0.0
  0
ENDBLK
  5
72
330
70
100
AcDbEntity
  8
0
100
AcDbBlockEnd
  0
BLOCK
  5
76
330
73
100
AcDbEntity
  8
0
100
AcDbBlockBegin
  2
A4I
 70
     0
 10
32.96449734960504
 20
7.95723463187099
 30
0.0
  3
A4I
  1

  0
INSERT
  5
74
330
73
100
AcDbEntity
  8
1
100
AcDbBlockReference
  2
_rahmen
 10
32.96449734960504
 20
7.95723463187099
 30
0.0
  0
INSERT
  5
75
330
73
100
AcDbEntity
  8
1
100
AcDbBlockReference
  2
_punkt
 10
32.96449734960504
 20
12.9572346318711
 30
0.0
  0
ENDBLK
  5
77
330
73
100
AcDbEntity
  8
0
100
AcDbBlockEnd
  0
BLOCK
  5
14D
330
146
100
AcDbEntity
  8
0
100
AcDbBlockBegin
  2
*D16
 70
     1
 10
0.0
 20
0.0
 30
0.0
  3
*D16
  1

  0
LINE
  5
147
330
146
100
AcDbEntity
  8
1
  6
Continuous
 62
     2
100
AcDbLine
 10
-152.0000004413464
 20
174.2250002894023
 30
0.0
 11
-175.1000004413465
 21
174.2250002894023
 31
0.0
  0
LINE
  5
148
330
146
100
AcDbEntity
  8
1
  6
Continuous
 62
     2
100
AcDbLine
 10
-175.1000004413465
 20
164.2250002894023
 30
0.0
 11
-175.1000004413465
 21
176.2250002894023
 31
0.0
  0
LINE
  5
149
330
146
100
AcDbEntity
  8
1
  6
Continuous
 62
     2
100
AcDbLine
 10
-152.0000004413464
 20
164.2250002894023
 30
0.0
 11
-152.0000004413464
 21
176.2250002894023
 31
0.0
  0
SOLID
  5
14A
330
146
100
AcDbEntity
  8
1
 62
     2
100
AcDbTrace
 10
-155.5000004413464
 20
173.7642165478464
 30
0.0
 11
-155.5000004413464
 21
174.6857840309582
 31
0.0
 12
-152.0000004413464
 22
174.2250002894023
 32
0.0
 13
-152.0000004413464
 23
174.2250002894023
 33
0.0
  0
SOLID
  5
14B
330
146
100
AcDbEntity
  8
1
 62
     2
100
AcDbTrace
 10
-171.6000004413465
 20
174.6857840309582
 30
0.0
 11
-171.6000004413465
 21
173.7642165478464
 31
0.0
 12
-175.1000004413465
 22
174.2250002894023
 32
0.0
 13
-175.1000004413465
 23
174.2250002894023
 33
0.0
  0
MTEXT
  5
14C
330
146
100
AcDbEntity
  8
1
 62
     3
100
AcDbMText
 10
-168.305770374278
 20
176.5750002894023
 30
0.0
 40
3.5
 41
0.0
 71
     7
 72
     1
  1
23,1
  7
CONVERTER_11
 11
0.9999999999970619
 21
2.424068405545306E-6
 31
0.0
 73
     1
 44
0.60024009603842
  0
ENDBLK
  5
14E
330
146
100
AcDbEntity
  8
0
100
AcDbBlockEnd
  0
BLOCK
  5
158
330
151
100
AcDbEntity
  8
0
100
AcDbBlockBegin
  2
*D17
 70
     1
 10
0.0
 20
0.0
 30
0.0
  3
*D17
  1

  0
LINE
  5
152
330
151
100
AcDbEntity
  8
1
  6
Continuous
 62
     2
100
AcDbLine
 10
-195.889262786998
 20
164.2250002894023
 30
0.0
 11
-195.889262786998
 21
141.5500002894122
 31
0.0
  0
LINE
  5
153
330
151
100
AcDbEntity
  8
1
  6
Continuous
 62
     2
100
AcDbLine
 10
-175.1000004413465
 20
164.2250002894023
 30
0.0
 11
-197.889262786998
 21
164.2250002894023
 31
0.0
  0
LINE
  5
154
330
151
100
AcDbEntity
  8
1
  6
Continuous
 62
     2
100
AcDbLine
 10
-173.7348113903666
 20
141.5500002894122
 30
0.0
 11
-197.889262786998
 21
141.5500002894122
 31
0.0
  0
SOLID
  5
155
330
151
100
AcDbEntity
  8
1
 62
     2
100
AcDbTrace
 10
-195.4284790454421
 20
160.7250002894023
 30
0.0
 11
-196.3500465285539
 21
160.7250002894023
 31
0.0
 12
-195.889262786998
 22
164.2250002894023
 32
0.0
 13
-195.889262786998
 23
164.2250002894023
 33
0.0
  0
SOLID
  5
156
330
151
100
AcDbEntity
  8
1
 62
     2
100
AcDbTrace
 10
-196.3500465285539
 20
145.0500002894122
 30
0.0
 11
-195.4284790454421
 21
145.0500002894122
 31
0.0
 12
-195.889262786998
 22
141.5500002894122
 32
0.0
 13
-195.889262786998
 23
141.5500002894122
 33
0.0
  0
MTEXT
  5
157
330
151
100
AcDbEntity
  8
1
 62
     3
100
AcDbMText
 10
-197.889262786998
 20
150.797894584241
 30
0.0
 40
3.5
 41
0.0
 71
     7
 72
     1
  1
23
  7
CONVERTER_11
 11
0.0
 21
1.0
 31
0.0
 73
     1
 44
0.60024009603842
  0
ENDBLK
  5
159
330
151
100
AcDbEntity
  8
0
100
AcDbBlockEnd
  0
BLOCK
  5
163
330
15C
100
AcDbEntity
  8
0
100
AcDbBlockBegin
  2
*D18
 70
     1
 10
0.0
 20
0.0
 30
0.0
  3
*D18
  1

  0
LINE
  5
15D
330
15C
100
AcDbEntity
  8
1
  6
Continuous
 62
     2
100
AcDbLine
 10
-185.220583123418
 20
150.6250002894023
 30
0.0
 11
-185.220583123418
 21
164.2250002894023
 31
0.0
  0
LINE
  5
15E
330
15C
100
AcDbEntity
  8
1
  6
Continuous
 62
     2
100
AcDbLine
 10
-175.1000004413465
 20
164.2250002894023
 30
0.0
 11
-187.220583123418
 21
164.2250002894023
 31
0.0
  0
LINE
  5
15F
330
15C
100
AcDbEntity
  8
1
  6
Continuous
 62
     2
100
AcDbLine
 10
-171.6000004413458
 20
150.6250002894023
 30
0.0
 11
-187.220583123418
 21
150.6250002894023
 31
0.0
  0
SOLID
  5
160
330
15C
100
AcDbEntity
  8
1
 62
     2
100
AcDbTrace
 10
-185.6813668649739
 20
154.1250002894023
 30
0.0
 11
-184.7597993818621
 21
154.1250002894023
 31
0.0
 12
-185.220583123418
 22
150.6250002894023
 32
0.0
 13
-185.220583123418
 23
150.6250002894023
 33
0.0
  0
SOLID
  5
161
330
15C
100
AcDbEntity
  8
1
 62
     2
100
AcDbTrace
 10
-184.7597993818621
 20
160.7250002894023
 30
0.0
 11
-185.6813668649739
 21
160.7250002894023
 31
0.0
 12
-185.220583123418
 22
164.2250002894023
 32
0.0
 13
-185.220583123418
 23
164.2250002894023
 33
0.0
  0
MTEXT
  5
162
330
15C
100
AcDbEntity
  8
1
 62
     3
100
AcDbMText
 10
-187.570583123418
 20
153.321838502861
 30
0.0
 40
3.5
 41
0.0
 71
     7
 72
     1
  1
13,6
  7
CONVERTER_11
 11
0.0
 21
1.0
 31
0.0
 73
     1
 44
0.60024009603842
  0
ENDBLK
  5
164
330
15C
100
AcDbEntity
  8
0
100
AcDbBlockEnd
  0
BLOCK
  5
17D
330
174
100
AcDbEntity
  8
0
100
AcDbBlockBegin
  2
*D19
 70
     1
 10
0.0
 20
0.0
 30
0.0
  3
*D19
  1

  0
LINE
  5
175
330
174
100
AcDbEntity
  8
1
  6
Continuous
 62
     2
100
AcDbLine
 10
-120.7999999999902
 20
131.140209210942
 30
0.0
 11
-127.7999999999902
 21
131.140209210942
 31
0.0
  0
LINE
  5
176
330
174
100
AcDbEntity
  8
1
  6
Continuous
 62
     2
100
AcDbLine
 10
-119.1999999999902
 20
131.140209210942
 30
0.0
 11
-120.7999999999902
 21
131.140209210942
 31
0.0
  0
LINE
  5
177
330
174
100
AcDbEntity
  8
1
  6
Continuous
 62
     2
100
AcDbLine
 10
-108.232465212419
 20
131.140209210942
 30
0.0
 11
-119.1999999999902
 21
131.140209210942
 31
0.0
  0
LINE
  5
178
330
174
100
AcDbEntity
  8
1
  6
Continuous
 62
     2
100
AcDbLine
 10
-120.7999999999902
 20
141.5500002893733
 30
0.0
 11
-120.7999999999902
 21
129.140209210942
 31
0.0
  0
LINE
  5
179
330
174
100
AcDbEntity
  8
1
  6
Continuous
 62
     2
100
AcDbLine
 10
-119.1999999999902
 20
141.5500002893733
 30
0.0
 11
-119.1999999999902
 21
129.140209210942
 31
0.0
  0
SOLID
  5
17A
330
174
100
AcDbEntity
  8
1
 62
     2
100
AcDbTrace
 10
-115.6999999999902
 20
131.6009929524978
 30
0.0
 11
-115.6999999999902
 21
130.6794254693861
 31
0.0
 12
-119.1999999999902
 22
131.140209210942
 32
0.0
 13
-119.1999999999902
 23
131.140209210942
 33
0.0
  0
SOLID
  5
17B
330
174
100
AcDbEntity
  8
1
 62
     2
100
AcDbTrace
 10
-124.2999999999902
 20
130.6794254693861
 30
0.0
 11
-124.2999999999902
 21
131.6009929524978
 31
0.0
 12
-120.7999999999902
 22
131.140209210942
 32
0.0
 13
-120.7999999999902
 23
131.140209210942
 33
0.0
  0
MTEXT
  5
17C
330
174
100
AcDbEntity
  8
1
 62
     3
100
AcDbMText
 10
-113.657465212419
 20
133.490209210942
 30
0.0
 40
3.5
 41
0.0
 71
     7
 72
     1
  1
1,6
  7
CONVERTER_11
 11
0.9999999999970619
 21
2.424068405545306E-6
 31
0.0
 73
     1
 44
0.60024009603842
  0
ENDBLK
  5
17E
330
174
100
AcDbEntity
  8
0
100
AcDbBlockEnd
  0
BLOCK
  5
18A
330
181
100
AcDbEntity
  8
0
100
AcDbBlockBegin
  2
*D20
 70
     1
 10
0.0
 20
0.0
 30
0.0
  3
*D20
  1

  0
LINE
  5
182
330
181
100
AcDbEntity
  8
1
  6
Continuous
 62
     2
100
AcDbLine
 10
-128.5
 20
174.2250002894023
 30
0.0
 11
-121.5
 21
174.2250002894023
 31
0.0
  0
LINE
  5
183
330
181
100
AcDbEntity
  8
1
  6
Continuous
 62
     2
100
AcDbLine
 10
-121.5
 20
174.2250002894023
 30
0.0
 11
-118.5
 21
174.2250002894023
 31
0.0
  0
LINE
  5
184
330
181
100
AcDbEntity
  8
1
  6
Continuous
 62
     2
100
AcDbLine
 10
-118.5
 20
174.2250002894023
 30
0.0
 11
-108.4645538622625
 21
174.2250002894023
 31
0.0
  0
LINE
  5
185
330
181
100
AcDbEntity
  8
1
  6
Continuous
 62
     2
100
AcDbLine
 10
-121.5
 20
164.2250002894023
 30
0.0
 11
-121.5
 21
176.2250002894023
 31
0.0
  0
LINE
  5
186
330
181
100
AcDbEntity
  8
1
  6
Continuous
 62
     2
100
AcDbLine
 10
-118.5
 20
164.2250002894023
 30
0.0
 11
-118.5
 21
176.2250002894023
 31
0.0
  0
SOLID
  5
187
330
181
100
AcDbEntity
  8
1
 62
     2
100
AcDbTrace
 10
-125.0
 20
173.7642165478464
 30
0.0
 11
-125.0
 21
174.6857840309582
 31
0.0
 12
-121.5
 22
174.2250002894023
 32
0.0
 13
-121.5
 23
174.2250002894023
 33
0.0
  0
SOLID
  5
188
330
181
100
AcDbEntity
  8
1
 62
     2
100
AcDbTrace
 10
-115.0
 20
174.6857840309582
 30
0.0
 11
-115.0
 21
173.7642165478464
 31
0.0
 12
-118.5
 22
174.2250002894023
 32
0.0
 13
-118.5
 23
174.2250002894023
 33
0.0
  0
MTEXT
  5
189
330
181
100
AcDbEntity
  8
1
 62
     3
100
AcDbMText
 10
-110.5645538622625
 20
176.2250002894023
 30
0.0
 40
3.5
 41
0.0
 71
     7
 72
     1
  1
3
  7
CONVERTER_11
 11
0.9999999999970619
 21
2.424068405545306E-6
 31
0.0
 73
     1
 44
0.60024009603842
  0
ENDBLK
  5
18B
330
181
100
AcDbEntity
  8
0
100
AcDbBlockEnd
  0
ENDSEC
  0
SECTION
  2
ENTITIES
  0
INSERT
  5
78
330
1F
100
AcDbEntity
  8
0
100
AcDbBlockReference
  2
AllgSicht1
 10
-24.0000000000001
 20
97.00000000001
 30
0.0
  0
INSERT
  5
79
330
1F
100
AcDbEntity
  8
0
100
AcDbBlockReference
  2
Drfsicht1
 10
-120.0
 20
100.0
 30
0.0
  0
INSERT
  5
7A
330
1F
100
AcDbEntity
  8
0
100
AcDbBlockReference
  2
Rckans1
 10
-38.89999961853016
 20
152.8875002861223
 30
0.0
  0
INSERT
  5
7B
330
1F
100
AcDbEntity
  8
0
100
AcDbBlockReference
  2
SA_Links1
 10
-76.88037791122932
 20
152.8875002861223
 30
0.0
  0
INSERT
  5
7C
330
1F
100
AcDbEntity
  8
0
100
AcDbBlockReference
  2
SA_Rechts1
 10
-163.5500001907348
 20
152.8875002861223
 30
0.0
  0
INSERT
  5
7D
330
1F
100
AcDbEntity
  8
0
100
AcDbBlockReference
  2
Vordans1
 10
-119.9999999999999
 20
152.8875002861223
 30
0.0
  0
INSERT
  5
7E
330
1F
100
AcDbEntity
  8
0
100
AcDbBlockReference
  2
A4I
 10
32.96449734960504
 20
7.95723463187099
 30
0.0
  0
ENDSEC
  0
SECTION
  2
OBJECTS
  0
DICTIONARY
  5
C
330
0
100
AcDbDictionary
281
     1
  3
ACAD_GROUP
350
D
  3
ACAD_LAYOUT
350
1A
  3
ACAD_MLEADERSTYLE
350
36F
  3
ACAD_MLINESTYLE
350
17
  3
ACAD_PLOTSETTINGS
350
19
  3
ACAD_PLOTSTYLENAME
350
E
  3
ACAD_TABLESTYLE
350
36E
  3
ACAD_VISUALSTYLE
350
2A
  0
DICTIONARY
  5
D
102
{ACAD_REACTORS
330
C
102
}
330
C
100
AcDbDictionary
281
     1
  0
DICTIONARY
  5
1A
102
{ACAD_REACTORS
330
C
102
}
330
C
100
AcDbDictionary
281
     1
  3
Layout1
350
1E
  3
Layout2
350
26
  3
Model
350
22
  0
DICTIONARY
  5
36F
102
{ACAD_REACTORS
330
C
102
}
330
C
100
AcDbDictionary
281
     1
  0
DICTIONARY
  5
17
102
{ACAD_REACTORS
330
C
102
}
330
C
100
AcDbDictionary
281
     1
  3
Standard
350
18
  0
DICTIONARY
  5
19
102
{ACAD_REACTORS
330
C
102
}
330
C
100
AcDbDictionary
281
     1
  0
ACDBDICTIONARYWDFLT
  5
E
102
{ACAD_REACTORS
330
C
102
}
330
C
100
AcDbDictionary
281
     1
  3
Normal
350
F
100
AcDbDictionaryWithDefault
340
F
  0
DICTIONARY
  5
36E
102
{ACAD_REACTORS
330
C
102
}
330
C
100
AcDbDictionary
281
     1
  0
DICTIONARY
  5
2A
102
{ACAD_REACTORS
330
C
102
}
330
C
100
AcDbDictionary
281
     1
  3
2dWireframe
350
2F
  3
3D Hidden
350
31
  3
3dWireframe
350
30
  3
Basic
350
32
  3
Brighten
350
36
  3
ColorChange
350
3A
  3
Conceptual
350
34
  3
Dim
350
35
  3
Facepattern
350
39
  3
Flat
350
2B
  3
FlatWithEdges
350
2C
  3
Gouraud
350
2D
  3
GouraudWithEdges
350
2E
  3
Linepattern
350
38
  3
Realistic
350
33
  3
Thicken
350
37
  0
LAYOUT
  5
1E
102
{ACAD_REACTORS
330
1A
102
}
330
1A
100
AcDbPlotSettings
  1

  2
none_device
  4

  6

 40
0.0
 41
0.0
 42
0.0
 43
0.0
 44
0.0
 45
0.0
 46
0.0
 47
0.0
 48
0.0
 49
0.0
140
0.0
141
0.0
142
1.0
143
1.0
 70
   688
 72
     0
 73
     0
 74
     5
  7

 75
    16
147
1.0
148
0.0
149
0.0
100
AcDbLayout
  1
Layout1
 70
     1
 71
     1
 10
0.0
 20
0.0
 11
12.0
 21
9.0
 12
0.0
 22
0.0
 32
0.0
 14
1.00000000000000E+20
 24
1.00000000000000E+20
 34
1.00000000000000E+20
 15
-1.00000000000000E+20
 25
-1.00000000000000E+20
 35
-1.00000000000000E+20
146
0.0
 13
0.0
 23
0.0
 33
0.0
 16
1.0
 26
0.0
 36
0.0
 17
0.0
 27
1.0
 37
0.0
 76
     0
330
1B
  0
LAYOUT
  5
26
102
{ACAD_REACTORS
330
1A
102
}
330
1A
100
AcDbPlotSettings
  1

  2
none_device
  4

  6

 40
0.0
 41
0.0
 42
0.0
 43
0.0
 44
0.0
 45
0.0
 46
0.0
 47
0.0
 48
0.0
 49
0.0
140
0.0
141
0.0
142
1.0
143
1.0
 70
   688
 72
     0
 73
     0
 74
     5
  7

 75
    16
147
1.0
148
0.0
149
0.0
100
AcDbLayout
  1
Layout2
 70
     1
 71
     2
 10
0.0
 20
0.0
 11
0.0
 21
0.0
 12
0.0
 22
0.0
 32
0.0
 14
0.0
 24
0.0
 34
0.0
 15
0.0
 25
0.0
 35
0.0
146
0.0
 13
0.0
 23
0.0
 33
0.0
 16
1.0
 26
0.0
 36
0.0
 17
0.0
 27
1.0
 37
0.0
 76
     0
330
23
  0
LAYOUT
  5
22
102
{ACAD_REACTORS
330
1A
102
}
330
1A
100
AcDbPlotSettings
  1

  2
none_device
  4

  6

 40
0.0
 41
0.0
 42
0.0
 43
0.0
 44
0.0
 45
0.0
 46
0.0
 47
0.0
 48
0.0
 49
0.0
140
0.0
141
0.0
142
1.0
143
1.0
 70
  1712
 72
     0
 73
     0
 74
     0
  7

 75
     0
147
1.0
148
0.0
149
0.0
100
AcDbLayout
  1
Model
 70
     1
 71
     0
 10
0.0
 20
0.0
 11
12.0
 21
9.0
 12
0.0
 22
0.0
 32
0.0
 14
-259.0355026503941
 24
7.95723463187099
 34
0.0
 15
37.96449734960405
 25
217.957234631871
 35
0.0
146
0.0
 13
0.0
 23
0.0
 33
0.0
 16
1.0
 26
0.0
 36
0.0
 17
0.0
 27
1.0
 37
0.0
 76
     0
330
1F
331
29
  0
MLINESTYLE
  5
18
102
{ACAD_REACTORS
330
17
102
}
330
17
100
AcDbMlineStyle
  2
Standard
 70
     0
  3

 62
   256
 51
90.0
 52
90.0
 71
     2
 49
0.5
 62
   256
  6
BYLAYER
 49
-0.5
 62
   256
  6
BYLAYER
  0
ACDBPLACEHOLDER
  5
F
102
{ACAD_REACTORS
330
E
102
}
330
E
  0
VISUALSTYLE
  5
2F
102
{ACAD_REACTORS
330
2A
102
}
330
2A
100
AcDbVisualStyle
  2
2dWireframe
 70
     4
 71
     0
 72
     2
 73
     0
 90
        0
 40
-0.6
 41
-30.0
 62
     5
 63
     7
 74
     1
 91
        4
 64
     7
 65
   257
 75
     1
175
     1
 42
1.0
 92
        0
 66
   257
 43
1.0
 76
     1
 77
     6
 78
     2
 67
     7
 79
     5
170
     0
171
     0
290
     0
174
     0
 93
        1
 44
0.0
173
     0
291
     0
 45
0.0
1001
ACAD
1000
AcDbSavedByObjectVersion
1070
     0
  0
VISUALSTYLE
  5
31
102
{ACAD_REACTORS
330
2A
102
}
330
2A
100
AcDbVisualStyle
  2
3D Hidden
 70
     6
 71
     1
 72
     2
 73
     2
 90
        0
 40
-0.6
 41
-30.0
 62
     5
 63
     7
 74
     2
 91
        2
 64
     7
 65
   257
 75
     2
175
     1
 42
40.0
 92
        0
 66
   257
 43
1.0
 76
     1
 77
     6
 78
     2
 67
     7
 79
     3
170
     0
171
     0
290
     0
174
     0
 93
        1
 44
0.0
173
     0
291
     0
 45
0.0
1001
ACAD
1000
AcDbSavedByObjectVersion
1070
     0
  0
VISUALSTYLE
  5
30
102
{ACAD_REACTORS
330
2A
102
}
330
2A
100
AcDbVisualStyle
  2
3dWireframe
 70
     5
 71
     0
 72
     2
 73
     0
 90
        0
 40
-0.6
 41
-30.0
 62
     5
 63
     7
 74
     1
 91
        4
 64
     7
 65
   257
 75
     1
175
     1
 42
1.0
 92
        0
 66
   257
 43
1.0
 76
     1
 77
     6
 78
     2
 67
     7
 79
     5
170
     0
171
     0
290
     0
174
     0
 93
        1
 44
0.0
173
     0
291
     0
 45
0.0
1001
ACAD
1000
AcDbSavedByObjectVersion
1070
     0
  0
VISUALSTYLE
  5
32
102
{ACAD_REACTORS
330
2A
102
}
330
2A
100
AcDbVisualStyle
  2
Basic
 70
     7
 71
     1
 72
     0
 73
     1
 90
        0
 40
-0.6
 41
-30.0
 62
     5
 63
     7
 74
     0
 91
        4
 64
     7
 65
   257
 75
     1
175
     1
 42
1.0
 92
        8
 66
     7
 43
1.0
 76
     1
 77
     6
 78
     2
 67
     7
 79
     5
170
     0
171
     0
290
     0
174
     0
 93
        1
 44
0.0
173
     0
291
     1
 45
0.0
1001
ACAD
1000
AcDbSavedByObjectVersion
1070
     0
  0
VISUALSTYLE
  5
36
102
{ACAD_REACTORS
330
2A
102
}
330
2A
100
AcDbVisualStyle
  2
Brighten
 70
    12
 71
     2
 72
     2
 73
     0
 90
        0
 40
-0.6
 41
-30.0
 62
     5
 63
     7
 74
     1
 91
        4
 64
     7
 65
   257
 75
     1
175
     1
 42
1.0
 92
        8
 66
     7
 43
1.0
 76
     1
 77
     6
 78
     2
 67
     7
 79
     5
170
     0
171
     0
290
     0
174
     0
 93
        1
 44
50.0
173
     0
291
     1
 45
0.0
1001
ACAD
1000
AcDbSavedByObjectVersion
1070
     0
  0
VISUALSTYLE
  5
3A
102
{ACAD_REACTORS
330
2A
102
}
330
2A
100
AcDbVisualStyle
  2
ColorChange
 70
    16
 71
     2
 72
     2
 73
     3
 90
        0
 40
-0.6
 41
-30.0
 62
     5
 63
     8
 74
     1
 91
        4
 64
     7
 65
   257
 75
     1
175
     1
 42
1.0
 92
        8
 66
     8
 43
1.0
 76
     1
 77
     6
 78
     2
 67
     7
 79
     5
170
     0
171
     0
290
     0
174
     0
 93
        1
 44
0.0
173
     0
291
     1
 45
0.0
1001
ACAD
1000
AcDbSavedByObjectVersion
1070
     0
  0
VISUALSTYLE
  5
34
102
{ACAD_REACTORS
330
2A
102
}
330
2A
100
AcDbVisualStyle
  2
Conceptual
 70
     9
 71
     3
 72
     2
 73
     0
 90
        0
 40
-0.6
 41
-30.0
 62
     5
 63
     7
 74
     2
 91
        2
 64
     7
 65
   257
 75
     1
175
     1
 42
40.0
 92
        8
 66
     7
 43
1.0
 76
     1
 77
     6
 78
     2
 67
     7
 79
     3
170
     0
171
     0
290
     0
174
     0
 93
        1
 44
0.0
173
     0
291
     0
 45
0.0
1001
ACAD
1000
AcDbSavedByObjectVersion
1070
     0
  0
VISUALSTYLE
  5
35
102
{ACAD_REACTORS
330
2A
102
}
330
2A
100
AcDbVisualStyle
  2
Dim
 70
    11
 71
     2
 72
     2
 73
     0
 90
        0
 40
-0.6
 41
-30.0
 62
     5
 63
     7
 74
     1
 91
        4
 64
     7
 65
   257
 75
     1
175
     1
 42
1.0
 92
        8
 66
     7
 43
1.0
 76
     1
 77
     6
 78
     2
 67
     7
 79
     5
170
     0
171
     0
290
     0
174
     0
 93
        1
 44
-50.0
173
     0
291
     1
 45
0.0
1001
ACAD
1000
AcDbSavedByObjectVersion
1070
     0
  0
VISUALSTYLE
  5
39
102
{ACAD_REACTORS
330
2A
102
}
330
2A
100
AcDbVisualStyle
  2
Facepattern
 70
    15
 71
     2
 72
     2
 73
     0
 90
        0
 40
-0.6
 41
-30.0
 62
     5
 63
     7
 74
     1
 91
        4
 64
     7
 65
   257
 75
     1
175
     1
 42
1.0
 92
        8
 66
     7
 43
1.0
 76
     1
 77
     6
 78
     2
 67
     7
 79
     5
170
     0
171
     0
290
     0
174
     0
 93
        1
 44
0.0
173
     0
291
     1
 45
0.0
1001
ACAD
1000
AcDbSavedByObjectVersion
1070
     0
  0
VISUALSTYLE
  5
2B
102
{ACAD_REACTORS
330
2A
102
}
330
2A
100
AcDbVisualStyle
  2
Flat
 70
     0
 71
     2
 72
     1
 73
     1
 90
        2
 40
-0.6
 41
30.0
 62
     5
 63
     7
 74
     0
 91
        4
 64
     7
 65
   257
 75
     1
175
     1
 42
1.0
 92
        8
 66
     7
 43
1.0
 76
     1
 77
     6
 78
     2
 67
     7
 79
     5
170
     0
171
     0
290
     0
174
     0
 93
       13
 44
0.0
173
     0
291
     1
 45
0.0
1001
ACAD
1000
AcDbSavedByObjectVersion
1070
     0
  0
VISUALSTYLE
  5
2C
102
{ACAD_REACTORS
330
2A
102
}
330
2A
100
AcDbVisualStyle
  2
FlatWithEdges
 70
     1
 71
     2
 72
     1
 73
     1
 90
        2
 40
-0.6
 41
30.0
 62
     5
 63
     7
 74
     1
 91
        4
 64
     7
 65
   257
 75
     1
175
     1
 42
1.0
 92
        0
 66
   257
 43
1.0
 76
     1
 77
     6
 78
     2
 67
     7
 79
     5
170
     0
171
     0
290
     0
174
     0
 93
       13
 44
0.0
173
     0
291
     1
 45
0.0
1001
ACAD
1000
AcDbSavedByObjectVersion
1070
     0
  0
VISUALSTYLE
  5
2D
102
{ACAD_REACTORS
330
2A
102
}
330
2A
100
AcDbVisualStyle
  2
Gouraud
 70
     2
 71
     2
 72
     2
 73
     1
 90
        2
 40
-0.6
 41
30.0
 62
     5
 63
     7
 74
     0
 91
        4
 64
     7
 65
   257
 75
     1
175
     1
 42
1.0
 92
        0
 66
     7
 43
1.0
 76
     1
 77
     6
 78
     2
 67
     7
 79
     5
170
     0
171
     0
290
     0
174
     0
 93
       13
 44
0.0
173
     0
291
     1
 45
0.0
1001
ACAD
1000
AcDbSavedByObjectVersion
1070
     0
  0
VISUALSTYLE
  5
2E
102
{ACAD_REACTORS
330
2A
102
}
330
2A
100
AcDbVisualStyle
  2
GouraudWithEdges
 70
     3
 71
     2
 72
     2
 73
     1
 90
        2
 40
-0.6
 41
30.0
 62
     5
 63
     7
 74
     1
 91
        4
 64
     7
 65
   257
 75
     1
175
     1
 42
1.0
 92
        0
 66
   257
 43
1.0
 76
     1
 77
     6
 78
     2
 67
     7
 79
     5
170
     0
171
     0
290
     0
174
     0
 93
       13
 44
0.0
173
     0
291
     1
 45
0.0
1001
ACAD
1000
AcDbSavedByObjectVersion
1070
     0
  0
VISUALSTYLE
  5
38
102
{ACAD_REACTORS
330
2A
102
}
330
2A
100
AcDbVisualStyle
  2
Linepattern
 70
    14
 71
     2
 72
     2
 73
     0
 90
        0
 40
-0.6
 41
-30.0
 62
     5
 63
     7
 74
     1
 91
        4
 64
     7
 65
   257
 75
     7
175
     7
 42
1.0
 92
        8
 66
     7
 43
1.0
 76
     1
 77
     6
 78
     2
 67
     7
 79
     5
170
     0
171
     0
290
     0
174
     0
 93
        1
 44
0.0
173
     0
291
     1
 45
0.0
1001
ACAD
1000
AcDbSavedByObjectVersion
1070
     0
  0
VISUALSTYLE
  5
33
102
{ACAD_REACTORS
330
2A
102
}
330
2A
100
AcDbVisualStyle
  2
Realistic
 70
     8
 71
     2
 72
     2
 73
     0
 90
        0
 40
-0.6
 41
-30.0
 62
     5
 63
     7
 74
     1
 91
        0
 64
     7
 65
   257
 75
     1
175
     1
 42
1.0
 92
        8
 66
     8
 43
1.0
 76
     1
 77
     6
 78
     2
 67
     7
 79
     5
170
     0
171
     0
290
     0
174
     0
 93
       13
 44
0.0
173
     0
291
     0
 45
0.0
1001
ACAD
1000
AcDbSavedByObjectVersion
1070
     0
  0
VISUALSTYLE
  5
37
102
{ACAD_REACTORS
330
2A
102
}
330
2A
100
AcDbVisualStyle
  2
Thicken
 70
    13
 71
     2
 72
     2
 73
     0
 90
        0
 40
-0.6
 41
-30.0
 62
     5
 63
     7
 74
     1
 91
        4
 64
     7
 65
   257
 75
     1
175
     1
 42
1.0
 92
       12
 66
     7
 43
1.0
 76
     1
 77
     6
 78
     2
 67
     7
 79
     5
170
     0
171
     0
290
     0
174
     0
 93
        1
 44
0.0
173
     0
291
     1
 45
0.0
1001
ACAD
1000
AcDbSavedByObjectVersion
1070
     0
  0
ENDSEC
  0
EOF
