  0
SECTION
  2
HEADER
  9
$ACADVER
  1
AC1015
  9
$ACADMAINTVER
 70
     6
  9
$DWGCODEPAGE
  3
ANSI_1252
  9
$INSBASE
 10
0.0
 20
0.0
 30
0.0
  9
$EXTMIN
 10
-261.668581723374
 20
-2.14447474144302
 30
0.0
  9
$EXTMAX
 10
35.33141827662405
 20
207.855525258557
 30
0.0
  9
$LIMMIN
 10
0.0
 20
0.0
  9
$LIMMAX
 10
12.0
 20
9.0
  9
$ORTHOMODE
 70
     0
  9
$REGENMODE
 70
     1
  9
$FILLMODE
 70
     1
  9
$QTEXTMODE
 70
     0
  9
$MIRRTEXT
 70
     1
  9
$LTSCALE
 40
1.0
  9
$ATTMODE
 70
     1
  9
$TEXTSIZE
 40
0.2
  9
$TRACEWID
 40
0.05
  9
$TEXTSTYLE
  7
Standard
  9
$CLAYER
  8
0
  9
$CELTYPE
  6
ByLayer
  9
$CECOLOR
 62
   256
  9
$CELTSCALE
 40
1.0
  9
$DISPSILH
 70
     0
  9
$DIMSCALE
 40
1.0
  9
$DIMASZ
 40
0.18
  9
$DIMEXO
 40
0.0625
  9
$DIMDLI
 40
0.38
  9
$DIMRND
 40
0.0
  9
$DIMDLE
 40
0.0
  9
$DIMEXE
 40
0.18
  9
$DIMTP
 40
0.0
  9
$DIMTM
 40
0.0
  9
$DIMTXT
 40
0.18
  9
$DIMCEN
 40
0.09
  9
$DIMTSZ
 40
0.0
  9
$DIMTOL
 70
     0
  9
$DIMLIM
 70
     0
  9
$DIMTIH
 70
     1
  9
$DIMTOH
 70
     1
  9
$DIMSE1
 70
     0
  9
$DIMSE2
 70
     0
  9
$DIMTAD
 70
     0
  9
$DIMZIN
 70
     0
  9
$DIMBLK
  1

  9
$DIMASO
 70
     1
  9
$DIMSHO
 70
     1
  9
$DIMPOST
  1

  9
$DIMAPOST
  1

  9
$DIMALT
 70
     0
  9
$DIMALTD
 70
     2
  9
$DIMALTF
 40
25.4
  9
$DIMLFAC
 40
1.0
  9
$DIMTOFL
 70
     0
  9
$DIMTVP
 40
0.0
  9
$DIMTIX
 70
     0
  9
$DIMSOXD
 70
     0
  9
$DIMSAH
 70
     0
  9
$DIMBLK1
  1

  9
$DIMBLK2
  1

  9
$DIMSTYLE
  2
Standard
  9
$DIMCLRD
 70
     0
  9
$DIMCLRE
 70
     0
  9
$DIMCLRT
 70
     0
  9
$DIMTFAC
 40
1.0
  9
$DIMGAP
 40
0.09
  9
$DIMJUST
 70
     0
  9
$DIMSD1
 70
     0
  9
$DIMSD2
 70
     0
  9
$DIMTOLJ
 70
     1
  9
$DIMTZIN
 70
     0
  9
$DIMALTZ
 70
     0
  9
$DIMALTTZ
 70
     0
  9
$DIMUPT
 70
     0
  9
$DIMDEC
 70
     4
  9
$DIMTDEC
 70
     4
  9
$DIMALTU
 70
     2
  9
$DIMALTTD
 70
     2
  9
$DIMTXSTY
  7
Standard
  9
$DIMAUNIT
 70
     0
  9
$DIMADEC
 70
     0
  9
$DIMALTRND
 40
0.0
  9
$DIMAZIN
 70
     0
  9
$DIMDSEP
 70
    46
  9
$DIMATFIT
 70
     3
  9
$DIMFRAC
 70
     0
  9
$DIMLDRBLK
  1

  9
$DIMLUNIT
 70
     2
  9
$DIMLWD
 70
    -2
  9
$DIMLWE
 70
    -2
  9
$DIMTMOVE
 70
     0
  9
$LUNITS
 70
     2
  9
$LUPREC
 70
     4
  9
$SKETCHINC
 40
0.1
  9
$FILLETRAD
 40
0.5
  9
$AUNITS
 70
     0
  9
$AUPREC
 70
     0
  9
$MENU
  1
.
  9
$ELEVATION
 40
0.0
  9
$PELEVATION
 40
0.0
  9
$THICKNESS
 40
0.0
  9
$LIMCHECK
 70
     0
  9
$CHAMFERA
 40
0.5
  9
$CHAMFERB
 40
0.5
  9
$CHAMFERC
 40
1.0
  9
$CHAMFERD
 40
0.0
  9
$SKPOLY
 70
     0
  9
$TDCREATE
 40
2455539.544805556
  9
$TDUCREATE
 40
2455539.503138889
  9
$TDUPDATE
 40
2455539.544805567
  9
$TDUUPDATE
 40
2455539.5031389
  9
$TDINDWG
 40
0.0000000116
  9
$TDUSRTIMER
 40
0.0000000116
  9
$USRTIMER
 70
     1
  9
$ANGBASE
 50
0.0
  9
$ANGDIR
 70
     0
  9
$PDMODE
 70
     0
  9
$PDSIZE
 40
0.0
  9
$PLINEWID
 40
0.0
  9
$SPLFRAME
 70
     0
  9
$SPLINETYPE
 70
     6
  9
$SPLINESEGS
 70
     8
  9
$HANDSEED
  5
33D
  9
$SURFTAB1
 70
     6
  9
$SURFTAB2
 70
     6
  9
$SURFTYPE
 70
     6
  9
$SURFU
 70
     6
  9
$SURFV
 70
     6
  9
$UCSBASE
  2

  9
$UCSNAME
  2

  9
$UCSORG
 10
0.0
 20
0.0
 30
0.0
  9
$UCSXDIR
 10
1.0
 20
0.0
 30
0.0
  9
$UCSYDIR
 10
0.0
 20
1.0
 30
0.0
  9
$UCSORTHOREF
  2

  9
$UCSORTHOVIEW
 70
     0
  9
$UCSORGTOP
 10
0.0
 20
0.0
 30
0.0
  9
$UCSORGBOTTOM
 10
0.0
 20
0.0
 30
0.0
  9
$UCSORGLEFT
 10
0.0
 20
0.0
 30
0.0
  9
$UCSORGRIGHT
 10
0.0
 20
0.0
 30
0.0
  9
$UCSORGFRONT
 10
0.0
 20
0.0
 30
0.0
  9
$UCSORGBACK
 10
0.0
 20
0.0
 30
0.0
  9
$PUCSBASE
  2

  9
$PUCSNAME
  2

  9
$PUCSORG
 10
0.0
 20
0.0
 30
0.0
  9
$PUCSXDIR
 10
1.0
 20
0.0
 30
0.0
  9
$PUCSYDIR
 10
0.0
 20
1.0
 30
0.0
  9
$PUCSORTHOREF
  2

  9
$PUCSORTHOVIEW
 70
     0
  9
$PUCSORGTOP
 10
0.0
 20
0.0
 30
0.0
  9
$PUCSORGBOTTOM
 10
0.0
 20
0.0
 30
0.0
  9
$PUCSORGLEFT
 10
0.0
 20
0.0
 30
0.0
  9
$PUCSORGRIGHT
 10
0.0
 20
0.0
 30
0.0
  9
$PUCSORGFRONT
 10
0.0
 20
0.0
 30
0.0
  9
$PUCSORGBACK
 10
0.0
 20
0.0
 30
0.0
  9
$USERI1
 70
     0
  9
$USERI2
 70
     0
  9
$USERI3
 70
     0
  9
$USERI4
 70
     0
  9
$USERI5
 70
     0
  9
$USERR1
 40
16.0
  9
$USERR2
 40
0.0
  9
$USERR3
 40
0.0
  9
$USERR4
 40
0.0
  9
$USERR5
 40
0.0
  9
$WORLDVIEW
 70
     1
  9
$SHADEDGE
 70
     3
  9
$SHADEDIF
 70
    70
  9
$TILEMODE
 70
     1
  9
$MAXACTVP
 70
    64
  9
$PINSBASE
 10
0.0
 20
0.0
 30
0.0
  9
$PLIMCHECK
 70
     0
  9
$PEXTMIN
 10
1.00000000000000E+20
 20
1.00000000000000E+20
 30
1.00000000000000E+20
  9
$PEXTMAX
 10
-1.00000000000000E+20
 20
-1.00000000000000E+20
 30
-1.00000000000000E+20
  9
$PLIMMIN
 10
0.0
 20
0.0
  9
$PLIMMAX
 10
12.0
 20
9.0
  9
$UNITMODE
 70
     0
  9
$VISRETAIN
 70
     1
  9
$PLINEGEN
 70
     0
  9
$PSLTSCALE
 70
     1
  9
$TREEDEPTH
 70
  3020
  9
$CMLSTYLE
  2
Standard
  9
$CMLJUST
 70
     0
  9
$CMLSCALE
 40
1.0
  9
$PROXYGRAPHICS
 70
     1
  9
$MEASUREMENT
 70
     1
  9
$CELWEIGHT
370
    -1
  9
$ENDCAPS
280
     0
  9
$JOINSTYLE
280
     0
  9
$LWDISPLAY
290
     0
  9
$INSUNITS
 70
     1
  9
$HYPERLINKBASE
  1

  9
$STYLESHEET
  1

  9
$XEDIT
290
     1
  9
$CEPSNTYPE
380
     0
  9
$PSTYLEMODE
290
     1
  9
$FINGERPRINTGUID
  2
{47DB2DE7-B7F8-4EA5-8C41-80A0F127AB45}
  9
$VERSIONGUID
  2
{FAEB1C32-E019-11D5-929B-00C0DF256EC4}
  9
$EXTNAMES
290
     1
  9
$PSVPSCALE
 40
0.0
  9
$OLESTARTUP
290
     0
  0
ENDSEC
  0
SECTION
  2
CLASSES
  0
CLASS
  1
ACDBDICTIONARYWDFLT
  2
AcDbDictionaryWithDefault
  3
ObjectDBX Classes
 90
        0
280
     0
281
     0
  0
CLASS
  1
VISUALSTYLE
  2
AcDbVisualStyle
  3
ObjectDBX Classes
 90
     4095
280
     0
281
     0
  0
CLASS
  1

  2
exOdDbCircle
  3

 90
        0
280
     0
281
     1
  0
CLASS
  1
ACDBPLACEHOLDER
  2
AcDbPlaceHolder
  3
ObjectDBX Classes
 90
        0
280
     0
281
     0
  0
CLASS
  1
LAYOUT
  2
AcDbLayout
  3
ObjectDBX Classes
 90
        0
280
     0
281
     0
  0
ENDSEC
  0
SECTION
  2
TABLES
  0
TABLE
  2
VPORT
  5
8
330
0
100
AcDbSymbolTable
 70
     1
  0
VPORT
  5
29
330
8
100
AcDbSymbolTableRecord
100
AcDbViewportTableRecord
  2
*Active
 70
     0
 10
0.0
 20
0.0
 11
1.0
 21
1.0
 12
-113.168581723375
 22
102.855525258557
 13
0.0
 23
0.0
 14
0.5
 24
0.5
 15
0.5
 25
0.5
 16
0.0
 26
0.0
 36
1.0
 17
0.0
 27
0.0
 37
0.0
 40
231.0000000000001
 41
1.60267857142857
 42
50.0
 43
0.0
 44
0.0
 50
0.0
 51
0.0
 71
     0
 72
   100
 73
     1
 74
     3
 75
     0
 76
     0
 77
     0
 78
     0
281
     0
 65
     1
110
0.0
120
0.0
130
0.0
111
1.0
121
0.0
131
0.0
112
0.0
122
1.0
132
0.0
 79
     0
146
0.0
  0
ENDTAB
  0
TABLE
  2
LTYPE
  5
5
330
0
100
AcDbSymbolTable
 70
     8
  0
LTYPE
  5
14
330
5
100
AcDbSymbolTableRecord
100
AcDbLinetypeTableRecord
  2
ByBlock
 70
     0
  3

 72
    65
 73
     0
 40
0.0
  0
LTYPE
  5
15
330
5
100
AcDbSymbolTableRecord
100
AcDbLinetypeTableRecord
  2
ByLayer
 70
     0
  3

 72
    65
 73
     0
 40
0.0
  0
LTYPE
  5
16
330
5
100
AcDbSymbolTableRecord
100
AcDbLinetypeTableRecord
  2
Continuous
 70
     0
  3
Solid line
 72
    65
 73
     0
 40
0.0
  0
LTYPE
  5
3B
330
5
100
AcDbSymbolTableRecord
100
AcDbLinetypeTableRecord
  2
DASHED
 70
     0
  3
Dashed
 72
    65
 73
     2
 40
15.0
 49
7.0
 74
     0
 49
-8.0
 74
     0
  0
LTYPE
  5
3C
330
5
100
AcDbSymbolTableRecord
100
AcDbLinetypeTableRecord
  2
DOTTED
 70
     0
  3
Dotted
 72
    65
 73
     2
 40
1.0
 49
0.0
 74
     0
 49
-1.0
 74
     0
  0
LTYPE
  5
3D
330
5
100
AcDbSymbolTableRecord
100
AcDbLinetypeTableRecord
  2
DOT_CENTER
 70
     0
  3
Dot_Center
 72
    65
 73
     4
 40
14.0
 49
12.0
 74
     0
 49
-1.0
 74
     0
 49
0.0
 74
     0
 49
-1.0
 74
     0
  0
LTYPE
  5
3E
330
5
100
AcDbSymbolTableRecord
100
AcDbLinetypeTableRecord
  2
LONG_DASHED
 70
     0
  3
Long_Dashed
 72
    65
 73
     2
 40
15.0
 49
10.0
 74
     0
 49
-5.0
 74
     0
  0
LTYPE
  5
3F
330
5
100
AcDbSymbolTableRecord
100
AcDbLinetypeTableRecord
  2
DASH_CENTER
 70
     0
  3
Dash_Center
 72
    65
 73
     4
 40
14.0
 49
11.0
 74
     0
 49
-1.0
 74
     0
 49
1.0
 74
     0
 49
-1.0
 74
     0
  0
LTYPE
  5
40
330
5
100
AcDbSymbolTableRecord
100
AcDbLinetypeTableRecord
  2
PHANTOM
 70
     0
  3
Phantom
 72
    65
 73
     6
 40
13.0
 49
10.0
 74
     0
 49
-1.0
 74
     0
 49
0.0
 74
     0
 49
-1.0
 74
     0
 49
0.0
 74
     0
 49
-1.0
 74
     0
  0
LTYPE
  5
41
330
5
100
AcDbSymbolTableRecord
100
AcDbLinetypeTableRecord
  2
CENTER_DASH_DASH
 70
     0
  3
Center_Dash_Dash
 72
    65
 73
     6
 40
14.0
 49
9.0
 74
     0
 49
-1.0
 74
     0
 49
1.0
 74
     0
 49
-1.0
 74
     0
 49
1.0
 74
     0
 49
-1.0
 74
     0
  0
ENDTAB
  0
TABLE
  2
LAYER
  5
2
330
0
100
AcDbSymbolTable
 70
     2
  0
LAYER
  5
10
330
2
100
AcDbSymbolTableRecord
100
AcDbLayerTableRecord
  2
0
 70
     0
 62
     7
  6
Continuous
370
    -3
390
F
  0
LAYER
  5
42
330
2
100
AcDbSymbolTableRecord
100
AcDbLayerTableRecord
  2
1
 70
     0
 62
     7
  6
Continuous
370
    -3
390
F
  0
ENDTAB
  0
TABLE
  2
STYLE
  5
3
330
0
100
AcDbSymbolTable
 70
     9
  0
STYLE
  5
11
330
3
100
AcDbSymbolTableRecord
100
AcDbTextStyleTableRecord
  2
Standard
 70
     0
 40
0.0
 41
1.0
 50
0.0
 71
     0
 42
0.2
  3
txt
  4

  0
STYLE
  5
B3
330
3
100
AcDbSymbolTableRecord
100
AcDbTextStyleTableRecord
  2
CONVERTER_11
 70
     0
 40
0.0
 41
0.9
 50
0.0
 71
     0
 42
0.2
  3
txt.shx
  4

  0
STYLE
  5
2C4
330
3
100
AcDbSymbolTableRecord
100
AcDbTextStyleTableRecord
  2
CONVERTER_12
 70
     0
 40
0.0
 41
0.63
 50
0.0
 71
     0
 42
0.2
  3
txt.shx
  4

  0
STYLE
  5
2C7
330
3
100
AcDbSymbolTableRecord
100
AcDbTextStyleTableRecord
  2
CONVERTER_13
 70
     0
 40
0.0
 41
0.72
 50
0.0
 71
     0
 42
0.2
  3
txt.shx
  4

  0
STYLE
  5
2CB
330
3
100
AcDbSymbolTableRecord
100
AcDbTextStyleTableRecord
  2
CONVERTER_14
 70
     0
 40
0.0
 41
0.765
 50
0.0
 71
     0
 42
0.2
  3
txt.shx
  4

  0
STYLE
  5
303
330
3
100
AcDbSymbolTableRecord
100
AcDbTextStyleTableRecord
  2
CONVERTER_15
 70
     0
 40
0.0
 41
0.855
 50
0.0
 71
     0
 42
0.2
  3
txt.shx
  4

  0
STYLE
  5
31F
330
3
100
AcDbSymbolTableRecord
100
AcDbTextStyleTableRecord
  2
CONVERTER_16
 70
     0
 40
0.0
 41
0.54
 50
0.0
 71
     0
 42
0.2
  3
txt.shx
  4

  0
STYLE
  5
321
330
3
100
AcDbSymbolTableRecord
100
AcDbTextStyleTableRecord
  2
CONVERTER_17
 70
     0
 40
0.0
 41
0.81
 50
0.0
 71
     0
 42
0.2
  3
txt.shx
  4

  0
STYLE
  5
328
330
3
100
AcDbSymbolTableRecord
100
AcDbTextStyleTableRecord
  2
CONVERTER_18
 70
     0
 40
0.0
 41
0.45
 50
0.0
 71
     0
 42
0.2
  3
txt.shx
  4

  0
ENDTAB
  0
TABLE
  2
VIEW
  5
6
330
0
100
AcDbSymbolTable
 70
     0
  0
ENDTAB
  0
TABLE
  2
UCS
  5
7
330
0
100
AcDbSymbolTable
 70
     0
  0
ENDTAB
  0
TABLE
  2
APPID
  5
9
330
0
100
AcDbSymbolTable
 70
     1
  0
APPID
  5
12
330
9
100
AcDbSymbolTableRecord
100
AcDbRegAppTableRecord
  2
ACAD
 70
     0
  0
ENDTAB
  0
TABLE
  2
DIMSTYLE
  5
A
330
0
100
AcDbSymbolTable
 70
     6
100
AcDbDimStyleTable
  0
DIMSTYLE
105
27
330
A
100
AcDbSymbolTableRecord
100
AcDbDimStyleTableRecord
  2
Standard
 70
     0
340
11
  0
DIMSTYLE
105
11C
102
{ACAD_REACTORS
330
11D
102
}
330
A
100
AcDbSymbolTableRecord
100
AcDbDimStyleTableRecord
  2
ME10_DIM_10
 70
     0
 41
3.5
 42
0.0
 44
2.0
 73
     0
 74
     0
 77
     1
 78
     8
140
3.5
147
2.0
172
     1
173
     1
176
     2
177
     2
178
     3
271
     0
340
B3
  0
DIMSTYLE
105
127
102
{ACAD_REACTORS
330
128
102
}
330
A
100
AcDbSymbolTableRecord
100
AcDbDimStyleTableRecord
  2
ME10_DIM_11
 70
     0
 41
3.5
 42
0.0
 44
2.0
 73
     0
 74
     0
 77
     1
 78
     8
140
3.5
147
2.0
172
     1
173
     1
176
     2
177
     2
178
     3
340
B3
  0
DIMSTYLE
105
132
102
{ACAD_REACTORS
330
133
102
}
330
A
100
AcDbSymbolTableRecord
100
AcDbDimStyleTableRecord
  2
ME10_DIM_12
 70
     0
 41
3.5
 42
0.0
 44
2.0
 73
     0
 74
     0
 77
     1
 78
     8
140
3.5
147
2.0
172
     1
173
     1
176
     2
177
     2
178
     3
340
B3
  0
DIMSTYLE
105
14C
102
{ACAD_REACTORS
330
14D
102
}
330
A
100
AcDbSymbolTableRecord
100
AcDbDimStyleTableRecord
  2
ME10_DIM_13
 70
     0
 41
3.5
 42
0.0
 44
2.0
 73
     0
 74
     0
 77
     1
 78
     8
140
3.5
147
2.0
172
     1
173
     1
176
     2
177
     2
178
     3
340
B3
  0
DIMSTYLE
105
159
102
{ACAD_REACTORS
330
15A
102
}
330
A
100
AcDbSymbolTableRecord
100
AcDbDimStyleTableRecord
  2
ME10_DIM_14
 70
     0
 41
3.5
 42
0.0
 44
2.0
 73
     0
 74
     0
 77
     1
 78
     8
140
3.5
147
2.0
172
     1
173
     1
176
     2
177
     2
178
     3
340
B3
  0
ENDTAB
  0
TABLE
  2
BLOCK_RECORD
  5
1
330
0
100
AcDbSymbolTable
 70
    21
  0
BLOCK_RECORD
  5
1F
330
1
100
AcDbSymbolTableRecord
100
AcDbBlockTableRecord
  2
*Model_Space
340
22
  0
BLOCK_RECORD
  5
1B
330
1
100
AcDbSymbolTableRecord
100
AcDbBlockTableRecord
  2
*Paper_Space
340
1E
  0
BLOCK_RECORD
  5
23
330
1
100
AcDbSymbolTableRecord
100
AcDbBlockTableRecord
  2
*Paper_Space0
340
26
  0
BLOCK_RECORD
  5
43
330
1
100
AcDbSymbolTableRecord
100
AcDbBlockTableRecord
  2
3030242_FBS_3-6_select__1
340
0
102
{BLKREFS
331
47
102
}
  0
BLOCK_RECORD
  5
46
330
1
100
AcDbSymbolTableRecord
100
AcDbBlockTableRecord
  2
AllgSicht1
340
0
102
{BLKREFS
331
78
102
}
  0
BLOCK_RECORD
  5
4A
330
1
100
AcDbSymbolTableRecord
100
AcDbBlockTableRecord
  2
3030242_FBS_3-6_select__2
340
0
102
{BLKREFS
331
4E
102
}
  0
BLOCK_RECORD
  5
4D
330
1
100
AcDbSymbolTableRecord
100
AcDbBlockTableRecord
  2
Drfsicht1
340
0
102
{BLKREFS
331
79
102
}
  0
BLOCK_RECORD
  5
51
330
1
100
AcDbSymbolTableRecord
100
AcDbBlockTableRecord
  2
3030242_FBS_3-6_select__3
340
0
102
{BLKREFS
331
55
102
}
  0
BLOCK_RECORD
  5
54
330
1
100
AcDbSymbolTableRecord
100
AcDbBlockTableRecord
  2
Rckans1
340
0
102
{BLKREFS
331
7A
102
}
  0
BLOCK_RECORD
  5
58
330
1
100
AcDbSymbolTableRecord
100
AcDbBlockTableRecord
  2
3030242_FBS_3-6_select__4
340
0
102
{BLKREFS
331
5C
102
}
  0
BLOCK_RECORD
  5
5B
330
1
100
AcDbSymbolTableRecord
100
AcDbBlockTableRecord
  2
SA_Links1
340
0
102
{BLKREFS
331
7B
102
}
  0
BLOCK_RECORD
  5
5F
330
1
100
AcDbSymbolTableRecord
100
AcDbBlockTableRecord
  2
3030242_FBS_3-6_select__5
340
0
102
{BLKREFS
331
63
102
}
  0
BLOCK_RECORD
  5
62
330
1
100
AcDbSymbolTableRecord
100
AcDbBlockTableRecord
  2
SA_Rechts1
340
0
102
{BLKREFS
331
7C
102
}
  0
BLOCK_RECORD
  5
66
330
1
100
AcDbSymbolTableRecord
100
AcDbBlockTableRecord
  2
3030242_FBS_3-6_select__6
340
0
102
{BLKREFS
331
6A
102
}
  0
BLOCK_RECORD
  5
69
330
1
100
AcDbSymbolTableRecord
100
AcDbBlockTableRecord
  2
Vordans1
340
0
102
{BLKREFS
331
7D
102
}
  0
BLOCK_RECORD
  5
6D
330
1
100
AcDbSymbolTableRecord
100
AcDbBlockTableRecord
  2
_rahmen
340
0
102
{BLKREFS
331
74
102
}
  0
BLOCK_RECORD
  5
70
330
1
100
AcDbSymbolTableRecord
100
AcDbBlockTableRecord
  2
_punkt
340
0
102
{BLKREFS
331
75
102
}
  0
BLOCK_RECORD
  5
73
330
1
100
AcDbSymbolTableRecord
100
AcDbBlockTableRecord
  2
A4I
340
0
102
{BLKREFS
331
7E
102
}
  0
BLOCK_RECORD
  5
113
330
1
100
AcDbSymbolTableRecord
100
AcDbBlockTableRecord
  2
*D16
340
0
  0
BLOCK_RECORD
  5
11E
330
1
100
AcDbSymbolTableRecord
100
AcDbBlockTableRecord
  2
*D17
340
0
  0
BLOCK_RECORD
  5
129
330
1
100
AcDbSymbolTableRecord
100
AcDbBlockTableRecord
  2
*D18
340
0
  0
BLOCK_RECORD
  5
141
330
1
100
AcDbSymbolTableRecord
100
AcDbBlockTableRecord
  2
*D19
340
0
  0
BLOCK_RECORD
  5
14E
330
1
100
AcDbSymbolTableRecord
100
AcDbBlockTableRecord
  2
*D20
340
0
  0
ENDTAB
  0
ENDSEC
  0
SECTION
  2
BLOCKS
  0
BLOCK
  5
20
330
1F
100
AcDbEntity
  8
0
100
AcDbBlockBegin
  2
*Model_Space
 70
     0
 10
0.0
 20
0.0
 30
0.0
  3
*Model_Space
  1

  0
ENDBLK
  5
21
330
1F
100
AcDbEntity
  8
0
100
AcDbBlockEnd
  0
BLOCK
  5
1C
330
1B
100
AcDbEntity
 67
     1
  8
0
100
AcDbBlockBegin
  2
*Paper_Space
 70
     0
 10
0.0
 20
0.0
 30
0.0
  3
*Paper_Space
  1

  0
ENDBLK
  5
1D
330
1B
100
AcDbEntity
 67
     1
  8
0
100
AcDbBlockEnd
  0
BLOCK
  5
24
330
23
100
AcDbEntity
  8
0
100
AcDbBlockBegin
  2
*Paper_Space0
 70
     0
 10
0.0
 20
0.0
 30
0.0
  3
*Paper_Space0
  1

  0
ENDBLK
  5
25
330
23
100
AcDbEntity
  8
0
100
AcDbBlockEnd
  0
BLOCK
  5
44
330
43
100
AcDbEntity
  8
0
100
AcDbBlockBegin
  2
3030242_FBS_3-6_select__1
 70
     0
 10
-26.5240379684599
 20
65.91362397473488
 30
0.0
  3
3030242_FBS_3-6_select__1
  1

  0
LINE
  5
7F
330
43
100
AcDbEntity
  8
0
  6
Continuous
 62
     7
100
AcDbLine
 10
-23.92596175710657
 20
84.7846058059824
 30
0.0
 11
-15.47596175710658
 21
92.1025204679609
 31
0.0
  0
LINE
  5
80
330
43
100
AcDbEntity
  8
0
  6
Continuous
 62
     7
100
AcDbLine
 10
-24.03217953974822
 20
68.33124787342086
 30
0.0
 11
-25.41782018580333
 21
68.73124787342088
 31
0.0
  0
LINE
  5
81
330
43
100
AcDbEntity
  8
0
  6
Continuous
 62
     7
100
AcDbLine
 10
-23.92596175710657
 20
73.00666031451405
 30
0.0
 11
-26.5240379684599
 21
73.75666031451405
 31
0.0
  0
LINE
  5
82
330
43
100
AcDbEntity
  8
0
  6
Continuous
 62
     7
100
AcDbLine
 10
-26.5240379684599
 20
85.5346058059824
 30
0.0
 11
-26.5240379684599
 21
73.75666031451405
 31
0.0
  0
LINE
  5
83
330
43
100
AcDbEntity
  8
0
  6
Continuous
 62
     7
100
AcDbLine
 10
-26.5240379684599
 20
85.5346058059824
 30
0.0
 11
-23.92596175710657
 21
84.7846058059824
 31
0.0
  0
LINE
  5
84
330
43
100
AcDbEntity
  8
0
  6
Continuous
 62
     7
100
AcDbLine
 10
-25.41782018580333
 20
73.4373227472145
 30
0.0
 11
-25.41782018580333
 21
68.73124787342088
 31
0.0
  0
LINE
  5
85
330
43
100
AcDbEntity
  8
0
  6
Continuous
 62
     7
100
AcDbLine
 10
-18.57596175710658
 20
81.19060038027699
 30
0.0
 11
-20.82596175710658
 21
79.242043221762
 31
0.0
  0
LINE
  5
86
330
43
100
AcDbEntity
  8
0
  6
Continuous
 62
     7
100
AcDbLine
 10
-15.47596175710658
 20
80.32457497649256
 30
0.0
 11
-17.72596175710658
 21
78.37601781797757
 31
0.0
  0
LINE
  5
87
330
43
100
AcDbEntity
  8
0
  6
Continuous
 62
     7
100
AcDbLine
 10
-17.72596175710658
 20
78.37601781797757
 30
0.0
 11
-19.50717953974775
 21
78.89021110112418
 31
0.0
  0
LINE
  5
88
330
43
100
AcDbEntity
  8
0
  6
Continuous
 62
     7
100
AcDbLine
 10
-19.50717953974775
 20
78.87577734439388
 30
0.0
 11
-19.68217953974838
 21
78.42111400740538
 31
0.0
  0
LINE
  5
89
330
43
100
AcDbEntity
  8
0
  6
Continuous
 62
     7
100
AcDbLine
 10
-19.50717953974775
 20
80.38414212405392
 30
0.0
 11
-19.50717953974775
 21
78.87577734439388
 31
0.0
  0
LINE
  5
8A
330
43
100
AcDbEntity
  8
0
  6
Continuous
 62
     7
100
AcDbLine
 10
-21.67596175710657
 20
74.95521747302904
 30
0.0
 11
-23.92596175710657
 21
73.00666031451405
 31
0.0
  0
LINE
  5
8B
330
43
100
AcDbEntity
  8
0
  6
Continuous
 62
     7
100
AcDbLine
 10
-20.82596175710658
 20
79.242043221762
 30
0.0
 11
-21.67596175710657
 21
79.4874170861676
 31
0.0
  0
LINE
  5
8C
330
43
100
AcDbEntity
  8
0
  6
Continuous
 62
     7
100
AcDbLine
 10
-20.93217953974968
 20
77.3385822526762
 30
0.0
 11
-21.10717953974887
 21
77.49013669833779
 31
0.0
  0
LINE
  5
8D
330
43
100
AcDbEntity
  8
0
  6
Continuous
 62
     7
100
AcDbLine
 10
-21.10717953974887
 20
77.49013669833779
 30
0.0
 11
-21.10717953974887
 21
79.32322380301673
 31
0.0
  0
LINE
  5
8E
330
43
100
AcDbEntity
  8
0
  6
Continuous
 62
     7
100
AcDbLine
 10
-21.10717953974887
 20
77.49013669833779
 30
0.0
 11
-21.67596175710657
 21
77.65432998148867
 31
0.0
  0
LINE
  5
8F
330
43
100
AcDbEntity
  8
0
  6
Continuous
 62
     7
100
AcDbLine
 10
-15.47596175710658
 20
92.1025204679609
 30
0.0
 11
-15.47596175710658
 21
80.32457497649256
 31
0.0
  0
LINE
  5
90
330
43
100
AcDbEntity
  8
0
  6
Continuous
 62
     7
100
AcDbLine
 10
-17.72596175710658
 20
78.37601781797757
 30
0.0
 11
-17.72596175710658
 21
84.9578108867393
 31
0.0
  0
LINE
  5
91
330
43
100
AcDbEntity
  8
0
  6
Continuous
 62
     7
100
AcDbLine
 10
-17.64958501425726
 20
71.28298147819847
 30
0.0
 11
-16.76477406524026
 21
72.04925023756634
 31
0.0
  0
LINE
  5
92
330
43
100
AcDbEntity
  8
0
  6
Continuous
 62
     7
100
AcDbLine
 10
-17.64958501425726
 20
71.28298147819847
 30
0.0
 11
-17.83217953974869
 21
73.7006053768912
 31
0.0
  0
LINE
  5
93
330
43
100
AcDbEntity
  8
0
  6
Continuous
 62
     7
100
AcDbLine
 10
-19.03522566031235
 20
71.68298147819846
 30
0.0
 11
-17.64958501425726
 21
71.28298147819847
 31
0.0
  0
LINE
  5
94
330
43
100
AcDbEntity
  8
0
  6
Continuous
 62
     7
100
AcDbLine
 10
-17.72596175710658
 20
84.9578108867393
 30
0.0
 11
-18.57596175710658
 21
84.2216892935225
 31
0.0
  0
LINE
  5
95
330
43
100
AcDbEntity
  8
0
  6
Continuous
 62
     7
100
AcDbLine
 10
-17.83217953974869
 20
73.7006053768912
 30
0.0
 11
-17.83217953974875
 21
78.40668025067816
 31
0.0
  0
LINE
  5
96
330
43
100
AcDbEntity
  8
0
  6
Continuous
 62
     7
100
AcDbLine
 10
-22.13522566031326
 20
68.9983027264597
 30
0.0
 11
-20.74958501425817
 21
68.59830272645969
 31
0.0
  0
LINE
  5
97
330
43
100
AcDbEntity
  8
0
  6
Continuous
 62
     7
100
AcDbLine
 10
-22.13522566031326
 20
68.9983027264597
 30
0.0
 11
-22.31782018580477
 21
71.41592662515347
 31
0.0
  0
LINE
  5
98
330
43
100
AcDbEntity
  8
0
  6
Continuous
 62
     7
100
AcDbLine
 10
-20.93217953974968
 20
71.01592662515348
 30
0.0
 11
-22.31782018580477
 21
71.41592662515347
 31
0.0
  0
LINE
  5
99
330
43
100
AcDbEntity
  8
0
  6
Continuous
 62
     7
100
AcDbLine
 10
-22.31782018580477
 20
74.39935176814323
 30
0.0
 11
-22.31782018580477
 21
71.41592662515347
 31
0.0
  0
LINE
  5
9A
330
43
100
AcDbEntity
  8
0
  6
Continuous
 62
     7
100
AcDbLine
 10
-20.82596175710658
 20
82.2731321350075
 30
0.0
 11
-21.67596175710657
 21
81.53701054179076
 31
0.0
  0
LINE
  5
9B
330
43
100
AcDbEntity
  8
0
  6
Continuous
 62
     7
100
AcDbLine
 10
-21.67596175710657
 20
77.55329368438093
 30
0.0
 11
-20.93217953974968
 21
77.3385822526762
 31
0.0
  0
LINE
  5
9C
330
43
100
AcDbEntity
  8
0
  6
Continuous
 62
     7
100
AcDbLine
 10
-20.82596175710658
 20
82.2731321350075
 30
0.0
 11
-20.82596175710658
 21
79.242043221762
 31
0.0
  0
LINE
  5
9D
330
43
100
AcDbEntity
  8
0
  6
Continuous
 62
     7
100
AcDbLine
 10
-21.67596175710657
 20
81.53701054179076
 30
0.0
 11
-21.67596175710657
 21
74.95521747302904
 31
0.0
  0
LINE
  5
9E
330
43
100
AcDbEntity
  8
0
  6
Continuous
 62
     7
100
AcDbLine
 10
-18.07403796845989
 20
92.8525204679609
 30
0.0
 11
-26.5240379684599
 21
85.5346058059824
 31
0.0
  0
LINE
  5
9F
330
43
100
AcDbEntity
  8
0
  6
Continuous
 62
     7
100
AcDbLine
 10
-15.47596175710658
 20
92.1025204679609
 30
0.0
 11
-18.07403796845989
 21
92.8525204679609
 31
0.0
  0
LINE
  5
A0
330
43
100
AcDbEntity
  8
0
  6
Continuous
 62
     7
100
AcDbLine
 10
-16.76477406524026
 20
72.04925023756634
 30
0.0
 11
-16.58217953974695
 21
74.78313713162234
 31
0.0
  0
LINE
  5
A1
330
43
100
AcDbEntity
  8
0
  6
Continuous
 62
     7
100
AcDbLine
 10
-19.03522566031235
 20
71.68298147819846
 30
0.0
 11
-19.21782018580378
 21
74.1006053768912
 31
0.0
  0
LINE
  5
A2
330
43
100
AcDbEntity
  8
0
  6
Continuous
 62
     7
100
AcDbLine
 10
-19.21782018580378
 20
74.1006053768912
 30
0.0
 11
-17.83217953974869
 21
73.7006053768912
 31
0.0
  0
LINE
  5
A3
330
43
100
AcDbEntity
  8
0
  6
Continuous
 62
     7
100
AcDbLine
 10
-18.57596175710658
 20
84.2216892935225
 30
0.0
 11
-18.57596175710658
 21
81.19060038027699
 31
0.0
  0
LINE
  5
A4
330
43
100
AcDbEntity
  8
0
  6
Continuous
 62
     7
100
AcDbLine
 10
-16.58217953974695
 20
74.78313713162234
 30
0.0
 11
-16.58217953974695
 21
79.3665622746079
 31
0.0
  0
LINE
  5
A5
330
43
100
AcDbEntity
  8
0
  6
Continuous
 62
     7
100
AcDbLine
 10
-19.21782018580378
 20
74.1006053768912
 30
0.0
 11
-19.21782018580385
 21
78.80668025067816
 31
0.0
  0
LINE
  5
A6
330
43
100
AcDbEntity
  8
0
  6
Continuous
 62
     7
100
AcDbLine
 10
-19.86477406524219
 20
69.3645714858267
 30
0.0
 11
-19.68217953974838
 21
72.09845837989029
 31
0.0
  0
LINE
  5
A7
330
43
100
AcDbEntity
  8
0
  6
Continuous
 62
     7
100
AcDbLine
 10
-20.74958501425817
 20
68.59830272645969
 30
0.0
 11
-19.86477406524219
 21
69.3645714858267
 31
0.0
  0
LINE
  5
A8
330
43
100
AcDbEntity
  8
0
  6
Continuous
 62
     7
100
AcDbLine
 10
-20.74958501425817
 20
68.59830272645969
 30
0.0
 11
-20.93217953974968
 21
71.01592662515348
 31
0.0
  0
LINE
  5
A9
330
43
100
AcDbEntity
  8
0
  6
Continuous
 62
     7
100
AcDbLine
 10
-20.93217953974968
 20
77.3385822526762
 30
0.0
 11
-20.93217953974968
 21
71.01592662515348
 31
0.0
  0
LINE
  5
AA
330
43
100
AcDbEntity
  8
0
  6
Continuous
 62
     7
100
AcDbLine
 10
-19.68217953974838
 20
78.42111400740538
 30
0.0
 11
-19.68217953974838
 21
72.09845837989029
 31
0.0
  0
LINE
  5
AB
330
43
100
AcDbEntity
  8
0
  6
Continuous
 62
     7
100
AcDbLine
 10
-25.23522566031242
 20
66.31362397473488
 30
0.0
 11
-23.84958501425732
 21
65.91362397473488
 31
0.0
  0
LINE
  5
AC
330
43
100
AcDbEntity
  8
0
  6
Continuous
 62
     7
100
AcDbLine
 10
-22.78217953974693
 20
69.4137796281597
 30
0.0
 11
-22.96477406524032
 21
66.67989273410276
 31
0.0
  0
LINE
  5
AD
330
43
100
AcDbEntity
  8
0
  6
Continuous
 62
     7
100
AcDbLine
 10
-22.96477406524032
 20
66.67989273410276
 30
0.0
 11
-23.84958501425732
 21
65.91362397473488
 31
0.0
  0
LINE
  5
AE
330
43
100
AcDbEntity
  8
0
  6
Continuous
 62
     7
100
AcDbLine
 10
-23.84958501425732
 20
65.91362397473488
 30
0.0
 11
-24.03217953974822
 21
68.33124787342086
 31
0.0
  0
LINE
  5
AF
330
43
100
AcDbEntity
  8
0
  6
Continuous
 62
     7
100
AcDbLine
 10
-24.03217953974822
 20
73.03732274721449
 30
0.0
 11
-24.03217953974822
 21
68.33124787342086
 31
0.0
  0
LINE
  5
B0
330
43
100
AcDbEntity
  8
0
  6
Continuous
 62
     7
100
AcDbLine
 10
-23.92596175710657
 20
73.00666031451405
 30
0.0
 11
-23.92596175710657
 21
84.7846058059824
 31
0.0
  0
LINE
  5
B1
330
43
100
AcDbEntity
  8
0
  6
Continuous
 62
     7
100
AcDbLine
 10
-22.78217953974693
 20
69.4137796281597
 30
0.0
 11
-22.78217953974693
 21
73.9972047711444
 31
0.0
  0
LINE
  5
B2
330
43
100
AcDbEntity
  8
0
  6
Continuous
 62
     7
100
AcDbLine
 10
-25.23522566031242
 20
66.31362397473488
 30
0.0
 11
-25.41782018580333
 21
68.73124787342088
 31
0.0
  0
ENDBLK
  5
45
330
43
100
AcDbEntity
  8
0
100
AcDbBlockEnd
  0
BLOCK
  5
48
330
46
100
AcDbEntity
  8
0
100
AcDbBlockBegin
  2
AllgSicht1
 70
     0
 10
-21.00000000000496
 20
78.99999999994816
 30
0.0
  3
AllgSicht1
  1

  0
INSERT
  5
47
330
46
100
AcDbEntity
  8
0
100
AcDbBlockReference
  2
3030242_FBS_3-6_select__1
 10
-26.5240379684599
 20
65.91362397473488
 30
0.0
  0
MTEXT
  5
B4
330
46
100
AcDbEntity
  8
1
 62
     6
100
AcDbMText
 10
-21.000000000005
 20
60.14747949869548
 30
0.0
 40
5.0
 41
0.0
 71
     2
 72
     1
  1
 
  7
CONVERTER_11
 73
     1
 44
1.32052821128451
  0
ENDBLK
  5
49
330
46
100
AcDbEntity
  8
0
100
AcDbBlockEnd
  0
BLOCK
  5
4B
330
4A
100
AcDbEntity
  8
0
100
AcDbBlockBegin
  2
3030242_FBS_3-6_select__2
 70
     0
 10
-130.5
 20
82.55000027443351
 30
0.0
  3
3030242_FBS_3-6_select__2
  1

  0
LINE
  5
B5
330
4A
100
AcDbEntity
  8
0
  6
Continuous
 62
     7
100
AcDbLine
 10
-127.5
 20
82.55000027443351
 30
0.0
 11
-127.5
 21
99.4500002744335
 31
0.0
  0
LINE
  5
B6
330
4A
100
AcDbEntity
  8
0
  6
Continuous
 62
     7
100
AcDbLine
 10
-127.5
 20
99.4500002744335
 30
0.0
 11
-130.5
 21
99.4500002744335
 31
0.0
  0
LINE
  5
B7
330
4A
100
AcDbEntity
  8
0
  6
Continuous
 62
     7
100
AcDbLine
 10
-130.5
 20
99.4500002744335
 30
0.0
 11
-130.5
 21
82.55000027443351
 31
0.0
  0
LINE
  5
B8
330
4A
100
AcDbEntity
  8
0
  6
Continuous
 62
     7
100
AcDbLine
 10
-130.5
 20
82.55000027443351
 30
0.0
 11
-127.5
 21
82.55000027443351
 31
0.0
  0
ENDBLK
  5
4C
330
4A
100
AcDbEntity
  8
0
100
AcDbBlockEnd
  0
BLOCK
  5
4F
330
4D
100
AcDbEntity
  8
0
100
AcDbBlockBegin
  2
Drfsicht1
 70
     0
 10
-129.0
 20
90.99999999999005
 30
0.0
  3
Drfsicht1
  1

  0
INSERT
  5
4E
330
4D
100
AcDbEntity
  8
0
100
AcDbBlockReference
  2
3030242_FBS_3-6_select__2
 10
-130.5
 20
82.55000027443351
 30
0.0
  0
MTEXT
  5
B9
330
4D
100
AcDbEntity
  8
1
 62
     6
100
AcDbMText
 10
-129.0
 20
77.54999983309699
 30
0.0
 40
5.0
 41
0.0
 71
     2
 72
     1
  1
 
  7
CONVERTER_11
 73
     1
 44
1.32052821128451
  0
ENDBLK
  5
50
330
4D
100
AcDbEntity
  8
0
100
AcDbBlockEnd
  0
BLOCK
  5
52
330
51
100
AcDbEntity
  8
0
100
AcDbBlockBegin
  2
3030242_FBS_3-6_select__3
 70
     0
 10
-51.599999666214
 20
124.4500002653864
 30
0.0
  3
3030242_FBS_3-6_select__3
  1

  0
LINE
  5
BA
330
51
100
AcDbEntity
  8
0
  6
Continuous
 62
     7
100
AcDbLine
 10
-50.89999966622374
 20
127.4242264083347
 30
0.0
 11
-50.89999966622374
 21
133.5250002654154
 31
0.0
  0
LINE
  5
BB
330
51
100
AcDbEntity
  8
0
  6
Continuous
 62
     7
100
AcDbLine
 10
-49.29999966622374
 20
127.4242264083357
 30
0.0
 11
-49.29999966622374
 21
133.5250002654154
 31
0.0
  0
LINE
  5
BC
330
51
100
AcDbEntity
  8
0
  6
Continuous
 62
     7
100
AcDbLine
 10
-51.599999666214
 20
147.1250002654154
 30
0.0
 11
-48.59999966621399
 21
147.1250002654154
 31
0.0
  0
LINE
  5
BD
330
51
100
AcDbEntity
  8
0
  6
Continuous
 62
     7
100
AcDbLine
 10
-50.89999966622374
 20
133.5250002654154
 30
0.0
 11
-49.29999966622374
 21
133.5250002654154
 31
0.0
  0
LINE
  5
BE
330
51
100
AcDbEntity
  8
0
  6
Continuous
 62
     7
100
AcDbLine
 10
-51.599999666214
 20
133.5250002654154
 30
0.0
 11
-50.89999966622374
 21
133.5250002654154
 31
0.0
  0
LINE
  5
BF
330
51
100
AcDbEntity
  8
0
  6
Continuous
 62
     7
100
AcDbLine
 10
-49.29999966622374
 20
133.5250002654154
 30
0.0
 11
-48.59999966621399
 21
133.5250002654154
 31
0.0
  0
LINE
  5
C0
330
51
100
AcDbEntity
  8
0
  6
Continuous
 62
     7
100
AcDbLine
 10
-50.89999966622374
 20
124.4500002653864
 30
0.0
 11
-50.89999966622374
 21
127.4242264083347
 31
0.0
  0
LINE
  5
C1
330
51
100
AcDbEntity
  8
0
  6
Continuous
 62
     7
100
AcDbLine
 10
-49.29999966622374
 20
124.4500002653864
 30
0.0
 11
-49.29999966622374
 21
127.4242264083357
 31
0.0
  0
LINE
  5
C2
330
51
100
AcDbEntity
  8
0
  6
Continuous
 62
     7
100
AcDbLine
 10
-49.29999966622374
 20
127.4242264083357
 30
0.0
 11
-50.89999966622374
 21
127.4242264083347
 31
0.0
  0
LINE
  5
C3
330
51
100
AcDbEntity
  8
0
  6
Continuous
 62
     7
100
AcDbLine
 10
-50.89999966622374
 20
124.4500002653864
 30
0.0
 11
-49.29999966622374
 21
124.4500002653864
 31
0.0
  0
LINE
  5
C4
330
51
100
AcDbEntity
  8
0
  6
Continuous
 62
     7
100
AcDbLine
 10
-48.59999966621399
 20
133.5250002654154
 30
0.0
 11
-48.59999966621399
 21
147.1250002654154
 31
0.0
  0
LINE
  5
C5
330
51
100
AcDbEntity
  8
0
  6
Continuous
 62
     7
100
AcDbLine
 10
-51.599999666214
 20
147.1250002654154
 30
0.0
 11
-51.599999666214
 21
133.5250002654154
 31
0.0
  0
ENDBLK
  5
53
330
51
100
AcDbEntity
  8
0
100
AcDbBlockEnd
  0
BLOCK
  5
56
330
54
100
AcDbEntity
  8
0
100
AcDbBlockBegin
  2
Rckans1
 70
     0
 10
-50.09999966621399
 20
135.7875002622054
 30
0.0
  3
Rckans1
  1

  0
INSERT
  5
55
330
54
100
AcDbEntity
  8
0
100
AcDbBlockReference
  2
3030242_FBS_3-6_select__3
 10
-51.599999666214
 20
124.4500002653864
 30
0.0
  0
MTEXT
  5
C6
330
54
100
AcDbEntity
  8
1
 62
     6
100
AcDbMText
 10
-50.09999966621399
 20
119.450000166838
 30
0.0
 40
5.0
 41
0.0
 71
     2
 72
     1
  1
 
  7
CONVERTER_11
 73
     1
 44
1.32052821128451
  0
ENDBLK
  5
57
330
54
100
AcDbEntity
  8
0
100
AcDbBlockEnd
  0
BLOCK
  5
59
330
58
100
AcDbEntity
  8
0
100
AcDbBlockBegin
  2
3030242_FBS_3-6_select__4
 70
     0
 10
-100.4663394652085
 20
124.4500002653864
 30
0.0
  3
3030242_FBS_3-6_select__4
  1

  0
LINE
  5
C7
330
58
100
AcDbEntity
  8
0
  6
Continuous
 62
     7
100
AcDbLine
 10
-92.9011504142186
 20
124.4500002653864
 30
0.0
 11
-93.26633946520623
 21
127.4242264083358
 31
0.0
  0
LINE
  5
C8
330
58
100
AcDbEntity
  8
0
  6
Continuous
 62
     7
100
AcDbLine
 10
-86.70115041422234
 20
124.4500002653936
 30
0.0
 11
-87.06633946520911
 21
127.4242264083357
 31
0.0
  0
LINE
  5
C9
330
58
100
AcDbEntity
  8
0
  6
Continuous
 62
     7
100
AcDbLine
 10
-88.06633946520849
 20
133.5250002654154
 30
0.0
 11
-88.0663394652085
 21
141.1250002654154
 31
0.0
  0
LINE
  5
CA
330
58
100
AcDbEntity
  8
0
  6
Continuous
 62
     7
100
AcDbLine
 10
-87.06633946520911
 20
127.4242264083357
 30
0.0
 11
-87.06633946520911
 21
133.5250002654154
 31
0.0
  0
LINE
  5
CB
330
58
100
AcDbEntity
  8
0
  6
Continuous
 62
     7
100
AcDbLine
 10
-97.3315285161885
 20
124.4500002654253
 30
0.0
 11
-96.96633946520562
 21
127.4242264083358
 31
0.0
  0
LINE
  5
CC
330
58
100
AcDbEntity
  8
0
  6
Continuous
 62
     7
100
AcDbLine
 10
-96.9663394652055
 20
133.5250002654154
 30
0.0
 11
-99.46633946520912
 21
133.5250002654154
 31
0.0
  0
LINE
  5
CD
330
58
100
AcDbEntity
  8
0
  6
Continuous
 62
     7
100
AcDbLine
 10
-95.96633946520849
 20
133.5250002654154
 30
0.0
 11
-96.9663394652055
 21
133.5250002654154
 31
0.0
  0
LINE
  5
CE
330
58
100
AcDbEntity
  8
0
  6
Continuous
 62
     7
100
AcDbLine
 10
-99.46633946520912
 20
133.5250002654154
 30
0.0
 11
-100.4663394652085
 21
133.5250002654154
 31
0.0
  0
LINE
  5
CF
330
58
100
AcDbEntity
  8
0
  6
Continuous
 62
     7
100
AcDbLine
 10
-97.3315285161885
 20
124.4500002654253
 30
0.0
 11
-99.10115041422247
 21
124.4500002653936
 31
0.0
  0
LINE
  5
D0
330
58
100
AcDbEntity
  8
0
  6
Continuous
 62
     7
100
AcDbLine
 10
-96.96633946520562
 20
127.4242264083358
 30
0.0
 11
-96.9663394652055
 21
133.5250002654154
 31
0.0
  0
LINE
  5
D1
330
58
100
AcDbEntity
  8
0
  6
Continuous
 62
     7
100
AcDbLine
 10
-83.56633946520849
 20
147.1250002654154
 30
0.0
 11
-83.56633946520849
 21
133.5250002654154
 31
0.0
  0
LINE
  5
D2
330
58
100
AcDbEntity
  8
0
  6
Continuous
 62
     7
100
AcDbLine
 10
-93.26633946520623
 20
134.7250002654144
 30
0.0
 11
-93.26633946520623
 21
127.4242264083358
 31
0.0
  0
LINE
  5
D3
330
58
100
AcDbEntity
  8
0
  6
Continuous
 62
     7
100
AcDbLine
 10
-93.6163394652075
 20
135.0750002654154
 30
0.0
 11
-93.26633946520623
 21
134.7250002654144
 31
0.0
  0
LINE
  5
D4
330
58
100
AcDbEntity
  8
0
  6
Continuous
 62
     7
100
AcDbLine
 10
-93.6163394652075
 20
137.6250002654154
 30
0.0
 11
-93.6163394652075
 21
135.0750002654154
 31
0.0
  0
LINE
  5
D5
330
58
100
AcDbEntity
  8
0
  6
Continuous
 62
     7
100
AcDbLine
 10
-94.2663394652085
 20
137.6250002654154
 30
0.0
 11
-94.2663394652085
 21
141.1250002654154
 31
0.0
  0
LINE
  5
D6
330
58
100
AcDbEntity
  8
0
  6
Continuous
 62
     7
100
AcDbLine
 10
-99.10115041422247
 20
124.4500002653936
 30
0.0
 11
-99.46633946520923
 21
127.4242264083357
 31
0.0
  0
LINE
  5
D7
330
58
100
AcDbEntity
  8
0
  6
Continuous
 62
     7
100
AcDbLine
 10
-100.4663394652085
 20
133.5250002654154
 30
0.0
 11
-100.4663394652085
 21
147.1250002654154
 31
0.0
  0
LINE
  5
D8
330
58
100
AcDbEntity
  8
0
  6
Continuous
 62
     7
100
AcDbLine
 10
-99.46633946520923
 20
127.4242264083357
 30
0.0
 11
-99.46633946520912
 21
133.5250002654154
 31
0.0
  0
LINE
  5
D9
330
58
100
AcDbEntity
  8
0
  6
Continuous
 62
     7
100
AcDbLine
 10
-95.96633946520849
 20
141.1250002654154
 30
0.0
 11
-95.96633946520849
 21
133.5250002654154
 31
0.0
  0
LINE
  5
DA
330
58
100
AcDbEntity
  8
0
  6
Continuous
 62
     7
100
AcDbLine
 10
-100.4663394652085
 20
147.1250002654154
 30
0.0
 11
-83.56633946520849
 21
147.1250002654154
 31
0.0
  0
LINE
  5
DB
330
58
100
AcDbEntity
  8
0
  6
Continuous
 62
     7
100
AcDbLine
 10
-89.76633946520849
 20
141.1250002654154
 30
0.0
 11
-88.0663394652085
 21
141.1250002654154
 31
0.0
  0
LINE
  5
DC
330
58
100
AcDbEntity
  8
0
  6
Continuous
 62
     7
100
AcDbLine
 10
-95.96633946520849
 20
141.1250002654154
 30
0.0
 11
-94.2663394652085
 21
141.1250002654154
 31
0.0
  0
LINE
  5
DD
330
58
100
AcDbEntity
  8
0
  6
Continuous
 62
     7
100
AcDbLine
 10
-91.13152851618666
 20
124.4500002654181
 30
0.0
 11
-90.76633946520364
 21
127.4242264083299
 31
0.0
  0
LINE
  5
DE
330
58
100
AcDbEntity
  8
0
  6
Continuous
 62
     7
100
AcDbLine
 10
-89.76633946520849
 20
141.1250002654154
 30
0.0
 11
-89.76633946520849
 21
137.6250002654154
 31
0.0
  0
LINE
  5
DF
330
58
100
AcDbEntity
  8
0
  6
Continuous
 62
     7
100
AcDbLine
 10
-91.13152851618666
 20
124.4500002654181
 30
0.0
 11
-92.9011504142186
 21
124.4500002653864
 31
0.0
  0
LINE
  5
E0
330
58
100
AcDbEntity
  8
0
  6
Continuous
 62
     7
100
AcDbLine
 10
-90.76633946520364
 20
134.725000265417
 30
0.0
 11
-90.76633946520364
 21
127.4242264083299
 31
0.0
  0
LINE
  5
E1
330
58
100
AcDbEntity
  8
0
  6
Continuous
 62
     7
100
AcDbLine
 10
-90.76633946520364
 20
134.725000265417
 30
0.0
 11
-90.41633946520524
 21
135.0750002654154
 31
0.0
  0
LINE
  5
E2
330
58
100
AcDbEntity
  8
0
  6
Continuous
 62
     7
100
AcDbLine
 10
-90.41633946520524
 20
135.0750002654154
 30
0.0
 11
-90.41633946520524
 21
137.6250002654154
 31
0.0
  0
LINE
  5
E3
330
58
100
AcDbEntity
  8
0
  6
Continuous
 62
     7
100
AcDbLine
 10
-90.41633946520524
 20
137.6250002654154
 30
0.0
 11
-93.6163394652075
 21
137.6250002654154
 31
0.0
  0
LINE
  5
E4
330
58
100
AcDbEntity
  8
0
  6
Continuous
 62
     7
100
AcDbLine
 10
-89.76633946520849
 20
137.6250002654154
 30
0.0
 11
-90.41633946520524
 21
137.6250002654154
 31
0.0
  0
LINE
  5
E5
330
58
100
AcDbEntity
  8
0
  6
Continuous
 62
     7
100
AcDbLine
 10
-93.6163394652075
 20
137.6250002654154
 30
0.0
 11
-94.2663394652085
 21
137.6250002654154
 31
0.0
  0
LINE
  5
E6
330
58
100
AcDbEntity
  8
0
  6
Continuous
 62
     7
100
AcDbLine
 10
-84.93152851618835
 20
124.4500002654253
 30
0.0
 11
-84.56633946520653
 21
127.4242264083275
 31
0.0
  0
LINE
  5
E7
330
58
100
AcDbEntity
  8
0
  6
Continuous
 62
     7
100
AcDbLine
 10
-84.56633946520653
 20
133.5250002654154
 30
0.0
 11
-87.06633946520911
 21
133.5250002654154
 31
0.0
  0
LINE
  5
E8
330
58
100
AcDbEntity
  8
0
  6
Continuous
 62
     7
100
AcDbLine
 10
-83.56633946520849
 20
133.5250002654154
 30
0.0
 11
-84.56633946520653
 21
133.5250002654154
 31
0.0
  0
LINE
  5
E9
330
58
100
AcDbEntity
  8
0
  6
Continuous
 62
     7
100
AcDbLine
 10
-87.06633946520911
 20
133.5250002654154
 30
0.0
 11
-88.06633946520849
 21
133.5250002654154
 31
0.0
  0
LINE
  5
EA
330
58
100
AcDbEntity
  8
0
  6
Continuous
 62
     7
100
AcDbLine
 10
-84.93152851618835
 20
124.4500002654253
 30
0.0
 11
-86.70115041422234
 21
124.4500002653936
 31
0.0
  0
LINE
  5
EB
330
58
100
AcDbEntity
  8
0
  6
Continuous
 62
     7
100
AcDbLine
 10
-84.56633946520653
 20
133.5250002654154
 30
0.0
 11
-84.56633946520653
 21
127.4242264083275
 31
0.0
  0
ENDBLK
  5
5A
330
58
100
AcDbEntity
  8
0
100
AcDbBlockEnd
  0
BLOCK
  5
5D
330
5B
100
AcDbEntity
  8
0
100
AcDbBlockBegin
  2
SA_Links1
 70
     0
 10
-92.01633919076504
 20
135.7875002622054
 30
0.0
  3
SA_Links1
  1

  0
INSERT
  5
5C
330
5B
100
AcDbEntity
  8
0
100
AcDbBlockReference
  2
3030242_FBS_3-6_select__4
 10
-100.4663394652085
 20
124.4500002653864
 30
0.0
  0
MTEXT
  5
EC
330
5B
100
AcDbEntity
  8
1
 62
     6
100
AcDbMText
 10
-92.01633919076515
 20
119.450000166838
 30
0.0
 40
5.0
 41
0.0
 71
     2
 72
     1
  1
 
  7
CONVERTER_11
 73
     1
 44
1.32052821128451
  0
ENDBLK
  5
5E
330
5B
100
AcDbEntity
  8
0
100
AcDbBlockEnd
  0
BLOCK
  5
60
330
5F
100
AcDbEntity
  8
0
100
AcDbBlockBegin
  2
3030242_FBS_3-6_select__5
 70
     0
 10
-173.8999998924596
 20
124.4500002653864
 30
0.0
  3
3030242_FBS_3-6_select__5
  1

  0
LINE
  5
ED
330
5F
100
AcDbEntity
  8
0
  6
Continuous
 62
     7
100
AcDbLine
 10
-164.5651889434495
 20
124.4500002653864
 30
0.0
 11
-164.1999998924619
 21
127.4242264083358
 31
0.0
  0
LINE
  5
EE
330
5F
100
AcDbEntity
  8
0
  6
Continuous
 62
     7
100
AcDbLine
 10
-172.8999998924616
 20
133.5250002654154
 30
0.0
 11
-172.8999998924616
 21
127.4242264083275
 31
0.0
  0
LINE
  5
EF
330
5F
100
AcDbEntity
  8
0
  6
Continuous
 62
     7
100
AcDbLine
 10
-173.8999998924596
 20
133.5250002654154
 30
0.0
 11
-173.8999998924596
 21
147.1250002654154
 31
0.0
  0
LINE
  5
F0
330
5F
100
AcDbEntity
  8
0
  6
Continuous
 62
     7
100
AcDbLine
 10
-170.399999892459
 20
127.4242264083358
 30
0.0
 11
-170.7651889434457
 21
124.4500002653936
 31
0.0
  0
LINE
  5
F1
330
5F
100
AcDbEntity
  8
0
  6
Continuous
 62
     7
100
AcDbLine
 10
-170.399999892459
 20
127.4242264083358
 30
0.0
 11
-170.399999892459
 21
133.5250002654154
 31
0.0
  0
LINE
  5
F2
330
5F
100
AcDbEntity
  8
0
  6
Continuous
 62
     7
100
AcDbLine
 10
-169.3999998924596
 20
141.1250002654154
 30
0.0
 11
-169.3999998924596
 21
133.5250002654154
 31
0.0
  0
LINE
  5
F3
330
5F
100
AcDbEntity
  8
0
  6
Continuous
 62
     7
100
AcDbLine
 10
-166.6999998924644
 20
134.725000265417
 30
0.0
 11
-167.0499998924628
 21
135.0750002654154
 31
0.0
  0
LINE
  5
F4
330
5F
100
AcDbEntity
  8
0
  6
Continuous
 62
     7
100
AcDbLine
 10
-170.399999892459
 20
133.5250002654154
 30
0.0
 11
-172.8999998924616
 21
133.5250002654154
 31
0.0
  0
LINE
  5
F5
330
5F
100
AcDbEntity
  8
0
  6
Continuous
 62
     7
100
AcDbLine
 10
-172.8999998924616
 20
133.5250002654154
 30
0.0
 11
-173.8999998924596
 21
133.5250002654154
 31
0.0
  0
LINE
  5
F6
330
5F
100
AcDbEntity
  8
0
  6
Continuous
 62
     7
100
AcDbLine
 10
-169.3999998924596
 20
133.5250002654154
 30
0.0
 11
-170.399999892459
 21
133.5250002654154
 31
0.0
  0
LINE
  5
F7
330
5F
100
AcDbEntity
  8
0
  6
Continuous
 62
     7
100
AcDbLine
 10
-158.3651889434456
 20
124.4500002653936
 30
0.0
 11
-157.999999892459
 21
127.4242264083347
 31
0.0
  0
LINE
  5
F8
330
5F
100
AcDbEntity
  8
0
  6
Continuous
 62
     7
100
AcDbLine
 10
-156.9999998924596
 20
147.1250002654154
 30
0.0
 11
-156.9999998924596
 21
133.5250002654154
 31
0.0
  0
LINE
  5
F9
330
5F
100
AcDbEntity
  8
0
  6
Continuous
 62
     7
100
AcDbLine
 10
-157.999999892459
 20
127.4242264083347
 30
0.0
 11
-157.999999892459
 21
133.5250002654154
 31
0.0
  0
LINE
  5
FA
330
5F
100
AcDbEntity
  8
0
  6
Continuous
 62
     7
100
AcDbLine
 10
-160.1348108414796
 20
124.4500002654253
 30
0.0
 11
-158.3651889434456
 21
124.4500002653936
 31
0.0
  0
LINE
  5
FB
330
5F
100
AcDbEntity
  8
0
  6
Continuous
 62
     7
100
AcDbLine
 10
-166.3348108414814
 20
124.4500002654181
 30
0.0
 11
-166.6999998924644
 21
127.4242264083299
 31
0.0
  0
LINE
  5
FC
330
5F
100
AcDbEntity
  8
0
  6
Continuous
 62
     7
100
AcDbLine
 10
-166.3348108414814
 20
124.4500002654181
 30
0.0
 11
-164.5651889434495
 21
124.4500002653864
 31
0.0
  0
LINE
  5
FD
330
5F
100
AcDbEntity
  8
0
  6
Continuous
 62
     7
100
AcDbLine
 10
-172.5348108414798
 20
124.4500002654253
 30
0.0
 11
-172.8999998924616
 21
127.4242264083275
 31
0.0
  0
LINE
  5
FE
330
5F
100
AcDbEntity
  8
0
  6
Continuous
 62
     7
100
AcDbLine
 10
-170.7651889434457
 20
124.4500002653936
 30
0.0
 11
-172.5348108414798
 21
124.4500002654253
 31
0.0
  0
LINE
  5
FF
330
5F
100
AcDbEntity
  8
0
  6
Continuous
 62
     7
100
AcDbLine
 10
-163.8499998924606
 20
135.0750002654154
 30
0.0
 11
-164.1999998924619
 21
134.7250002654141
 31
0.0
  0
LINE
  5
100
330
5F
100
AcDbEntity
  8
0
  6
Continuous
 62
     7
100
AcDbLine
 10
-157.999999892459
 20
133.5250002654154
 30
0.0
 11
-160.4999998924626
 21
133.5250002654154
 31
0.0
  0
LINE
  5
101
330
5F
100
AcDbEntity
  8
0
  6
Continuous
 62
     7
100
AcDbLine
 10
-156.9999998924596
 20
133.5250002654154
 30
0.0
 11
-157.999999892459
 21
133.5250002654154
 31
0.0
  0
LINE
  5
102
330
5F
100
AcDbEntity
  8
0
  6
Continuous
 62
     7
100
AcDbLine
 10
-160.4999998924626
 20
133.5250002654154
 30
0.0
 11
-161.4999998924596
 21
133.5250002654154
 31
0.0
  0
LINE
  5
103
330
5F
100
AcDbEntity
  8
0
  6
Continuous
 62
     7
100
AcDbLine
 10
-163.8499998924606
 20
137.6250002654154
 30
0.0
 11
-167.0499998924628
 21
137.6250002654154
 31
0.0
  0
LINE
  5
104
330
5F
100
AcDbEntity
  8
0
  6
Continuous
 62
     7
100
AcDbLine
 10
-167.0499998924628
 20
137.6250002654154
 30
0.0
 11
-167.6999998924596
 21
137.6250002654154
 31
0.0
  0
LINE
  5
105
330
5F
100
AcDbEntity
  8
0
  6
Continuous
 62
     7
100
AcDbLine
 10
-167.6999998924596
 20
141.1250002654154
 30
0.0
 11
-167.6999998924596
 21
137.6250002654154
 31
0.0
  0
LINE
  5
106
330
5F
100
AcDbEntity
  8
0
  6
Continuous
 62
     7
100
AcDbLine
 10
-167.0499998924628
 20
135.0750002654154
 30
0.0
 11
-167.0499998924628
 21
137.6250002654154
 31
0.0
  0
LINE
  5
107
330
5F
100
AcDbEntity
  8
0
  6
Continuous
 62
     7
100
AcDbLine
 10
-166.6999998924644
 20
134.725000265417
 30
0.0
 11
-166.6999998924644
 21
127.4242264083299
 31
0.0
  0
LINE
  5
108
330
5F
100
AcDbEntity
  8
0
  6
Continuous
 62
     7
100
AcDbLine
 10
-164.1999998924619
 20
134.7250002654141
 30
0.0
 11
-164.1999998924619
 21
127.4242264083358
 31
0.0
  0
LINE
  5
109
330
5F
100
AcDbEntity
  8
0
  6
Continuous
 62
     7
100
AcDbLine
 10
-163.1999998924596
 20
141.1250002654154
 30
0.0
 11
-163.1999998924596
 21
137.6250002654154
 31
0.0
  0
LINE
  5
10A
330
5F
100
AcDbEntity
  8
0
  6
Continuous
 62
     7
100
AcDbLine
 10
-163.8499998924606
 20
137.6250002654154
 30
0.0
 11
-163.8499998924606
 21
135.0750002654154
 31
0.0
  0
LINE
  5
10B
330
5F
100
AcDbEntity
  8
0
  6
Continuous
 62
     7
100
AcDbLine
 10
-163.1999998924596
 20
137.6250002654154
 30
0.0
 11
-163.8499998924606
 21
137.6250002654154
 31
0.0
  0
LINE
  5
10C
330
5F
100
AcDbEntity
  8
0
  6
Continuous
 62
     7
100
AcDbLine
 10
-173.8999998924596
 20
147.1250002654154
 30
0.0
 11
-156.9999998924596
 21
147.1250002654154
 31
0.0
  0
LINE
  5
10D
330
5F
100
AcDbEntity
  8
0
  6
Continuous
 62
     7
100
AcDbLine
 10
-161.4999998924596
 20
141.1250002654154
 30
0.0
 11
-163.1999998924596
 21
141.1250002654154
 31
0.0
  0
LINE
  5
10E
330
5F
100
AcDbEntity
  8
0
  6
Continuous
 62
     7
100
AcDbLine
 10
-167.6999998924596
 20
141.1250002654154
 30
0.0
 11
-169.3999998924596
 21
141.1250002654154
 31
0.0
  0
LINE
  5
10F
330
5F
100
AcDbEntity
  8
0
  6
Continuous
 62
     7
100
AcDbLine
 10
-160.1348108414796
 20
124.4500002654253
 30
0.0
 11
-160.4999998924625
 21
127.4242264083358
 31
0.0
  0
LINE
  5
110
330
5F
100
AcDbEntity
  8
0
  6
Continuous
 62
     7
100
AcDbLine
 10
-160.4999998924625
 20
127.4242264083358
 30
0.0
 11
-160.4999998924626
 21
133.5250002654154
 31
0.0
  0
LINE
  5
111
330
5F
100
AcDbEntity
  8
0
  6
Continuous
 62
     7
100
AcDbLine
 10
-161.4999998924596
 20
133.5250002654154
 30
0.0
 11
-161.4999998924596
 21
141.1250002654154
 31
0.0
  0
ENDBLK
  5
61
330
5F
100
AcDbEntity
  8
0
100
AcDbBlockEnd
  0
BLOCK
  5
64
330
62
100
AcDbEntity
  8
0
100
AcDbBlockBegin
  2
SA_Rechts1
 70
     0
 10
-165.4500001669031
 20
135.7875002622054
 30
0.0
  3
SA_Rechts1
  1

  0
INSERT
  5
63
330
62
100
AcDbEntity
  8
0
100
AcDbBlockReference
  2
3030242_FBS_3-6_select__5
 10
-173.8999998924596
 20
124.4500002653864
 30
0.0
  0
MTEXT
  5
112
330
62
100
AcDbEntity
  8
1
 62
     6
100
AcDbMText
 10
-165.450000166903
 20
119.450000166838
 30
0.0
 40
5.0
 41
0.0
 71
     2
 72
     1
  1
 
  7
CONVERTER_11
 73
     1
 44
1.32052821128451
  0
DIMENSION
  5
11D
330
62
100
AcDbEntity
  8
1
100
AcDbDimension
  2
*D16
 10
-195.119571086171
 20
147.1250002654154
 30
0.0
 11
-198.869571086171
 21
135.804712244568
 31
0.0
 70
    32
  1
<>
 71
     5
 42
-1.0
 53
90.0
  3
ME10_DIM_10
100
AcDbAlignedDimension
 13
-172.5348108414798
 23
124.4500002654253
 33
0.0
 14
-173.8999998924596
 24
147.1250002654154
 34
0.0
 50
90.0
100
AcDbRotatedDimension
  0
DIMENSION
  5
128
330
62
100
AcDbEntity
  8
1
100
AcDbDimension
  2
*D17
 10
-183.8999998924596
 20
133.5250002654154
 30
0.0
 11
-187.8249998924596
 21
140.431152402687
 31
0.0
 70
    32
  1
<>
 71
     5
 42
-1.0
 53
90.0
  3
ME10_DIM_11
100
AcDbAlignedDimension
 13
-173.8999998924596
 23
147.1250002654154
 33
0.0
 14
-172.8999998924616
 24
133.5250002654154
 34
0.0
 50
90.0
100
AcDbRotatedDimension
  0
DIMENSION
  5
133
330
62
100
AcDbEntity
  8
1
100
AcDbDimension
  2
*D18
 10
-156.9999998924596
 20
157.1250002654154
 30
0.0
 11
-165.847773620365
 21
161.0500002654154
 31
0.0
 70
    32
  1
<>
 71
     5
 42
-1.0
 53
0.00013888888889
  3
ME10_DIM_12
100
AcDbAlignedDimension
 13
-173.8999998924596
 23
147.1250002654154
 33
0.0
 14
-156.9999998924596
 24
147.1250002654154
 34
0.0
100
AcDbRotatedDimension
  0
ENDBLK
  5
65
330
62
100
AcDbEntity
  8
0
100
AcDbBlockEnd
  0
BLOCK
  5
67
330
66
100
AcDbEntity
  8
0
100
AcDbBlockBegin
  2
3030242_FBS_3-6_select__6
 70
     0
 10
-130.5
 20
124.4500002654253
 30
0.0
  3
3030242_FBS_3-6_select__6
  1

  0
LINE
  5
134
330
66
100
AcDbEntity
  8
0
  6
Continuous
 62
     7
100
AcDbLine
 10
-129.7999999999902
 20
133.5250002654154
 30
0.0
 11
-129.7999999999902
 21
127.4242264083358
 31
0.0
  0
LINE
  5
135
330
66
100
AcDbEntity
  8
0
  6
Continuous
 62
     7
100
AcDbLine
 10
-128.1999999999902
 20
124.4500002654253
 30
0.0
 11
-128.1999999999902
 21
127.4242264083358
 31
0.0
  0
LINE
  5
136
330
66
100
AcDbEntity
  8
0
  6
Continuous
 62
     7
100
AcDbLine
 10
-129.7999999999902
 20
124.4500002654253
 30
0.0
 11
-129.7999999999902
 21
127.4242264083358
 31
0.0
  0
LINE
  5
137
330
66
100
AcDbEntity
  8
0
  6
Continuous
 62
     7
100
AcDbLine
 10
-128.1999999999902
 20
133.5250002654154
 30
0.0
 11
-128.1999999999902
 21
127.4242264083358
 31
0.0
  0
LINE
  5
138
330
66
100
AcDbEntity
  8
0
  6
Continuous
 62
     7
100
AcDbLine
 10
-129.7999999999902
 20
127.4242264083358
 30
0.0
 11
-128.1999999999902
 21
127.4242264083358
 31
0.0
  0
LINE
  5
139
330
66
100
AcDbEntity
  8
0
  6
Continuous
 62
     7
100
AcDbLine
 10
-127.5
 20
133.5250002654154
 30
0.0
 11
-127.5
 21
147.1250002654154
 31
0.0
  0
LINE
  5
13A
330
66
100
AcDbEntity
  8
0
  6
Continuous
 62
     7
100
AcDbLine
 10
-130.5
 20
147.1250002654154
 30
0.0
 11
-127.5
 21
147.1250002654154
 31
0.0
  0
LINE
  5
13B
330
66
100
AcDbEntity
  8
0
  6
Continuous
 62
     7
100
AcDbLine
 10
-130.5
 20
147.1250002654154
 30
0.0
 11
-130.5
 21
133.5250002654154
 31
0.0
  0
LINE
  5
13C
330
66
100
AcDbEntity
  8
0
  6
Continuous
 62
     7
100
AcDbLine
 10
-129.7999999999902
 20
124.4500002654253
 30
0.0
 11
-128.1999999999902
 21
124.4500002654253
 31
0.0
  0
LINE
  5
13D
330
66
100
AcDbEntity
  8
0
  6
Continuous
 62
     7
100
AcDbLine
 10
-128.1999999999902
 20
133.5250002654154
 30
0.0
 11
-129.7999999999902
 21
133.5250002654154
 31
0.0
  0
LINE
  5
13E
330
66
100
AcDbEntity
  8
0
  6
Continuous
 62
     7
100
AcDbLine
 10
-129.7999999999902
 20
133.5250002654154
 30
0.0
 11
-130.5
 21
133.5250002654154
 31
0.0
  0
LINE
  5
13F
330
66
100
AcDbEntity
  8
0
  6
Continuous
 62
     7
100
AcDbLine
 10
-127.5
 20
133.5250002654154
 30
0.0
 11
-128.1999999999902
 21
133.5250002654154
 31
0.0
  0
ENDBLK
  5
68
330
66
100
AcDbEntity
  8
0
100
AcDbBlockEnd
  0
BLOCK
  5
6B
330
69
100
AcDbEntity
  8
0
100
AcDbBlockBegin
  2
Vordans1
 70
     0
 10
-129.0
 20
135.7875002622054
 30
0.0
  3
Vordans1
  1

  0
INSERT
  5
6A
330
69
100
AcDbEntity
  8
0
100
AcDbBlockReference
  2
3030242_FBS_3-6_select__6
 10
-130.5
 20
124.4500002654253
 30
0.0
  0
MTEXT
  5
140
330
69
100
AcDbEntity
  8
1
 62
     6
100
AcDbMText
 10
-129.0
 20
119.450000166838
 30
0.0
 40
5.0
 41
0.0
 71
     2
 72
     1
  1
 
  7
CONVERTER_11
 73
     1
 44
1.32052821128451
  0
DIMENSION
  5
14D
330
69
100
AcDbEntity
  8
1
100
AcDbDimension
  2
*D19
 10
-129.7999999999902
 20
114.311575052466
 30
0.0
 11
-119.969478763967
 21
118.236575052466
 31
0.0
 70
    32
  1
<>
 71
     5
 42
-1.0
 53
0.00013888888889
  3
ME10_DIM_13
100
AcDbAlignedDimension
 13
-128.1999999999902
 23
124.4500002654253
 33
0.0
 14
-129.7999999999902
 24
124.4500002654253
 34
0.0
100
AcDbRotatedDimension
  0
DIMENSION
  5
15A
330
69
100
AcDbEntity
  8
1
100
AcDbDimension
  2
*D20
 10
-130.5
 20
157.1250002654154
 30
0.0
 11
-117.1961312855236
 21
160.8750002654154
 31
0.0
 70
    32
  1
<>
 71
     5
 42
-1.0
 53
0.00013888888889
  3
ME10_DIM_14
100
AcDbAlignedDimension
 13
-127.5
 23
147.1250002654154
 33
0.0
 14
-130.5
 24
147.1250002654154
 34
0.0
100
AcDbRotatedDimension
  0
ENDBLK
  5
6C
330
69
100
AcDbEntity
  8
0
100
AcDbBlockEnd
  0
BLOCK
  5
6E
330
6D
100
AcDbEntity
  8
0
100
AcDbBlockBegin
  2
_rahmen
 70
     0
 10
30.33141827662504
 20
-2.14447474144302
 30
0.0
  3
_rahmen
  1

  0
POINT
  5
15B
330
6D
100
AcDbEntity
  8
1
 62
     3
 60
     1
100
AcDbPoint
 10
-33.16858172337258
 20
24.10552525855696
 30
0.0
  0
LINE
  5
15C
330
6D
100
AcDbEntity
  8
1
  6
Continuous
 62
     7
100
AcDbLine
 10
-33.16858172337258
 20
19.85552525855698
 30
0.0
 11
-33.16858172337258
 21
24.10552525855696
 31
0.0
  0
LINE
  5
15D
330
6D
100
AcDbEntity
  8
1
  6
Continuous
 62
     6
100
AcDbLine
 10
-113.168581723375
 20
2.85552525855709
 30
0.0
 11
-112.713386250125
 21
2.85552525855698
 31
0.0
  0
LINE
  5
15E
330
6D
100
AcDbEntity
  8
1
  6
Continuous
 62
     6
100
AcDbLine
 10
-163.1685817233751
 20
2.85552525855709
 30
0.0
 11
-201.9685817233751
 21
2.85552525855709
 31
0.0
  0
LINE
  5
15F
330
6D
100
AcDbEntity
  8
1
  6
Continuous
 62
     6
100
AcDbLine
 10
-213.168581723375
 20
2.85552525855709
 30
0.0
 11
-201.9685817233751
 21
2.85552525855709
 31
0.0
  0
LINE
  5
160
330
6D
100
AcDbEntity
  8
1
  6
Continuous
 62
     6
100
AcDbLine
 10
-13.16858172337495
 20
2.85552525855709
 30
0.0
 11
30.33141827662504
 21
2.85552525855709
 31
0.0
  0
LINE
  5
161
330
6D
100
AcDbEntity
  8
1
  6
Continuous
 62
     6
100
AcDbLine
 10
-63.16858172337496
 20
2.85552525855709
 30
0.0
 11
-81.013386250125
 21
2.85552525855709
 31
0.0
  0
LINE
  5
162
330
6D
100
AcDbEntity
  8
1
  6
PHANTOM
 62
     2
100
AcDbLine
 10
-91.0941230353246
 20
17.73052525855698
 30
0.0
 11
-86.77852806613559
 21
17.73052525855698
 31
0.0
  0
LINE
  5
163
330
6D
100
AcDbEntity
  8
1
  6
PHANTOM
 62
     2
100
AcDbLine
 10
-94.1211264250216
 20
19.38052525855701
 30
0.0
 11
-94.1211264250216
 21
16.080525258557
 31
0.0
  0
LINE
  5
164
330
6D
100
AcDbEntity
  8
1
  6
PHANTOM
 62
     2
100
AcDbLine
 10
-92.4711264250216
 20
17.73052525855698
 30
0.0
 11
-95.77112642502159
 21
17.73052525855698
 31
0.0
  0
LINE
  5
165
330
6D
100
AcDbEntity
  8
1
  6
Continuous
 62
     2
100
AcDbLine
 10
30.33141827662504
 20
2.85552525855709
 30
0.0
 11
35.33141827662405
 21
2.85552525855709
 31
0.0
  0
LINE
  5
166
330
6D
100
AcDbEntity
  8
1
  6
Continuous
 62
     2
100
AcDbLine
 10
30.33141827662504
 20
2.85552525855709
 30
0.0
 11
30.33141827662504
 21
-2.14447474144302
 31
0.0
  0
LINE
  5
167
330
6D
100
AcDbEntity
  8
1
  6
Continuous
 62
     7
100
AcDbLine
 10
-62.81338625012497
 20
15.60552525855698
 30
0.0
 11
-62.81338625012497
 21
19.85552525855698
 31
0.0
  0
LINE
  5
168
330
6D
100
AcDbEntity
  8
1
  6
Continuous
 62
     7
100
AcDbLine
 10
-99.21338625012487
 20
15.60552525855698
 30
0.0
 11
-62.81338625012497
 21
15.60552525855698
 31
0.0
  0
LINE
  5
169
330
6D
100
AcDbEntity
  8
1
  6
Continuous
 62
     2
100
AcDbLine
 10
35.33141827662405
 20
-2.14447474144302
 30
0.0
 11
35.33141827662405
 21
2.85552525855709
 31
0.0
  0
LINE
  5
16A
330
6D
100
AcDbEntity
  8
1
  6
Continuous
 62
     2
100
AcDbLine
 10
35.33141827662405
 20
-2.14447474144302
 30
0.0
 11
30.33141827662504
 21
-2.14447474144302
 31
0.0
  0
LINE
  5
16B
330
6D
100
AcDbEntity
  8
1
  6
Continuous
 62
     2
100
AcDbLine
 10
30.33141827662504
 20
-2.14447474144302
 30
0.0
 11
-13.16858172337495
 21
-2.14447474144302
 31
0.0
  0
LINE
  5
16C
330
6D
100
AcDbEntity
  8
1
  6
Continuous
 62
     6
100
AcDbLine
 10
30.33141827662675
 20
32.60552525855698
 30
0.0
 11
30.33141827662595
 21
52.85552525855709
 31
0.0
  0
LINE
  5
16D
330
6D
100
AcDbEntity
  8
1
  6
Continuous
 62
     2
100
AcDbLine
 10
35.33141827662405
 20
207.855525258557
 30
0.0
 11
-113.168581723375
 21
207.855525258557
 31
0.0
  0
LINE
  5
16E
330
6D
100
AcDbEntity
  8
1
  6
Continuous
 62
     6
100
AcDbLine
 10
30.33141827662405
 20
187.855525258557
 30
0.0
 11
-256.668581723374
 21
187.855525258557
 31
0.0
  0
LINE
  5
16F
330
6D
100
AcDbEntity
  8
1
  6
Continuous
 62
     2
100
AcDbLine
 10
30.33141827662595
 20
52.85552525855709
 30
0.0
 11
35.33141827662405
 21
52.85552525855709
 31
0.0
  0
LINE
  5
170
330
6D
100
AcDbEntity
  8
1
  6
Continuous
 62
     6
100
AcDbLine
 10
30.33141827662595
 20
52.85552525855709
 30
0.0
 11
30.33141827662544
 21
102.8555252585569
 31
0.0
  0
LINE
  5
171
330
6D
100
AcDbEntity
  8
1
  6
Continuous
 62
     2
100
AcDbLine
 10
35.33141827662405
 20
52.85552525855709
 30
0.0
 11
35.33141827662405
 21
102.8555252585569
 31
0.0
  0
LINE
  5
172
330
6D
100
AcDbEntity
  8
1
  6
Continuous
 62
     2
100
AcDbLine
 10
30.33141827662544
 20
102.8555252585569
 30
0.0
 11
35.33141827662405
 21
102.8555252585569
 31
0.0
  0
LINE
  5
173
330
6D
100
AcDbEntity
  8
1
  6
Continuous
 62
     6
100
AcDbLine
 10
30.33141827662544
 20
102.8555252585569
 30
0.0
 11
30.33141827662433
 21
152.855525258557
 31
0.0
  0
LINE
  5
174
330
6D
100
AcDbEntity
  8
1
  6
Continuous
 62
     2
100
AcDbLine
 10
35.33141827662405
 20
102.8555252585569
 30
0.0
 11
35.33141827662405
 21
152.855525258557
 31
0.0
  0
LINE
  5
175
330
6D
100
AcDbEntity
  8
1
  6
Continuous
 62
     2
100
AcDbLine
 10
30.33141827662433
 20
152.855525258557
 30
0.0
 11
35.33141827662405
 21
152.855525258557
 31
0.0
  0
LINE
  5
176
330
6D
100
AcDbEntity
  8
1
  6
Continuous
 62
     6
100
AcDbLine
 10
30.33141827662433
 20
152.855525258557
 30
0.0
 11
30.33141827662405
 21
187.855525258557
 31
0.0
  0
LINE
  5
177
330
6D
100
AcDbEntity
  8
1
  6
Continuous
 62
     2
100
AcDbLine
 10
35.33141827662405
 20
152.855525258557
 30
0.0
 11
35.33141827662405
 21
207.855525258557
 31
0.0
  0
LINE
  5
178
330
6D
100
AcDbEntity
  8
1
  6
Continuous
 62
     2
100
AcDbLine
 10
35.33141827662405
 20
2.85552525855709
 30
0.0
 11
35.33141827662405
 21
52.85552525855709
 31
0.0
  0
LINE
  5
179
330
6D
100
AcDbEntity
  8
1
  6
Continuous
 62
     2
100
AcDbLine
 10
-113.168581723375
 20
207.855525258557
 30
0.0
 11
-261.668581723374
 21
207.855525258557
 31
0.0
  0
LINE
  5
17A
330
6D
100
AcDbEntity
  8
1
  6
Continuous
 62
     2
100
AcDbLine
 10
-113.168581723375
 20
207.855525258557
 30
0.0
 11
-113.168581723375
 21
198.6468334138557
 31
0.0
  0
LINE
  5
17B
330
6D
100
AcDbEntity
  8
1
  6
Continuous
 62
     2
100
AcDbLine
 10
-261.668581723374
 20
-2.14447474144302
 30
0.0
 11
-256.668581723373
 21
-2.14447474144302
 31
0.0
  0
LINE
  5
17C
330
6D
100
AcDbEntity
  8
1
  6
Continuous
 62
     2
100
AcDbLine
 10
-261.668581723374
 20
207.855525258557
 30
0.0
 11
-261.668581723374
 21
152.855525258557
 31
0.0
  0
LINE
  5
17D
330
6D
100
AcDbEntity
  8
1
  6
Continuous
 62
     6
100
AcDbLine
 10
-256.668581723374
 20
187.855525258557
 30
0.0
 11
-256.6685817233739
 21
152.855525258557
 31
0.0
  0
LINE
  5
17E
330
6D
100
AcDbEntity
  8
1
  6
Continuous
 62
     2
100
AcDbLine
 10
-261.668581723374
 20
152.855525258557
 30
0.0
 11
-256.6685817233739
 21
152.855525258557
 31
0.0
  0
LINE
  5
17F
330
6D
100
AcDbEntity
  8
1
  6
Continuous
 62
     2
100
AcDbLine
 10
-261.668581723374
 20
152.855525258557
 30
0.0
 11
-261.668581723374
 21
102.8555252585569
 31
0.0
  0
LINE
  5
180
330
6D
100
AcDbEntity
  8
1
  6
Continuous
 62
     6
100
AcDbLine
 10
-256.6685817233739
 20
152.855525258557
 30
0.0
 11
-256.6685817233735
 21
102.8555252585569
 31
0.0
  0
LINE
  5
181
330
6D
100
AcDbEntity
  8
1
  6
Continuous
 62
     2
100
AcDbLine
 10
-261.668581723374
 20
102.8555252585569
 30
0.0
 11
-256.6685817233735
 21
102.8555252585569
 31
0.0
  0
LINE
  5
182
330
6D
100
AcDbEntity
  8
1
  6
Continuous
 62
     2
100
AcDbLine
 10
-261.668581723374
 20
102.8555252585569
 30
0.0
 11
-261.668581723374
 21
52.85552525855709
 31
0.0
  0
LINE
  5
183
330
6D
100
AcDbEntity
  8
1
  6
Continuous
 62
     6
100
AcDbLine
 10
-256.6685817233735
 20
102.8555252585569
 30
0.0
 11
-256.6685817233732
 21
52.85552525855709
 31
0.0
  0
LINE
  5
184
330
6D
100
AcDbEntity
  8
1
  6
Continuous
 62
     2
100
AcDbLine
 10
-261.668581723374
 20
52.85552525855709
 30
0.0
 11
-256.6685817233732
 21
52.85552525855709
 31
0.0
  0
LINE
  5
185
330
6D
100
AcDbEntity
  8
1
  6
Continuous
 62
     2
100
AcDbLine
 10
-261.668581723374
 20
52.85552525855709
 30
0.0
 11
-261.668581723374
 21
2.85552525855709
 31
0.0
  0
LINE
  5
186
330
6D
100
AcDbEntity
  8
1
  6
Continuous
 62
     6
100
AcDbLine
 10
-256.6685817233732
 20
52.85552525855709
 30
0.0
 11
-256.668581723373
 21
2.85552525855709
 31
0.0
  0
LINE
  5
187
330
6D
100
AcDbEntity
  8
1
  6
Continuous
 62
     2
100
AcDbLine
 10
-213.168581723375
 20
-2.14447474144302
 30
0.0
 11
-213.168581723375
 21
2.85552525855709
 31
0.0
  0
LINE
  5
188
330
6D
100
AcDbEntity
  8
1
  6
Continuous
 62
     2
100
AcDbLine
 10
-213.168581723375
 20
-2.14447474144302
 30
0.0
 11
-163.1685817233751
 21
-2.14447474144302
 31
0.0
  0
LINE
  5
189
330
6D
100
AcDbEntity
  8
1
  6
Continuous
 62
     2
100
AcDbLine
 10
-163.1685817233751
 20
-2.14447474144302
 30
0.0
 11
-163.1685817233751
 21
2.85552525855709
 31
0.0
  0
LINE
  5
18A
330
6D
100
AcDbEntity
  8
1
  6
Continuous
 62
     2
100
AcDbLine
 10
-163.1685817233751
 20
-2.14447474144302
 30
0.0
 11
-113.168581723375
 21
-2.14447474144302
 31
0.0
  0
LINE
  5
18B
330
6D
100
AcDbEntity
  8
1
  6
Continuous
 62
     2
100
AcDbLine
 10
-113.168581723375
 20
-2.14447474144302
 30
0.0
 11
-113.168581723375
 21
2.85552525855709
 31
0.0
  0
LINE
  5
18C
330
6D
100
AcDbEntity
  8
1
  6
Continuous
 62
     2
100
AcDbLine
 10
-113.168581723375
 20
-2.14447474144302
 30
0.0
 11
-63.16858172337496
 21
-2.14447474144302
 31
0.0
  0
LINE
  5
18D
330
6D
100
AcDbEntity
  8
1
  6
Continuous
 62
     2
100
AcDbLine
 10
-63.16858172337496
 20
-2.14447474144302
 30
0.0
 11
-63.16858172337496
 21
2.85552525855709
 31
0.0
  0
LINE
  5
18E
330
6D
100
AcDbEntity
  8
1
  6
Continuous
 62
     2
100
AcDbLine
 10
-13.16858172337495
 20
-2.14447474144302
 30
0.0
 11
-13.16858172337495
 21
2.85552525855709
 31
0.0
  0
LINE
  5
18F
330
6D
100
AcDbEntity
  8
1
  6
Continuous
 62
     2
100
AcDbLine
 10
-13.16858172337495
 20
-2.14447474144302
 30
0.0
 11
-63.16858172337496
 21
-2.14447474144302
 31
0.0
  0
LINE
  5
190
330
6D
100
AcDbEntity
  8
1
  6
Continuous
 62
     2
100
AcDbLine
 10
-256.668581723373
 20
2.85552525855709
 30
0.0
 11
-256.668581723373
 21
-2.14447474144302
 31
0.0
  0
LINE
  5
191
330
6D
100
AcDbEntity
  8
1
  6
Continuous
 62
     2
100
AcDbLine
 10
-256.668581723373
 20
-2.14447474144302
 30
0.0
 11
-213.168581723375
 21
-2.14447474144302
 31
0.0
  0
LINE
  5
192
330
6D
100
AcDbEntity
  8
1
  6
Continuous
 62
     2
100
AcDbLine
 10
-256.668581723373
 20
2.85552525855709
 30
0.0
 11
-261.668581723374
 21
2.85552525855709
 31
0.0
  0
LINE
  5
193
330
6D
100
AcDbEntity
  8
1
  6
Continuous
 62
     2
100
AcDbLine
 10
-261.668581723374
 20
2.85552525855709
 30
0.0
 11
-261.668581723374
 21
-2.14447474144302
 31
0.0
  0
LINE
  5
194
330
6D
100
AcDbEntity
  8
1
  6
Continuous
 62
     7
100
AcDbLine
 10
-201.9685817233751
 20
7.10552525855709
 30
0.0
 11
-139.7133862501249
 21
7.10552525855709
 31
0.0
  0
LINE
  5
195
330
6D
100
AcDbEntity
  8
1
  6
Continuous
 62
     2
100
AcDbLine
 10
-201.9685817233751
 20
7.10552525855709
 30
0.0
 11
-201.9685817233751
 21
2.85552525855709
 31
0.0
  0
LINE
  5
196
330
6D
100
AcDbEntity
  8
1
  6
Continuous
 62
     2
100
AcDbLine
 10
-201.9685817233751
 20
11.35552525855698
 30
0.0
 11
-215.4685817233751
 21
11.35552525855698
 31
0.0
  0
LINE
  5
197
330
6D
100
AcDbEntity
  8
1
  6
Continuous
 62
     2
100
AcDbLine
 10
-201.9685817233751
 20
11.35552525855698
 30
0.0
 11
-201.9685817233751
 21
7.10552525855709
 31
0.0
  0
LINE
  5
198
330
6D
100
AcDbEntity
  8
1
  6
Continuous
 62
     2
100
AcDbLine
 10
-201.9685817233751
 20
19.85552525855698
 30
0.0
 11
-215.4685817233751
 21
19.85552525855698
 31
0.0
  0
LINE
  5
199
330
6D
100
AcDbEntity
  8
1
  6
Continuous
 62
     2
100
AcDbLine
 10
-201.9685817233751
 20
19.85552525855698
 30
0.0
 11
-201.9685817233751
 21
15.60552525855698
 31
0.0
  0
LINE
  5
19A
330
6D
100
AcDbEntity
  8
1
  6
Continuous
 62
     2
100
AcDbLine
 10
-201.9685817233751
 20
15.60552525855698
 30
0.0
 11
-215.4685817233751
 21
15.60552525855698
 31
0.0
  0
LINE
  5
19B
330
6D
100
AcDbEntity
  8
1
  6
Continuous
 62
     2
100
AcDbLine
 10
-201.9685817233751
 20
15.60552525855698
 30
0.0
 11
-201.9685817233751
 21
11.35552525855698
 31
0.0
  0
LINE
  5
19C
330
6D
100
AcDbEntity
  8
1
  6
Continuous
 62
     2
100
AcDbLine
 10
-201.9685817233751
 20
28.35552525855698
 30
0.0
 11
-215.4685817233751
 21
28.35552525855698
 31
0.0
  0
LINE
  5
19D
330
6D
100
AcDbEntity
  8
1
  6
Continuous
 62
     2
100
AcDbLine
 10
-201.9685817233751
 20
24.10552525855698
 30
0.0
 11
-215.4685817233751
 21
24.10552525855698
 31
0.0
  0
LINE
  5
19E
330
6D
100
AcDbEntity
  8
1
  6
Continuous
 62
     2
100
AcDbLine
 10
-201.9685817233751
 20
24.10552525855698
 30
0.0
 11
-201.9685817233751
 21
19.85552525855698
 31
0.0
  0
LINE
  5
19F
330
6D
100
AcDbEntity
  8
1
  6
Continuous
 62
     2
100
AcDbLine
 10
-201.9685817233751
 20
28.35552525855698
 30
0.0
 11
-201.9685817233751
 21
24.10552525855698
 31
0.0
  0
LINE
  5
1A0
330
6D
100
AcDbEntity
  8
1
  6
Continuous
 62
     6
100
AcDbLine
 10
-201.9685817233751
 20
32.60552525855698
 30
0.0
 11
-215.4685817233751
 21
32.60552525855698
 31
0.0
  0
LINE
  5
1A1
330
6D
100
AcDbEntity
  8
1
  6
Continuous
 62
     2
100
AcDbLine
 10
-201.9685817233751
 20
32.60552525855698
 30
0.0
 11
-201.9685817233751
 21
28.35552525855698
 31
0.0
  0
LINE
  5
1A2
330
6D
100
AcDbEntity
  8
1
  6
Continuous
 62
     6
100
AcDbLine
 10
30.33141827662504
 20
2.85552525855709
 30
0.0
 11
30.33141827662635
 21
11.35552525855698
 31
0.0
  0
LINE
  5
1A3
330
6D
100
AcDbEntity
  8
1
  6
Continuous
 62
     6
100
AcDbLine
 10
30.33141827662584
 20
24.10552525855698
 30
0.0
 11
30.33141827662684
 21
19.85552525855698
 31
0.0
  0
LINE
  5
1A4
330
6D
100
AcDbEntity
  8
1
  6
Continuous
 62
     6
100
AcDbLine
 10
-62.81338625012497
 20
2.85552525855698
 30
0.0
 11
-13.16858172337495
 21
2.85552525855709
 31
0.0
  0
LINE
  5
1A5
330
6D
100
AcDbEntity
  8
1
  6
Continuous
 62
     6
100
AcDbLine
 10
-99.21338625012487
 20
2.85552525855698
 30
0.0
 11
-81.013386250125
 21
2.85552525855709
 31
0.0
  0
LINE
  5
1A6
330
6D
100
AcDbEntity
  8
1
  6
Continuous
 62
     6
100
AcDbLine
 10
-215.4685817233751
 20
2.85552525855698
 30
0.0
 11
-213.168581723375
 21
2.85552525855709
 31
0.0
  0
LINE
  5
1A7
330
6D
100
AcDbEntity
  8
1
  6
Continuous
 62
     6
100
AcDbLine
 10
-139.7133862501249
 20
2.85552525855698
 30
0.0
 11
-163.1685817233751
 21
2.85552525855709
 31
0.0
  0
LINE
  5
1A8
330
6D
100
AcDbEntity
  8
1
  6
Continuous
 62
     6
100
AcDbLine
 10
30.33141827662675
 20
32.60552525855698
 30
0.0
 11
12.44982655830594
 21
32.60552525855698
 31
0.0
  0
LINE
  5
1A9
330
6D
100
AcDbEntity
  8
1
  6
Continuous
 62
     7
100
AcDbLine
 10
30.33141827662635
 20
11.35552525855698
 30
0.0
 11
-14.66858172337296
 21
11.35552525855698
 31
0.0
  0
LINE
  5
1AA
330
6D
100
AcDbEntity
  8
1
  6
Continuous
 62
     7
100
AcDbLine
 10
30.33141827662584
 20
24.10552525855698
 30
0.0
 11
12.44982655830594
 21
24.10552525855698
 31
0.0
  0
LINE
  5
1AB
330
6D
100
AcDbEntity
  8
1
  6
Continuous
 62
     7
100
AcDbLine
 10
-14.66858172337296
 20
19.85552525855698
 30
0.0
 11
30.33141827662684
 21
19.85552525855698
 31
0.0
  0
LINE
  5
1AC
330
6D
100
AcDbEntity
  8
1
  6
Continuous
 62
     2
100
AcDbLine
 10
-71.29637944740489
 20
10.47423274155571
 30
0.0
 11
-72.08316225588871
 21
10.47423274155571
 31
0.0
  0
LINE
  5
1AD
330
6D
100
AcDbEntity
  8
1
  6
Continuous
 62
     2
100
AcDbLine
 10
-71.29637944740489
 20
10.47423274155571
 30
0.0
 11
-71.29637944740489
 21
8.70552525856292
 31
0.0
  0
LINE
  5
1AE
330
6D
100
AcDbEntity
  8
1
  6
Continuous
 62
     2
100
AcDbLine
 10
-71.29637944740489
 20
8.70552525856292
 30
0.0
 11
-70.4460393113508
 21
8.70552525856292
 31
0.0
  0
LINE
  5
1AF
330
6D
100
AcDbEntity
  8
1
  6
Continuous
 62
     2
100
AcDbLine
 10
-70.4460393113508
 20
8.70552525856292
 30
0.0
 11
-70.4460393113508
 21
10.47423274155571
 31
0.0
  0
LINE
  5
1B0
330
6D
100
AcDbEntity
  8
1
  6
Continuous
 62
     2
100
AcDbLine
 10
-70.4460393113508
 20
10.47423274155571
 30
0.0
 11
-69.86780801883378
 21
10.47423274155571
 31
0.0
  0
LINE
  5
1B1
330
6D
100
AcDbEntity
  8
1
  6
Continuous
 62
     2
100
AcDbLine
 10
-69.86780801883378
 20
10.47423274155571
 30
0.0
 11
-69.86780801883378
 21
11.08647763951703
 31
0.0
  0
LINE
  5
1B2
330
6D
100
AcDbEntity
  8
1
  6
Continuous
 62
     2
100
AcDbLine
 10
-69.86780801883378
 20
11.08647763951703
 30
0.0
 11
-72.21476167376659
 21
11.08647763951703
 31
0.0
  0
LINE
  5
1B3
330
6D
100
AcDbEntity
  8
1
  6
Continuous
 62
     2
100
AcDbLine
 10
-72.2511954974598
 20
11.08644655602129
 30
0.0
 11
-72.21476167376659
 21
11.08647763951703
 31
0.0
  0
LINE
  5
1B4
330
6D
100
AcDbEntity
  8
1
  6
Continuous
 62
     2
100
AcDbLine
 10
-71.63447468549961
 20
9.46134967388619
 30
0.0
 11
-71.63447468549961
 21
8.81527616649018
 31
0.0
  0
LINE
  5
1B5
102
{ACAD_REACTORS
330
32C
330
32C
102
}
330
6D
100
AcDbEntity
  8
1
  6
Continuous
 62
     2
100
AcDbLine
 10
-71.36440665828809
 20
13.47548992285968
 30
0.0
 11
-70.93583522971741
 21
14.0055252585511
 31
0.0
  0
LINE
  5
1B6
102
{ACAD_REACTORS
330
32C
330
32C
102
}
330
6D
100
AcDbEntity
  8
1
  6
Continuous
 62
     2
100
AcDbLine
 10
-71.79297808686039
 20
14.0055252585511
 30
0.0
 11
-71.36440665828809
 21
13.47548992285968
 31
0.0
  0
LINE
  5
1B7
102
{ACAD_REACTORS
330
32C
330
32C
102
}
330
6D
100
AcDbEntity
  8
1
  6
Continuous
 62
     2
100
AcDbLine
 10
-71.79297808686039
 20
14.0055252585511
 30
0.0
 11
-72.79297808686039
 21
14.0055252585511
 31
0.0
  0
LINE
  5
1B8
102
{ACAD_REACTORS
330
32C
330
32C
102
}
330
6D
100
AcDbEntity
  8
1
  6
Continuous
 62
     2
100
AcDbLine
 10
-72.79297808686039
 20
14.0055252585511
 30
0.0
 11
-71.86440665828889
 21
12.85711536455662
 31
0.0
  0
LINE
  5
1B9
102
{ACAD_REACTORS
330
32C
330
32C
102
}
330
6D
100
AcDbEntity
  8
1
  6
Continuous
 62
     2
100
AcDbLine
 10
-72.86100529774481
 20
11.6245728775971
 30
0.0
 11
-71.86440665828889
 21
12.85711536455662
 31
0.0
  0
LINE
  5
1BA
102
{ACAD_REACTORS
330
32C
330
32C
102
}
330
6D
100
AcDbEntity
  8
1
  6
Continuous
 62
     2
100
AcDbLine
 10
-71.86100529774481
 20
11.6245728775971
 30
0.0
 11
-72.86100529774481
 21
11.6245728775971
 31
0.0
  0
LINE
  5
1BB
102
{ACAD_REACTORS
330
32C
330
32C
102
}
330
6D
100
AcDbEntity
  8
1
  6
Continuous
 62
     2
100
AcDbLine
 10
-71.86100529774481
 20
11.6245728775971
 30
0.0
 11
-71.36440665828809
 21
12.23874080625373
 31
0.0
  0
LINE
  5
1BC
102
{ACAD_REACTORS
330
32C
330
32C
102
}
330
6D
100
AcDbEntity
  8
1
  6
Continuous
 62
     2
100
AcDbLine
 10
-71.36440665828809
 20
12.23874080625373
 30
0.0
 11
-70.86780801883339
 21
11.6245728775971
 31
0.0
  0
LINE
  5
1BD
102
{ACAD_REACTORS
330
32C
330
32C
102
}
330
6D
100
AcDbEntity
  8
1
  6
Continuous
 62
     2
100
AcDbLine
 10
-70.86780801883339
 20
11.6245728775971
 30
0.0
 11
-69.86780801883339
 21
11.6245728775971
 31
0.0
  0
LINE
  5
1BE
102
{ACAD_REACTORS
330
32C
330
32C
102
}
330
6D
100
AcDbEntity
  8
1
  6
Continuous
 62
     2
100
AcDbLine
 10
-70.86440665828889
 20
12.85711536455662
 30
0.0
 11
-69.86780801883339
 21
11.6245728775971
 31
0.0
  0
LINE
  5
1BF
102
{ACAD_REACTORS
330
32C
330
32C
102
}
330
6D
100
AcDbEntity
  8
1
  6
Continuous
 62
     2
100
AcDbLine
 10
-70.86440665828889
 20
12.85711536455662
 30
0.0
 11
-69.93583522971741
 21
14.0055252585511
 31
0.0
  0
LINE
  5
1C0
102
{ACAD_REACTORS
330
32C
330
32C
102
}
330
6D
100
AcDbEntity
  8
1
  6
Continuous
 62
     2
100
AcDbLine
 10
-70.93583522971741
 20
14.0055252585511
 30
0.0
 11
-69.93583522971741
 21
14.0055252585511
 31
0.0
  0
LINE
  5
1C1
102
{ACAD_REACTORS
330
330
330
330
102
}
330
6D
100
AcDbEntity
  8
1
  6
Continuous
 62
     2
100
AcDbLine
 10
-74.13039305284678
 20
14.0055252585511
 30
0.0
 11
-73.24603931134939
 21
14.0055252585511
 31
0.0
  0
LINE
  5
1C2
102
{ACAD_REACTORS
330
330
330
330
102
}
330
6D
100
AcDbEntity
  8
1
  6
Continuous
 62
     2
100
AcDbLine
 10
-73.24603931134939
 20
11.6245728775971
 30
0.0
 11
-74.13039305284678
 21
11.6245728775971
 31
0.0
  0
LINE
  5
1C3
102
{ACAD_REACTORS
330
330
330
330
102
}
330
6D
100
AcDbEntity
  8
1
  6
Continuous
 62
     2
100
AcDbLine
 10
-73.24603931134939
 20
14.0055252585511
 30
0.0
 11
-73.24603931134939
 21
11.6245728775971
 31
0.0
  0
LINE
  5
1C4
330
6D
100
AcDbEntity
  8
1
  6
Continuous
 62
     7
100
AcDbLine
 10
-62.81338625012497
 20
28.35552525855698
 30
0.0
 11
-62.81338625012497
 21
24.10552525855698
 31
0.0
  0
LINE
  5
1C5
330
6D
100
AcDbEntity
  8
1
  6
Continuous
 62
     7
100
AcDbLine
 10
-76.31338625012498
 20
28.35552525855698
 30
0.0
 11
-62.81338625012497
 21
28.35552525855698
 31
0.0
  0
LINE
  5
1C6
330
6D
100
AcDbEntity
  8
1
  6
Continuous
 62
     7
100
AcDbLine
 10
-76.31338625012498
 20
28.35552525855698
 30
0.0
 11
-89.81338625012489
 21
28.35552525855698
 31
0.0
  0
LINE
  5
1C7
330
6D
100
AcDbEntity
  8
1
  6
Continuous
 62
     7
100
AcDbLine
 10
12.44982655830594
 20
24.10552525855698
 30
0.0
 11
12.44982655830594
 21
32.60552525855698
 31
0.0
  0
LINE
  5
1C8
330
6D
100
AcDbEntity
  8
1
  6
Continuous
 62
     6
100
AcDbLine
 10
3.53141827662674
 20
32.60552525855698
 30
0.0
 11
12.44982655830594
 21
32.60552525855698
 31
0.0
  0
LINE
  5
1C9
330
6D
100
AcDbEntity
  8
1
  6
Continuous
 62
     7
100
AcDbLine
 10
3.53141827662674
 20
32.60552525855698
 30
0.0
 11
3.53141827662705
 21
24.10552525855709
 31
0.0
  0
LINE
  5
1CA
330
6D
100
AcDbEntity
  8
1
  6
Continuous
 62
     7
100
AcDbLine
 10
-14.66858172337296
 20
11.35552525855698
 30
0.0
 11
-33.16858172337258
 21
11.35552525855698
 31
0.0
  0
LINE
  5
1CB
330
6D
100
AcDbEntity
  8
1
  6
Continuous
 62
     7
100
AcDbLine
 10
-14.66858172337296
 20
19.85552525855698
 30
0.0
 11
-14.66858172337296
 21
11.35552525855698
 31
0.0
  0
LINE
  5
1CC
330
6D
100
AcDbEntity
  8
1
  6
Continuous
 62
     2
100
AcDbLine
 10
-112.713386250125
 20
32.60552525855698
 30
0.0
 11
-112.713386250125
 21
28.35552525855698
 31
0.0
  0
LINE
  5
1CD
330
6D
100
AcDbEntity
  8
1
  6
Continuous
 62
     2
100
AcDbLine
 10
-126.2133862501249
 20
32.60552525855698
 30
0.0
 11
-126.2133862501249
 21
28.35552525855698
 31
0.0
  0
LINE
  5
1CE
330
6D
100
AcDbEntity
  8
1
  6
Continuous
 62
     6
100
AcDbLine
 10
-112.713386250125
 20
32.60552525855698
 30
0.0
 11
-126.2133862501249
 21
32.60552525855698
 31
0.0
  0
LINE
  5
1CF
330
6D
100
AcDbEntity
  8
1
  6
Continuous
 62
     6
100
AcDbLine
 10
-126.2133862501249
 20
32.60552525855698
 30
0.0
 11
-139.7133862501249
 21
32.60552525855698
 31
0.0
  0
LINE
  5
1D0
330
6D
100
AcDbEntity
  8
1
  6
Continuous
 62
     2
100
AcDbLine
 10
-139.7133862501249
 20
32.60552525855698
 30
0.0
 11
-139.7133862501249
 21
28.35552525855698
 31
0.0
  0
LINE
  5
1D1
330
6D
100
AcDbEntity
  8
1
  6
Continuous
 62
     7
100
AcDbLine
 10
-81.013386250125
 20
7.10552525855709
 30
0.0
 11
-81.013386250125
 21
2.85552525855709
 31
0.0
  0
LINE
  5
1D2
330
6D
100
AcDbEntity
  8
1
  6
Continuous
 62
     7
100
AcDbLine
 10
-81.013386250125
 20
7.10552525855709
 30
0.0
 11
-99.21338625012487
 21
7.10552525855709
 31
0.0
  0
LINE
  5
1D3
330
6D
100
AcDbEntity
  8
1
  6
Continuous
 62
     7
100
AcDbLine
 10
-76.31338625012498
 20
19.85552525855698
 30
0.0
 11
-89.81338625012489
 21
19.85552525855709
 31
0.0
  0
LINE
  5
1D4
330
6D
100
AcDbEntity
  8
1
  6
Continuous
 62
     7
100
AcDbLine
 10
-62.81338625012497
 20
7.10552525855709
 30
0.0
 11
-81.013386250125
 21
7.10552525855709
 31
0.0
  0
LINE
  5
1D5
330
6D
100
AcDbEntity
  8
1
  6
Continuous
 62
     6
100
AcDbLine
 10
-62.81338625012497
 20
32.60552525855698
 30
0.0
 11
-39.91338625012494
 21
32.60552525855698
 31
0.0
  0
LINE
  5
1D6
330
6D
100
AcDbEntity
  8
1
  6
Continuous
 62
     6
100
AcDbLine
 10
3.53141827662674
 20
32.60552525855698
 30
0.0
 11
-39.91338625012494
 21
32.60552525855698
 31
0.0
  0
LINE
  5
1D7
330
6D
100
AcDbEntity
  8
1
  6
Continuous
 62
     7
100
AcDbLine
 10
-39.91338625012494
 20
32.60552525855698
 30
0.0
 11
-39.91338625012494
 21
24.10552525855692
 31
0.0
  0
LINE
  5
1D8
330
6D
100
AcDbEntity
  8
1
  6
Continuous
 62
     6
100
AcDbLine
 10
-215.4685817233751
 20
32.60552525855698
 30
0.0
 11
-221.6685817233731
 21
32.60552525855698
 31
0.0
  0
LINE
  5
1D9
330
6D
100
AcDbEntity
  8
1
  6
Continuous
 62
     6
100
AcDbLine
 10
-221.6685817233731
 20
2.85552525855709
 30
0.0
 11
-221.6685817233731
 21
7.10552525855709
 31
0.0
  0
LINE
  5
1DA
330
6D
100
AcDbEntity
  8
1
  6
Continuous
 62
     6
100
AcDbLine
 10
-221.6685817233731
 20
7.10552525855709
 30
0.0
 11
-221.6685817233731
 21
11.35552525855698
 31
0.0
  0
LINE
  5
1DB
330
6D
100
AcDbEntity
  8
1
  6
Continuous
 62
     7
100
AcDbLine
 10
-76.31338625012498
 20
24.10552525855698
 30
0.0
 11
-76.31338625012498
 21
19.85552525855698
 31
0.0
  0
LINE
  5
1DC
330
6D
100
AcDbEntity
  8
1
  6
Continuous
 62
     7
100
AcDbLine
 10
-89.81338625012489
 20
24.10552525855698
 30
0.0
 11
-89.81338625012489
 21
19.85552525855709
 31
0.0
  0
LINE
  5
1DD
330
6D
100
AcDbEntity
  8
1
  6
Continuous
 62
     7
100
AcDbLine
 10
-76.31338625012498
 20
24.10552525855698
 30
0.0
 11
-89.81338625012489
 21
24.10552525855698
 31
0.0
  0
LINE
  5
1DE
330
6D
100
AcDbEntity
  8
1
  6
Continuous
 62
     2
100
AcDbLine
 10
-99.21338625012487
 20
19.85552525855698
 30
0.0
 11
-112.713386250125
 21
19.85552525855698
 31
0.0
  0
LINE
  5
1DF
330
6D
100
AcDbEntity
  8
1
  6
Continuous
 62
     2
100
AcDbLine
 10
-215.4685817233751
 20
19.85552525855698
 30
0.0
 11
-215.4685817233751
 21
24.10552525855698
 31
0.0
  0
LINE
  5
1E0
330
6D
100
AcDbEntity
  8
1
  6
Continuous
 62
     2
100
AcDbLine
 10
-215.4685817233751
 20
19.85552525855698
 30
0.0
 11
-221.6685817233731
 21
19.85552525855698
 31
0.0
  0
LINE
  5
1E1
330
6D
100
AcDbEntity
  8
1
  6
Continuous
 62
     2
100
AcDbLine
 10
-99.21338625012487
 20
24.10552525855698
 30
0.0
 11
-112.713386250125
 21
24.10552525855698
 31
0.0
  0
LINE
  5
1E2
330
6D
100
AcDbEntity
  8
1
  6
Continuous
 62
     2
100
AcDbLine
 10
-215.4685817233751
 20
24.10552525855698
 30
0.0
 11
-215.4685817233751
 21
28.35552525855698
 31
0.0
  0
LINE
  5
1E3
330
6D
100
AcDbEntity
  8
1
  6
Continuous
 62
     2
100
AcDbLine
 10
-99.21338625012487
 20
28.35552525855698
 30
0.0
 11
-112.713386250125
 21
28.35552525855698
 31
0.0
  0
LINE
  5
1E4
330
6D
100
AcDbEntity
  8
1
  6
Continuous
 62
     2
100
AcDbLine
 10
-215.4685817233751
 20
28.35552525855698
 30
0.0
 11
-215.4685817233751
 21
32.60552525855698
 31
0.0
  0
LINE
  5
1E5
330
6D
100
AcDbEntity
  8
1
  6
Continuous
 62
     2
100
AcDbLine
 10
-215.4685817233751
 20
28.35552525855698
 30
0.0
 11
-221.6685817233731
 21
28.35552525855698
 31
0.0
  0
LINE
  5
1E6
330
6D
100
AcDbEntity
  8
1
  6
Continuous
 62
     6
100
AcDbLine
 10
-99.21338625012487
 20
32.60552525855698
 30
0.0
 11
-112.713386250125
 21
32.60552525855698
 31
0.0
  0
LINE
  5
1E7
330
6D
100
AcDbEntity
  8
1
  6
Continuous
 62
     2
100
AcDbLine
 10
-99.21338625012487
 20
11.35552525855698
 30
0.0
 11
-112.713386250125
 21
11.35552525855698
 31
0.0
  0
LINE
  5
1E8
330
6D
100
AcDbEntity
  8
1
  6
Continuous
 62
     2
100
AcDbLine
 10
-99.21338625012487
 20
15.60552525855698
 30
0.0
 11
-112.713386250125
 21
15.60552525855698
 31
0.0
  0
LINE
  5
1E9
330
6D
100
AcDbEntity
  8
1
  6
Continuous
 62
     2
100
AcDbLine
 10
-215.4685817233751
 20
11.35552525855698
 30
0.0
 11
-215.4685817233751
 21
15.60552525855698
 31
0.0
  0
LINE
  5
1EA
330
6D
100
AcDbEntity
  8
1
  6
Continuous
 62
     2
100
AcDbLine
 10
-215.4685817233751
 20
15.60552525855698
 30
0.0
 11
-215.4685817233751
 21
19.85552525855698
 31
0.0
  0
LINE
  5
1EB
330
6D
100
AcDbEntity
  8
1
  6
Continuous
 62
     7
100
AcDbLine
 10
-215.4685817233751
 20
7.10552525855709
 30
0.0
 11
-201.9685817233751
 21
7.10552525855709
 31
0.0
  0
LINE
  5
1EC
330
6D
100
AcDbEntity
  8
1
  6
Continuous
 62
     2
100
AcDbLine
 10
-215.4685817233751
 20
7.10552525855709
 30
0.0
 11
-215.4685817233751
 21
11.35552525855698
 31
0.0
  0
LINE
  5
1ED
330
6D
100
AcDbEntity
  8
1
  6
Continuous
 62
     7
100
AcDbLine
 10
-62.81338625012497
 20
11.35552525855698
 30
0.0
 11
-62.81338625012497
 21
15.60552525855698
 31
0.0
  0
LINE
  5
1EE
330
6D
100
AcDbEntity
  8
1
  6
Continuous
 62
     6
100
AcDbLine
 10
-76.31338625012498
 20
32.60552525855698
 30
0.0
 11
-62.81338625012497
 21
32.60552525855698
 31
0.0
  0
LINE
  5
1EF
330
6D
100
AcDbEntity
  8
1
  6
Continuous
 62
     7
100
AcDbLine
 10
-62.81338625012497
 20
32.60552525855698
 30
0.0
 11
-62.81338625012497
 21
28.35552525855698
 31
0.0
  0
LINE
  5
1F0
330
6D
100
AcDbEntity
  8
1
  6
Continuous
 62
     6
100
AcDbLine
 10
-89.81338625012489
 20
32.60552525855698
 30
0.0
 11
-76.31338625012498
 21
32.60552525855698
 31
0.0
  0
LINE
  5
1F1
330
6D
100
AcDbEntity
  8
1
  6
Continuous
 62
     7
100
AcDbLine
 10
-99.21338625012487
 20
19.85552525855698
 30
0.0
 11
-99.21338625012487
 21
15.60552525855698
 31
0.0
  0
LINE
  5
1F2
330
6D
100
AcDbEntity
  8
1
  6
Continuous
 62
     7
100
AcDbLine
 10
-99.21338625012487
 20
24.10552525855698
 30
0.0
 11
-99.21338625012487
 21
19.85552525855698
 31
0.0
  0
LINE
  5
1F3
330
6D
100
AcDbEntity
  8
1
  6
Continuous
 62
     2
100
AcDbLine
 10
-221.6685817233731
 20
24.10552525855698
 30
0.0
 11
-215.4685817233751
 21
24.10552525855698
 31
0.0
  0
LINE
  5
1F4
330
6D
100
AcDbEntity
  8
1
  6
Continuous
 62
     7
100
AcDbLine
 10
-99.21338625012487
 20
28.35552525855698
 30
0.0
 11
-99.21338625012487
 21
24.10552525855698
 31
0.0
  0
LINE
  5
1F5
330
6D
100
AcDbEntity
  8
1
  6
Continuous
 62
     7
100
AcDbLine
 10
-62.81338625012497
 20
24.10552525855698
 30
0.0
 11
-62.81338625012497
 21
19.85552525855698
 31
0.0
  0
LINE
  5
1F6
330
6D
100
AcDbEntity
  8
1
  6
Continuous
 62
     7
100
AcDbLine
 10
-76.31338625012498
 20
32.60552525855698
 30
0.0
 11
-76.31338625012498
 21
28.35552525855698
 31
0.0
  0
LINE
  5
1F7
330
6D
100
AcDbEntity
  8
1
  6
Continuous
 62
     7
100
AcDbLine
 10
-89.81338625012489
 20
32.60552525855698
 30
0.0
 11
-89.81338625012489
 21
28.35552525855698
 31
0.0
  0
LINE
  5
1F8
330
6D
100
AcDbEntity
  8
1
  6
Continuous
 62
     2
100
AcDbLine
 10
-215.4685817233751
 20
2.85552525855698
 30
0.0
 11
-215.4685817233751
 21
7.10552525855709
 31
0.0
  0
LINE
  5
1F9
330
6D
100
AcDbEntity
  8
1
  6
Continuous
 62
     2
100
AcDbLine
 10
-221.6685817233731
 20
11.35552525855698
 30
0.0
 11
-215.4685817233751
 21
11.35552525855698
 31
0.0
  0
LINE
  5
1FA
330
6D
100
AcDbEntity
  8
1
  6
Continuous
 62
     2
100
AcDbLine
 10
-221.6685817233731
 20
15.60552525855698
 30
0.0
 11
-215.4685817233751
 21
15.60552525855698
 31
0.0
  0
LINE
  5
1FB
330
6D
100
AcDbEntity
  8
1
  6
Continuous
 62
     7
100
AcDbLine
 10
-221.6685817233731
 20
7.10552525855709
 30
0.0
 11
-215.4685817233751
 21
7.10552525855709
 31
0.0
  0
LINE
  5
1FC
330
6D
100
AcDbEntity
  8
1
  6
Continuous
 62
     7
100
AcDbLine
 10
-62.81338625012497
 20
11.35552525855698
 30
0.0
 11
-62.81338625012497
 21
7.10552525855709
 31
0.0
  0
LINE
  5
1FD
330
6D
100
AcDbEntity
  8
1
  6
Continuous
 62
     7
100
AcDbLine
 10
-99.21338625012487
 20
15.60552525855698
 30
0.0
 11
-99.21338625012487
 21
11.35552525855698
 31
0.0
  0
LINE
  5
1FE
330
6D
100
AcDbEntity
  8
1
  6
Continuous
 62
     7
100
AcDbLine
 10
-99.21338625012487
 20
11.35552525855698
 30
0.0
 11
-99.21338625012487
 21
7.10552525855709
 31
0.0
  0
LINE
  5
1FF
330
6D
100
AcDbEntity
  8
1
  6
Continuous
 62
     7
100
AcDbLine
 10
-76.31338625012498
 20
28.35552525855698
 30
0.0
 11
-76.31338625012498
 21
24.10552525855698
 31
0.0
  0
LINE
  5
200
330
6D
100
AcDbEntity
  8
1
  6
Continuous
 62
     7
100
AcDbLine
 10
-89.81338625012489
 20
28.35552525855698
 30
0.0
 11
-89.81338625012489
 21
24.10552525855698
 31
0.0
  0
LINE
  5
201
330
6D
100
AcDbEntity
  8
1
  6
Continuous
 62
     7
100
AcDbLine
 10
-99.21338625012487
 20
24.10552525855698
 30
0.0
 11
-89.81338625012489
 21
24.10552525855698
 31
0.0
  0
LINE
  5
202
330
6D
100
AcDbEntity
  8
1
  6
Continuous
 62
     7
100
AcDbLine
 10
-62.81338625012497
 20
19.85552525855698
 30
0.0
 11
-76.31338625012498
 21
19.85552525855698
 31
0.0
  0
LINE
  5
203
330
6D
100
AcDbEntity
  8
1
  6
Continuous
 62
     7
100
AcDbLine
 10
-62.81338625012497
 20
7.10552525855709
 30
0.0
 11
-62.81338625012497
 21
2.85552525855698
 31
0.0
  0
LINE
  5
204
330
6D
100
AcDbEntity
  8
1
  6
Continuous
 62
     7
100
AcDbLine
 10
-99.21338625012487
 20
7.10552525855709
 30
0.0
 11
-99.21338625012487
 21
2.85552525855698
 31
0.0
  0
LINE
  5
205
330
6D
100
AcDbEntity
  8
1
  6
Continuous
 62
     7
100
AcDbLine
 10
-99.21338625012487
 20
32.60552525855698
 30
0.0
 11
-99.21338625012487
 21
28.35552525855698
 31
0.0
  0
LINE
  5
206
330
6D
100
AcDbEntity
  8
1
  6
Continuous
 62
     7
100
AcDbLine
 10
-62.81338625012497
 20
11.35552525855698
 30
0.0
 11
-33.16858172337258
 21
11.35552525855698
 31
0.0
  0
LINE
  5
207
330
6D
100
AcDbEntity
  8
1
  6
Continuous
 62
     7
100
AcDbLine
 10
-62.81338625012497
 20
19.85552525855698
 30
0.0
 11
-33.16858172337258
 21
19.85552525855698
 31
0.0
  0
LINE
  5
208
330
6D
100
AcDbEntity
  8
1
  6
Continuous
 62
     7
100
AcDbLine
 10
3.53141827662705
 20
24.10552525855709
 30
0.0
 11
12.44982655830594
 21
24.10552525855698
 31
0.0
  0
LINE
  5
209
330
6D
100
AcDbEntity
  8
1
  6
Continuous
 62
     2
100
AcDbLine
 10
-84.5140665222337
 20
9.52185178917503
 30
0.0
 11
-84.5140665222337
 21
8.84157968033159
 31
0.0
  0
LINE
  5
20A
330
6D
100
AcDbEntity
  8
1
  6
Continuous
 62
     2
100
AcDbLine
 10
-84.5140665222337
 20
10.27015110890491
 30
0.0
 11
-84.5140665222337
 21
10.95042321774818
 31
0.0
  0
LINE
  5
20B
102
{ACAD_REACTORS
330
333
330
333
102
}
330
6D
100
AcDbEntity
  8
1
  6
Continuous
 62
     2
100
AcDbLine
 10
-82.8195746039408
 20
8.70552525856292
 30
0.0
 11
-82.9216154202681
 21
8.70552525856292
 31
0.0
  0
LINE
  5
20C
102
{ACAD_REACTORS
330
333
330
333
102
}
330
6D
100
AcDbEntity
  8
1
  6
Continuous
 62
     2
100
AcDbLine
 10
-82.9216154202681
 20
11.08647763951703
 30
0.0
 11
-82.8195746039408
 21
11.08647763951703
 31
0.0
  0
LINE
  5
20D
102
{ACAD_REACTORS
330
334
330
334
102
}
330
6D
100
AcDbEntity
  8
1
  6
Continuous
 62
     2
100
AcDbLine
 10
-79.6964232953069
 20
11.6245728775971
 30
0.0
 11
-79.798464111633
 21
11.6245728775971
 31
0.0
  0
LINE
  5
20E
102
{ACAD_REACTORS
330
334
330
334
102
}
330
6D
100
AcDbEntity
  8
1
  6
Continuous
 62
     2
100
AcDbLine
 10
-77.6555631208737
 20
11.6245728775971
 30
0.0
 11
-79.6964232953069
 21
11.6245728775971
 31
0.0
  0
LINE
  5
20F
102
{ACAD_REACTORS
330
334
330
334
102
}
330
6D
100
AcDbEntity
  8
1
  6
Continuous
 62
     2
100
AcDbLine
 10
-77.6555631208737
 20
11.6245728775971
 30
0.0
 11
-77.6555631208737
 21
12.16879056467181
 31
0.0
  0
LINE
  5
210
102
{ACAD_REACTORS
330
334
330
334
102
}
330
6D
100
AcDbEntity
  8
1
  6
Continuous
 62
     2
100
AcDbLine
 10
-77.6555631208737
 20
12.16879056467181
 30
0.0
 11
-78.607944073255
 21
12.16879056467181
 31
0.0
  0
LINE
  5
211
102
{ACAD_REACTORS
330
334
330
334
102
}
330
6D
100
AcDbEntity
  8
1
  6
Continuous
 62
     2
100
AcDbLine
 10
-78.607944073255
 20
12.16879056467181
 30
0.0
 11
-78.607944073255
 21
12.54294022453669
 31
0.0
  0
LINE
  5
212
102
{ACAD_REACTORS
330
334
330
334
102
}
330
6D
100
AcDbEntity
  8
1
  6
Continuous
 62
     2
100
AcDbLine
 10
-78.607944073255
 20
12.54294022453669
 30
0.0
 11
-77.6555631208737
 21
12.54294022453669
 31
0.0
  0
LINE
  5
213
102
{ACAD_REACTORS
330
334
330
334
102
}
330
6D
100
AcDbEntity
  8
1
  6
Continuous
 62
     2
100
AcDbLine
 10
-77.6555631208737
 20
12.54294022453669
 30
0.0
 11
-77.6555631208737
 21
13.08715791161151
 31
0.0
  0
LINE
  5
214
102
{ACAD_REACTORS
330
334
330
334
102
}
330
6D
100
AcDbEntity
  8
1
  6
Continuous
 62
     2
100
AcDbLine
 10
-77.6555631208737
 20
13.08715791161151
 30
0.0
 11
-78.607944073255
 21
13.08715791161151
 31
0.0
  0
LINE
  5
215
102
{ACAD_REACTORS
330
334
330
334
102
}
330
6D
100
AcDbEntity
  8
1
  6
Continuous
 62
     2
100
AcDbLine
 10
-78.607944073255
 20
13.08715791161151
 30
0.0
 11
-78.607944073255
 21
13.46130757147651
 31
0.0
  0
LINE
  5
216
102
{ACAD_REACTORS
330
334
330
334
102
}
330
6D
100
AcDbEntity
  8
1
  6
Continuous
 62
     2
100
AcDbLine
 10
-78.607944073255
 20
13.46130757147651
 30
0.0
 11
-77.6555631208737
 21
13.46130757147651
 31
0.0
  0
LINE
  5
217
102
{ACAD_REACTORS
330
334
330
334
102
}
330
6D
100
AcDbEntity
  8
1
  6
Continuous
 62
     2
100
AcDbLine
 10
-77.6555631208737
 20
13.46130757147651
 30
0.0
 11
-77.6555631208737
 21
14.0055252585511
 31
0.0
  0
LINE
  5
218
102
{ACAD_REACTORS
330
334
330
334
102
}
330
6D
100
AcDbEntity
  8
1
  6
Continuous
 62
     2
100
AcDbLine
 10
-77.6555631208737
 20
14.0055252585511
 30
0.0
 11
-79.6964232953069
 21
14.0055252585511
 31
0.0
  0
LINE
  5
219
102
{ACAD_REACTORS
330
334
330
334
102
}
330
6D
100
AcDbEntity
  8
1
  6
Continuous
 62
     2
100
AcDbLine
 10
-79.798464111633
 20
14.0055252585511
 30
0.0
 11
-79.6964232953069
 21
14.0055252585511
 31
0.0
  0
LINE
  5
21A
102
{ACAD_REACTORS
330
336
330
336
102
}
330
6D
100
AcDbEntity
  8
1
  6
Continuous
 62
     2
100
AcDbLine
 10
-89.14229781475049
 20
9.99441414745209
 30
0.0
 11
-89.1830385554909
 21
9.99441414745209
 31
0.0
  0
LINE
  5
21B
102
{ACAD_REACTORS
330
336
330
336
102
}
330
6D
100
AcDbEntity
  8
1
  6
Continuous
 62
     2
100
AcDbLine
 10
-89.14229781475049
 20
13.45737711041468
 30
0.0
 11
-89.1830385554909
 21
13.45737711041468
 31
0.0
  0
LINE
  5
21C
102
{ACAD_REACTORS
330
336
330
336
102
}
330
6D
100
AcDbEntity
  8
1
  6
Continuous
 62
     2
100
AcDbLine
 10
-89.4478533703051
 20
13.1925622956056
 30
0.0
 11
-89.4478533703051
 21
12.6985674826324
 31
0.0
  0
LINE
  5
21D
102
{ACAD_REACTORS
330
336
330
336
102
}
330
6D
100
AcDbEntity
  8
1
  6
Continuous
 62
     2
100
AcDbLine
 10
-89.4478533703051
 20
10.25922896225663
 30
0.0
 11
-89.4478533703051
 21
10.75322377522079
 31
0.0
  0
LINE
  5
21E
102
{ACAD_REACTORS
330
336
330
336
102
}
330
6D
100
AcDbEntity
  8
1
  6
Continuous
 62
     2
100
AcDbLine
 10
-91.688594111046
 20
13.1925622956056
 30
0.0
 11
-91.688594111046
 21
9.44441414744469
 31
0.0
  0
LINE
  5
21F
102
{ACAD_REACTORS
330
336
330
336
102
}
330
6D
100
AcDbEntity
  8
1
  6
Continuous
 62
     2
100
AcDbLine
 10
-90.1200755925276
 20
9.1795993326401
 30
0.0
 11
-91.423779296232
 21
9.1795993326401
 31
0.0
  0
LINE
  5
220
102
{ACAD_REACTORS
330
336
330
336
102
}
330
6D
100
AcDbEntity
  8
1
  6
Continuous
 62
     2
100
AcDbLine
 10
-89.8552607777125
 20
10.75322377522971
 30
0.0
 11
-89.8552607777125
 21
9.44441414744469
 31
0.0
  0
LINE
  5
221
102
{ACAD_REACTORS
330
336
330
336
102
}
330
6D
100
AcDbEntity
  8
1
  6
Continuous
 62
     2
100
AcDbLine
 10
-89.8552607777125
 20
13.19256229559639
 30
0.0
 11
-89.8552607777125
 21
12.6985674826324
 31
0.0
  0
LINE
  5
222
102
{ACAD_REACTORS
330
336
330
336
102
}
330
6D
100
AcDbEntity
  8
1
  6
Continuous
 62
     2
100
AcDbLine
 10
-91.423779296232
 20
13.45737711041468
 30
0.0
 11
-90.1200755925276
 21
13.45737711041468
 31
0.0
  0
LINE
  5
223
102
{ACAD_REACTORS
330
336
330
336
102
}
330
6D
100
AcDbEntity
  8
1
  6
Continuous
 62
     2
100
AcDbLine
 10
-91.8256311480829
 20
14.0055252585511
 30
0.0
 11
-87.2922978147496
 21
14.0055252585511
 31
0.0
  0
LINE
  5
224
102
{ACAD_REACTORS
330
336
330
336
102
}
330
6D
100
AcDbEntity
  8
1
  6
Continuous
 62
     2
100
AcDbLine
 10
-92.1589644814165
 20
13.67219192521813
 30
0.0
 11
-92.1589644814165
 21
9.03885859189589
 31
0.0
  0
LINE
  5
225
102
{ACAD_REACTORS
330
336
330
336
102
}
330
6D
100
AcDbEntity
  8
1
  6
Continuous
 62
     2
100
AcDbLine
 10
-87.2922978147496
 20
8.70552525856292
 30
0.0
 11
-91.8256311480829
 21
8.70552525856292
 31
0.0
  0
LINE
  5
226
102
{ACAD_REACTORS
330
336
330
336
102
}
330
6D
100
AcDbEntity
  8
1
  6
Continuous
 62
     2
100
AcDbLine
 10
-86.9589644814169
 20
13.67219192521813
 30
0.0
 11
-86.9589644814169
 21
9.03885859189589
 31
0.0
  0
LINE
  5
227
102
{ACAD_REACTORS
330
335
330
335
102
}
330
6D
100
AcDbEntity
  8
1
  6
Continuous
 62
     2
100
AcDbLine
 10
-85.3872516429126
 20
13.48852397565449
 30
0.0
 11
-85.3320688707031
 21
13.48852397565449
 31
0.0
  0
LINE
  5
228
102
{ACAD_REACTORS
330
335
330
335
102
}
330
6D
100
AcDbEntity
  8
1
  6
Continuous
 62
     2
100
AcDbLine
 10
-85.53447468549899
 20
13.48852397565449
 30
0.0
 11
-85.3872516429126
 21
13.48852397565449
 31
0.0
  0
LINE
  5
229
102
{ACAD_REACTORS
330
335
330
335
102
}
330
6D
100
AcDbEntity
  8
1
  6
Continuous
 62
     2
100
AcDbLine
 10
-85.53447468549899
 20
12.9382919084924
 30
0.0
 11
-85.53447468549899
 21
13.48852397565449
 31
0.0
  0
LINE
  5
22A
102
{ACAD_REACTORS
330
335
330
335
102
}
330
6D
100
AcDbEntity
  8
1
  6
Continuous
 62
     2
100
AcDbLine
 10
-85.3872516429126
 20
12.9382919084924
 30
0.0
 11
-85.53447468549899
 21
12.9382919084924
 31
0.0
  0
LINE
  5
22B
102
{ACAD_REACTORS
330
335
330
335
102
}
330
6D
100
AcDbEntity
  8
1
  6
Continuous
 62
     2
100
AcDbLine
 10
-85.3872516429126
 20
12.9382919084924
 30
0.0
 11
-85.3320688707031
 21
12.9382919084924
 31
0.0
  0
LINE
  5
22C
102
{ACAD_REACTORS
330
335
330
335
102
}
330
6D
100
AcDbEntity
  8
1
  6
Continuous
 62
     2
100
AcDbLine
 10
-86.41882842699479
 20
14.0055252585511
 30
0.0
 11
-85.261036821642
 21
14.0055252585511
 31
0.0
  0
LINE
  5
22D
102
{ACAD_REACTORS
330
335
330
335
102
}
330
6D
100
AcDbEntity
  8
1
  6
Continuous
 62
     2
100
AcDbLine
 10
-86.41882842699479
 20
14.0055252585511
 30
0.0
 11
-86.41882842699479
 21
11.6245728775971
 31
0.0
  0
LINE
  5
22E
102
{ACAD_REACTORS
330
335
330
335
102
}
330
6D
100
AcDbEntity
  8
1
  6
Continuous
 62
     2
100
AcDbLine
 10
-86.41882842699479
 20
11.6245728775971
 30
0.0
 11
-85.6833758978084
 21
11.6245728775971
 31
0.0
  0
LINE
  5
22F
102
{ACAD_REACTORS
330
335
330
335
102
}
330
6D
100
AcDbEntity
  8
1
  6
Continuous
 62
     2
100
AcDbLine
 10
-85.6833758978084
 20
11.6245728775971
 30
0.0
 11
-85.53447468549899
 21
11.6245728775971
 31
0.0
  0
LINE
  5
230
102
{ACAD_REACTORS
330
335
330
335
102
}
330
6D
100
AcDbEntity
  8
1
  6
Continuous
 62
     2
100
AcDbLine
 10
-85.53447468549899
 20
11.6245728775971
 30
0.0
 11
-85.53447468549899
 21
12.3598592031407
 31
0.0
  0
LINE
  5
231
102
{ACAD_REACTORS
330
335
330
335
102
}
330
6D
100
AcDbEntity
  8
1
  6
Continuous
 62
     2
100
AcDbLine
 10
-85.53447468549899
 20
12.3598592031407
 30
0.0
 11
-85.1121356093316
 21
12.3598592031407
 31
0.0
  0
LINE
  5
232
102
{ACAD_REACTORS
330
335
330
335
102
}
330
6D
100
AcDbEntity
  8
1
  6
Continuous
 62
     2
100
AcDbLine
 10
-85.1121356093316
 20
12.3598592031407
 30
0.0
 11
-84.9773436271687
 21
12.3598592031407
 31
0.0
  0
LINE
  5
233
102
{ACAD_REACTORS
330
335
330
335
102
}
330
6D
100
AcDbEntity
  8
1
  6
Continuous
 62
     2
100
AcDbLine
 10
-85.261036821642
 20
14.0055252585511
 30
0.0
 11
-84.9773436271687
 21
14.0055252585511
 31
0.0
  0
LINE
  5
234
102
{ACAD_REACTORS
330
32D
330
32D
102
}
330
6D
100
AcDbEntity
  8
1
  6
Continuous
 62
     2
100
AcDbLine
 10
-75.11863766043851
 20
9.65790621094359
 30
0.0
 11
-74.69066296178741
 21
9.65790621094359
 31
0.0
  0
LINE
  5
235
102
{ACAD_REACTORS
330
32D
330
32D
102
}
330
6D
100
AcDbEntity
  8
1
  6
Continuous
 62
     2
100
AcDbLine
 10
-74.69066296178741
 20
9.65790621094359
 30
0.0
 11
-74.90465031111358
 21
10.25654566672759
 31
0.0
  0
LINE
  5
236
102
{ACAD_REACTORS
330
32D
330
32D
102
}
330
6D
100
AcDbEntity
  8
1
  6
Continuous
 62
     2
100
AcDbLine
 10
-75.11863766043851
 20
9.65790621094359
 30
0.0
 11
-74.90465031111358
 21
10.25654566672759
 31
0.0
  0
LINE
  5
237
102
{ACAD_REACTORS
330
32D
330
32D
102
}
330
6D
100
AcDbEntity
  8
1
  6
Continuous
 62
     2
100
AcDbLine
 10
-75.3468271818621
 20
11.08647763951703
 30
0.0
 11
-76.343425821318
 21
8.70552525856292
 31
0.0
  0
LINE
  5
238
102
{ACAD_REACTORS
330
32D
330
32D
102
}
330
6D
100
AcDbEntity
  8
1
  6
Continuous
 62
     2
100
AcDbLine
 10
-76.343425821318
 20
8.70552525856292
 30
0.0
 11
-75.459072079821
 21
8.70552525856292
 31
0.0
  0
LINE
  5
239
102
{ACAD_REACTORS
330
32D
330
32D
102
}
330
6D
100
AcDbEntity
  8
1
  6
Continuous
 62
     2
100
AcDbLine
 10
-75.459072079821
 20
8.70552525856292
 30
0.0
 11
-75.3083082655238
 21
9.12729396604621
 31
0.0
  0
LINE
  5
23A
102
{ACAD_REACTORS
330
32D
330
32D
102
}
330
6D
100
AcDbEntity
  8
1
  6
Continuous
 62
     2
100
AcDbLine
 10
-75.3083082655238
 20
9.12729396604621
 30
0.0
 11
-74.50099235670359
 21
9.12729396604621
 31
0.0
  0
LINE
  5
23B
102
{ACAD_REACTORS
330
32D
330
32D
102
}
330
6D
100
AcDbEntity
  8
1
  6
Continuous
 62
     2
100
AcDbLine
 10
-74.35022854240589
 20
8.70552525856292
 30
0.0
 11
-74.50099235670359
 21
9.12729396604621
 31
0.0
  0
LINE
  5
23C
102
{ACAD_REACTORS
330
32D
330
32D
102
}
330
6D
100
AcDbEntity
  8
1
  6
Continuous
 62
     2
100
AcDbLine
 10
-73.46587480090949
 20
8.70552525856292
 30
0.0
 11
-74.35022854240589
 21
8.70552525856292
 31
0.0
  0
LINE
  5
23D
102
{ACAD_REACTORS
330
32D
330
32D
102
}
330
6D
100
AcDbEntity
  8
1
  6
Continuous
 62
     2
100
AcDbLine
 10
-74.4624734403649
 20
11.08647763951703
 30
0.0
 11
-73.46587480090949
 21
8.70552525856292
 31
0.0
  0
LINE
  5
23E
102
{ACAD_REACTORS
330
32D
330
32D
102
}
330
6D
100
AcDbEntity
  8
1
  6
Continuous
 62
     2
100
AcDbLine
 10
-75.3468271818621
 20
11.08647763951703
 30
0.0
 11
-74.4624734403649
 21
11.08647763951703
 31
0.0
  0
LINE
  5
23F
102
{ACAD_REACTORS
330
32E
330
32E
102
}
330
6D
100
AcDbEntity
  8
1
  6
Continuous
 62
     2
100
AcDbLine
 10
-76.23322173968509
 20
11.08647763951703
 30
0.0
 11
-78.24002446077222
 21
11.08647763951703
 31
0.0
  0
LINE
  5
240
102
{ACAD_REACTORS
330
32E
330
32E
102
}
330
6D
100
AcDbEntity
  8
1
  6
Continuous
 62
     2
100
AcDbLine
 10
-78.24002446077222
 20
11.08647763951703
 30
0.0
 11
-78.24002446077222
 21
10.47423274155571
 31
0.0
  0
LINE
  5
241
102
{ACAD_REACTORS
330
32E
330
32E
102
}
330
6D
100
AcDbEntity
  8
1
  6
Continuous
 62
     2
100
AcDbLine
 10
-78.24002446077222
 20
10.47423274155571
 30
0.0
 11
-77.6617931682562
 21
10.47423274155571
 31
0.0
  0
LINE
  5
242
102
{ACAD_REACTORS
330
32E
330
32E
102
}
330
6D
100
AcDbEntity
  8
1
  6
Continuous
 62
     2
100
AcDbLine
 10
-77.6617931682562
 20
10.47423274155571
 30
0.0
 11
-77.6617931682562
 21
8.70552525856292
 31
0.0
  0
LINE
  5
243
102
{ACAD_REACTORS
330
32E
330
32E
102
}
330
6D
100
AcDbEntity
  8
1
  6
Continuous
 62
     2
100
AcDbLine
 10
-77.6617931682562
 20
8.70552525856292
 30
0.0
 11
-76.8114530322011
 21
8.70552525856292
 31
0.0
  0
LINE
  5
244
102
{ACAD_REACTORS
330
32E
330
32E
102
}
330
6D
100
AcDbEntity
  8
1
  6
Continuous
 62
     2
100
AcDbLine
 10
-76.8114530322011
 20
8.70552525856292
 30
0.0
 11
-76.8114530322011
 21
10.47423274155571
 31
0.0
  0
LINE
  5
245
102
{ACAD_REACTORS
330
32E
330
32E
102
}
330
6D
100
AcDbEntity
  8
1
  6
Continuous
 62
     2
100
AcDbLine
 10
-76.8114530322011
 20
10.47423274155571
 30
0.0
 11
-76.23322173968509
 21
10.47423274155571
 31
0.0
  0
LINE
  5
246
102
{ACAD_REACTORS
330
32E
330
32E
102
}
330
6D
100
AcDbEntity
  8
1
  6
Continuous
 62
     2
100
AcDbLine
 10
-76.23322173968509
 20
10.47423274155571
 30
0.0
 11
-76.23322173968509
 21
11.08647763951703
 31
0.0
  0
LINE
  5
247
102
{ACAD_REACTORS
330
32F
330
32F
102
}
330
6D
100
AcDbEntity
  8
1
  6
Continuous
 62
     2
100
AcDbLine
 10
-80.37675915464939
 20
11.08647763951703
 30
0.0
 11
-81.2270992907051
 21
11.08647763951703
 31
0.0
  0
LINE
  5
248
102
{ACAD_REACTORS
330
32F
330
32F
102
}
330
6D
100
AcDbEntity
  8
1
  6
Continuous
 62
     2
100
AcDbLine
 10
-81.2270992907051
 20
11.08647763951703
 30
0.0
 11
-81.2270992907051
 21
8.70552525856292
 31
0.0
  0
LINE
  5
249
102
{ACAD_REACTORS
330
32F
330
32F
102
}
330
6D
100
AcDbEntity
  8
1
  6
Continuous
 62
     2
100
AcDbLine
 10
-81.2270992907051
 20
8.70552525856292
 30
0.0
 11
-80.37675915464939
 21
8.70552525856292
 31
0.0
  0
LINE
  5
24A
102
{ACAD_REACTORS
330
32F
330
32F
102
}
330
6D
100
AcDbEntity
  8
1
  6
Continuous
 62
     2
100
AcDbLine
 10
-80.37675915464939
 20
8.70552525856292
 30
0.0
 11
-80.37675915464939
 21
9.72593342183009
 31
0.0
  0
LINE
  5
24B
102
{ACAD_REACTORS
330
32F
330
32F
102
}
330
6D
100
AcDbEntity
  8
1
  6
Continuous
 62
     2
100
AcDbLine
 10
-80.37675915464939
 20
9.72593342183009
 30
0.0
 11
-79.49240541315382
 21
8.70552525856292
 31
0.0
  0
LINE
  5
24C
102
{ACAD_REACTORS
330
32F
330
32F
102
}
330
6D
100
AcDbEntity
  8
1
  6
Continuous
 62
     2
100
AcDbLine
 10
-79.49240541315382
 20
8.70552525856292
 30
0.0
 11
-78.6420652770997
 21
8.70552525856292
 31
0.0
  0
LINE
  5
24D
102
{ACAD_REACTORS
330
32F
330
32F
102
}
330
6D
100
AcDbEntity
  8
1
  6
Continuous
 62
     2
100
AcDbLine
 10
-78.6420652770997
 20
8.70552525856292
 30
0.0
 11
-78.6420652770997
 21
11.08647763951703
 31
0.0
  0
LINE
  5
24E
102
{ACAD_REACTORS
330
32F
330
32F
102
}
330
6D
100
AcDbEntity
  8
1
  6
Continuous
 62
     2
100
AcDbLine
 10
-78.6420652770997
 20
11.08647763951703
 30
0.0
 11
-79.49240541315382
 21
11.08647763951703
 31
0.0
  0
LINE
  5
24F
102
{ACAD_REACTORS
330
32F
330
32F
102
}
330
6D
100
AcDbEntity
  8
1
  6
Continuous
 62
     2
100
AcDbLine
 10
-79.49240541315382
 20
11.08647763951703
 30
0.0
 11
-79.49240541315382
 21
10.06606947624968
 31
0.0
  0
LINE
  5
250
102
{ACAD_REACTORS
330
32F
330
32F
102
}
330
6D
100
AcDbEntity
  8
1
  6
Continuous
 62
     2
100
AcDbLine
 10
-79.49240541315382
 20
10.06606947624968
 30
0.0
 11
-80.37675915464939
 21
11.08647763951703
 31
0.0
  0
LINE
  5
251
102
{ACAD_REACTORS
330
330
330
330
102
}
330
6D
100
AcDbEntity
  8
1
  6
Continuous
 62
     2
100
AcDbLine
 10
-74.13039305284678
 20
11.6245728775971
 30
0.0
 11
-74.13039305284678
 21
14.0055252585511
 31
0.0
  0
LINE
  5
252
102
{ACAD_REACTORS
330
331
330
331
102
}
330
6D
100
AcDbEntity
  8
1
  6
Continuous
 62
     2
100
AcDbLine
 10
-74.60046108005801
 20
14.0055252585511
 30
0.0
 11
-75.4508012161116
 21
14.0055252585511
 31
0.0
  0
LINE
  5
253
102
{ACAD_REACTORS
330
331
330
331
102
}
330
6D
100
AcDbEntity
  8
1
  6
Continuous
 62
     2
100
AcDbLine
 10
-75.4508012161116
 20
14.0055252585511
 30
0.0
 11
-75.4508012161116
 21
12.98511709528393
 31
0.0
  0
LINE
  5
254
102
{ACAD_REACTORS
330
331
330
331
102
}
330
6D
100
AcDbEntity
  8
1
  6
Continuous
 62
     2
100
AcDbLine
 10
-75.4508012161116
 20
12.98511709528393
 30
0.0
 11
-76.33515495760889
 21
14.0055252585511
 31
0.0
  0
LINE
  5
255
102
{ACAD_REACTORS
330
331
330
331
102
}
330
6D
100
AcDbEntity
  8
1
  6
Continuous
 62
     2
100
AcDbLine
 10
-76.33515495760889
 20
14.0055252585511
 30
0.0
 11
-77.1854950936625
 21
14.0055252585511
 31
0.0
  0
LINE
  5
256
102
{ACAD_REACTORS
330
331
330
331
102
}
330
6D
100
AcDbEntity
  8
1
  6
Continuous
 62
     2
100
AcDbLine
 10
-77.1854950936625
 20
14.0055252585511
 30
0.0
 11
-77.1854950936625
 21
11.6245728775971
 31
0.0
  0
LINE
  5
257
102
{ACAD_REACTORS
330
331
330
331
102
}
330
6D
100
AcDbEntity
  8
1
  6
Continuous
 62
     2
100
AcDbLine
 10
-77.1854950936625
 20
11.6245728775971
 30
0.0
 11
-76.33515495760889
 21
11.6245728775971
 31
0.0
  0
LINE
  5
258
102
{ACAD_REACTORS
330
331
330
331
102
}
330
6D
100
AcDbEntity
  8
1
  6
Continuous
 62
     2
100
AcDbLine
 10
-76.33515495760889
 20
11.6245728775971
 30
0.0
 11
-76.33515495760889
 21
12.64498104086451
 31
0.0
  0
LINE
  5
259
102
{ACAD_REACTORS
330
331
330
331
102
}
330
6D
100
AcDbEntity
  8
1
  6
Continuous
 62
     2
100
AcDbLine
 10
-76.33515495760889
 20
12.64498104086451
 30
0.0
 11
-75.4508012161116
 21
11.6245728775971
 31
0.0
  0
LINE
  5
25A
102
{ACAD_REACTORS
330
331
330
331
102
}
330
6D
100
AcDbEntity
  8
1
  6
Continuous
 62
     2
100
AcDbLine
 10
-75.4508012161116
 20
11.6245728775971
 30
0.0
 11
-74.60046108005801
 21
11.6245728775971
 31
0.0
  0
LINE
  5
25B
102
{ACAD_REACTORS
330
331
330
331
102
}
330
6D
100
AcDbEntity
  8
1
  6
Continuous
 62
     2
100
AcDbLine
 10
-74.60046108005801
 20
11.6245728775971
 30
0.0
 11
-74.60046108005801
 21
14.0055252585511
 31
0.0
  0
LINE
  5
25C
102
{ACAD_REACTORS
330
332
330
332
102
}
330
6D
100
AcDbEntity
  8
1
  6
Continuous
 62
     2
100
AcDbLine
 10
-83.8399168623696
 20
14.0055252585511
 30
0.0
 11
-82.98957672631519
 21
14.0055252585511
 31
0.0
  0
LINE
  5
25D
102
{ACAD_REACTORS
330
332
330
332
102
}
330
6D
100
AcDbEntity
  8
1
  6
Continuous
 62
     2
100
AcDbLine
 10
-83.8399168623696
 20
14.0055252585511
 30
0.0
 11
-83.8399168623696
 21
11.6245728775971
 31
0.0
  0
LINE
  5
25E
102
{ACAD_REACTORS
330
332
330
332
102
}
330
6D
100
AcDbEntity
  8
1
  6
Continuous
 62
     2
100
AcDbLine
 10
-82.98957672631519
 20
11.6245728775971
 30
0.0
 11
-83.8399168623696
 21
11.6245728775971
 31
0.0
  0
LINE
  5
25F
102
{ACAD_REACTORS
330
332
330
332
102
}
330
6D
100
AcDbEntity
  8
1
  6
Continuous
 62
     2
100
AcDbLine
 10
-82.98957672631519
 20
12.50892661909572
 30
0.0
 11
-82.98957672631519
 21
11.6245728775971
 31
0.0
  0
LINE
  5
260
102
{ACAD_REACTORS
330
332
330
332
102
}
330
6D
100
AcDbEntity
  8
1
  6
Continuous
 62
     2
100
AcDbLine
 10
-82.2412774065877
 20
12.50892661909572
 30
0.0
 11
-82.98957672631519
 21
12.50892661909572
 31
0.0
  0
LINE
  5
261
102
{ACAD_REACTORS
330
332
330
332
102
}
330
6D
100
AcDbEntity
  8
1
  6
Continuous
 62
     2
100
AcDbLine
 10
-82.2412774065877
 20
11.6245728775971
 30
0.0
 11
-82.2412774065877
 21
12.50892661909572
 31
0.0
  0
LINE
  5
262
102
{ACAD_REACTORS
330
332
330
332
102
}
330
6D
100
AcDbEntity
  8
1
  6
Continuous
 62
     2
100
AcDbLine
 10
-81.39093727053279
 20
11.6245728775971
 30
0.0
 11
-82.2412774065877
 21
11.6245728775971
 31
0.0
  0
LINE
  5
263
102
{ACAD_REACTORS
330
332
330
332
102
}
330
6D
100
AcDbEntity
  8
1
  6
Continuous
 62
     2
100
AcDbLine
 10
-81.39093727053279
 20
14.0055252585511
 30
0.0
 11
-81.39093727053279
 21
11.6245728775971
 31
0.0
  0
LINE
  5
264
102
{ACAD_REACTORS
330
332
330
332
102
}
330
6D
100
AcDbEntity
  8
1
  6
Continuous
 62
     2
100
AcDbLine
 10
-82.2412774065877
 20
14.0055252585511
 30
0.0
 11
-81.39093727053279
 21
14.0055252585511
 31
0.0
  0
LINE
  5
265
102
{ACAD_REACTORS
330
332
330
332
102
}
330
6D
100
AcDbEntity
  8
1
  6
Continuous
 62
     2
100
AcDbLine
 10
-82.2412774065877
 20
13.17219192521631
 30
0.0
 11
-82.2412774065877
 21
14.0055252585511
 31
0.0
  0
LINE
  5
266
102
{ACAD_REACTORS
330
332
330
332
102
}
330
6D
100
AcDbEntity
  8
1
  6
Continuous
 62
     2
100
AcDbLine
 10
-82.98957672631519
 20
13.17219192521631
 30
0.0
 11
-82.2412774065877
 21
13.17219192521631
 31
0.0
  0
LINE
  5
267
102
{ACAD_REACTORS
330
332
330
332
102
}
330
6D
100
AcDbEntity
  8
1
  6
Continuous
 62
     2
100
AcDbLine
 10
-82.98957672631519
 20
14.0055252585511
 30
0.0
 11
-82.98957672631519
 21
13.17219192521631
 31
0.0
  0
LINE
  5
268
330
6D
100
AcDbEntity
  8
1
  6
Continuous
 62
     7
100
AcDbLine
 10
3.53141827662705
 20
24.10552525855709
 30
0.0
 11
-33.16858172337258
 21
24.10552525855696
 31
0.0
  0
LINE
  5
269
330
6D
100
AcDbEntity
  8
1
  6
Continuous
 62
     7
100
AcDbLine
 10
-33.16858172337258
 20
19.85552525855698
 30
0.0
 11
-14.66858172337296
 21
19.85552525855698
 31
0.0
  0
LINE
  5
26A
330
6D
100
AcDbEntity
  8
1
  6
Continuous
 62
     7
100
AcDbLine
 10
-33.16858172337258
 20
19.85552525855698
 30
0.0
 11
-33.16858172337258
 21
11.35552525855698
 31
0.0
  0
LINE
  5
26B
330
6D
100
AcDbEntity
  8
1
  6
Continuous
 62
     6
100
AcDbLine
 10
-215.4685817233751
 20
2.85552525855698
 30
0.0
 11
-221.6685817233731
 21
2.85552525855709
 31
0.0
  0
LINE
  5
26C
330
6D
100
AcDbEntity
  8
1
  6
Continuous
 62
     6
100
AcDbLine
 10
-221.6685817233731
 20
28.35552525855698
 30
0.0
 11
-221.6685817233731
 21
32.60552525855698
 31
0.0
  0
LINE
  5
26D
330
6D
100
AcDbEntity
  8
1
  6
Continuous
 62
     6
100
AcDbLine
 10
-221.6685817233731
 20
24.10552525855698
 30
0.0
 11
-221.6685817233731
 21
28.35552525855698
 31
0.0
  0
LINE
  5
26E
330
6D
100
AcDbEntity
  8
1
  6
Continuous
 62
     6
100
AcDbLine
 10
-221.6685817233731
 20
19.85552525855698
 30
0.0
 11
-221.6685817233731
 21
24.10552525855698
 31
0.0
  0
LINE
  5
26F
330
6D
100
AcDbEntity
  8
1
  6
Continuous
 62
     6
100
AcDbLine
 10
-221.6685817233731
 20
11.35552525855698
 30
0.0
 11
-221.6685817233731
 21
15.60552525855698
 31
0.0
  0
LINE
  5
270
330
6D
100
AcDbEntity
  8
1
  6
Continuous
 62
     6
100
AcDbLine
 10
-139.7133862501249
 20
32.60552525855698
 30
0.0
 11
-201.9685817233751
 21
32.60552525855698
 31
0.0
  0
LINE
  5
271
330
6D
100
AcDbEntity
  8
1
  6
Continuous
 62
     2
100
AcDbLine
 10
-201.9685817233751
 20
28.35552525855698
 30
0.0
 11
-139.7133862501249
 21
28.35552525855698
 31
0.0
  0
LINE
  5
272
330
6D
100
AcDbEntity
  8
1
  6
Continuous
 62
     2
100
AcDbLine
 10
-201.9685817233751
 20
24.10552525855698
 30
0.0
 11
-139.7133862501249
 21
24.10552525855698
 31
0.0
  0
LINE
  5
273
330
6D
100
AcDbEntity
  8
1
  6
Continuous
 62
     6
100
AcDbLine
 10
-62.81338625012497
 20
2.85552525855698
 30
0.0
 11
-63.16858172337496
 21
2.85552525855709
 31
0.0
  0
LINE
  5
274
330
6D
100
AcDbEntity
  8
1
  6
Continuous
 62
     7
100
AcDbLine
 10
-76.31338625012498
 20
24.10552525855698
 30
0.0
 11
-62.81338625012497
 21
24.10552525855698
 31
0.0
  0
LINE
  5
275
330
6D
100
AcDbEntity
  8
1
  6
Continuous
 62
     7
100
AcDbLine
 10
-39.91338625012494
 20
24.10552525855692
 30
0.0
 11
-62.81338625012497
 21
24.10552525855698
 31
0.0
  0
LINE
  5
276
330
6D
100
AcDbEntity
  8
1
  6
Continuous
 62
     6
100
AcDbLine
 10
30.33141827662684
 20
19.85552525855698
 30
0.0
 11
30.33141827662635
 21
11.35552525855698
 31
0.0
  0
LINE
  5
277
330
6D
100
AcDbEntity
  8
1
  6
Continuous
 62
     6
100
AcDbLine
 10
-112.713386250125
 20
2.85552525855698
 30
0.0
 11
-99.21338625012487
 21
2.85552525855698
 31
0.0
  0
LINE
  5
278
330
6D
100
AcDbEntity
  8
1
  6
Continuous
 62
     2
100
AcDbLine
 10
-112.713386250125
 20
11.35552525855698
 30
0.0
 11
-112.713386250125
 21
7.10552525855709
 31
0.0
  0
LINE
  5
279
330
6D
100
AcDbEntity
  8
1
  6
Continuous
 62
     2
100
AcDbLine
 10
-112.713386250125
 20
11.35552525855698
 30
0.0
 11
-126.2133862501249
 21
11.35552525855698
 31
0.0
  0
LINE
  5
27A
330
6D
100
AcDbEntity
  8
1
  6
Continuous
 62
     2
100
AcDbLine
 10
-112.713386250125
 20
7.10552525855709
 30
0.0
 11
-112.713386250125
 21
2.85552525855698
 31
0.0
  0
LINE
  5
27B
330
6D
100
AcDbEntity
  8
1
  6
Continuous
 62
     7
100
AcDbLine
 10
-112.713386250125
 20
7.10552525855709
 30
0.0
 11
-99.21338625012487
 21
7.10552525855709
 31
0.0
  0
LINE
  5
27C
330
6D
100
AcDbEntity
  8
1
  6
Continuous
 62
     2
100
AcDbLine
 10
-112.713386250125
 20
19.85552525855698
 30
0.0
 11
-112.713386250125
 21
15.60552525855698
 31
0.0
  0
LINE
  5
27D
330
6D
100
AcDbEntity
  8
1
  6
Continuous
 62
     2
100
AcDbLine
 10
-112.713386250125
 20
19.85552525855698
 30
0.0
 11
-126.2133862501249
 21
19.85552525855698
 31
0.0
  0
LINE
  5
27E
330
6D
100
AcDbEntity
  8
1
  6
Continuous
 62
     2
100
AcDbLine
 10
-112.713386250125
 20
24.10552525855698
 30
0.0
 11
-112.713386250125
 21
19.85552525855698
 31
0.0
  0
LINE
  5
27F
330
6D
100
AcDbEntity
  8
1
  6
Continuous
 62
     2
100
AcDbLine
 10
-112.713386250125
 20
24.10552525855698
 30
0.0
 11
-126.2133862501249
 21
24.10552525855698
 31
0.0
  0
LINE
  5
280
330
6D
100
AcDbEntity
  8
1
  6
Continuous
 62
     2
100
AcDbLine
 10
-112.713386250125
 20
28.35552525855698
 30
0.0
 11
-112.713386250125
 21
24.10552525855698
 31
0.0
  0
LINE
  5
281
330
6D
100
AcDbEntity
  8
1
  6
Continuous
 62
     2
100
AcDbLine
 10
-112.713386250125
 20
28.35552525855698
 30
0.0
 11
-126.2133862501249
 21
28.35552525855698
 31
0.0
  0
LINE
  5
282
330
6D
100
AcDbEntity
  8
1
  6
Continuous
 62
     2
100
AcDbLine
 10
-112.713386250125
 20
15.60552525855698
 30
0.0
 11
-112.713386250125
 21
11.35552525855698
 31
0.0
  0
LINE
  5
283
330
6D
100
AcDbEntity
  8
1
  6
Continuous
 62
     2
100
AcDbLine
 10
-112.713386250125
 20
15.60552525855698
 30
0.0
 11
-126.2133862501249
 21
15.60552525855698
 31
0.0
  0
LINE
  5
284
330
6D
100
AcDbEntity
  8
1
  6
Continuous
 62
     6
100
AcDbLine
 10
-126.2133862501249
 20
2.85552525855698
 30
0.0
 11
-113.168581723375
 21
2.85552525855709
 31
0.0
  0
LINE
  5
285
330
6D
100
AcDbEntity
  8
1
  6
Continuous
 62
     2
100
AcDbLine
 10
-126.2133862501249
 20
11.35552525855698
 30
0.0
 11
-126.2133862501249
 21
7.10552525855709
 31
0.0
  0
LINE
  5
286
330
6D
100
AcDbEntity
  8
1
  6
Continuous
 62
     2
100
AcDbLine
 10
-126.2133862501249
 20
11.35552525855698
 30
0.0
 11
-139.7133862501249
 21
11.35552525855698
 31
0.0
  0
LINE
  5
287
330
6D
100
AcDbEntity
  8
1
  6
Continuous
 62
     2
100
AcDbLine
 10
-126.2133862501249
 20
7.10552525855709
 30
0.0
 11
-126.2133862501249
 21
2.85552525855698
 31
0.0
  0
LINE
  5
288
330
6D
100
AcDbEntity
  8
1
  6
Continuous
 62
     7
100
AcDbLine
 10
-126.2133862501249
 20
7.10552525855709
 30
0.0
 11
-112.713386250125
 21
7.10552525855709
 31
0.0
  0
LINE
  5
289
330
6D
100
AcDbEntity
  8
1
  6
Continuous
 62
     2
100
AcDbLine
 10
-126.2133862501249
 20
19.85552525855698
 30
0.0
 11
-126.2133862501249
 21
15.60552525855698
 31
0.0
  0
LINE
  5
28A
330
6D
100
AcDbEntity
  8
1
  6
Continuous
 62
     2
100
AcDbLine
 10
-126.2133862501249
 20
19.85552525855698
 30
0.0
 11
-139.7133862501249
 21
19.85552525855698
 31
0.0
  0
LINE
  5
28B
330
6D
100
AcDbEntity
  8
1
  6
Continuous
 62
     2
100
AcDbLine
 10
-126.2133862501249
 20
24.10552525855698
 30
0.0
 11
-126.2133862501249
 21
19.85552525855698
 31
0.0
  0
LINE
  5
28C
330
6D
100
AcDbEntity
  8
1
  6
Continuous
 62
     2
100
AcDbLine
 10
-126.2133862501249
 20
24.10552525855698
 30
0.0
 11
-139.7133862501249
 21
24.10552525855698
 31
0.0
  0
LINE
  5
28D
330
6D
100
AcDbEntity
  8
1
  6
Continuous
 62
     2
100
AcDbLine
 10
-126.2133862501249
 20
28.35552525855698
 30
0.0
 11
-126.2133862501249
 21
24.10552525855698
 31
0.0
  0
LINE
  5
28E
330
6D
100
AcDbEntity
  8
1
  6
Continuous
 62
     2
100
AcDbLine
 10
-126.2133862501249
 20
28.35552525855698
 30
0.0
 11
-139.7133862501249
 21
28.35552525855698
 31
0.0
  0
LINE
  5
28F
330
6D
100
AcDbEntity
  8
1
  6
Continuous
 62
     2
100
AcDbLine
 10
-126.2133862501249
 20
15.60552525855698
 30
0.0
 11
-126.2133862501249
 21
11.35552525855698
 31
0.0
  0
LINE
  5
290
330
6D
100
AcDbEntity
  8
1
  6
Continuous
 62
     2
100
AcDbLine
 10
-126.2133862501249
 20
15.60552525855698
 30
0.0
 11
-139.7133862501249
 21
15.60552525855698
 31
0.0
  0
LINE
  5
291
330
6D
100
AcDbEntity
  8
1
  6
Continuous
 62
     6
100
AcDbLine
 10
-139.7133862501249
 20
2.85552525855698
 30
0.0
 11
-126.2133862501249
 21
2.85552525855698
 31
0.0
  0
LINE
  5
292
330
6D
100
AcDbEntity
  8
1
  6
Continuous
 62
     2
100
AcDbLine
 10
-139.7133862501249
 20
11.35552525855698
 30
0.0
 11
-139.7133862501249
 21
7.10552525855709
 31
0.0
  0
LINE
  5
293
330
6D
100
AcDbEntity
  8
1
  6
Continuous
 62
     2
100
AcDbLine
 10
-139.7133862501249
 20
11.35552525855698
 30
0.0
 11
-201.9685817233751
 21
11.35552525855698
 31
0.0
  0
LINE
  5
294
330
6D
100
AcDbEntity
  8
1
  6
Continuous
 62
     2
100
AcDbLine
 10
-139.7133862501249
 20
7.10552525855709
 30
0.0
 11
-139.7133862501249
 21
2.85552525855698
 31
0.0
  0
LINE
  5
295
330
6D
100
AcDbEntity
  8
1
  6
Continuous
 62
     7
100
AcDbLine
 10
-139.7133862501249
 20
7.10552525855709
 30
0.0
 11
-126.2133862501249
 21
7.10552525855709
 31
0.0
  0
LINE
  5
296
330
6D
100
AcDbEntity
  8
1
  6
Continuous
 62
     2
100
AcDbLine
 10
-139.7133862501249
 20
19.85552525855698
 30
0.0
 11
-139.7133862501249
 21
15.60552525855698
 31
0.0
  0
LINE
  5
297
330
6D
100
AcDbEntity
  8
1
  6
Continuous
 62
     2
100
AcDbLine
 10
-139.7133862501249
 20
19.85552525855698
 30
0.0
 11
-201.9685817233751
 21
19.85552525855698
 31
0.0
  0
LINE
  5
298
330
6D
100
AcDbEntity
  8
1
  6
Continuous
 62
     2
100
AcDbLine
 10
-139.7133862501249
 20
24.10552525855698
 30
0.0
 11
-139.7133862501249
 21
19.85552525855698
 31
0.0
  0
LINE
  5
299
330
6D
100
AcDbEntity
  8
1
  6
Continuous
 62
     2
100
AcDbLine
 10
-139.7133862501249
 20
28.35552525855698
 30
0.0
 11
-139.7133862501249
 21
24.10552525855698
 31
0.0
  0
LINE
  5
29A
330
6D
100
AcDbEntity
  8
1
  6
Continuous
 62
     2
100
AcDbLine
 10
-139.7133862501249
 20
15.60552525855698
 30
0.0
 11
-139.7133862501249
 21
11.35552525855698
 31
0.0
  0
LINE
  5
29B
330
6D
100
AcDbEntity
  8
1
  6
Continuous
 62
     2
100
AcDbLine
 10
-139.7133862501249
 20
15.60552525855698
 30
0.0
 11
-201.9685817233751
 21
15.60552525855698
 31
0.0
  0
LINE
  5
29C
330
6D
100
AcDbEntity
  8
1
  6
Continuous
 62
     7
100
AcDbLine
 10
-89.81338625012489
 20
19.85552525855709
 30
0.0
 11
-99.21338625012487
 21
19.85552525855698
 31
0.0
  0
LINE
  5
29D
330
6D
100
AcDbEntity
  8
1
  6
Continuous
 62
     6
100
AcDbLine
 10
-89.81338625012489
 20
32.60552525855698
 30
0.0
 11
-99.21338625012487
 21
32.60552525855698
 31
0.0
  0
LINE
  5
29E
330
6D
100
AcDbEntity
  8
1
  6
Continuous
 62
     7
100
AcDbLine
 10
-99.21338625012487
 20
28.35552525855698
 30
0.0
 11
-89.81338625012489
 21
28.35552525855698
 31
0.0
  0
LINE
  5
29F
330
6D
100
AcDbEntity
  8
1
  6
Continuous
 62
     6
100
AcDbLine
 10
-221.6685817233731
 20
15.60552525855698
 30
0.0
 11
-221.6685817233731
 21
19.85552525855698
 31
0.0
  0
LINE
  5
2A0
330
6D
100
AcDbEntity
  8
1
  6
Continuous
 62
     6
100
AcDbLine
 10
30.33141827662675
 20
32.60552525855698
 30
0.0
 11
30.33141827662584
 21
24.10552525855698
 31
0.0
  0
LINE
  5
2A1
330
6D
100
AcDbEntity
  8
1
  6
Continuous
 62
     6
100
AcDbLine
 10
-221.6685817233731
 20
2.85552525855709
 30
0.0
 11
-256.668581723373
 21
2.85552525855709
 31
0.0
  0
LINE
  5
2A2
330
6D
100
AcDbEntity
  8
1
  6
Continuous
 62
     2
100
AcDbLine
 10
-90.9331171156096
 20
19.23052525855698
 30
0.0
 11
-86.9331171156096
 21
18.73052525855698
 31
0.0
  0
LINE
  5
2A3
330
6D
100
AcDbEntity
  8
1
  6
Continuous
 62
     2
100
AcDbLine
 10
-86.9331171156096
 20
18.73052525855698
 30
0.0
 11
-86.9331171156096
 21
16.73052525855698
 31
0.0
  0
LINE
  5
2A4
330
6D
100
AcDbEntity
  8
1
  6
Continuous
 62
     2
100
AcDbLine
 10
-86.9331171156096
 20
16.73052525855698
 30
0.0
 11
-90.9331171156096
 21
16.23052525855698
 31
0.0
  0
LINE
  5
2A5
330
6D
100
AcDbEntity
  8
1
  6
Continuous
 62
     2
100
AcDbLine
 10
-90.9331171156096
 20
16.23052525855698
 30
0.0
 11
-90.9331171156096
 21
19.23052525855698
 31
0.0
  0
LINE
  5
2A6
330
6D
100
AcDbEntity
  8
1
  6
Continuous
 62
     7
100
AcDbLine
 10
-33.16858172337258
 20
24.10552525855696
 30
0.0
 11
-39.91338625012494
 21
24.10552525855692
 31
0.0
  0
LINE
  5
2A7
330
6D
100
AcDbEntity
  8
1
  6
Continuous
 62
     7
100
AcDbLine
 10
-33.16858172337258
 20
19.85552525855698
 30
0.0
 11
-31.16858172337258
 21
19.85552525855698
 31
0.0
  0
LINE
  5
2A8
330
6D
100
AcDbEntity
  8
1
  6
Continuous
 62
     2
100
AcDbLine
 10
1.76615496141403
 20
18.30530597952422
 30
0.0
 11
1.76615496141403
 21
16.24791001467072
 31
0.0
  0
ARC
  5
2A9
330
6D
100
AcDbEntity
  8
1
  6
Continuous
 62
     2
100
AcDbCircle
 10
-72.2172605073603
 20
9.88057366310622
 30
0.0
 40
1.206350288026001
100
AcDbArc
 50
91.6119598515516
 51
216.1353968693287
  0
ARC
  5
2AA
330
6D
100
AcDbEntity
  8
1
  6
Continuous
 62
     2
100
AcDbCircle
 10
-72.2418172126111
 20
9.90498303367312
 30
0.0
 40
1.201398482875463
100
AcDbArc
 50
217.7663890934392
 51
250.482095160258
  0
ARC
  5
2AB
102
{ACAD_REACTORS
330
333
330
333
102
}
330
6D
100
AcDbEntity
  8
1
  6
Continuous
 62
     2
100
AcDbCircle
 10
-82.9216154202681
 20
9.89600144903992
 30
0.0
 40
1.190476190477112
100
AcDbArc
 50
90.0
 51
270.0
  0
ARC
  5
2AC
102
{ACAD_REACTORS
330
333
330
333
102
}
330
6D
100
AcDbEntity
  8
1
  6
Continuous
 62
     2
100
AcDbCircle
 10
-82.8195746039408
 20
9.89600144903992
 30
0.0
 40
1.190476190477
100
AcDbArc
 50
270.0
 51
90.0
  0
ARC
  5
2AD
102
{ACAD_REACTORS
330
334
330
334
102
}
330
6D
100
AcDbEntity
  8
1
  6
Continuous
 62
     2
100
AcDbCircle
 10
-79.798464111633
 20
12.81504906807422
 30
0.0
 40
1.190476190476879
100
AcDbArc
 50
90.0
 51
270.0
  0
ARC
  5
2AE
102
{ACAD_REACTORS
330
336
330
336
102
}
330
6D
100
AcDbEntity
  8
1
  6
Continuous
 62
     2
100
AcDbCircle
 10
-89.14229781475049
 20
11.72589562892651
 30
0.0
 40
1.731481481474422
100
AcDbArc
 50
270.0
 51
90.0
  0
ARC
  5
2AF
102
{ACAD_REACTORS
330
336
330
336
102
}
330
6D
100
AcDbEntity
  8
1
  6
Continuous
 62
     2
100
AcDbCircle
 10
-89.6515570740086
 20
11.72589562892651
 30
0.0
 40
0.8148148148132894
100
AcDbArc
 50
295.7192795021669
 51
64.2807204979753
  0
ARC
  5
2B0
102
{ACAD_REACTORS
330
336
330
336
102
}
330
6D
100
AcDbEntity
  8
1
  6
Continuous
 62
     2
100
AcDbCircle
 10
-89.6515570740086
 20
11.72589562892651
 30
0.0
 40
0.8148148148137929
100
AcDbArc
 50
115.7192795022131
 51
244.2807204978133
  0
ARC
  5
2B1
102
{ACAD_REACTORS
330
335
330
335
102
}
330
6D
100
AcDbEntity
  8
1
  6
Continuous
 62
     2
100
AcDbCircle
 10
-85.3320688707031
 20
13.21340794207353
 30
0.0
 40
0.2751160335811296
100
AcDbArc
 50
270.0
 51
90.0
  0
ARC
  5
2B2
102
{ACAD_REACTORS
330
335
330
335
102
}
330
6D
100
AcDbEntity
  8
1
  6
Continuous
 62
     2
100
AcDbCircle
 10
-85.0699150463901
 20
13.1826922308459
 30
0.0
 40
0.8280239484092047
100
AcDbArc
 50
276.4189726355862
 51
83.58102736441383
  0
CIRCLE
  5
2B3
102
{ACAD_REACTORS
330
336
330
336
102
}
330
6D
100
AcDbEntity
  8
1
  6
Continuous
 62
     2
100
AcDbCircle
 10
-89.6515570740086
 20
11.72589562892651
 30
0.0
 40
0.4074074074073053
  0
CIRCLE
  5
2B4
330
6D
100
AcDbEntity
  8
1
  6
Continuous
 62
     2
100
AcDbCircle
 10
-94.1211264250216
 20
17.73052525855698
 30
0.0
 40
1.0
  0
CIRCLE
  5
2B5
330
6D
100
AcDbEntity
  8
1
  6
Continuous
 62
     2
100
AcDbCircle
 10
-94.1211264250216
 20
17.73052525855698
 30
0.0
 40
1.5
  0
ARC
  5
2B6
102
{ACAD_REACTORS
330
336
330
336
102
}
330
6D
100
AcDbEntity
  8
1
  6
Continuous
 62
     2
100
AcDbCircle
 10
-89.1830385554909
 20
10.25922896225663
 30
0.0
 40
0.2648148148142013
100
AcDbArc
 50
180.0
 51
270.0
  0
ARC
  5
2B7
102
{ACAD_REACTORS
330
336
330
336
102
}
330
6D
100
AcDbEntity
  8
1
  6
Continuous
 62
     2
100
AcDbCircle
 10
-89.1830385554909
 20
13.1925622956056
 30
0.0
 40
0.2648148148090801
100
AcDbArc
 50
90.0
 51
180.0
  0
ARC
  5
2B8
102
{ACAD_REACTORS
330
336
330
336
102
}
330
6D
100
AcDbEntity
  8
1
  6
Continuous
 62
     2
100
AcDbCircle
 10
-89.1830385554909
 20
12.6985674826324
 30
0.0
 40
0.2648148148142013
100
AcDbArc
 50
180.0
 51
244.2807204980797
  0
ARC
  5
2B9
102
{ACAD_REACTORS
330
336
330
336
102
}
330
6D
100
AcDbEntity
  8
1
  6
Continuous
 62
     2
100
AcDbCircle
 10
-89.1830385554909
 20
10.75322377522079
 30
0.0
 40
0.2648148148214936
100
AcDbArc
 50
115.7192795014989
 51
180.0
  0
ARC
  5
2BA
102
{ACAD_REACTORS
330
336
330
336
102
}
330
6D
100
AcDbEntity
  8
1
  6
Continuous
 62
     2
100
AcDbCircle
 10
-91.423779296232
 20
13.1925622956056
 30
0.0
 40
0.2648148148090801
100
AcDbArc
 50
90.0
 51
180.0
  0
ARC
  5
2BB
102
{ACAD_REACTORS
330
336
330
336
102
}
330
6D
100
AcDbEntity
  8
1
  6
Continuous
 62
     2
100
AcDbCircle
 10
-91.423779296232
 20
9.44441414744469
 30
0.0
 40
0.2648148148140024
100
AcDbArc
 50
180.0
 51
270.0
  0
ARC
  5
2BC
102
{ACAD_REACTORS
330
336
330
336
102
}
330
6D
100
AcDbEntity
  8
1
  6
Continuous
 62
     2
100
AcDbCircle
 10
-90.1200755925276
 20
9.44441414744469
 30
0.0
 40
0.2648148148045895
100
AcDbArc
 50
270.0
 51
0.0
  0
ARC
  5
2BD
102
{ACAD_REACTORS
330
336
330
336
102
}
330
6D
100
AcDbEntity
  8
1
  6
Continuous
 62
     2
100
AcDbCircle
 10
-90.1200755925276
 20
10.75322377522079
 30
0.0
 40
0.2648148148150966
100
AcDbArc
 50
0.00000000192975
 51
64.28072049830722
  0
ARC
  5
2BE
102
{ACAD_REACTORS
330
336
330
336
102
}
330
6D
100
AcDbEntity
  8
1
  6
Continuous
 62
     2
100
AcDbCircle
 10
-90.1200755925276
 20
12.6985674826324
 30
0.0
 40
0.2648148148217111
100
AcDbArc
 50
295.7192795015957
 51
0.0
  0
ARC
  5
2BF
102
{ACAD_REACTORS
330
336
330
336
102
}
330
6D
100
AcDbEntity
  8
1
  6
Continuous
 62
     2
100
AcDbCircle
 10
-90.1200755925276
 20
13.1925622956056
 30
0.0
 40
0.2648148148150966
100
AcDbArc
 50
359.9999999980076
 51
90.0
  0
ARC
  5
2C0
102
{ACAD_REACTORS
330
336
330
336
102
}
330
6D
100
AcDbEntity
  8
1
  6
Continuous
 62
     2
100
AcDbCircle
 10
-91.8256311480829
 20
13.67219192521813
 30
0.0
 40
0.3333333333329698
100
AcDbArc
 50
90.0
 51
180.0
  0
ARC
  5
2C1
102
{ACAD_REACTORS
330
336
330
336
102
}
330
6D
100
AcDbEntity
  8
1
  6
Continuous
 62
     2
100
AcDbCircle
 10
-91.8256311480829
 20
9.03885859189589
 30
0.0
 40
0.3333333333335986
100
AcDbArc
 50
180.0
 51
270.0
  0
ARC
  5
2C2
102
{ACAD_REACTORS
330
336
330
336
102
}
330
6D
100
AcDbEntity
  8
1
  6
Continuous
 62
     2
100
AcDbCircle
 10
-87.2922978147496
 20
9.03885859189589
 30
0.0
 40
0.3333333333329698
100
AcDbArc
 50
270.0
 51
0.0
  0
ARC
  5
2C3
102
{ACAD_REACTORS
330
336
330
336
102
}
330
6D
100
AcDbEntity
  8
1
  6
Continuous
 62
     2
100
AcDbCircle
 10
-87.2922978147496
 20
13.67219192521813
 30
0.0
 40
0.3333333333327033
100
AcDbArc
 50
0.0
 51
90.0
  0
MTEXT
  5
2C5
330
6D
100
AcDbEntity
  8
1
 62
     2
100
AcDbMText
 10
-61.71338625012496
 20
22.18052525855697
 30
0.0
 40
1.4
 41
0.0
 71
     4
 72
     1
  1
SAP\Pchange-No.
  7
CONVERTER_12
 73
     1
 44
0.66026410564226
  0
MTEXT
  5
2C6
330
6D
100
AcDbEntity
  8
1
 62
     3
100
AcDbMText
 10
-52.48114943201007
 20
21.98052525855697
 30
0.0
 40
2.5
 41
0.0
 71
     4
 72
     1
  1
MIG-020019
  7
CONVERTER_12
 73
     1
 44
1.20048019207683
  0
TEXT
  5
2C8
330
6D
100
AcDbEntity
  8
1
 62
     3
100
AcDbText
 10
-61.71338625012504
 20
34.90029683216123
 30
0.0
 40
2.5
  1
 
 41
0.72
  7
CONVERTER_13
100
AcDbText
  0
TEXT
  5
2C9
330
6D
100
AcDbEntity
  8
1
 62
     3
100
AcDbText
 10
-61.71338625012504
 20
38.40029683216123
 30
0.0
 40
2.5
  1
 
 41
0.72
  7
CONVERTER_13
100
AcDbText
  0
TEXT
  5
2CA
330
6D
100
AcDbEntity
  8
1
 62
     3
100
AcDbText
 10
-61.71338625012504
 20
41.90029683216123
 30
0.0
 40
2.5
  1
 
 41
0.72
  7
CONVERTER_13
100
AcDbText
  0
MTEXT
  5
2CC
330
6D
100
AcDbEntity
  8
1
 62
     2
100
AcDbMText
 10
-200.9685817233751
 20
9.23052525855709
 30
0.0
 40
2.0
 41
0.0
 71
     4
 72
     1
  1
 
  7
CONVERTER_14
 73
     1
 44
1.20048019207683
  0
MTEXT
  5
2CD
330
6D
100
AcDbEntity
  8
1
 62
     2
100
AcDbMText
 10
-200.9685817233751
 20
13.48052525855698
 30
0.0
 40
2.0
 41
0.0
 71
     4
 72
     1
  1
 
  7
CONVERTER_14
 73
     1
 44
1.20048019207683
  0
MTEXT
  5
2CE
330
6D
100
AcDbEntity
  8
1
 62
     2
100
AcDbMText
 10
-200.9685817233751
 20
17.73052525855698
 30
0.0
 40
2.0
 41
0.0
 71
     4
 72
     1
  1
 
  7
CONVERTER_14
 73
     1
 44
1.20048019207683
  0
MTEXT
  5
2CF
330
6D
100
AcDbEntity
  8
1
 62
     2
100
AcDbMText
 10
-200.9685817233751
 20
21.98052525855698
 30
0.0
 40
2.0
 41
0.0
 71
     4
 72
     1
  1
 
  7
CONVERTER_14
 73
     1
 44
1.20048019207683
  0
MTEXT
  5
2D0
330
6D
100
AcDbEntity
  8
1
 62
     2
100
AcDbMText
 10
-200.9685817233751
 20
26.23052525855698
 30
0.0
 40
2.0
 41
0.0
 71
     4
 72
     1
  1
 
  7
CONVERTER_14
 73
     1
 44
1.20048019207683
  0
MTEXT
  5
2D1
330
6D
100
AcDbEntity
  8
1
 62
     2
100
AcDbMText
 10
-200.9685817233751
 20
30.48052525855698
 30
0.0
 40
2.0
 41
0.0
 71
     4
 72
     1
  1
 
  7
CONVERTER_14
 73
     1
 44
1.20048019207683
  0
MTEXT
  5
2D2
330
6D
100
AcDbEntity
  8
1
 62
     2
100
AcDbMText
 10
-105.9633862501249
 20
9.23052525855709
 30
0.0
 40
2.0
 41
0.0
 71
     5
 72
     1
  1
 
  7
CONVERTER_11
 73
     1
 44
1.20048019207683
  0
MTEXT
  5
2D3
330
6D
100
AcDbEntity
  8
1
 62
     2
100
AcDbMText
 10
-105.9633862501249
 20
13.48052525855698
 30
0.0
 40
2.0
 41
0.0
 71
     5
 72
     1
  1
 
  7
CONVERTER_11
 73
     1
 44
1.20048019207683
  0
MTEXT
  5
2D4
330
6D
100
AcDbEntity
  8
1
 62
     2
100
AcDbMText
 10
-105.9633862501249
 20
17.73052525855698
 30
0.0
 40
2.0
 41
0.0
 71
     5
 72
     1
  1
 
  7
CONVERTER_11
 73
     1
 44
1.20048019207683
  0
MTEXT
  5
2D5
330
6D
100
AcDbEntity
  8
1
 62
     2
100
AcDbMText
 10
-105.9633862501249
 20
21.98052525855698
 30
0.0
 40
2.0
 41
0.0
 71
     5
 72
     1
  1
 
  7
CONVERTER_11
 73
     1
 44
1.20048019207683
  0
MTEXT
  5
2D6
330
6D
100
AcDbEntity
  8
1
 62
     2
100
AcDbMText
 10
-105.9633862501249
 20
26.23052525855698
 30
0.0
 40
2.0
 41
0.0
 71
     5
 72
     1
  1
 
  7
CONVERTER_11
 73
     1
 44
1.20048019207683
  0
MTEXT
  5
2D7
330
6D
100
AcDbEntity
  8
1
 62
     2
100
AcDbMText
 10
-105.9633862501249
 20
30.48052525855698
 30
0.0
 40
2.0
 41
0.0
 71
     5
 72
     1
  1
 
  7
CONVERTER_11
 73
     1
 44
1.20048019207683
  0
MTEXT
  5
2D8
330
6D
100
AcDbEntity
  8
1
 62
     2
100
AcDbMText
 10
-119.463386250125
 20
9.23052525855709
 30
0.0
 40
2.0
 41
0.0
 71
     5
 72
     1
  1
 
  7
CONVERTER_11
 73
     1
 44
1.20048019207683
  0
MTEXT
  5
2D9
330
6D
100
AcDbEntity
  8
1
 62
     2
100
AcDbMText
 10
-119.463386250125
 20
13.48052525855698
 30
0.0
 40
2.0
 41
0.0
 71
     5
 72
     1
  1
 
  7
CONVERTER_11
 73
     1
 44
1.20048019207683
  0
MTEXT
  5
2DA
330
6D
100
AcDbEntity
  8
1
 62
     2
100
AcDbMText
 10
-119.463386250125
 20
17.73052525855698
 30
0.0
 40
2.0
 41
0.0
 71
     5
 72
     1
  1
 
  7
CONVERTER_11
 73
     1
 44
1.20048019207683
  0
MTEXT
  5
2DB
330
6D
100
AcDbEntity
  8
1
 62
     2
100
AcDbMText
 10
-119.463386250125
 20
21.98052525855698
 30
0.0
 40
2.0
 41
0.0
 71
     5
 72
     1
  1
 
  7
CONVERTER_11
 73
     1
 44
1.20048019207683
  0
MTEXT
  5
2DC
330
6D
100
AcDbEntity
  8
1
 62
     2
100
AcDbMText
 10
-119.463386250125
 20
26.23052525855698
 30
0.0
 40
2.0
 41
0.0
 71
     5
 72
     1
  1
 
  7
CONVERTER_11
 73
     1
 44
1.20048019207683
  0
MTEXT
  5
2DD
330
6D
100
AcDbEntity
  8
1
 62
     2
100
AcDbMText
 10
-119.463386250125
 20
30.48052525855698
 30
0.0
 40
2.0
 41
0.0
 71
     5
 72
     1
  1
 
  7
CONVERTER_11
 73
     1
 44
1.20048019207683
  0
MTEXT
  5
2DE
330
6D
100
AcDbEntity
  8
1
 62
     2
100
AcDbMText
 10
-132.9633862501249
 20
30.48052525855698
 30
0.0
 40
2.0
 41
0.0
 71
     5
 72
     1
  1
 
  7
CONVERTER_11
 73
     1
 44
1.20048019207683
  0
MTEXT
  5
2DF
330
6D
100
AcDbEntity
  8
1
 62
     2
100
AcDbMText
 10
-132.9633862501249
 20
26.23052525855698
 30
0.0
 40
2.0
 41
0.0
 71
     5
 72
     1
  1
 
  7
CONVERTER_11
 73
     1
 44
1.20048019207683
  0
MTEXT
  5
2E0
330
6D
100
AcDbEntity
  8
1
 62
     2
100
AcDbMText
 10
-132.9633862501249
 20
21.98052525855698
 30
0.0
 40
2.0
 41
0.0
 71
     5
 72
     1
  1
 
  7
CONVERTER_11
 73
     1
 44
1.20048019207683
  0
MTEXT
  5
2E1
330
6D
100
AcDbEntity
  8
1
 62
     2
100
AcDbMText
 10
-132.9633862501249
 20
17.73052525855698
 30
0.0
 40
2.0
 41
0.0
 71
     5
 72
     1
  1
 
  7
CONVERTER_11
 73
     1
 44
1.20048019207683
  0
MTEXT
  5
2E2
330
6D
100
AcDbEntity
  8
1
 62
     2
100
AcDbMText
 10
-132.9633862501249
 20
13.48052525855698
 30
0.0
 40
2.0
 41
0.0
 71
     5
 72
     1
  1
 
  7
CONVERTER_11
 73
     1
 44
1.20048019207683
  0
MTEXT
  5
2E3
330
6D
100
AcDbEntity
  8
1
 62
     2
100
AcDbMText
 10
-132.9633862501249
 20
9.23052525855709
 30
0.0
 40
2.0
 41
0.0
 71
     5
 72
     1
  1
 
  7
CONVERTER_11
 73
     1
 44
1.20048019207683
  0
MTEXT
  5
2E4
330
6D
100
AcDbEntity
  8
1
 62
     2
100
AcDbMText
 10
-208.7185817233751
 20
30.48052525855698
 30
0.0
 40
2.0
 41
0.0
 71
     5
 72
     1
  1
 
  7
CONVERTER_11
 73
     1
 44
1.20048019207683
  0
MTEXT
  5
2E5
330
6D
100
AcDbEntity
  8
1
 62
     2
100
AcDbMText
 10
-208.7185817233751
 20
26.23052525855698
 30
0.0
 40
2.0
 41
0.0
 71
     5
 72
     1
  1
 
  7
CONVERTER_11
 73
     1
 44
1.20048019207683
  0
MTEXT
  5
2E6
330
6D
100
AcDbEntity
  8
1
 62
     2
100
AcDbMText
 10
-208.7185817233751
 20
21.98052525855698
 30
0.0
 40
2.0
 41
0.0
 71
     5
 72
     1
  1
 
  7
CONVERTER_11
 73
     1
 44
1.20048019207683
  0
MTEXT
  5
2E7
330
6D
100
AcDbEntity
  8
1
 62
     2
100
AcDbMText
 10
-208.7185817233751
 20
17.73052525855698
 30
0.0
 40
2.0
 41
0.0
 71
     5
 72
     1
  1
 
  7
CONVERTER_11
 73
     1
 44
1.20048019207683
  0
MTEXT
  5
2E8
330
6D
100
AcDbEntity
  8
1
 62
     2
100
AcDbMText
 10
-208.7185817233751
 20
13.48052525855698
 30
0.0
 40
2.0
 41
0.0
 71
     5
 72
     1
  1
 
  7
CONVERTER_11
 73
     1
 44
1.20048019207683
  0
MTEXT
  5
2E9
330
6D
100
AcDbEntity
  8
1
 62
     2
100
AcDbMText
 10
-208.7185817233751
 20
9.23052525855709
 30
0.0
 40
2.0
 41
0.0
 71
     5
 72
     1
  1
 
  7
CONVERTER_11
 73
     1
 44
1.20048019207683
  0
MTEXT
  5
2EA
330
6D
100
AcDbEntity
  8
1
 62
     2
100
AcDbMText
 10
-218.5685817233741
 20
9.23052525855709
 30
0.0
 40
2.0
 41
0.0
 71
     5
 72
     1
  1
 
  7
CONVERTER_11
 73
     1
 44
1.20048019207683
  0
MTEXT
  5
2EB
330
6D
100
AcDbEntity
  8
1
 62
     2
100
AcDbMText
 10
-218.5685817233741
 20
13.48052525855698
 30
0.0
 40
2.0
 41
0.0
 71
     5
 72
     1
  1
 
  7
CONVERTER_11
 73
     1
 44
1.20048019207683
  0
MTEXT
  5
2EC
330
6D
100
AcDbEntity
  8
1
 62
     2
100
AcDbMText
 10
-218.5685817233741
 20
17.73052525855698
 30
0.0
 40
2.0
 41
0.0
 71
     5
 72
     1
  1
 
  7
CONVERTER_11
 73
     1
 44
1.20048019207683
  0
MTEXT
  5
2ED
330
6D
100
AcDbEntity
  8
1
 62
     2
100
AcDbMText
 10
-218.5685817233741
 20
21.98052525855698
 30
0.0
 40
2.0
 41
0.0
 71
     5
 72
     1
  1
 
  7
CONVERTER_11
 73
     1
 44
1.20048019207683
  0
MTEXT
  5
2EE
330
6D
100
AcDbEntity
  8
1
 62
     2
100
AcDbMText
 10
-218.5685817233741
 20
26.23052525855698
 30
0.0
 40
2.0
 41
0.0
 71
     5
 72
     1
  1
 
  7
CONVERTER_11
 73
     1
 44
1.20048019207683
  0
MTEXT
  5
2EF
330
6D
100
AcDbEntity
  8
1
 62
     2
100
AcDbMText
 10
-218.5685817233741
 20
30.48052525855698
 30
0.0
 40
2.0
 41
0.0
 71
     5
 72
     1
  1
 
  7
CONVERTER_11
 73
     1
 44
1.20048019207683
  0
MTEXT
  5
2F0
330
6D
100
AcDbEntity
  8
1
 62
     2
100
AcDbMText
 10
-32.16858172337258
 20
23.10552525855698
 30
0.0
 40
1.8
 41
0.0
 71
     1
 72
     1
  1
part-rev.
  7
CONVERTER_13
 73
     1
 44
1.20048019207683
  0
MTEXT
  5
2F1
330
6D
100
AcDbEntity
  8
1
 62
     2
100
AcDbMText
 10
-13.66858172337296
 20
18.85552525855698
 30
0.0
 40
1.8
 41
0.0
 71
     1
 72
     1
  1
surface in um
  7
CONVERTER_11
 73
     1
 44
1.32052821128451
  0
MTEXT
  5
2F2
330
6D
100
AcDbEntity
  8
1
 62
     7
100
AcDbMText
 10
32.83141827662413
 20
77.85552525855891
 30
0.0
 40
3.5
 41
0.0
 71
     5
 72
     1
  1
C
  7
CONVERTER_11
 73
     1
 44
1.20048019207683
  0
MTEXT
  5
2F3
330
6D
100
AcDbEntity
  8
1
 62
     7
100
AcDbMText
 10
32.83141827662413
 20
180.355525258557
 30
0.0
 40
3.5
 41
0.0
 71
     5
 72
     1
  1
A
  7
CONVERTER_11
 73
     1
 44
1.20048019207683
  0
MTEXT
  5
2F4
330
6D
100
AcDbEntity
  8
1
 62
     7
100
AcDbMText
 10
32.83141827662413
 20
127.8555252585589
 30
0.0
 40
3.5
 41
0.0
 71
     5
 72
     1
  1
B
  7
CONVERTER_11
 73
     1
 44
1.20048019207683
  0
MTEXT
  5
2F5
330
6D
100
AcDbEntity
  8
1
 62
     7
100
AcDbMText
 10
32.83141827662413
 20
25.35552525855698
 30
0.0
 40
3.5
 41
0.0
 71
     5
 72
     1
  1
D
  7
CONVERTER_11
 73
     1
 44
1.20048019207683
  0
MTEXT
  5
2F6
330
6D
100
AcDbEntity
  8
1
 62
     3
100
AcDbMText
 10
-256.663513937303
 20
189.6468334138558
 30
0.0
 40
1.8
 41
0.0
 71
     7
 72
     1
  3
Weitergabe sowie Vervielf\U+00e4ltigung dieses Dokuments, Verwertung und\PMitteilung seines Inhalts gem\U+00e4\U+00df \U+00a718 UWG verboten, soweit nicht aus-\Pdr\U+00fccklich gestattet. Zuwiderhandlungen verpflichten zu Schadenersatz\P(\U+00a719 U
  1
WG). Alle Rechte vorbehalten, insbesondere das Recht, Patent-,\PGebrauchsmuster- oder Geschmacksmusteranmeldungen durchzuf\U+00fchren.\PPhoenix Contact GmbH & Co. KG
  7
CONVERTER_11
 73
     1
 44
0.99639855942377
  0
MTEXT
  5
2F7
330
6D
100
AcDbEntity
  8
1
 62
     3
100
AcDbMText
 10
-83.810404098515
 20
189.6468334138558
 30
0.0
 40
1.8
 41
0.0
 71
     7
 72
     1
  3
The copying, distribution and utilistion of this document as well as the communication\Pof the contents to others without expressed authorization is prohibited according to\P\U+00a718 UWG German Law. Offenders will be held liable for the payment of 
  1
damages\Paccording to (\U+00a719 UWG German Law). All rights reserved, in particular the right to\Pcarry out patent, utility model or ornamental design registrations.\PFlachsmarktstra\U+00dfe 8  D-32825 Blomberg
  7
CONVERTER_11
 73
     1
 44
0.99639855942377
  0
MTEXT
  5
2F8
330
6D
100
AcDbEntity
  8
1
 62
     7
100
AcDbMText
 10
-237.4185817233746
 20
0.35552525855698
 30
0.0
 40
3.5
 41
0.0
 71
     5
 72
     1
  1
1
  7
CONVERTER_11
 73
     1
 44
1.20048019207683
  0
MTEXT
  5
2F9
330
6D
100
AcDbEntity
  8
1
 62
     7
100
AcDbMText
 10
-188.168581723375
 20
0.35552525855698
 30
0.0
 40
3.5
 41
0.0
 71
     5
 72
     1
  1
2
  7
CONVERTER_11
 73
     1
 44
1.20048019207683
  0
MTEXT
  5
2FA
330
6D
100
AcDbEntity
  8
1
 62
     7
100
AcDbMText
 10
-138.168581723375
 20
0.35552525855698
 30
0.0
 40
3.5
 41
0.0
 71
     5
 72
     1
  1
3
  7
CONVERTER_11
 73
     1
 44
1.20048019207683
  0
MTEXT
  5
2FB
330
6D
100
AcDbEntity
  8
1
 62
     7
100
AcDbMText
 10
-88.168581723375
 20
0.35552525855698
 30
0.0
 40
3.5
 41
0.0
 71
     5
 72
     1
  1
4
  7
CONVERTER_11
 73
     1
 44
1.20048019207683
  0
MTEXT
  5
2FC
330
6D
100
AcDbEntity
  8
1
 62
     7
100
AcDbMText
 10
-38.16858172337495
 20
0.35552525855698
 30
0.0
 40
3.5
 41
0.0
 71
     5
 72
     1
  1
5
  7
CONVERTER_11
 73
     1
 44
1.20048019207683
  0
MTEXT
  5
2FD
330
6D
100
AcDbEntity
  8
1
 62
     7
100
AcDbMText
 10
11.08141827662433
 20
0.35552525855698
 30
0.0
 40
3.5
 41
0.0
 71
     5
 72
     1
  1
6
  7
CONVERTER_11
 73
     1
 44
1.20048019207683
  0
MTEXT
  5
2FE
330
6D
100
AcDbEntity
  8
1
 62
     7
100
AcDbMText
 10
-259.168581723374
 20
180.355525258557
 30
0.0
 40
3.5
 41
0.0
 71
     5
 72
     1
  1
A
  7
CONVERTER_11
 73
     1
 44
1.20048019207683
  0
MTEXT
  5
2FF
330
6D
100
AcDbEntity
  8
1
 62
     7
100
AcDbMText
 10
-259.168581723374
 20
127.855525258557
 30
0.0
 40
3.5
 41
0.0
 71
     5
 72
     1
  1
B
  7
CONVERTER_11
 73
     1
 44
1.20048019207683
  0
MTEXT
  5
300
330
6D
100
AcDbEntity
  8
1
 62
     7
100
AcDbMText
 10
-259.168581723374
 20
77.85552525855698
 30
0.0
 40
3.5
 41
0.0
 71
     5
 72
     1
  1
C
  7
CONVERTER_11
 73
     1
 44
1.20048019207683
  0
MTEXT
  5
301
330
6D
100
AcDbEntity
  8
1
 62
     7
100
AcDbMText
 10
-259.168581723374
 20
25.35552525855698
 30
0.0
 40
3.5
 41
0.0
 71
     5
 72
     1
  1
D
  7
CONVERTER_11
 73
     1
 44
1.20048019207683
  0
MTEXT
  5
302
330
6D
100
AcDbEntity
  8
1
 62
     2
100
AcDbMText
 10
13.74982655830584
 20
31.60552525855698
 30
0.0
 40
1.8
 41
0.0
 71
     1
 72
     1
  1
dim.var.
  7
CONVERTER_11
 73
     1
 44
1.20048019207683
  0
MTEXT
  5
304
330
6D
100
AcDbEntity
  8
1
 62
     2
100
AcDbMText
 10
-32.16858172337258
 20
18.85552525855698
 30
0.0
 40
1.8
 41
0.0
 71
     1
 72
     1
  1
document-No.
  7
CONVERTER_15
 73
     1
 44
1.32052821128451
  0
TEXT
  5
305
330
6D
100
AcDbEntity
  8
1
 62
     2
100
AcDbText
 10
-80.013386250125
 20
4.09650804356542
 30
0.0
 40
1.8
  1
of
 41
0.9
  7
CONVERTER_11
100
AcDbText
  0
TEXT
  5
306
330
6D
100
AcDbEntity
  8
1
 62
     2
100
AcDbText
 10
-98.21338625012487
 20
4.09650804356531
 30
0.0
 40
1.8
  1
page
 41
0.9
  7
CONVERTER_11
100
AcDbText
  0
MTEXT
  5
307
330
6D
100
AcDbEntity
  8
1
 62
     2
100
AcDbMText
 10
-105.963386250125
 20
4.10552525855698
 30
0.0
 40
1.8
 41
0.0
 71
     8
 72
     1
  1
name
  7
CONVERTER_11
 73
     1
 44
1.32052821128451
  0
MTEXT
  5
308
330
6D
100
AcDbEntity
  8
1
 62
     2
100
AcDbMText
 10
-119.4633862501249
 20
4.10552525855698
 30
0.0
 40
1.8
 41
0.0
 71
     8
 72
     1
  1
check.on
  7
CONVERTER_11
 73
     1
 44
1.32052821128451
  0
MTEXT
  5
309
330
6D
100
AcDbEntity
  8
1
 62
     2
100
AcDbMText
 10
-132.9633862501249
 20
4.10552525855698
 30
0.0
 40
1.8
 41
0.0
 71
     8
 72
     1
  1
name
  7
CONVERTER_11
 73
     1
 44
1.32052821128451
  0
MTEXT
  5
30A
330
6D
100
AcDbEntity
  8
1
 62
     2
100
AcDbMText
 10
-208.7185817233751
 20
4.10552525855698
 30
0.0
 40
1.8
 41
0.0
 71
     8
 72
     1
  1
date
  7
CONVERTER_11
 73
     1
 44
1.32052821128451
  0
MTEXT
  5
30B
330
6D
100
AcDbEntity
  8
1
 62
     2
100
AcDbMText
 10
-38.68819709253347
 20
31.60552525855681
 30
0.0
 40
1.8
 41
0.0
 71
     1
 72
     1
  1
material
  7
CONVERTER_11
 73
     1
 44
1.20048019207683
  0
MTEXT
  5
30C
330
6D
100
AcDbEntity
  8
1
 62
     2
100
AcDbMText
 10
-218.5685817233741
 20
4.10552525855698
 30
0.0
 40
1.8
 41
0.0
 71
     8
 72
     1
  1
RI
  7
CONVERTER_11
 73
     1
 44
1.32052821128451
  0
MTEXT
  5
30D
330
6D
100
AcDbEntity
  8
1
 62
     2
100
AcDbMText
 10
-83.06338625012499
 20
29.55552525855703
 30
0.0
 40
1.8
 41
0.0
 71
     8
 72
     1
  1
date
  7
CONVERTER_11
 73
     1
 44
1.32052821128451
  0
MTEXT
  5
30E
330
6D
100
AcDbEntity
  8
1
 62
     2
100
AcDbMText
 10
-69.563386250125
 20
29.55552525855703
 30
0.0
 40
1.8
 41
0.0
 71
     8
 72
     1
  1
name
  7
CONVERTER_11
 73
     1
 44
1.32052821128451
  0
MTEXT
  5
30F
330
6D
100
AcDbEntity
  8
1
 62
     2
100
AcDbMText
 10
-170.84098398675
 20
4.10552525855698
 30
0.0
 40
1.8
 41
0.0
 71
     8
 72
     1
  1
revision
  7
CONVERTER_11
 73
     1
 44
1.32052821128451
  0
MTEXT
  5
310
330
6D
100
AcDbEntity
  8
1
 62
     2
100
AcDbMText
 10
4.63141827662693
 20
31.60552525855698
 30
0.0
 40
1.8
 41
0.0
 71
     1
 72
     1
  1
scale
  7
CONVERTER_11
 73
     1
 44
1.20048019207683
  0
MTEXT
  5
311
330
6D
100
AcDbEntity
  8
1
 62
     2
100
AcDbMText
 10
-94.5133862501249
 20
26.23052525855698
 30
0.0
 40
1.8
 41
0.0
 71
     5
 72
     1
  1
creat.
  7
CONVERTER_11
 73
     1
 44
1.20048019207683
  0
MTEXT
  5
312
330
6D
100
AcDbEntity
  8
1
 62
     2
100
AcDbMText
 10
-94.5133862501249
 20
21.98052525855698
 30
0.0
 40
1.8
 41
0.0
 71
     5
 72
     1
  1
check.
  7
CONVERTER_11
 73
     1
 44
1.20048019207683
  0
MTEXT
  5
313
330
6D
100
AcDbEntity
  8
1
 62
     3
100
AcDbMText
 10
-73.013386250125
 20
17.73052525855709
 30
0.0
 40
2.5
 41
0.0
 71
     5
 72
     1
  1
DIN A4
  7
CONVERTER_11
 73
     1
 44
1.20048019207683
  0
MTEXT
  5
314
330
6D
100
AcDbEntity
  8
1
 62
     2
100
AcDbMText
 10
-61.71338625012496
 20
31.60552525855698
 30
0.0
 40
1.8
 41
0.0
 71
     1
 72
     1
  1
ident.-No. / RI
  7
CONVERTER_11
 73
     1
 44
1.20048019207683
  0
TEXT
  5
315
330
6D
100
AcDbEntity
  8
1
 62
     2
100
AcDbText
 10
-89.5671212797828
 20
4.05627660475503
 30
0.0
 40
1.8
  1
 
 41
0.9
  7
CONVERTER_11
100
AcDbText
  0
TEXT
  5
316
330
6D
100
AcDbEntity
  8
1
 62
     2
100
AcDbText
 10
-74.7780774403113
 20
4.10552525855698
 30
0.0
 40
1.8
  1
1
 41
0.9
  7
CONVERTER_11
100
AcDbText
  0
MTEXT
  5
317
330
6D
100
AcDbEntity
  8
1
 62
     2
100
AcDbMText
 10
-61.81338625012497
 20
10.35552525855698
 30
0.0
 40
1.8
 41
0.0
 71
     1
 72
     1
  1
description
  7
CONVERTER_11
 73
     1
 44
1.20048019207683
  0
MTEXT
  5
318
330
6D
100
AcDbEntity
  8
1
 62
     2
100
AcDbMText
 10
-94.5133862501249
 20
29.55552525855703
 30
0.0
 40
1.8
 41
0.0
 71
     8
 72
     1
  1
00
  7
CONVERTER_11
 73
     1
 44
1.20048019207683
  0
MTEXT
  5
319
330
6D
100
AcDbEntity
  8
1
 62
     2
100
AcDbMText
 10
-61.81338625012497
 20
18.85552525855692
 30
0.0
 40
1.8
 41
0.0
 71
     1
 72
     1
  1
document-type
  7
CONVERTER_11
 73
     1
 44
1.20048019207683
  0
MTEXT
  5
31A
330
6D
100
AcDbEntity
  8
1
 62
     2
100
AcDbMText
 10
-69.563386250125
 20
21.98052525855698
 30
0.0
 40
1.8
 41
0.0
 71
     5
 72
     1
  1
pbam06
  7
CONVERTER_11
 73
     1
 44
1.32052821128451
  0
MTEXT
  5
31B
330
6D
100
AcDbEntity
  8
1
 62
     2
100
AcDbMText
 10
-69.563386250125
 20
26.23052525855698
 30
0.0
 40
1.8
 41
0.0
 71
     5
 72
     1
  1
pbfm09
  7
CONVERTER_11
 73
     1
 44
1.32052821128451
  0
MTEXT
  5
31C
330
6D
100
AcDbEntity
  8
1
 62
     2
100
AcDbMText
 10
-83.06338625012495
 20
21.98052525855698
 30
0.0
 40
1.8
 41
0.0
 71
     5
 72
     1
  1
08.12.10
  7
CONVERTER_11
 73
     1
 44
1.32052821128451
  0
MTEXT
  5
31D
330
6D
100
AcDbEntity
  8
1
 62
     2
100
AcDbMText
 10
-83.06338625012495
 20
26.23052525855698
 30
0.0
 40
1.8
 41
0.0
 71
     5
 72
     1
  1
31.05.05
  7
CONVERTER_11
 73
     1
 44
1.32052821128451
  0
TEXT
  5
31E
330
6D
100
AcDbEntity
  8
1
 62
     7
100
AcDbText
 10
-46.83983852811116
 20
25.40552525855698
 30
0.0
 40
2.5
  1
/
 41
0.9
  7
CONVERTER_11
100
AcDbText
  0
TEXT
  5
320
330
6D
100
AcDbEntity
  8
1
 62
     3
100
AcDbText
 10
-13.66858172337296
 20
12.65552525855698
 30
0.0
 40
2.5
  1
 
 41
0.54
  7
CONVERTER_16
100
AcDbText
  0
MTEXT
  5
322
330
6D
100
AcDbEntity
  8
1
 62
     7
100
AcDbMText
 10
-16.24098398674946
 20
6.10552525855721
 30
0.0
 40
3.0
 41
0.0
 71
     5
 72
     1
  1
FBS  3-6
  7
CONVERTER_17
 73
     1
 44
1.20048019207683
  0
MTEXT
  5
323
330
6D
100
AcDbEntity
  8
1
 62
     3
100
AcDbMText
 10
7.99062241746645
 20
25.40552525855709
 30
0.0
 40
2.5
 41
0.0
 71
     8
 72
     1
  1
1:1
  7
CONVERTER_13
 73
     1
 44
1.32052821128451
  0
TEXT
  5
324
330
6D
100
AcDbEntity
  8
1
 62
     3
100
AcDbText
 10
-38.91338625012494
 20
25.40552525855698
 30
0.0
 40
2.5
  1
-
 41
0.54
  7
CONVERTER_16
100
AcDbText
  0
TEXT
  5
325
330
6D
100
AcDbEntity
  8
1
 62
     7
100
AcDbText
 10
-61.31338625012516
 20
25.40552525855698
 30
0.0
 40
2.5
  1
3030242
 41
0.81
  7
CONVERTER_17
100
AcDbText
  0
TEXT
  5
326
330
6D
100
AcDbEntity
  8
1
 62
     7
100
AcDbText
 10
-32.16858172337258
 20
12.65552525855698
 30
0.0
 40
2.5
  1
00357263
 41
0.81
  7
CONVERTER_17
100
AcDbText
  0
TEXT
  5
327
330
6D
100
AcDbEntity
  8
1
 62
     3
100
AcDbText
 10
13.44982655830594
 20
25.40552525855698
 30
0.0
 40
2.5
  1
 
 41
0.54
  7
CONVERTER_16
100
AcDbText
  0
TEXT
  5
329
330
6D
100
AcDbEntity
  8
1
 62
     3
100
AcDbText
 10
-61.81338625012497
 20
12.65552525855698
 30
0.0
 40
2.5
  1
KUNDENZCHNG-SELECT
 41
0.45
  7
CONVERTER_18
100
AcDbText
  0
TEXT
  5
32A
330
6D
100
AcDbEntity
  8
1
 62
     7
100
AcDbText
 10
-44.68347403106915
 20
25.40552525855698
 30
0.0
 40
2.5
  1
00
 41
0.81
  7
CONVERTER_17
100
AcDbText
  0
MTEXT
  5
32B
330
6D
100
AcDbEntity
  8
1
 62
     3
100
AcDbMText
 10
-21.96156183676456
 20
23.20552525855698
 30
0.0
 40
2.0
 41
0.0
 71
     1
 72
     1
  1
 
  7
CONVERTER_13
 73
     1
 44
1.20048019207683
  0
HATCH
  5
32C
330
6D
100
AcDbEntity
  8
1
  6
Continuous
 62
     2
100
AcDbHatch
 10
0.0
 20
0.0
 30
0.0
210
0.0
220
0.0
230
1.0
  2
CUSTOM0
 70
     0
 71
     1
 91
        1
 92
        1
 93
       12
 72
     1
 10
-70.93583522971741
 20
14.0055252585511
 11
-69.93583522971741
 21
14.0055252585511
 72
     1
 10
-69.93583522971741
 20
14.0055252585511
 11
-70.86440665828889
 21
12.85711536455662
 72
     1
 10
-70.86440665828889
 20
12.85711536455662
 11
-69.86780801883339
 21
11.6245728775971
 72
     1
 10
-69.86780801883339
 20
11.6245728775971
 11
-70.86780801883339
 21
11.6245728775971
 72
     1
 10
-70.86780801883339
 20
11.6245728775971
 11
-71.36440665828809
 21
12.23874080625373
 72
     1
 10
-71.36440665828809
 20
12.23874080625373
 11
-71.86100529774481
 21
11.6245728775971
 72
     1
 10
-71.86100529774481
 20
11.6245728775971
 11
-72.86100529774481
 21
11.6245728775971
 72
     1
 10
-72.86100529774481
 20
11.6245728775971
 11
-71.86440665828889
 21
12.85711536455662
 72
     1
 10
-71.86440665828889
 20
12.85711536455662
 11
-72.79297808686039
 21
14.0055252585511
 72
     1
 10
-72.79297808686039
 20
14.0055252585511
 11
-71.79297808686039
 21
14.0055252585511
 72
     1
 10
-71.79297808686039
 20
14.0055252585511
 11
-71.36440665828809
 21
13.47548992285968
 72
     1
 10
-71.36440665828809
 20
13.47548992285968
 11
-70.93583522971741
 21
14.0055252585511
 97
       12
330
1C0
330
1BF
330
1BE
330
1BD
330
1BC
330
1BB
330
1BA
330
1B9
330
1B8
330
1B7
330
1B6
330
1B5
 75
     1
 76
     2
 52
0.02257274673786
 41
0.05
 77
     0
 78
     1
 53
0.02257274673786
 43
-1699.81996388569
 44
12438.36661982803
 45
-0.0500196945567958
 46
0.0499802976826355
 79
     0
 98
        1
 10
0.0
 20
0.0
  0
HATCH
  5
32D
330
6D
100
AcDbEntity
  8
1
  6
Continuous
 62
     2
100
AcDbHatch
 10
0.0
 20
0.0
 30
0.0
210
0.0
220
0.0
230
1.0
  2
CUSTOM1
 70
     0
 71
     1
 91
        2
 92
        1
 93
        8
 72
     1
 10
-75.3468271818621
 20
11.08647763951703
 11
-74.4624734403649
 21
11.08647763951703
 72
     1
 10
-74.4624734403649
 20
11.08647763951703
 11
-73.46587480090949
 21
8.705525258562918
 72
     1
 10
-73.46587480090949
 20
8.705525258562918
 11
-74.35022854240589
 21
8.705525258562918
 72
     1
 10
-74.35022854240589
 20
8.705525258562918
 11
-74.50099235670359
 21
9.127293966046208
 72
     1
 10
-74.50099235670359
 20
9.127293966046208
 11
-75.3083082655238
 21
9.127293966046208
 72
     1
 10
-75.3083082655238
 20
9.127293966046208
 11
-75.459072079821
 21
8.705525258562918
 72
     1
 10
-75.459072079821
 20
8.705525258562918
 11
-76.343425821318
 21
8.705525258562918
 72
     1
 10
-76.343425821318
 20
8.705525258562918
 11
-75.3468271818621
 21
11.08647763951703
 97
        8
330
23E
330
23D
330
23C
330
23B
330
23A
330
239
330
238
330
237
 92
       16
 93
        3
 72
     1
 10
-75.11863766043851
 20
9.657906210943588
 11
-74.90465031111358
 21
10.25654566672759
 72
     1
 10
-74.90465031111358
 20
10.25654566672759
 11
-74.69066296178741
 21
9.657906210943588
 72
     1
 10
-74.69066296178741
 20
9.657906210943588
 11
-75.11863766043851
 21
9.657906210943588
 97
        3
330
236
330
235
330
234
 75
     1
 76
     2
 52
0.02257274673786
 41
0.05
 77
     0
 78
     1
 53
0.02257274673786
 43
-1699.81996388569
 44
12438.36661982803
 45
-0.0500196945567958
 46
0.0499802976826355
 79
     0
 98
        1
 10
0.0
 20
0.0
  0
HATCH
  5
32E
330
6D
100
AcDbEntity
  8
1
  6
Continuous
 62
     2
100
AcDbHatch
 10
0.0
 20
0.0
 30
0.0
210
0.0
220
0.0
230
1.0
  2
CUSTOM2
 70
     0
 71
     1
 91
        1
 92
        1
 93
        8
 72
     1
 10
-78.24002446077222
 20
11.08647763951703
 11
-78.24002446077222
 21
10.47423274155571
 72
     1
 10
-78.24002446077222
 20
10.47423274155571
 11
-77.6617931682562
 21
10.47423274155571
 72
     1
 10
-77.6617931682562
 20
10.47423274155571
 11
-77.6617931682562
 21
8.705525258562918
 72
     1
 10
-77.6617931682562
 20
8.705525258562918
 11
-76.8114530322011
 21
8.705525258562918
 72
     1
 10
-76.8114530322011
 20
8.705525258562918
 11
-76.8114530322011
 21
10.47423274155571
 72
     1
 10
-76.8114530322011
 20
10.47423274155571
 11
-76.23322173968509
 21
10.47423274155571
 72
     1
 10
-76.23322173968509
 20
10.47423274155571
 11
-76.23322173968509
 21
11.08647763951703
 72
     1
 10
-76.23322173968509
 20
11.08647763951703
 11
-78.24002446077222
 21
11.08647763951703
 97
        8
330
246
330
245
330
244
330
243
330
242
330
241
330
240
330
23F
 75
     1
 76
     2
 52
0.02257274673786
 41
0.05
 77
     0
 78
     1
 53
0.02257274673786
 43
-1699.81996388569
 44
12438.36661982803
 45
-0.0500196945567958
 46
0.0499802976826355
 79
     0
 98
        1
 10
0.0
 20
0.0
  0
HATCH
  5
32F
330
6D
100
AcDbEntity
  8
1
  6
Continuous
 62
     2
100
AcDbHatch
 10
0.0
 20
0.0
 30
0.0
210
0.0
220
0.0
230
1.0
  2
CUSTOM3
 70
     0
 71
     1
 91
        1
 92
        1
 93
       10
 72
     1
 10
-81.2270992907051
 20
11.08647763951703
 11
-81.2270992907051
 21
8.705525258562918
 72
     1
 10
-81.2270992907051
 20
8.705525258562918
 11
-80.37675915464939
 21
8.705525258562918
 72
     1
 10
-80.37675915464939
 20
8.705525258562918
 11
-80.37675915464939
 21
9.725933421830089
 72
     1
 10
-80.37675915464939
 20
9.725933421830089
 11
-79.49240541315382
 21
8.705525258562918
 72
     1
 10
-79.49240541315382
 20
8.705525258562918
 11
-78.6420652770997
 21
8.705525258562918
 72
     1
 10
-78.6420652770997
 20
8.705525258562918
 11
-78.6420652770997
 21
11.08647763951703
 72
     1
 10
-78.6420652770997
 20
11.08647763951703
 11
-79.49240541315382
 21
11.08647763951703
 72
     1
 10
-79.49240541315382
 20
11.08647763951703
 11
-79.49240541315382
 21
10.06606947624968
 72
     1
 10
-79.49240541315382
 20
10.06606947624968
 11
-80.37675915464939
 21
11.08647763951703
 72
     1
 10
-80.37675915464939
 20
11.08647763951703
 11
-81.2270992907051
 21
11.08647763951703
 97
       10
330
250
330
24F
330
24E
330
24D
330
24C
330
24B
330
24A
330
249
330
248
330
247
 75
     1
 76
     2
 52
0.02257274673786
 41
0.05
 77
     0
 78
     1
 53
0.02257274673786
 43
-1699.81996388569
 44
12438.36661982803
 45
-0.0500196945567958
 46
0.0499802976826355
 79
     0
 98
        1
 10
0.0
 20
0.0
  0
HATCH
  5
330
330
6D
100
AcDbEntity
  8
1
  6
Continuous
 62
     2
100
AcDbHatch
 10
0.0
 20
0.0
 30
0.0
210
0.0
220
0.0
230
1.0
  2
_USER
 70
     0
 71
     1
 91
        1
 92
        1
 93
        4
 72
     1
 10
-73.24603931134939
 20
14.0055252585511
 11
-73.24603931134939
 21
11.6245728775971
 72
     1
 10
-73.24603931134939
 20
11.6245728775971
 11
-74.13039305284678
 21
11.6245728775971
 72
     1
 10
-74.13039305284678
 20
11.6245728775971
 11
-74.13039305284678
 21
14.0055252585511
 72
     1
 10
-74.13039305284678
 20
14.0055252585511
 11
-73.24603931134939
 21
14.0055252585511
 97
        4
330
1C3
330
1C2
330
251
330
1C1
 75
     1
 76
     0
 52
0.0
 41
0.05
 77
     0
 78
     1
 53
0.0
 43
0.0
 44
0.0
 45
0.0
 46
0.05
 79
     0
 98
        1
 10
0.0
 20
0.0
  0
HATCH
  5
331
330
6D
100
AcDbEntity
  8
1
  6
Continuous
 62
     2
100
AcDbHatch
 10
0.0
 20
0.0
 30
0.0
210
0.0
220
0.0
230
1.0
  2
CUSTOM4
 70
     0
 71
     1
 91
        1
 92
        1
 93
       10
 72
     1
 10
-75.4508012161116
 20
14.0055252585511
 11
-75.4508012161116
 21
12.98511709528393
 72
     1
 10
-75.4508012161116
 20
12.98511709528393
 11
-76.33515495760889
 21
14.0055252585511
 72
     1
 10
-76.33515495760889
 20
14.0055252585511
 11
-77.1854950936625
 21
14.0055252585511
 72
     1
 10
-77.1854950936625
 20
14.0055252585511
 11
-77.1854950936625
 21
11.6245728775971
 72
     1
 10
-77.1854950936625
 20
11.6245728775971
 11
-76.33515495760889
 21
11.6245728775971
 72
     1
 10
-76.33515495760889
 20
11.6245728775971
 11
-76.33515495760889
 21
12.64498104086451
 72
     1
 10
-76.33515495760889
 20
12.64498104086451
 11
-75.4508012161116
 21
11.6245728775971
 72
     1
 10
-75.4508012161116
 20
11.6245728775971
 11
-74.60046108005801
 21
11.6245728775971
 72
     1
 10
-74.60046108005801
 20
11.6245728775971
 11
-74.60046108005801
 21
14.0055252585511
 72
     1
 10
-74.60046108005801
 20
14.0055252585511
 11
-75.4508012161116
 21
14.0055252585511
 97
       10
330
25B
330
25A
330
259
330
258
330
257
330
256
330
255
330
254
330
253
330
252
 75
     1
 76
     2
 52
0.02257274673786
 41
0.05
 77
     0
 78
     1
 53
0.02257274673786
 43
-1699.81996388569
 44
12438.36661982803
 45
-0.0500196945567958
 46
0.0499802976826355
 79
     0
 98
        1
 10
0.0
 20
0.0
  0
HATCH
  5
332
330
6D
100
AcDbEntity
  8
1
  6
Continuous
 62
     2
100
AcDbHatch
 10
0.0
 20
0.0
 30
0.0
210
0.0
220
0.0
230
1.0
  2
CUSTOM5
 70
     0
 71
     1
 91
        1
 92
        1
 93
       12
 72
     1
 10
-82.98957672631519
 20
14.0055252585511
 11
-82.98957672631519
 21
13.17219192521631
 72
     1
 10
-82.98957672631519
 20
13.17219192521631
 11
-82.2412774065877
 21
13.17219192521631
 72
     1
 10
-82.2412774065877
 20
13.17219192521631
 11
-82.2412774065877
 21
14.0055252585511
 72
     1
 10
-82.2412774065877
 20
14.0055252585511
 11
-81.39093727053279
 21
14.0055252585511
 72
     1
 10
-81.39093727053279
 20
14.0055252585511
 11
-81.39093727053279
 21
11.6245728775971
 72
     1
 10
-81.39093727053279
 20
11.6245728775971
 11
-82.2412774065877
 21
11.6245728775971
 72
     1
 10
-82.2412774065877
 20
11.6245728775971
 11
-82.2412774065877
 21
12.50892661909572
 72
     1
 10
-82.2412774065877
 20
12.50892661909572
 11
-82.98957672631519
 21
12.50892661909572
 72
     1
 10
-82.98957672631519
 20
12.50892661909572
 11
-82.98957672631519
 21
11.6245728775971
 72
     1
 10
-82.98957672631519
 20
11.6245728775971
 11
-83.8399168623696
 21
11.6245728775971
 72
     1
 10
-83.8399168623696
 20
11.6245728775971
 11
-83.8399168623696
 21
14.0055252585511
 72
     1
 10
-83.8399168623696
 20
14.0055252585511
 11
-82.98957672631519
 21
14.0055252585511
 97
       12
330
267
330
266
330
265
330
264
330
263
330
262
330
261
330
260
330
25F
330
25E
330
25D
330
25C
 75
     1
 76
     2
 52
0.02257274673786
 41
0.05
 77
     0
 78
     1
 53
0.02257274673786
 43
-1699.81996388569
 44
12438.36661982803
 45
-0.0500196945567958
 46
0.0499802976826355
 79
     0
 98
        1
 10
0.0
 20
0.0
  0
HATCH
  5
333
330
6D
100
AcDbEntity
  8
1
  6
Continuous
 62
     2
100
AcDbHatch
 10
0.0
 20
0.0
 30
0.0
210
0.0
220
0.0
230
1.0
  2
CUSTOM6
 70
     0
 71
     1
 91
        1
 92
        1
 93
        4
 72
     1
 10
-82.9216154202681
 20
11.08647763951703
 11
-82.8195746039408
 21
11.08647763951703
 72
     2
 10
-82.8195746039408
 20
9.896001449039918
 40
1.190476190477
 50
270.0
 51
450.0
 73
     0
 72
     1
 10
-82.8195746039408
 20
8.705525258562918
 11
-82.9216154202681
 21
8.705525258562918
 72
     2
 10
-82.9216154202681
 20
9.896001449039918
 40
1.190476190477112
 50
90.0
 51
270.0
 73
     0
 97
        4
330
20C
330
2AC
330
20B
330
2AB
 75
     1
 76
     2
 52
0.02257274673786
 41
0.05
 77
     0
 78
     1
 53
0.02257274673786
 43
-1699.81996388569
 44
12438.36661982803
 45
-0.0500196945567958
 46
0.0499802976826355
 79
     0
 98
        1
 10
0.0
 20
0.0
  0
HATCH
  5
334
330
6D
100
AcDbEntity
  8
1
  6
Continuous
 62
     2
100
AcDbHatch
 10
0.0
 20
0.0
 30
0.0
210
0.0
220
0.0
230
1.0
  2
CUSTOM7
 70
     0
 71
     1
 91
        1
 92
        1
 93
       14
 72
     1
 10
-79.798464111633
 20
14.0055252585511
 11
-79.6964232953069
 21
14.0055252585511
 72
     1
 10
-79.6964232953069
 20
14.0055252585511
 11
-77.6555631208737
 21
14.0055252585511
 72
     1
 10
-77.6555631208737
 20
14.0055252585511
 11
-77.6555631208737
 21
13.46130757147651
 72
     1
 10
-77.6555631208737
 20
13.46130757147651
 11
-78.607944073255
 21
13.46130757147651
 72
     1
 10
-78.607944073255
 20
13.46130757147651
 11
-78.607944073255
 21
13.08715791161151
 72
     1
 10
-78.607944073255
 20
13.08715791161151
 11
-77.6555631208737
 21
13.08715791161151
 72
     1
 10
-77.6555631208737
 20
13.08715791161151
 11
-77.6555631208737
 21
12.54294022453669
 72
     1
 10
-77.6555631208737
 20
12.54294022453669
 11
-78.607944073255
 21
12.54294022453669
 72
     1
 10
-78.607944073255
 20
12.54294022453669
 11
-78.607944073255
 21
12.16879056467181
 72
     1
 10
-78.607944073255
 20
12.16879056467181
 11
-77.6555631208737
 21
12.16879056467181
 72
     1
 10
-77.6555631208737
 20
12.16879056467181
 11
-77.6555631208737
 21
11.6245728775971
 72
     1
 10
-77.6555631208737
 20
11.6245728775971
 11
-79.6964232953069
 21
11.6245728775971
 72
     1
 10
-79.6964232953069
 20
11.6245728775971
 11
-79.798464111633
 21
11.6245728775971
 72
     2
 10
-79.798464111633
 20
12.81504906807422
 40
1.190476190476879
 50
90.0
 51
270.0
 73
     0
 97
       14
330
219
330
218
330
217
330
216
330
215
330
214
330
213
330
212
330
211
330
210
330
20F
330
20E
330
20D
330
2AD
 75
     1
 76
     2
 52
0.02257274673786
 41
0.05
 77
     0
 78
     1
 53
0.02257274673786
 43
-1699.81996388569
 44
12438.36661982803
 45
-0.0500196945567958
 46
0.0499802976826355
 79
     0
 98
        1
 10
0.0
 20
0.0
  0
HATCH
  5
335
330
6D
100
AcDbEntity
  8
1
  6
Continuous
 62
     2
100
AcDbHatch
 10
0.0
 20
0.0
 30
0.0
210
0.0
220
0.0
230
1.0
  2
CUSTOM8
 70
     0
 71
     1
 91
        2
 92
        1
 93
        9
 72
     1
 10
-85.261036821642
 20
14.0055252585511
 11
-84.9773436271687
 21
14.0055252585511
 72
     2
 10
-85.0699150463901
 20
13.1826922308459
 40
0.8280239484092047
 50
276.4189726355862
 51
443.5810273644138
 73
     0
 72
     1
 10
-84.9773436271687
 20
12.3598592031407
 11
-85.1121356093316
 21
12.3598592031407
 72
     1
 10
-85.1121356093316
 20
12.3598592031407
 11
-85.53447468549899
 21
12.3598592031407
 72
     1
 10
-85.53447468549899
 20
12.3598592031407
 11
-85.53447468549899
 21
11.6245728775971
 72
     1
 10
-85.53447468549899
 20
11.6245728775971
 11
-85.6833758978084
 21
11.6245728775971
 72
     1
 10
-85.6833758978084
 20
11.6245728775971
 11
-86.41882842699479
 21
11.6245728775971
 72
     1
 10
-86.41882842699479
 20
11.6245728775971
 11
-86.41882842699479
 21
14.0055252585511
 72
     1
 10
-86.41882842699479
 20
14.0055252585511
 11
-85.261036821642
 21
14.0055252585511
 97
        9
330
233
330
2B2
330
232
330
231
330
230
330
22F
330
22E
330
22D
330
22C
 92
       16
 93
        6
 72
     1
 10
-85.3320688707031
 20
13.48852397565449
 11
-85.3872516429126
 21
13.48852397565449
 72
     1
 10
-85.3872516429126
 20
13.48852397565449
 11
-85.53447468549899
 21
13.48852397565449
 72
     1
 10
-85.53447468549899
 20
13.48852397565449
 11
-85.53447468549899
 21
12.9382919084924
 72
     1
 10
-85.53447468549899
 20
12.9382919084924
 11
-85.3872516429126
 21
12.9382919084924
 72
     1
 10
-85.3872516429126
 20
12.9382919084924
 11
-85.3320688707031
 21
12.9382919084924
 72
     2
 10
-85.3320688707031
 20
13.21340794207353
 40
0.2751160335811296
 50
270.0
 51
450.0
 73
     1
 97
        6
330
22B
330
22A
330
229
330
228
330
227
330
2B1
 75
     1
 76
     2
 52
0.02257274673786
 41
0.05
 77
     0
 78
     1
 53
0.02257274673786
 43
-1699.81996388569
 44
12438.36661982803
 45
-0.0500196945567958
 46
0.0499802976826355
 79
     0
 98
        1
 10
0.0
 20
0.0
  0
HATCH
  5
336
330
6D
100
AcDbEntity
  8
1
  6
Continuous
 62
     2
100
AcDbHatch
 10
0.0
 20
0.0
 30
0.0
210
0.0
220
0.0
230
1.0
  2
CUSTOM9
 70
     0
 71
     1
 91
        4
 92
        1
 93
        8
 72
     2
 10
-91.8256311480829
 20
13.67219192521813
 40
0.3333333333329698
 50
90.0
 51
180.0
 73
     1
 72
     1
 10
-92.1589644814165
 20
13.67219192521813
 11
-92.1589644814165
 21
9.038858591895888
 72
     2
 10
-91.8256311480829
 20
9.038858591895888
 40
0.3333333333335986
 50
180.0
 51
270.0
 73
     1
 72
     1
 10
-91.8256311480829
 20
8.705525258562918
 11
-87.2922978147496
 21
8.705525258562918
 72
     2
 10
-87.2922978147496
 20
9.038858591895888
 40
0.3333333333329698
 50
270.0
 51
360.0
 73
     1
 72
     1
 10
-86.9589644814169
 20
9.038858591895888
 11
-86.9589644814169
 21
13.67219192521813
 72
     2
 10
-87.2922978147496
 20
13.67219192521813
 40
0.3333333333327033
 50
0.0
 51
90.0
 73
     1
 72
     1
 10
-87.2922978147496
 20
14.0055252585511
 11
-91.8256311480829
 21
14.0055252585511
 97
        8
330
2C3
330
226
330
2C2
330
225
330
2C1
330
224
330
2C0
330
223
 92
       16
 93
       10
 72
     1
 10
-89.4478533703051
 20
10.25922896225663
 11
-89.4478533703051
 21
10.75322377522079
 72
     2
 10
-89.1830385554909
 20
10.75322377522079
 40
0.2648148148214936
 50
180.0
 51
244.2807204985011
 73
     0
 72
     2
 10
-89.6515570740086
 20
11.72589562892651
 40
0.8148148148132894
 50
295.7192795021669
 51
424.2807204979753
 73
     1
 72
     2
 10
-89.1830385554909
 20
12.6985674826324
 40
0.2648148148142013
 50
115.7192795019203
 51
180.0
 73
     0
 72
     1
 10
-89.4478533703051
 20
12.6985674826324
 11
-89.4478533703051
 21
13.1925622956056
 72
     2
 10
-89.1830385554909
 20
13.1925622956056
 40
0.2648148148090801
 50
180.0
 51
270.0
 73
     0
 72
     1
 10
-89.1830385554909
 20
13.45737711041468
 11
-89.14229781475049
 21
13.45737711041468
 72
     2
 10
-89.14229781475049
 20
11.72589562892651
 40
1.731481481474422
 50
270.0
 51
450.0
 73
     0
 72
     1
 10
-89.14229781475049
 20
9.994414147452089
 11
-89.1830385554909
 21
9.994414147452089
 72
     2
 10
-89.1830385554909
 20
10.25922896225663
 40
0.2648148148142013
 50
90.0
 51
180.0
 73
     0
 97
       10
330
21D
330
2B9
330
2AF
330
2B8
330
21C
330
2B7
330
21B
330
2AE
330
21A
330
2B6
 92
       16
 93
       12
 72
     1
 10
-91.423779296232
 20
13.45737711041468
 11
-90.1200755925276
 21
13.45737711041468
 72
     2
 10
-90.1200755925276
 20
13.1925622956056
 40
0.2648148148150966
 50
270.0
 51
360.0000000019924
 73
     0
 72
     1
 10
-89.8552607777125
 20
13.19256229559639
 11
-89.8552607777125
 21
12.6985674826324
 72
     2
 10
-90.1200755925276
 20
12.6985674826324
 40
0.2648148148217111
 50
0.0
 51
64.28072049840434
 73
     0
 72
     2
 10
-89.6515570740086
 20
11.72589562892651
 40
0.8148148148137929
 50
115.7192795022131
 51
244.2807204978133
 73
     1
 72
     2
 10
-90.1200755925276
 20
10.75322377522079
 40
0.2648148148150966
 50
295.7192795016928
 51
359.9999999980702
 73
     0
 72
     1
 10
-89.8552607777125
 20
10.75322377522971
 11
-89.8552607777125
 21
9.444414147444688
 72
     2
 10
-90.1200755925276
 20
9.444414147444688
 40
0.2648148148045895
 50
0.0
 51
90.0
 73
     0
 72
     1
 10
-90.1200755925276
 20
9.179599332640098
 11
-91.423779296232
 21
9.179599332640098
 72
     2
 10
-91.423779296232
 20
9.444414147444688
 40
0.2648148148140024
 50
90.0
 51
180.0
 73
     0
 72
     1
 10
-91.688594111046
 20
9.444414147444688
 11
-91.688594111046
 21
13.1925622956056
 72
     2
 10
-91.423779296232
 20
13.1925622956056
 40
0.2648148148090801
 50
180.0
 51
270.0
 73
     0
 97
       12
330
222
330
2BF
330
221
330
2BE
330
2B0
330
2BD
330
220
330
2BC
330
21F
330
2BB
330
21E
330
2BA
 92
       16
 93
        1
 72
     2
 10
-89.6515570740086
 20
11.72589562892651
 40
0.4074074074073053
 50
0.0
 51
360.0
 73
     1
 97
        1
330
2B3
 75
     1
 76
     2
 52
0.0
 41
0.05
 77
     0
 78
     1
 53
0.0
 43
-1699.81996388569
 44
12438.36661982803
 45
-0.05
 46
0.05
 79
     0
 98
        1
 10
0.0
 20
0.0
  0
ENDBLK
  5
6F
330
6D
100
AcDbEntity
  8
0
100
AcDbBlockEnd
  0
BLOCK
  5
71
330
70
100
AcDbEntity
  8
0
100
AcDbBlockBegin
  2
_punkt
 70
     0
 10
30.33141827662504
 20
2.85552525855709
 30
0.0
  3
_punkt
  1

  0
LINE
  5
339
330
70
100
AcDbEntity
  8
1
  6
Continuous
 62
     2
100
AcDbLine
 10
30.33141827662504
 20
2.85552525855709
 30
0.0
 11
30.33141827662504
 21
-2.14447474144302
 31
0.0
  0
LINE
  5
33A
330
70
100
AcDbEntity
  8
1
  6
Continuous
 62
     2
100
AcDbLine
 10
30.33141827662504
 20
2.85552525855709
 30
0.0
 11
35.33141827662405
 21
2.85552525855709
 31
0.0
  0
ENDBLK
  5
72
330
70
100
AcDbEntity
  8
0
100
AcDbBlockEnd
  0
BLOCK
  5
76
330
73
100
AcDbEntity
  8
0
100
AcDbBlockBegin
  2
A4I
 70
     0
 10
30.33141827662504
 20
-2.14447474144302
 30
0.0
  3
A4I
  1

  0
INSERT
  5
74
330
73
100
AcDbEntity
  8
1
100
AcDbBlockReference
  2
_rahmen
 10
30.33141827662504
 20
-2.14447474144302
 30
0.0
  0
INSERT
  5
75
330
73
100
AcDbEntity
  8
1
100
AcDbBlockReference
  2
_punkt
 10
30.33141827662504
 20
2.85552525855709
 30
0.0
  0
ENDBLK
  5
77
330
73
100
AcDbEntity
  8
0
100
AcDbBlockEnd
  0
BLOCK
  5
11A
330
113
100
AcDbEntity
  8
0
100
AcDbBlockBegin
  2
*D16
 70
     1
 10
0.0
 20
0.0
 30
0.0
  3
*D16
  1

  0
LINE
  5
114
330
113
100
AcDbEntity
  8
1
  6
Continuous
 62
     2
100
AcDbLine
 10
-195.119571086171
 20
147.1250002654154
 30
0.0
 11
-195.119571086171
 21
124.4500002654253
 31
0.0
  0
LINE
  5
115
330
113
100
AcDbEntity
  8
1
  6
Continuous
 62
     2
100
AcDbLine
 10
-173.8999998924596
 20
147.1250002654154
 30
0.0
 11
-197.119571086171
 21
147.1250002654154
 31
0.0
  0
LINE
  5
116
330
113
100
AcDbEntity
  8
1
  6
Continuous
 62
     2
100
AcDbLine
 10
-172.5348108414798
 20
124.4500002654253
 30
0.0
 11
-197.119571086171
 21
124.4500002654253
 31
0.0
  0
SOLID
  5
117
330
113
100
AcDbEntity
  8
1
 62
     2
100
AcDbTrace
 10
-194.6587873446151
 20
143.6250002654154
 30
0.0
 11
-195.5803548277269
 21
143.6250002654154
 31
0.0
 12
-195.119571086171
 22
147.1250002654154
 32
0.0
 13
-195.119571086171
 23
147.1250002654154
 33
0.0
  0
SOLID
  5
118
330
113
100
AcDbEntity
  8
1
 62
     2
100
AcDbTrace
 10
-195.5803548277269
 20
127.9500002654253
 30
0.0
 11
-194.6587873446151
 21
127.9500002654253
 31
0.0
 12
-195.119571086171
 22
124.4500002654253
 32
0.0
 13
-195.119571086171
 23
124.4500002654253
 33
0.0
  0
MTEXT
  5
119
330
113
100
AcDbEntity
  8
1
 62
     3
100
AcDbMText
 10
-197.119571086171
 20
133.179712244568
 30
0.0
 40
3.5
 41
0.0
 71
     7
 72
     1
  1
23
  7
CONVERTER_11
 11
0.0
 21
1.0
 31
0.0
 73
     1
 44
0.60024009603842
  0
ENDBLK
  5
11B
330
113
100
AcDbEntity
  8
0
100
AcDbBlockEnd
  0
BLOCK
  5
125
330
11E
100
AcDbEntity
  8
0
100
AcDbBlockBegin
  2
*D17
 70
     1
 10
0.0
 20
0.0
 30
0.0
  3
*D17
  1

  0
LINE
  5
11F
330
11E
100
AcDbEntity
  8
1
  6
Continuous
 62
     2
100
AcDbLine
 10
-183.8999998924596
 20
133.5250002654154
 30
0.0
 11
-183.8999998924596
 21
147.1250002654154
 31
0.0
  0
LINE
  5
120
330
11E
100
AcDbEntity
  8
1
  6
Continuous
 62
     2
100
AcDbLine
 10
-173.8999998924596
 20
147.1250002654154
 30
0.0
 11
-185.8999998924596
 21
147.1250002654154
 31
0.0
  0
LINE
  5
121
330
11E
100
AcDbEntity
  8
1
  6
Continuous
 62
     2
100
AcDbLine
 10
-172.8999998924616
 20
133.5250002654154
 30
0.0
 11
-185.8999998924596
 21
133.5250002654154
 31
0.0
  0
SOLID
  5
122
330
11E
100
AcDbEntity
  8
1
 62
     2
100
AcDbTrace
 10
-184.3607836340155
 20
137.0250002654154
 30
0.0
 11
-183.4392161509037
 21
137.0250002654154
 31
0.0
 12
-183.8999998924596
 22
133.5250002654154
 32
0.0
 13
-183.8999998924596
 23
133.5250002654154
 33
0.0
  0
SOLID
  5
123
330
11E
100
AcDbEntity
  8
1
 62
     2
100
AcDbTrace
 10
-183.4392161509037
 20
143.6250002654154
 30
0.0
 11
-184.3607836340155
 21
143.6250002654154
 31
0.0
 12
-183.8999998924596
 22
147.1250002654154
 32
0.0
 13
-183.8999998924596
 23
147.1250002654154
 33
0.0
  0
MTEXT
  5
124
330
11E
100
AcDbEntity
  8
1
 62
     3
100
AcDbMText
 10
-186.2499998924596
 20
136.143652402687
 30
0.0
 40
3.5
 41
0.0
 71
     7
 72
     1
  1
13,6
  7
CONVERTER_11
 11
0.0
 21
1.0
 31
0.0
 73
     1
 44
0.60024009603842
  0
ENDBLK
  5
126
330
11E
100
AcDbEntity
  8
0
100
AcDbBlockEnd
  0
BLOCK
  5
130
330
129
100
AcDbEntity
  8
0
100
AcDbBlockBegin
  2
*D18
 70
     1
 10
0.0
 20
0.0
 30
0.0
  3
*D18
  1

  0
LINE
  5
12A
330
129
100
AcDbEntity
  8
1
  6
Continuous
 62
     2
100
AcDbLine
 10
-156.9999998924596
 20
157.1250002654154
 30
0.0
 11
-173.8999998924596
 21
157.1250002654154
 31
0.0
  0
LINE
  5
12B
330
129
100
AcDbEntity
  8
1
  6
Continuous
 62
     2
100
AcDbLine
 10
-173.8999998924596
 20
147.1250002654154
 30
0.0
 11
-173.8999998924596
 21
159.1250002654154
 31
0.0
  0
LINE
  5
12C
330
129
100
AcDbEntity
  8
1
  6
Continuous
 62
     2
100
AcDbLine
 10
-156.9999998924596
 20
147.1250002654154
 30
0.0
 11
-156.9999998924596
 21
159.1250002654154
 31
0.0
  0
SOLID
  5
12D
330
129
100
AcDbEntity
  8
1
 62
     2
100
AcDbTrace
 10
-160.4999998924596
 20
156.6642165238595
 30
0.0
 11
-160.4999998924596
 21
157.5857840069713
 31
0.0
 12
-156.9999998924596
 22
157.1250002654154
 32
0.0
 13
-156.9999998924596
 23
157.1250002654154
 33
0.0
  0
SOLID
  5
12E
330
129
100
AcDbEntity
  8
1
 62
     2
100
AcDbTrace
 10
-170.3999998924596
 20
157.5857840069713
 30
0.0
 11
-170.3999998924596
 21
156.6642165238595
 31
0.0
 12
-173.8999998924596
 22
157.1250002654154
 32
0.0
 13
-173.8999998924596
 23
157.1250002654154
 33
0.0
  0
MTEXT
  5
12F
330
129
100
AcDbEntity
  8
1
 62
     3
100
AcDbMText
 10
-170.135273620365
 20
159.4750002654154
 30
0.0
 40
3.5
 41
0.0
 71
     7
 72
     1
  1
16,9
  7
CONVERTER_11
 11
0.9999999999970619
 21
2.424068405545306E-6
 31
0.0
 73
     1
 44
0.60024009603842
  0
ENDBLK
  5
131
330
129
100
AcDbEntity
  8
0
100
AcDbBlockEnd
  0
BLOCK
  5
14A
330
141
100
AcDbEntity
  8
0
100
AcDbBlockBegin
  2
*D19
 70
     1
 10
0.0
 20
0.0
 30
0.0
  3
*D19
  1

  0
LINE
  5
142
330
141
100
AcDbEntity
  8
1
  6
Continuous
 62
     2
100
AcDbLine
 10
-128.1999999999902
 20
114.311575052466
 30
0.0
 11
-117.256978763967
 21
114.311575052466
 31
0.0
  0
LINE
  5
143
330
141
100
AcDbEntity
  8
1
  6
Continuous
 62
     2
100
AcDbLine
 10
-129.7999999999902
 20
114.311575052466
 30
0.0
 11
-128.1999999999902
 21
114.311575052466
 31
0.0
  0
LINE
  5
144
330
141
100
AcDbEntity
  8
1
  6
Continuous
 62
     2
100
AcDbLine
 10
-136.7999999999902
 20
114.311575052466
 30
0.0
 11
-129.7999999999902
 21
114.311575052466
 31
0.0
  0
LINE
  5
145
330
141
100
AcDbEntity
  8
1
  6
Continuous
 62
     2
100
AcDbLine
 10
-128.1999999999902
 20
124.4500002654253
 30
0.0
 11
-128.1999999999902
 21
112.311575052466
 31
0.0
  0
LINE
  5
146
330
141
100
AcDbEntity
  8
1
  6
Continuous
 62
     2
100
AcDbLine
 10
-129.7999999999902
 20
124.4500002654253
 30
0.0
 11
-129.7999999999902
 21
112.311575052466
 31
0.0
  0
SOLID
  5
147
330
141
100
AcDbEntity
  8
1
 62
     2
100
AcDbTrace
 10
-133.2999999999902
 20
113.8507913109101
 30
0.0
 11
-133.2999999999902
 21
114.7723587940219
 31
0.0
 12
-129.7999999999902
 22
114.311575052466
 32
0.0
 13
-129.7999999999902
 23
114.311575052466
 33
0.0
  0
SOLID
  5
148
330
141
100
AcDbEntity
  8
1
 62
     2
100
AcDbTrace
 10
-124.6999999999902
 20
114.7723587940219
 30
0.0
 11
-124.6999999999902
 21
113.8507913109101
 31
0.0
 12
-128.1999999999902
 22
114.311575052466
 32
0.0
 13
-128.1999999999902
 23
114.311575052466
 33
0.0
  0
MTEXT
  5
149
330
141
100
AcDbEntity
  8
1
 62
     3
100
AcDbMText
 10
-122.681978763967
 20
116.661575052466
 30
0.0
 40
3.5
 41
0.0
 71
     7
 72
     1
  1
1,6
  7
CONVERTER_11
 11
0.9999999999970619
 21
2.424068405545306E-6
 31
0.0
 73
     1
 44
0.60024009603842
  0
ENDBLK
  5
14B
330
141
100
AcDbEntity
  8
0
100
AcDbBlockEnd
  0
BLOCK
  5
157
330
14E
100
AcDbEntity
  8
0
100
AcDbBlockBegin
  2
*D20
 70
     1
 10
0.0
 20
0.0
 30
0.0
  3
*D20
  1

  0
LINE
  5
14F
330
14E
100
AcDbEntity
  8
1
  6
Continuous
 62
     2
100
AcDbLine
 10
-137.5
 20
157.1250002654154
 30
0.0
 11
-130.5
 21
157.1250002654154
 31
0.0
  0
LINE
  5
150
330
14E
100
AcDbEntity
  8
1
  6
Continuous
 62
     2
100
AcDbLine
 10
-130.5
 20
157.1250002654154
 30
0.0
 11
-127.5
 21
157.1250002654154
 31
0.0
  0
LINE
  5
151
330
14E
100
AcDbEntity
  8
1
  6
Continuous
 62
     2
100
AcDbLine
 10
-127.5
 20
157.1250002654154
 30
0.0
 11
-116.1461312855236
 21
157.1250002654154
 31
0.0
  0
LINE
  5
152
330
14E
100
AcDbEntity
  8
1
  6
Continuous
 62
     2
100
AcDbLine
 10
-130.5
 20
147.1250002654154
 30
0.0
 11
-130.5
 21
159.1250002654154
 31
0.0
  0
LINE
  5
153
330
14E
100
AcDbEntity
  8
1
  6
Continuous
 62
     2
100
AcDbLine
 10
-127.5
 20
147.1250002654154
 30
0.0
 11
-127.5
 21
159.1250002654154
 31
0.0
  0
SOLID
  5
154
330
14E
100
AcDbEntity
  8
1
 62
     2
100
AcDbTrace
 10
-134.0
 20
156.6642165238595
 30
0.0
 11
-134.0
 21
157.5857840069713
 31
0.0
 12
-130.5
 22
157.1250002654154
 32
0.0
 13
-130.5
 23
157.1250002654154
 33
0.0
  0
SOLID
  5
155
330
14E
100
AcDbEntity
  8
1
 62
     2
100
AcDbTrace
 10
-124.0
 20
157.5857840069713
 30
0.0
 11
-124.0
 21
156.6642165238595
 31
0.0
 12
-127.5
 22
157.1250002654154
 32
0.0
 13
-127.5
 23
157.1250002654154
 33
0.0
  0
MTEXT
  5
156
330
14E
100
AcDbEntity
  8
1
 62
     3
100
AcDbMText
 10
-118.2461312855236
 20
159.1250002654154
 30
0.0
 40
3.5
 41
0.0
 71
     7
 72
     1
  1
3
  7
CONVERTER_11
 11
0.9999999999970619
 21
2.424068405545306E-6
 31
0.0
 73
     1
 44
0.60024009603842
  0
ENDBLK
  5
158
330
14E
100
AcDbEntity
  8
0
100
AcDbBlockEnd
  0
ENDSEC
  0
SECTION
  2
ENTITIES
  0
INSERT
  5
78
330
1F
100
AcDbEntity
  8
0
100
AcDbBlockReference
  2
AllgSicht1
 10
-21.00000000000496
 20
78.99999999994816
 30
0.0
  0
INSERT
  5
79
330
1F
100
AcDbEntity
  8
0
100
AcDbBlockReference
  2
Drfsicht1
 10
-129.0
 20
90.99999999999005
 30
0.0
  0
INSERT
  5
7A
330
1F
100
AcDbEntity
  8
0
100
AcDbBlockReference
  2
Rckans1
 10
-50.09999966621399
 20
135.7875002622054
 30
0.0
  0
INSERT
  5
7B
330
1F
100
AcDbEntity
  8
0
100
AcDbBlockReference
  2
SA_Links1
 10
-92.01633919076504
 20
135.7875002622054
 30
0.0
  0
INSERT
  5
7C
330
1F
100
AcDbEntity
  8
0
100
AcDbBlockReference
  2
SA_Rechts1
 10
-165.4500001669031
 20
135.7875002622054
 30
0.0
  0
INSERT
  5
7D
330
1F
100
AcDbEntity
  8
0
100
AcDbBlockReference
  2
Vordans1
 10
-129.0
 20
135.7875002622054
 30
0.0
  0
INSERT
  5
7E
330
1F
100
AcDbEntity
  8
0
100
AcDbBlockReference
  2
A4I
 10
30.33141827662504
 20
-2.14447474144302
 30
0.0
  0
ENDSEC
  0
SECTION
  2
OBJECTS
  0
DICTIONARY
  5
C
330
0
100
AcDbDictionary
281
     1
  3
ACAD_GROUP
350
D
  3
ACAD_LAYOUT
350
1A
  3
ACAD_MLEADERSTYLE
350
33C
  3
ACAD_MLINESTYLE
350
17
  3
ACAD_PLOTSETTINGS
350
19
  3
ACAD_PLOTSTYLENAME
350
E
  3
ACAD_TABLESTYLE
350
33B
  3
ACAD_VISUALSTYLE
350
2A
  0
DICTIONARY
  5
D
102
{ACAD_REACTORS
330
C
102
}
330
C
100
AcDbDictionary
281
     1
  0
DICTIONARY
  5
1A
102
{ACAD_REACTORS
330
C
102
}
330
C
100
AcDbDictionary
281
     1
  3
Layout1
350
1E
  3
Layout2
350
26
  3
Model
350
22
  0
DICTIONARY
  5
33C
102
{ACAD_REACTORS
330
C
102
}
330
C
100
AcDbDictionary
281
     1
  0
DICTIONARY
  5
17
102
{ACAD_REACTORS
330
C
102
}
330
C
100
AcDbDictionary
281
     1
  3
Standard
350
18
  0
DICTIONARY
  5
19
102
{ACAD_REACTORS
330
C
102
}
330
C
100
AcDbDictionary
281
     1
  0
ACDBDICTIONARYWDFLT
  5
E
102
{ACAD_REACTORS
330
C
102
}
330
C
100
AcDbDictionary
281
     1
  3
Normal
350
F
100
AcDbDictionaryWithDefault
340
F
  0
DICTIONARY
  5
33B
102
{ACAD_REACTORS
330
C
102
}
330
C
100
AcDbDictionary
281
     1
  0
DICTIONARY
  5
2A
102
{ACAD_REACTORS
330
C
102
}
330
C
100
AcDbDictionary
281
     1
  3
2dWireframe
350
2F
  3
3D Hidden
350
31
  3
3dWireframe
350
30
  3
Basic
350
32
  3
Brighten
350
36
  3
ColorChange
350
3A
  3
Conceptual
350
34
  3
Dim
350
35
  3
Facepattern
350
39
  3
Flat
350
2B
  3
FlatWithEdges
350
2C
  3
Gouraud
350
2D
  3
GouraudWithEdges
350
2E
  3
Linepattern
350
38
  3
Realistic
350
33
  3
Thicken
350
37
  0
LAYOUT
  5
1E
102
{ACAD_REACTORS
330
1A
102
}
330
1A
100
AcDbPlotSettings
  1

  2
none_device
  4

  6

 40
0.0
 41
0.0
 42
0.0
 43
0.0
 44
0.0
 45
0.0
 46
0.0
 47
0.0
 48
0.0
 49
0.0
140
0.0
141
0.0
142
1.0
143
1.0
 70
   688
 72
     0
 73
     0
 74
     5
  7

 75
    16
147
1.0
148
0.0
149
0.0
100
AcDbLayout
  1
Layout1
 70
     1
 71
     1
 10
0.0
 20
0.0
 11
12.0
 21
9.0
 12
0.0
 22
0.0
 32
0.0
 14
1.00000000000000E+20
 24
1.00000000000000E+20
 34
1.00000000000000E+20
 15
-1.00000000000000E+20
 25
-1.00000000000000E+20
 35
-1.00000000000000E+20
146
0.0
 13
0.0
 23
0.0
 33
0.0
 16
1.0
 26
0.0
 36
0.0
 17
0.0
 27
1.0
 37
0.0
 76
     0
330
1B
  0
LAYOUT
  5
26
102
{ACAD_REACTORS
330
1A
102
}
330
1A
100
AcDbPlotSettings
  1

  2
none_device
  4

  6

 40
0.0
 41
0.0
 42
0.0
 43
0.0
 44
0.0
 45
0.0
 46
0.0
 47
0.0
 48
0.0
 49
0.0
140
0.0
141
0.0
142
1.0
143
1.0
 70
   688
 72
     0
 73
     0
 74
     5
  7

 75
    16
147
1.0
148
0.0
149
0.0
100
AcDbLayout
  1
Layout2
 70
     1
 71
     2
 10
0.0
 20
0.0
 11
0.0
 21
0.0
 12
0.0
 22
0.0
 32
0.0
 14
0.0
 24
0.0
 34
0.0
 15
0.0
 25
0.0
 35
0.0
146
0.0
 13
0.0
 23
0.0
 33
0.0
 16
1.0
 26
0.0
 36
0.0
 17
0.0
 27
1.0
 37
0.0
 76
     0
330
23
  0
LAYOUT
  5
22
102
{ACAD_REACTORS
330
1A
102
}
330
1A
100
AcDbPlotSettings
  1

  2
none_device
  4

  6

 40
0.0
 41
0.0
 42
0.0
 43
0.0
 44
0.0
 45
0.0
 46
0.0
 47
0.0
 48
0.0
 49
0.0
140
0.0
141
0.0
142
1.0
143
1.0
 70
  1712
 72
     0
 73
     0
 74
     0
  7

 75
     0
147
1.0
148
0.0
149
0.0
100
AcDbLayout
  1
Model
 70
     1
 71
     0
 10
0.0
 20
0.0
 11
12.0
 21
9.0
 12
0.0
 22
0.0
 32
0.0
 14
-261.668581723374
 24
-2.14447474144302
 34
0.0
 15
35.33141827662405
 25
207.855525258557
 35
0.0
146
0.0
 13
0.0
 23
0.0
 33
0.0
 16
1.0
 26
0.0
 36
0.0
 17
0.0
 27
1.0
 37
0.0
 76
     0
330
1F
331
29
  0
MLINESTYLE
  5
18
102
{ACAD_REACTORS
330
17
102
}
330
17
100
AcDbMlineStyle
  2
Standard
 70
     0
  3

 62
   256
 51
90.0
 52
90.0
 71
     2
 49
0.5
 62
   256
  6
BYLAYER
 49
-0.5
 62
   256
  6
BYLAYER
  0
ACDBPLACEHOLDER
  5
F
102
{ACAD_REACTORS
330
E
102
}
330
E
  0
VISUALSTYLE
  5
2F
102
{ACAD_REACTORS
330
2A
102
}
330
2A
100
AcDbVisualStyle
  2
2dWireframe
 70
     4
 71
     0
 72
     2
 73
     0
 90
        0
 40
-0.6
 41
-30.0
 62
     5
 63
     7
 74
     1
 91
        4
 64
     7
 65
   257
 75
     1
175
     1
 42
1.0
 92
        0
 66
   257
 43
1.0
 76
     1
 77
     6
 78
     2
 67
     7
 79
     5
170
     0
171
     0
290
     0
174
     0
 93
        1
 44
0.0
173
     0
291
     0
 45
0.0
1001
ACAD
1000
AcDbSavedByObjectVersion
1070
     0
  0
VISUALSTYLE
  5
31
102
{ACAD_REACTORS
330
2A
102
}
330
2A
100
AcDbVisualStyle
  2
3D Hidden
 70
     6
 71
     1
 72
     2
 73
     2
 90
        0
 40
-0.6
 41
-30.0
 62
     5
 63
     7
 74
     2
 91
        2
 64
     7
 65
   257
 75
     2
175
     1
 42
40.0
 92
        0
 66
   257
 43
1.0
 76
     1
 77
     6
 78
     2
 67
     7
 79
     3
170
     0
171
     0
290
     0
174
     0
 93
        1
 44
0.0
173
     0
291
     0
 45
0.0
1001
ACAD
1000
AcDbSavedByObjectVersion
1070
     0
  0
VISUALSTYLE
  5
30
102
{ACAD_REACTORS
330
2A
102
}
330
2A
100
AcDbVisualStyle
  2
3dWireframe
 70
     5
 71
     0
 72
     2
 73
     0
 90
        0
 40
-0.6
 41
-30.0
 62
     5
 63
     7
 74
     1
 91
        4
 64
     7
 65
   257
 75
     1
175
     1
 42
1.0
 92
        0
 66
   257
 43
1.0
 76
     1
 77
     6
 78
     2
 67
     7
 79
     5
170
     0
171
     0
290
     0
174
     0
 93
        1
 44
0.0
173
     0
291
     0
 45
0.0
1001
ACAD
1000
AcDbSavedByObjectVersion
1070
     0
  0
VISUALSTYLE
  5
32
102
{ACAD_REACTORS
330
2A
102
}
330
2A
100
AcDbVisualStyle
  2
Basic
 70
     7
 71
     1
 72
     0
 73
     1
 90
        0
 40
-0.6
 41
-30.0
 62
     5
 63
     7
 74
     0
 91
        4
 64
     7
 65
   257
 75
     1
175
     1
 42
1.0
 92
        8
 66
     7
 43
1.0
 76
     1
 77
     6
 78
     2
 67
     7
 79
     5
170
     0
171
     0
290
     0
174
     0
 93
        1
 44
0.0
173
     0
291
     1
 45
0.0
1001
ACAD
1000
AcDbSavedByObjectVersion
1070
     0
  0
VISUALSTYLE
  5
36
102
{ACAD_REACTORS
330
2A
102
}
330
2A
100
AcDbVisualStyle
  2
Brighten
 70
    12
 71
     2
 72
     2
 73
     0
 90
        0
 40
-0.6
 41
-30.0
 62
     5
 63
     7
 74
     1
 91
        4
 64
     7
 65
   257
 75
     1
175
     1
 42
1.0
 92
        8
 66
     7
 43
1.0
 76
     1
 77
     6
 78
     2
 67
     7
 79
     5
170
     0
171
     0
290
     0
174
     0
 93
        1
 44
50.0
173
     0
291
     1
 45
0.0
1001
ACAD
1000
AcDbSavedByObjectVersion
1070
     0
  0
VISUALSTYLE
  5
3A
102
{ACAD_REACTORS
330
2A
102
}
330
2A
100
AcDbVisualStyle
  2
ColorChange
 70
    16
 71
     2
 72
     2
 73
     3
 90
        0
 40
-0.6
 41
-30.0
 62
     5
 63
     8
 74
     1
 91
        4
 64
     7
 65
   257
 75
     1
175
     1
 42
1.0
 92
        8
 66
     8
 43
1.0
 76
     1
 77
     6
 78
     2
 67
     7
 79
     5
170
     0
171
     0
290
     0
174
     0
 93
        1
 44
0.0
173
     0
291
     1
 45
0.0
1001
ACAD
1000
AcDbSavedByObjectVersion
1070
     0
  0
VISUALSTYLE
  5
34
102
{ACAD_REACTORS
330
2A
102
}
330
2A
100
AcDbVisualStyle
  2
Conceptual
 70
     9
 71
     3
 72
     2
 73
     0
 90
        0
 40
-0.6
 41
-30.0
 62
     5
 63
     7
 74
     2
 91
        2
 64
     7
 65
   257
 75
     1
175
     1
 42
40.0
 92
        8
 66
     7
 43
1.0
 76
     1
 77
     6
 78
     2
 67
     7
 79
     3
170
     0
171
     0
290
     0
174
     0
 93
        1
 44
0.0
173
     0
291
     0
 45
0.0
1001
ACAD
1000
AcDbSavedByObjectVersion
1070
     0
  0
VISUALSTYLE
  5
35
102
{ACAD_REACTORS
330
2A
102
}
330
2A
100
AcDbVisualStyle
  2
Dim
 70
    11
 71
     2
 72
     2
 73
     0
 90
        0
 40
-0.6
 41
-30.0
 62
     5
 63
     7
 74
     1
 91
        4
 64
     7
 65
   257
 75
     1
175
     1
 42
1.0
 92
        8
 66
     7
 43
1.0
 76
     1
 77
     6
 78
     2
 67
     7
 79
     5
170
     0
171
     0
290
     0
174
     0
 93
        1
 44
-50.0
173
     0
291
     1
 45
0.0
1001
ACAD
1000
AcDbSavedByObjectVersion
1070
     0
  0
VISUALSTYLE
  5
39
102
{ACAD_REACTORS
330
2A
102
}
330
2A
100
AcDbVisualStyle
  2
Facepattern
 70
    15
 71
     2
 72
     2
 73
     0
 90
        0
 40
-0.6
 41
-30.0
 62
     5
 63
     7
 74
     1
 91
        4
 64
     7
 65
   257
 75
     1
175
     1
 42
1.0
 92
        8
 66
     7
 43
1.0
 76
     1
 77
     6
 78
     2
 67
     7
 79
     5
170
     0
171
     0
290
     0
174
     0
 93
        1
 44
0.0
173
     0
291
     1
 45
0.0
1001
ACAD
1000
AcDbSavedByObjectVersion
1070
     0
  0
VISUALSTYLE
  5
2B
102
{ACAD_REACTORS
330
2A
102
}
330
2A
100
AcDbVisualStyle
  2
Flat
 70
     0
 71
     2
 72
     1
 73
     1
 90
        2
 40
-0.6
 41
30.0
 62
     5
 63
     7
 74
     0
 91
        4
 64
     7
 65
   257
 75
     1
175
     1
 42
1.0
 92
        8
 66
     7
 43
1.0
 76
     1
 77
     6
 78
     2
 67
     7
 79
     5
170
     0
171
     0
290
     0
174
     0
 93
       13
 44
0.0
173
     0
291
     1
 45
0.0
1001
ACAD
1000
AcDbSavedByObjectVersion
1070
     0
  0
VISUALSTYLE
  5
2C
102
{ACAD_REACTORS
330
2A
102
}
330
2A
100
AcDbVisualStyle
  2
FlatWithEdges
 70
     1
 71
     2
 72
     1
 73
     1
 90
        2
 40
-0.6
 41
30.0
 62
     5
 63
     7
 74
     1
 91
        4
 64
     7
 65
   257
 75
     1
175
     1
 42
1.0
 92
        0
 66
   257
 43
1.0
 76
     1
 77
     6
 78
     2
 67
     7
 79
     5
170
     0
171
     0
290
     0
174
     0
 93
       13
 44
0.0
173
     0
291
     1
 45
0.0
1001
ACAD
1000
AcDbSavedByObjectVersion
1070
     0
  0
VISUALSTYLE
  5
2D
102
{ACAD_REACTORS
330
2A
102
}
330
2A
100
AcDbVisualStyle
  2
Gouraud
 70
     2
 71
     2
 72
     2
 73
     1
 90
        2
 40
-0.6
 41
30.0
 62
     5
 63
     7
 74
     0
 91
        4
 64
     7
 65
   257
 75
     1
175
     1
 42
1.0
 92
        0
 66
     7
 43
1.0
 76
     1
 77
     6
 78
     2
 67
     7
 79
     5
170
     0
171
     0
290
     0
174
     0
 93
       13
 44
0.0
173
     0
291
     1
 45
0.0
1001
ACAD
1000
AcDbSavedByObjectVersion
1070
     0
  0
VISUALSTYLE
  5
2E
102
{ACAD_REACTORS
330
2A
102
}
330
2A
100
AcDbVisualStyle
  2
GouraudWithEdges
 70
     3
 71
     2
 72
     2
 73
     1
 90
        2
 40
-0.6
 41
30.0
 62
     5
 63
     7
 74
     1
 91
        4
 64
     7
 65
   257
 75
     1
175
     1
 42
1.0
 92
        0
 66
   257
 43
1.0
 76
     1
 77
     6
 78
     2
 67
     7
 79
     5
170
     0
171
     0
290
     0
174
     0
 93
       13
 44
0.0
173
     0
291
     1
 45
0.0
1001
ACAD
1000
AcDbSavedByObjectVersion
1070
     0
  0
VISUALSTYLE
  5
38
102
{ACAD_REACTORS
330
2A
102
}
330
2A
100
AcDbVisualStyle
  2
Linepattern
 70
    14
 71
     2
 72
     2
 73
     0
 90
        0
 40
-0.6
 41
-30.0
 62
     5
 63
     7
 74
     1
 91
        4
 64
     7
 65
   257
 75
     7
175
     7
 42
1.0
 92
        8
 66
     7
 43
1.0
 76
     1
 77
     6
 78
     2
 67
     7
 79
     5
170
     0
171
     0
290
     0
174
     0
 93
        1
 44
0.0
173
     0
291
     1
 45
0.0
1001
ACAD
1000
AcDbSavedByObjectVersion
1070
     0
  0
VISUALSTYLE
  5
33
102
{ACAD_REACTORS
330
2A
102
}
330
2A
100
AcDbVisualStyle
  2
Realistic
 70
     8
 71
     2
 72
     2
 73
     0
 90
        0
 40
-0.6
 41
-30.0
 62
     5
 63
     7
 74
     1
 91
        0
 64
     7
 65
   257
 75
     1
175
     1
 42
1.0
 92
        8
 66
     8
 43
1.0
 76
     1
 77
     6
 78
     2
 67
     7
 79
     5
170
     0
171
     0
290
     0
174
     0
 93
       13
 44
0.0
173
     0
291
     0
 45
0.0
1001
ACAD
1000
AcDbSavedByObjectVersion
1070
     0
  0
VISUALSTYLE
  5
37
102
{ACAD_REACTORS
330
2A
102
}
330
2A
100
AcDbVisualStyle
  2
Thicken
 70
    13
 71
     2
 72
     2
 73
     0
 90
        0
 40
-0.6
 41
-30.0
 62
     5
 63
     7
 74
     1
 91
        4
 64
     7
 65
   257
 75
     1
175
     1
 42
1.0
 92
       12
 66
     7
 43
1.0
 76
     1
 77
     6
 78
     2
 67
     7
 79
     5
170
     0
171
     0
290
     0
174
     0
 93
        1
 44
0.0
173
     0
291
     1
 45
0.0
1001
ACAD
1000
AcDbSavedByObjectVersion
1070
     0
  0
ENDSEC
  0
EOF
