  0
SECTION
  2
HEADER
  9
$ACADVER
  1
AC1015
  9
$ACADMAINTVER
 70
     6
  9
$DWGCODEPAGE
  3
ANSI_1252
  9
$INSBASE
 10
0.0
 20
0.0
 30
0.0
  9
$EXTMIN
 10
-261.9427270880831
 20
5.40822638488298
 30
0.0
  9
$EXTMAX
 10
35.05727291191505
 20
215.408226384883
 30
0.0
  9
$LIMMIN
 10
0.0
 20
0.0
  9
$LIMMAX
 10
12.0
 20
9.0
  9
$ORTHOMODE
 70
     0
  9
$REGENMODE
 70
     1
  9
$FILLMODE
 70
     1
  9
$QTEXTMODE
 70
     0
  9
$MIRRTEXT
 70
     1
  9
$LTSCALE
 40
1.0
  9
$ATTMODE
 70
     1
  9
$TEXTSIZE
 40
0.2
  9
$TRACEWID
 40
0.05
  9
$TEXTSTYLE
  7
Standard
  9
$CLAYER
  8
0
  9
$CELTYPE
  6
ByLayer
  9
$CECOLOR
 62
   256
  9
$CELTSCALE
 40
1.0
  9
$DISPSILH
 70
     0
  9
$DIMSCALE
 40
1.0
  9
$DIMASZ
 40
0.18
  9
$DIMEXO
 40
0.0625
  9
$DIMDLI
 40
0.38
  9
$DIMRND
 40
0.0
  9
$DIMDLE
 40
0.0
  9
$DIMEXE
 40
0.18
  9
$DIMTP
 40
0.0
  9
$DIMTM
 40
0.0
  9
$DIMTXT
 40
0.18
  9
$DIMCEN
 40
0.09
  9
$DIMTSZ
 40
0.0
  9
$DIMTOL
 70
     0
  9
$DIMLIM
 70
     0
  9
$DIMTIH
 70
     1
  9
$DIMTOH
 70
     1
  9
$DIMSE1
 70
     0
  9
$DIMSE2
 70
     0
  9
$DIMTAD
 70
     0
  9
$DIMZIN
 70
     0
  9
$DIMBLK
  1

  9
$DIMASO
 70
     1
  9
$DIMSHO
 70
     1
  9
$DIMPOST
  1

  9
$DIMAPOST
  1

  9
$DIMALT
 70
     0
  9
$DIMALTD
 70
     2
  9
$DIMALTF
 40
25.4
  9
$DIMLFAC
 40
1.0
  9
$DIMTOFL
 70
     0
  9
$DIMTVP
 40
0.0
  9
$DIMTIX
 70
     0
  9
$DIMSOXD
 70
     0
  9
$DIMSAH
 70
     0
  9
$DIMBLK1
  1

  9
$DIMBLK2
  1

  9
$DIMSTYLE
  2
Standard
  9
$DIMCLRD
 70
     0
  9
$DIMCLRE
 70
     0
  9
$DIMCLRT
 70
     0
  9
$DIMTFAC
 40
1.0
  9
$DIMGAP
 40
0.09
  9
$DIMJUST
 70
     0
  9
$DIMSD1
 70
     0
  9
$DIMSD2
 70
     0
  9
$DIMTOLJ
 70
     1
  9
$DIMTZIN
 70
     0
  9
$DIMALTZ
 70
     0
  9
$DIMALTTZ
 70
     0
  9
$DIMUPT
 70
     0
  9
$DIMDEC
 70
     4
  9
$DIMTDEC
 70
     4
  9
$DIMALTU
 70
     2
  9
$DIMALTTD
 70
     2
  9
$DIMTXSTY
  7
Standard
  9
$DIMAUNIT
 70
     0
  9
$DIMADEC
 70
     0
  9
$DIMALTRND
 40
0.0
  9
$DIMAZIN
 70
     0
  9
$DIMDSEP
 70
    46
  9
$DIMATFIT
 70
     3
  9
$DIMFRAC
 70
     0
  9
$DIMLDRBLK
  1

  9
$DIMLUNIT
 70
     2
  9
$DIMLWD
 70
    -2
  9
$DIMLWE
 70
    -2
  9
$DIMTMOVE
 70
     0
  9
$LUNITS
 70
     2
  9
$LUPREC
 70
     4
  9
$SKETCHINC
 40
0.1
  9
$FILLETRAD
 40
0.5
  9
$AUNITS
 70
     0
  9
$AUPREC
 70
     0
  9
$MENU
  1
.
  9
$ELEVATION
 40
0.0
  9
$PELEVATION
 40
0.0
  9
$THICKNESS
 40
0.0
  9
$LIMCHECK
 70
     0
  9
$CHAMFERA
 40
0.5
  9
$CHAMFERB
 40
0.5
  9
$CHAMFERC
 40
1.0
  9
$CHAMFERD
 40
0.0
  9
$SKPOLY
 70
     0
  9
$TDCREATE
 40
2455539.543779907
  9
$TDUCREATE
 40
2455539.502113241
  9
$TDUPDATE
 40
2455539.543779919
  9
$TDUUPDATE
 40
2455539.502113252
  9
$TDINDWG
 40
0.0000000116
  9
$TDUSRTIMER
 40
0.0000000116
  9
$USRTIMER
 70
     1
  9
$ANGBASE
 50
0.0
  9
$ANGDIR
 70
     0
  9
$PDMODE
 70
     0
  9
$PDSIZE
 40
0.0
  9
$PLINEWID
 40
0.0
  9
$SPLFRAME
 70
     0
  9
$SPLINETYPE
 70
     6
  9
$SPLINESEGS
 70
     8
  9
$HANDSEED
  5
30B
  9
$SURFTAB1
 70
     6
  9
$SURFTAB2
 70
     6
  9
$SURFTYPE
 70
     6
  9
$SURFU
 70
     6
  9
$SURFV
 70
     6
  9
$UCSBASE
  2

  9
$UCSNAME
  2

  9
$UCSORG
 10
0.0
 20
0.0
 30
0.0
  9
$UCSXDIR
 10
1.0
 20
0.0
 30
0.0
  9
$UCSYDIR
 10
0.0
 20
1.0
 30
0.0
  9
$UCSORTHOREF
  2

  9
$UCSORTHOVIEW
 70
     0
  9
$UCSORGTOP
 10
0.0
 20
0.0
 30
0.0
  9
$UCSORGBOTTOM
 10
0.0
 20
0.0
 30
0.0
  9
$UCSORGLEFT
 10
0.0
 20
0.0
 30
0.0
  9
$UCSORGRIGHT
 10
0.0
 20
0.0
 30
0.0
  9
$UCSORGFRONT
 10
0.0
 20
0.0
 30
0.0
  9
$UCSORGBACK
 10
0.0
 20
0.0
 30
0.0
  9
$PUCSBASE
  2

  9
$PUCSNAME
  2

  9
$PUCSORG
 10
0.0
 20
0.0
 30
0.0
  9
$PUCSXDIR
 10
1.0
 20
0.0
 30
0.0
  9
$PUCSYDIR
 10
0.0
 20
1.0
 30
0.0
  9
$PUCSORTHOREF
  2

  9
$PUCSORTHOVIEW
 70
     0
  9
$PUCSORGTOP
 10
0.0
 20
0.0
 30
0.0
  9
$PUCSORGBOTTOM
 10
0.0
 20
0.0
 30
0.0
  9
$PUCSORGLEFT
 10
0.0
 20
0.0
 30
0.0
  9
$PUCSORGRIGHT
 10
0.0
 20
0.0
 30
0.0
  9
$PUCSORGFRONT
 10
0.0
 20
0.0
 30
0.0
  9
$PUCSORGBACK
 10
0.0
 20
0.0
 30
0.0
  9
$USERI1
 70
     0
  9
$USERI2
 70
     0
  9
$USERI3
 70
     0
  9
$USERI4
 70
     0
  9
$USERI5
 70
     0
  9
$USERR1
 40
16.0
  9
$USERR2
 40
0.0
  9
$USERR3
 40
0.0
  9
$USERR4
 40
0.0
  9
$USERR5
 40
0.0
  9
$WORLDVIEW
 70
     1
  9
$SHADEDGE
 70
     3
  9
$SHADEDIF
 70
    70
  9
$TILEMODE
 70
     1
  9
$MAXACTVP
 70
    64
  9
$PINSBASE
 10
0.0
 20
0.0
 30
0.0
  9
$PLIMCHECK
 70
     0
  9
$PEXTMIN
 10
1.00000000000000E+20
 20
1.00000000000000E+20
 30
1.00000000000000E+20
  9
$PEXTMAX
 10
-1.00000000000000E+20
 20
-1.00000000000000E+20
 30
-1.00000000000000E+20
  9
$PLIMMIN
 10
0.0
 20
0.0
  9
$PLIMMAX
 10
12.0
 20
9.0
  9
$UNITMODE
 70
     0
  9
$VISRETAIN
 70
     1
  9
$PLINEGEN
 70
     0
  9
$PSLTSCALE
 70
     1
  9
$TREEDEPTH
 70
  3020
  9
$CMLSTYLE
  2
Standard
  9
$CMLJUST
 70
     0
  9
$CMLSCALE
 40
1.0
  9
$PROXYGRAPHICS
 70
     1
  9
$MEASUREMENT
 70
     1
  9
$CELWEIGHT
370
    -1
  9
$ENDCAPS
280
     0
  9
$JOINSTYLE
280
     0
  9
$LWDISPLAY
290
     0
  9
$INSUNITS
 70
     1
  9
$HYPERLINKBASE
  1

  9
$STYLESHEET
  1

  9
$XEDIT
290
     1
  9
$CEPSNTYPE
380
     0
  9
$PSTYLEMODE
290
     1
  9
$FINGERPRINTGUID
  2
{787BCF06-6658-41EE-A1C1-2D9A16707982}
  9
$VERSIONGUID
  2
{FAEB1C32-E019-11D5-929B-00C0DF256EC4}
  9
$EXTNAMES
290
     1
  9
$PSVPSCALE
 40
0.0
  9
$OLESTARTUP
290
     0
  0
ENDSEC
  0
SECTION
  2
CLASSES
  0
CLASS
  1
ACDBDICTIONARYWDFLT
  2
AcDbDictionaryWithDefault
  3
ObjectDBX Classes
 90
        0
280
     0
281
     0
  0
CLASS
  1
VISUALSTYLE
  2
AcDbVisualStyle
  3
ObjectDBX Classes
 90
     4095
280
     0
281
     0
  0
CLASS
  1

  2
exOdDbCircle
  3

 90
        0
280
     0
281
     1
  0
CLASS
  1
ACDBPLACEHOLDER
  2
AcDbPlaceHolder
  3
ObjectDBX Classes
 90
        0
280
     0
281
     0
  0
CLASS
  1
LAYOUT
  2
AcDbLayout
  3
ObjectDBX Classes
 90
        0
280
     0
281
     0
  0
ENDSEC
  0
SECTION
  2
TABLES
  0
TABLE
  2
VPORT
  5
8
330
0
100
AcDbSymbolTable
 70
     1
  0
VPORT
  5
29
330
8
100
AcDbSymbolTableRecord
100
AcDbViewportTableRecord
  2
*Active
 70
     0
 10
0.0
 20
0.0
 11
1.0
 21
1.0
 12
-113.442727088084
 22
110.408226384883
 13
0.0
 23
0.0
 14
0.5
 24
0.5
 15
0.5
 25
0.5
 16
0.0
 26
0.0
 36
1.0
 17
0.0
 27
0.0
 37
0.0
 40
231.0000000000001
 41
1.60267857142857
 42
50.0
 43
0.0
 44
0.0
 50
0.0
 51
0.0
 71
     0
 72
   100
 73
     1
 74
     3
 75
     0
 76
     0
 77
     0
 78
     0
281
     0
 65
     1
110
0.0
120
0.0
130
0.0
111
1.0
121
0.0
131
0.0
112
0.0
122
1.0
132
0.0
 79
     0
146
0.0
  0
ENDTAB
  0
TABLE
  2
LTYPE
  5
5
330
0
100
AcDbSymbolTable
 70
     8
  0
LTYPE
  5
14
330
5
100
AcDbSymbolTableRecord
100
AcDbLinetypeTableRecord
  2
ByBlock
 70
     0
  3

 72
    65
 73
     0
 40
0.0
  0
LTYPE
  5
15
330
5
100
AcDbSymbolTableRecord
100
AcDbLinetypeTableRecord
  2
ByLayer
 70
     0
  3

 72
    65
 73
     0
 40
0.0
  0
LTYPE
  5
16
330
5
100
AcDbSymbolTableRecord
100
AcDbLinetypeTableRecord
  2
Continuous
 70
     0
  3
Solid line
 72
    65
 73
     0
 40
0.0
  0
LTYPE
  5
3B
330
5
100
AcDbSymbolTableRecord
100
AcDbLinetypeTableRecord
  2
DASHED
 70
     0
  3
Dashed
 72
    65
 73
     2
 40
15.0
 49
7.0
 74
     0
 49
-8.0
 74
     0
  0
LTYPE
  5
3C
330
5
100
AcDbSymbolTableRecord
100
AcDbLinetypeTableRecord
  2
DOTTED
 70
     0
  3
Dotted
 72
    65
 73
     2
 40
1.0
 49
0.0
 74
     0
 49
-1.0
 74
     0
  0
LTYPE
  5
3D
330
5
100
AcDbSymbolTableRecord
100
AcDbLinetypeTableRecord
  2
DOT_CENTER
 70
     0
  3
Dot_Center
 72
    65
 73
     4
 40
14.0
 49
12.0
 74
     0
 49
-1.0
 74
     0
 49
0.0
 74
     0
 49
-1.0
 74
     0
  0
LTYPE
  5
3E
330
5
100
AcDbSymbolTableRecord
100
AcDbLinetypeTableRecord
  2
LONG_DASHED
 70
     0
  3
Long_Dashed
 72
    65
 73
     2
 40
15.0
 49
10.0
 74
     0
 49
-5.0
 74
     0
  0
LTYPE
  5
3F
330
5
100
AcDbSymbolTableRecord
100
AcDbLinetypeTableRecord
  2
DASH_CENTER
 70
     0
  3
Dash_Center
 72
    65
 73
     4
 40
14.0
 49
11.0
 74
     0
 49
-1.0
 74
     0
 49
1.0
 74
     0
 49
-1.0
 74
     0
  0
LTYPE
  5
40
330
5
100
AcDbSymbolTableRecord
100
AcDbLinetypeTableRecord
  2
PHANTOM
 70
     0
  3
Phantom
 72
    65
 73
     6
 40
13.0
 49
10.0
 74
     0
 49
-1.0
 74
     0
 49
0.0
 74
     0
 49
-1.0
 74
     0
 49
0.0
 74
     0
 49
-1.0
 74
     0
  0
LTYPE
  5
41
330
5
100
AcDbSymbolTableRecord
100
AcDbLinetypeTableRecord
  2
CENTER_DASH_DASH
 70
     0
  3
Center_Dash_Dash
 72
    65
 73
     6
 40
14.0
 49
9.0
 74
     0
 49
-1.0
 74
     0
 49
1.0
 74
     0
 49
-1.0
 74
     0
 49
1.0
 74
     0
 49
-1.0
 74
     0
  0
ENDTAB
  0
TABLE
  2
LAYER
  5
2
330
0
100
AcDbSymbolTable
 70
     2
  0
LAYER
  5
10
330
2
100
AcDbSymbolTableRecord
100
AcDbLayerTableRecord
  2
0
 70
     0
 62
     7
  6
Continuous
370
    -3
390
F
  0
LAYER
  5
42
330
2
100
AcDbSymbolTableRecord
100
AcDbLayerTableRecord
  2
1
 70
     0
 62
     7
  6
Continuous
370
    -3
390
F
  0
ENDTAB
  0
TABLE
  2
STYLE
  5
3
330
0
100
AcDbSymbolTable
 70
     9
  0
STYLE
  5
11
330
3
100
AcDbSymbolTableRecord
100
AcDbTextStyleTableRecord
  2
Standard
 70
     0
 40
0.0
 41
1.0
 50
0.0
 71
     0
 42
0.2
  3
txt
  4

  0
STYLE
  5
9F
330
3
100
AcDbSymbolTableRecord
100
AcDbTextStyleTableRecord
  2
CONVERTER_11
 70
     0
 40
0.0
 41
0.9
 50
0.0
 71
     0
 42
0.2
  3
txt.shx
  4

  0
STYLE
  5
292
330
3
100
AcDbSymbolTableRecord
100
AcDbTextStyleTableRecord
  2
CONVERTER_12
 70
     0
 40
0.0
 41
0.63
 50
0.0
 71
     0
 42
0.2
  3
txt.shx
  4

  0
STYLE
  5
295
330
3
100
AcDbSymbolTableRecord
100
AcDbTextStyleTableRecord
  2
CONVERTER_13
 70
     0
 40
0.0
 41
0.72
 50
0.0
 71
     0
 42
0.2
  3
txt.shx
  4

  0
STYLE
  5
299
330
3
100
AcDbSymbolTableRecord
100
AcDbTextStyleTableRecord
  2
CONVERTER_14
 70
     0
 40
0.0
 41
0.765
 50
0.0
 71
     0
 42
0.2
  3
txt.shx
  4

  0
STYLE
  5
2D1
330
3
100
AcDbSymbolTableRecord
100
AcDbTextStyleTableRecord
  2
CONVERTER_15
 70
     0
 40
0.0
 41
0.855
 50
0.0
 71
     0
 42
0.2
  3
txt.shx
  4

  0
STYLE
  5
2ED
330
3
100
AcDbSymbolTableRecord
100
AcDbTextStyleTableRecord
  2
CONVERTER_16
 70
     0
 40
0.0
 41
0.54
 50
0.0
 71
     0
 42
0.2
  3
txt.shx
  4

  0
STYLE
  5
2EF
330
3
100
AcDbSymbolTableRecord
100
AcDbTextStyleTableRecord
  2
CONVERTER_17
 70
     0
 40
0.0
 41
0.81
 50
0.0
 71
     0
 42
0.2
  3
txt.shx
  4

  0
STYLE
  5
2F6
330
3
100
AcDbSymbolTableRecord
100
AcDbTextStyleTableRecord
  2
CONVERTER_18
 70
     0
 40
0.0
 41
0.45
 50
0.0
 71
     0
 42
0.2
  3
txt.shx
  4

  0
ENDTAB
  0
TABLE
  2
VIEW
  5
6
330
0
100
AcDbSymbolTable
 70
     0
  0
ENDTAB
  0
TABLE
  2
UCS
  5
7
330
0
100
AcDbSymbolTable
 70
     0
  0
ENDTAB
  0
TABLE
  2
APPID
  5
9
330
0
100
AcDbSymbolTable
 70
     1
  0
APPID
  5
12
330
9
100
AcDbSymbolTableRecord
100
AcDbRegAppTableRecord
  2
ACAD
 70
     0
  0
ENDTAB
  0
TABLE
  2
DIMSTYLE
  5
A
330
0
100
AcDbSymbolTable
 70
     6
100
AcDbDimStyleTable
  0
DIMSTYLE
105
27
330
A
100
AcDbSymbolTableRecord
100
AcDbDimStyleTableRecord
  2
Standard
 70
     0
340
11
  0
DIMSTYLE
105
EA
102
{ACAD_REACTORS
330
EB
102
}
330
A
100
AcDbSymbolTableRecord
100
AcDbDimStyleTableRecord
  2
ME10_DIM_10
 70
     0
 41
3.5
 42
0.0
 44
2.0
 73
     0
 74
     0
 77
     1
 78
     8
140
3.5
147
2.0
172
     1
173
     1
176
     2
177
     2
178
     3
340
9F
  0
DIMSTYLE
105
F5
102
{ACAD_REACTORS
330
F6
102
}
330
A
100
AcDbSymbolTableRecord
100
AcDbDimStyleTableRecord
  2
ME10_DIM_11
 70
     0
 41
3.5
 42
0.0
 44
2.0
 73
     0
 74
     0
 77
     1
 78
     8
140
3.5
147
2.0
172
     1
173
     1
176
     2
177
     2
178
     3
340
9F
  0
DIMSTYLE
105
100
102
{ACAD_REACTORS
330
101
102
}
330
A
100
AcDbSymbolTableRecord
100
AcDbDimStyleTableRecord
  2
ME10_DIM_12
 70
     0
 41
3.5
 42
0.0
 44
2.0
 73
     0
 74
     0
 77
     1
 78
     8
140
3.5
147
2.0
172
     1
173
     1
176
     2
177
     2
178
     3
271
     0
340
9F
  0
DIMSTYLE
105
11A
102
{ACAD_REACTORS
330
11B
102
}
330
A
100
AcDbSymbolTableRecord
100
AcDbDimStyleTableRecord
  2
ME10_DIM_13
 70
     0
 41
3.5
 42
0.0
 44
2.0
 73
     0
 74
     0
 77
     1
 78
     8
140
3.5
147
2.0
172
     1
173
     1
176
     2
177
     2
178
     3
340
9F
  0
DIMSTYLE
105
127
102
{ACAD_REACTORS
330
128
102
}
330
A
100
AcDbSymbolTableRecord
100
AcDbDimStyleTableRecord
  2
ME10_DIM_14
 70
     0
 41
3.5
 42
0.0
 44
2.0
 73
     0
 74
     0
 77
     1
 78
     8
140
3.5
147
2.0
172
     1
173
     1
176
     2
177
     2
178
     3
271
     1
340
9F
  0
ENDTAB
  0
TABLE
  2
BLOCK_RECORD
  5
1
330
0
100
AcDbSymbolTable
 70
    21
  0
BLOCK_RECORD
  5
1F
330
1
100
AcDbSymbolTableRecord
100
AcDbBlockTableRecord
  2
*Model_Space
340
22
  0
BLOCK_RECORD
  5
1B
330
1
100
AcDbSymbolTableRecord
100
AcDbBlockTableRecord
  2
*Paper_Space
340
1E
  0
BLOCK_RECORD
  5
23
330
1
100
AcDbSymbolTableRecord
100
AcDbBlockTableRecord
  2
*Paper_Space0
340
26
  0
BLOCK_RECORD
  5
43
330
1
100
AcDbSymbolTableRecord
100
AcDbBlockTableRecord
  2
3030336_FBS_2-6_select__1
340
0
102
{BLKREFS
331
47
102
}
  0
BLOCK_RECORD
  5
46
330
1
100
AcDbSymbolTableRecord
100
AcDbBlockTableRecord
  2
AllgSicht1
340
0
102
{BLKREFS
331
78
102
}
  0
BLOCK_RECORD
  5
4A
330
1
100
AcDbSymbolTableRecord
100
AcDbBlockTableRecord
  2
3030336_FBS_2-6_select__2
340
0
102
{BLKREFS
331
4E
102
}
  0
BLOCK_RECORD
  5
4D
330
1
100
AcDbSymbolTableRecord
100
AcDbBlockTableRecord
  2
Drfsicht1
340
0
102
{BLKREFS
331
79
102
}
  0
BLOCK_RECORD
  5
51
330
1
100
AcDbSymbolTableRecord
100
AcDbBlockTableRecord
  2
3030336_FBS_2-6_select__3
340
0
102
{BLKREFS
331
55
102
}
  0
BLOCK_RECORD
  5
54
330
1
100
AcDbSymbolTableRecord
100
AcDbBlockTableRecord
  2
Rckans1
340
0
102
{BLKREFS
331
7A
102
}
  0
BLOCK_RECORD
  5
58
330
1
100
AcDbSymbolTableRecord
100
AcDbBlockTableRecord
  2
3030336_FBS_2-6_select__4
340
0
102
{BLKREFS
331
5C
102
}
  0
BLOCK_RECORD
  5
5B
330
1
100
AcDbSymbolTableRecord
100
AcDbBlockTableRecord
  2
SA_Links1
340
0
102
{BLKREFS
331
7B
102
}
  0
BLOCK_RECORD
  5
5F
330
1
100
AcDbSymbolTableRecord
100
AcDbBlockTableRecord
  2
3030336_FBS_2-6_select__5
340
0
102
{BLKREFS
331
63
102
}
  0
BLOCK_RECORD
  5
62
330
1
100
AcDbSymbolTableRecord
100
AcDbBlockTableRecord
  2
SA_Rechts1
340
0
102
{BLKREFS
331
7C
102
}
  0
BLOCK_RECORD
  5
66
330
1
100
AcDbSymbolTableRecord
100
AcDbBlockTableRecord
  2
3030336_FBS_2-6_select__6
340
0
102
{BLKREFS
331
6A
102
}
  0
BLOCK_RECORD
  5
69
330
1
100
AcDbSymbolTableRecord
100
AcDbBlockTableRecord
  2
Vordans1
340
0
102
{BLKREFS
331
7D
102
}
  0
BLOCK_RECORD
  5
6D
330
1
100
AcDbSymbolTableRecord
100
AcDbBlockTableRecord
  2
_rahmen
340
0
102
{BLKREFS
331
74
102
}
  0
BLOCK_RECORD
  5
70
330
1
100
AcDbSymbolTableRecord
100
AcDbBlockTableRecord
  2
_punkt
340
0
102
{BLKREFS
331
75
102
}
  0
BLOCK_RECORD
  5
73
330
1
100
AcDbSymbolTableRecord
100
AcDbBlockTableRecord
  2
A4I
340
0
102
{BLKREFS
331
7E
102
}
  0
BLOCK_RECORD
  5
E1
330
1
100
AcDbSymbolTableRecord
100
AcDbBlockTableRecord
  2
*D16
340
0
  0
BLOCK_RECORD
  5
EC
330
1
100
AcDbSymbolTableRecord
100
AcDbBlockTableRecord
  2
*D17
340
0
  0
BLOCK_RECORD
  5
F7
330
1
100
AcDbSymbolTableRecord
100
AcDbBlockTableRecord
  2
*D18
340
0
  0
BLOCK_RECORD
  5
10F
330
1
100
AcDbSymbolTableRecord
100
AcDbBlockTableRecord
  2
*D19
340
0
  0
BLOCK_RECORD
  5
11C
330
1
100
AcDbSymbolTableRecord
100
AcDbBlockTableRecord
  2
*D20
340
0
  0
ENDTAB
  0
ENDSEC
  0
SECTION
  2
BLOCKS
  0
BLOCK
  5
20
330
1F
100
AcDbEntity
  8
0
100
AcDbBlockBegin
  2
*Model_Space
 70
     0
 10
0.0
 20
0.0
 30
0.0
  3
*Model_Space
  1

  0
ENDBLK
  5
21
330
1F
100
AcDbEntity
  8
0
100
AcDbBlockEnd
  0
BLOCK
  5
1C
330
1B
100
AcDbEntity
 67
     1
  8
0
100
AcDbBlockBegin
  2
*Paper_Space
 70
     0
 10
0.0
 20
0.0
 30
0.0
  3
*Paper_Space
  1

  0
ENDBLK
  5
1D
330
1B
100
AcDbEntity
 67
     1
  8
0
100
AcDbBlockEnd
  0
BLOCK
  5
24
330
23
100
AcDbEntity
  8
0
100
AcDbBlockBegin
  2
*Paper_Space0
 70
     0
 10
0.0
 20
0.0
 30
0.0
  3
*Paper_Space0
  1

  0
ENDBLK
  5
25
330
23
100
AcDbEntity
  8
0
100
AcDbBlockEnd
  0
BLOCK
  5
44
330
43
100
AcDbEntity
  8
0
100
AcDbBlockBegin
  2
3030336_FBS_2-6_select__1
 70
     0
 10
-40.97403801612944
 20
75.25596330931738
 30
0.0
  3
3030336_FBS_2-6_select__1
  1

  0
LINE
  5
7F
330
43
100
AcDbEntity
  8
0
  6
Continuous
 62
     7
100
AcDbLine
 10
-33.02596180477615
 20
98.76018105081396
 30
0.0
 11
-38.37596180477613
 21
94.12694514056722
 31
0.0
  0
LINE
  5
80
330
43
100
AcDbEntity
  8
0
  6
Continuous
 62
     7
100
AcDbLine
 10
-36.58522570798191
 20
78.34064206104907
 30
0.0
 11
-35.19958506192663
 21
77.94064206104922
 31
0.0
  0
LINE
  5
81
330
43
100
AcDbEntity
  8
0
  6
Continuous
 62
     7
100
AcDbLine
 10
-35.38217958741771
 20
80.35826595973728
 30
0.0
 11
-35.19958506192663
 21
77.94064206104922
 31
0.0
  0
LINE
  5
82
330
43
100
AcDbEntity
  8
0
  6
Continuous
 62
     7
100
AcDbLine
 10
-36.12596180477614
 20
84.29755680761383
 30
0.0
 11
-36.12596180477614
 21
90.87934987637557
 31
0.0
  0
LINE
  5
83
330
43
100
AcDbEntity
  8
0
  6
Continuous
 62
     7
100
AcDbLine
 10
-39.86782023347288
 20
78.07358720800775
 30
0.0
 11
-38.48217958741778
 21
77.67358720800775
 31
0.0
  0
LINE
  5
84
330
43
100
AcDbEntity
  8
0
  6
Continuous
 62
     7
100
AcDbLine
 10
-36.76782023347282
 20
80.75826595973729
 30
0.0
 11
-35.38217958741771
 21
80.35826595973728
 31
0.0
  0
LINE
  5
85
330
43
100
AcDbEntity
  8
0
  6
Continuous
 62
     7
100
AcDbLine
 10
-37.2321795874165
 20
78.75611896274458
 30
0.0
 11
-37.2321795874165
 21
83.33954410572919
 31
0.0
  0
LINE
  5
86
330
43
100
AcDbEntity
  8
0
  6
Continuous
 62
     7
100
AcDbLine
 10
-36.76782023347282
 20
83.74169110272933
 30
0.0
 11
-36.76782023347282
 21
80.75826595973729
 31
0.0
  0
LINE
  5
87
330
43
100
AcDbEntity
  8
0
  6
Continuous
 62
     7
100
AcDbLine
 10
-39.86782023347288
 20
78.07358720800775
 30
0.0
 11
-39.86782023347287
 21
82.77966208179927
 31
0.0
  0
LINE
  5
88
330
43
100
AcDbEntity
  8
0
  6
Continuous
 62
     7
100
AcDbLine
 10
-34.13217958741642
 20
81.44079771447628
 30
0.0
 11
-34.13217958741642
 21
86.02422285746101
 31
0.0
  0
LINE
  5
89
330
43
100
AcDbEntity
  8
0
  6
Continuous
 62
     7
100
AcDbLine
 10
-35.27596180477615
 20
85.0336784008306
 30
0.0
 11
-33.02596180477615
 21
86.98223555934558
 31
0.0
  0
LINE
  5
8A
330
43
100
AcDbEntity
  8
0
  6
Continuous
 62
     7
100
AcDbLine
 10
-35.62403801612945
 20
99.51018105081396
 30
0.0
 11
-40.97403801612944
 21
94.8769451405672
 31
0.0
  0
LINE
  5
8B
330
43
100
AcDbEntity
  8
0
  6
Continuous
 62
     7
100
AcDbLine
 10
-35.27596180477613
 20
91.61547146959234
 30
0.0
 11
-36.12596180477614
 21
90.87934987637557
 31
0.0
  0
LINE
  5
8C
330
43
100
AcDbEntity
  8
0
  6
Continuous
 62
     7
100
AcDbLine
 10
-40.97403801612944
 20
94.8769451405672
 30
0.0
 11
-38.37596180477613
 21
94.12694514056722
 31
0.0
  0
LINE
  5
8D
330
43
100
AcDbEntity
  8
0
  6
Continuous
 62
     7
100
AcDbLine
 10
-40.97403801612944
 20
83.09899964909884
 30
0.0
 11
-38.37596180477613
 21
82.34899964909884
 31
0.0
  0
LINE
  5
8E
330
43
100
AcDbEntity
  8
0
  6
Continuous
 62
     7
100
AcDbLine
 10
-38.37596180477613
 20
82.34899964909884
 30
0.0
 11
-36.12596180477614
 21
84.29755680761383
 31
0.0
  0
LINE
  5
8F
330
43
100
AcDbEntity
  8
0
  6
Continuous
 62
     7
100
AcDbLine
 10
-35.62403801612945
 20
99.51018105081396
 30
0.0
 11
-33.02596180477615
 21
98.76018105081396
 31
0.0
  0
LINE
  5
90
330
43
100
AcDbEntity
  8
0
  6
Continuous
 62
     7
100
AcDbLine
 10
-33.02596180477615
 20
98.76018105081396
 30
0.0
 11
-33.02596180477615
 21
86.98223555934558
 31
0.0
  0
LINE
  5
91
330
43
100
AcDbEntity
  8
0
  6
Continuous
 62
     7
100
AcDbLine
 10
-40.97403801612944
 20
83.09899964909884
 30
0.0
 11
-40.97403801612944
 21
94.8769451405672
 31
0.0
  0
LINE
  5
92
330
43
100
AcDbEntity
  8
0
  6
Continuous
 62
     7
100
AcDbLine
 10
-38.37596180477613
 20
82.34899964909884
 30
0.0
 11
-38.37596180477613
 21
94.12694514056722
 31
0.0
  0
LINE
  5
93
330
43
100
AcDbEntity
  8
0
  6
Continuous
 62
     7
100
AcDbLine
 10
-36.76782023347282
 20
80.75826595973729
 30
0.0
 11
-36.58522570798191
 21
78.34064206104907
 31
0.0
  0
LINE
  5
94
330
43
100
AcDbEntity
  8
0
  6
Continuous
 62
     7
100
AcDbLine
 10
-34.31477411290803
 20
78.70691082044594
 30
0.0
 11
-34.13217958741642
 21
81.44079771447628
 31
0.0
  0
LINE
  5
95
330
43
100
AcDbEntity
  8
0
  6
Continuous
 62
     7
100
AcDbLine
 10
-36.12596180477613
 20
85.27905226523619
 30
0.0
 11
-35.27596180477615
 21
85.0336784008306
 31
0.0
  0
LINE
  5
96
330
43
100
AcDbEntity
  8
0
  6
Continuous
 62
     7
100
AcDbLine
 10
-35.38217958741771
 20
85.06434083353102
 30
0.0
 11
-35.38217958741771
 21
80.35826595973728
 31
0.0
  0
LINE
  5
97
330
43
100
AcDbEntity
  8
0
  6
Continuous
 62
     7
100
AcDbLine
 10
-35.19958506192663
 20
77.94064206104922
 30
0.0
 11
-34.31477411290803
 21
78.70691082044594
 31
0.0
  0
LINE
  5
98
330
43
100
AcDbEntity
  8
0
  6
Continuous
 62
     7
100
AcDbLine
 10
-35.27596180477613
 20
91.61547146959234
 30
0.0
 11
-35.27596180477615
 21
85.0336784008306
 31
0.0
  0
LINE
  5
99
330
43
100
AcDbEntity
  8
0
  6
Continuous
 62
     7
100
AcDbLine
 10
-38.29958506192672
 20
75.25596330931738
 30
0.0
 11
-39.68522570798181
 21
75.65596330931739
 31
0.0
  0
LINE
  5
9A
330
43
100
AcDbEntity
  8
0
  6
Continuous
 62
     7
100
AcDbLine
 10
-38.48217958741778
 20
77.67358720800775
 30
0.0
 11
-38.29958506192672
 21
75.25596330931738
 31
0.0
  0
LINE
  5
9B
330
43
100
AcDbEntity
  8
0
  6
Continuous
 62
     7
100
AcDbLine
 10
-38.48217958741778
 20
77.67358720800775
 30
0.0
 11
-38.48217958741778
 21
82.37966208179928
 31
0.0
  0
LINE
  5
9C
330
43
100
AcDbEntity
  8
0
  6
Continuous
 62
     7
100
AcDbLine
 10
-37.2321795874165
 20
78.75611896274458
 30
0.0
 11
-37.41477411290809
 21
76.02223206871413
 31
0.0
  0
LINE
  5
9D
330
43
100
AcDbEntity
  8
0
  6
Continuous
 62
     7
100
AcDbLine
 10
-38.29958506192672
 20
75.25596330931738
 30
0.0
 11
-37.41477411290809
 21
76.02223206871413
 31
0.0
  0
LINE
  5
9E
330
43
100
AcDbEntity
  8
0
  6
Continuous
 62
     7
100
AcDbLine
 10
-39.68522570798181
 20
75.65596330931739
 30
0.0
 11
-39.86782023347288
 21
78.07358720800775
 31
0.0
  0
ENDBLK
  5
45
330
43
100
AcDbEntity
  8
0
100
AcDbBlockEnd
  0
BLOCK
  5
48
330
46
100
AcDbEntity
  8
0
100
AcDbBlockBegin
  2
AllgSicht1
 70
     0
 10
-37.00000000000014
 20
86.99999999995498
 30
0.0
  3
AllgSicht1
  1

  0
INSERT
  5
47
330
46
100
AcDbEntity
  8
0
100
AcDbBlockReference
  2
3030336_FBS_2-6_select__1
 10
-40.97403801612944
 20
75.25596330931738
 30
0.0
  0
MTEXT
  5
A0
330
46
100
AcDbEntity
  8
1
 62
     6
100
AcDbMText
 10
-37.0
 20
69.4898188332728
 30
0.0
 40
5.0
 41
0.0
 71
     2
 72
     1
  1
 
  7
CONVERTER_11
 73
     1
 44
1.32052821128451
  0
ENDBLK
  5
49
330
46
100
AcDbEntity
  8
0
100
AcDbBlockEnd
  0
BLOCK
  5
4B
330
4A
100
AcDbEntity
  8
0
100
AcDbBlockBegin
  2
3030336_FBS_2-6_select__2
 70
     0
 10
-121.4999999999837
 20
90.65000017908596
 30
0.0
  3
3030336_FBS_2-6_select__2
  1

  0
LINE
  5
A1
330
4A
100
AcDbEntity
  8
0
  6
Continuous
 62
     7
100
AcDbLine
 10
-121.4999999999837
 20
101.350000179086
 30
0.0
 11
-121.4999999999837
 21
90.65000017908596
 31
0.0
  0
LINE
  5
A2
330
4A
100
AcDbEntity
  8
0
  6
Continuous
 62
     7
100
AcDbLine
 10
-121.4999999999837
 20
90.65000017908596
 30
0.0
 11
-118.4999999999837
 21
90.65000017908596
 31
0.0
  0
LINE
  5
A3
330
4A
100
AcDbEntity
  8
0
  6
Continuous
 62
     7
100
AcDbLine
 10
-118.4999999999837
 20
101.350000179086
 30
0.0
 11
-118.4999999999837
 21
90.65000017908596
 31
0.0
  0
LINE
  5
A4
330
4A
100
AcDbEntity
  8
0
  6
Continuous
 62
     7
100
AcDbLine
 10
-121.4999999999837
 20
101.350000179086
 30
0.0
 11
-118.4999999999837
 21
101.350000179086
 31
0.0
  0
ENDBLK
  5
4C
330
4A
100
AcDbEntity
  8
0
100
AcDbBlockEnd
  0
BLOCK
  5
4F
330
4D
100
AcDbEntity
  8
0
100
AcDbBlockBegin
  2
Drfsicht1
 70
     0
 10
-119.99999999999
 20
95.99999999999994
 30
0.0
  3
Drfsicht1
  1

  0
INSERT
  5
4E
330
4D
100
AcDbEntity
  8
0
100
AcDbBlockReference
  2
3030336_FBS_2-6_select__2
 10
-121.4999999999837
 20
90.65000017908596
 30
0.0
  0
MTEXT
  5
A5
330
4D
100
AcDbEntity
  8
1
 62
     6
100
AcDbMText
 10
-119.99999999999
 20
85.64999973773956
 30
0.0
 40
5.0
 41
0.0
 71
     2
 72
     1
  1
 
  7
CONVERTER_11
 73
     1
 44
1.32052821128451
  0
ENDBLK
  5
50
330
4D
100
AcDbEntity
  8
0
100
AcDbBlockEnd
  0
BLOCK
  5
52
330
51
100
AcDbEntity
  8
0
100
AcDbBlockBegin
  2
3030336_FBS_2-6_select__3
 70
     0
 10
-46.62221346954742
 20
131.3500003608001
 30
0.0
  3
3030336_FBS_2-6_select__3
  1

  0
LINE
  5
A6
330
51
100
AcDbEntity
  8
0
  6
Continuous
 62
     7
100
AcDbLine
 10
-44.3222134695556
 20
140.4250003607932
 30
0.0
 11
-45.9222134695556
 21
140.425000360793
 31
0.0
  0
LINE
  5
A7
330
51
100
AcDbEntity
  8
0
  6
Continuous
 62
     7
100
AcDbLine
 10
-45.9222134695556
 20
140.425000360793
 30
0.0
 11
-46.62221346954585
 21
140.4250003607929
 31
0.0
  0
LINE
  5
A8
330
51
100
AcDbEntity
  8
0
  6
Continuous
 62
     7
100
AcDbLine
 10
-43.62221346954586
 20
140.4250003607933
 30
0.0
 11
-44.3222134695556
 21
140.4250003607932
 31
0.0
  0
LINE
  5
A9
330
51
100
AcDbEntity
  8
0
  6
Continuous
 62
     7
100
AcDbLine
 10
-43.62221346954586
 20
140.4250003607933
 30
0.0
 11
-43.62221346954743
 21
154.0250003607933
 31
0.0
  0
LINE
  5
AA
330
51
100
AcDbEntity
  8
0
  6
Continuous
 62
     7
100
AcDbLine
 10
-43.62221346954743
 20
154.0250003607933
 30
0.0
 11
-46.62221346954742
 21
154.0250003607929
 31
0.0
  0
LINE
  5
AB
330
51
100
AcDbEntity
  8
0
  6
Continuous
 62
     7
100
AcDbLine
 10
-46.62221346954742
 20
154.0250003607929
 30
0.0
 11
-46.62221346954585
 21
140.4250003607929
 31
0.0
  0
LINE
  5
AC
330
51
100
AcDbEntity
  8
0
  6
Continuous
 62
     7
100
AcDbLine
 10
-44.3222134695549
 20
134.3242265037135
 30
0.0
 11
-44.32221346955456
 21
131.3500003608003
 31
0.0
  0
LINE
  5
AD
330
51
100
AcDbEntity
  8
0
  6
Continuous
 62
     7
100
AcDbLine
 10
-45.9222134695549
 20
134.3242265037133
 30
0.0
 11
-44.3222134695549
 21
134.3242265037135
 31
0.0
  0
LINE
  5
AE
330
51
100
AcDbEntity
  8
0
  6
Continuous
 62
     7
100
AcDbLine
 10
-44.3222134695549
 20
134.3242265037135
 30
0.0
 11
-44.3222134695556
 21
140.4250003607932
 31
0.0
  0
LINE
  5
AF
330
51
100
AcDbEntity
  8
0
  6
Continuous
 62
     7
100
AcDbLine
 10
-45.92221346955455
 20
131.3500003608001
 30
0.0
 11
-44.32221346955456
 21
131.3500003608003
 31
0.0
  0
LINE
  5
B0
330
51
100
AcDbEntity
  8
0
  6
Continuous
 62
     7
100
AcDbLine
 10
-45.9222134695549
 20
134.3242265037133
 30
0.0
 11
-45.9222134695556
 21
140.425000360793
 31
0.0
  0
LINE
  5
B1
330
51
100
AcDbEntity
  8
0
  6
Continuous
 62
     7
100
AcDbLine
 10
-45.9222134695549
 20
134.3242265037133
 30
0.0
 11
-45.92221346955455
 21
131.3500003608001
 31
0.0
  0
ENDBLK
  5
53
330
51
100
AcDbEntity
  8
0
100
AcDbBlockEnd
  0
BLOCK
  5
56
330
54
100
AcDbEntity
  8
0
100
AcDbBlockBegin
  2
Rckans1
 70
     0
 10
-45.12221346954111
 20
142.6875003575781
 30
0.0
  3
Rckans1
  1

  0
INSERT
  5
55
330
54
100
AcDbEntity
  8
0
100
AcDbBlockReference
  2
3030336_FBS_2-6_select__3
 10
-46.62221346954742
 20
131.3500003608001
 30
0.0
  0
MTEXT
  5
B2
330
54
100
AcDbEntity
  8
1
 62
     6
100
AcDbMText
 10
-45.12221346954111
 20
126.3500002622104
 30
0.0
 40
5.0
 41
0.0
 71
     2
 72
     1
  1
 
  7
CONVERTER_11
 73
     1
 44
1.32052821128451
  0
ENDBLK
  5
57
330
54
100
AcDbEntity
  8
0
100
AcDbBlockEnd
  0
BLOCK
  5
59
330
58
100
AcDbEntity
  8
0
100
AcDbBlockBegin
  2
3030336_FBS_2-6_select__4
 70
     0
 10
-90.52210602472276
 20
131.3500003608003
 30
0.0
  3
3030336_FBS_2-6_select__4
  1

  0
LINE
  5
B3
330
58
100
AcDbEntity
  8
0
  6
Continuous
 62
     7
100
AcDbLine
 10
-89.1569169737403
 20
131.3500003608003
 30
0.0
 11
-89.52210602472351
 21
134.3242265037135
 31
0.0
  0
LINE
  5
B4
330
58
100
AcDbEntity
  8
0
  6
Continuous
 62
     7
100
AcDbLine
 10
-80.82210602472081
 20
140.4250003607932
 30
0.0
 11
-83.32210602472338
 21
140.4250003607932
 31
0.0
  0
LINE
  5
B5
330
58
100
AcDbEntity
  8
0
  6
Continuous
 62
     7
100
AcDbLine
 10
-79.82210602472276
 20
140.4250003607932
 30
0.0
 11
-80.82210602472081
 21
140.4250003607932
 31
0.0
  0
LINE
  5
B6
330
58
100
AcDbEntity
  8
0
  6
Continuous
 62
     7
100
AcDbLine
 10
-83.32210602472338
 20
140.4250003607932
 30
0.0
 11
-84.32210602472276
 21
140.4250003607932
 31
0.0
  0
LINE
  5
B7
330
58
100
AcDbEntity
  8
0
  6
Continuous
 62
     7
100
AcDbLine
 10
-80.8221060247208
 20
134.3242265037076
 30
0.0
 11
-80.82210602472081
 21
140.4250003607932
 31
0.0
  0
LINE
  5
B8
330
58
100
AcDbEntity
  8
0
  6
Continuous
 62
     7
100
AcDbLine
 10
-79.82210602472276
 20
140.4250003607932
 30
0.0
 11
-79.82210602472276
 21
154.0250003607932
 31
0.0
  0
LINE
  5
B9
330
58
100
AcDbEntity
  8
0
  6
Continuous
 62
     7
100
AcDbLine
 10
-90.52210602472276
 20
154.0250003607932
 30
0.0
 11
-79.82210602472276
 21
154.0250003607932
 31
0.0
  0
LINE
  5
BA
330
58
100
AcDbEntity
  8
0
  6
Continuous
 62
     7
100
AcDbLine
 10
-90.52210602472276
 20
140.4250003607932
 30
0.0
 11
-90.52210602472276
 21
154.0250003607932
 31
0.0
  0
LINE
  5
BB
330
58
100
AcDbEntity
  8
0
  6
Continuous
 62
     7
100
AcDbLine
 10
-87.02210602472093
 20
140.4250003607932
 30
0.0
 11
-89.52210602472351
 21
140.4250003607932
 31
0.0
  0
LINE
  5
BC
330
58
100
AcDbEntity
  8
0
  6
Continuous
 62
     7
100
AcDbLine
 10
-89.52210602472351
 20
140.4250003607932
 30
0.0
 11
-90.52210602472276
 21
140.4250003607932
 31
0.0
  0
LINE
  5
BD
330
58
100
AcDbEntity
  8
0
  6
Continuous
 62
     7
100
AcDbLine
 10
-86.02210602472276
 20
140.4250003607932
 30
0.0
 11
-87.02210602472093
 21
140.4250003607932
 31
0.0
  0
LINE
  5
BE
330
58
100
AcDbEntity
  8
0
  6
Continuous
 62
     7
100
AcDbLine
 10
-83.32210602472338
 20
134.3242265037136
 30
0.0
 11
-83.32210602472338
 21
140.4250003607932
 31
0.0
  0
LINE
  5
BF
330
58
100
AcDbEntity
  8
0
  6
Continuous
 62
     7
100
AcDbLine
 10
-84.32210602472276
 20
148.0250003607932
 30
0.0
 11
-84.32210602472276
 21
140.4250003607932
 31
0.0
  0
LINE
  5
C0
330
58
100
AcDbEntity
  8
0
  6
Continuous
 62
     7
100
AcDbLine
 10
-86.02210602472276
 20
148.0250003607932
 30
0.0
 11
-84.32210602472276
 21
148.0250003607932
 31
0.0
  0
LINE
  5
C1
330
58
100
AcDbEntity
  8
0
  6
Continuous
 62
     7
100
AcDbLine
 10
-89.52210602472351
 20
134.3242265037135
 30
0.0
 11
-89.52210602472351
 21
140.4250003607932
 31
0.0
  0
LINE
  5
C2
330
58
100
AcDbEntity
  8
0
  6
Continuous
 62
     7
100
AcDbLine
 10
-87.02210602472093
 20
140.4250003607932
 30
0.0
 11
-87.02210602472093
 21
134.324226503705
 31
0.0
  0
LINE
  5
C3
330
58
100
AcDbEntity
  8
0
  6
Continuous
 62
     7
100
AcDbLine
 10
-86.02210602472276
 20
140.4250003607932
 30
0.0
 11
-86.02210602472276
 21
148.0250003607932
 31
0.0
  0
LINE
  5
C4
330
58
100
AcDbEntity
  8
0
  6
Continuous
 62
     7
100
AcDbLine
 10
-81.18729507570293
 20
131.3500003608003
 30
0.0
 11
-80.8221060247208
 21
134.3242265037076
 31
0.0
  0
LINE
  5
C5
330
58
100
AcDbEntity
  8
0
  6
Continuous
 62
     7
100
AcDbLine
 10
-81.18729507570293
 20
131.3500003608003
 30
0.0
 11
-82.95691697374018
 21
131.3500003608003
 31
0.0
  0
LINE
  5
C6
330
58
100
AcDbEntity
  8
0
  6
Continuous
 62
     7
100
AcDbLine
 10
-83.32210602472338
 20
134.3242265037136
 30
0.0
 11
-82.95691697374018
 21
131.3500003608003
 31
0.0
  0
LINE
  5
C7
330
58
100
AcDbEntity
  8
0
  6
Continuous
 62
     7
100
AcDbLine
 10
-87.02210602472093
 20
134.324226503705
 30
0.0
 11
-87.38729507570275
 21
131.3500003608003
 31
0.0
  0
LINE
  5
C8
330
58
100
AcDbEntity
  8
0
  6
Continuous
 62
     7
100
AcDbLine
 10
-87.38729507570275
 20
131.3500003608003
 30
0.0
 11
-89.1569169737403
 21
131.3500003608003
 31
0.0
  0
ENDBLK
  5
5A
330
58
100
AcDbEntity
  8
0
100
AcDbBlockEnd
  0
BLOCK
  5
5D
330
5B
100
AcDbEntity
  8
0
100
AcDbBlockBegin
  2
SA_Links1
 70
     0
 10
-85.17210584563675
 20
142.6875003575781
 30
0.0
  3
SA_Links1
  1

  0
INSERT
  5
5C
330
5B
100
AcDbEntity
  8
0
100
AcDbBlockReference
  2
3030336_FBS_2-6_select__4
 10
-90.52210602472276
 20
131.3500003608003
 30
0.0
  0
MTEXT
  5
C9
330
5B
100
AcDbEntity
  8
1
 62
     6
100
AcDbMText
 10
-85.1721058456367
 20
126.3500002622104
 30
0.0
 40
5.0
 41
0.0
 71
     2
 72
     1
  1
 
  7
CONVERTER_11
 73
     1
 44
1.32052821128451
  0
ENDBLK
  5
5E
330
5B
100
AcDbEntity
  8
0
100
AcDbBlockEnd
  0
BLOCK
  5
60
330
5F
100
AcDbEntity
  8
0
100
AcDbBlockBegin
  2
3030336_FBS_2-6_select__5
 70
     0
 10
-164.7000000831744
 20
131.3500003608001
 30
0.0
  3
3030336_FBS_2-6_select__5
  1

  0
LINE
  5
CA
330
5F
100
AcDbEntity
  8
0
  6
Continuous
 62
     7
100
AcDbLine
 10
-155.3651891341569
 20
131.3500003608001
 30
0.0
 11
-155.0000000831736
 21
134.3242265037133
 31
0.0
  0
LINE
  5
CB
330
5F
100
AcDbEntity
  8
0
  6
Continuous
 62
     7
100
AcDbLine
 10
-158.5000000831744
 20
148.0250003607929
 30
0.0
 11
-160.2000000831744
 21
148.0250003607929
 31
0.0
  0
LINE
  5
CC
330
5F
100
AcDbEntity
  8
0
  6
Continuous
 62
     7
100
AcDbLine
 10
-155.0000000831736
 20
134.3242265037133
 30
0.0
 11
-155.0000000831736
 21
140.425000360793
 31
0.0
  0
LINE
  5
CD
330
5F
100
AcDbEntity
  8
0
  6
Continuous
 62
     7
100
AcDbLine
 10
-157.5000000831762
 20
140.425000360793
 30
0.0
 11
-155.0000000831736
 21
140.425000360793
 31
0.0
  0
LINE
  5
CE
330
5F
100
AcDbEntity
  8
0
  6
Continuous
 62
     7
100
AcDbLine
 10
-155.0000000831736
 20
140.425000360793
 30
0.0
 11
-154.0000000831744
 21
140.4250003607929
 31
0.0
  0
LINE
  5
CF
330
5F
100
AcDbEntity
  8
0
  6
Continuous
 62
     7
100
AcDbLine
 10
-158.5000000831744
 20
140.4250003607929
 30
0.0
 11
-157.5000000831762
 21
140.425000360793
 31
0.0
  0
LINE
  5
D0
330
5F
100
AcDbEntity
  8
0
  6
Continuous
 62
     7
100
AcDbLine
 10
-163.7000000831764
 20
134.3242265037075
 30
0.0
 11
-163.7000000831764
 21
140.425000360793
 31
0.0
  0
LINE
  5
D1
330
5F
100
AcDbEntity
  8
0
  6
Continuous
 62
     7
100
AcDbLine
 10
-164.7000000831744
 20
140.4250003607929
 30
0.0
 11
-164.7000000831744
 21
154.0250003607929
 31
0.0
  0
LINE
  5
D2
330
5F
100
AcDbEntity
  8
0
  6
Continuous
 62
     7
100
AcDbLine
 10
-154.0000000831744
 20
154.0250003607929
 30
0.0
 11
-164.7000000831744
 21
154.0250003607929
 31
0.0
  0
LINE
  5
D3
330
5F
100
AcDbEntity
  8
0
  6
Continuous
 62
     7
100
AcDbLine
 10
-161.2000000831738
 20
134.3242265037135
 30
0.0
 11
-161.565189134157
 21
131.3500003608001
 31
0.0
  0
LINE
  5
D4
330
5F
100
AcDbEntity
  8
0
  6
Continuous
 62
     7
100
AcDbLine
 10
-160.2000000831744
 20
140.4250003607929
 30
0.0
 11
-160.2000000831744
 21
148.0250003607929
 31
0.0
  0
LINE
  5
D5
330
5F
100
AcDbEntity
  8
0
  6
Continuous
 62
     7
100
AcDbLine
 10
-161.2000000831738
 20
134.3242265037135
 30
0.0
 11
-161.2000000831738
 21
140.425000360793
 31
0.0
  0
LINE
  5
D6
330
5F
100
AcDbEntity
  8
0
  6
Continuous
 62
     7
100
AcDbLine
 10
-163.7000000831764
 20
140.425000360793
 30
0.0
 11
-161.2000000831738
 21
140.425000360793
 31
0.0
  0
LINE
  5
D7
330
5F
100
AcDbEntity
  8
0
  6
Continuous
 62
     7
100
AcDbLine
 10
-161.2000000831738
 20
140.425000360793
 30
0.0
 11
-160.2000000831744
 21
140.4250003607929
 31
0.0
  0
LINE
  5
D8
330
5F
100
AcDbEntity
  8
0
  6
Continuous
 62
     7
100
AcDbLine
 10
-164.7000000831744
 20
140.4250003607929
 30
0.0
 11
-163.7000000831764
 21
140.425000360793
 31
0.0
  0
LINE
  5
D9
330
5F
100
AcDbEntity
  8
0
  6
Continuous
 62
     7
100
AcDbLine
 10
-157.5000000831762
 20
140.425000360793
 30
0.0
 11
-157.5000000831762
 21
134.3242265037049
 31
0.0
  0
LINE
  5
DA
330
5F
100
AcDbEntity
  8
0
  6
Continuous
 62
     7
100
AcDbLine
 10
-158.5000000831744
 20
148.0250003607929
 30
0.0
 11
-158.5000000831744
 21
140.4250003607929
 31
0.0
  0
LINE
  5
DB
330
5F
100
AcDbEntity
  8
0
  6
Continuous
 62
     7
100
AcDbLine
 10
-154.0000000831744
 20
154.0250003607929
 30
0.0
 11
-154.0000000831744
 21
140.4250003607929
 31
0.0
  0
LINE
  5
DC
330
5F
100
AcDbEntity
  8
0
  6
Continuous
 62
     7
100
AcDbLine
 10
-163.7000000831764
 20
134.3242265037075
 30
0.0
 11
-163.3348110321942
 21
131.3500003608001
 31
0.0
  0
LINE
  5
DD
330
5F
100
AcDbEntity
  8
0
  6
Continuous
 62
     7
100
AcDbLine
 10
-163.3348110321942
 20
131.3500003608001
 30
0.0
 11
-161.565189134157
 21
131.3500003608001
 31
0.0
  0
LINE
  5
DE
330
5F
100
AcDbEntity
  8
0
  6
Continuous
 62
     7
100
AcDbLine
 10
-157.5000000831762
 20
134.3242265037049
 30
0.0
 11
-157.1348110321941
 21
131.3500003608001
 31
0.0
  0
LINE
  5
DF
330
5F
100
AcDbEntity
  8
0
  6
Continuous
 62
     7
100
AcDbLine
 10
-157.1348110321941
 20
131.3500003608001
 30
0.0
 11
-155.3651891341569
 21
131.3500003608001
 31
0.0
  0
ENDBLK
  5
61
330
5F
100
AcDbEntity
  8
0
100
AcDbBlockEnd
  0
BLOCK
  5
64
330
62
100
AcDbEntity
  8
0
100
AcDbBlockBegin
  2
SA_Rechts1
 70
     0
 10
-159.3500002622604
 20
142.6875003575781
 30
0.0
  3
SA_Rechts1
  1

  0
INSERT
  5
63
330
62
100
AcDbEntity
  8
0
100
AcDbBlockReference
  2
3030336_FBS_2-6_select__5
 10
-164.7000000831744
 20
131.3500003608001
 30
0.0
  0
MTEXT
  5
E0
330
62
100
AcDbEntity
  8
1
 62
     6
100
AcDbMText
 10
-159.3500002622604
 20
126.3500002622104
 30
0.0
 40
5.0
 41
0.0
 71
     2
 72
     1
  1
 
  7
CONVERTER_11
 73
     1
 44
1.32052821128451
  0
DIMENSION
  5
EB
330
62
100
AcDbEntity
  8
1
100
AcDbDimension
  2
*D16
 10
-164.7000000831744
 20
165.414142062304
 30
0.0
 11
-159.474525936677
 21
169.339142062304
 31
0.0
 70
    32
  1
<>
 71
     5
 42
-1.0
 53
0.00013888888889
  3
ME10_DIM_10
100
AcDbAlignedDimension
 13
-154.0000000831744
 23
154.0250003607929
 33
0.0
 14
-164.7000000831744
 24
154.0250003607929
 34
0.0
100
AcDbRotatedDimension
  0
DIMENSION
  5
F6
330
62
100
AcDbEntity
  8
1
100
AcDbDimension
  2
*D17
 10
-174.7000000831743
 20
140.425000360793
 30
0.0
 11
-178.6250000831743
 21
146.959171382026
 31
0.0
 70
    32
  1
<>
 71
     5
 42
-1.0
 53
90.0
  3
ME10_DIM_11
100
AcDbAlignedDimension
 13
-164.7000000831744
 23
154.0250003607929
 33
0.0
 14
-163.7000000831764
 24
140.425000360793
 34
0.0
 50
90.0
100
AcDbRotatedDimension
  0
DIMENSION
  5
101
330
62
100
AcDbEntity
  8
1
100
AcDbDimension
  2
*D18
 10
-186.153290199617
 20
154.0250003607929
 30
0.0
 11
-189.903290199617
 21
142.5856034700836
 31
0.0
 70
    32
  1
<>
 71
     5
 42
-1.0
 53
90.0
  3
ME10_DIM_12
100
AcDbAlignedDimension
 13
-161.565189134157
 23
131.3500003608001
 33
0.0
 14
-164.7000000831744
 24
154.0250003607929
 34
0.0
 50
90.0
100
AcDbRotatedDimension
  0
ENDBLK
  5
65
330
62
100
AcDbEntity
  8
0
100
AcDbBlockEnd
  0
BLOCK
  5
67
330
66
100
AcDbEntity
  8
0
100
AcDbBlockBegin
  2
3030336_FBS_2-6_select__6
 70
     0
 10
-121.4999999999852
 20
131.3500003608001
 30
0.0
  3
3030336_FBS_2-6_select__6
  1

  0
LINE
  5
102
330
66
100
AcDbEntity
  8
0
  6
Continuous
 62
     7
100
AcDbLine
 10
-120.7999999999755
 20
140.4250003607932
 30
0.0
 11
-119.1999999999755
 21
140.425000360793
 31
0.0
  0
LINE
  5
103
330
66
100
AcDbEntity
  8
0
  6
Continuous
 62
     7
100
AcDbLine
 10
-119.1999999999755
 20
140.425000360793
 30
0.0
 11
-118.4999999999852
 21
140.4250003607929
 31
0.0
  0
LINE
  5
104
330
66
100
AcDbEntity
  8
0
  6
Continuous
 62
     7
100
AcDbLine
 10
-121.4999999999852
 20
140.4250003607932
 30
0.0
 11
-120.7999999999755
 21
140.4250003607932
 31
0.0
  0
LINE
  5
105
330
66
100
AcDbEntity
  8
0
  6
Continuous
 62
     7
100
AcDbLine
 10
-121.4999999999852
 20
140.4250003607932
 30
0.0
 11
-121.4999999999837
 21
154.0250003607932
 31
0.0
  0
LINE
  5
106
330
66
100
AcDbEntity
  8
0
  6
Continuous
 62
     7
100
AcDbLine
 10
-118.4999999999852
 20
140.4250003607929
 30
0.0
 11
-118.4999999999837
 21
154.0250003607929
 31
0.0
  0
LINE
  5
107
330
66
100
AcDbEntity
  8
0
  6
Continuous
 62
     7
100
AcDbLine
 10
-121.4999999999837
 20
154.0250003607932
 30
0.0
 11
-118.4999999999837
 21
154.0250003607929
 31
0.0
  0
LINE
  5
108
330
66
100
AcDbEntity
  8
0
  6
Continuous
 62
     7
100
AcDbLine
 10
-120.7999999999762
 20
134.324226503705
 30
0.0
 11
-120.7999999999765
 21
131.3500003608003
 31
0.0
  0
LINE
  5
109
330
66
100
AcDbEntity
  8
0
  6
Continuous
 62
     7
100
AcDbLine
 10
-119.1999999999755
 20
140.425000360793
 30
0.0
 11
-119.1999999999762
 21
134.3242265037048
 31
0.0
  0
LINE
  5
10A
330
66
100
AcDbEntity
  8
0
  6
Continuous
 62
     7
100
AcDbLine
 10
-120.7999999999755
 20
140.4250003607932
 30
0.0
 11
-120.7999999999762
 21
134.324226503705
 31
0.0
  0
LINE
  5
10B
330
66
100
AcDbEntity
  8
0
  6
Continuous
 62
     7
100
AcDbLine
 10
-119.1999999999762
 20
134.3242265037048
 30
0.0
 11
-119.1999999999765
 21
131.3500003608001
 31
0.0
  0
LINE
  5
10C
330
66
100
AcDbEntity
  8
0
  6
Continuous
 62
     7
100
AcDbLine
 10
-120.7999999999765
 20
131.3500003608003
 30
0.0
 11
-119.1999999999765
 21
131.3500003608001
 31
0.0
  0
LINE
  5
10D
330
66
100
AcDbEntity
  8
0
  6
Continuous
 62
     7
100
AcDbLine
 10
-120.7999999999762
 20
134.324226503705
 30
0.0
 11
-119.1999999999762
 21
134.3242265037048
 31
0.0
  0
ENDBLK
  5
68
330
66
100
AcDbEntity
  8
0
100
AcDbBlockEnd
  0
BLOCK
  5
6B
330
69
100
AcDbEntity
  8
0
100
AcDbBlockBegin
  2
Vordans1
 70
     0
 10
-119.99999999999
 20
142.6875003575781
 30
0.0
  3
Vordans1
  1

  0
INSERT
  5
6A
330
69
100
AcDbEntity
  8
0
100
AcDbBlockReference
  2
3030336_FBS_2-6_select__6
 10
-121.4999999999852
 20
131.3500003608001
 30
0.0
  0
MTEXT
  5
10E
330
69
100
AcDbEntity
  8
1
 62
     6
100
AcDbMText
 10
-119.99999999999
 20
126.3500002622104
 30
0.0
 40
5.0
 41
0.0
 71
     2
 72
     1
  1
 
  7
CONVERTER_11
 73
     1
 44
1.32052821128451
  0
DIMENSION
  5
11B
330
69
100
AcDbEntity
  8
1
100
AcDbDimension
  2
*D19
 10
-121.4999999999837
 20
165.4141420623039
 30
0.0
 11
-111.720638978513
 21
169.1641420623039
 31
0.0
 70
    32
  1
<>
 71
     5
 42
-1.0
 53
0.00013888888889
  3
ME10_DIM_13
100
AcDbAlignedDimension
 13
-118.4999999999837
 23
154.0250003607929
 33
0.0
 14
-121.4999999999837
 24
154.0250003607932
 34
0.0
100
AcDbRotatedDimension
  0
DIMENSION
  5
128
330
69
100
AcDbEntity
  8
1
100
AcDbDimension
  2
*D20
 10
-120.7999999999765
 20
121.3500003608001
 30
0.0
 11
-109.9880624768109
 21
125.2750003608001
 31
0.0
 70
    32
  1
<>
 71
     5
 42
-1.0
 53
0.00013888888889
  3
ME10_DIM_14
100
AcDbAlignedDimension
 13
-119.1999999999765
 23
131.3500003608001
 33
0.0
 14
-120.7999999999765
 24
131.3500003608003
 34
0.0
100
AcDbRotatedDimension
  0
ENDBLK
  5
6C
330
69
100
AcDbEntity
  8
0
100
AcDbBlockEnd
  0
BLOCK
  5
6E
330
6D
100
AcDbEntity
  8
0
100
AcDbBlockBegin
  2
_rahmen
 70
     0
 10
30.05727291191604
 20
5.40822638488298
 30
0.0
  3
_rahmen
  1

  0
POINT
  5
129
330
6D
100
AcDbEntity
  8
1
 62
     3
 60
     1
100
AcDbPoint
 10
-33.44272708808158
 20
31.65822638488296
 30
0.0
  0
LINE
  5
12A
330
6D
100
AcDbEntity
  8
1
  6
Continuous
 62
     7
100
AcDbLine
 10
-33.44272708808158
 20
27.40822638488298
 30
0.0
 11
-33.44272708808158
 21
31.65822638488296
 31
0.0
  0
LINE
  5
12B
330
6D
100
AcDbEntity
  8
1
  6
Continuous
 62
     6
100
AcDbLine
 10
-113.442727088084
 20
10.40822638488309
 30
0.0
 11
-112.987531614834
 21
10.40822638488298
 31
0.0
  0
LINE
  5
12C
330
6D
100
AcDbEntity
  8
1
  6
Continuous
 62
     6
100
AcDbLine
 10
-163.4427270880841
 20
10.40822638488309
 30
0.0
 11
-202.2427270880841
 21
10.40822638488309
 31
0.0
  0
LINE
  5
12D
330
6D
100
AcDbEntity
  8
1
  6
Continuous
 62
     6
100
AcDbLine
 10
-213.442727088084
 20
10.40822638488309
 30
0.0
 11
-202.2427270880841
 21
10.40822638488309
 31
0.0
  0
LINE
  5
12E
330
6D
100
AcDbEntity
  8
1
  6
Continuous
 62
     6
100
AcDbLine
 10
-13.44272708808395
 20
10.40822638488309
 30
0.0
 11
30.05727291191604
 21
10.40822638488309
 31
0.0
  0
LINE
  5
12F
330
6D
100
AcDbEntity
  8
1
  6
Continuous
 62
     6
100
AcDbLine
 10
-63.44272708808396
 20
10.40822638488309
 30
0.0
 11
-81.287531614834
 21
10.40822638488309
 31
0.0
  0
LINE
  5
130
330
6D
100
AcDbEntity
  8
1
  6
PHANTOM
 62
     2
100
AcDbLine
 10
-91.3682684000336
 20
25.28322638488298
 30
0.0
 11
-87.05267343084459
 21
25.28322638488298
 31
0.0
  0
LINE
  5
131
330
6D
100
AcDbEntity
  8
1
  6
PHANTOM
 62
     2
100
AcDbLine
 10
-94.3952717897306
 20
26.93322638488301
 30
0.0
 11
-94.3952717897306
 21
23.633226384883
 31
0.0
  0
LINE
  5
132
330
6D
100
AcDbEntity
  8
1
  6
PHANTOM
 62
     2
100
AcDbLine
 10
-92.7452717897306
 20
25.28322638488298
 30
0.0
 11
-96.04527178973059
 21
25.28322638488298
 31
0.0
  0
LINE
  5
133
330
6D
100
AcDbEntity
  8
1
  6
Continuous
 62
     2
100
AcDbLine
 10
30.05727291191604
 20
10.40822638488309
 30
0.0
 11
35.05727291191505
 21
10.40822638488309
 31
0.0
  0
LINE
  5
134
330
6D
100
AcDbEntity
  8
1
  6
Continuous
 62
     2
100
AcDbLine
 10
30.05727291191604
 20
10.40822638488309
 30
0.0
 11
30.05727291191604
 21
5.40822638488298
 31
0.0
  0
LINE
  5
135
330
6D
100
AcDbEntity
  8
1
  6
Continuous
 62
     7
100
AcDbLine
 10
-63.08753161483397
 20
23.15822638488298
 30
0.0
 11
-63.08753161483397
 21
27.40822638488298
 31
0.0
  0
LINE
  5
136
330
6D
100
AcDbEntity
  8
1
  6
Continuous
 62
     7
100
AcDbLine
 10
-99.48753161483387
 20
23.15822638488298
 30
0.0
 11
-63.08753161483397
 21
23.15822638488298
 31
0.0
  0
LINE
  5
137
330
6D
100
AcDbEntity
  8
1
  6
Continuous
 62
     2
100
AcDbLine
 10
35.05727291191505
 20
5.40822638488298
 30
0.0
 11
35.05727291191505
 21
10.40822638488309
 31
0.0
  0
LINE
  5
138
330
6D
100
AcDbEntity
  8
1
  6
Continuous
 62
     2
100
AcDbLine
 10
35.05727291191505
 20
5.40822638488298
 30
0.0
 11
30.05727291191604
 21
5.40822638488298
 31
0.0
  0
LINE
  5
139
330
6D
100
AcDbEntity
  8
1
  6
Continuous
 62
     2
100
AcDbLine
 10
30.05727291191604
 20
5.40822638488298
 30
0.0
 11
-13.44272708808395
 21
5.40822638488298
 31
0.0
  0
LINE
  5
13A
330
6D
100
AcDbEntity
  8
1
  6
Continuous
 62
     6
100
AcDbLine
 10
30.05727291191775
 20
40.15822638488298
 30
0.0
 11
30.05727291191695
 21
60.40822638488309
 31
0.0
  0
LINE
  5
13B
330
6D
100
AcDbEntity
  8
1
  6
Continuous
 62
     2
100
AcDbLine
 10
35.05727291191505
 20
215.408226384883
 30
0.0
 11
-113.442727088084
 21
215.408226384883
 31
0.0
  0
LINE
  5
13C
330
6D
100
AcDbEntity
  8
1
  6
Continuous
 62
     6
100
AcDbLine
 10
30.05727291191505
 20
195.408226384883
 30
0.0
 11
-256.9427270880831
 21
195.408226384883
 31
0.0
  0
LINE
  5
13D
330
6D
100
AcDbEntity
  8
1
  6
Continuous
 62
     2
100
AcDbLine
 10
30.05727291191695
 20
60.40822638488309
 30
0.0
 11
35.05727291191505
 21
60.40822638488309
 31
0.0
  0
LINE
  5
13E
330
6D
100
AcDbEntity
  8
1
  6
Continuous
 62
     6
100
AcDbLine
 10
30.05727291191695
 20
60.40822638488309
 30
0.0
 11
30.05727291191644
 21
110.4082263848829
 31
0.0
  0
LINE
  5
13F
330
6D
100
AcDbEntity
  8
1
  6
Continuous
 62
     2
100
AcDbLine
 10
35.05727291191505
 20
60.40822638488309
 30
0.0
 11
35.05727291191505
 21
110.4082263848829
 31
0.0
  0
LINE
  5
140
330
6D
100
AcDbEntity
  8
1
  6
Continuous
 62
     2
100
AcDbLine
 10
30.05727291191644
 20
110.4082263848829
 30
0.0
 11
35.05727291191505
 21
110.4082263848829
 31
0.0
  0
LINE
  5
141
330
6D
100
AcDbEntity
  8
1
  6
Continuous
 62
     6
100
AcDbLine
 10
30.05727291191644
 20
110.4082263848829
 30
0.0
 11
30.05727291191533
 21
160.408226384883
 31
0.0
  0
LINE
  5
142
330
6D
100
AcDbEntity
  8
1
  6
Continuous
 62
     2
100
AcDbLine
 10
35.05727291191505
 20
110.4082263848829
 30
0.0
 11
35.05727291191505
 21
160.408226384883
 31
0.0
  0
LINE
  5
143
330
6D
100
AcDbEntity
  8
1
  6
Continuous
 62
     2
100
AcDbLine
 10
30.05727291191533
 20
160.408226384883
 30
0.0
 11
35.05727291191505
 21
160.408226384883
 31
0.0
  0
LINE
  5
144
330
6D
100
AcDbEntity
  8
1
  6
Continuous
 62
     6
100
AcDbLine
 10
30.05727291191533
 20
160.408226384883
 30
0.0
 11
30.05727291191505
 21
195.408226384883
 31
0.0
  0
LINE
  5
145
330
6D
100
AcDbEntity
  8
1
  6
Continuous
 62
     2
100
AcDbLine
 10
35.05727291191505
 20
160.408226384883
 30
0.0
 11
35.05727291191505
 21
215.408226384883
 31
0.0
  0
LINE
  5
146
330
6D
100
AcDbEntity
  8
1
  6
Continuous
 62
     2
100
AcDbLine
 10
35.05727291191505
 20
10.40822638488309
 30
0.0
 11
35.05727291191505
 21
60.40822638488309
 31
0.0
  0
LINE
  5
147
330
6D
100
AcDbEntity
  8
1
  6
Continuous
 62
     2
100
AcDbLine
 10
-113.442727088084
 20
215.408226384883
 30
0.0
 11
-261.9427270880831
 21
215.408226384883
 31
0.0
  0
LINE
  5
148
330
6D
100
AcDbEntity
  8
1
  6
Continuous
 62
     2
100
AcDbLine
 10
-113.442727088084
 20
215.408226384883
 30
0.0
 11
-113.442727088084
 21
206.1995345401817
 31
0.0
  0
LINE
  5
149
330
6D
100
AcDbEntity
  8
1
  6
Continuous
 62
     2
100
AcDbLine
 10
-261.9427270880831
 20
5.40822638488298
 30
0.0
 11
-256.9427270880819
 21
5.40822638488298
 31
0.0
  0
LINE
  5
14A
330
6D
100
AcDbEntity
  8
1
  6
Continuous
 62
     2
100
AcDbLine
 10
-261.9427270880831
 20
215.408226384883
 30
0.0
 11
-261.9427270880831
 21
160.408226384883
 31
0.0
  0
LINE
  5
14B
330
6D
100
AcDbEntity
  8
1
  6
Continuous
 62
     6
100
AcDbLine
 10
-256.9427270880831
 20
195.408226384883
 30
0.0
 11
-256.9427270880829
 21
160.408226384883
 31
0.0
  0
LINE
  5
14C
330
6D
100
AcDbEntity
  8
1
  6
Continuous
 62
     2
100
AcDbLine
 10
-261.9427270880831
 20
160.408226384883
 30
0.0
 11
-256.9427270880829
 21
160.408226384883
 31
0.0
  0
LINE
  5
14D
330
6D
100
AcDbEntity
  8
1
  6
Continuous
 62
     2
100
AcDbLine
 10
-261.9427270880831
 20
160.408226384883
 30
0.0
 11
-261.9427270880831
 21
110.4082263848829
 31
0.0
  0
LINE
  5
14E
330
6D
100
AcDbEntity
  8
1
  6
Continuous
 62
     6
100
AcDbLine
 10
-256.9427270880829
 20
160.408226384883
 30
0.0
 11
-256.9427270880825
 21
110.4082263848829
 31
0.0
  0
LINE
  5
14F
330
6D
100
AcDbEntity
  8
1
  6
Continuous
 62
     2
100
AcDbLine
 10
-261.9427270880831
 20
110.4082263848829
 30
0.0
 11
-256.9427270880825
 21
110.4082263848829
 31
0.0
  0
LINE
  5
150
330
6D
100
AcDbEntity
  8
1
  6
Continuous
 62
     2
100
AcDbLine
 10
-261.9427270880831
 20
110.4082263848829
 30
0.0
 11
-261.9427270880831
 21
60.40822638488309
 31
0.0
  0
LINE
  5
151
330
6D
100
AcDbEntity
  8
1
  6
Continuous
 62
     6
100
AcDbLine
 10
-256.9427270880825
 20
110.4082263848829
 30
0.0
 11
-256.9427270880822
 21
60.40822638488309
 31
0.0
  0
LINE
  5
152
330
6D
100
AcDbEntity
  8
1
  6
Continuous
 62
     2
100
AcDbLine
 10
-261.9427270880831
 20
60.40822638488309
 30
0.0
 11
-256.9427270880822
 21
60.40822638488309
 31
0.0
  0
LINE
  5
153
330
6D
100
AcDbEntity
  8
1
  6
Continuous
 62
     2
100
AcDbLine
 10
-261.9427270880831
 20
60.40822638488309
 30
0.0
 11
-261.9427270880831
 21
10.40822638488309
 31
0.0
  0
LINE
  5
154
330
6D
100
AcDbEntity
  8
1
  6
Continuous
 62
     6
100
AcDbLine
 10
-256.9427270880822
 20
60.40822638488309
 30
0.0
 11
-256.9427270880819
 21
10.40822638488309
 31
0.0
  0
LINE
  5
155
330
6D
100
AcDbEntity
  8
1
  6
Continuous
 62
     2
100
AcDbLine
 10
-213.442727088084
 20
5.40822638488298
 30
0.0
 11
-213.442727088084
 21
10.40822638488309
 31
0.0
  0
LINE
  5
156
330
6D
100
AcDbEntity
  8
1
  6
Continuous
 62
     2
100
AcDbLine
 10
-213.442727088084
 20
5.40822638488298
 30
0.0
 11
-163.4427270880841
 21
5.40822638488298
 31
0.0
  0
LINE
  5
157
330
6D
100
AcDbEntity
  8
1
  6
Continuous
 62
     2
100
AcDbLine
 10
-163.4427270880841
 20
5.40822638488298
 30
0.0
 11
-163.4427270880841
 21
10.40822638488309
 31
0.0
  0
LINE
  5
158
330
6D
100
AcDbEntity
  8
1
  6
Continuous
 62
     2
100
AcDbLine
 10
-163.4427270880841
 20
5.40822638488298
 30
0.0
 11
-113.442727088084
 21
5.40822638488298
 31
0.0
  0
LINE
  5
159
330
6D
100
AcDbEntity
  8
1
  6
Continuous
 62
     2
100
AcDbLine
 10
-113.442727088084
 20
5.40822638488298
 30
0.0
 11
-113.442727088084
 21
10.40822638488309
 31
0.0
  0
LINE
  5
15A
330
6D
100
AcDbEntity
  8
1
  6
Continuous
 62
     2
100
AcDbLine
 10
-113.442727088084
 20
5.40822638488298
 30
0.0
 11
-63.44272708808396
 21
5.40822638488298
 31
0.0
  0
LINE
  5
15B
330
6D
100
AcDbEntity
  8
1
  6
Continuous
 62
     2
100
AcDbLine
 10
-63.44272708808396
 20
5.40822638488298
 30
0.0
 11
-63.44272708808396
 21
10.40822638488309
 31
0.0
  0
LINE
  5
15C
330
6D
100
AcDbEntity
  8
1
  6
Continuous
 62
     2
100
AcDbLine
 10
-13.44272708808395
 20
5.40822638488298
 30
0.0
 11
-13.44272708808395
 21
10.40822638488309
 31
0.0
  0
LINE
  5
15D
330
6D
100
AcDbEntity
  8
1
  6
Continuous
 62
     2
100
AcDbLine
 10
-13.44272708808395
 20
5.40822638488298
 30
0.0
 11
-63.44272708808396
 21
5.40822638488298
 31
0.0
  0
LINE
  5
15E
330
6D
100
AcDbEntity
  8
1
  6
Continuous
 62
     2
100
AcDbLine
 10
-256.9427270880819
 20
10.40822638488309
 30
0.0
 11
-256.9427270880819
 21
5.40822638488298
 31
0.0
  0
LINE
  5
15F
330
6D
100
AcDbEntity
  8
1
  6
Continuous
 62
     2
100
AcDbLine
 10
-256.9427270880819
 20
5.40822638488298
 30
0.0
 11
-213.442727088084
 21
5.40822638488298
 31
0.0
  0
LINE
  5
160
330
6D
100
AcDbEntity
  8
1
  6
Continuous
 62
     2
100
AcDbLine
 10
-256.9427270880819
 20
10.40822638488309
 30
0.0
 11
-261.9427270880831
 21
10.40822638488309
 31
0.0
  0
LINE
  5
161
330
6D
100
AcDbEntity
  8
1
  6
Continuous
 62
     2
100
AcDbLine
 10
-261.9427270880831
 20
10.40822638488309
 30
0.0
 11
-261.9427270880831
 21
5.40822638488298
 31
0.0
  0
LINE
  5
162
330
6D
100
AcDbEntity
  8
1
  6
Continuous
 62
     7
100
AcDbLine
 10
-202.2427270880841
 20
14.65822638488309
 30
0.0
 11
-139.9875316148339
 21
14.65822638488309
 31
0.0
  0
LINE
  5
163
330
6D
100
AcDbEntity
  8
1
  6
Continuous
 62
     2
100
AcDbLine
 10
-202.2427270880841
 20
14.65822638488309
 30
0.0
 11
-202.2427270880841
 21
10.40822638488309
 31
0.0
  0
LINE
  5
164
330
6D
100
AcDbEntity
  8
1
  6
Continuous
 62
     2
100
AcDbLine
 10
-202.2427270880841
 20
18.90822638488298
 30
0.0
 11
-215.7427270880841
 21
18.90822638488298
 31
0.0
  0
LINE
  5
165
330
6D
100
AcDbEntity
  8
1
  6
Continuous
 62
     2
100
AcDbLine
 10
-202.2427270880841
 20
18.90822638488298
 30
0.0
 11
-202.2427270880841
 21
14.65822638488309
 31
0.0
  0
LINE
  5
166
330
6D
100
AcDbEntity
  8
1
  6
Continuous
 62
     2
100
AcDbLine
 10
-202.2427270880841
 20
27.40822638488298
 30
0.0
 11
-215.7427270880841
 21
27.40822638488298
 31
0.0
  0
LINE
  5
167
330
6D
100
AcDbEntity
  8
1
  6
Continuous
 62
     2
100
AcDbLine
 10
-202.2427270880841
 20
27.40822638488298
 30
0.0
 11
-202.2427270880841
 21
23.15822638488298
 31
0.0
  0
LINE
  5
168
330
6D
100
AcDbEntity
  8
1
  6
Continuous
 62
     2
100
AcDbLine
 10
-202.2427270880841
 20
23.15822638488298
 30
0.0
 11
-215.7427270880841
 21
23.15822638488298
 31
0.0
  0
LINE
  5
169
330
6D
100
AcDbEntity
  8
1
  6
Continuous
 62
     2
100
AcDbLine
 10
-202.2427270880841
 20
23.15822638488298
 30
0.0
 11
-202.2427270880841
 21
18.90822638488298
 31
0.0
  0
LINE
  5
16A
330
6D
100
AcDbEntity
  8
1
  6
Continuous
 62
     2
100
AcDbLine
 10
-202.2427270880841
 20
35.90822638488298
 30
0.0
 11
-215.7427270880841
 21
35.90822638488298
 31
0.0
  0
LINE
  5
16B
330
6D
100
AcDbEntity
  8
1
  6
Continuous
 62
     2
100
AcDbLine
 10
-202.2427270880841
 20
31.65822638488298
 30
0.0
 11
-215.7427270880841
 21
31.65822638488298
 31
0.0
  0
LINE
  5
16C
330
6D
100
AcDbEntity
  8
1
  6
Continuous
 62
     2
100
AcDbLine
 10
-202.2427270880841
 20
31.65822638488298
 30
0.0
 11
-202.2427270880841
 21
27.40822638488298
 31
0.0
  0
LINE
  5
16D
330
6D
100
AcDbEntity
  8
1
  6
Continuous
 62
     2
100
AcDbLine
 10
-202.2427270880841
 20
35.90822638488298
 30
0.0
 11
-202.2427270880841
 21
31.65822638488298
 31
0.0
  0
LINE
  5
16E
330
6D
100
AcDbEntity
  8
1
  6
Continuous
 62
     6
100
AcDbLine
 10
-202.2427270880841
 20
40.15822638488298
 30
0.0
 11
-215.7427270880841
 21
40.15822638488298
 31
0.0
  0
LINE
  5
16F
330
6D
100
AcDbEntity
  8
1
  6
Continuous
 62
     2
100
AcDbLine
 10
-202.2427270880841
 20
40.15822638488298
 30
0.0
 11
-202.2427270880841
 21
35.90822638488298
 31
0.0
  0
LINE
  5
170
330
6D
100
AcDbEntity
  8
1
  6
Continuous
 62
     6
100
AcDbLine
 10
30.05727291191604
 20
10.40822638488309
 30
0.0
 11
30.05727291191735
 21
18.90822638488298
 31
0.0
  0
LINE
  5
171
330
6D
100
AcDbEntity
  8
1
  6
Continuous
 62
     6
100
AcDbLine
 10
30.05727291191684
 20
31.65822638488298
 30
0.0
 11
30.05727291191784
 21
27.40822638488298
 31
0.0
  0
LINE
  5
172
330
6D
100
AcDbEntity
  8
1
  6
Continuous
 62
     6
100
AcDbLine
 10
-63.08753161483397
 20
10.40822638488298
 30
0.0
 11
-13.44272708808395
 21
10.40822638488309
 31
0.0
  0
LINE
  5
173
330
6D
100
AcDbEntity
  8
1
  6
Continuous
 62
     6
100
AcDbLine
 10
-99.48753161483387
 20
10.40822638488298
 30
0.0
 11
-81.287531614834
 21
10.40822638488309
 31
0.0
  0
LINE
  5
174
330
6D
100
AcDbEntity
  8
1
  6
Continuous
 62
     6
100
AcDbLine
 10
-215.7427270880841
 20
10.40822638488298
 30
0.0
 11
-213.442727088084
 21
10.40822638488309
 31
0.0
  0
LINE
  5
175
330
6D
100
AcDbEntity
  8
1
  6
Continuous
 62
     6
100
AcDbLine
 10
-139.9875316148339
 20
10.40822638488298
 30
0.0
 11
-163.4427270880841
 21
10.40822638488309
 31
0.0
  0
LINE
  5
176
330
6D
100
AcDbEntity
  8
1
  6
Continuous
 62
     6
100
AcDbLine
 10
30.05727291191775
 20
40.15822638488298
 30
0.0
 11
12.17568119359694
 21
40.15822638488298
 31
0.0
  0
LINE
  5
177
330
6D
100
AcDbEntity
  8
1
  6
Continuous
 62
     7
100
AcDbLine
 10
30.05727291191735
 20
18.90822638488298
 30
0.0
 11
-14.94272708808196
 21
18.90822638488298
 31
0.0
  0
LINE
  5
178
330
6D
100
AcDbEntity
  8
1
  6
Continuous
 62
     7
100
AcDbLine
 10
30.05727291191684
 20
31.65822638488298
 30
0.0
 11
12.17568119359694
 21
31.65822638488298
 31
0.0
  0
LINE
  5
179
330
6D
100
AcDbEntity
  8
1
  6
Continuous
 62
     7
100
AcDbLine
 10
-14.94272708808196
 20
27.40822638488298
 30
0.0
 11
30.05727291191784
 21
27.40822638488298
 31
0.0
  0
LINE
  5
17A
330
6D
100
AcDbEntity
  8
1
  6
Continuous
 62
     2
100
AcDbLine
 10
-71.57052481211389
 20
18.02693386788171
 30
0.0
 11
-72.35730762059771
 21
18.02693386788171
 31
0.0
  0
LINE
  5
17B
330
6D
100
AcDbEntity
  8
1
  6
Continuous
 62
     2
100
AcDbLine
 10
-71.57052481211389
 20
18.02693386788171
 30
0.0
 11
-71.57052481211389
 21
16.25822638488892
 31
0.0
  0
LINE
  5
17C
330
6D
100
AcDbEntity
  8
1
  6
Continuous
 62
     2
100
AcDbLine
 10
-71.57052481211389
 20
16.25822638488892
 30
0.0
 11
-70.7201846760598
 21
16.25822638488892
 31
0.0
  0
LINE
  5
17D
330
6D
100
AcDbEntity
  8
1
  6
Continuous
 62
     2
100
AcDbLine
 10
-70.7201846760598
 20
16.25822638488892
 30
0.0
 11
-70.7201846760598
 21
18.02693386788171
 31
0.0
  0
LINE
  5
17E
330
6D
100
AcDbEntity
  8
1
  6
Continuous
 62
     2
100
AcDbLine
 10
-70.7201846760598
 20
18.02693386788171
 30
0.0
 11
-70.14195338354278
 21
18.02693386788171
 31
0.0
  0
LINE
  5
17F
330
6D
100
AcDbEntity
  8
1
  6
Continuous
 62
     2
100
AcDbLine
 10
-70.14195338354278
 20
18.02693386788171
 30
0.0
 11
-70.14195338354278
 21
18.63917876584303
 31
0.0
  0
LINE
  5
180
330
6D
100
AcDbEntity
  8
1
  6
Continuous
 62
     2
100
AcDbLine
 10
-70.14195338354278
 20
18.63917876584303
 30
0.0
 11
-72.48890703847559
 21
18.63917876584303
 31
0.0
  0
LINE
  5
181
330
6D
100
AcDbEntity
  8
1
  6
Continuous
 62
     2
100
AcDbLine
 10
-72.5253408621688
 20
18.63914768234729
 30
0.0
 11
-72.48890703847559
 21
18.63917876584303
 31
0.0
  0
LINE
  5
182
330
6D
100
AcDbEntity
  8
1
  6
Continuous
 62
     2
100
AcDbLine
 10
-71.90862005020861
 20
17.01405080021219
 30
0.0
 11
-71.90862005020861
 21
16.36797729281618
 31
0.0
  0
LINE
  5
183
102
{ACAD_REACTORS
330
2FA
330
2FA
102
}
330
6D
100
AcDbEntity
  8
1
  6
Continuous
 62
     2
100
AcDbLine
 10
-71.63855202299709
 20
21.02819104918568
 30
0.0
 11
-71.20998059442641
 21
21.5582263848771
 31
0.0
  0
LINE
  5
184
102
{ACAD_REACTORS
330
2FA
330
2FA
102
}
330
6D
100
AcDbEntity
  8
1
  6
Continuous
 62
     2
100
AcDbLine
 10
-72.06712345156939
 20
21.5582263848771
 30
0.0
 11
-71.63855202299709
 21
21.02819104918568
 31
0.0
  0
LINE
  5
185
102
{ACAD_REACTORS
330
2FA
330
2FA
102
}
330
6D
100
AcDbEntity
  8
1
  6
Continuous
 62
     2
100
AcDbLine
 10
-72.06712345156939
 20
21.5582263848771
 30
0.0
 11
-73.06712345156939
 21
21.5582263848771
 31
0.0
  0
LINE
  5
186
102
{ACAD_REACTORS
330
2FA
330
2FA
102
}
330
6D
100
AcDbEntity
  8
1
  6
Continuous
 62
     2
100
AcDbLine
 10
-73.06712345156939
 20
21.5582263848771
 30
0.0
 11
-72.13855202299789
 21
20.40981649088262
 31
0.0
  0
LINE
  5
187
102
{ACAD_REACTORS
330
2FA
330
2FA
102
}
330
6D
100
AcDbEntity
  8
1
  6
Continuous
 62
     2
100
AcDbLine
 10
-73.13515066245381
 20
19.1772740039231
 30
0.0
 11
-72.13855202299789
 21
20.40981649088262
 31
0.0
  0
LINE
  5
188
102
{ACAD_REACTORS
330
2FA
330
2FA
102
}
330
6D
100
AcDbEntity
  8
1
  6
Continuous
 62
     2
100
AcDbLine
 10
-72.13515066245381
 20
19.1772740039231
 30
0.0
 11
-73.13515066245381
 21
19.1772740039231
 31
0.0
  0
LINE
  5
189
102
{ACAD_REACTORS
330
2FA
330
2FA
102
}
330
6D
100
AcDbEntity
  8
1
  6
Continuous
 62
     2
100
AcDbLine
 10
-72.13515066245381
 20
19.1772740039231
 30
0.0
 11
-71.63855202299709
 21
19.79144193257973
 31
0.0
  0
LINE
  5
18A
102
{ACAD_REACTORS
330
2FA
330
2FA
102
}
330
6D
100
AcDbEntity
  8
1
  6
Continuous
 62
     2
100
AcDbLine
 10
-71.63855202299709
 20
19.79144193257973
 30
0.0
 11
-71.14195338354239
 21
19.1772740039231
 31
0.0
  0
LINE
  5
18B
102
{ACAD_REACTORS
330
2FA
330
2FA
102
}
330
6D
100
AcDbEntity
  8
1
  6
Continuous
 62
     2
100
AcDbLine
 10
-71.14195338354239
 20
19.1772740039231
 30
0.0
 11
-70.14195338354239
 21
19.1772740039231
 31
0.0
  0
LINE
  5
18C
102
{ACAD_REACTORS
330
2FA
330
2FA
102
}
330
6D
100
AcDbEntity
  8
1
  6
Continuous
 62
     2
100
AcDbLine
 10
-71.13855202299789
 20
20.40981649088262
 30
0.0
 11
-70.14195338354239
 21
19.1772740039231
 31
0.0
  0
LINE
  5
18D
102
{ACAD_REACTORS
330
2FA
330
2FA
102
}
330
6D
100
AcDbEntity
  8
1
  6
Continuous
 62
     2
100
AcDbLine
 10
-71.13855202299789
 20
20.40981649088262
 30
0.0
 11
-70.20998059442641
 21
21.5582263848771
 31
0.0
  0
LINE
  5
18E
102
{ACAD_REACTORS
330
2FA
330
2FA
102
}
330
6D
100
AcDbEntity
  8
1
  6
Continuous
 62
     2
100
AcDbLine
 10
-71.20998059442641
 20
21.5582263848771
 30
0.0
 11
-70.20998059442641
 21
21.5582263848771
 31
0.0
  0
LINE
  5
18F
102
{ACAD_REACTORS
330
2FE
330
2FE
102
}
330
6D
100
AcDbEntity
  8
1
  6
Continuous
 62
     2
100
AcDbLine
 10
-74.40453841755578
 20
21.5582263848771
 30
0.0
 11
-73.52018467605839
 21
21.5582263848771
 31
0.0
  0
LINE
  5
190
102
{ACAD_REACTORS
330
2FE
330
2FE
102
}
330
6D
100
AcDbEntity
  8
1
  6
Continuous
 62
     2
100
AcDbLine
 10
-73.52018467605839
 20
19.1772740039231
 30
0.0
 11
-74.40453841755578
 21
19.1772740039231
 31
0.0
  0
LINE
  5
191
102
{ACAD_REACTORS
330
2FE
330
2FE
102
}
330
6D
100
AcDbEntity
  8
1
  6
Continuous
 62
     2
100
AcDbLine
 10
-73.52018467605839
 20
21.5582263848771
 30
0.0
 11
-73.52018467605839
 21
19.1772740039231
 31
0.0
  0
LINE
  5
192
330
6D
100
AcDbEntity
  8
1
  6
Continuous
 62
     7
100
AcDbLine
 10
-63.08753161483397
 20
35.90822638488298
 30
0.0
 11
-63.08753161483397
 21
31.65822638488298
 31
0.0
  0
LINE
  5
193
330
6D
100
AcDbEntity
  8
1
  6
Continuous
 62
     7
100
AcDbLine
 10
-76.58753161483398
 20
35.90822638488298
 30
0.0
 11
-63.08753161483397
 21
35.90822638488298
 31
0.0
  0
LINE
  5
194
330
6D
100
AcDbEntity
  8
1
  6
Continuous
 62
     7
100
AcDbLine
 10
-76.58753161483398
 20
35.90822638488298
 30
0.0
 11
-90.08753161483389
 21
35.90822638488298
 31
0.0
  0
LINE
  5
195
330
6D
100
AcDbEntity
  8
1
  6
Continuous
 62
     7
100
AcDbLine
 10
12.17568119359694
 20
31.65822638488298
 30
0.0
 11
12.17568119359694
 21
40.15822638488298
 31
0.0
  0
LINE
  5
196
330
6D
100
AcDbEntity
  8
1
  6
Continuous
 62
     6
100
AcDbLine
 10
3.25727291191774
 20
40.15822638488298
 30
0.0
 11
12.17568119359694
 21
40.15822638488298
 31
0.0
  0
LINE
  5
197
330
6D
100
AcDbEntity
  8
1
  6
Continuous
 62
     7
100
AcDbLine
 10
3.25727291191774
 20
40.15822638488298
 30
0.0
 11
3.25727291191805
 21
31.65822638488309
 31
0.0
  0
LINE
  5
198
330
6D
100
AcDbEntity
  8
1
  6
Continuous
 62
     7
100
AcDbLine
 10
-14.94272708808196
 20
18.90822638488298
 30
0.0
 11
-33.44272708808158
 21
18.90822638488298
 31
0.0
  0
LINE
  5
199
330
6D
100
AcDbEntity
  8
1
  6
Continuous
 62
     7
100
AcDbLine
 10
-14.94272708808196
 20
27.40822638488298
 30
0.0
 11
-14.94272708808196
 21
18.90822638488298
 31
0.0
  0
LINE
  5
19A
330
6D
100
AcDbEntity
  8
1
  6
Continuous
 62
     2
100
AcDbLine
 10
-112.987531614834
 20
40.15822638488298
 30
0.0
 11
-112.987531614834
 21
35.90822638488298
 31
0.0
  0
LINE
  5
19B
330
6D
100
AcDbEntity
  8
1
  6
Continuous
 62
     2
100
AcDbLine
 10
-126.4875316148339
 20
40.15822638488298
 30
0.0
 11
-126.4875316148339
 21
35.90822638488298
 31
0.0
  0
LINE
  5
19C
330
6D
100
AcDbEntity
  8
1
  6
Continuous
 62
     6
100
AcDbLine
 10
-112.987531614834
 20
40.15822638488298
 30
0.0
 11
-126.4875316148339
 21
40.15822638488298
 31
0.0
  0
LINE
  5
19D
330
6D
100
AcDbEntity
  8
1
  6
Continuous
 62
     6
100
AcDbLine
 10
-126.4875316148339
 20
40.15822638488298
 30
0.0
 11
-139.9875316148339
 21
40.15822638488298
 31
0.0
  0
LINE
  5
19E
330
6D
100
AcDbEntity
  8
1
  6
Continuous
 62
     2
100
AcDbLine
 10
-139.9875316148339
 20
40.15822638488298
 30
0.0
 11
-139.9875316148339
 21
35.90822638488298
 31
0.0
  0
LINE
  5
19F
330
6D
100
AcDbEntity
  8
1
  6
Continuous
 62
     7
100
AcDbLine
 10
-81.287531614834
 20
14.65822638488309
 30
0.0
 11
-81.287531614834
 21
10.40822638488309
 31
0.0
  0
LINE
  5
1A0
330
6D
100
AcDbEntity
  8
1
  6
Continuous
 62
     7
100
AcDbLine
 10
-81.287531614834
 20
14.65822638488309
 30
0.0
 11
-99.48753161483387
 21
14.65822638488309
 31
0.0
  0
LINE
  5
1A1
330
6D
100
AcDbEntity
  8
1
  6
Continuous
 62
     7
100
AcDbLine
 10
-76.58753161483398
 20
27.40822638488298
 30
0.0
 11
-90.08753161483389
 21
27.40822638488309
 31
0.0
  0
LINE
  5
1A2
330
6D
100
AcDbEntity
  8
1
  6
Continuous
 62
     7
100
AcDbLine
 10
-63.08753161483397
 20
14.65822638488309
 30
0.0
 11
-81.287531614834
 21
14.65822638488309
 31
0.0
  0
LINE
  5
1A3
330
6D
100
AcDbEntity
  8
1
  6
Continuous
 62
     6
100
AcDbLine
 10
-63.08753161483397
 20
40.15822638488298
 30
0.0
 11
-40.18753161483394
 21
40.15822638488298
 31
0.0
  0
LINE
  5
1A4
330
6D
100
AcDbEntity
  8
1
  6
Continuous
 62
     6
100
AcDbLine
 10
3.25727291191774
 20
40.15822638488298
 30
0.0
 11
-40.18753161483394
 21
40.15822638488298
 31
0.0
  0
LINE
  5
1A5
330
6D
100
AcDbEntity
  8
1
  6
Continuous
 62
     7
100
AcDbLine
 10
-40.18753161483394
 20
40.15822638488298
 30
0.0
 11
-40.18753161483394
 21
31.65822638488292
 31
0.0
  0
LINE
  5
1A6
330
6D
100
AcDbEntity
  8
1
  6
Continuous
 62
     6
100
AcDbLine
 10
-215.7427270880841
 20
40.15822638488298
 30
0.0
 11
-221.9427270880821
 21
40.15822638488298
 31
0.0
  0
LINE
  5
1A7
330
6D
100
AcDbEntity
  8
1
  6
Continuous
 62
     6
100
AcDbLine
 10
-221.9427270880821
 20
10.40822638488309
 30
0.0
 11
-221.9427270880821
 21
14.65822638488309
 31
0.0
  0
LINE
  5
1A8
330
6D
100
AcDbEntity
  8
1
  6
Continuous
 62
     6
100
AcDbLine
 10
-221.9427270880821
 20
14.65822638488309
 30
0.0
 11
-221.9427270880821
 21
18.90822638488298
 31
0.0
  0
LINE
  5
1A9
330
6D
100
AcDbEntity
  8
1
  6
Continuous
 62
     7
100
AcDbLine
 10
-76.58753161483398
 20
31.65822638488298
 30
0.0
 11
-76.58753161483398
 21
27.40822638488298
 31
0.0
  0
LINE
  5
1AA
330
6D
100
AcDbEntity
  8
1
  6
Continuous
 62
     7
100
AcDbLine
 10
-90.08753161483389
 20
31.65822638488298
 30
0.0
 11
-90.08753161483389
 21
27.40822638488309
 31
0.0
  0
LINE
  5
1AB
330
6D
100
AcDbEntity
  8
1
  6
Continuous
 62
     7
100
AcDbLine
 10
-76.58753161483398
 20
31.65822638488298
 30
0.0
 11
-90.08753161483389
 21
31.65822638488298
 31
0.0
  0
LINE
  5
1AC
330
6D
100
AcDbEntity
  8
1
  6
Continuous
 62
     2
100
AcDbLine
 10
-99.48753161483387
 20
27.40822638488298
 30
0.0
 11
-112.987531614834
 21
27.40822638488298
 31
0.0
  0
LINE
  5
1AD
330
6D
100
AcDbEntity
  8
1
  6
Continuous
 62
     2
100
AcDbLine
 10
-215.7427270880841
 20
27.40822638488298
 30
0.0
 11
-215.7427270880841
 21
31.65822638488298
 31
0.0
  0
LINE
  5
1AE
330
6D
100
AcDbEntity
  8
1
  6
Continuous
 62
     2
100
AcDbLine
 10
-215.7427270880841
 20
27.40822638488298
 30
0.0
 11
-221.9427270880821
 21
27.40822638488298
 31
0.0
  0
LINE
  5
1AF
330
6D
100
AcDbEntity
  8
1
  6
Continuous
 62
     2
100
AcDbLine
 10
-99.48753161483387
 20
31.65822638488298
 30
0.0
 11
-112.987531614834
 21
31.65822638488298
 31
0.0
  0
LINE
  5
1B0
330
6D
100
AcDbEntity
  8
1
  6
Continuous
 62
     2
100
AcDbLine
 10
-215.7427270880841
 20
31.65822638488298
 30
0.0
 11
-215.7427270880841
 21
35.90822638488298
 31
0.0
  0
LINE
  5
1B1
330
6D
100
AcDbEntity
  8
1
  6
Continuous
 62
     2
100
AcDbLine
 10
-99.48753161483387
 20
35.90822638488298
 30
0.0
 11
-112.987531614834
 21
35.90822638488298
 31
0.0
  0
LINE
  5
1B2
330
6D
100
AcDbEntity
  8
1
  6
Continuous
 62
     2
100
AcDbLine
 10
-215.7427270880841
 20
35.90822638488298
 30
0.0
 11
-215.7427270880841
 21
40.15822638488298
 31
0.0
  0
LINE
  5
1B3
330
6D
100
AcDbEntity
  8
1
  6
Continuous
 62
     2
100
AcDbLine
 10
-215.7427270880841
 20
35.90822638488298
 30
0.0
 11
-221.9427270880821
 21
35.90822638488298
 31
0.0
  0
LINE
  5
1B4
330
6D
100
AcDbEntity
  8
1
  6
Continuous
 62
     6
100
AcDbLine
 10
-99.48753161483387
 20
40.15822638488298
 30
0.0
 11
-112.987531614834
 21
40.15822638488298
 31
0.0
  0
LINE
  5
1B5
330
6D
100
AcDbEntity
  8
1
  6
Continuous
 62
     2
100
AcDbLine
 10
-99.48753161483387
 20
18.90822638488298
 30
0.0
 11
-112.987531614834
 21
18.90822638488298
 31
0.0
  0
LINE
  5
1B6
330
6D
100
AcDbEntity
  8
1
  6
Continuous
 62
     2
100
AcDbLine
 10
-99.48753161483387
 20
23.15822638488298
 30
0.0
 11
-112.987531614834
 21
23.15822638488298
 31
0.0
  0
LINE
  5
1B7
330
6D
100
AcDbEntity
  8
1
  6
Continuous
 62
     2
100
AcDbLine
 10
-215.7427270880841
 20
18.90822638488298
 30
0.0
 11
-215.7427270880841
 21
23.15822638488298
 31
0.0
  0
LINE
  5
1B8
330
6D
100
AcDbEntity
  8
1
  6
Continuous
 62
     2
100
AcDbLine
 10
-215.7427270880841
 20
23.15822638488298
 30
0.0
 11
-215.7427270880841
 21
27.40822638488298
 31
0.0
  0
LINE
  5
1B9
330
6D
100
AcDbEntity
  8
1
  6
Continuous
 62
     7
100
AcDbLine
 10
-215.7427270880841
 20
14.65822638488309
 30
0.0
 11
-202.2427270880841
 21
14.65822638488309
 31
0.0
  0
LINE
  5
1BA
330
6D
100
AcDbEntity
  8
1
  6
Continuous
 62
     2
100
AcDbLine
 10
-215.7427270880841
 20
14.65822638488309
 30
0.0
 11
-215.7427270880841
 21
18.90822638488298
 31
0.0
  0
LINE
  5
1BB
330
6D
100
AcDbEntity
  8
1
  6
Continuous
 62
     7
100
AcDbLine
 10
-63.08753161483397
 20
18.90822638488298
 30
0.0
 11
-63.08753161483397
 21
23.15822638488298
 31
0.0
  0
LINE
  5
1BC
330
6D
100
AcDbEntity
  8
1
  6
Continuous
 62
     6
100
AcDbLine
 10
-76.58753161483398
 20
40.15822638488298
 30
0.0
 11
-63.08753161483397
 21
40.15822638488298
 31
0.0
  0
LINE
  5
1BD
330
6D
100
AcDbEntity
  8
1
  6
Continuous
 62
     7
100
AcDbLine
 10
-63.08753161483397
 20
40.15822638488298
 30
0.0
 11
-63.08753161483397
 21
35.90822638488298
 31
0.0
  0
LINE
  5
1BE
330
6D
100
AcDbEntity
  8
1
  6
Continuous
 62
     6
100
AcDbLine
 10
-90.08753161483389
 20
40.15822638488298
 30
0.0
 11
-76.58753161483398
 21
40.15822638488298
 31
0.0
  0
LINE
  5
1BF
330
6D
100
AcDbEntity
  8
1
  6
Continuous
 62
     7
100
AcDbLine
 10
-99.48753161483387
 20
27.40822638488298
 30
0.0
 11
-99.48753161483387
 21
23.15822638488298
 31
0.0
  0
LINE
  5
1C0
330
6D
100
AcDbEntity
  8
1
  6
Continuous
 62
     7
100
AcDbLine
 10
-99.48753161483387
 20
31.65822638488298
 30
0.0
 11
-99.48753161483387
 21
27.40822638488298
 31
0.0
  0
LINE
  5
1C1
330
6D
100
AcDbEntity
  8
1
  6
Continuous
 62
     2
100
AcDbLine
 10
-221.9427270880821
 20
31.65822638488298
 30
0.0
 11
-215.7427270880841
 21
31.65822638488298
 31
0.0
  0
LINE
  5
1C2
330
6D
100
AcDbEntity
  8
1
  6
Continuous
 62
     7
100
AcDbLine
 10
-99.48753161483387
 20
35.90822638488298
 30
0.0
 11
-99.48753161483387
 21
31.65822638488298
 31
0.0
  0
LINE
  5
1C3
330
6D
100
AcDbEntity
  8
1
  6
Continuous
 62
     7
100
AcDbLine
 10
-63.08753161483397
 20
31.65822638488298
 30
0.0
 11
-63.08753161483397
 21
27.40822638488298
 31
0.0
  0
LINE
  5
1C4
330
6D
100
AcDbEntity
  8
1
  6
Continuous
 62
     7
100
AcDbLine
 10
-76.58753161483398
 20
40.15822638488298
 30
0.0
 11
-76.58753161483398
 21
35.90822638488298
 31
0.0
  0
LINE
  5
1C5
330
6D
100
AcDbEntity
  8
1
  6
Continuous
 62
     7
100
AcDbLine
 10
-90.08753161483389
 20
40.15822638488298
 30
0.0
 11
-90.08753161483389
 21
35.90822638488298
 31
0.0
  0
LINE
  5
1C6
330
6D
100
AcDbEntity
  8
1
  6
Continuous
 62
     2
100
AcDbLine
 10
-215.7427270880841
 20
10.40822638488298
 30
0.0
 11
-215.7427270880841
 21
14.65822638488309
 31
0.0
  0
LINE
  5
1C7
330
6D
100
AcDbEntity
  8
1
  6
Continuous
 62
     2
100
AcDbLine
 10
-221.9427270880821
 20
18.90822638488298
 30
0.0
 11
-215.7427270880841
 21
18.90822638488298
 31
0.0
  0
LINE
  5
1C8
330
6D
100
AcDbEntity
  8
1
  6
Continuous
 62
     2
100
AcDbLine
 10
-221.9427270880821
 20
23.15822638488298
 30
0.0
 11
-215.7427270880841
 21
23.15822638488298
 31
0.0
  0
LINE
  5
1C9
330
6D
100
AcDbEntity
  8
1
  6
Continuous
 62
     7
100
AcDbLine
 10
-221.9427270880821
 20
14.65822638488309
 30
0.0
 11
-215.7427270880841
 21
14.65822638488309
 31
0.0
  0
LINE
  5
1CA
330
6D
100
AcDbEntity
  8
1
  6
Continuous
 62
     7
100
AcDbLine
 10
-63.08753161483397
 20
18.90822638488298
 30
0.0
 11
-63.08753161483397
 21
14.65822638488309
 31
0.0
  0
LINE
  5
1CB
330
6D
100
AcDbEntity
  8
1
  6
Continuous
 62
     7
100
AcDbLine
 10
-99.48753161483387
 20
23.15822638488298
 30
0.0
 11
-99.48753161483387
 21
18.90822638488298
 31
0.0
  0
LINE
  5
1CC
330
6D
100
AcDbEntity
  8
1
  6
Continuous
 62
     7
100
AcDbLine
 10
-99.48753161483387
 20
18.90822638488298
 30
0.0
 11
-99.48753161483387
 21
14.65822638488309
 31
0.0
  0
LINE
  5
1CD
330
6D
100
AcDbEntity
  8
1
  6
Continuous
 62
     7
100
AcDbLine
 10
-76.58753161483398
 20
35.90822638488298
 30
0.0
 11
-76.58753161483398
 21
31.65822638488298
 31
0.0
  0
LINE
  5
1CE
330
6D
100
AcDbEntity
  8
1
  6
Continuous
 62
     7
100
AcDbLine
 10
-90.08753161483389
 20
35.90822638488298
 30
0.0
 11
-90.08753161483389
 21
31.65822638488298
 31
0.0
  0
LINE
  5
1CF
330
6D
100
AcDbEntity
  8
1
  6
Continuous
 62
     7
100
AcDbLine
 10
-99.48753161483387
 20
31.65822638488298
 30
0.0
 11
-90.08753161483389
 21
31.65822638488298
 31
0.0
  0
LINE
  5
1D0
330
6D
100
AcDbEntity
  8
1
  6
Continuous
 62
     7
100
AcDbLine
 10
-63.08753161483397
 20
27.40822638488298
 30
0.0
 11
-76.58753161483398
 21
27.40822638488298
 31
0.0
  0
LINE
  5
1D1
330
6D
100
AcDbEntity
  8
1
  6
Continuous
 62
     7
100
AcDbLine
 10
-63.08753161483397
 20
14.65822638488309
 30
0.0
 11
-63.08753161483397
 21
10.40822638488298
 31
0.0
  0
LINE
  5
1D2
330
6D
100
AcDbEntity
  8
1
  6
Continuous
 62
     7
100
AcDbLine
 10
-99.48753161483387
 20
14.65822638488309
 30
0.0
 11
-99.48753161483387
 21
10.40822638488298
 31
0.0
  0
LINE
  5
1D3
330
6D
100
AcDbEntity
  8
1
  6
Continuous
 62
     7
100
AcDbLine
 10
-99.48753161483387
 20
40.15822638488298
 30
0.0
 11
-99.48753161483387
 21
35.90822638488298
 31
0.0
  0
LINE
  5
1D4
330
6D
100
AcDbEntity
  8
1
  6
Continuous
 62
     7
100
AcDbLine
 10
-63.08753161483397
 20
18.90822638488298
 30
0.0
 11
-33.44272708808158
 21
18.90822638488298
 31
0.0
  0
LINE
  5
1D5
330
6D
100
AcDbEntity
  8
1
  6
Continuous
 62
     7
100
AcDbLine
 10
-63.08753161483397
 20
27.40822638488298
 30
0.0
 11
-33.44272708808158
 21
27.40822638488298
 31
0.0
  0
LINE
  5
1D6
330
6D
100
AcDbEntity
  8
1
  6
Continuous
 62
     7
100
AcDbLine
 10
3.25727291191805
 20
31.65822638488309
 30
0.0
 11
12.17568119359694
 21
31.65822638488298
 31
0.0
  0
LINE
  5
1D7
330
6D
100
AcDbEntity
  8
1
  6
Continuous
 62
     2
100
AcDbLine
 10
-84.7882118869427
 20
17.07455291550103
 30
0.0
 11
-84.7882118869427
 21
16.39428080665759
 31
0.0
  0
LINE
  5
1D8
330
6D
100
AcDbEntity
  8
1
  6
Continuous
 62
     2
100
AcDbLine
 10
-84.7882118869427
 20
17.82285223523091
 30
0.0
 11
-84.7882118869427
 21
18.50312434407418
 31
0.0
  0
LINE
  5
1D9
102
{ACAD_REACTORS
330
301
330
301
102
}
330
6D
100
AcDbEntity
  8
1
  6
Continuous
 62
     2
100
AcDbLine
 10
-83.0937199686498
 20
16.25822638488892
 30
0.0
 11
-83.1957607849771
 21
16.25822638488892
 31
0.0
  0
LINE
  5
1DA
102
{ACAD_REACTORS
330
301
330
301
102
}
330
6D
100
AcDbEntity
  8
1
  6
Continuous
 62
     2
100
AcDbLine
 10
-83.1957607849771
 20
18.63917876584303
 30
0.0
 11
-83.0937199686498
 21
18.63917876584303
 31
0.0
  0
LINE
  5
1DB
102
{ACAD_REACTORS
330
302
330
302
102
}
330
6D
100
AcDbEntity
  8
1
  6
Continuous
 62
     2
100
AcDbLine
 10
-79.9705686600159
 20
19.1772740039231
 30
0.0
 11
-80.072609476342
 21
19.1772740039231
 31
0.0
  0
LINE
  5
1DC
102
{ACAD_REACTORS
330
302
330
302
102
}
330
6D
100
AcDbEntity
  8
1
  6
Continuous
 62
     2
100
AcDbLine
 10
-77.9297084855827
 20
19.1772740039231
 30
0.0
 11
-79.9705686600159
 21
19.1772740039231
 31
0.0
  0
LINE
  5
1DD
102
{ACAD_REACTORS
330
302
330
302
102
}
330
6D
100
AcDbEntity
  8
1
  6
Continuous
 62
     2
100
AcDbLine
 10
-77.9297084855827
 20
19.1772740039231
 30
0.0
 11
-77.9297084855827
 21
19.72149169099781
 31
0.0
  0
LINE
  5
1DE
102
{ACAD_REACTORS
330
302
330
302
102
}
330
6D
100
AcDbEntity
  8
1
  6
Continuous
 62
     2
100
AcDbLine
 10
-77.9297084855827
 20
19.72149169099781
 30
0.0
 11
-78.882089437964
 21
19.72149169099781
 31
0.0
  0
LINE
  5
1DF
102
{ACAD_REACTORS
330
302
330
302
102
}
330
6D
100
AcDbEntity
  8
1
  6
Continuous
 62
     2
100
AcDbLine
 10
-78.882089437964
 20
19.72149169099781
 30
0.0
 11
-78.882089437964
 21
20.09564135086269
 31
0.0
  0
LINE
  5
1E0
102
{ACAD_REACTORS
330
302
330
302
102
}
330
6D
100
AcDbEntity
  8
1
  6
Continuous
 62
     2
100
AcDbLine
 10
-78.882089437964
 20
20.09564135086269
 30
0.0
 11
-77.9297084855827
 21
20.09564135086269
 31
0.0
  0
LINE
  5
1E1
102
{ACAD_REACTORS
330
302
330
302
102
}
330
6D
100
AcDbEntity
  8
1
  6
Continuous
 62
     2
100
AcDbLine
 10
-77.9297084855827
 20
20.09564135086269
 30
0.0
 11
-77.9297084855827
 21
20.63985903793751
 31
0.0
  0
LINE
  5
1E2
102
{ACAD_REACTORS
330
302
330
302
102
}
330
6D
100
AcDbEntity
  8
1
  6
Continuous
 62
     2
100
AcDbLine
 10
-77.9297084855827
 20
20.63985903793751
 30
0.0
 11
-78.882089437964
 21
20.63985903793751
 31
0.0
  0
LINE
  5
1E3
102
{ACAD_REACTORS
330
302
330
302
102
}
330
6D
100
AcDbEntity
  8
1
  6
Continuous
 62
     2
100
AcDbLine
 10
-78.882089437964
 20
20.63985903793751
 30
0.0
 11
-78.882089437964
 21
21.01400869780251
 31
0.0
  0
LINE
  5
1E4
102
{ACAD_REACTORS
330
302
330
302
102
}
330
6D
100
AcDbEntity
  8
1
  6
Continuous
 62
     2
100
AcDbLine
 10
-78.882089437964
 20
21.01400869780251
 30
0.0
 11
-77.9297084855827
 21
21.01400869780251
 31
0.0
  0
LINE
  5
1E5
102
{ACAD_REACTORS
330
302
330
302
102
}
330
6D
100
AcDbEntity
  8
1
  6
Continuous
 62
     2
100
AcDbLine
 10
-77.9297084855827
 20
21.01400869780251
 30
0.0
 11
-77.9297084855827
 21
21.5582263848771
 31
0.0
  0
LINE
  5
1E6
102
{ACAD_REACTORS
330
302
330
302
102
}
330
6D
100
AcDbEntity
  8
1
  6
Continuous
 62
     2
100
AcDbLine
 10
-77.9297084855827
 20
21.5582263848771
 30
0.0
 11
-79.9705686600159
 21
21.5582263848771
 31
0.0
  0
LINE
  5
1E7
102
{ACAD_REACTORS
330
302
330
302
102
}
330
6D
100
AcDbEntity
  8
1
  6
Continuous
 62
     2
100
AcDbLine
 10
-80.072609476342
 20
21.5582263848771
 30
0.0
 11
-79.9705686600159
 21
21.5582263848771
 31
0.0
  0
LINE
  5
1E8
102
{ACAD_REACTORS
330
304
330
304
102
}
330
6D
100
AcDbEntity
  8
1
  6
Continuous
 62
     2
100
AcDbLine
 10
-89.41644317945949
 20
17.54711527377809
 30
0.0
 11
-89.4571839201999
 21
17.54711527377809
 31
0.0
  0
LINE
  5
1E9
102
{ACAD_REACTORS
330
304
330
304
102
}
330
6D
100
AcDbEntity
  8
1
  6
Continuous
 62
     2
100
AcDbLine
 10
-89.41644317945949
 20
21.01007823674068
 30
0.0
 11
-89.4571839201999
 21
21.01007823674068
 31
0.0
  0
LINE
  5
1EA
102
{ACAD_REACTORS
330
304
330
304
102
}
330
6D
100
AcDbEntity
  8
1
  6
Continuous
 62
     2
100
AcDbLine
 10
-89.7219987350141
 20
20.7452634219316
 30
0.0
 11
-89.7219987350141
 21
20.2512686089584
 31
0.0
  0
LINE
  5
1EB
102
{ACAD_REACTORS
330
304
330
304
102
}
330
6D
100
AcDbEntity
  8
1
  6
Continuous
 62
     2
100
AcDbLine
 10
-89.7219987350141
 20
17.81193008858263
 30
0.0
 11
-89.7219987350141
 21
18.30592490154679
 31
0.0
  0
LINE
  5
1EC
102
{ACAD_REACTORS
330
304
330
304
102
}
330
6D
100
AcDbEntity
  8
1
  6
Continuous
 62
     2
100
AcDbLine
 10
-91.962739475755
 20
20.7452634219316
 30
0.0
 11
-91.962739475755
 21
16.99711527377069
 31
0.0
  0
LINE
  5
1ED
102
{ACAD_REACTORS
330
304
330
304
102
}
330
6D
100
AcDbEntity
  8
1
  6
Continuous
 62
     2
100
AcDbLine
 10
-90.3942209572366
 20
16.7323004589661
 30
0.0
 11
-91.697924660941
 21
16.7323004589661
 31
0.0
  0
LINE
  5
1EE
102
{ACAD_REACTORS
330
304
330
304
102
}
330
6D
100
AcDbEntity
  8
1
  6
Continuous
 62
     2
100
AcDbLine
 10
-90.1294061424215
 20
18.30592490155571
 30
0.0
 11
-90.1294061424215
 21
16.99711527377069
 31
0.0
  0
LINE
  5
1EF
102
{ACAD_REACTORS
330
304
330
304
102
}
330
6D
100
AcDbEntity
  8
1
  6
Continuous
 62
     2
100
AcDbLine
 10
-90.1294061424215
 20
20.74526342192239
 30
0.0
 11
-90.1294061424215
 21
20.2512686089584
 31
0.0
  0
LINE
  5
1F0
102
{ACAD_REACTORS
330
304
330
304
102
}
330
6D
100
AcDbEntity
  8
1
  6
Continuous
 62
     2
100
AcDbLine
 10
-91.697924660941
 20
21.01007823674068
 30
0.0
 11
-90.3942209572366
 21
21.01007823674068
 31
0.0
  0
LINE
  5
1F1
102
{ACAD_REACTORS
330
304
330
304
102
}
330
6D
100
AcDbEntity
  8
1
  6
Continuous
 62
     2
100
AcDbLine
 10
-92.0997765127919
 20
21.5582263848771
 30
0.0
 11
-87.5664431794586
 21
21.5582263848771
 31
0.0
  0
LINE
  5
1F2
102
{ACAD_REACTORS
330
304
330
304
102
}
330
6D
100
AcDbEntity
  8
1
  6
Continuous
 62
     2
100
AcDbLine
 10
-92.4331098461255
 20
21.22489305154413
 30
0.0
 11
-92.4331098461255
 21
16.59155971822189
 31
0.0
  0
LINE
  5
1F3
102
{ACAD_REACTORS
330
304
330
304
102
}
330
6D
100
AcDbEntity
  8
1
  6
Continuous
 62
     2
100
AcDbLine
 10
-87.5664431794586
 20
16.25822638488892
 30
0.0
 11
-92.0997765127919
 21
16.25822638488892
 31
0.0
  0
LINE
  5
1F4
102
{ACAD_REACTORS
330
304
330
304
102
}
330
6D
100
AcDbEntity
  8
1
  6
Continuous
 62
     2
100
AcDbLine
 10
-87.2331098461259
 20
21.22489305154413
 30
0.0
 11
-87.2331098461259
 21
16.59155971822189
 31
0.0
  0
LINE
  5
1F5
102
{ACAD_REACTORS
330
303
330
303
102
}
330
6D
100
AcDbEntity
  8
1
  6
Continuous
 62
     2
100
AcDbLine
 10
-85.6613970076216
 20
21.04122510198049
 30
0.0
 11
-85.6062142354121
 21
21.04122510198049
 31
0.0
  0
LINE
  5
1F6
102
{ACAD_REACTORS
330
303
330
303
102
}
330
6D
100
AcDbEntity
  8
1
  6
Continuous
 62
     2
100
AcDbLine
 10
-85.80862005020799
 20
21.04122510198049
 30
0.0
 11
-85.6613970076216
 21
21.04122510198049
 31
0.0
  0
LINE
  5
1F7
102
{ACAD_REACTORS
330
303
330
303
102
}
330
6D
100
AcDbEntity
  8
1
  6
Continuous
 62
     2
100
AcDbLine
 10
-85.80862005020799
 20
20.4909930348184
 30
0.0
 11
-85.80862005020799
 21
21.04122510198049
 31
0.0
  0
LINE
  5
1F8
102
{ACAD_REACTORS
330
303
330
303
102
}
330
6D
100
AcDbEntity
  8
1
  6
Continuous
 62
     2
100
AcDbLine
 10
-85.6613970076216
 20
20.4909930348184
 30
0.0
 11
-85.80862005020799
 21
20.4909930348184
 31
0.0
  0
LINE
  5
1F9
102
{ACAD_REACTORS
330
303
330
303
102
}
330
6D
100
AcDbEntity
  8
1
  6
Continuous
 62
     2
100
AcDbLine
 10
-85.6613970076216
 20
20.4909930348184
 30
0.0
 11
-85.6062142354121
 21
20.4909930348184
 31
0.0
  0
LINE
  5
1FA
102
{ACAD_REACTORS
330
303
330
303
102
}
330
6D
100
AcDbEntity
  8
1
  6
Continuous
 62
     2
100
AcDbLine
 10
-86.69297379170379
 20
21.5582263848771
 30
0.0
 11
-85.535182186351
 21
21.5582263848771
 31
0.0
  0
LINE
  5
1FB
102
{ACAD_REACTORS
330
303
330
303
102
}
330
6D
100
AcDbEntity
  8
1
  6
Continuous
 62
     2
100
AcDbLine
 10
-86.69297379170379
 20
21.5582263848771
 30
0.0
 11
-86.69297379170379
 21
19.1772740039231
 31
0.0
  0
LINE
  5
1FC
102
{ACAD_REACTORS
330
303
330
303
102
}
330
6D
100
AcDbEntity
  8
1
  6
Continuous
 62
     2
100
AcDbLine
 10
-86.69297379170379
 20
19.1772740039231
 30
0.0
 11
-85.9575212625174
 21
19.1772740039231
 31
0.0
  0
LINE
  5
1FD
102
{ACAD_REACTORS
330
303
330
303
102
}
330
6D
100
AcDbEntity
  8
1
  6
Continuous
 62
     2
100
AcDbLine
 10
-85.9575212625174
 20
19.1772740039231
 30
0.0
 11
-85.80862005020799
 21
19.1772740039231
 31
0.0
  0
LINE
  5
1FE
102
{ACAD_REACTORS
330
303
330
303
102
}
330
6D
100
AcDbEntity
  8
1
  6
Continuous
 62
     2
100
AcDbLine
 10
-85.80862005020799
 20
19.1772740039231
 30
0.0
 11
-85.80862005020799
 21
19.9125603294667
 31
0.0
  0
LINE
  5
1FF
102
{ACAD_REACTORS
330
303
330
303
102
}
330
6D
100
AcDbEntity
  8
1
  6
Continuous
 62
     2
100
AcDbLine
 10
-85.80862005020799
 20
19.9125603294667
 30
0.0
 11
-85.3862809740406
 21
19.9125603294667
 31
0.0
  0
LINE
  5
200
102
{ACAD_REACTORS
330
303
330
303
102
}
330
6D
100
AcDbEntity
  8
1
  6
Continuous
 62
     2
100
AcDbLine
 10
-85.3862809740406
 20
19.9125603294667
 30
0.0
 11
-85.2514889918777
 21
19.9125603294667
 31
0.0
  0
LINE
  5
201
102
{ACAD_REACTORS
330
303
330
303
102
}
330
6D
100
AcDbEntity
  8
1
  6
Continuous
 62
     2
100
AcDbLine
 10
-85.535182186351
 20
21.5582263848771
 30
0.0
 11
-85.2514889918777
 21
21.5582263848771
 31
0.0
  0
LINE
  5
202
102
{ACAD_REACTORS
330
2FB
330
2FB
102
}
330
6D
100
AcDbEntity
  8
1
  6
Continuous
 62
     2
100
AcDbLine
 10
-75.39278302514751
 20
17.21060733726959
 30
0.0
 11
-74.96480832649641
 21
17.21060733726959
 31
0.0
  0
LINE
  5
203
102
{ACAD_REACTORS
330
2FB
330
2FB
102
}
330
6D
100
AcDbEntity
  8
1
  6
Continuous
 62
     2
100
AcDbLine
 10
-74.96480832649641
 20
17.21060733726959
 30
0.0
 11
-75.17879567582258
 21
17.80924679305359
 31
0.0
  0
LINE
  5
204
102
{ACAD_REACTORS
330
2FB
330
2FB
102
}
330
6D
100
AcDbEntity
  8
1
  6
Continuous
 62
     2
100
AcDbLine
 10
-75.39278302514751
 20
17.21060733726959
 30
0.0
 11
-75.17879567582258
 21
17.80924679305359
 31
0.0
  0
LINE
  5
205
102
{ACAD_REACTORS
330
2FB
330
2FB
102
}
330
6D
100
AcDbEntity
  8
1
  6
Continuous
 62
     2
100
AcDbLine
 10
-75.6209725465711
 20
18.63917876584303
 30
0.0
 11
-76.61757118602699
 21
16.25822638488892
 31
0.0
  0
LINE
  5
206
102
{ACAD_REACTORS
330
2FB
330
2FB
102
}
330
6D
100
AcDbEntity
  8
1
  6
Continuous
 62
     2
100
AcDbLine
 10
-76.61757118602699
 20
16.25822638488892
 30
0.0
 11
-75.73321744453
 21
16.25822638488892
 31
0.0
  0
LINE
  5
207
102
{ACAD_REACTORS
330
2FB
330
2FB
102
}
330
6D
100
AcDbEntity
  8
1
  6
Continuous
 62
     2
100
AcDbLine
 10
-75.73321744453
 20
16.25822638488892
 30
0.0
 11
-75.5824536302328
 21
16.67999509237221
 31
0.0
  0
LINE
  5
208
102
{ACAD_REACTORS
330
2FB
330
2FB
102
}
330
6D
100
AcDbEntity
  8
1
  6
Continuous
 62
     2
100
AcDbLine
 10
-75.5824536302328
 20
16.67999509237221
 30
0.0
 11
-74.77513772141259
 21
16.67999509237221
 31
0.0
  0
LINE
  5
209
102
{ACAD_REACTORS
330
2FB
330
2FB
102
}
330
6D
100
AcDbEntity
  8
1
  6
Continuous
 62
     2
100
AcDbLine
 10
-74.62437390711489
 20
16.25822638488892
 30
0.0
 11
-74.77513772141259
 21
16.67999509237221
 31
0.0
  0
LINE
  5
20A
102
{ACAD_REACTORS
330
2FB
330
2FB
102
}
330
6D
100
AcDbEntity
  8
1
  6
Continuous
 62
     2
100
AcDbLine
 10
-73.74002016561849
 20
16.25822638488892
 30
0.0
 11
-74.62437390711489
 21
16.25822638488892
 31
0.0
  0
LINE
  5
20B
102
{ACAD_REACTORS
330
2FB
330
2FB
102
}
330
6D
100
AcDbEntity
  8
1
  6
Continuous
 62
     2
100
AcDbLine
 10
-74.7366188050739
 20
18.63917876584303
 30
0.0
 11
-73.74002016561849
 21
16.25822638488892
 31
0.0
  0
LINE
  5
20C
102
{ACAD_REACTORS
330
2FB
330
2FB
102
}
330
6D
100
AcDbEntity
  8
1
  6
Continuous
 62
     2
100
AcDbLine
 10
-75.6209725465711
 20
18.63917876584303
 30
0.0
 11
-74.7366188050739
 21
18.63917876584303
 31
0.0
  0
LINE
  5
20D
102
{ACAD_REACTORS
330
2FC
330
2FC
102
}
330
6D
100
AcDbEntity
  8
1
  6
Continuous
 62
     2
100
AcDbLine
 10
-76.50736710439409
 20
18.63917876584303
 30
0.0
 11
-78.51416982548122
 21
18.63917876584303
 31
0.0
  0
LINE
  5
20E
102
{ACAD_REACTORS
330
2FC
330
2FC
102
}
330
6D
100
AcDbEntity
  8
1
  6
Continuous
 62
     2
100
AcDbLine
 10
-78.51416982548122
 20
18.63917876584303
 30
0.0
 11
-78.51416982548122
 21
18.02693386788171
 31
0.0
  0
LINE
  5
20F
102
{ACAD_REACTORS
330
2FC
330
2FC
102
}
330
6D
100
AcDbEntity
  8
1
  6
Continuous
 62
     2
100
AcDbLine
 10
-78.51416982548122
 20
18.02693386788171
 30
0.0
 11
-77.9359385329652
 21
18.02693386788171
 31
0.0
  0
LINE
  5
210
102
{ACAD_REACTORS
330
2FC
330
2FC
102
}
330
6D
100
AcDbEntity
  8
1
  6
Continuous
 62
     2
100
AcDbLine
 10
-77.9359385329652
 20
18.02693386788171
 30
0.0
 11
-77.9359385329652
 21
16.25822638488892
 31
0.0
  0
LINE
  5
211
102
{ACAD_REACTORS
330
2FC
330
2FC
102
}
330
6D
100
AcDbEntity
  8
1
  6
Continuous
 62
     2
100
AcDbLine
 10
-77.9359385329652
 20
16.25822638488892
 30
0.0
 11
-77.0855983969101
 21
16.25822638488892
 31
0.0
  0
LINE
  5
212
102
{ACAD_REACTORS
330
2FC
330
2FC
102
}
330
6D
100
AcDbEntity
  8
1
  6
Continuous
 62
     2
100
AcDbLine
 10
-77.0855983969101
 20
16.25822638488892
 30
0.0
 11
-77.0855983969101
 21
18.02693386788171
 31
0.0
  0
LINE
  5
213
102
{ACAD_REACTORS
330
2FC
330
2FC
102
}
330
6D
100
AcDbEntity
  8
1
  6
Continuous
 62
     2
100
AcDbLine
 10
-77.0855983969101
 20
18.02693386788171
 30
0.0
 11
-76.50736710439409
 21
18.02693386788171
 31
0.0
  0
LINE
  5
214
102
{ACAD_REACTORS
330
2FC
330
2FC
102
}
330
6D
100
AcDbEntity
  8
1
  6
Continuous
 62
     2
100
AcDbLine
 10
-76.50736710439409
 20
18.02693386788171
 30
0.0
 11
-76.50736710439409
 21
18.63917876584303
 31
0.0
  0
LINE
  5
215
102
{ACAD_REACTORS
330
2FD
330
2FD
102
}
330
6D
100
AcDbEntity
  8
1
  6
Continuous
 62
     2
100
AcDbLine
 10
-80.65090451935839
 20
18.63917876584303
 30
0.0
 11
-81.5012446554141
 21
18.63917876584303
 31
0.0
  0
LINE
  5
216
102
{ACAD_REACTORS
330
2FD
330
2FD
102
}
330
6D
100
AcDbEntity
  8
1
  6
Continuous
 62
     2
100
AcDbLine
 10
-81.5012446554141
 20
18.63917876584303
 30
0.0
 11
-81.5012446554141
 21
16.25822638488892
 31
0.0
  0
LINE
  5
217
102
{ACAD_REACTORS
330
2FD
330
2FD
102
}
330
6D
100
AcDbEntity
  8
1
  6
Continuous
 62
     2
100
AcDbLine
 10
-81.5012446554141
 20
16.25822638488892
 30
0.0
 11
-80.65090451935839
 21
16.25822638488892
 31
0.0
  0
LINE
  5
218
102
{ACAD_REACTORS
330
2FD
330
2FD
102
}
330
6D
100
AcDbEntity
  8
1
  6
Continuous
 62
     2
100
AcDbLine
 10
-80.65090451935839
 20
16.25822638488892
 30
0.0
 11
-80.65090451935839
 21
17.27863454815609
 31
0.0
  0
LINE
  5
219
102
{ACAD_REACTORS
330
2FD
330
2FD
102
}
330
6D
100
AcDbEntity
  8
1
  6
Continuous
 62
     2
100
AcDbLine
 10
-80.65090451935839
 20
17.27863454815609
 30
0.0
 11
-79.76655077786282
 21
16.25822638488892
 31
0.0
  0
LINE
  5
21A
102
{ACAD_REACTORS
330
2FD
330
2FD
102
}
330
6D
100
AcDbEntity
  8
1
  6
Continuous
 62
     2
100
AcDbLine
 10
-79.76655077786282
 20
16.25822638488892
 30
0.0
 11
-78.9162106418087
 21
16.25822638488892
 31
0.0
  0
LINE
  5
21B
102
{ACAD_REACTORS
330
2FD
330
2FD
102
}
330
6D
100
AcDbEntity
  8
1
  6
Continuous
 62
     2
100
AcDbLine
 10
-78.9162106418087
 20
16.25822638488892
 30
0.0
 11
-78.9162106418087
 21
18.63917876584303
 31
0.0
  0
LINE
  5
21C
102
{ACAD_REACTORS
330
2FD
330
2FD
102
}
330
6D
100
AcDbEntity
  8
1
  6
Continuous
 62
     2
100
AcDbLine
 10
-78.9162106418087
 20
18.63917876584303
 30
0.0
 11
-79.76655077786282
 21
18.63917876584303
 31
0.0
  0
LINE
  5
21D
102
{ACAD_REACTORS
330
2FD
330
2FD
102
}
330
6D
100
AcDbEntity
  8
1
  6
Continuous
 62
     2
100
AcDbLine
 10
-79.76655077786282
 20
18.63917876584303
 30
0.0
 11
-79.76655077786282
 21
17.61877060257568
 31
0.0
  0
LINE
  5
21E
102
{ACAD_REACTORS
330
2FD
330
2FD
102
}
330
6D
100
AcDbEntity
  8
1
  6
Continuous
 62
     2
100
AcDbLine
 10
-79.76655077786282
 20
17.61877060257568
 30
0.0
 11
-80.65090451935839
 21
18.63917876584303
 31
0.0
  0
LINE
  5
21F
102
{ACAD_REACTORS
330
2FE
330
2FE
102
}
330
6D
100
AcDbEntity
  8
1
  6
Continuous
 62
     2
100
AcDbLine
 10
-74.40453841755578
 20
19.1772740039231
 30
0.0
 11
-74.40453841755578
 21
21.5582263848771
 31
0.0
  0
LINE
  5
220
102
{ACAD_REACTORS
330
2FF
330
2FF
102
}
330
6D
100
AcDbEntity
  8
1
  6
Continuous
 62
     2
100
AcDbLine
 10
-74.87460644476701
 20
21.5582263848771
 30
0.0
 11
-75.7249465808206
 21
21.5582263848771
 31
0.0
  0
LINE
  5
221
102
{ACAD_REACTORS
330
2FF
330
2FF
102
}
330
6D
100
AcDbEntity
  8
1
  6
Continuous
 62
     2
100
AcDbLine
 10
-75.7249465808206
 20
21.5582263848771
 30
0.0
 11
-75.7249465808206
 21
20.53781822160993
 31
0.0
  0
LINE
  5
222
102
{ACAD_REACTORS
330
2FF
330
2FF
102
}
330
6D
100
AcDbEntity
  8
1
  6
Continuous
 62
     2
100
AcDbLine
 10
-75.7249465808206
 20
20.53781822160993
 30
0.0
 11
-76.60930032231789
 21
21.5582263848771
 31
0.0
  0
LINE
  5
223
102
{ACAD_REACTORS
330
2FF
330
2FF
102
}
330
6D
100
AcDbEntity
  8
1
  6
Continuous
 62
     2
100
AcDbLine
 10
-76.60930032231789
 20
21.5582263848771
 30
0.0
 11
-77.4596404583715
 21
21.5582263848771
 31
0.0
  0
LINE
  5
224
102
{ACAD_REACTORS
330
2FF
330
2FF
102
}
330
6D
100
AcDbEntity
  8
1
  6
Continuous
 62
     2
100
AcDbLine
 10
-77.4596404583715
 20
21.5582263848771
 30
0.0
 11
-77.4596404583715
 21
19.1772740039231
 31
0.0
  0
LINE
  5
225
102
{ACAD_REACTORS
330
2FF
330
2FF
102
}
330
6D
100
AcDbEntity
  8
1
  6
Continuous
 62
     2
100
AcDbLine
 10
-77.4596404583715
 20
19.1772740039231
 30
0.0
 11
-76.60930032231789
 21
19.1772740039231
 31
0.0
  0
LINE
  5
226
102
{ACAD_REACTORS
330
2FF
330
2FF
102
}
330
6D
100
AcDbEntity
  8
1
  6
Continuous
 62
     2
100
AcDbLine
 10
-76.60930032231789
 20
19.1772740039231
 30
0.0
 11
-76.60930032231789
 21
20.19768216719051
 31
0.0
  0
LINE
  5
227
102
{ACAD_REACTORS
330
2FF
330
2FF
102
}
330
6D
100
AcDbEntity
  8
1
  6
Continuous
 62
     2
100
AcDbLine
 10
-76.60930032231789
 20
20.19768216719051
 30
0.0
 11
-75.7249465808206
 21
19.1772740039231
 31
0.0
  0
LINE
  5
228
102
{ACAD_REACTORS
330
2FF
330
2FF
102
}
330
6D
100
AcDbEntity
  8
1
  6
Continuous
 62
     2
100
AcDbLine
 10
-75.7249465808206
 20
19.1772740039231
 30
0.0
 11
-74.87460644476701
 21
19.1772740039231
 31
0.0
  0
LINE
  5
229
102
{ACAD_REACTORS
330
2FF
330
2FF
102
}
330
6D
100
AcDbEntity
  8
1
  6
Continuous
 62
     2
100
AcDbLine
 10
-74.87460644476701
 20
19.1772740039231
 30
0.0
 11
-74.87460644476701
 21
21.5582263848771
 31
0.0
  0
LINE
  5
22A
102
{ACAD_REACTORS
330
300
330
300
102
}
330
6D
100
AcDbEntity
  8
1
  6
Continuous
 62
     2
100
AcDbLine
 10
-84.1140622270786
 20
21.5582263848771
 30
0.0
 11
-83.26372209102419
 21
21.5582263848771
 31
0.0
  0
LINE
  5
22B
102
{ACAD_REACTORS
330
300
330
300
102
}
330
6D
100
AcDbEntity
  8
1
  6
Continuous
 62
     2
100
AcDbLine
 10
-84.1140622270786
 20
21.5582263848771
 30
0.0
 11
-84.1140622270786
 21
19.1772740039231
 31
0.0
  0
LINE
  5
22C
102
{ACAD_REACTORS
330
300
330
300
102
}
330
6D
100
AcDbEntity
  8
1
  6
Continuous
 62
     2
100
AcDbLine
 10
-83.26372209102419
 20
19.1772740039231
 30
0.0
 11
-84.1140622270786
 21
19.1772740039231
 31
0.0
  0
LINE
  5
22D
102
{ACAD_REACTORS
330
300
330
300
102
}
330
6D
100
AcDbEntity
  8
1
  6
Continuous
 62
     2
100
AcDbLine
 10
-83.26372209102419
 20
20.06162774542172
 30
0.0
 11
-83.26372209102419
 21
19.1772740039231
 31
0.0
  0
LINE
  5
22E
102
{ACAD_REACTORS
330
300
330
300
102
}
330
6D
100
AcDbEntity
  8
1
  6
Continuous
 62
     2
100
AcDbLine
 10
-82.5154227712967
 20
20.06162774542172
 30
0.0
 11
-83.26372209102419
 21
20.06162774542172
 31
0.0
  0
LINE
  5
22F
102
{ACAD_REACTORS
330
300
330
300
102
}
330
6D
100
AcDbEntity
  8
1
  6
Continuous
 62
     2
100
AcDbLine
 10
-82.5154227712967
 20
19.1772740039231
 30
0.0
 11
-82.5154227712967
 21
20.06162774542172
 31
0.0
  0
LINE
  5
230
102
{ACAD_REACTORS
330
300
330
300
102
}
330
6D
100
AcDbEntity
  8
1
  6
Continuous
 62
     2
100
AcDbLine
 10
-81.66508263524179
 20
19.1772740039231
 30
0.0
 11
-82.5154227712967
 21
19.1772740039231
 31
0.0
  0
LINE
  5
231
102
{ACAD_REACTORS
330
300
330
300
102
}
330
6D
100
AcDbEntity
  8
1
  6
Continuous
 62
     2
100
AcDbLine
 10
-81.66508263524179
 20
21.5582263848771
 30
0.0
 11
-81.66508263524179
 21
19.1772740039231
 31
0.0
  0
LINE
  5
232
102
{ACAD_REACTORS
330
300
330
300
102
}
330
6D
100
AcDbEntity
  8
1
  6
Continuous
 62
     2
100
AcDbLine
 10
-82.5154227712967
 20
21.5582263848771
 30
0.0
 11
-81.66508263524179
 21
21.5582263848771
 31
0.0
  0
LINE
  5
233
102
{ACAD_REACTORS
330
300
330
300
102
}
330
6D
100
AcDbEntity
  8
1
  6
Continuous
 62
     2
100
AcDbLine
 10
-82.5154227712967
 20
20.72489305154231
 30
0.0
 11
-82.5154227712967
 21
21.5582263848771
 31
0.0
  0
LINE
  5
234
102
{ACAD_REACTORS
330
300
330
300
102
}
330
6D
100
AcDbEntity
  8
1
  6
Continuous
 62
     2
100
AcDbLine
 10
-83.26372209102419
 20
20.72489305154231
 30
0.0
 11
-82.5154227712967
 21
20.72489305154231
 31
0.0
  0
LINE
  5
235
102
{ACAD_REACTORS
330
300
330
300
102
}
330
6D
100
AcDbEntity
  8
1
  6
Continuous
 62
     2
100
AcDbLine
 10
-83.26372209102419
 20
21.5582263848771
 30
0.0
 11
-83.26372209102419
 21
20.72489305154231
 31
0.0
  0
LINE
  5
236
330
6D
100
AcDbEntity
  8
1
  6
Continuous
 62
     7
100
AcDbLine
 10
3.25727291191805
 20
31.65822638488309
 30
0.0
 11
-33.44272708808158
 21
31.65822638488296
 31
0.0
  0
LINE
  5
237
330
6D
100
AcDbEntity
  8
1
  6
Continuous
 62
     7
100
AcDbLine
 10
-33.44272708808158
 20
27.40822638488298
 30
0.0
 11
-14.94272708808196
 21
27.40822638488298
 31
0.0
  0
LINE
  5
238
330
6D
100
AcDbEntity
  8
1
  6
Continuous
 62
     7
100
AcDbLine
 10
-33.44272708808158
 20
27.40822638488298
 30
0.0
 11
-33.44272708808158
 21
18.90822638488298
 31
0.0
  0
LINE
  5
239
330
6D
100
AcDbEntity
  8
1
  6
Continuous
 62
     6
100
AcDbLine
 10
-215.7427270880841
 20
10.40822638488298
 30
0.0
 11
-221.9427270880821
 21
10.40822638488309
 31
0.0
  0
LINE
  5
23A
330
6D
100
AcDbEntity
  8
1
  6
Continuous
 62
     6
100
AcDbLine
 10
-221.9427270880821
 20
35.90822638488298
 30
0.0
 11
-221.9427270880821
 21
40.15822638488298
 31
0.0
  0
LINE
  5
23B
330
6D
100
AcDbEntity
  8
1
  6
Continuous
 62
     6
100
AcDbLine
 10
-221.9427270880821
 20
31.65822638488298
 30
0.0
 11
-221.9427270880821
 21
35.90822638488298
 31
0.0
  0
LINE
  5
23C
330
6D
100
AcDbEntity
  8
1
  6
Continuous
 62
     6
100
AcDbLine
 10
-221.9427270880821
 20
27.40822638488298
 30
0.0
 11
-221.9427270880821
 21
31.65822638488298
 31
0.0
  0
LINE
  5
23D
330
6D
100
AcDbEntity
  8
1
  6
Continuous
 62
     6
100
AcDbLine
 10
-221.9427270880821
 20
18.90822638488298
 30
0.0
 11
-221.9427270880821
 21
23.15822638488298
 31
0.0
  0
LINE
  5
23E
330
6D
100
AcDbEntity
  8
1
  6
Continuous
 62
     6
100
AcDbLine
 10
-139.9875316148339
 20
40.15822638488298
 30
0.0
 11
-202.2427270880841
 21
40.15822638488298
 31
0.0
  0
LINE
  5
23F
330
6D
100
AcDbEntity
  8
1
  6
Continuous
 62
     2
100
AcDbLine
 10
-202.2427270880841
 20
35.90822638488298
 30
0.0
 11
-139.9875316148339
 21
35.90822638488298
 31
0.0
  0
LINE
  5
240
330
6D
100
AcDbEntity
  8
1
  6
Continuous
 62
     2
100
AcDbLine
 10
-202.2427270880841
 20
31.65822638488298
 30
0.0
 11
-139.9875316148339
 21
31.65822638488298
 31
0.0
  0
LINE
  5
241
330
6D
100
AcDbEntity
  8
1
  6
Continuous
 62
     6
100
AcDbLine
 10
-63.08753161483397
 20
10.40822638488298
 30
0.0
 11
-63.44272708808396
 21
10.40822638488309
 31
0.0
  0
LINE
  5
242
330
6D
100
AcDbEntity
  8
1
  6
Continuous
 62
     7
100
AcDbLine
 10
-76.58753161483398
 20
31.65822638488298
 30
0.0
 11
-63.08753161483397
 21
31.65822638488298
 31
0.0
  0
LINE
  5
243
330
6D
100
AcDbEntity
  8
1
  6
Continuous
 62
     7
100
AcDbLine
 10
-40.18753161483394
 20
31.65822638488292
 30
0.0
 11
-63.08753161483397
 21
31.65822638488298
 31
0.0
  0
LINE
  5
244
330
6D
100
AcDbEntity
  8
1
  6
Continuous
 62
     6
100
AcDbLine
 10
30.05727291191784
 20
27.40822638488298
 30
0.0
 11
30.05727291191735
 21
18.90822638488298
 31
0.0
  0
LINE
  5
245
330
6D
100
AcDbEntity
  8
1
  6
Continuous
 62
     6
100
AcDbLine
 10
-112.987531614834
 20
10.40822638488298
 30
0.0
 11
-99.48753161483387
 21
10.40822638488298
 31
0.0
  0
LINE
  5
246
330
6D
100
AcDbEntity
  8
1
  6
Continuous
 62
     2
100
AcDbLine
 10
-112.987531614834
 20
18.90822638488298
 30
0.0
 11
-112.987531614834
 21
14.65822638488309
 31
0.0
  0
LINE
  5
247
330
6D
100
AcDbEntity
  8
1
  6
Continuous
 62
     2
100
AcDbLine
 10
-112.987531614834
 20
18.90822638488298
 30
0.0
 11
-126.4875316148339
 21
18.90822638488298
 31
0.0
  0
LINE
  5
248
330
6D
100
AcDbEntity
  8
1
  6
Continuous
 62
     2
100
AcDbLine
 10
-112.987531614834
 20
14.65822638488309
 30
0.0
 11
-112.987531614834
 21
10.40822638488298
 31
0.0
  0
LINE
  5
249
330
6D
100
AcDbEntity
  8
1
  6
Continuous
 62
     7
100
AcDbLine
 10
-112.987531614834
 20
14.65822638488309
 30
0.0
 11
-99.48753161483387
 21
14.65822638488309
 31
0.0
  0
LINE
  5
24A
330
6D
100
AcDbEntity
  8
1
  6
Continuous
 62
     2
100
AcDbLine
 10
-112.987531614834
 20
27.40822638488298
 30
0.0
 11
-112.987531614834
 21
23.15822638488298
 31
0.0
  0
LINE
  5
24B
330
6D
100
AcDbEntity
  8
1
  6
Continuous
 62
     2
100
AcDbLine
 10
-112.987531614834
 20
27.40822638488298
 30
0.0
 11
-126.4875316148339
 21
27.40822638488298
 31
0.0
  0
LINE
  5
24C
330
6D
100
AcDbEntity
  8
1
  6
Continuous
 62
     2
100
AcDbLine
 10
-112.987531614834
 20
31.65822638488298
 30
0.0
 11
-112.987531614834
 21
27.40822638488298
 31
0.0
  0
LINE
  5
24D
330
6D
100
AcDbEntity
  8
1
  6
Continuous
 62
     2
100
AcDbLine
 10
-112.987531614834
 20
31.65822638488298
 30
0.0
 11
-126.4875316148339
 21
31.65822638488298
 31
0.0
  0
LINE
  5
24E
330
6D
100
AcDbEntity
  8
1
  6
Continuous
 62
     2
100
AcDbLine
 10
-112.987531614834
 20
35.90822638488298
 30
0.0
 11
-112.987531614834
 21
31.65822638488298
 31
0.0
  0
LINE
  5
24F
330
6D
100
AcDbEntity
  8
1
  6
Continuous
 62
     2
100
AcDbLine
 10
-112.987531614834
 20
35.90822638488298
 30
0.0
 11
-126.4875316148339
 21
35.90822638488298
 31
0.0
  0
LINE
  5
250
330
6D
100
AcDbEntity
  8
1
  6
Continuous
 62
     2
100
AcDbLine
 10
-112.987531614834
 20
23.15822638488298
 30
0.0
 11
-112.987531614834
 21
18.90822638488298
 31
0.0
  0
LINE
  5
251
330
6D
100
AcDbEntity
  8
1
  6
Continuous
 62
     2
100
AcDbLine
 10
-112.987531614834
 20
23.15822638488298
 30
0.0
 11
-126.4875316148339
 21
23.15822638488298
 31
0.0
  0
LINE
  5
252
330
6D
100
AcDbEntity
  8
1
  6
Continuous
 62
     6
100
AcDbLine
 10
-126.4875316148339
 20
10.40822638488298
 30
0.0
 11
-113.442727088084
 21
10.40822638488309
 31
0.0
  0
LINE
  5
253
330
6D
100
AcDbEntity
  8
1
  6
Continuous
 62
     2
100
AcDbLine
 10
-126.4875316148339
 20
18.90822638488298
 30
0.0
 11
-126.4875316148339
 21
14.65822638488309
 31
0.0
  0
LINE
  5
254
330
6D
100
AcDbEntity
  8
1
  6
Continuous
 62
     2
100
AcDbLine
 10
-126.4875316148339
 20
18.90822638488298
 30
0.0
 11
-139.9875316148339
 21
18.90822638488298
 31
0.0
  0
LINE
  5
255
330
6D
100
AcDbEntity
  8
1
  6
Continuous
 62
     2
100
AcDbLine
 10
-126.4875316148339
 20
14.65822638488309
 30
0.0
 11
-126.4875316148339
 21
10.40822638488298
 31
0.0
  0
LINE
  5
256
330
6D
100
AcDbEntity
  8
1
  6
Continuous
 62
     7
100
AcDbLine
 10
-126.4875316148339
 20
14.65822638488309
 30
0.0
 11
-112.987531614834
 21
14.65822638488309
 31
0.0
  0
LINE
  5
257
330
6D
100
AcDbEntity
  8
1
  6
Continuous
 62
     2
100
AcDbLine
 10
-126.4875316148339
 20
27.40822638488298
 30
0.0
 11
-126.4875316148339
 21
23.15822638488298
 31
0.0
  0
LINE
  5
258
330
6D
100
AcDbEntity
  8
1
  6
Continuous
 62
     2
100
AcDbLine
 10
-126.4875316148339
 20
27.40822638488298
 30
0.0
 11
-139.9875316148339
 21
27.40822638488298
 31
0.0
  0
LINE
  5
259
330
6D
100
AcDbEntity
  8
1
  6
Continuous
 62
     2
100
AcDbLine
 10
-126.4875316148339
 20
31.65822638488298
 30
0.0
 11
-126.4875316148339
 21
27.40822638488298
 31
0.0
  0
LINE
  5
25A
330
6D
100
AcDbEntity
  8
1
  6
Continuous
 62
     2
100
AcDbLine
 10
-126.4875316148339
 20
31.65822638488298
 30
0.0
 11
-139.9875316148339
 21
31.65822638488298
 31
0.0
  0
LINE
  5
25B
330
6D
100
AcDbEntity
  8
1
  6
Continuous
 62
     2
100
AcDbLine
 10
-126.4875316148339
 20
35.90822638488298
 30
0.0
 11
-126.4875316148339
 21
31.65822638488298
 31
0.0
  0
LINE
  5
25C
330
6D
100
AcDbEntity
  8
1
  6
Continuous
 62
     2
100
AcDbLine
 10
-126.4875316148339
 20
35.90822638488298
 30
0.0
 11
-139.9875316148339
 21
35.90822638488298
 31
0.0
  0
LINE
  5
25D
330
6D
100
AcDbEntity
  8
1
  6
Continuous
 62
     2
100
AcDbLine
 10
-126.4875316148339
 20
23.15822638488298
 30
0.0
 11
-126.4875316148339
 21
18.90822638488298
 31
0.0
  0
LINE
  5
25E
330
6D
100
AcDbEntity
  8
1
  6
Continuous
 62
     2
100
AcDbLine
 10
-126.4875316148339
 20
23.15822638488298
 30
0.0
 11
-139.9875316148339
 21
23.15822638488298
 31
0.0
  0
LINE
  5
25F
330
6D
100
AcDbEntity
  8
1
  6
Continuous
 62
     6
100
AcDbLine
 10
-139.9875316148339
 20
10.40822638488298
 30
0.0
 11
-126.4875316148339
 21
10.40822638488298
 31
0.0
  0
LINE
  5
260
330
6D
100
AcDbEntity
  8
1
  6
Continuous
 62
     2
100
AcDbLine
 10
-139.9875316148339
 20
18.90822638488298
 30
0.0
 11
-139.9875316148339
 21
14.65822638488309
 31
0.0
  0
LINE
  5
261
330
6D
100
AcDbEntity
  8
1
  6
Continuous
 62
     2
100
AcDbLine
 10
-139.9875316148339
 20
18.90822638488298
 30
0.0
 11
-202.2427270880841
 21
18.90822638488298
 31
0.0
  0
LINE
  5
262
330
6D
100
AcDbEntity
  8
1
  6
Continuous
 62
     2
100
AcDbLine
 10
-139.9875316148339
 20
14.65822638488309
 30
0.0
 11
-139.9875316148339
 21
10.40822638488298
 31
0.0
  0
LINE
  5
263
330
6D
100
AcDbEntity
  8
1
  6
Continuous
 62
     7
100
AcDbLine
 10
-139.9875316148339
 20
14.65822638488309
 30
0.0
 11
-126.4875316148339
 21
14.65822638488309
 31
0.0
  0
LINE
  5
264
330
6D
100
AcDbEntity
  8
1
  6
Continuous
 62
     2
100
AcDbLine
 10
-139.9875316148339
 20
27.40822638488298
 30
0.0
 11
-139.9875316148339
 21
23.15822638488298
 31
0.0
  0
LINE
  5
265
330
6D
100
AcDbEntity
  8
1
  6
Continuous
 62
     2
100
AcDbLine
 10
-139.9875316148339
 20
27.40822638488298
 30
0.0
 11
-202.2427270880841
 21
27.40822638488298
 31
0.0
  0
LINE
  5
266
330
6D
100
AcDbEntity
  8
1
  6
Continuous
 62
     2
100
AcDbLine
 10
-139.9875316148339
 20
31.65822638488298
 30
0.0
 11
-139.9875316148339
 21
27.40822638488298
 31
0.0
  0
LINE
  5
267
330
6D
100
AcDbEntity
  8
1
  6
Continuous
 62
     2
100
AcDbLine
 10
-139.9875316148339
 20
35.90822638488298
 30
0.0
 11
-139.9875316148339
 21
31.65822638488298
 31
0.0
  0
LINE
  5
268
330
6D
100
AcDbEntity
  8
1
  6
Continuous
 62
     2
100
AcDbLine
 10
-139.9875316148339
 20
23.15822638488298
 30
0.0
 11
-139.9875316148339
 21
18.90822638488298
 31
0.0
  0
LINE
  5
269
330
6D
100
AcDbEntity
  8
1
  6
Continuous
 62
     2
100
AcDbLine
 10
-139.9875316148339
 20
23.15822638488298
 30
0.0
 11
-202.2427270880841
 21
23.15822638488298
 31
0.0
  0
LINE
  5
26A
330
6D
100
AcDbEntity
  8
1
  6
Continuous
 62
     7
100
AcDbLine
 10
-90.08753161483389
 20
27.40822638488309
 30
0.0
 11
-99.48753161483387
 21
27.40822638488298
 31
0.0
  0
LINE
  5
26B
330
6D
100
AcDbEntity
  8
1
  6
Continuous
 62
     6
100
AcDbLine
 10
-90.08753161483389
 20
40.15822638488298
 30
0.0
 11
-99.48753161483387
 21
40.15822638488298
 31
0.0
  0
LINE
  5
26C
330
6D
100
AcDbEntity
  8
1
  6
Continuous
 62
     7
100
AcDbLine
 10
-99.48753161483387
 20
35.90822638488298
 30
0.0
 11
-90.08753161483389
 21
35.90822638488298
 31
0.0
  0
LINE
  5
26D
330
6D
100
AcDbEntity
  8
1
  6
Continuous
 62
     6
100
AcDbLine
 10
-221.9427270880821
 20
23.15822638488298
 30
0.0
 11
-221.9427270880821
 21
27.40822638488298
 31
0.0
  0
LINE
  5
26E
330
6D
100
AcDbEntity
  8
1
  6
Continuous
 62
     6
100
AcDbLine
 10
30.05727291191775
 20
40.15822638488298
 30
0.0
 11
30.05727291191684
 21
31.65822638488298
 31
0.0
  0
LINE
  5
26F
330
6D
100
AcDbEntity
  8
1
  6
Continuous
 62
     6
100
AcDbLine
 10
-221.9427270880821
 20
10.40822638488309
 30
0.0
 11
-256.9427270880819
 21
10.40822638488309
 31
0.0
  0
LINE
  5
270
330
6D
100
AcDbEntity
  8
1
  6
Continuous
 62
     2
100
AcDbLine
 10
-91.2072624803186
 20
26.78322638488298
 30
0.0
 11
-87.2072624803186
 21
26.28322638488298
 31
0.0
  0
LINE
  5
271
330
6D
100
AcDbEntity
  8
1
  6
Continuous
 62
     2
100
AcDbLine
 10
-87.2072624803186
 20
26.28322638488298
 30
0.0
 11
-87.2072624803186
 21
24.28322638488298
 31
0.0
  0
LINE
  5
272
330
6D
100
AcDbEntity
  8
1
  6
Continuous
 62
     2
100
AcDbLine
 10
-87.2072624803186
 20
24.28322638488298
 30
0.0
 11
-91.2072624803186
 21
23.78322638488298
 31
0.0
  0
LINE
  5
273
330
6D
100
AcDbEntity
  8
1
  6
Continuous
 62
     2
100
AcDbLine
 10
-91.2072624803186
 20
23.78322638488298
 30
0.0
 11
-91.2072624803186
 21
26.78322638488298
 31
0.0
  0
LINE
  5
274
330
6D
100
AcDbEntity
  8
1
  6
Continuous
 62
     7
100
AcDbLine
 10
-33.44272708808158
 20
31.65822638488296
 30
0.0
 11
-40.18753161483394
 21
31.65822638488292
 31
0.0
  0
LINE
  5
275
330
6D
100
AcDbEntity
  8
1
  6
Continuous
 62
     7
100
AcDbLine
 10
-33.44272708808158
 20
27.40822638488298
 30
0.0
 11
-31.44272708808158
 21
27.40822638488298
 31
0.0
  0
LINE
  5
276
330
6D
100
AcDbEntity
  8
1
  6
Continuous
 62
     2
100
AcDbLine
 10
1.49200959670503
 20
25.85800710585022
 30
0.0
 11
1.49200959670503
 21
23.80061114099672
 31
0.0
  0
ARC
  5
277
330
6D
100
AcDbEntity
  8
1
  6
Continuous
 62
     2
100
AcDbCircle
 10
-72.4914058720693
 20
17.43327478943222
 30
0.0
 40
1.206350288025998
100
AcDbArc
 50
91.6119598515516
 51
216.1353968693287
  0
ARC
  5
278
330
6D
100
AcDbEntity
  8
1
  6
Continuous
 62
     2
100
AcDbCircle
 10
-72.5159625773201
 20
17.45768415999912
 30
0.0
 40
1.201398482875461
100
AcDbArc
 50
217.7663890934391
 51
250.482095160258
  0
ARC
  5
279
102
{ACAD_REACTORS
330
301
330
301
102
}
330
6D
100
AcDbEntity
  8
1
  6
Continuous
 62
     2
100
AcDbCircle
 10
-83.1957607849771
 20
17.44870257536592
 30
0.0
 40
1.19047619047711
100
AcDbArc
 50
90.0
 51
270.0
  0
ARC
  5
27A
102
{ACAD_REACTORS
330
301
330
301
102
}
330
6D
100
AcDbEntity
  8
1
  6
Continuous
 62
     2
100
AcDbCircle
 10
-83.0937199686498
 20
17.44870257536592
 30
0.0
 40
1.190476190477
100
AcDbArc
 50
270.0
 51
90.0
  0
ARC
  5
27B
102
{ACAD_REACTORS
330
302
330
302
102
}
330
6D
100
AcDbEntity
  8
1
  6
Continuous
 62
     2
100
AcDbCircle
 10
-80.072609476342
 20
20.36775019440022
 30
0.0
 40
1.190476190476879
100
AcDbArc
 50
90.0
 51
270.0
  0
ARC
  5
27C
102
{ACAD_REACTORS
330
304
330
304
102
}
330
6D
100
AcDbEntity
  8
1
  6
Continuous
 62
     2
100
AcDbCircle
 10
-89.41644317945949
 20
19.27859675525251
 30
0.0
 40
1.731481481474422
100
AcDbArc
 50
270.0
 51
90.0
  0
ARC
  5
27D
102
{ACAD_REACTORS
330
304
330
304
102
}
330
6D
100
AcDbEntity
  8
1
  6
Continuous
 62
     2
100
AcDbCircle
 10
-89.9257024387176
 20
19.27859675525251
 30
0.0
 40
0.814814814813291
100
AcDbArc
 50
295.7192795021668
 51
64.2807204979753
  0
ARC
  5
27E
102
{ACAD_REACTORS
330
304
330
304
102
}
330
6D
100
AcDbEntity
  8
1
  6
Continuous
 62
     2
100
AcDbCircle
 10
-89.9257024387176
 20
19.27859675525251
 30
0.0
 40
0.8148148148137929
100
AcDbArc
 50
115.7192795022131
 51
244.2807204978134
  0
ARC
  5
27F
102
{ACAD_REACTORS
330
303
330
303
102
}
330
6D
100
AcDbEntity
  8
1
  6
Continuous
 62
     2
100
AcDbCircle
 10
-85.6062142354121
 20
20.76610906839953
 30
0.0
 40
0.2751160335811313
100
AcDbArc
 50
270.0
 51
90.0
  0
ARC
  5
280
102
{ACAD_REACTORS
330
303
330
303
102
}
330
6D
100
AcDbEntity
  8
1
  6
Continuous
 62
     2
100
AcDbCircle
 10
-85.3440604110991
 20
20.7353933571719
 30
0.0
 40
0.8280239484092065
100
AcDbArc
 50
276.4189726355862
 51
83.58102736441381
  0
CIRCLE
  5
281
102
{ACAD_REACTORS
330
304
330
304
102
}
330
6D
100
AcDbEntity
  8
1
  6
Continuous
 62
     2
100
AcDbCircle
 10
-89.9257024387176
 20
19.27859675525251
 30
0.0
 40
0.4074074074073053
  0
CIRCLE
  5
282
330
6D
100
AcDbEntity
  8
1
  6
Continuous
 62
     2
100
AcDbCircle
 10
-94.3952717897306
 20
25.28322638488298
 30
0.0
 40
1.0
  0
CIRCLE
  5
283
330
6D
100
AcDbEntity
  8
1
  6
Continuous
 62
     2
100
AcDbCircle
 10
-94.3952717897306
 20
25.28322638488298
 30
0.0
 40
1.5
  0
ARC
  5
284
102
{ACAD_REACTORS
330
304
330
304
102
}
330
6D
100
AcDbEntity
  8
1
  6
Continuous
 62
     2
100
AcDbCircle
 10
-89.4571839201999
 20
17.81193008858263
 30
0.0
 40
0.2648148148142013
100
AcDbArc
 50
180.0
 51
270.0
  0
ARC
  5
285
102
{ACAD_REACTORS
330
304
330
304
102
}
330
6D
100
AcDbEntity
  8
1
  6
Continuous
 62
     2
100
AcDbCircle
 10
-89.4571839201999
 20
20.7452634219316
 30
0.0
 40
0.2648148148090783
100
AcDbArc
 50
90.0
 51
180.0
  0
ARC
  5
286
102
{ACAD_REACTORS
330
304
330
304
102
}
330
6D
100
AcDbEntity
  8
1
  6
Continuous
 62
     2
100
AcDbCircle
 10
-89.4571839201999
 20
20.2512686089584
 30
0.0
 40
0.2648148148142013
100
AcDbArc
 50
180.0
 51
244.2807204980797
  0
ARC
  5
287
102
{ACAD_REACTORS
330
304
330
304
102
}
330
6D
100
AcDbEntity
  8
1
  6
Continuous
 62
     2
100
AcDbCircle
 10
-89.4571839201999
 20
18.30592490154679
 30
0.0
 40
0.2648148148214952
100
AcDbArc
 50
115.7192795014987
 51
180.0
  0
ARC
  5
288
102
{ACAD_REACTORS
330
304
330
304
102
}
330
6D
100
AcDbEntity
  8
1
  6
Continuous
 62
     2
100
AcDbCircle
 10
-91.697924660941
 20
20.7452634219316
 30
0.0
 40
0.2648148148090783
100
AcDbArc
 50
90.0
 51
180.0
  0
ARC
  5
289
102
{ACAD_REACTORS
330
304
330
304
102
}
330
6D
100
AcDbEntity
  8
1
  6
Continuous
 62
     2
100
AcDbCircle
 10
-91.697924660941
 20
16.99711527377069
 30
0.0
 40
0.2648148148140024
100
AcDbArc
 50
180.0
 51
270.0
  0
ARC
  5
28A
102
{ACAD_REACTORS
330
304
330
304
102
}
330
6D
100
AcDbEntity
  8
1
  6
Continuous
 62
     2
100
AcDbCircle
 10
-90.3942209572366
 20
16.99711527377069
 30
0.0
 40
0.2648148148045877
100
AcDbArc
 50
270.0
 51
0.0
  0
ARC
  5
28B
102
{ACAD_REACTORS
330
304
330
304
102
}
330
6D
100
AcDbEntity
  8
1
  6
Continuous
 62
     2
100
AcDbCircle
 10
-90.3942209572366
 20
18.30592490154679
 30
0.0
 40
0.2648148148150966
100
AcDbArc
 50
0.00000000193013
 51
64.28072049830739
  0
ARC
  5
28C
102
{ACAD_REACTORS
330
304
330
304
102
}
330
6D
100
AcDbEntity
  8
1
  6
Continuous
 62
     2
100
AcDbCircle
 10
-90.3942209572366
 20
20.2512686089584
 30
0.0
 40
0.2648148148217111
100
AcDbArc
 50
295.7192795015957
 51
0.0
  0
ARC
  5
28D
102
{ACAD_REACTORS
330
304
330
304
102
}
330
6D
100
AcDbEntity
  8
1
  6
Continuous
 62
     2
100
AcDbCircle
 10
-90.3942209572366
 20
20.7452634219316
 30
0.0
 40
0.2648148148150966
100
AcDbArc
 50
359.9999999980076
 51
90.0
  0
ARC
  5
28E
102
{ACAD_REACTORS
330
304
330
304
102
}
330
6D
100
AcDbEntity
  8
1
  6
Continuous
 62
     2
100
AcDbCircle
 10
-92.0997765127919
 20
21.22489305154413
 30
0.0
 40
0.3333333333329698
100
AcDbArc
 50
90.0
 51
180.0
  0
ARC
  5
28F
102
{ACAD_REACTORS
330
304
330
304
102
}
330
6D
100
AcDbEntity
  8
1
  6
Continuous
 62
     2
100
AcDbCircle
 10
-92.0997765127919
 20
16.59155971822189
 30
0.0
 40
0.3333333333335986
100
AcDbArc
 50
180.0
 51
270.0
  0
ARC
  5
290
102
{ACAD_REACTORS
330
304
330
304
102
}
330
6D
100
AcDbEntity
  8
1
  6
Continuous
 62
     2
100
AcDbCircle
 10
-87.5664431794586
 20
16.59155971822189
 30
0.0
 40
0.3333333333329698
100
AcDbArc
 50
270.0
 51
0.0
  0
ARC
  5
291
102
{ACAD_REACTORS
330
304
330
304
102
}
330
6D
100
AcDbEntity
  8
1
  6
Continuous
 62
     2
100
AcDbCircle
 10
-87.5664431794586
 20
21.22489305154413
 30
0.0
 40
0.3333333333327033
100
AcDbArc
 50
0.0
 51
90.0
  0
MTEXT
  5
293
330
6D
100
AcDbEntity
  8
1
 62
     2
100
AcDbMText
 10
-61.98753161483396
 20
29.73322638488297
 30
0.0
 40
1.4
 41
0.0
 71
     4
 72
     1
  1
SAP\Pchange-No.
  7
CONVERTER_12
 73
     1
 44
0.66026410564226
  0
MTEXT
  5
294
330
6D
100
AcDbEntity
  8
1
 62
     3
100
AcDbMText
 10
-52.75529479671907
 20
29.53322638488297
 30
0.0
 40
2.5
 41
0.0
 71
     4
 72
     1
  1
MIG-020017
  7
CONVERTER_12
 73
     1
 44
1.20048019207683
  0
TEXT
  5
296
330
6D
100
AcDbEntity
  8
1
 62
     3
100
AcDbText
 10
-61.98753161483404
 20
42.45299795848723
 30
0.0
 40
2.5
  1
 
 41
0.72
  7
CONVERTER_13
100
AcDbText
  0
TEXT
  5
297
330
6D
100
AcDbEntity
  8
1
 62
     3
100
AcDbText
 10
-61.98753161483404
 20
45.95299795848723
 30
0.0
 40
2.5
  1
 
 41
0.72
  7
CONVERTER_13
100
AcDbText
  0
TEXT
  5
298
330
6D
100
AcDbEntity
  8
1
 62
     3
100
AcDbText
 10
-61.98753161483404
 20
49.45299795848723
 30
0.0
 40
2.5
  1
 
 41
0.72
  7
CONVERTER_13
100
AcDbText
  0
MTEXT
  5
29A
330
6D
100
AcDbEntity
  8
1
 62
     2
100
AcDbMText
 10
-201.2427270880841
 20
16.78322638488309
 30
0.0
 40
2.0
 41
0.0
 71
     4
 72
     1
  1
 
  7
CONVERTER_14
 73
     1
 44
1.20048019207683
  0
MTEXT
  5
29B
330
6D
100
AcDbEntity
  8
1
 62
     2
100
AcDbMText
 10
-201.2427270880841
 20
21.03322638488298
 30
0.0
 40
2.0
 41
0.0
 71
     4
 72
     1
  1
 
  7
CONVERTER_14
 73
     1
 44
1.20048019207683
  0
MTEXT
  5
29C
330
6D
100
AcDbEntity
  8
1
 62
     2
100
AcDbMText
 10
-201.2427270880841
 20
25.28322638488298
 30
0.0
 40
2.0
 41
0.0
 71
     4
 72
     1
  1
 
  7
CONVERTER_14
 73
     1
 44
1.20048019207683
  0
MTEXT
  5
29D
330
6D
100
AcDbEntity
  8
1
 62
     2
100
AcDbMText
 10
-201.2427270880841
 20
29.53322638488298
 30
0.0
 40
2.0
 41
0.0
 71
     4
 72
     1
  1
 
  7
CONVERTER_14
 73
     1
 44
1.20048019207683
  0
MTEXT
  5
29E
330
6D
100
AcDbEntity
  8
1
 62
     2
100
AcDbMText
 10
-201.2427270880841
 20
33.78322638488298
 30
0.0
 40
2.0
 41
0.0
 71
     4
 72
     1
  1
 
  7
CONVERTER_14
 73
     1
 44
1.20048019207683
  0
MTEXT
  5
29F
330
6D
100
AcDbEntity
  8
1
 62
     2
100
AcDbMText
 10
-201.2427270880841
 20
38.03322638488298
 30
0.0
 40
2.0
 41
0.0
 71
     4
 72
     1
  1
 
  7
CONVERTER_14
 73
     1
 44
1.20048019207683
  0
MTEXT
  5
2A0
330
6D
100
AcDbEntity
  8
1
 62
     2
100
AcDbMText
 10
-106.2375316148339
 20
16.78322638488309
 30
0.0
 40
2.0
 41
0.0
 71
     5
 72
     1
  1
 
  7
CONVERTER_11
 73
     1
 44
1.20048019207683
  0
MTEXT
  5
2A1
330
6D
100
AcDbEntity
  8
1
 62
     2
100
AcDbMText
 10
-106.2375316148339
 20
21.03322638488298
 30
0.0
 40
2.0
 41
0.0
 71
     5
 72
     1
  1
 
  7
CONVERTER_11
 73
     1
 44
1.20048019207683
  0
MTEXT
  5
2A2
330
6D
100
AcDbEntity
  8
1
 62
     2
100
AcDbMText
 10
-106.2375316148339
 20
25.28322638488298
 30
0.0
 40
2.0
 41
0.0
 71
     5
 72
     1
  1
 
  7
CONVERTER_11
 73
     1
 44
1.20048019207683
  0
MTEXT
  5
2A3
330
6D
100
AcDbEntity
  8
1
 62
     2
100
AcDbMText
 10
-106.2375316148339
 20
29.53322638488298
 30
0.0
 40
2.0
 41
0.0
 71
     5
 72
     1
  1
 
  7
CONVERTER_11
 73
     1
 44
1.20048019207683
  0
MTEXT
  5
2A4
330
6D
100
AcDbEntity
  8
1
 62
     2
100
AcDbMText
 10
-106.2375316148339
 20
33.78322638488298
 30
0.0
 40
2.0
 41
0.0
 71
     5
 72
     1
  1
 
  7
CONVERTER_11
 73
     1
 44
1.20048019207683
  0
MTEXT
  5
2A5
330
6D
100
AcDbEntity
  8
1
 62
     2
100
AcDbMText
 10
-106.2375316148339
 20
38.03322638488298
 30
0.0
 40
2.0
 41
0.0
 71
     5
 72
     1
  1
 
  7
CONVERTER_11
 73
     1
 44
1.20048019207683
  0
MTEXT
  5
2A6
330
6D
100
AcDbEntity
  8
1
 62
     2
100
AcDbMText
 10
-119.737531614834
 20
16.78322638488309
 30
0.0
 40
2.0
 41
0.0
 71
     5
 72
     1
  1
 
  7
CONVERTER_11
 73
     1
 44
1.20048019207683
  0
MTEXT
  5
2A7
330
6D
100
AcDbEntity
  8
1
 62
     2
100
AcDbMText
 10
-119.737531614834
 20
21.03322638488298
 30
0.0
 40
2.0
 41
0.0
 71
     5
 72
     1
  1
 
  7
CONVERTER_11
 73
     1
 44
1.20048019207683
  0
MTEXT
  5
2A8
330
6D
100
AcDbEntity
  8
1
 62
     2
100
AcDbMText
 10
-119.737531614834
 20
25.28322638488298
 30
0.0
 40
2.0
 41
0.0
 71
     5
 72
     1
  1
 
  7
CONVERTER_11
 73
     1
 44
1.20048019207683
  0
MTEXT
  5
2A9
330
6D
100
AcDbEntity
  8
1
 62
     2
100
AcDbMText
 10
-119.737531614834
 20
29.53322638488298
 30
0.0
 40
2.0
 41
0.0
 71
     5
 72
     1
  1
 
  7
CONVERTER_11
 73
     1
 44
1.20048019207683
  0
MTEXT
  5
2AA
330
6D
100
AcDbEntity
  8
1
 62
     2
100
AcDbMText
 10
-119.737531614834
 20
33.78322638488298
 30
0.0
 40
2.0
 41
0.0
 71
     5
 72
     1
  1
 
  7
CONVERTER_11
 73
     1
 44
1.20048019207683
  0
MTEXT
  5
2AB
330
6D
100
AcDbEntity
  8
1
 62
     2
100
AcDbMText
 10
-119.737531614834
 20
38.03322638488298
 30
0.0
 40
2.0
 41
0.0
 71
     5
 72
     1
  1
 
  7
CONVERTER_11
 73
     1
 44
1.20048019207683
  0
MTEXT
  5
2AC
330
6D
100
AcDbEntity
  8
1
 62
     2
100
AcDbMText
 10
-133.2375316148339
 20
38.03322638488298
 30
0.0
 40
2.0
 41
0.0
 71
     5
 72
     1
  1
 
  7
CONVERTER_11
 73
     1
 44
1.20048019207683
  0
MTEXT
  5
2AD
330
6D
100
AcDbEntity
  8
1
 62
     2
100
AcDbMText
 10
-133.2375316148339
 20
33.78322638488298
 30
0.0
 40
2.0
 41
0.0
 71
     5
 72
     1
  1
 
  7
CONVERTER_11
 73
     1
 44
1.20048019207683
  0
MTEXT
  5
2AE
330
6D
100
AcDbEntity
  8
1
 62
     2
100
AcDbMText
 10
-133.2375316148339
 20
29.53322638488298
 30
0.0
 40
2.0
 41
0.0
 71
     5
 72
     1
  1
 
  7
CONVERTER_11
 73
     1
 44
1.20048019207683
  0
MTEXT
  5
2AF
330
6D
100
AcDbEntity
  8
1
 62
     2
100
AcDbMText
 10
-133.2375316148339
 20
25.28322638488298
 30
0.0
 40
2.0
 41
0.0
 71
     5
 72
     1
  1
 
  7
CONVERTER_11
 73
     1
 44
1.20048019207683
  0
MTEXT
  5
2B0
330
6D
100
AcDbEntity
  8
1
 62
     2
100
AcDbMText
 10
-133.2375316148339
 20
21.03322638488298
 30
0.0
 40
2.0
 41
0.0
 71
     5
 72
     1
  1
 
  7
CONVERTER_11
 73
     1
 44
1.20048019207683
  0
MTEXT
  5
2B1
330
6D
100
AcDbEntity
  8
1
 62
     2
100
AcDbMText
 10
-133.2375316148339
 20
16.78322638488309
 30
0.0
 40
2.0
 41
0.0
 71
     5
 72
     1
  1
 
  7
CONVERTER_11
 73
     1
 44
1.20048019207683
  0
MTEXT
  5
2B2
330
6D
100
AcDbEntity
  8
1
 62
     2
100
AcDbMText
 10
-208.9927270880841
 20
38.03322638488298
 30
0.0
 40
2.0
 41
0.0
 71
     5
 72
     1
  1
 
  7
CONVERTER_11
 73
     1
 44
1.20048019207683
  0
MTEXT
  5
2B3
330
6D
100
AcDbEntity
  8
1
 62
     2
100
AcDbMText
 10
-208.9927270880841
 20
33.78322638488298
 30
0.0
 40
2.0
 41
0.0
 71
     5
 72
     1
  1
 
  7
CONVERTER_11
 73
     1
 44
1.20048019207683
  0
MTEXT
  5
2B4
330
6D
100
AcDbEntity
  8
1
 62
     2
100
AcDbMText
 10
-208.9927270880841
 20
29.53322638488298
 30
0.0
 40
2.0
 41
0.0
 71
     5
 72
     1
  1
 
  7
CONVERTER_11
 73
     1
 44
1.20048019207683
  0
MTEXT
  5
2B5
330
6D
100
AcDbEntity
  8
1
 62
     2
100
AcDbMText
 10
-208.9927270880841
 20
25.28322638488298
 30
0.0
 40
2.0
 41
0.0
 71
     5
 72
     1
  1
 
  7
CONVERTER_11
 73
     1
 44
1.20048019207683
  0
MTEXT
  5
2B6
330
6D
100
AcDbEntity
  8
1
 62
     2
100
AcDbMText
 10
-208.9927270880841
 20
21.03322638488298
 30
0.0
 40
2.0
 41
0.0
 71
     5
 72
     1
  1
 
  7
CONVERTER_11
 73
     1
 44
1.20048019207683
  0
MTEXT
  5
2B7
330
6D
100
AcDbEntity
  8
1
 62
     2
100
AcDbMText
 10
-208.9927270880841
 20
16.78322638488309
 30
0.0
 40
2.0
 41
0.0
 71
     5
 72
     1
  1
 
  7
CONVERTER_11
 73
     1
 44
1.20048019207683
  0
MTEXT
  5
2B8
330
6D
100
AcDbEntity
  8
1
 62
     2
100
AcDbMText
 10
-218.8427270880831
 20
16.78322638488309
 30
0.0
 40
2.0
 41
0.0
 71
     5
 72
     1
  1
 
  7
CONVERTER_11
 73
     1
 44
1.20048019207683
  0
MTEXT
  5
2B9
330
6D
100
AcDbEntity
  8
1
 62
     2
100
AcDbMText
 10
-218.8427270880831
 20
21.03322638488298
 30
0.0
 40
2.0
 41
0.0
 71
     5
 72
     1
  1
 
  7
CONVERTER_11
 73
     1
 44
1.20048019207683
  0
MTEXT
  5
2BA
330
6D
100
AcDbEntity
  8
1
 62
     2
100
AcDbMText
 10
-218.8427270880831
 20
25.28322638488298
 30
0.0
 40
2.0
 41
0.0
 71
     5
 72
     1
  1
 
  7
CONVERTER_11
 73
     1
 44
1.20048019207683
  0
MTEXT
  5
2BB
330
6D
100
AcDbEntity
  8
1
 62
     2
100
AcDbMText
 10
-218.8427270880831
 20
29.53322638488298
 30
0.0
 40
2.0
 41
0.0
 71
     5
 72
     1
  1
 
  7
CONVERTER_11
 73
     1
 44
1.20048019207683
  0
MTEXT
  5
2BC
330
6D
100
AcDbEntity
  8
1
 62
     2
100
AcDbMText
 10
-218.8427270880831
 20
33.78322638488298
 30
0.0
 40
2.0
 41
0.0
 71
     5
 72
     1
  1
 
  7
CONVERTER_11
 73
     1
 44
1.20048019207683
  0
MTEXT
  5
2BD
330
6D
100
AcDbEntity
  8
1
 62
     2
100
AcDbMText
 10
-218.8427270880831
 20
38.03322638488298
 30
0.0
 40
2.0
 41
0.0
 71
     5
 72
     1
  1
 
  7
CONVERTER_11
 73
     1
 44
1.20048019207683
  0
MTEXT
  5
2BE
330
6D
100
AcDbEntity
  8
1
 62
     2
100
AcDbMText
 10
-32.44272708808158
 20
30.65822638488298
 30
0.0
 40
1.8
 41
0.0
 71
     1
 72
     1
  1
part-rev.
  7
CONVERTER_13
 73
     1
 44
1.20048019207683
  0
MTEXT
  5
2BF
330
6D
100
AcDbEntity
  8
1
 62
     2
100
AcDbMText
 10
-13.94272708808196
 20
26.40822638488298
 30
0.0
 40
1.8
 41
0.0
 71
     1
 72
     1
  1
surface in um
  7
CONVERTER_11
 73
     1
 44
1.32052821128451
  0
MTEXT
  5
2C0
330
6D
100
AcDbEntity
  8
1
 62
     7
100
AcDbMText
 10
32.55727291191514
 20
85.40822638488491
 30
0.0
 40
3.5
 41
0.0
 71
     5
 72
     1
  1
C
  7
CONVERTER_11
 73
     1
 44
1.20048019207683
  0
MTEXT
  5
2C1
330
6D
100
AcDbEntity
  8
1
 62
     7
100
AcDbMText
 10
32.55727291191514
 20
187.908226384883
 30
0.0
 40
3.5
 41
0.0
 71
     5
 72
     1
  1
A
  7
CONVERTER_11
 73
     1
 44
1.20048019207683
  0
MTEXT
  5
2C2
330
6D
100
AcDbEntity
  8
1
 62
     7
100
AcDbMText
 10
32.55727291191514
 20
135.4082263848849
 30
0.0
 40
3.5
 41
0.0
 71
     5
 72
     1
  1
B
  7
CONVERTER_11
 73
     1
 44
1.20048019207683
  0
MTEXT
  5
2C3
330
6D
100
AcDbEntity
  8
1
 62
     7
100
AcDbMText
 10
32.55727291191514
 20
32.90822638488298
 30
0.0
 40
3.5
 41
0.0
 71
     5
 72
     1
  1
D
  7
CONVERTER_11
 73
     1
 44
1.20048019207683
  0
MTEXT
  5
2C4
330
6D
100
AcDbEntity
  8
1
 62
     3
100
AcDbMText
 10
-256.9376593020121
 20
197.1995345401818
 30
0.0
 40
1.8
 41
0.0
 71
     7
 72
     1
  3
Weitergabe sowie Vervielf\U+00e4ltigung dieses Dokuments, Verwertung und\PMitteilung seines Inhalts gem\U+00e4\U+00df \U+00a718 UWG verboten, soweit nicht aus-\Pdr\U+00fccklich gestattet. Zuwiderhandlungen verpflichten zu Schadenersatz\P(\U+00a719 U
  1
WG). Alle Rechte vorbehalten, insbesondere das Recht, Patent-,\PGebrauchsmuster- oder Geschmacksmusteranmeldungen durchzuf\U+00fchren.\PPhoenix Contact GmbH & Co. KG
  7
CONVERTER_11
 73
     1
 44
0.99639855942377
  0
MTEXT
  5
2C5
330
6D
100
AcDbEntity
  8
1
 62
     3
100
AcDbMText
 10
-84.084549463224
 20
197.1995345401818
 30
0.0
 40
1.8
 41
0.0
 71
     7
 72
     1
  3
The copying, distribution and utilistion of this document as well as the communication\Pof the contents to others without expressed authorization is prohibited according to\P\U+00a718 UWG German Law. Offenders will be held liable for the payment of 
  1
damages\Paccording to (\U+00a719 UWG German Law). All rights reserved, in particular the right to\Pcarry out patent, utility model or ornamental design registrations.\PFlachsmarktstra\U+00dfe 8  D-32825 Blomberg
  7
CONVERTER_11
 73
     1
 44
0.99639855942377
  0
MTEXT
  5
2C6
330
6D
100
AcDbEntity
  8
1
 62
     7
100
AcDbMText
 10
-237.6927270880836
 20
7.90822638488298
 30
0.0
 40
3.5
 41
0.0
 71
     5
 72
     1
  1
1
  7
CONVERTER_11
 73
     1
 44
1.20048019207683
  0
MTEXT
  5
2C7
330
6D
100
AcDbEntity
  8
1
 62
     7
100
AcDbMText
 10
-188.442727088084
 20
7.90822638488298
 30
0.0
 40
3.5
 41
0.0
 71
     5
 72
     1
  1
2
  7
CONVERTER_11
 73
     1
 44
1.20048019207683
  0
MTEXT
  5
2C8
330
6D
100
AcDbEntity
  8
1
 62
     7
100
AcDbMText
 10
-138.442727088084
 20
7.90822638488298
 30
0.0
 40
3.5
 41
0.0
 71
     5
 72
     1
  1
3
  7
CONVERTER_11
 73
     1
 44
1.20048019207683
  0
MTEXT
  5
2C9
330
6D
100
AcDbEntity
  8
1
 62
     7
100
AcDbMText
 10
-88.442727088084
 20
7.90822638488298
 30
0.0
 40
3.5
 41
0.0
 71
     5
 72
     1
  1
4
  7
CONVERTER_11
 73
     1
 44
1.20048019207683
  0
MTEXT
  5
2CA
330
6D
100
AcDbEntity
  8
1
 62
     7
100
AcDbMText
 10
-38.44272708808395
 20
7.90822638488298
 30
0.0
 40
3.5
 41
0.0
 71
     5
 72
     1
  1
5
  7
CONVERTER_11
 73
     1
 44
1.20048019207683
  0
MTEXT
  5
2CB
330
6D
100
AcDbEntity
  8
1
 62
     7
100
AcDbMText
 10
10.80727291191533
 20
7.90822638488298
 30
0.0
 40
3.5
 41
0.0
 71
     5
 72
     1
  1
6
  7
CONVERTER_11
 73
     1
 44
1.20048019207683
  0
MTEXT
  5
2CC
330
6D
100
AcDbEntity
  8
1
 62
     7
100
AcDbMText
 10
-259.442727088083
 20
187.908226384883
 30
0.0
 40
3.5
 41
0.0
 71
     5
 72
     1
  1
A
  7
CONVERTER_11
 73
     1
 44
1.20048019207683
  0
MTEXT
  5
2CD
330
6D
100
AcDbEntity
  8
1
 62
     7
100
AcDbMText
 10
-259.442727088083
 20
135.408226384883
 30
0.0
 40
3.5
 41
0.0
 71
     5
 72
     1
  1
B
  7
CONVERTER_11
 73
     1
 44
1.20048019207683
  0
MTEXT
  5
2CE
330
6D
100
AcDbEntity
  8
1
 62
     7
100
AcDbMText
 10
-259.442727088083
 20
85.40822638488298
 30
0.0
 40
3.5
 41
0.0
 71
     5
 72
     1
  1
C
  7
CONVERTER_11
 73
     1
 44
1.20048019207683
  0
MTEXT
  5
2CF
330
6D
100
AcDbEntity
  8
1
 62
     7
100
AcDbMText
 10
-259.442727088083
 20
32.90822638488298
 30
0.0
 40
3.5
 41
0.0
 71
     5
 72
     1
  1
D
  7
CONVERTER_11
 73
     1
 44
1.20048019207683
  0
MTEXT
  5
2D0
330
6D
100
AcDbEntity
  8
1
 62
     2
100
AcDbMText
 10
13.47568119359684
 20
39.15822638488298
 30
0.0
 40
1.8
 41
0.0
 71
     1
 72
     1
  1
dim.var.
  7
CONVERTER_11
 73
     1
 44
1.20048019207683
  0
MTEXT
  5
2D2
330
6D
100
AcDbEntity
  8
1
 62
     2
100
AcDbMText
 10
-32.44272708808158
 20
26.40822638488298
 30
0.0
 40
1.8
 41
0.0
 71
     1
 72
     1
  1
document-No.
  7
CONVERTER_15
 73
     1
 44
1.32052821128451
  0
TEXT
  5
2D3
330
6D
100
AcDbEntity
  8
1
 62
     2
100
AcDbText
 10
-80.287531614834
 20
11.64920916989142
 30
0.0
 40
1.8
  1
of
 41
0.9
  7
CONVERTER_11
100
AcDbText
  0
TEXT
  5
2D4
330
6D
100
AcDbEntity
  8
1
 62
     2
100
AcDbText
 10
-98.48753161483387
 20
11.64920916989131
 30
0.0
 40
1.8
  1
page
 41
0.9
  7
CONVERTER_11
100
AcDbText
  0
MTEXT
  5
2D5
330
6D
100
AcDbEntity
  8
1
 62
     2
100
AcDbMText
 10
-106.237531614834
 20
11.65822638488298
 30
0.0
 40
1.8
 41
0.0
 71
     8
 72
     1
  1
name
  7
CONVERTER_11
 73
     1
 44
1.32052821128451
  0
MTEXT
  5
2D6
330
6D
100
AcDbEntity
  8
1
 62
     2
100
AcDbMText
 10
-119.7375316148339
 20
11.65822638488298
 30
0.0
 40
1.8
 41
0.0
 71
     8
 72
     1
  1
check.on
  7
CONVERTER_11
 73
     1
 44
1.32052821128451
  0
MTEXT
  5
2D7
330
6D
100
AcDbEntity
  8
1
 62
     2
100
AcDbMText
 10
-133.2375316148339
 20
11.65822638488298
 30
0.0
 40
1.8
 41
0.0
 71
     8
 72
     1
  1
name
  7
CONVERTER_11
 73
     1
 44
1.32052821128451
  0
MTEXT
  5
2D8
330
6D
100
AcDbEntity
  8
1
 62
     2
100
AcDbMText
 10
-208.9927270880841
 20
11.65822638488298
 30
0.0
 40
1.8
 41
0.0
 71
     8
 72
     1
  1
date
  7
CONVERTER_11
 73
     1
 44
1.32052821128451
  0
MTEXT
  5
2D9
330
6D
100
AcDbEntity
  8
1
 62
     2
100
AcDbMText
 10
-38.96234245724247
 20
39.15822638488281
 30
0.0
 40
1.8
 41
0.0
 71
     1
 72
     1
  1
material
  7
CONVERTER_11
 73
     1
 44
1.20048019207683
  0
MTEXT
  5
2DA
330
6D
100
AcDbEntity
  8
1
 62
     2
100
AcDbMText
 10
-218.8427270880831
 20
11.65822638488298
 30
0.0
 40
1.8
 41
0.0
 71
     8
 72
     1
  1
RI
  7
CONVERTER_11
 73
     1
 44
1.32052821128451
  0
MTEXT
  5
2DB
330
6D
100
AcDbEntity
  8
1
 62
     2
100
AcDbMText
 10
-83.33753161483399
 20
37.10822638488303
 30
0.0
 40
1.8
 41
0.0
 71
     8
 72
     1
  1
date
  7
CONVERTER_11
 73
     1
 44
1.32052821128451
  0
MTEXT
  5
2DC
330
6D
100
AcDbEntity
  8
1
 62
     2
100
AcDbMText
 10
-69.837531614834
 20
37.10822638488303
 30
0.0
 40
1.8
 41
0.0
 71
     8
 72
     1
  1
name
  7
CONVERTER_11
 73
     1
 44
1.32052821128451
  0
MTEXT
  5
2DD
330
6D
100
AcDbEntity
  8
1
 62
     2
100
AcDbMText
 10
-171.115129351459
 20
11.65822638488298
 30
0.0
 40
1.8
 41
0.0
 71
     8
 72
     1
  1
revision
  7
CONVERTER_11
 73
     1
 44
1.32052821128451
  0
MTEXT
  5
2DE
330
6D
100
AcDbEntity
  8
1
 62
     2
100
AcDbMText
 10
4.35727291191793
 20
39.15822638488298
 30
0.0
 40
1.8
 41
0.0
 71
     1
 72
     1
  1
scale
  7
CONVERTER_11
 73
     1
 44
1.20048019207683
  0
MTEXT
  5
2DF
330
6D
100
AcDbEntity
  8
1
 62
     2
100
AcDbMText
 10
-94.7875316148339
 20
33.78322638488298
 30
0.0
 40
1.8
 41
0.0
 71
     5
 72
     1
  1
creat.
  7
CONVERTER_11
 73
     1
 44
1.20048019207683
  0
MTEXT
  5
2E0
330
6D
100
AcDbEntity
  8
1
 62
     2
100
AcDbMText
 10
-94.7875316148339
 20
29.53322638488298
 30
0.0
 40
1.8
 41
0.0
 71
     5
 72
     1
  1
check.
  7
CONVERTER_11
 73
     1
 44
1.20048019207683
  0
MTEXT
  5
2E1
330
6D
100
AcDbEntity
  8
1
 62
     3
100
AcDbMText
 10
-73.287531614834
 20
25.28322638488309
 30
0.0
 40
2.5
 41
0.0
 71
     5
 72
     1
  1
DIN A4
  7
CONVERTER_11
 73
     1
 44
1.20048019207683
  0
MTEXT
  5
2E2
330
6D
100
AcDbEntity
  8
1
 62
     2
100
AcDbMText
 10
-61.98753161483396
 20
39.15822638488298
 30
0.0
 40
1.8
 41
0.0
 71
     1
 72
     1
  1
ident.-No. / RI
  7
CONVERTER_11
 73
     1
 44
1.20048019207683
  0
TEXT
  5
2E3
330
6D
100
AcDbEntity
  8
1
 62
     2
100
AcDbText
 10
-89.8412666444918
 20
11.60897773108102
 30
0.0
 40
1.8
  1
 
 41
0.9
  7
CONVERTER_11
100
AcDbText
  0
TEXT
  5
2E4
330
6D
100
AcDbEntity
  8
1
 62
     2
100
AcDbText
 10
-75.0522228050203
 20
11.65822638488298
 30
0.0
 40
1.8
  1
1
 41
0.9
  7
CONVERTER_11
100
AcDbText
  0
MTEXT
  5
2E5
330
6D
100
AcDbEntity
  8
1
 62
     2
100
AcDbMText
 10
-62.08753161483397
 20
17.90822638488298
 30
0.0
 40
1.8
 41
0.0
 71
     1
 72
     1
  1
description
  7
CONVERTER_11
 73
     1
 44
1.20048019207683
  0
MTEXT
  5
2E6
330
6D
100
AcDbEntity
  8
1
 62
     2
100
AcDbMText
 10
-94.7875316148339
 20
37.10822638488303
 30
0.0
 40
1.8
 41
0.0
 71
     8
 72
     1
  1
00
  7
CONVERTER_11
 73
     1
 44
1.20048019207683
  0
MTEXT
  5
2E7
330
6D
100
AcDbEntity
  8
1
 62
     2
100
AcDbMText
 10
-62.08753161483397
 20
26.40822638488292
 30
0.0
 40
1.8
 41
0.0
 71
     1
 72
     1
  1
document-type
  7
CONVERTER_11
 73
     1
 44
1.20048019207683
  0
MTEXT
  5
2E8
330
6D
100
AcDbEntity
  8
1
 62
     2
100
AcDbMText
 10
-69.837531614834
 20
29.53322638488298
 30
0.0
 40
1.8
 41
0.0
 71
     5
 72
     1
  1
pbam06
  7
CONVERTER_11
 73
     1
 44
1.32052821128451
  0
MTEXT
  5
2E9
330
6D
100
AcDbEntity
  8
1
 62
     2
100
AcDbMText
 10
-69.837531614834
 20
33.78322638488298
 30
0.0
 40
1.8
 41
0.0
 71
     5
 72
     1
  1
pbfm09
  7
CONVERTER_11
 73
     1
 44
1.32052821128451
  0
MTEXT
  5
2EA
330
6D
100
AcDbEntity
  8
1
 62
     2
100
AcDbMText
 10
-83.33753161483395
 20
29.53322638488298
 30
0.0
 40
1.8
 41
0.0
 71
     5
 72
     1
  1
08.12.10
  7
CONVERTER_11
 73
     1
 44
1.32052821128451
  0
MTEXT
  5
2EB
330
6D
100
AcDbEntity
  8
1
 62
     2
100
AcDbMText
 10
-83.33753161483395
 20
33.78322638488298
 30
0.0
 40
1.8
 41
0.0
 71
     5
 72
     1
  1
31.05.05
  7
CONVERTER_11
 73
     1
 44
1.32052821128451
  0
TEXT
  5
2EC
330
6D
100
AcDbEntity
  8
1
 62
     7
100
AcDbText
 10
-47.11398389282016
 20
32.95822638488298
 30
0.0
 40
2.5
  1
/
 41
0.9
  7
CONVERTER_11
100
AcDbText
  0
TEXT
  5
2EE
330
6D
100
AcDbEntity
  8
1
 62
     3
100
AcDbText
 10
-13.94272708808196
 20
20.20822638488298
 30
0.0
 40
2.5
  1
 
 41
0.54
  7
CONVERTER_16
100
AcDbText
  0
MTEXT
  5
2F0
330
6D
100
AcDbEntity
  8
1
 62
     7
100
AcDbMText
 10
-16.51512935145846
 20
13.65822638488321
 30
0.0
 40
3.0
 41
0.0
 71
     5
 72
     1
  1
FBS  2-6
  7
CONVERTER_17
 73
     1
 44
1.20048019207683
  0
MTEXT
  5
2F1
330
6D
100
AcDbEntity
  8
1
 62
     3
100
AcDbMText
 10
7.71647705275745
 20
32.95822638488309
 30
0.0
 40
2.5
 41
0.0
 71
     8
 72
     1
  1
1:1
  7
CONVERTER_13
 73
     1
 44
1.32052821128451
  0
TEXT
  5
2F2
330
6D
100
AcDbEntity
  8
1
 62
     3
100
AcDbText
 10
-39.18753161483394
 20
32.95822638488298
 30
0.0
 40
2.5
  1
-
 41
0.54
  7
CONVERTER_16
100
AcDbText
  0
TEXT
  5
2F3
330
6D
100
AcDbEntity
  8
1
 62
     7
100
AcDbText
 10
-61.58753161483416
 20
32.95822638488298
 30
0.0
 40
2.5
  1
3030336
 41
0.81
  7
CONVERTER_17
100
AcDbText
  0
TEXT
  5
2F4
330
6D
100
AcDbEntity
  8
1
 62
     7
100
AcDbText
 10
-32.44272708808158
 20
20.20822638488298
 30
0.0
 40
2.5
  1
00357237
 41
0.81
  7
CONVERTER_17
100
AcDbText
  0
TEXT
  5
2F5
330
6D
100
AcDbEntity
  8
1
 62
     3
100
AcDbText
 10
13.17568119359694
 20
32.95822638488298
 30
0.0
 40
2.5
  1
 
 41
0.54
  7
CONVERTER_16
100
AcDbText
  0
TEXT
  5
2F7
330
6D
100
AcDbEntity
  8
1
 62
     3
100
AcDbText
 10
-62.08753161483397
 20
20.20822638488298
 30
0.0
 40
2.5
  1
KUNDENZCHNG-SELECT
 41
0.45
  7
CONVERTER_18
100
AcDbText
  0
TEXT
  5
2F8
330
6D
100
AcDbEntity
  8
1
 62
     7
100
AcDbText
 10
-44.95761939577815
 20
32.95822638488298
 30
0.0
 40
2.5
  1
00
 41
0.81
  7
CONVERTER_17
100
AcDbText
  0
MTEXT
  5
2F9
330
6D
100
AcDbEntity
  8
1
 62
     3
100
AcDbMText
 10
-22.23570720147356
 20
30.75822638488298
 30
0.0
 40
2.0
 41
0.0
 71
     1
 72
     1
  1
 
  7
CONVERTER_13
 73
     1
 44
1.20048019207683
  0
HATCH
  5
2FA
330
6D
100
AcDbEntity
  8
1
  6
Continuous
 62
     2
100
AcDbHatch
 10
0.0
 20
0.0
 30
0.0
210
0.0
220
0.0
230
1.0
  2
CUSTOM0
 70
     0
 71
     1
 91
        1
 92
        1
 93
       12
 72
     1
 10
-71.20998059442641
 20
21.5582263848771
 11
-70.20998059442641
 21
21.5582263848771
 72
     1
 10
-70.20998059442641
 20
21.5582263848771
 11
-71.13855202299789
 21
20.40981649088262
 72
     1
 10
-71.13855202299789
 20
20.40981649088262
 11
-70.14195338354239
 21
19.1772740039231
 72
     1
 10
-70.14195338354239
 20
19.1772740039231
 11
-71.14195338354239
 21
19.1772740039231
 72
     1
 10
-71.14195338354239
 20
19.1772740039231
 11
-71.63855202299709
 21
19.79144193257973
 72
     1
 10
-71.63855202299709
 20
19.79144193257973
 11
-72.13515066245381
 21
19.1772740039231
 72
     1
 10
-72.13515066245381
 20
19.1772740039231
 11
-73.13515066245381
 21
19.1772740039231
 72
     1
 10
-73.13515066245381
 20
19.1772740039231
 11
-72.13855202299789
 21
20.40981649088262
 72
     1
 10
-72.13855202299789
 20
20.40981649088262
 11
-73.06712345156939
 21
21.5582263848771
 72
     1
 10
-73.06712345156939
 20
21.5582263848771
 11
-72.06712345156939
 21
21.5582263848771
 72
     1
 10
-72.06712345156939
 20
21.5582263848771
 11
-71.63855202299709
 21
21.02819104918568
 72
     1
 10
-71.63855202299709
 20
21.02819104918568
 11
-71.20998059442641
 21
21.5582263848771
 97
       12
330
18E
330
18D
330
18C
330
18B
330
18A
330
189
330
188
330
187
330
186
330
185
330
184
330
183
 75
     1
 76
     2
 52
0.02257274673786
 41
0.05
 77
     0
 78
     1
 53
0.02257274673786
 43
-1699.81996388569
 44
12438.36661982803
 45
-0.0500196945567958
 46
0.0499802976826355
 79
     0
 98
        1
 10
0.0
 20
0.0
  0
HATCH
  5
2FB
330
6D
100
AcDbEntity
  8
1
  6
Continuous
 62
     2
100
AcDbHatch
 10
0.0
 20
0.0
 30
0.0
210
0.0
220
0.0
230
1.0
  2
CUSTOM1
 70
     0
 71
     1
 91
        2
 92
        1
 93
        8
 72
     1
 10
-75.6209725465711
 20
18.63917876584303
 11
-74.7366188050739
 21
18.63917876584303
 72
     1
 10
-74.7366188050739
 20
18.63917876584303
 11
-73.74002016561849
 21
16.25822638488892
 72
     1
 10
-73.74002016561849
 20
16.25822638488892
 11
-74.62437390711489
 21
16.25822638488892
 72
     1
 10
-74.62437390711489
 20
16.25822638488892
 11
-74.77513772141259
 21
16.67999509237221
 72
     1
 10
-74.77513772141259
 20
16.67999509237221
 11
-75.5824536302328
 21
16.67999509237221
 72
     1
 10
-75.5824536302328
 20
16.67999509237221
 11
-75.73321744453
 21
16.25822638488892
 72
     1
 10
-75.73321744453
 20
16.25822638488892
 11
-76.61757118602699
 21
16.25822638488892
 72
     1
 10
-76.61757118602699
 20
16.25822638488892
 11
-75.6209725465711
 21
18.63917876584303
 97
        8
330
20C
330
20B
330
20A
330
209
330
208
330
207
330
206
330
205
 92
       16
 93
        3
 72
     1
 10
-75.39278302514751
 20
17.21060733726959
 11
-75.17879567582258
 21
17.80924679305359
 72
     1
 10
-75.17879567582258
 20
17.80924679305359
 11
-74.96480832649641
 21
17.21060733726959
 72
     1
 10
-74.96480832649641
 20
17.21060733726959
 11
-75.39278302514751
 21
17.21060733726959
 97
        3
330
204
330
203
330
202
 75
     1
 76
     2
 52
0.02257274673786
 41
0.05
 77
     0
 78
     1
 53
0.02257274673786
 43
-1699.81996388569
 44
12438.36661982803
 45
-0.0500196945567958
 46
0.0499802976826355
 79
     0
 98
        1
 10
0.0
 20
0.0
  0
HATCH
  5
2FC
330
6D
100
AcDbEntity
  8
1
  6
Continuous
 62
     2
100
AcDbHatch
 10
0.0
 20
0.0
 30
0.0
210
0.0
220
0.0
230
1.0
  2
CUSTOM2
 70
     0
 71
     1
 91
        1
 92
        1
 93
        8
 72
     1
 10
-78.51416982548122
 20
18.63917876584303
 11
-78.51416982548122
 21
18.02693386788171
 72
     1
 10
-78.51416982548122
 20
18.02693386788171
 11
-77.9359385329652
 21
18.02693386788171
 72
     1
 10
-77.9359385329652
 20
18.02693386788171
 11
-77.9359385329652
 21
16.25822638488892
 72
     1
 10
-77.9359385329652
 20
16.25822638488892
 11
-77.0855983969101
 21
16.25822638488892
 72
     1
 10
-77.0855983969101
 20
16.25822638488892
 11
-77.0855983969101
 21
18.02693386788171
 72
     1
 10
-77.0855983969101
 20
18.02693386788171
 11
-76.50736710439409
 21
18.02693386788171
 72
     1
 10
-76.50736710439409
 20
18.02693386788171
 11
-76.50736710439409
 21
18.63917876584303
 72
     1
 10
-76.50736710439409
 20
18.63917876584303
 11
-78.51416982548122
 21
18.63917876584303
 97
        8
330
214
330
213
330
212
330
211
330
210
330
20F
330
20E
330
20D
 75
     1
 76
     2
 52
0.02257274673786
 41
0.05
 77
     0
 78
     1
 53
0.02257274673786
 43
-1699.81996388569
 44
12438.36661982803
 45
-0.0500196945567958
 46
0.0499802976826355
 79
     0
 98
        1
 10
0.0
 20
0.0
  0
HATCH
  5
2FD
330
6D
100
AcDbEntity
  8
1
  6
Continuous
 62
     2
100
AcDbHatch
 10
0.0
 20
0.0
 30
0.0
210
0.0
220
0.0
230
1.0
  2
CUSTOM3
 70
     0
 71
     1
 91
        1
 92
        1
 93
       10
 72
     1
 10
-81.5012446554141
 20
18.63917876584303
 11
-81.5012446554141
 21
16.25822638488892
 72
     1
 10
-81.5012446554141
 20
16.25822638488892
 11
-80.65090451935839
 21
16.25822638488892
 72
     1
 10
-80.65090451935839
 20
16.25822638488892
 11
-80.65090451935839
 21
17.27863454815609
 72
     1
 10
-80.65090451935839
 20
17.27863454815609
 11
-79.76655077786282
 21
16.25822638488892
 72
     1
 10
-79.76655077786282
 20
16.25822638488892
 11
-78.9162106418087
 21
16.25822638488892
 72
     1
 10
-78.9162106418087
 20
16.25822638488892
 11
-78.9162106418087
 21
18.63917876584303
 72
     1
 10
-78.9162106418087
 20
18.63917876584303
 11
-79.76655077786282
 21
18.63917876584303
 72
     1
 10
-79.76655077786282
 20
18.63917876584303
 11
-79.76655077786282
 21
17.61877060257568
 72
     1
 10
-79.76655077786282
 20
17.61877060257568
 11
-80.65090451935839
 21
18.63917876584303
 72
     1
 10
-80.65090451935839
 20
18.63917876584303
 11
-81.5012446554141
 21
18.63917876584303
 97
       10
330
21E
330
21D
330
21C
330
21B
330
21A
330
219
330
218
330
217
330
216
330
215
 75
     1
 76
     2
 52
0.02257274673786
 41
0.05
 77
     0
 78
     1
 53
0.02257274673786
 43
-1699.81996388569
 44
12438.36661982803
 45
-0.0500196945567958
 46
0.0499802976826355
 79
     0
 98
        1
 10
0.0
 20
0.0
  0
HATCH
  5
2FE
330
6D
100
AcDbEntity
  8
1
  6
Continuous
 62
     2
100
AcDbHatch
 10
0.0
 20
0.0
 30
0.0
210
0.0
220
0.0
230
1.0
  2
_USER
 70
     0
 71
     1
 91
        1
 92
        1
 93
        4
 72
     1
 10
-73.52018467605839
 20
21.5582263848771
 11
-73.52018467605839
 21
19.1772740039231
 72
     1
 10
-73.52018467605839
 20
19.1772740039231
 11
-74.40453841755578
 21
19.1772740039231
 72
     1
 10
-74.40453841755578
 20
19.1772740039231
 11
-74.40453841755578
 21
21.5582263848771
 72
     1
 10
-74.40453841755578
 20
21.5582263848771
 11
-73.52018467605839
 21
21.5582263848771
 97
        4
330
191
330
190
330
21F
330
18F
 75
     1
 76
     0
 52
0.0
 41
0.05
 77
     0
 78
     1
 53
0.0
 43
0.0
 44
0.0
 45
0.0
 46
0.05
 79
     0
 98
        1
 10
0.0
 20
0.0
  0
HATCH
  5
2FF
330
6D
100
AcDbEntity
  8
1
  6
Continuous
 62
     2
100
AcDbHatch
 10
0.0
 20
0.0
 30
0.0
210
0.0
220
0.0
230
1.0
  2
CUSTOM4
 70
     0
 71
     1
 91
        1
 92
        1
 93
       10
 72
     1
 10
-75.7249465808206
 20
21.5582263848771
 11
-75.7249465808206
 21
20.53781822160993
 72
     1
 10
-75.7249465808206
 20
20.53781822160993
 11
-76.60930032231789
 21
21.5582263848771
 72
     1
 10
-76.60930032231789
 20
21.5582263848771
 11
-77.4596404583715
 21
21.5582263848771
 72
     1
 10
-77.4596404583715
 20
21.5582263848771
 11
-77.4596404583715
 21
19.1772740039231
 72
     1
 10
-77.4596404583715
 20
19.1772740039231
 11
-76.60930032231789
 21
19.1772740039231
 72
     1
 10
-76.60930032231789
 20
19.1772740039231
 11
-76.60930032231789
 21
20.19768216719051
 72
     1
 10
-76.60930032231789
 20
20.19768216719051
 11
-75.7249465808206
 21
19.1772740039231
 72
     1
 10
-75.7249465808206
 20
19.1772740039231
 11
-74.87460644476701
 21
19.1772740039231
 72
     1
 10
-74.87460644476701
 20
19.1772740039231
 11
-74.87460644476701
 21
21.5582263848771
 72
     1
 10
-74.87460644476701
 20
21.5582263848771
 11
-75.7249465808206
 21
21.5582263848771
 97
       10
330
229
330
228
330
227
330
226
330
225
330
224
330
223
330
222
330
221
330
220
 75
     1
 76
     2
 52
0.02257274673786
 41
0.05
 77
     0
 78
     1
 53
0.02257274673786
 43
-1699.81996388569
 44
12438.36661982803
 45
-0.0500196945567958
 46
0.0499802976826355
 79
     0
 98
        1
 10
0.0
 20
0.0
  0
HATCH
  5
300
330
6D
100
AcDbEntity
  8
1
  6
Continuous
 62
     2
100
AcDbHatch
 10
0.0
 20
0.0
 30
0.0
210
0.0
220
0.0
230
1.0
  2
CUSTOM5
 70
     0
 71
     1
 91
        1
 92
        1
 93
       12
 72
     1
 10
-83.26372209102419
 20
21.5582263848771
 11
-83.26372209102419
 21
20.72489305154231
 72
     1
 10
-83.26372209102419
 20
20.72489305154231
 11
-82.5154227712967
 21
20.72489305154231
 72
     1
 10
-82.5154227712967
 20
20.72489305154231
 11
-82.5154227712967
 21
21.5582263848771
 72
     1
 10
-82.5154227712967
 20
21.5582263848771
 11
-81.66508263524179
 21
21.5582263848771
 72
     1
 10
-81.66508263524179
 20
21.5582263848771
 11
-81.66508263524179
 21
19.1772740039231
 72
     1
 10
-81.66508263524179
 20
19.1772740039231
 11
-82.5154227712967
 21
19.1772740039231
 72
     1
 10
-82.5154227712967
 20
19.1772740039231
 11
-82.5154227712967
 21
20.06162774542172
 72
     1
 10
-82.5154227712967
 20
20.06162774542172
 11
-83.26372209102419
 21
20.06162774542172
 72
     1
 10
-83.26372209102419
 20
20.06162774542172
 11
-83.26372209102419
 21
19.1772740039231
 72
     1
 10
-83.26372209102419
 20
19.1772740039231
 11
-84.1140622270786
 21
19.1772740039231
 72
     1
 10
-84.1140622270786
 20
19.1772740039231
 11
-84.1140622270786
 21
21.5582263848771
 72
     1
 10
-84.1140622270786
 20
21.5582263848771
 11
-83.26372209102419
 21
21.5582263848771
 97
       12
330
235
330
234
330
233
330
232
330
231
330
230
330
22F
330
22E
330
22D
330
22C
330
22B
330
22A
 75
     1
 76
     2
 52
0.02257274673786
 41
0.05
 77
     0
 78
     1
 53
0.02257274673786
 43
-1699.81996388569
 44
12438.36661982803
 45
-0.0500196945567958
 46
0.0499802976826355
 79
     0
 98
        1
 10
0.0
 20
0.0
  0
HATCH
  5
301
330
6D
100
AcDbEntity
  8
1
  6
Continuous
 62
     2
100
AcDbHatch
 10
0.0
 20
0.0
 30
0.0
210
0.0
220
0.0
230
1.0
  2
CUSTOM6
 70
     0
 71
     1
 91
        1
 92
        1
 93
        4
 72
     1
 10
-83.1957607849771
 20
18.63917876584303
 11
-83.0937199686498
 21
18.63917876584303
 72
     2
 10
-83.0937199686498
 20
17.44870257536592
 40
1.190476190477
 50
270.0
 51
450.0
 73
     0
 72
     1
 10
-83.0937199686498
 20
16.25822638488892
 11
-83.1957607849771
 21
16.25822638488892
 72
     2
 10
-83.1957607849771
 20
17.44870257536592
 40
1.19047619047711
 50
90.0
 51
270.0
 73
     0
 97
        4
330
1DA
330
27A
330
1D9
330
279
 75
     1
 76
     2
 52
0.02257274673786
 41
0.05
 77
     0
 78
     1
 53
0.02257274673786
 43
-1699.81996388569
 44
12438.36661982803
 45
-0.0500196945567958
 46
0.0499802976826355
 79
     0
 98
        1
 10
0.0
 20
0.0
  0
HATCH
  5
302
330
6D
100
AcDbEntity
  8
1
  6
Continuous
 62
     2
100
AcDbHatch
 10
0.0
 20
0.0
 30
0.0
210
0.0
220
0.0
230
1.0
  2
CUSTOM7
 70
     0
 71
     1
 91
        1
 92
        1
 93
       14
 72
     1
 10
-80.072609476342
 20
21.5582263848771
 11
-79.9705686600159
 21
21.5582263848771
 72
     1
 10
-79.9705686600159
 20
21.5582263848771
 11
-77.9297084855827
 21
21.5582263848771
 72
     1
 10
-77.9297084855827
 20
21.5582263848771
 11
-77.9297084855827
 21
21.01400869780251
 72
     1
 10
-77.9297084855827
 20
21.01400869780251
 11
-78.882089437964
 21
21.01400869780251
 72
     1
 10
-78.882089437964
 20
21.01400869780251
 11
-78.882089437964
 21
20.63985903793751
 72
     1
 10
-78.882089437964
 20
20.63985903793751
 11
-77.9297084855827
 21
20.63985903793751
 72
     1
 10
-77.9297084855827
 20
20.63985903793751
 11
-77.9297084855827
 21
20.09564135086269
 72
     1
 10
-77.9297084855827
 20
20.09564135086269
 11
-78.882089437964
 21
20.09564135086269
 72
     1
 10
-78.882089437964
 20
20.09564135086269
 11
-78.882089437964
 21
19.72149169099781
 72
     1
 10
-78.882089437964
 20
19.72149169099781
 11
-77.9297084855827
 21
19.72149169099781
 72
     1
 10
-77.9297084855827
 20
19.72149169099781
 11
-77.9297084855827
 21
19.1772740039231
 72
     1
 10
-77.9297084855827
 20
19.1772740039231
 11
-79.9705686600159
 21
19.1772740039231
 72
     1
 10
-79.9705686600159
 20
19.1772740039231
 11
-80.072609476342
 21
19.1772740039231
 72
     2
 10
-80.072609476342
 20
20.36775019440022
 40
1.190476190476879
 50
90.0
 51
270.0
 73
     0
 97
       14
330
1E7
330
1E6
330
1E5
330
1E4
330
1E3
330
1E2
330
1E1
330
1E0
330
1DF
330
1DE
330
1DD
330
1DC
330
1DB
330
27B
 75
     1
 76
     2
 52
0.02257274673786
 41
0.05
 77
     0
 78
     1
 53
0.02257274673786
 43
-1699.81996388569
 44
12438.36661982803
 45
-0.0500196945567958
 46
0.0499802976826355
 79
     0
 98
        1
 10
0.0
 20
0.0
  0
HATCH
  5
303
330
6D
100
AcDbEntity
  8
1
  6
Continuous
 62
     2
100
AcDbHatch
 10
0.0
 20
0.0
 30
0.0
210
0.0
220
0.0
230
1.0
  2
CUSTOM8
 70
     0
 71
     1
 91
        2
 92
        1
 93
        9
 72
     1
 10
-85.535182186351
 20
21.5582263848771
 11
-85.2514889918777
 21
21.5582263848771
 72
     2
 10
-85.3440604110991
 20
20.7353933571719
 40
0.8280239484092065
 50
276.4189726355862
 51
443.5810273644138
 73
     0
 72
     1
 10
-85.2514889918777
 20
19.9125603294667
 11
-85.3862809740406
 21
19.9125603294667
 72
     1
 10
-85.3862809740406
 20
19.9125603294667
 11
-85.80862005020799
 21
19.9125603294667
 72
     1
 10
-85.80862005020799
 20
19.9125603294667
 11
-85.80862005020799
 21
19.1772740039231
 72
     1
 10
-85.80862005020799
 20
19.1772740039231
 11
-85.9575212625174
 21
19.1772740039231
 72
     1
 10
-85.9575212625174
 20
19.1772740039231
 11
-86.69297379170379
 21
19.1772740039231
 72
     1
 10
-86.69297379170379
 20
19.1772740039231
 11
-86.69297379170379
 21
21.5582263848771
 72
     1
 10
-86.69297379170379
 20
21.5582263848771
 11
-85.535182186351
 21
21.5582263848771
 97
        9
330
201
330
280
330
200
330
1FF
330
1FE
330
1FD
330
1FC
330
1FB
330
1FA
 92
       16
 93
        6
 72
     1
 10
-85.6062142354121
 20
21.04122510198049
 11
-85.6613970076216
 21
21.04122510198049
 72
     1
 10
-85.6613970076216
 20
21.04122510198049
 11
-85.80862005020799
 21
21.04122510198049
 72
     1
 10
-85.80862005020799
 20
21.04122510198049
 11
-85.80862005020799
 21
20.4909930348184
 72
     1
 10
-85.80862005020799
 20
20.4909930348184
 11
-85.6613970076216
 21
20.4909930348184
 72
     1
 10
-85.6613970076216
 20
20.4909930348184
 11
-85.6062142354121
 21
20.4909930348184
 72
     2
 10
-85.6062142354121
 20
20.76610906839953
 40
0.2751160335811313
 50
270.0
 51
450.0
 73
     1
 97
        6
330
1F9
330
1F8
330
1F7
330
1F6
330
1F5
330
27F
 75
     1
 76
     2
 52
0.02257274673786
 41
0.05
 77
     0
 78
     1
 53
0.02257274673786
 43
-1699.81996388569
 44
12438.36661982803
 45
-0.0500196945567958
 46
0.0499802976826355
 79
     0
 98
        1
 10
0.0
 20
0.0
  0
HATCH
  5
304
330
6D
100
AcDbEntity
  8
1
  6
Continuous
 62
     2
100
AcDbHatch
 10
0.0
 20
0.0
 30
0.0
210
0.0
220
0.0
230
1.0
  2
CUSTOM9
 70
     0
 71
     1
 91
        4
 92
        1
 93
        8
 72
     2
 10
-92.0997765127919
 20
21.22489305154413
 40
0.3333333333329698
 50
90.0
 51
180.0
 73
     1
 72
     1
 10
-92.4331098461255
 20
21.22489305154413
 11
-92.4331098461255
 21
16.59155971822189
 72
     2
 10
-92.0997765127919
 20
16.59155971822189
 40
0.3333333333335986
 50
180.0
 51
270.0
 73
     1
 72
     1
 10
-92.0997765127919
 20
16.25822638488892
 11
-87.5664431794586
 21
16.25822638488892
 72
     2
 10
-87.5664431794586
 20
16.59155971822189
 40
0.3333333333329698
 50
270.0
 51
360.0
 73
     1
 72
     1
 10
-87.2331098461259
 20
16.59155971822189
 11
-87.2331098461259
 21
21.22489305154413
 72
     2
 10
-87.5664431794586
 20
21.22489305154413
 40
0.3333333333327033
 50
0.0
 51
90.0
 73
     1
 72
     1
 10
-87.5664431794586
 20
21.5582263848771
 11
-92.0997765127919
 21
21.5582263848771
 97
        8
330
291
330
1F4
330
290
330
1F3
330
28F
330
1F2
330
28E
330
1F1
 92
       16
 93
       10
 72
     1
 10
-89.7219987350141
 20
17.81193008858263
 11
-89.7219987350141
 21
18.30592490154679
 72
     2
 10
-89.4571839201999
 20
18.30592490154679
 40
0.2648148148214952
 50
180.0
 51
244.2807204985013
 73
     0
 72
     2
 10
-89.9257024387176
 20
19.27859675525251
 40
0.814814814813291
 50
295.7192795021668
 51
424.2807204979753
 73
     1
 72
     2
 10
-89.4571839201999
 20
20.2512686089584
 40
0.2648148148142013
 50
115.7192795019203
 51
180.0
 73
     0
 72
     1
 10
-89.7219987350141
 20
20.2512686089584
 11
-89.7219987350141
 21
20.7452634219316
 72
     2
 10
-89.4571839201999
 20
20.7452634219316
 40
0.2648148148090783
 50
180.0
 51
270.0
 73
     0
 72
     1
 10
-89.4571839201999
 20
21.01007823674068
 11
-89.41644317945949
 21
21.01007823674068
 72
     2
 10
-89.41644317945949
 20
19.27859675525251
 40
1.731481481474422
 50
270.0
 51
450.0
 73
     0
 72
     1
 10
-89.41644317945949
 20
17.54711527377809
 11
-89.4571839201999
 21
17.54711527377809
 72
     2
 10
-89.4571839201999
 20
17.81193008858263
 40
0.2648148148142013
 50
90.0
 51
180.0
 73
     0
 97
       10
330
1EB
330
287
330
27D
330
286
330
1EA
330
285
330
1E9
330
27C
330
1E8
330
284
 92
       16
 93
       12
 72
     1
 10
-91.697924660941
 20
21.01007823674068
 11
-90.3942209572366
 21
21.01007823674068
 72
     2
 10
-90.3942209572366
 20
20.7452634219316
 40
0.2648148148150966
 50
270.0
 51
360.0000000019924
 73
     0
 72
     1
 10
-90.1294061424215
 20
20.74526342192239
 11
-90.1294061424215
 21
20.2512686089584
 72
     2
 10
-90.3942209572366
 20
20.2512686089584
 40
0.2648148148217111
 50
0.0
 51
64.28072049840434
 73
     0
 72
     2
 10
-89.9257024387176
 20
19.27859675525251
 40
0.8148148148137929
 50
115.7192795022131
 51
244.2807204978134
 73
     1
 72
     2
 10
-90.3942209572366
 20
18.30592490154679
 40
0.2648148148150966
 50
295.7192795016926
 51
359.9999999980699
 73
     0
 72
     1
 10
-90.1294061424215
 20
18.30592490155571
 11
-90.1294061424215
 21
16.99711527377069
 72
     2
 10
-90.3942209572366
 20
16.99711527377069
 40
0.2648148148045877
 50
0.0
 51
90.0
 73
     0
 72
     1
 10
-90.3942209572366
 20
16.7323004589661
 11
-91.697924660941
 21
16.7323004589661
 72
     2
 10
-91.697924660941
 20
16.99711527377069
 40
0.2648148148140024
 50
90.0
 51
180.0
 73
     0
 72
     1
 10
-91.962739475755
 20
16.99711527377069
 11
-91.962739475755
 21
20.7452634219316
 72
     2
 10
-91.697924660941
 20
20.7452634219316
 40
0.2648148148090783
 50
180.0
 51
270.0
 73
     0
 97
       12
330
1F0
330
28D
330
1EF
330
28C
330
27E
330
28B
330
1EE
330
28A
330
1ED
330
289
330
1EC
330
288
 92
       16
 93
        1
 72
     2
 10
-89.9257024387176
 20
19.27859675525251
 40
0.4074074074073053
 50
0.0
 51
360.0
 73
     1
 97
        1
330
281
 75
     1
 76
     2
 52
0.0
 41
0.05
 77
     0
 78
     1
 53
0.0
 43
-1699.81996388569
 44
12438.36661982803
 45
-0.05
 46
0.05
 79
     0
 98
        1
 10
0.0
 20
0.0
  0
ENDBLK
  5
6F
330
6D
100
AcDbEntity
  8
0
100
AcDbBlockEnd
  0
BLOCK
  5
71
330
70
100
AcDbEntity
  8
0
100
AcDbBlockBegin
  2
_punkt
 70
     0
 10
30.05727291191604
 20
10.40822638488309
 30
0.0
  3
_punkt
  1

  0
LINE
  5
307
330
70
100
AcDbEntity
  8
1
  6
Continuous
 62
     2
100
AcDbLine
 10
30.05727291191604
 20
10.40822638488309
 30
0.0
 11
30.05727291191604
 21
5.40822638488298
 31
0.0
  0
LINE
  5
308
330
70
100
AcDbEntity
  8
1
  6
Continuous
 62
     2
100
AcDbLine
 10
30.05727291191604
 20
10.40822638488309
 30
0.0
 11
35.05727291191505
 21
10.40822638488309
 31
0.0
  0
ENDBLK
  5
72
330
70
100
AcDbEntity
  8
0
100
AcDbBlockEnd
  0
BLOCK
  5
76
330
73
100
AcDbEntity
  8
0
100
AcDbBlockBegin
  2
A4I
 70
     0
 10
30.05727291191604
 20
5.40822638488298
 30
0.0
  3
A4I
  1

  0
INSERT
  5
74
330
73
100
AcDbEntity
  8
1
100
AcDbBlockReference
  2
_rahmen
 10
30.05727291191604
 20
5.40822638488298
 30
0.0
  0
INSERT
  5
75
330
73
100
AcDbEntity
  8
1
100
AcDbBlockReference
  2
_punkt
 10
30.05727291191604
 20
10.40822638488309
 30
0.0
  0
ENDBLK
  5
77
330
73
100
AcDbEntity
  8
0
100
AcDbBlockEnd
  0
BLOCK
  5
E8
330
E1
100
AcDbEntity
  8
0
100
AcDbBlockBegin
  2
*D16
 70
     1
 10
0.0
 20
0.0
 30
0.0
  3
*D16
  1

  0
LINE
  5
E2
330
E1
100
AcDbEntity
  8
1
  6
Continuous
 62
     2
100
AcDbLine
 10
-164.7000000831744
 20
165.414142062304
 30
0.0
 11
-154.0000000831744
 21
165.414142062304
 31
0.0
  0
LINE
  5
E3
330
E1
100
AcDbEntity
  8
1
  6
Continuous
 62
     2
100
AcDbLine
 10
-164.7000000831744
 20
154.0250003607929
 30
0.0
 11
-164.7000000831744
 21
167.414142062304
 31
0.0
  0
LINE
  5
E4
330
E1
100
AcDbEntity
  8
1
  6
Continuous
 62
     2
100
AcDbLine
 10
-154.0000000831744
 20
154.0250003607929
 30
0.0
 11
-154.0000000831744
 21
167.414142062304
 31
0.0
  0
SOLID
  5
E5
330
E1
100
AcDbEntity
  8
1
 62
     2
100
AcDbTrace
 10
-161.2000000831744
 20
165.8749258038599
 30
0.0
 11
-161.2000000831744
 21
164.9533583207481
 31
0.0
 12
-164.7000000831744
 22
165.414142062304
 32
0.0
 13
-164.7000000831744
 23
165.414142062304
 33
0.0
  0
SOLID
  5
E6
330
E1
100
AcDbEntity
  8
1
 62
     2
100
AcDbTrace
 10
-157.5000000831744
 20
164.9533583207481
 30
0.0
 11
-157.5000000831744
 21
165.8749258038599
 31
0.0
 12
-154.0000000831744
 22
165.414142062304
 32
0.0
 13
-154.0000000831744
 23
165.414142062304
 33
0.0
  0
MTEXT
  5
E7
330
E1
100
AcDbEntity
  8
1
 62
     3
100
AcDbMText
 10
-163.762025936677
 20
167.764142062304
 30
0.0
 40
3.5
 41
0.0
 71
     7
 72
     1
  1
10,7
  7
CONVERTER_11
 11
0.9999999999970619
 21
2.424068405545306E-6
 31
0.0
 73
     1
 44
0.60024009603842
  0
ENDBLK
  5
E9
330
E1
100
AcDbEntity
  8
0
100
AcDbBlockEnd
  0
BLOCK
  5
F3
330
EC
100
AcDbEntity
  8
0
100
AcDbBlockBegin
  2
*D17
 70
     1
 10
0.0
 20
0.0
 30
0.0
  3
*D17
  1

  0
LINE
  5
ED
330
EC
100
AcDbEntity
  8
1
  6
Continuous
 62
     2
100
AcDbLine
 10
-174.7000000831743
 20
140.425000360793
 30
0.0
 11
-174.7000000831743
 21
154.0250003607929
 31
0.0
  0
LINE
  5
EE
330
EC
100
AcDbEntity
  8
1
  6
Continuous
 62
     2
100
AcDbLine
 10
-163.7000000831763
 20
140.425000360793
 30
0.0
 11
-176.7000000831743
 21
140.425000360793
 31
0.0
  0
LINE
  5
EF
330
EC
100
AcDbEntity
  8
1
  6
Continuous
 62
     2
100
AcDbLine
 10
-164.7000000831744
 20
154.0250003607929
 30
0.0
 11
-176.7000000831743
 21
154.0250003607929
 31
0.0
  0
SOLID
  5
F0
330
EC
100
AcDbEntity
  8
1
 62
     2
100
AcDbTrace
 10
-175.1607838247302
 20
143.925000360793
 30
0.0
 11
-174.2392163416184
 21
143.925000360793
 31
0.0
 12
-174.7000000831743
 22
140.425000360793
 32
0.0
 13
-174.7000000831743
 23
140.425000360793
 33
0.0
  0
SOLID
  5
F1
330
EC
100
AcDbEntity
  8
1
 62
     2
100
AcDbTrace
 10
-174.2392163416184
 20
150.5250003607929
 30
0.0
 11
-175.1607838247302
 21
150.5250003607929
 31
0.0
 12
-174.7000000831743
 22
154.0250003607929
 32
0.0
 13
-174.7000000831743
 23
154.0250003607929
 33
0.0
  0
MTEXT
  5
F2
330
EC
100
AcDbEntity
  8
1
 62
     3
100
AcDbMText
 10
-177.0500000831743
 20
142.671671382026
 30
0.0
 40
3.5
 41
0.0
 71
     7
 72
     1
  1
13,6
  7
CONVERTER_11
 11
0.0
 21
1.0
 31
0.0
 73
     1
 44
0.60024009603842
  0
ENDBLK
  5
F4
330
EC
100
AcDbEntity
  8
0
100
AcDbBlockEnd
  0
BLOCK
  5
FE
330
F7
100
AcDbEntity
  8
0
100
AcDbBlockBegin
  2
*D18
 70
     1
 10
0.0
 20
0.0
 30
0.0
  3
*D18
  1

  0
LINE
  5
F8
330
F7
100
AcDbEntity
  8
1
  6
Continuous
 62
     2
100
AcDbLine
 10
-186.153290199617
 20
154.0250003607929
 30
0.0
 11
-186.153290199617
 21
131.3500003608001
 31
0.0
  0
LINE
  5
F9
330
F7
100
AcDbEntity
  8
1
  6
Continuous
 62
     2
100
AcDbLine
 10
-164.7000000831744
 20
154.0250003607929
 30
0.0
 11
-188.153290199617
 21
154.0250003607929
 31
0.0
  0
LINE
  5
FA
330
F7
100
AcDbEntity
  8
1
  6
Continuous
 62
     2
100
AcDbLine
 10
-161.565189134157
 20
131.3500003608001
 30
0.0
 11
-188.153290199617
 21
131.3500003608001
 31
0.0
  0
SOLID
  5
FB
330
F7
100
AcDbEntity
  8
1
 62
     2
100
AcDbTrace
 10
-185.6925064580611
 20
150.5250003607929
 30
0.0
 11
-186.6140739411729
 21
150.5250003607929
 31
0.0
 12
-186.153290199617
 22
154.0250003607929
 32
0.0
 13
-186.153290199617
 23
154.0250003607929
 33
0.0
  0
SOLID
  5
FC
330
F7
100
AcDbEntity
  8
1
 62
     2
100
AcDbTrace
 10
-186.6140739411729
 20
134.8500003608001
 30
0.0
 11
-185.6925064580611
 21
134.8500003608001
 31
0.0
 12
-186.153290199617
 22
131.3500003608001
 32
0.0
 13
-186.153290199617
 23
131.3500003608001
 33
0.0
  0
MTEXT
  5
FD
330
F7
100
AcDbEntity
  8
1
 62
     3
100
AcDbMText
 10
-188.153290199617
 20
139.9606034700836
 30
0.0
 40
3.5
 41
0.0
 71
     7
 72
     1
  1
23
  7
CONVERTER_11
 11
0.0
 21
1.0
 31
0.0
 73
     1
 44
0.60024009603842
  0
ENDBLK
  5
FF
330
F7
100
AcDbEntity
  8
0
100
AcDbBlockEnd
  0
BLOCK
  5
118
330
10F
100
AcDbEntity
  8
0
100
AcDbBlockBegin
  2
*D19
 70
     1
 10
0.0
 20
0.0
 30
0.0
  3
*D19
  1

  0
LINE
  5
110
330
10F
100
AcDbEntity
  8
1
  6
Continuous
 62
     2
100
AcDbLine
 10
-128.4999999999837
 20
165.4141420623039
 30
0.0
 11
-121.4999999999837
 21
165.4141420623039
 31
0.0
  0
LINE
  5
111
330
10F
100
AcDbEntity
  8
1
  6
Continuous
 62
     2
100
AcDbLine
 10
-121.4999999999837
 20
165.4141420623039
 30
0.0
 11
-118.4999999999837
 21
165.4141420623039
 31
0.0
  0
LINE
  5
112
330
10F
100
AcDbEntity
  8
1
  6
Continuous
 62
     2
100
AcDbLine
 10
-118.4999999999837
 20
165.4141420623039
 30
0.0
 11
-110.670638978513
 21
165.4141420623039
 31
0.0
  0
LINE
  5
113
330
10F
100
AcDbEntity
  8
1
  6
Continuous
 62
     2
100
AcDbLine
 10
-121.4999999999837
 20
154.0250003607932
 30
0.0
 11
-121.4999999999837
 21
167.4141420623039
 31
0.0
  0
LINE
  5
114
330
10F
100
AcDbEntity
  8
1
  6
Continuous
 62
     2
100
AcDbLine
 10
-118.4999999999837
 20
154.0250003607929
 30
0.0
 11
-118.4999999999837
 21
167.4141420623039
 31
0.0
  0
SOLID
  5
115
330
10F
100
AcDbEntity
  8
1
 62
     2
100
AcDbTrace
 10
-124.9999999999837
 20
164.953358320748
 30
0.0
 11
-124.9999999999837
 21
165.8749258038598
 31
0.0
 12
-121.4999999999837
 22
165.4141420623039
 32
0.0
 13
-121.4999999999837
 23
165.4141420623039
 33
0.0
  0
SOLID
  5
116
330
10F
100
AcDbEntity
  8
1
 62
     2
100
AcDbTrace
 10
-114.9999999999837
 20
165.8749258038598
 30
0.0
 11
-114.9999999999837
 21
164.953358320748
 31
0.0
 12
-118.4999999999837
 22
165.4141420623039
 32
0.0
 13
-118.4999999999837
 23
165.4141420623039
 33
0.0
  0
MTEXT
  5
117
330
10F
100
AcDbEntity
  8
1
 62
     3
100
AcDbMText
 10
-112.770638978513
 20
167.4141420623039
 30
0.0
 40
3.5
 41
0.0
 71
     7
 72
     1
  1
3
  7
CONVERTER_11
 11
0.9999999999970619
 21
2.424068405545306E-6
 31
0.0
 73
     1
 44
0.60024009603842
  0
ENDBLK
  5
119
330
10F
100
AcDbEntity
  8
0
100
AcDbBlockEnd
  0
BLOCK
  5
125
330
11C
100
AcDbEntity
  8
0
100
AcDbBlockBegin
  2
*D20
 70
     1
 10
0.0
 20
0.0
 30
0.0
  3
*D20
  1

  0
LINE
  5
11D
330
11C
100
AcDbEntity
  8
1
  6
Continuous
 62
     2
100
AcDbLine
 10
-127.7999999999765
 20
121.3500003608001
 30
0.0
 11
-120.7999999999765
 21
121.3500003608001
 31
0.0
  0
LINE
  5
11E
330
11C
100
AcDbEntity
  8
1
  6
Continuous
 62
     2
100
AcDbLine
 10
-120.7999999999765
 20
121.3500003608001
 30
0.0
 11
-119.1999999999765
 21
121.3500003608001
 31
0.0
  0
LINE
  5
11F
330
11C
100
AcDbEntity
  8
1
  6
Continuous
 62
     2
100
AcDbLine
 10
-119.1999999999765
 20
121.3500003608001
 30
0.0
 11
-107.2755624768109
 21
121.3500003608001
 31
0.0
  0
LINE
  5
120
330
11C
100
AcDbEntity
  8
1
  6
Continuous
 62
     2
100
AcDbLine
 10
-120.7999999999765
 20
131.3500003608003
 30
0.0
 11
-120.7999999999765
 21
119.3500003608001
 31
0.0
  0
LINE
  5
121
330
11C
100
AcDbEntity
  8
1
  6
Continuous
 62
     2
100
AcDbLine
 10
-119.1999999999765
 20
131.3500003608002
 30
0.0
 11
-119.1999999999765
 21
119.3500003608001
 31
0.0
  0
SOLID
  5
122
330
11C
100
AcDbEntity
  8
1
 62
     2
100
AcDbTrace
 10
-124.2999999999765
 20
120.8892166192442
 30
0.0
 11
-124.2999999999765
 21
121.810784102356
 31
0.0
 12
-120.7999999999765
 22
121.3500003608001
 32
0.0
 13
-120.7999999999765
 23
121.3500003608001
 33
0.0
  0
SOLID
  5
123
330
11C
100
AcDbEntity
  8
1
 62
     2
100
AcDbTrace
 10
-115.6999999999765
 20
121.810784102356
 30
0.0
 11
-115.6999999999765
 21
120.8892166192442
 31
0.0
 12
-119.1999999999765
 22
121.3500003608001
 32
0.0
 13
-119.1999999999765
 23
121.3500003608001
 33
0.0
  0
MTEXT
  5
124
330
11C
100
AcDbEntity
  8
1
 62
     3
100
AcDbMText
 10
-112.7005624768109
 20
123.7000003608001
 30
0.0
 40
3.5
 41
0.0
 71
     7
 72
     1
  1
1,6
  7
CONVERTER_11
 11
0.9999999999970619
 21
2.424068405545306E-6
 31
0.0
 73
     1
 44
0.60024009603842
  0
ENDBLK
  5
126
330
11C
100
AcDbEntity
  8
0
100
AcDbBlockEnd
  0
ENDSEC
  0
SECTION
  2
ENTITIES
  0
INSERT
  5
78
330
1F
100
AcDbEntity
  8
0
100
AcDbBlockReference
  2
AllgSicht1
 10
-37.00000000000014
 20
86.99999999995498
 30
0.0
  0
INSERT
  5
79
330
1F
100
AcDbEntity
  8
0
100
AcDbBlockReference
  2
Drfsicht1
 10
-119.99999999999
 20
95.99999999999994
 30
0.0
  0
INSERT
  5
7A
330
1F
100
AcDbEntity
  8
0
100
AcDbBlockReference
  2
Rckans1
 10
-45.12221346954111
 20
142.6875003575781
 30
0.0
  0
INSERT
  5
7B
330
1F
100
AcDbEntity
  8
0
100
AcDbBlockReference
  2
SA_Links1
 10
-85.17210584563675
 20
142.6875003575781
 30
0.0
  0
INSERT
  5
7C
330
1F
100
AcDbEntity
  8
0
100
AcDbBlockReference
  2
SA_Rechts1
 10
-159.3500002622604
 20
142.6875003575781
 30
0.0
  0
INSERT
  5
7D
330
1F
100
AcDbEntity
  8
0
100
AcDbBlockReference
  2
Vordans1
 10
-119.99999999999
 20
142.6875003575781
 30
0.0
  0
INSERT
  5
7E
330
1F
100
AcDbEntity
  8
0
100
AcDbBlockReference
  2
A4I
 10
30.05727291191604
 20
5.40822638488298
 30
0.0
  0
ENDSEC
  0
SECTION
  2
OBJECTS
  0
DICTIONARY
  5
C
330
0
100
AcDbDictionary
281
     1
  3
ACAD_GROUP
350
D
  3
ACAD_LAYOUT
350
1A
  3
ACAD_MLEADERSTYLE
350
30A
  3
ACAD_MLINESTYLE
350
17
  3
ACAD_PLOTSETTINGS
350
19
  3
ACAD_PLOTSTYLENAME
350
E
  3
ACAD_TABLESTYLE
350
309
  3
ACAD_VISUALSTYLE
350
2A
  0
DICTIONARY
  5
D
102
{ACAD_REACTORS
330
C
102
}
330
C
100
AcDbDictionary
281
     1
  0
DICTIONARY
  5
1A
102
{ACAD_REACTORS
330
C
102
}
330
C
100
AcDbDictionary
281
     1
  3
Layout1
350
1E
  3
Layout2
350
26
  3
Model
350
22
  0
DICTIONARY
  5
30A
102
{ACAD_REACTORS
330
C
102
}
330
C
100
AcDbDictionary
281
     1
  0
DICTIONARY
  5
17
102
{ACAD_REACTORS
330
C
102
}
330
C
100
AcDbDictionary
281
     1
  3
Standard
350
18
  0
DICTIONARY
  5
19
102
{ACAD_REACTORS
330
C
102
}
330
C
100
AcDbDictionary
281
     1
  0
ACDBDICTIONARYWDFLT
  5
E
102
{ACAD_REACTORS
330
C
102
}
330
C
100
AcDbDictionary
281
     1
  3
Normal
350
F
100
AcDbDictionaryWithDefault
340
F
  0
DICTIONARY
  5
309
102
{ACAD_REACTORS
330
C
102
}
330
C
100
AcDbDictionary
281
     1
  0
DICTIONARY
  5
2A
102
{ACAD_REACTORS
330
C
102
}
330
C
100
AcDbDictionary
281
     1
  3
2dWireframe
350
2F
  3
3D Hidden
350
31
  3
3dWireframe
350
30
  3
Basic
350
32
  3
Brighten
350
36
  3
ColorChange
350
3A
  3
Conceptual
350
34
  3
Dim
350
35
  3
Facepattern
350
39
  3
Flat
350
2B
  3
FlatWithEdges
350
2C
  3
Gouraud
350
2D
  3
GouraudWithEdges
350
2E
  3
Linepattern
350
38
  3
Realistic
350
33
  3
Thicken
350
37
  0
LAYOUT
  5
1E
102
{ACAD_REACTORS
330
1A
102
}
330
1A
100
AcDbPlotSettings
  1

  2
none_device
  4

  6

 40
0.0
 41
0.0
 42
0.0
 43
0.0
 44
0.0
 45
0.0
 46
0.0
 47
0.0
 48
0.0
 49
0.0
140
0.0
141
0.0
142
1.0
143
1.0
 70
   688
 72
     0
 73
     0
 74
     5
  7

 75
    16
147
1.0
148
0.0
149
0.0
100
AcDbLayout
  1
Layout1
 70
     1
 71
     1
 10
0.0
 20
0.0
 11
12.0
 21
9.0
 12
0.0
 22
0.0
 32
0.0
 14
1.00000000000000E+20
 24
1.00000000000000E+20
 34
1.00000000000000E+20
 15
-1.00000000000000E+20
 25
-1.00000000000000E+20
 35
-1.00000000000000E+20
146
0.0
 13
0.0
 23
0.0
 33
0.0
 16
1.0
 26
0.0
 36
0.0
 17
0.0
 27
1.0
 37
0.0
 76
     0
330
1B
  0
LAYOUT
  5
26
102
{ACAD_REACTORS
330
1A
102
}
330
1A
100
AcDbPlotSettings
  1

  2
none_device
  4

  6

 40
0.0
 41
0.0
 42
0.0
 43
0.0
 44
0.0
 45
0.0
 46
0.0
 47
0.0
 48
0.0
 49
0.0
140
0.0
141
0.0
142
1.0
143
1.0
 70
   688
 72
     0
 73
     0
 74
     5
  7

 75
    16
147
1.0
148
0.0
149
0.0
100
AcDbLayout
  1
Layout2
 70
     1
 71
     2
 10
0.0
 20
0.0
 11
0.0
 21
0.0
 12
0.0
 22
0.0
 32
0.0
 14
0.0
 24
0.0
 34
0.0
 15
0.0
 25
0.0
 35
0.0
146
0.0
 13
0.0
 23
0.0
 33
0.0
 16
1.0
 26
0.0
 36
0.0
 17
0.0
 27
1.0
 37
0.0
 76
     0
330
23
  0
LAYOUT
  5
22
102
{ACAD_REACTORS
330
1A
102
}
330
1A
100
AcDbPlotSettings
  1

  2
none_device
  4

  6

 40
0.0
 41
0.0
 42
0.0
 43
0.0
 44
0.0
 45
0.0
 46
0.0
 47
0.0
 48
0.0
 49
0.0
140
0.0
141
0.0
142
1.0
143
1.0
 70
  1712
 72
     0
 73
     0
 74
     0
  7

 75
     0
147
1.0
148
0.0
149
0.0
100
AcDbLayout
  1
Model
 70
     1
 71
     0
 10
0.0
 20
0.0
 11
12.0
 21
9.0
 12
0.0
 22
0.0
 32
0.0
 14
-261.9427270880831
 24
5.40822638488298
 34
0.0
 15
35.05727291191505
 25
215.408226384883
 35
0.0
146
0.0
 13
0.0
 23
0.0
 33
0.0
 16
1.0
 26
0.0
 36
0.0
 17
0.0
 27
1.0
 37
0.0
 76
     0
330
1F
331
29
  0
MLINESTYLE
  5
18
102
{ACAD_REACTORS
330
17
102
}
330
17
100
AcDbMlineStyle
  2
Standard
 70
     0
  3

 62
   256
 51
90.0
 52
90.0
 71
     2
 49
0.5
 62
   256
  6
BYLAYER
 49
-0.5
 62
   256
  6
BYLAYER
  0
ACDBPLACEHOLDER
  5
F
102
{ACAD_REACTORS
330
E
102
}
330
E
  0
VISUALSTYLE
  5
2F
102
{ACAD_REACTORS
330
2A
102
}
330
2A
100
AcDbVisualStyle
  2
2dWireframe
 70
     4
 71
     0
 72
     2
 73
     0
 90
        0
 40
-0.6
 41
-30.0
 62
     5
 63
     7
 74
     1
 91
        4
 64
     7
 65
   257
 75
     1
175
     1
 42
1.0
 92
        0
 66
   257
 43
1.0
 76
     1
 77
     6
 78
     2
 67
     7
 79
     5
170
     0
171
     0
290
     0
174
     0
 93
        1
 44
0.0
173
     0
291
     0
 45
0.0
1001
ACAD
1000
AcDbSavedByObjectVersion
1070
     0
  0
VISUALSTYLE
  5
31
102
{ACAD_REACTORS
330
2A
102
}
330
2A
100
AcDbVisualStyle
  2
3D Hidden
 70
     6
 71
     1
 72
     2
 73
     2
 90
        0
 40
-0.6
 41
-30.0
 62
     5
 63
     7
 74
     2
 91
        2
 64
     7
 65
   257
 75
     2
175
     1
 42
40.0
 92
        0
 66
   257
 43
1.0
 76
     1
 77
     6
 78
     2
 67
     7
 79
     3
170
     0
171
     0
290
     0
174
     0
 93
        1
 44
0.0
173
     0
291
     0
 45
0.0
1001
ACAD
1000
AcDbSavedByObjectVersion
1070
     0
  0
VISUALSTYLE
  5
30
102
{ACAD_REACTORS
330
2A
102
}
330
2A
100
AcDbVisualStyle
  2
3dWireframe
 70
     5
 71
     0
 72
     2
 73
     0
 90
        0
 40
-0.6
 41
-30.0
 62
     5
 63
     7
 74
     1
 91
        4
 64
     7
 65
   257
 75
     1
175
     1
 42
1.0
 92
        0
 66
   257
 43
1.0
 76
     1
 77
     6
 78
     2
 67
     7
 79
     5
170
     0
171
     0
290
     0
174
     0
 93
        1
 44
0.0
173
     0
291
     0
 45
0.0
1001
ACAD
1000
AcDbSavedByObjectVersion
1070
     0
  0
VISUALSTYLE
  5
32
102
{ACAD_REACTORS
330
2A
102
}
330
2A
100
AcDbVisualStyle
  2
Basic
 70
     7
 71
     1
 72
     0
 73
     1
 90
        0
 40
-0.6
 41
-30.0
 62
     5
 63
     7
 74
     0
 91
        4
 64
     7
 65
   257
 75
     1
175
     1
 42
1.0
 92
        8
 66
     7
 43
1.0
 76
     1
 77
     6
 78
     2
 67
     7
 79
     5
170
     0
171
     0
290
     0
174
     0
 93
        1
 44
0.0
173
     0
291
     1
 45
0.0
1001
ACAD
1000
AcDbSavedByObjectVersion
1070
     0
  0
VISUALSTYLE
  5
36
102
{ACAD_REACTORS
330
2A
102
}
330
2A
100
AcDbVisualStyle
  2
Brighten
 70
    12
 71
     2
 72
     2
 73
     0
 90
        0
 40
-0.6
 41
-30.0
 62
     5
 63
     7
 74
     1
 91
        4
 64
     7
 65
   257
 75
     1
175
     1
 42
1.0
 92
        8
 66
     7
 43
1.0
 76
     1
 77
     6
 78
     2
 67
     7
 79
     5
170
     0
171
     0
290
     0
174
     0
 93
        1
 44
50.0
173
     0
291
     1
 45
0.0
1001
ACAD
1000
AcDbSavedByObjectVersion
1070
     0
  0
VISUALSTYLE
  5
3A
102
{ACAD_REACTORS
330
2A
102
}
330
2A
100
AcDbVisualStyle
  2
ColorChange
 70
    16
 71
     2
 72
     2
 73
     3
 90
        0
 40
-0.6
 41
-30.0
 62
     5
 63
     8
 74
     1
 91
        4
 64
     7
 65
   257
 75
     1
175
     1
 42
1.0
 92
        8
 66
     8
 43
1.0
 76
     1
 77
     6
 78
     2
 67
     7
 79
     5
170
     0
171
     0
290
     0
174
     0
 93
        1
 44
0.0
173
     0
291
     1
 45
0.0
1001
ACAD
1000
AcDbSavedByObjectVersion
1070
     0
  0
VISUALSTYLE
  5
34
102
{ACAD_REACTORS
330
2A
102
}
330
2A
100
AcDbVisualStyle
  2
Conceptual
 70
     9
 71
     3
 72
     2
 73
     0
 90
        0
 40
-0.6
 41
-30.0
 62
     5
 63
     7
 74
     2
 91
        2
 64
     7
 65
   257
 75
     1
175
     1
 42
40.0
 92
        8
 66
     7
 43
1.0
 76
     1
 77
     6
 78
     2
 67
     7
 79
     3
170
     0
171
     0
290
     0
174
     0
 93
        1
 44
0.0
173
     0
291
     0
 45
0.0
1001
ACAD
1000
AcDbSavedByObjectVersion
1070
     0
  0
VISUALSTYLE
  5
35
102
{ACAD_REACTORS
330
2A
102
}
330
2A
100
AcDbVisualStyle
  2
Dim
 70
    11
 71
     2
 72
     2
 73
     0
 90
        0
 40
-0.6
 41
-30.0
 62
     5
 63
     7
 74
     1
 91
        4
 64
     7
 65
   257
 75
     1
175
     1
 42
1.0
 92
        8
 66
     7
 43
1.0
 76
     1
 77
     6
 78
     2
 67
     7
 79
     5
170
     0
171
     0
290
     0
174
     0
 93
        1
 44
-50.0
173
     0
291
     1
 45
0.0
1001
ACAD
1000
AcDbSavedByObjectVersion
1070
     0
  0
VISUALSTYLE
  5
39
102
{ACAD_REACTORS
330
2A
102
}
330
2A
100
AcDbVisualStyle
  2
Facepattern
 70
    15
 71
     2
 72
     2
 73
     0
 90
        0
 40
-0.6
 41
-30.0
 62
     5
 63
     7
 74
     1
 91
        4
 64
     7
 65
   257
 75
     1
175
     1
 42
1.0
 92
        8
 66
     7
 43
1.0
 76
     1
 77
     6
 78
     2
 67
     7
 79
     5
170
     0
171
     0
290
     0
174
     0
 93
        1
 44
0.0
173
     0
291
     1
 45
0.0
1001
ACAD
1000
AcDbSavedByObjectVersion
1070
     0
  0
VISUALSTYLE
  5
2B
102
{ACAD_REACTORS
330
2A
102
}
330
2A
100
AcDbVisualStyle
  2
Flat
 70
     0
 71
     2
 72
     1
 73
     1
 90
        2
 40
-0.6
 41
30.0
 62
     5
 63
     7
 74
     0
 91
        4
 64
     7
 65
   257
 75
     1
175
     1
 42
1.0
 92
        8
 66
     7
 43
1.0
 76
     1
 77
     6
 78
     2
 67
     7
 79
     5
170
     0
171
     0
290
     0
174
     0
 93
       13
 44
0.0
173
     0
291
     1
 45
0.0
1001
ACAD
1000
AcDbSavedByObjectVersion
1070
     0
  0
VISUALSTYLE
  5
2C
102
{ACAD_REACTORS
330
2A
102
}
330
2A
100
AcDbVisualStyle
  2
FlatWithEdges
 70
     1
 71
     2
 72
     1
 73
     1
 90
        2
 40
-0.6
 41
30.0
 62
     5
 63
     7
 74
     1
 91
        4
 64
     7
 65
   257
 75
     1
175
     1
 42
1.0
 92
        0
 66
   257
 43
1.0
 76
     1
 77
     6
 78
     2
 67
     7
 79
     5
170
     0
171
     0
290
     0
174
     0
 93
       13
 44
0.0
173
     0
291
     1
 45
0.0
1001
ACAD
1000
AcDbSavedByObjectVersion
1070
     0
  0
VISUALSTYLE
  5
2D
102
{ACAD_REACTORS
330
2A
102
}
330
2A
100
AcDbVisualStyle
  2
Gouraud
 70
     2
 71
     2
 72
     2
 73
     1
 90
        2
 40
-0.6
 41
30.0
 62
     5
 63
     7
 74
     0
 91
        4
 64
     7
 65
   257
 75
     1
175
     1
 42
1.0
 92
        0
 66
     7
 43
1.0
 76
     1
 77
     6
 78
     2
 67
     7
 79
     5
170
     0
171
     0
290
     0
174
     0
 93
       13
 44
0.0
173
     0
291
     1
 45
0.0
1001
ACAD
1000
AcDbSavedByObjectVersion
1070
     0
  0
VISUALSTYLE
  5
2E
102
{ACAD_REACTORS
330
2A
102
}
330
2A
100
AcDbVisualStyle
  2
GouraudWithEdges
 70
     3
 71
     2
 72
     2
 73
     1
 90
        2
 40
-0.6
 41
30.0
 62
     5
 63
     7
 74
     1
 91
        4
 64
     7
 65
   257
 75
     1
175
     1
 42
1.0
 92
        0
 66
   257
 43
1.0
 76
     1
 77
     6
 78
     2
 67
     7
 79
     5
170
     0
171
     0
290
     0
174
     0
 93
       13
 44
0.0
173
     0
291
     1
 45
0.0
1001
ACAD
1000
AcDbSavedByObjectVersion
1070
     0
  0
VISUALSTYLE
  5
38
102
{ACAD_REACTORS
330
2A
102
}
330
2A
100
AcDbVisualStyle
  2
Linepattern
 70
    14
 71
     2
 72
     2
 73
     0
 90
        0
 40
-0.6
 41
-30.0
 62
     5
 63
     7
 74
     1
 91
        4
 64
     7
 65
   257
 75
     7
175
     7
 42
1.0
 92
        8
 66
     7
 43
1.0
 76
     1
 77
     6
 78
     2
 67
     7
 79
     5
170
     0
171
     0
290
     0
174
     0
 93
        1
 44
0.0
173
     0
291
     1
 45
0.0
1001
ACAD
1000
AcDbSavedByObjectVersion
1070
     0
  0
VISUALSTYLE
  5
33
102
{ACAD_REACTORS
330
2A
102
}
330
2A
100
AcDbVisualStyle
  2
Realistic
 70
     8
 71
     2
 72
     2
 73
     0
 90
        0
 40
-0.6
 41
-30.0
 62
     5
 63
     7
 74
     1
 91
        0
 64
     7
 65
   257
 75
     1
175
     1
 42
1.0
 92
        8
 66
     8
 43
1.0
 76
     1
 77
     6
 78
     2
 67
     7
 79
     5
170
     0
171
     0
290
     0
174
     0
 93
       13
 44
0.0
173
     0
291
     0
 45
0.0
1001
ACAD
1000
AcDbSavedByObjectVersion
1070
     0
  0
VISUALSTYLE
  5
37
102
{ACAD_REACTORS
330
2A
102
}
330
2A
100
AcDbVisualStyle
  2
Thicken
 70
    13
 71
     2
 72
     2
 73
     0
 90
        0
 40
-0.6
 41
-30.0
 62
     5
 63
     7
 74
     1
 91
        4
 64
     7
 65
   257
 75
     1
175
     1
 42
1.0
 92
       12
 66
     7
 43
1.0
 76
     1
 77
     6
 78
     2
 67
     7
 79
     5
170
     0
171
     0
290
     0
174
     0
 93
        1
 44
0.0
173
     0
291
     1
 45
0.0
1001
ACAD
1000
AcDbSavedByObjectVersion
1070
     0
  0
ENDSEC
  0
EOF
