  0
SECTION
  2
HEADER
  9
$ACADVER
  1
AC1015
  9
$ACADMAINTVER
 70
     6
  9
$DWGCODEPAGE
  3
ANSI_1252
  9
$INSBASE
 10
0.0
 20
0.0
 30
0.0
  9
$EXTMIN
 10
-266.7117537492941
 20
12.401775052395
 30
0.0
  9
$EXTMAX
 10
30.28824625070408
 20
222.401775052395
 30
0.0
  9
$LIMMIN
 10
0.0
 20
0.0
  9
$LIMMAX
 10
12.0
 20
9.0
  9
$ORTHOMODE
 70
     0
  9
$REGENMODE
 70
     1
  9
$FILLMODE
 70
     1
  9
$QTEXTMODE
 70
     0
  9
$MIRRTEXT
 70
     1
  9
$LTSCALE
 40
1.0
  9
$ATTMODE
 70
     1
  9
$TEXTSIZE
 40
0.2
  9
$TRACEWID
 40
0.05
  9
$TEXTSTYLE
  7
Standard
  9
$CLAYER
  8
0
  9
$CELTYPE
  6
ByLayer
  9
$CECOLOR
 62
   256
  9
$CELTSCALE
 40
1.0
  9
$DISPSILH
 70
     0
  9
$DIMSCALE
 40
1.0
  9
$DIMASZ
 40
0.18
  9
$DIMEXO
 40
0.0625
  9
$DIMDLI
 40
0.38
  9
$DIMRND
 40
0.0
  9
$DIMDLE
 40
0.0
  9
$DIMEXE
 40
0.18
  9
$DIMTP
 40
0.0
  9
$DIMTM
 40
0.0
  9
$DIMTXT
 40
0.18
  9
$DIMCEN
 40
0.09
  9
$DIMTSZ
 40
0.0
  9
$DIMTOL
 70
     0
  9
$DIMLIM
 70
     0
  9
$DIMTIH
 70
     1
  9
$DIMTOH
 70
     1
  9
$DIMSE1
 70
     0
  9
$DIMSE2
 70
     0
  9
$DIMTAD
 70
     0
  9
$DIMZIN
 70
     0
  9
$DIMBLK
  1

  9
$DIMASO
 70
     1
  9
$DIMSHO
 70
     1
  9
$DIMPOST
  1

  9
$DIMAPOST
  1

  9
$DIMALT
 70
     0
  9
$DIMALTD
 70
     2
  9
$DIMALTF
 40
25.4
  9
$DIMLFAC
 40
1.0
  9
$DIMTOFL
 70
     0
  9
$DIMTVP
 40
0.0
  9
$DIMTIX
 70
     0
  9
$DIMSOXD
 70
     0
  9
$DIMSAH
 70
     0
  9
$DIMBLK1
  1

  9
$DIMBLK2
  1

  9
$DIMSTYLE
  2
Standard
  9
$DIMCLRD
 70
     0
  9
$DIMCLRE
 70
     0
  9
$DIMCLRT
 70
     0
  9
$DIMTFAC
 40
1.0
  9
$DIMGAP
 40
0.09
  9
$DIMJUST
 70
     0
  9
$DIMSD1
 70
     0
  9
$DIMSD2
 70
     0
  9
$DIMTOLJ
 70
     1
  9
$DIMTZIN
 70
     0
  9
$DIMALTZ
 70
     0
  9
$DIMALTTZ
 70
     0
  9
$DIMUPT
 70
     0
  9
$DIMDEC
 70
     4
  9
$DIMTDEC
 70
     4
  9
$DIMALTU
 70
     2
  9
$DIMALTTD
 70
     2
  9
$DIMTXSTY
  7
Standard
  9
$DIMAUNIT
 70
     0
  9
$DIMADEC
 70
     0
  9
$DIMALTRND
 40
0.0
  9
$DIMAZIN
 70
     0
  9
$DIMDSEP
 70
    46
  9
$DIMATFIT
 70
     3
  9
$DIMFRAC
 70
     0
  9
$DIMLDRBLK
  1

  9
$DIMLUNIT
 70
     2
  9
$DIMLWD
 70
    -2
  9
$DIMLWE
 70
    -2
  9
$DIMTMOVE
 70
     0
  9
$LUNITS
 70
     2
  9
$LUPREC
 70
     4
  9
$SKETCHINC
 40
0.1
  9
$FILLETRAD
 40
0.5
  9
$AUNITS
 70
     0
  9
$AUPREC
 70
     0
  9
$MENU
  1
.
  9
$ELEVATION
 40
0.0
  9
$PELEVATION
 40
0.0
  9
$THICKNESS
 40
0.0
  9
$LIMCHECK
 70
     0
  9
$CHAMFERA
 40
0.5
  9
$CHAMFERB
 40
0.5
  9
$CHAMFERC
 40
1.0
  9
$CHAMFERD
 40
0.0
  9
$SKPOLY
 70
     0
  9
$TDCREATE
 40
2455539.697859167
  9
$TDUCREATE
 40
2455539.6561925
  9
$TDUPDATE
 40
2455539.697859178
  9
$TDUUPDATE
 40
2455539.656192512
  9
$TDINDWG
 40
0.0000000116
  9
$TDUSRTIMER
 40
0.0000000116
  9
$USRTIMER
 70
     1
  9
$ANGBASE
 50
0.0
  9
$ANGDIR
 70
     0
  9
$PDMODE
 70
     0
  9
$PDSIZE
 40
0.0
  9
$PLINEWID
 40
0.0
  9
$SPLFRAME
 70
     0
  9
$SPLINETYPE
 70
     6
  9
$SPLINESEGS
 70
     8
  9
$HANDSEED
  5
362
  9
$SURFTAB1
 70
     6
  9
$SURFTAB2
 70
     6
  9
$SURFTYPE
 70
     6
  9
$SURFU
 70
     6
  9
$SURFV
 70
     6
  9
$UCSBASE
  2

  9
$UCSNAME
  2

  9
$UCSORG
 10
0.0
 20
0.0
 30
0.0
  9
$UCSXDIR
 10
1.0
 20
0.0
 30
0.0
  9
$UCSYDIR
 10
0.0
 20
1.0
 30
0.0
  9
$UCSORTHOREF
  2

  9
$UCSORTHOVIEW
 70
     0
  9
$UCSORGTOP
 10
0.0
 20
0.0
 30
0.0
  9
$UCSORGBOTTOM
 10
0.0
 20
0.0
 30
0.0
  9
$UCSORGLEFT
 10
0.0
 20
0.0
 30
0.0
  9
$UCSORGRIGHT
 10
0.0
 20
0.0
 30
0.0
  9
$UCSORGFRONT
 10
0.0
 20
0.0
 30
0.0
  9
$UCSORGBACK
 10
0.0
 20
0.0
 30
0.0
  9
$PUCSBASE
  2

  9
$PUCSNAME
  2

  9
$PUCSORG
 10
0.0
 20
0.0
 30
0.0
  9
$PUCSXDIR
 10
1.0
 20
0.0
 30
0.0
  9
$PUCSYDIR
 10
0.0
 20
1.0
 30
0.0
  9
$PUCSORTHOREF
  2

  9
$PUCSORTHOVIEW
 70
     0
  9
$PUCSORGTOP
 10
0.0
 20
0.0
 30
0.0
  9
$PUCSORGBOTTOM
 10
0.0
 20
0.0
 30
0.0
  9
$PUCSORGLEFT
 10
0.0
 20
0.0
 30
0.0
  9
$PUCSORGRIGHT
 10
0.0
 20
0.0
 30
0.0
  9
$PUCSORGFRONT
 10
0.0
 20
0.0
 30
0.0
  9
$PUCSORGBACK
 10
0.0
 20
0.0
 30
0.0
  9
$USERI1
 70
     0
  9
$USERI2
 70
     0
  9
$USERI3
 70
     0
  9
$USERI4
 70
     0
  9
$USERI5
 70
     0
  9
$USERR1
 40
16.0
  9
$USERR2
 40
0.0
  9
$USERR3
 40
0.0
  9
$USERR4
 40
0.0
  9
$USERR5
 40
0.0
  9
$WORLDVIEW
 70
     1
  9
$SHADEDGE
 70
     3
  9
$SHADEDIF
 70
    70
  9
$TILEMODE
 70
     1
  9
$MAXACTVP
 70
    64
  9
$PINSBASE
 10
0.0
 20
0.0
 30
0.0
  9
$PLIMCHECK
 70
     0
  9
$PEXTMIN
 10
1.00000000000000E+20
 20
1.00000000000000E+20
 30
1.00000000000000E+20
  9
$PEXTMAX
 10
-1.00000000000000E+20
 20
-1.00000000000000E+20
 30
-1.00000000000000E+20
  9
$PLIMMIN
 10
0.0
 20
0.0
  9
$PLIMMAX
 10
12.0
 20
9.0
  9
$UNITMODE
 70
     0
  9
$VISRETAIN
 70
     1
  9
$PLINEGEN
 70
     0
  9
$PSLTSCALE
 70
     1
  9
$TREEDEPTH
 70
  3020
  9
$CMLSTYLE
  2
Standard
  9
$CMLJUST
 70
     0
  9
$CMLSCALE
 40
1.0
  9
$PROXYGRAPHICS
 70
     1
  9
$MEASUREMENT
 70
     1
  9
$CELWEIGHT
370
    -1
  9
$ENDCAPS
280
     0
  9
$JOINSTYLE
280
     0
  9
$LWDISPLAY
290
     0
  9
$INSUNITS
 70
     1
  9
$HYPERLINKBASE
  1

  9
$STYLESHEET
  1

  9
$XEDIT
290
     1
  9
$CEPSNTYPE
380
     0
  9
$PSTYLEMODE
290
     1
  9
$FINGERPRINTGUID
  2
{2FE6684F-0B31-4B3E-A910-2A01423AFFE5}
  9
$VERSIONGUID
  2
{FAEB1C32-E019-11D5-929B-00C0DF256EC4}
  9
$EXTNAMES
290
     1
  9
$PSVPSCALE
 40
0.0
  9
$OLESTARTUP
290
     0
  0
ENDSEC
  0
SECTION
  2
CLASSES
  0
CLASS
  1
ACDBDICTIONARYWDFLT
  2
AcDbDictionaryWithDefault
  3
ObjectDBX Classes
 90
        0
280
     0
281
     0
  0
CLASS
  1
VISUALSTYLE
  2
AcDbVisualStyle
  3
ObjectDBX Classes
 90
     4095
280
     0
281
     0
  0
CLASS
  1

  2
exOdDbCircle
  3

 90
        0
280
     0
281
     1
  0
CLASS
  1
ACDBPLACEHOLDER
  2
AcDbPlaceHolder
  3
ObjectDBX Classes
 90
        0
280
     0
281
     0
  0
CLASS
  1
LAYOUT
  2
AcDbLayout
  3
ObjectDBX Classes
 90
        0
280
     0
281
     0
  0
ENDSEC
  0
SECTION
  2
TABLES
  0
TABLE
  2
VPORT
  5
8
330
0
100
AcDbSymbolTable
 70
     1
  0
VPORT
  5
29
330
8
100
AcDbSymbolTableRecord
100
AcDbViewportTableRecord
  2
*Active
 70
     0
 10
0.0
 20
0.0
 11
1.0
 21
1.0
 12
-118.211753749295
 22
117.401775052395
 13
0.0
 23
0.0
 14
0.5
 24
0.5
 15
0.5
 25
0.5
 16
0.0
 26
0.0
 36
1.0
 17
0.0
 27
0.0
 37
0.0
 40
231.0
 41
1.60267857142857
 42
50.0
 43
0.0
 44
0.0
 50
0.0
 51
0.0
 71
     0
 72
   100
 73
     1
 74
     3
 75
     0
 76
     0
 77
     0
 78
     0
281
     0
 65
     1
110
0.0
120
0.0
130
0.0
111
1.0
121
0.0
131
0.0
112
0.0
122
1.0
132
0.0
 79
     0
146
0.0
  0
ENDTAB
  0
TABLE
  2
LTYPE
  5
5
330
0
100
AcDbSymbolTable
 70
     8
  0
LTYPE
  5
14
330
5
100
AcDbSymbolTableRecord
100
AcDbLinetypeTableRecord
  2
ByBlock
 70
     0
  3

 72
    65
 73
     0
 40
0.0
  0
LTYPE
  5
15
330
5
100
AcDbSymbolTableRecord
100
AcDbLinetypeTableRecord
  2
ByLayer
 70
     0
  3

 72
    65
 73
     0
 40
0.0
  0
LTYPE
  5
16
330
5
100
AcDbSymbolTableRecord
100
AcDbLinetypeTableRecord
  2
Continuous
 70
     0
  3
Solid line
 72
    65
 73
     0
 40
0.0
  0
LTYPE
  5
3B
330
5
100
AcDbSymbolTableRecord
100
AcDbLinetypeTableRecord
  2
DASHED
 70
     0
  3
Dashed
 72
    65
 73
     2
 40
15.0
 49
7.0
 74
     0
 49
-8.0
 74
     0
  0
LTYPE
  5
3C
330
5
100
AcDbSymbolTableRecord
100
AcDbLinetypeTableRecord
  2
DOTTED
 70
     0
  3
Dotted
 72
    65
 73
     2
 40
1.0
 49
0.0
 74
     0
 49
-1.0
 74
     0
  0
LTYPE
  5
3D
330
5
100
AcDbSymbolTableRecord
100
AcDbLinetypeTableRecord
  2
DOT_CENTER
 70
     0
  3
Dot_Center
 72
    65
 73
     4
 40
14.0
 49
12.0
 74
     0
 49
-1.0
 74
     0
 49
0.0
 74
     0
 49
-1.0
 74
     0
  0
LTYPE
  5
3E
330
5
100
AcDbSymbolTableRecord
100
AcDbLinetypeTableRecord
  2
LONG_DASHED
 70
     0
  3
Long_Dashed
 72
    65
 73
     2
 40
15.0
 49
10.0
 74
     0
 49
-5.0
 74
     0
  0
LTYPE
  5
3F
330
5
100
AcDbSymbolTableRecord
100
AcDbLinetypeTableRecord
  2
DASH_CENTER
 70
     0
  3
Dash_Center
 72
    65
 73
     4
 40
14.0
 49
11.0
 74
     0
 49
-1.0
 74
     0
 49
1.0
 74
     0
 49
-1.0
 74
     0
  0
LTYPE
  5
40
330
5
100
AcDbSymbolTableRecord
100
AcDbLinetypeTableRecord
  2
PHANTOM
 70
     0
  3
Phantom
 72
    65
 73
     6
 40
13.0
 49
10.0
 74
     0
 49
-1.0
 74
     0
 49
0.0
 74
     0
 49
-1.0
 74
     0
 49
0.0
 74
     0
 49
-1.0
 74
     0
  0
LTYPE
  5
41
330
5
100
AcDbSymbolTableRecord
100
AcDbLinetypeTableRecord
  2
CENTER_DASH_DASH
 70
     0
  3
Center_Dash_Dash
 72
    65
 73
     6
 40
14.0
 49
9.0
 74
     0
 49
-1.0
 74
     0
 49
1.0
 74
     0
 49
-1.0
 74
     0
 49
1.0
 74
     0
 49
-1.0
 74
     0
  0
ENDTAB
  0
TABLE
  2
LAYER
  5
2
330
0
100
AcDbSymbolTable
 70
     2
  0
LAYER
  5
10
330
2
100
AcDbSymbolTableRecord
100
AcDbLayerTableRecord
  2
0
 70
     0
 62
     7
  6
Continuous
370
    -3
390
F
  0
LAYER
  5
42
330
2
100
AcDbSymbolTableRecord
100
AcDbLayerTableRecord
  2
1
 70
     0
 62
     7
  6
Continuous
370
    -3
390
F
  0
ENDTAB
  0
TABLE
  2
STYLE
  5
3
330
0
100
AcDbSymbolTable
 70
     9
  0
STYLE
  5
11
330
3
100
AcDbSymbolTableRecord
100
AcDbTextStyleTableRecord
  2
Standard
 70
     0
 40
0.0
 41
1.0
 50
0.0
 71
     0
 42
0.2
  3
txt
  4

  0
STYLE
  5
F0
330
3
100
AcDbSymbolTableRecord
100
AcDbTextStyleTableRecord
  2
CONVERTER_11
 70
     0
 40
0.0
 41
0.9
 50
0.0
 71
     0
 42
0.2
  3
txt.shx
  4

  0
STYLE
  5
2DE
330
3
100
AcDbSymbolTableRecord
100
AcDbTextStyleTableRecord
  2
CONVERTER_12
 70
     0
 40
0.0
 41
0.72
 50
0.0
 71
     0
 42
0.2
  3
txt.shx
  4

  0
STYLE
  5
2E0
330
3
100
AcDbSymbolTableRecord
100
AcDbTextStyleTableRecord
  2
CONVERTER_13
 70
     0
 40
0.0
 41
0.81
 50
0.0
 71
     0
 42
0.2
  3
txt.shx
  4

  0
STYLE
  5
2E2
330
3
100
AcDbSymbolTableRecord
100
AcDbTextStyleTableRecord
  2
CONVERTER_14
 70
     0
 40
0.0
 41
0.45
 50
0.0
 71
     0
 42
0.2
  3
txt.shx
  4

  0
STYLE
  5
2E4
330
3
100
AcDbSymbolTableRecord
100
AcDbTextStyleTableRecord
  2
CONVERTER_15
 70
     0
 40
0.0
 41
0.54
 50
0.0
 71
     0
 42
0.2
  3
txt.shx
  4

  0
STYLE
  5
306
330
3
100
AcDbSymbolTableRecord
100
AcDbTextStyleTableRecord
  2
CONVERTER_16
 70
     0
 40
0.0
 41
0.855
 50
0.0
 71
     0
 42
0.2
  3
txt.shx
  4

  0
STYLE
  5
339
330
3
100
AcDbSymbolTableRecord
100
AcDbTextStyleTableRecord
  2
CONVERTER_17
 70
     0
 40
0.0
 41
0.765
 50
0.0
 71
     0
 42
0.2
  3
txt.shx
  4

  0
STYLE
  5
343
330
3
100
AcDbSymbolTableRecord
100
AcDbTextStyleTableRecord
  2
CONVERTER_18
 70
     0
 40
0.0
 41
0.63
 50
0.0
 71
     0
 42
0.2
  3
txt.shx
  4

  0
ENDTAB
  0
TABLE
  2
VIEW
  5
6
330
0
100
AcDbSymbolTable
 70
     0
  0
ENDTAB
  0
TABLE
  2
UCS
  5
7
330
0
100
AcDbSymbolTable
 70
     0
  0
ENDTAB
  0
TABLE
  2
APPID
  5
9
330
0
100
AcDbSymbolTable
 70
     1
  0
APPID
  5
12
330
9
100
AcDbSymbolTableRecord
100
AcDbRegAppTableRecord
  2
ACAD
 70
     0
  0
ENDTAB
  0
TABLE
  2
DIMSTYLE
  5
A
330
0
100
AcDbSymbolTable
 70
     6
100
AcDbDimStyleTable
  0
DIMSTYLE
105
27
330
A
100
AcDbSymbolTableRecord
100
AcDbDimStyleTableRecord
  2
Standard
 70
     0
340
11
  0
DIMSTYLE
105
F4
102
{ACAD_REACTORS
330
F5
102
}
330
A
100
AcDbSymbolTableRecord
100
AcDbDimStyleTableRecord
  2
ME10_DIM_10
 70
     0
 41
3.5
 42
0.0
 44
2.0
 73
     0
 74
     0
 77
     1
 78
     8
140
3.5
147
2.0
172
     1
173
     1
176
     2
177
     2
178
     3
271
     0
340
F0
  0
DIMSTYLE
105
FF
102
{ACAD_REACTORS
330
100
102
}
330
A
100
AcDbSymbolTableRecord
100
AcDbDimStyleTableRecord
  2
ME10_DIM_11
 70
     0
 41
3.5
 42
0.0
 44
2.0
 73
     0
 74
     0
 77
     1
 78
     8
140
3.5
147
2.0
172
     1
173
     1
176
     2
177
     2
178
     3
340
F0
  0
DIMSTYLE
105
10A
102
{ACAD_REACTORS
330
10B
102
}
330
A
100
AcDbSymbolTableRecord
100
AcDbDimStyleTableRecord
  2
ME10_DIM_12
 70
     0
 41
3.5
 42
0.0
 44
2.0
 73
     0
 74
     0
 77
     1
 78
     8
140
3.5
147
2.0
172
     1
173
     1
176
     2
177
     2
178
     3
340
F0
  0
DIMSTYLE
105
12C
102
{ACAD_REACTORS
330
12D
102
}
330
A
100
AcDbSymbolTableRecord
100
AcDbDimStyleTableRecord
  2
ME10_DIM_13
 70
     0
 41
3.5
 42
0.0
 44
2.0
 73
     0
 74
     0
 77
     1
 78
     8
140
3.5
147
2.0
172
     1
173
     1
176
     2
177
     2
178
     3
340
F0
  0
DIMSTYLE
105
139
102
{ACAD_REACTORS
330
13A
102
}
330
A
100
AcDbSymbolTableRecord
100
AcDbDimStyleTableRecord
  2
ME10_DIM_14
 70
     0
 41
3.5
 42
0.0
 44
2.0
 73
     0
 74
     0
 77
     1
 78
     8
140
3.5
147
2.0
172
     1
173
     1
176
     2
177
     2
178
     3
340
F0
  0
ENDTAB
  0
TABLE
  2
BLOCK_RECORD
  5
1
330
0
100
AcDbSymbolTable
 70
    21
  0
BLOCK_RECORD
  5
1F
330
1
100
AcDbSymbolTableRecord
100
AcDbBlockTableRecord
  2
*Model_Space
340
22
  0
BLOCK_RECORD
  5
1B
330
1
100
AcDbSymbolTableRecord
100
AcDbBlockTableRecord
  2
*Paper_Space
340
1E
  0
BLOCK_RECORD
  5
23
330
1
100
AcDbSymbolTableRecord
100
AcDbBlockTableRecord
  2
*Paper_Space0
340
26
  0
BLOCK_RECORD
  5
43
330
1
100
AcDbSymbolTableRecord
100
AcDbBlockTableRecord
  2
3005947_FBS_2-10_select__1
340
0
102
{BLKREFS
331
47
102
}
  0
BLOCK_RECORD
  5
46
330
1
100
AcDbSymbolTableRecord
100
AcDbBlockTableRecord
  2
AllgSicht1
340
0
102
{BLKREFS
331
78
102
}
  0
BLOCK_RECORD
  5
4A
330
1
100
AcDbSymbolTableRecord
100
AcDbBlockTableRecord
  2
3005947_FBS_2-10_select__2
340
0
102
{BLKREFS
331
4E
102
}
  0
BLOCK_RECORD
  5
4D
330
1
100
AcDbSymbolTableRecord
100
AcDbBlockTableRecord
  2
Rcksicht1
340
0
102
{BLKREFS
331
79
102
}
  0
BLOCK_RECORD
  5
51
330
1
100
AcDbSymbolTableRecord
100
AcDbBlockTableRecord
  2
3005947_FBS_2-10_select__3
340
0
102
{BLKREFS
331
55
102
}
  0
BLOCK_RECORD
  5
54
330
1
100
AcDbSymbolTableRecord
100
AcDbBlockTableRecord
  2
SA_rechts1
340
0
102
{BLKREFS
331
7A
102
}
  0
BLOCK_RECORD
  5
58
330
1
100
AcDbSymbolTableRecord
100
AcDbBlockTableRecord
  2
3005947_FBS_2-10_select__4
340
0
102
{BLKREFS
331
5C
102
}
  0
BLOCK_RECORD
  5
5B
330
1
100
AcDbSymbolTableRecord
100
AcDbBlockTableRecord
  2
Vordans1
340
0
102
{BLKREFS
331
7B
102
}
  0
BLOCK_RECORD
  5
5F
330
1
100
AcDbSymbolTableRecord
100
AcDbBlockTableRecord
  2
3005947_FBS_2-10_select__5
340
0
102
{BLKREFS
331
63
102
}
  0
BLOCK_RECORD
  5
62
330
1
100
AcDbSymbolTableRecord
100
AcDbBlockTableRecord
  2
Drfsicht1
340
0
102
{BLKREFS
331
7C
102
}
  0
BLOCK_RECORD
  5
66
330
1
100
AcDbSymbolTableRecord
100
AcDbBlockTableRecord
  2
3005947_FBS_2-10_select__6
340
0
102
{BLKREFS
331
6A
102
}
  0
BLOCK_RECORD
  5
69
330
1
100
AcDbSymbolTableRecord
100
AcDbBlockTableRecord
  2
SA_links1
340
0
102
{BLKREFS
331
7D
102
}
  0
BLOCK_RECORD
  5
6D
330
1
100
AcDbSymbolTableRecord
100
AcDbBlockTableRecord
  2
_punkt
340
0
102
{BLKREFS
331
74
102
}
  0
BLOCK_RECORD
  5
70
330
1
100
AcDbSymbolTableRecord
100
AcDbBlockTableRecord
  2
_rahmen
340
0
102
{BLKREFS
331
75
102
}
  0
BLOCK_RECORD
  5
73
330
1
100
AcDbSymbolTableRecord
100
AcDbBlockTableRecord
  2
A4I
340
0
102
{BLKREFS
331
7E
102
}
  0
BLOCK_RECORD
  5
EA
330
1
100
AcDbSymbolTableRecord
100
AcDbBlockTableRecord
  2
*D16
340
0
  0
BLOCK_RECORD
  5
F6
330
1
100
AcDbSymbolTableRecord
100
AcDbBlockTableRecord
  2
*D17
340
0
  0
BLOCK_RECORD
  5
101
330
1
100
AcDbSymbolTableRecord
100
AcDbBlockTableRecord
  2
*D18
340
0
  0
BLOCK_RECORD
  5
121
330
1
100
AcDbSymbolTableRecord
100
AcDbBlockTableRecord
  2
*D19
340
0
  0
BLOCK_RECORD
  5
12E
330
1
100
AcDbSymbolTableRecord
100
AcDbBlockTableRecord
  2
*D20
340
0
  0
ENDTAB
  0
ENDSEC
  0
SECTION
  2
BLOCKS
  0
BLOCK
  5
20
330
1F
100
AcDbEntity
  8
0
100
AcDbBlockBegin
  2
*Model_Space
 70
     0
 10
0.0
 20
0.0
 30
0.0
  3
*Model_Space
  1

  0
ENDBLK
  5
21
330
1F
100
AcDbEntity
  8
0
100
AcDbBlockEnd
  0
BLOCK
  5
1C
330
1B
100
AcDbEntity
 67
     1
  8
0
100
AcDbBlockBegin
  2
*Paper_Space
 70
     0
 10
0.0
 20
0.0
 30
0.0
  3
*Paper_Space
  1

  0
ENDBLK
  5
1D
330
1B
100
AcDbEntity
 67
     1
  8
0
100
AcDbBlockEnd
  0
BLOCK
  5
24
330
23
100
AcDbEntity
  8
0
100
AcDbBlockBegin
  2
*Paper_Space0
 70
     0
 10
0.0
 20
0.0
 30
0.0
  3
*Paper_Space0
  1

  0
ENDBLK
  5
25
330
23
100
AcDbEntity
  8
0
100
AcDbBlockEnd
  0
BLOCK
  5
44
330
43
100
AcDbEntity
  8
0
100
AcDbBlockBegin
  2
3005947_FBS_2-10_select__1
 70
     0
 10
-29.18205098914472
 20
63.79551791547735
 30
0.0
  3
3005947_FBS_2-10_select__1
  1

  0
LINE
  5
7F
330
43
100
AcDbEntity
  8
0
  6
Continuous
 62
     7
100
AcDbLine
 10
-27.26602558536027
 20
65.79551791547735
 30
0.0
 11
-27.26602558536027
 21
67.23889358845142
 31
0.0
  0
LINE
  5
80
330
43
100
AcDbEntity
  8
0
  6
Continuous
 62
     7
100
AcDbLine
 10
-29.18205098914472
 20
93.8882346471471
 30
0.0
 11
-29.18205098914472
 21
84.57846155646435
 31
0.0
  0
LINE
  5
81
330
43
100
AcDbEntity
  8
0
  6
Continuous
 62
     7
100
AcDbLine
 10
-28.95705098914471
 20
84.38360584061284
 30
0.0
 11
-28.95705098914471
 21
80.9195042254751
 31
0.0
  0
LINE
  5
82
330
43
100
AcDbEntity
  8
0
  6
Continuous
 62
     7
100
AcDbLine
 10
-29.18205098914472
 20
84.57846155646435
 30
0.0
 11
-28.95705098914471
 21
84.38360584061284
 31
0.0
  0
LINE
  5
83
330
43
100
AcDbEntity
  8
0
  6
Continuous
 62
     7
100
AcDbLine
 10
-25.71794937400696
 20
83.57846155646435
 30
0.0
 11
-25.49294937400696
 21
83.38360584061284
 31
0.0
  0
LINE
  5
84
330
43
100
AcDbEntity
  8
0
  6
Continuous
 62
     7
100
AcDbLine
 10
-25.49294937400696
 20
83.38360584061284
 30
0.0
 11
-28.95705098914471
 21
84.38360584061284
 31
0.0
  0
LINE
  5
85
330
43
100
AcDbEntity
  8
0
  6
Continuous
 62
     7
100
AcDbLine
 10
-25.71794937400696
 20
83.57846155646435
 30
0.0
 11
-29.18205098914472
 21
84.57846155646435
 31
0.0
  0
LINE
  5
86
330
43
100
AcDbEntity
  8
0
  6
Continuous
 62
     7
100
AcDbLine
 10
-25.49294937400696
 20
79.9195042254751
 30
0.0
 11
-28.95705098914471
 21
80.9195042254751
 31
0.0
  0
LINE
  5
87
330
43
100
AcDbEntity
  8
0
  6
Continuous
 62
     7
100
AcDbLine
 10
-25.49294937400696
 20
83.38360584061284
 30
0.0
 11
-25.49294937400696
 21
79.9195042254751
 31
0.0
  0
LINE
  5
88
330
43
100
AcDbEntity
  8
0
  6
Continuous
 62
     7
100
AcDbLine
 10
-25.71794937400696
 20
83.57846155646435
 30
0.0
 11
-25.71794937400696
 21
92.88823464714707
 31
0.0
  0
LINE
  5
89
330
43
100
AcDbEntity
  8
0
  6
Continuous
 62
     7
100
AcDbLine
 10
-25.49294937400696
 20
79.9195042254751
 30
0.0
 11
-22.14294937400696
 21
82.82068932815297
 31
0.0
  0
LINE
  5
8A
330
43
100
AcDbEntity
  8
0
  6
Continuous
 62
     7
100
AcDbLine
 10
-25.71794937400696
 20
92.88823464714707
 30
0.0
 11
-29.18205098914472
 21
93.8882346471471
 31
0.0
  0
LINE
  5
8B
330
43
100
AcDbEntity
  8
0
  6
Continuous
 62
     7
100
AcDbLine
 10
-27.66602558536028
 20
67.35436364228934
 30
0.0
 11
-27.66602558536028
 21
80.5468172932723
 31
0.0
  0
LINE
  5
8C
330
43
100
AcDbEntity
  8
0
  6
Continuous
 62
     7
100
AcDbLine
 10
-20.28205098914471
 20
101.5958607408286
 30
0.0
 11
-29.18205098914472
 21
93.8882346471471
 31
0.0
  0
LINE
  5
8D
330
43
100
AcDbEntity
  8
0
  6
Continuous
 62
     7
100
AcDbLine
 10
-25.9339747777914
 20
80.0468172932723
 30
0.0
 11
-25.9339747777914
 21
66.85436364228934
 31
0.0
  0
LINE
  5
8E
330
43
100
AcDbEntity
  8
0
  6
Continuous
 62
     7
100
AcDbLine
 10
-17.04294937400695
 20
90.70152050259135
 30
0.0
 11
-16.81794937400695
 21
91.28608765014584
 31
0.0
  0
LINE
  5
8F
330
43
100
AcDbEntity
  8
0
  6
Continuous
 62
     7
100
AcDbLine
 10
-25.5339747777914
 20
65.29551791547735
 30
0.0
 11
-25.26602558536027
 21
63.79551791547735
 31
0.0
  0
LINE
  5
90
330
43
100
AcDbEntity
  8
0
  6
Continuous
 62
     7
100
AcDbLine
 10
-26.99807639292915
 20
64.29551791547735
 30
0.0
 11
-25.26602558536027
 21
63.79551791547735
 31
0.0
  0
LINE
  5
91
330
43
100
AcDbEntity
  8
0
  6
Continuous
 62
     7
100
AcDbLine
 10
-25.26602558536027
 20
63.79551791547735
 30
0.0
 11
-24.10192397022252
 21
64.80365948677314
 31
0.0
  0
LINE
  5
92
330
43
100
AcDbEntity
  8
0
  6
Continuous
 62
     7
100
AcDbLine
 10
-27.66602558536028
 20
67.35436364228934
 30
0.0
 11
-25.9339747777914
 21
66.85436364228934
 31
0.0
  0
LINE
  5
93
330
43
100
AcDbEntity
  8
0
  6
Continuous
 62
     7
100
AcDbLine
 10
-16.81794937400695
 20
91.28608765014584
 30
0.0
 11
-16.81794937400695
 21
100.5958607408286
 31
0.0
  0
LINE
  5
94
330
43
100
AcDbEntity
  8
0
  6
Continuous
 62
     7
100
AcDbLine
 10
-17.04294937400695
 20
87.2374188874536
 30
0.0
 11
-17.04294937400695
 21
90.70152050259135
 31
0.0
  0
LINE
  5
95
330
43
100
AcDbEntity
  8
0
  6
Continuous
 62
     7
100
AcDbLine
 10
-18.33397477779139
 20
86.11935809084521
 30
0.0
 11
-18.33397477779139
 21
73.43615671105107
 31
0.0
  0
LINE
  5
96
330
43
100
AcDbEntity
  8
0
  6
Continuous
 62
     7
100
AcDbLine
 10
-16.81794937400695
 20
100.5958607408286
 30
0.0
 11
-20.28205098914471
 21
101.5958607408286
 31
0.0
  0
LINE
  5
97
330
43
100
AcDbEntity
  8
0
  6
Continuous
 62
     7
100
AcDbLine
 10
-22.16602558536027
 20
70.21224747477798
 30
0.0
 11
-22.16602558536026
 21
71.65562314775205
 31
0.0
  0
LINE
  5
98
330
43
100
AcDbEntity
  8
0
  6
Continuous
 62
     7
100
AcDbLine
 10
-21.89807639292915
 20
68.71224747477798
 30
0.0
 11
-22.16602558536027
 21
70.21224747477798
 31
0.0
  0
LINE
  5
99
330
43
100
AcDbEntity
  8
0
  6
Continuous
 62
     7
100
AcDbLine
 10
-22.56602558536027
 20
82.45429458138412
 30
0.0
 11
-22.56602558536027
 21
71.77109320158998
 31
0.0
  0
LINE
  5
9A
330
43
100
AcDbEntity
  8
0
  6
Continuous
 62
     7
100
AcDbLine
 10
-22.14294937400696
 20
82.82068932815297
 30
0.0
 11
-22.14294937400696
 21
86.71780364518294
 31
0.0
  0
LINE
  5
9B
330
43
100
AcDbEntity
  8
0
  6
Continuous
 62
     7
100
AcDbLine
 10
-20.8339747777914
 20
71.27109320158998
 30
0.0
 11
-20.8339747777914
 21
84.46354685257293
 31
0.0
  0
LINE
  5
9C
330
43
100
AcDbEntity
  8
0
  6
Continuous
 62
     7
100
AcDbLine
 10
-20.39294937400695
 20
84.33623378477573
 30
0.0
 11
-22.14294937400696
 21
84.84141527031665
 31
0.0
  0
LINE
  5
9D
330
43
100
AcDbEntity
  8
0
  6
Continuous
 62
     7
100
AcDbLine
 10
-22.14294937400696
 20
86.71780364518294
 30
0.0
 11
-20.39294937400695
 21
88.2333481018057
 31
0.0
  0
LINE
  5
9E
330
43
100
AcDbEntity
  8
0
  6
Continuous
 62
     7
100
AcDbLine
 10
-18.73397477779139
 20
73.0897465495373
 30
0.0
 11
-18.33397477779139
 21
73.43615671105107
 31
0.0
  0
LINE
  5
9F
330
43
100
AcDbEntity
  8
0
  6
Continuous
 62
     7
100
AcDbLine
 10
-18.73397477779139
 20
71.18449066121154
 30
0.0
 11
-18.73397477779139
 21
73.0897465495373
 31
0.0
  0
LINE
  5
A0
330
43
100
AcDbEntity
  8
0
  6
Continuous
 62
     7
100
AcDbLine
 10
-19.00192397022251
 20
69.22038904607378
 30
0.0
 11
-18.73397477779139
 21
71.18449066121154
 31
0.0
  0
LINE
  5
A1
330
43
100
AcDbEntity
  8
0
  6
Continuous
 62
     7
100
AcDbLine
 10
-22.16602558536027
 20
70.21224747477798
 30
0.0
 11
-20.43397477779139
 21
69.71224747477798
 31
0.0
  0
LINE
  5
A2
330
43
100
AcDbEntity
  8
0
  6
Continuous
 62
     7
100
AcDbLine
 10
-20.43397477779139
 20
71.61750336310375
 30
0.0
 11
-20.43397477779139
 21
69.71224747477798
 31
0.0
  0
LINE
  5
A3
330
43
100
AcDbEntity
  8
0
  6
Continuous
 62
     7
100
AcDbLine
 10
-20.39294937400695
 20
84.33623378477573
 30
0.0
 11
-20.39294937400695
 21
88.2333481018057
 31
0.0
  0
LINE
  5
A4
330
43
100
AcDbEntity
  8
0
  6
Continuous
 62
     7
100
AcDbLine
 10
-20.43397477779139
 20
71.61750336310375
 30
0.0
 11
-20.8339747777914
 21
71.27109320158998
 31
0.0
  0
LINE
  5
A5
330
43
100
AcDbEntity
  8
0
  6
Continuous
 62
     7
100
AcDbLine
 10
-20.8339747777914
 20
71.27109320158998
 30
0.0
 11
-22.56602558536027
 21
71.77109320158998
 31
0.0
  0
LINE
  5
A6
330
43
100
AcDbEntity
  8
0
  6
Continuous
 62
     7
100
AcDbLine
 10
-23.4339747777914
 20
81.70262853154458
 30
0.0
 11
-23.4339747777914
 21
69.01942715175043
 31
0.0
  0
LINE
  5
A7
330
43
100
AcDbEntity
  8
0
  6
Continuous
 62
     7
100
AcDbLine
 10
-23.8339747777914
 20
68.67301699023666
 30
0.0
 11
-23.4339747777914
 21
69.01942715175043
 31
0.0
  0
LINE
  5
A8
330
43
100
AcDbEntity
  8
0
  6
Continuous
 62
     7
100
AcDbLine
 10
-20.39294937400695
 20
84.33623378477573
 30
0.0
 11
-17.04294937400695
 21
87.2374188874536
 31
0.0
  0
LINE
  5
A9
330
43
100
AcDbEntity
  8
0
  6
Continuous
 62
     7
100
AcDbLine
 10
-20.43397477779139
 20
69.71224747477798
 30
0.0
 11
-20.16602558536027
 21
68.21224747477798
 31
0.0
  0
LINE
  5
AA
330
43
100
AcDbEntity
  8
0
  6
Continuous
 62
     7
100
AcDbLine
 10
-25.9339747777914
 20
66.85436364228934
 30
0.0
 11
-25.5339747777914
 21
67.20077380380312
 31
0.0
  0
LINE
  5
AB
330
43
100
AcDbEntity
  8
0
  6
Continuous
 62
     7
100
AcDbLine
 10
-23.8339747777914
 20
66.76776110191089
 30
0.0
 11
-23.8339747777914
 21
68.67301699023666
 31
0.0
  0
LINE
  5
AC
330
43
100
AcDbEntity
  8
0
  6
Continuous
 62
     7
100
AcDbLine
 10
-21.89807639292915
 20
68.71224747477798
 30
0.0
 11
-20.16602558536027
 21
68.21224747477798
 31
0.0
  0
LINE
  5
AD
330
43
100
AcDbEntity
  8
0
  6
Continuous
 62
     7
100
AcDbLine
 10
-20.16602558536027
 20
68.21224747477798
 30
0.0
 11
-19.00192397022251
 21
69.22038904607378
 31
0.0
  0
LINE
  5
AE
330
43
100
AcDbEntity
  8
0
  6
Continuous
 62
     7
100
AcDbLine
 10
-27.26602558536027
 20
65.79551791547735
 30
0.0
 11
-25.5339747777914
 21
65.29551791547735
 31
0.0
  0
LINE
  5
AF
330
43
100
AcDbEntity
  8
0
  6
Continuous
 62
     7
100
AcDbLine
 10
-26.99807639292915
 20
64.29551791547735
 30
0.0
 11
-27.26602558536027
 21
65.79551791547735
 31
0.0
  0
LINE
  5
B0
330
43
100
AcDbEntity
  8
0
  6
Continuous
 62
     7
100
AcDbLine
 10
-25.5339747777914
 20
67.20077380380312
 30
0.0
 11
-25.5339747777914
 21
65.29551791547735
 31
0.0
  0
LINE
  5
B1
330
43
100
AcDbEntity
  8
0
  6
Continuous
 62
     7
100
AcDbLine
 10
-24.10192397022252
 20
64.80365948677314
 30
0.0
 11
-23.8339747777914
 21
66.76776110191089
 31
0.0
  0
LINE
  5
B2
330
43
100
AcDbEntity
  8
0
  6
Continuous
 62
     7
100
AcDbLine
 10
-16.81794937400695
 20
100.5958607408286
 30
0.0
 11
-25.71794937400696
 21
92.88823464714707
 31
0.0
  0
ENDBLK
  5
45
330
43
100
AcDbEntity
  8
0
100
AcDbBlockEnd
  0
BLOCK
  5
48
330
46
100
AcDbEntity
  8
0
100
AcDbBlockBegin
  2
AllgSicht1
 70
     0
 10
-23.00000009078806
 20
82.00000029368994
 30
0.0
  3
AllgSicht1
  1

  0
INSERT
  5
47
330
46
100
AcDbEntity
  8
0
100
AcDbBlockReference
  2
3005947_FBS_2-10_select__1
 10
-29.18205098914472
 20
63.79551791547735
 30
0.0
  0
ENDBLK
  5
49
330
46
100
AcDbEntity
  8
0
100
AcDbBlockEnd
  0
BLOCK
  5
4B
330
4A
100
AcDbEntity
  8
0
100
AcDbBlockBegin
  2
3005947_FBS_2-10_select__2
 70
     0
 10
-44.5666397714939
 20
137.400000859861
 30
0.0
  3
3005947_FBS_2-10_select__2
  1

  0
LINE
  5
B3
330
4A
100
AcDbEntity
  8
0
  6
Continuous
 62
     7
100
AcDbLine
 10
-41.5666397714939
 20
139.400000859861
 30
0.0
 11
-41.5666397714939
 21
137.400000859861
 31
0.0
  0
LINE
  5
B4
330
4A
100
AcDbEntity
  8
0
  6
Continuous
 62
     7
100
AcDbLine
 10
-41.5666397714939
 20
141.600000859861
 30
0.0
 11
-41.5666397714939
 21
139.400000859861
 31
0.0
  0
LINE
  5
B5
330
4A
100
AcDbEntity
  8
0
  6
Continuous
 62
     7
100
AcDbLine
 10
-41.5666397714939
 20
141.600000859861
 30
0.0
 11
-41.5666397714939
 21
157.400000859861
 31
0.0
  0
LINE
  5
B6
330
4A
100
AcDbEntity
  8
0
  6
Continuous
 62
     7
100
AcDbLine
 10
-41.5666397714939
 20
139.400000859861
 30
0.0
 11
-43.5666397714939
 21
139.400000859861
 31
0.0
  0
LINE
  5
B7
330
4A
100
AcDbEntity
  8
0
  6
Continuous
 62
     7
100
AcDbLine
 10
-43.5666397714939
 20
141.600000859861
 30
0.0
 11
-41.5666397714939
 21
141.600000859861
 31
0.0
  0
LINE
  5
B8
330
4A
100
AcDbEntity
  8
0
  6
Continuous
 62
     7
100
AcDbLine
 10
-40.5666397714939
 20
161.400000859861
 30
0.0
 11
-40.5666397714939
 21
161.850000859861
 31
0.0
  0
LINE
  5
B9
330
4A
100
AcDbEntity
  8
0
  6
Continuous
 62
     7
100
AcDbLine
 10
-44.5666397714939
 20
172.600000859861
 30
0.0
 11
-40.5666397714939
 21
172.600000859861
 31
0.0
  0
LINE
  5
BA
330
4A
100
AcDbEntity
  8
0
  6
Continuous
 62
     7
100
AcDbLine
 10
-40.5666397714939
 20
161.850000859861
 30
0.0
 11
-40.5666397714939
 21
172.600000859861
 31
0.0
  0
LINE
  5
BB
330
4A
100
AcDbEntity
  8
0
  6
Continuous
 62
     7
100
AcDbLine
 10
-40.5666397714939
 20
161.850000859861
 30
0.0
 11
-44.5666397714939
 21
161.850000859861
 31
0.0
  0
LINE
  5
BC
330
4A
100
AcDbEntity
  8
0
  6
Continuous
 62
     7
100
AcDbLine
 10
-41.5666397714939
 20
137.400000859861
 30
0.0
 11
-43.5666397714939
 21
137.400000859861
 31
0.0
  0
LINE
  5
BD
330
4A
100
AcDbEntity
  8
0
  6
Continuous
 62
     7
100
AcDbLine
 10
-44.5666397714939
 20
161.850000859861
 30
0.0
 11
-44.5666397714939
 21
172.600000859861
 31
0.0
  0
LINE
  5
BE
330
4A
100
AcDbEntity
  8
0
  6
Continuous
 62
     7
100
AcDbLine
 10
-44.5666397714939
 20
161.400000859861
 30
0.0
 11
-44.5666397714939
 21
161.850000859861
 31
0.0
  0
LINE
  5
BF
330
4A
100
AcDbEntity
  8
0
  6
Continuous
 62
     7
100
AcDbLine
 10
-43.5666397714939
 20
137.400000859861
 30
0.0
 11
-43.5666397714939
 21
139.400000859861
 31
0.0
  0
LINE
  5
C0
330
4A
100
AcDbEntity
  8
0
  6
Continuous
 62
     7
100
AcDbLine
 10
-43.5666397714939
 20
139.400000859861
 30
0.0
 11
-43.5666397714939
 21
141.600000859861
 31
0.0
  0
LINE
  5
C1
330
4A
100
AcDbEntity
  8
0
  6
Continuous
 62
     7
100
AcDbLine
 10
-43.5666397714939
 20
157.400000859861
 30
0.0
 11
-41.5666397714939
 21
157.400000859861
 31
0.0
  0
LINE
  5
C2
330
4A
100
AcDbEntity
  8
0
  6
Continuous
 62
     7
100
AcDbLine
 10
-41.5666397714939
 20
157.400000859861
 30
0.0
 11
-40.5666397714939
 21
157.400000859861
 31
0.0
  0
LINE
  5
C3
330
4A
100
AcDbEntity
  8
0
  6
Continuous
 62
     7
100
AcDbLine
 10
-44.5666397714939
 20
157.400000859861
 30
0.0
 11
-43.5666397714939
 21
157.400000859861
 31
0.0
  0
LINE
  5
C4
330
4A
100
AcDbEntity
  8
0
  6
Continuous
 62
     7
100
AcDbLine
 10
-40.5666397714939
 20
157.400000859861
 30
0.0
 11
-40.5666397714939
 21
161.400000859861
 31
0.0
  0
LINE
  5
C5
330
4A
100
AcDbEntity
  8
0
  6
Continuous
 62
     7
100
AcDbLine
 10
-44.5666397714939
 20
161.400000859861
 30
0.0
 11
-40.5666397714939
 21
161.400000859861
 31
0.0
  0
LINE
  5
C6
330
4A
100
AcDbEntity
  8
0
  6
Continuous
 62
     7
100
AcDbLine
 10
-44.5666397714939
 20
157.400000859861
 30
0.0
 11
-44.5666397714939
 21
161.400000859861
 31
0.0
  0
LINE
  5
C7
330
4A
100
AcDbEntity
  8
0
  6
Continuous
 62
     7
100
AcDbLine
 10
-43.5666397714939
 20
157.400000859861
 30
0.0
 11
-43.5666397714939
 21
141.600000859861
 31
0.0
  0
ENDBLK
  5
4C
330
4A
100
AcDbEntity
  8
0
100
AcDbBlockEnd
  0
BLOCK
  5
4F
330
4D
100
AcDbEntity
  8
0
100
AcDbBlockBegin
  2
Rcksicht1
 70
     0
 10
-42.5666397714789
 20
155.0000004299299
 30
0.0
  3
Rcksicht1
  1

  0
INSERT
  5
4E
330
4D
100
AcDbEntity
  8
0
100
AcDbBlockReference
  2
3005947_FBS_2-10_select__2
 10
-44.5666397714939
 20
137.400000859861
 30
0.0
  0
ENDBLK
  5
50
330
4D
100
AcDbEntity
  8
0
100
AcDbBlockEnd
  0
BLOCK
  5
52
330
51
100
AcDbEntity
  8
0
100
AcDbBlockBegin
  2
3005947_FBS_2-10_select__3
 70
     0
 10
-187.7000003632035
 20
137.4000008598611
 30
0.0
  3
3005947_FBS_2-10_select__3
  1

  0
LINE
  5
C8
330
51
100
AcDbEntity
  8
0
  6
Continuous
 62
     7
100
AcDbLine
 10
-187.7000003632035
 20
161.8500008598611
 30
0.0
 11
-187.7000003632035
 21
172.6000008598611
 31
0.0
  0
LINE
  5
C9
330
51
100
AcDbEntity
  8
0
  6
Continuous
 62
     7
100
AcDbLine
 10
-187.2500003632035
 20
161.4000008598611
 30
0.0
 11
-187.2500003632035
 21
157.4000008598611
 31
0.0
  0
LINE
  5
CA
330
51
100
AcDbEntity
  8
0
  6
Continuous
 62
     7
100
AcDbLine
 10
-169.9000003632035
 20
172.6000008598611
 30
0.0
 11
-187.7000003632035
 21
172.6000008598611
 31
0.0
  0
LINE
  5
CB
330
51
100
AcDbEntity
  8
0
  6
Continuous
 62
     7
100
AcDbLine
 10
-175.4000003632035
 20
141.6000008598611
 30
0.0
 11
-176.2000003632035
 21
141.6000008598611
 31
0.0
  0
LINE
  5
CC
330
51
100
AcDbEntity
  8
0
  6
Continuous
 62
     7
100
AcDbLine
 10
-182.2000003632035
 20
141.6000008598611
 30
0.0
 11
-181.4000003632035
 21
141.6000008598611
 31
0.0
  0
LINE
  5
CD
330
51
100
AcDbEntity
  8
0
  6
Continuous
 62
     7
100
AcDbLine
 10
-172.0000003632035
 20
141.6000008598611
 30
0.0
 11
-171.2000003632035
 21
141.6000008598611
 31
0.0
  0
LINE
  5
CE
330
51
100
AcDbEntity
  8
0
  6
Continuous
 62
     7
100
AcDbLine
 10
-186.4000003632035
 20
157.4000008598611
 30
0.0
 11
-186.4000003632035
 21
141.6000008598611
 31
0.0
  0
LINE
  5
CF
330
51
100
AcDbEntity
  8
0
  6
Continuous
 62
     7
100
AcDbLine
 10
-187.2500003632035
 20
157.4000008598611
 30
0.0
 11
-186.4000003632035
 21
157.4000008598611
 31
0.0
  0
LINE
  5
D0
330
51
100
AcDbEntity
  8
0
  6
Continuous
 62
     7
100
AcDbLine
 10
-187.7000003632035
 20
161.8500008598611
 30
0.0
 11
-187.2500003632035
 21
161.4000008598611
 31
0.0
  0
LINE
  5
D1
330
51
100
AcDbEntity
  8
0
  6
Continuous
 62
     7
100
AcDbLine
 10
-182.2000003632035
 20
139.4000008598611
 30
0.0
 11
-182.2000003632035
 21
141.6000008598611
 31
0.0
  0
LINE
  5
D2
330
51
100
AcDbEntity
  8
0
  6
Continuous
 62
     7
100
AcDbLine
 10
-175.4000003632035
 20
141.6000008598611
 30
0.0
 11
-175.4000003632035
 21
139.4000008598611
 31
0.0
  0
LINE
  5
D3
330
51
100
AcDbEntity
  8
0
  6
Continuous
 62
     7
100
AcDbLine
 10
-186.4000003632035
 20
141.6000008598611
 30
0.0
 11
-185.6000003632035
 21
141.6000008598611
 31
0.0
  0
LINE
  5
D4
330
51
100
AcDbEntity
  8
0
  6
Continuous
 62
     7
100
AcDbLine
 10
-186.4000003632035
 20
157.4000008598611
 30
0.0
 11
-181.4000003632035
 21
157.4000008598611
 31
0.0
  0
LINE
  5
D5
330
51
100
AcDbEntity
  8
0
  6
Continuous
 62
     7
100
AcDbLine
 10
-185.6000003632035
 20
139.4000008598611
 30
0.0
 11
-185.0641019783412
 21
137.4000008598611
 31
0.0
  0
LINE
  5
D6
330
51
100
AcDbEntity
  8
0
  6
Continuous
 62
     7
100
AcDbLine
 10
-182.7358987480657
 20
137.4000008598611
 30
0.0
 11
-182.2000003632035
 21
139.4000008598611
 31
0.0
  0
LINE
  5
D7
330
51
100
AcDbEntity
  8
0
  6
Continuous
 62
     7
100
AcDbLine
 10
-175.4000003632035
 20
139.4000008598611
 30
0.0
 11
-174.8641019783412
 21
137.4000008598611
 31
0.0
  0
LINE
  5
D8
330
51
100
AcDbEntity
  8
0
  6
Continuous
 62
     7
100
AcDbLine
 10
-177.0500003632035
 20
157.4000008598611
 30
0.0
 11
-177.0500003632035
 21
161.9000008598611
 31
0.0
  0
LINE
  5
D9
330
51
100
AcDbEntity
  8
0
  6
Continuous
 62
     7
100
AcDbLine
 10
-180.5500003632035
 20
161.9000008598611
 30
0.0
 11
-177.0500003632035
 21
161.9000008598611
 31
0.0
  0
LINE
  5
DA
330
51
100
AcDbEntity
  8
0
  6
Continuous
 62
     7
100
AcDbLine
 10
-177.0500003632035
 20
157.4000008598611
 30
0.0
 11
-176.2000003632035
 21
157.4000008598611
 31
0.0
  0
LINE
  5
DB
330
51
100
AcDbEntity
  8
0
  6
Continuous
 62
     7
100
AcDbLine
 10
-181.4000003632035
 20
157.4000008598611
 30
0.0
 11
-180.5500003632035
 21
157.4000008598611
 31
0.0
  0
LINE
  5
DC
330
51
100
AcDbEntity
  8
0
  6
Continuous
 62
     7
100
AcDbLine
 10
-181.4000003632035
 20
157.4000008598611
 30
0.0
 11
-181.4000003632035
 21
141.6000008598611
 31
0.0
  0
LINE
  5
DD
330
51
100
AcDbEntity
  8
0
  6
Continuous
 62
     7
100
AcDbLine
 10
-176.2000003632035
 20
141.6000008598611
 30
0.0
 11
-176.2000003632035
 21
157.4000008598611
 31
0.0
  0
LINE
  5
DE
330
51
100
AcDbEntity
  8
0
  6
Continuous
 62
     7
100
AcDbLine
 10
-180.5500003632035
 20
157.4000008598611
 30
0.0
 11
-180.5500003632035
 21
161.9000008598611
 31
0.0
  0
LINE
  5
DF
330
51
100
AcDbEntity
  8
0
  6
Continuous
 62
     7
100
AcDbLine
 10
-185.6000003632035
 20
141.6000008598611
 30
0.0
 11
-185.6000003632035
 21
139.4000008598611
 31
0.0
  0
LINE
  5
E0
330
51
100
AcDbEntity
  8
0
  6
Continuous
 62
     7
100
AcDbLine
 10
-172.0000003632035
 20
139.4000008598611
 30
0.0
 11
-172.0000003632035
 21
141.6000008598611
 31
0.0
  0
LINE
  5
E1
330
51
100
AcDbEntity
  8
0
  6
Continuous
 62
     7
100
AcDbLine
 10
-171.2000003632035
 20
157.4000008598611
 30
0.0
 11
-171.2000003632035
 21
141.6000008598611
 31
0.0
  0
LINE
  5
E2
330
51
100
AcDbEntity
  8
0
  6
Continuous
 62
     7
100
AcDbLine
 10
-171.2000003632035
 20
157.4000008598611
 30
0.0
 11
-170.3500003632035
 21
157.4000008598611
 31
0.0
  0
LINE
  5
E3
330
51
100
AcDbEntity
  8
0
  6
Continuous
 62
     7
100
AcDbLine
 10
-176.2000003632035
 20
157.4000008598611
 30
0.0
 11
-171.2000003632035
 21
157.4000008598611
 31
0.0
  0
LINE
  5
E4
330
51
100
AcDbEntity
  8
0
  6
Continuous
 62
     7
100
AcDbLine
 10
-170.3500003632035
 20
157.4000008598611
 30
0.0
 11
-170.3500003632035
 21
161.4000008598611
 31
0.0
  0
LINE
  5
E5
330
51
100
AcDbEntity
  8
0
  6
Continuous
 62
     7
100
AcDbLine
 10
-170.3500003632035
 20
161.4000008598611
 30
0.0
 11
-169.9000003632035
 21
161.8500008598611
 31
0.0
  0
LINE
  5
E6
330
51
100
AcDbEntity
  8
0
  6
Continuous
 62
     7
100
AcDbLine
 10
-169.9000003632035
 20
161.8500008598611
 30
0.0
 11
-169.9000003632035
 21
172.6000008598611
 31
0.0
  0
LINE
  5
E7
330
51
100
AcDbEntity
  8
0
  6
Continuous
 62
     7
100
AcDbLine
 10
-185.0641019783412
 20
137.4000008598611
 30
0.0
 11
-182.7358987480657
 21
137.4000008598611
 31
0.0
  0
LINE
  5
E8
330
51
100
AcDbEntity
  8
0
  6
Continuous
 62
     7
100
AcDbLine
 10
-174.8641019783412
 20
137.4000008598611
 30
0.0
 11
-172.5358987480657
 21
137.4000008598611
 31
0.0
  0
LINE
  5
E9
330
51
100
AcDbEntity
  8
0
  6
Continuous
 62
     7
100
AcDbLine
 10
-172.5358987480657
 20
137.4000008598611
 30
0.0
 11
-172.0000003632035
 21
139.4000008598611
 31
0.0
  0
ENDBLK
  5
53
330
51
100
AcDbEntity
  8
0
100
AcDbBlockEnd
  0
BLOCK
  5
56
330
54
100
AcDbEntity
  8
0
100
AcDbBlockBegin
  2
SA_rechts1
 70
     0
 10
-178.8000001816019
 20
155.00000042993
 30
0.0
  3
SA_rechts1
  1

  0
INSERT
  5
55
330
54
100
AcDbEntity
  8
0
100
AcDbBlockReference
  2
3005947_FBS_2-10_select__3
 10
-187.7000003632035
 20
137.4000008598611
 30
0.0
  0
DIMENSION
  5
F5
330
54
100
AcDbEntity
  8
1
100
AcDbDimension
  2
*D16
 10
-209.988906314953
 20
172.6000008598611
 30
0.0
 11
-213.738906314953
 21
156.229923133558
 31
0.0
 70
    32
  1
<>
 71
     5
 42
-1.0
 53
90.0
  3
ME10_DIM_10
100
AcDbAlignedDimension
 13
-185.0641019783412
 23
137.4000008598611
 33
0.0
 14
-187.7000003632035
 24
172.6000008598611
 34
0.0
 50
90.0
100
AcDbRotatedDimension
  0
DIMENSION
  5
100
330
54
100
AcDbEntity
  8
1
100
AcDbDimension
  2
*D17
 10
-199.203998695878
 20
172.6000008598611
 30
0.0
 11
-203.128998695878
 21
165.122741696655
 31
0.0
 70
    32
  1
<>
 71
     5
 42
-1.0
 53
90.0
  3
ME10_DIM_11
100
AcDbAlignedDimension
 13
-181.4000003632035
 23
157.4000008598611
 33
0.0
 14
-187.7000003632035
 24
172.6000008598611
 34
0.0
 50
90.0
100
AcDbRotatedDimension
  0
DIMENSION
  5
10B
330
54
100
AcDbEntity
  8
1
100
AcDbDimension
  2
*D18
 10
-169.9000003632035
 20
182.6000008598611
 30
0.0
 11
-178.8000003632035
 21
186.5250008598611
 31
0.0
 70
    32
  1
<>
 71
     5
 42
-1.0
 53
0.00013888888889
  3
ME10_DIM_12
100
AcDbAlignedDimension
 13
-187.7000003632035
 23
172.6000008598611
 33
0.0
 14
-169.9000003632035
 24
172.6000008598611
 34
0.0
100
AcDbRotatedDimension
  0
ENDBLK
  5
57
330
54
100
AcDbEntity
  8
0
100
AcDbBlockEnd
  0
BLOCK
  5
59
330
58
100
AcDbEntity
  8
0
100
AcDbBlockBegin
  2
3005947_FBS_2-10_select__4
 70
     0
 10
-139.8999999999651
 20
137.4000008598611
 30
0.0
  3
3005947_FBS_2-10_select__4
  1

  0
LINE
  5
10C
330
58
100
AcDbEntity
  8
0
  6
Continuous
 62
     7
100
AcDbLine
 10
-135.8999999999651
 20
172.6000008598611
 30
0.0
 11
-139.8999999999651
 21
172.6000008598611
 31
0.0
  0
LINE
  5
10D
330
58
100
AcDbEntity
  8
0
  6
Continuous
 62
     7
100
AcDbLine
 10
-135.8999999999651
 20
161.8500008598611
 30
0.0
 11
-135.8999999999651
 21
172.6000008598611
 31
0.0
  0
LINE
  5
10E
330
58
100
AcDbEntity
  8
0
  6
Continuous
 62
     7
100
AcDbLine
 10
-139.8999999999651
 20
172.6000008598611
 30
0.0
 11
-139.8999999999651
 21
161.8500008598611
 31
0.0
  0
LINE
  5
10F
330
58
100
AcDbEntity
  8
0
  6
Continuous
 62
     7
100
AcDbLine
 10
-135.8999999999651
 20
161.8500008598611
 30
0.0
 11
-139.8999999999651
 21
161.8500008598611
 31
0.0
  0
LINE
  5
110
330
58
100
AcDbEntity
  8
0
  6
Continuous
 62
     7
100
AcDbLine
 10
-139.8999999999651
 20
161.4000008598611
 30
0.0
 11
-139.8999999999651
 21
161.8500008598611
 31
0.0
  0
LINE
  5
111
330
58
100
AcDbEntity
  8
0
  6
Continuous
 62
     7
100
AcDbLine
 10
-138.8999999999651
 20
157.4000008598611
 30
0.0
 11
-139.8999999999651
 21
157.4000008598611
 31
0.0
  0
LINE
  5
112
330
58
100
AcDbEntity
  8
0
  6
Continuous
 62
     7
100
AcDbLine
 10
-139.8999999999651
 20
157.4000008598611
 30
0.0
 11
-139.8999999999651
 21
161.4000008598611
 31
0.0
  0
LINE
  5
113
330
58
100
AcDbEntity
  8
0
  6
Continuous
 62
     7
100
AcDbLine
 10
-135.8999999999651
 20
161.4000008598611
 30
0.0
 11
-135.8999999999651
 21
161.8500008598611
 31
0.0
  0
LINE
  5
114
330
58
100
AcDbEntity
  8
0
  6
Continuous
 62
     7
100
AcDbLine
 10
-136.8999999999651
 20
157.4000008598611
 30
0.0
 11
-138.8999999999651
 21
157.4000008598611
 31
0.0
  0
LINE
  5
115
330
58
100
AcDbEntity
  8
0
  6
Continuous
 62
     7
100
AcDbLine
 10
-135.8999999999651
 20
157.4000008598611
 30
0.0
 11
-136.8999999999651
 21
157.4000008598611
 31
0.0
  0
LINE
  5
116
330
58
100
AcDbEntity
  8
0
  6
Continuous
 62
     7
100
AcDbLine
 10
-135.8999999999651
 20
157.4000008598611
 30
0.0
 11
-135.8999999999651
 21
161.4000008598611
 31
0.0
  0
LINE
  5
117
330
58
100
AcDbEntity
  8
0
  6
Continuous
 62
     7
100
AcDbLine
 10
-135.8999999999651
 20
161.4000008598611
 30
0.0
 11
-139.8999999999651
 21
161.4000008598611
 31
0.0
  0
LINE
  5
118
330
58
100
AcDbEntity
  8
0
  6
Continuous
 62
     7
100
AcDbLine
 10
-138.8999999999651
 20
139.4000008598611
 30
0.0
 11
-138.8999999999651
 21
141.6000008598611
 31
0.0
  0
LINE
  5
119
330
58
100
AcDbEntity
  8
0
  6
Continuous
 62
     7
100
AcDbLine
 10
-136.8999999999651
 20
141.6000008598611
 30
0.0
 11
-136.8999999999651
 21
139.4000008598611
 31
0.0
  0
LINE
  5
11A
330
58
100
AcDbEntity
  8
0
  6
Continuous
 62
     7
100
AcDbLine
 10
-138.8999999999651
 20
141.6000008598611
 30
0.0
 11
-136.8999999999651
 21
141.6000008598611
 31
0.0
  0
LINE
  5
11B
330
58
100
AcDbEntity
  8
0
  6
Continuous
 62
     7
100
AcDbLine
 10
-136.8999999999651
 20
157.4000008598611
 30
0.0
 11
-136.8999999999651
 21
141.6000008598611
 31
0.0
  0
LINE
  5
11C
330
58
100
AcDbEntity
  8
0
  6
Continuous
 62
     7
100
AcDbLine
 10
-138.8999999999651
 20
137.4000008598611
 30
0.0
 11
-136.8999999999651
 21
137.4000008598611
 31
0.0
  0
LINE
  5
11D
330
58
100
AcDbEntity
  8
0
  6
Continuous
 62
     7
100
AcDbLine
 10
-136.8999999999651
 20
139.4000008598611
 30
0.0
 11
-136.8999999999651
 21
137.4000008598611
 31
0.0
  0
LINE
  5
11E
330
58
100
AcDbEntity
  8
0
  6
Continuous
 62
     7
100
AcDbLine
 10
-138.8999999999651
 20
137.4000008598611
 30
0.0
 11
-138.8999999999651
 21
139.4000008598611
 31
0.0
  0
LINE
  5
11F
330
58
100
AcDbEntity
  8
0
  6
Continuous
 62
     7
100
AcDbLine
 10
-138.8999999999651
 20
139.4000008598611
 30
0.0
 11
-136.8999999999651
 21
139.4000008598611
 31
0.0
  0
LINE
  5
120
330
58
100
AcDbEntity
  8
0
  6
Continuous
 62
     7
100
AcDbLine
 10
-138.8999999999651
 20
141.6000008598611
 30
0.0
 11
-138.8999999999651
 21
157.4000008598611
 31
0.0
  0
ENDBLK
  5
5A
330
58
100
AcDbEntity
  8
0
100
AcDbBlockEnd
  0
BLOCK
  5
5D
330
5B
100
AcDbEntity
  8
0
100
AcDbBlockBegin
  2
Vordans1
 70
     0
 10
-137.89999999998
 20
155.00000042993
 30
0.0
  3
Vordans1
  1

  0
INSERT
  5
5C
330
5B
100
AcDbEntity
  8
0
100
AcDbBlockReference
  2
3005947_FBS_2-10_select__4
 10
-139.8999999999651
 20
137.4000008598611
 30
0.0
  0
DIMENSION
  5
12D
330
5B
100
AcDbEntity
  8
1
100
AcDbDimension
  2
*D19
 10
-139.8999999999651
 20
182.6000008598611
 30
0.0
 11
-129.700142445944
 21
186.3500008598611
 31
0.0
 70
    32
  1
<>
 71
     5
 42
-1.0
 53
0.00013888888889
  3
ME10_DIM_13
100
AcDbAlignedDimension
 13
-135.8999999999651
 23
172.6000008598611
 33
0.0
 14
-139.8999999999651
 24
172.6000008598611
 34
0.0
100
AcDbRotatedDimension
  0
DIMENSION
  5
13A
330
5B
100
AcDbEntity
  8
1
100
AcDbDimension
  2
*D20
 10
-138.8999999999651
 20
126.618729407501
 30
0.0
 11
-129.51441426403
 21
130.368729407501
 31
0.0
 70
    32
  1
<>
 71
     5
 42
-1.0
 53
0.00013888888889
  3
ME10_DIM_14
100
AcDbAlignedDimension
 13
-136.8999999999651
 23
141.6000008598611
 33
0.0
 14
-138.8999999999651
 24
141.6000008598611
 34
0.0
100
AcDbRotatedDimension
  0
ENDBLK
  5
5E
330
5B
100
AcDbEntity
  8
0
100
AcDbBlockEnd
  0
BLOCK
  5
60
330
5F
100
AcDbEntity
  8
0
100
AcDbBlockBegin
  2
3005947_FBS_2-10_select__5
 70
     0
 10
-139.8999999999651
 20
92.35058318332558
 30
0.0
  3
3005947_FBS_2-10_select__5
  1

  0
LINE
  5
13B
330
5F
100
AcDbEntity
  8
0
  6
Continuous
 62
     7
100
AcDbLine
 10
-135.8999999999651
 20
92.35058318332558
 30
0.0
 11
-139.8999999999651
 21
92.35058318332558
 31
0.0
  0
LINE
  5
13C
330
5F
100
AcDbEntity
  8
0
  6
Continuous
 62
     7
100
AcDbLine
 10
-139.8999999999651
 20
110.1505831833256
 30
0.0
 11
-139.8999999999651
 21
92.35058318332558
 31
0.0
  0
LINE
  5
13D
330
5F
100
AcDbEntity
  8
0
  6
Continuous
 62
     7
100
AcDbLine
 10
-135.8999999999651
 20
110.1505831833256
 30
0.0
 11
-139.8999999999651
 21
110.1505831833256
 31
0.0
  0
LINE
  5
13E
330
5F
100
AcDbEntity
  8
0
  6
Continuous
 62
     7
100
AcDbLine
 10
-135.8999999999651
 20
110.1505831833256
 30
0.0
 11
-135.8999999999651
 21
92.35058318332558
 31
0.0
  0
ENDBLK
  5
61
330
5F
100
AcDbEntity
  8
0
100
AcDbBlockEnd
  0
BLOCK
  5
64
330
62
100
AcDbEntity
  8
0
100
AcDbBlockBegin
  2
Drfsicht1
 70
     0
 10
-137.89999999998
 20
101.2505833649271
 30
0.0
  3
Drfsicht1
  1

  0
INSERT
  5
63
330
62
100
AcDbEntity
  8
0
100
AcDbBlockReference
  2
3005947_FBS_2-10_select__5
 10
-139.8999999999651
 20
92.35058318332558
 30
0.0
  0
ENDBLK
  5
65
330
62
100
AcDbEntity
  8
0
100
AcDbBlockEnd
  0
BLOCK
  5
67
330
66
100
AcDbEntity
  8
0
100
AcDbBlockBegin
  2
3005947_FBS_2-10_select__6
 70
     0
 10
-98.89999963679854
 20
137.400000859861
 30
0.0
  3
3005947_FBS_2-10_select__6
  1

  0
LINE
  5
13F
330
66
100
AcDbEntity
  8
0
  6
Continuous
 62
     7
100
AcDbLine
 10
-96.26410125193628
 20
137.400000859861
 30
0.0
 11
-93.93589802166078
 21
137.400000859861
 31
0.0
  0
LINE
  5
140
330
66
100
AcDbEntity
  8
0
  6
Continuous
 62
     7
100
AcDbLine
 10
-92.59999963679853
 20
141.600000859861
 30
0.0
 11
-93.39999963679854
 21
141.600000859861
 31
0.0
  0
LINE
  5
141
330
66
100
AcDbEntity
  8
0
  6
Continuous
 62
     7
100
AcDbLine
 10
-87.39999963679854
 20
141.600000859861
 30
0.0
 11
-86.59999963679853
 21
141.600000859861
 31
0.0
  0
LINE
  5
142
330
66
100
AcDbEntity
  8
0
  6
Continuous
 62
     7
100
AcDbLine
 10
-86.59999963679853
 20
141.600000859861
 30
0.0
 11
-86.59999963679853
 21
139.400000859861
 31
0.0
  0
LINE
  5
143
330
66
100
AcDbEntity
  8
0
  6
Continuous
 62
     7
100
AcDbLine
 10
-86.06410125193628
 20
137.400000859861
 30
0.0
 11
-83.73589802166077
 21
137.400000859861
 31
0.0
  0
LINE
  5
144
330
66
100
AcDbEntity
  8
0
  6
Continuous
 62
     7
100
AcDbLine
 10
-83.73589802166077
 20
137.400000859861
 30
0.0
 11
-83.19999963679854
 21
139.400000859861
 31
0.0
  0
LINE
  5
145
330
66
100
AcDbEntity
  8
0
  6
Continuous
 62
     7
100
AcDbLine
 10
-83.19999963679854
 20
139.400000859861
 30
0.0
 11
-83.19999963679854
 21
141.600000859861
 31
0.0
  0
LINE
  5
146
330
66
100
AcDbEntity
  8
0
  6
Continuous
 62
     7
100
AcDbLine
 10
-83.19999963679854
 20
141.600000859861
 30
0.0
 11
-82.39999963679853
 21
141.600000859861
 31
0.0
  0
LINE
  5
147
330
66
100
AcDbEntity
  8
0
  6
Continuous
 62
     7
100
AcDbLine
 10
-93.39999963679854
 20
139.400000859861
 30
0.0
 11
-93.39999963679854
 21
141.600000859861
 31
0.0
  0
LINE
  5
148
330
66
100
AcDbEntity
  8
0
  6
Continuous
 62
     7
100
AcDbLine
 10
-86.59999963679853
 20
139.400000859861
 30
0.0
 11
-86.06410125193628
 21
137.400000859861
 31
0.0
  0
LINE
  5
149
330
66
100
AcDbEntity
  8
0
  6
Continuous
 62
     7
100
AcDbLine
 10
-93.93589802166078
 20
137.400000859861
 30
0.0
 11
-93.39999963679854
 21
139.400000859861
 31
0.0
  0
LINE
  5
14A
330
66
100
AcDbEntity
  8
0
  6
Continuous
 62
     7
100
AcDbLine
 10
-98.44999963679854
 20
157.400000859861
 30
0.0
 11
-98.44999963679854
 21
161.400000859861
 31
0.0
  0
LINE
  5
14B
330
66
100
AcDbEntity
  8
0
  6
Continuous
 62
     7
100
AcDbLine
 10
-98.44999963679854
 20
161.400000859861
 30
0.0
 11
-98.89999963679854
 21
161.850000859861
 31
0.0
  0
LINE
  5
14C
330
66
100
AcDbEntity
  8
0
  6
Continuous
 62
     7
100
AcDbLine
 10
-97.59999963679854
 20
141.600000859861
 30
0.0
 11
-97.59999963679853
 21
157.400000859861
 31
0.0
  0
LINE
  5
14D
330
66
100
AcDbEntity
  8
0
  6
Continuous
 62
     7
100
AcDbLine
 10
-97.59999963679854
 20
141.600000859861
 30
0.0
 11
-96.79999963679853
 21
141.600000859861
 31
0.0
  0
LINE
  5
14E
330
66
100
AcDbEntity
  8
0
  6
Continuous
 62
     7
100
AcDbLine
 10
-96.79999963679853
 20
141.600000859861
 30
0.0
 11
-96.79999963679853
 21
139.400000859861
 31
0.0
  0
LINE
  5
14F
330
66
100
AcDbEntity
  8
0
  6
Continuous
 62
     7
100
AcDbLine
 10
-97.59999963679853
 20
157.400000859861
 30
0.0
 11
-98.44999963679854
 21
157.400000859861
 31
0.0
  0
LINE
  5
150
330
66
100
AcDbEntity
  8
0
  6
Continuous
 62
     7
100
AcDbLine
 10
-91.74999963679853
 20
157.400000859861
 30
0.0
 11
-92.59999963679853
 21
157.400000859861
 31
0.0
  0
LINE
  5
151
330
66
100
AcDbEntity
  8
0
  6
Continuous
 62
     7
100
AcDbLine
 10
-92.59999963679853
 20
157.400000859861
 30
0.0
 11
-97.59999963679853
 21
157.400000859861
 31
0.0
  0
LINE
  5
152
330
66
100
AcDbEntity
  8
0
  6
Continuous
 62
     7
100
AcDbLine
 10
-88.24999963679853
 20
161.900000859861
 30
0.0
 11
-91.74999963679853
 21
161.900000859861
 31
0.0
  0
LINE
  5
153
330
66
100
AcDbEntity
  8
0
  6
Continuous
 62
     7
100
AcDbLine
 10
-91.74999963679853
 20
157.400000859861
 30
0.0
 11
-91.74999963679853
 21
161.900000859861
 31
0.0
  0
LINE
  5
154
330
66
100
AcDbEntity
  8
0
  6
Continuous
 62
     7
100
AcDbLine
 10
-88.24999963679853
 20
157.400000859861
 30
0.0
 11
-88.24999963679853
 21
161.900000859861
 31
0.0
  0
LINE
  5
155
330
66
100
AcDbEntity
  8
0
  6
Continuous
 62
     7
100
AcDbLine
 10
-87.39999963679854
 20
141.600000859861
 30
0.0
 11
-87.39999963679854
 21
157.400000859861
 31
0.0
  0
LINE
  5
156
330
66
100
AcDbEntity
  8
0
  6
Continuous
 62
     7
100
AcDbLine
 10
-92.59999963679853
 20
157.400000859861
 30
0.0
 11
-92.59999963679853
 21
141.600000859861
 31
0.0
  0
LINE
  5
157
330
66
100
AcDbEntity
  8
0
  6
Continuous
 62
     7
100
AcDbLine
 10
-81.09999963679853
 20
161.850000859861
 30
0.0
 11
-81.54999963679853
 21
161.400000859861
 31
0.0
  0
LINE
  5
158
330
66
100
AcDbEntity
  8
0
  6
Continuous
 62
     7
100
AcDbLine
 10
-98.89999963679854
 20
161.850000859861
 30
0.0
 11
-98.89999963679853
 21
172.600000859861
 31
0.0
  0
LINE
  5
159
330
66
100
AcDbEntity
  8
0
  6
Continuous
 62
     7
100
AcDbLine
 10
-98.89999963679853
 20
172.600000859861
 30
0.0
 11
-81.09999963679853
 21
172.600000859861
 31
0.0
  0
LINE
  5
15A
330
66
100
AcDbEntity
  8
0
  6
Continuous
 62
     7
100
AcDbLine
 10
-81.09999963679853
 20
172.600000859861
 30
0.0
 11
-81.09999963679853
 21
161.850000859861
 31
0.0
  0
LINE
  5
15B
330
66
100
AcDbEntity
  8
0
  6
Continuous
 62
     7
100
AcDbLine
 10
-87.39999963679854
 20
157.400000859861
 30
0.0
 11
-88.24999963679853
 21
157.400000859861
 31
0.0
  0
LINE
  5
15C
330
66
100
AcDbEntity
  8
0
  6
Continuous
 62
     7
100
AcDbLine
 10
-81.54999963679853
 20
157.400000859861
 30
0.0
 11
-82.39999963679853
 21
157.400000859861
 31
0.0
  0
LINE
  5
15D
330
66
100
AcDbEntity
  8
0
  6
Continuous
 62
     7
100
AcDbLine
 10
-82.39999963679853
 20
157.400000859861
 30
0.0
 11
-87.39999963679854
 21
157.400000859861
 31
0.0
  0
LINE
  5
15E
330
66
100
AcDbEntity
  8
0
  6
Continuous
 62
     7
100
AcDbLine
 10
-81.54999963679853
 20
161.400000859861
 30
0.0
 11
-81.54999963679853
 21
157.400000859861
 31
0.0
  0
LINE
  5
15F
330
66
100
AcDbEntity
  8
0
  6
Continuous
 62
     7
100
AcDbLine
 10
-82.39999963679853
 20
141.600000859861
 30
0.0
 11
-82.39999963679853
 21
157.400000859861
 31
0.0
  0
LINE
  5
160
330
66
100
AcDbEntity
  8
0
  6
Continuous
 62
     7
100
AcDbLine
 10
-96.79999963679853
 20
139.400000859861
 30
0.0
 11
-96.26410125193628
 21
137.400000859861
 31
0.0
  0
ENDBLK
  5
68
330
66
100
AcDbEntity
  8
0
100
AcDbBlockEnd
  0
BLOCK
  5
6B
330
69
100
AcDbEntity
  8
0
100
AcDbBlockBegin
  2
SA_links1
 70
     0
 10
-89.99999981840006
 20
155.0000004299299
 30
0.0
  3
SA_links1
  1

  0
INSERT
  5
6A
330
69
100
AcDbEntity
  8
0
100
AcDbBlockReference
  2
3005947_FBS_2-10_select__6
 10
-98.89999963679854
 20
137.400000859861
 30
0.0
  0
ENDBLK
  5
6C
330
69
100
AcDbEntity
  8
0
100
AcDbBlockEnd
  0
BLOCK
  5
6E
330
6D
100
AcDbEntity
  8
0
100
AcDbBlockBegin
  2
_punkt
 70
     0
 10
27.86373607321741
 20
28.03768800767501
 30
0.0
  3
_punkt
  1

  0
LINE
  5
161
330
6D
100
AcDbEntity
  8
1
  6
Continuous
 62
     2
100
AcDbLine
 10
25.28824625070507
 20
17.40177505239511
 30
0.0
 11
30.28824625070408
 21
17.40177505239511
 31
0.0
  0
LINE
  5
162
330
6D
100
AcDbEntity
  8
1
  6
Continuous
 62
     2
100
AcDbLine
 10
25.28824625070507
 20
17.40177505239511
 30
0.0
 11
25.28824625070507
 21
12.401775052395
 31
0.0
  0
ENDBLK
  5
6F
330
6D
100
AcDbEntity
  8
0
100
AcDbBlockEnd
  0
BLOCK
  5
71
330
70
100
AcDbEntity
  8
0
100
AcDbBlockBegin
  2
_rahmen
 70
     0
 10
27.86373607321741
 20
23.0376880076749
 30
0.0
  3
_rahmen
  1

  0
POINT
  5
163
330
70
100
AcDbEntity
  8
1
 62
     3
 60
     1
100
AcDbPoint
 10
-38.21175374929255
 20
38.65177505239497
 30
0.0
  0
LINE
  5
164
330
70
100
AcDbEntity
  8
1
  6
Continuous
 62
     2
100
AcDbLine
 10
-3.27701706450594
 20
32.85155577336224
 30
0.0
 11
-3.27701706450594
 21
30.79415980850874
 31
0.0
  0
LINE
  5
165
330
70
100
AcDbEntity
  8
1
  6
Continuous
 62
     7
100
AcDbLine
 10
-38.21175374929255
 20
34.401775052395
 30
0.0
 11
-36.21175374929255
 21
34.401775052395
 31
0.0
  0
LINE
  5
166
330
70
100
AcDbEntity
  8
1
  6
Continuous
 62
     7
100
AcDbLine
 10
-38.21175374929255
 20
38.65177505239497
 30
0.0
 11
-44.95655827604492
 21
38.65177505239494
 31
0.0
  0
LINE
  5
167
330
70
100
AcDbEntity
  8
1
  6
Continuous
 62
     2
100
AcDbLine
 10
-95.97628914152958
 20
30.776775052395
 30
0.0
 11
-95.97628914152958
 21
33.776775052395
 31
0.0
  0
LINE
  5
168
330
70
100
AcDbEntity
  8
1
  6
Continuous
 62
     2
100
AcDbLine
 10
-91.97628914152958
 20
31.276775052395
 30
0.0
 11
-95.97628914152958
 21
30.776775052395
 31
0.0
  0
LINE
  5
169
330
70
100
AcDbEntity
  8
1
  6
Continuous
 62
     2
100
AcDbLine
 10
-91.97628914152958
 20
33.276775052395
 30
0.0
 11
-91.97628914152958
 21
31.276775052395
 31
0.0
  0
LINE
  5
16A
330
70
100
AcDbEntity
  8
1
  6
Continuous
 62
     2
100
AcDbLine
 10
-95.97628914152958
 20
33.776775052395
 30
0.0
 11
-91.97628914152958
 21
33.276775052395
 31
0.0
  0
LINE
  5
16B
330
70
100
AcDbEntity
  8
1
  6
Continuous
 62
     6
100
AcDbLine
 10
-226.7117537492931
 20
17.40177505239511
 30
0.0
 11
-261.7117537492929
 21
17.40177505239511
 31
0.0
  0
LINE
  5
16C
330
70
100
AcDbEntity
  8
1
  6
Continuous
 62
     6
100
AcDbLine
 10
25.28824625070678
 20
47.151775052395
 30
0.0
 11
25.28824625070588
 21
38.651775052395
 31
0.0
  0
LINE
  5
16D
330
70
100
AcDbEntity
  8
1
  6
Continuous
 62
     6
100
AcDbLine
 10
-226.7117537492931
 20
30.151775052395
 30
0.0
 11
-226.7117537492931
 21
34.401775052395
 31
0.0
  0
LINE
  5
16E
330
70
100
AcDbEntity
  8
1
  6
Continuous
 62
     7
100
AcDbLine
 10
-104.2565582760448
 20
42.901775052395
 30
0.0
 11
-94.85655827604486
 21
42.901775052395
 31
0.0
  0
LINE
  5
16F
330
70
100
AcDbEntity
  8
1
  6
Continuous
 62
     6
100
AcDbLine
 10
-94.85655827604486
 20
47.151775052395
 30
0.0
 11
-104.2565582760448
 21
47.151775052395
 31
0.0
  0
LINE
  5
170
330
70
100
AcDbEntity
  8
1
  6
Continuous
 62
     7
100
AcDbLine
 10
-94.85655827604486
 20
34.40177505239511
 30
0.0
 11
-104.2565582760448
 21
34.401775052395
 31
0.0
  0
LINE
  5
171
330
70
100
AcDbEntity
  8
1
  6
Continuous
 62
     2
100
AcDbLine
 10
-144.7565582760449
 20
30.151775052395
 30
0.0
 11
-207.0117537492951
 21
30.151775052395
 31
0.0
  0
LINE
  5
172
330
70
100
AcDbEntity
  8
1
  6
Continuous
 62
     2
100
AcDbLine
 10
-144.7565582760449
 20
30.151775052395
 30
0.0
 11
-144.7565582760449
 21
25.901775052395
 31
0.0
  0
LINE
  5
173
330
70
100
AcDbEntity
  8
1
  6
Continuous
 62
     2
100
AcDbLine
 10
-144.7565582760449
 20
42.901775052395
 30
0.0
 11
-144.7565582760449
 21
38.651775052395
 31
0.0
  0
LINE
  5
174
330
70
100
AcDbEntity
  8
1
  6
Continuous
 62
     2
100
AcDbLine
 10
-144.7565582760449
 20
38.651775052395
 30
0.0
 11
-144.7565582760449
 21
34.401775052395
 31
0.0
  0
LINE
  5
175
330
70
100
AcDbEntity
  8
1
  6
Continuous
 62
     2
100
AcDbLine
 10
-144.7565582760449
 20
34.401775052395
 30
0.0
 11
-207.0117537492951
 21
34.401775052395
 31
0.0
  0
LINE
  5
176
330
70
100
AcDbEntity
  8
1
  6
Continuous
 62
     2
100
AcDbLine
 10
-144.7565582760449
 20
34.401775052395
 30
0.0
 11
-144.7565582760449
 21
30.151775052395
 31
0.0
  0
LINE
  5
177
330
70
100
AcDbEntity
  8
1
  6
Continuous
 62
     7
100
AcDbLine
 10
-144.7565582760449
 20
21.65177505239511
 30
0.0
 11
-131.2565582760449
 21
21.65177505239511
 31
0.0
  0
LINE
  5
178
330
70
100
AcDbEntity
  8
1
  6
Continuous
 62
     2
100
AcDbLine
 10
-144.7565582760449
 20
21.65177505239511
 30
0.0
 11
-144.7565582760449
 21
17.401775052395
 31
0.0
  0
LINE
  5
179
330
70
100
AcDbEntity
  8
1
  6
Continuous
 62
     2
100
AcDbLine
 10
-144.7565582760449
 20
25.901775052395
 30
0.0
 11
-207.0117537492951
 21
25.901775052395
 31
0.0
  0
LINE
  5
17A
330
70
100
AcDbEntity
  8
1
  6
Continuous
 62
     2
100
AcDbLine
 10
-144.7565582760449
 20
25.901775052395
 30
0.0
 11
-144.7565582760449
 21
21.65177505239511
 31
0.0
  0
LINE
  5
17B
330
70
100
AcDbEntity
  8
1
  6
Continuous
 62
     6
100
AcDbLine
 10
-144.7565582760449
 20
17.401775052395
 30
0.0
 11
-131.2565582760449
 21
17.401775052395
 31
0.0
  0
LINE
  5
17C
330
70
100
AcDbEntity
  8
1
  6
Continuous
 62
     2
100
AcDbLine
 10
-131.2565582760449
 20
30.151775052395
 30
0.0
 11
-144.7565582760449
 21
30.151775052395
 31
0.0
  0
LINE
  5
17D
330
70
100
AcDbEntity
  8
1
  6
Continuous
 62
     2
100
AcDbLine
 10
-131.2565582760449
 20
30.151775052395
 30
0.0
 11
-131.2565582760449
 21
25.901775052395
 31
0.0
  0
LINE
  5
17E
330
70
100
AcDbEntity
  8
1
  6
Continuous
 62
     2
100
AcDbLine
 10
-131.2565582760449
 20
42.901775052395
 30
0.0
 11
-144.7565582760449
 21
42.901775052395
 31
0.0
  0
LINE
  5
17F
330
70
100
AcDbEntity
  8
1
  6
Continuous
 62
     2
100
AcDbLine
 10
-131.2565582760449
 20
42.901775052395
 30
0.0
 11
-131.2565582760449
 21
38.651775052395
 31
0.0
  0
LINE
  5
180
330
70
100
AcDbEntity
  8
1
  6
Continuous
 62
     2
100
AcDbLine
 10
-131.2565582760449
 20
38.651775052395
 30
0.0
 11
-144.7565582760449
 21
38.651775052395
 31
0.0
  0
LINE
  5
181
330
70
100
AcDbEntity
  8
1
  6
Continuous
 62
     2
100
AcDbLine
 10
-131.2565582760449
 20
38.651775052395
 30
0.0
 11
-131.2565582760449
 21
34.401775052395
 31
0.0
  0
LINE
  5
182
330
70
100
AcDbEntity
  8
1
  6
Continuous
 62
     2
100
AcDbLine
 10
-131.2565582760449
 20
34.401775052395
 30
0.0
 11
-144.7565582760449
 21
34.401775052395
 31
0.0
  0
LINE
  5
183
330
70
100
AcDbEntity
  8
1
  6
Continuous
 62
     2
100
AcDbLine
 10
-131.2565582760449
 20
34.401775052395
 30
0.0
 11
-131.2565582760449
 21
30.151775052395
 31
0.0
  0
LINE
  5
184
330
70
100
AcDbEntity
  8
1
  6
Continuous
 62
     7
100
AcDbLine
 10
-131.2565582760449
 20
21.65177505239511
 30
0.0
 11
-117.7565582760449
 21
21.65177505239511
 31
0.0
  0
LINE
  5
185
330
70
100
AcDbEntity
  8
1
  6
Continuous
 62
     2
100
AcDbLine
 10
-131.2565582760449
 20
21.65177505239511
 30
0.0
 11
-131.2565582760449
 21
17.401775052395
 31
0.0
  0
LINE
  5
186
330
70
100
AcDbEntity
  8
1
  6
Continuous
 62
     2
100
AcDbLine
 10
-131.2565582760449
 20
25.901775052395
 30
0.0
 11
-144.7565582760449
 21
25.901775052395
 31
0.0
  0
LINE
  5
187
330
70
100
AcDbEntity
  8
1
  6
Continuous
 62
     2
100
AcDbLine
 10
-131.2565582760449
 20
25.901775052395
 30
0.0
 11
-131.2565582760449
 21
21.65177505239511
 31
0.0
  0
LINE
  5
188
330
70
100
AcDbEntity
  8
1
  6
Continuous
 62
     6
100
AcDbLine
 10
-131.2565582760449
 20
17.401775052395
 30
0.0
 11
-118.2117537492949
 21
17.40177505239511
 31
0.0
  0
LINE
  5
189
330
70
100
AcDbEntity
  8
1
  6
Continuous
 62
     2
100
AcDbLine
 10
-117.7565582760449
 20
30.151775052395
 30
0.0
 11
-131.2565582760449
 21
30.151775052395
 31
0.0
  0
LINE
  5
18A
330
70
100
AcDbEntity
  8
1
  6
Continuous
 62
     2
100
AcDbLine
 10
-117.7565582760449
 20
30.151775052395
 30
0.0
 11
-117.7565582760449
 21
25.901775052395
 31
0.0
  0
LINE
  5
18B
330
70
100
AcDbEntity
  8
1
  6
Continuous
 62
     2
100
AcDbLine
 10
-117.7565582760449
 20
42.901775052395
 30
0.0
 11
-131.2565582760449
 21
42.901775052395
 31
0.0
  0
LINE
  5
18C
330
70
100
AcDbEntity
  8
1
  6
Continuous
 62
     2
100
AcDbLine
 10
-117.7565582760449
 20
42.901775052395
 30
0.0
 11
-117.7565582760449
 21
38.651775052395
 31
0.0
  0
LINE
  5
18D
330
70
100
AcDbEntity
  8
1
  6
Continuous
 62
     2
100
AcDbLine
 10
-117.7565582760449
 20
38.651775052395
 30
0.0
 11
-131.2565582760449
 21
38.651775052395
 31
0.0
  0
LINE
  5
18E
330
70
100
AcDbEntity
  8
1
  6
Continuous
 62
     2
100
AcDbLine
 10
-117.7565582760449
 20
38.651775052395
 30
0.0
 11
-117.7565582760449
 21
34.401775052395
 31
0.0
  0
LINE
  5
18F
330
70
100
AcDbEntity
  8
1
  6
Continuous
 62
     2
100
AcDbLine
 10
-117.7565582760449
 20
34.401775052395
 30
0.0
 11
-131.2565582760449
 21
34.401775052395
 31
0.0
  0
LINE
  5
190
330
70
100
AcDbEntity
  8
1
  6
Continuous
 62
     2
100
AcDbLine
 10
-117.7565582760449
 20
34.401775052395
 30
0.0
 11
-117.7565582760449
 21
30.151775052395
 31
0.0
  0
LINE
  5
191
330
70
100
AcDbEntity
  8
1
  6
Continuous
 62
     7
100
AcDbLine
 10
-117.7565582760449
 20
21.65177505239511
 30
0.0
 11
-104.2565582760448
 21
21.65177505239511
 31
0.0
  0
LINE
  5
192
330
70
100
AcDbEntity
  8
1
  6
Continuous
 62
     2
100
AcDbLine
 10
-117.7565582760449
 20
21.65177505239511
 30
0.0
 11
-117.7565582760449
 21
17.401775052395
 31
0.0
  0
LINE
  5
193
330
70
100
AcDbEntity
  8
1
  6
Continuous
 62
     2
100
AcDbLine
 10
-117.7565582760449
 20
25.901775052395
 30
0.0
 11
-131.2565582760449
 21
25.901775052395
 31
0.0
  0
LINE
  5
194
330
70
100
AcDbEntity
  8
1
  6
Continuous
 62
     2
100
AcDbLine
 10
-117.7565582760449
 20
25.901775052395
 30
0.0
 11
-117.7565582760449
 21
21.65177505239511
 31
0.0
  0
LINE
  5
195
330
70
100
AcDbEntity
  8
1
  6
Continuous
 62
     6
100
AcDbLine
 10
-117.7565582760449
 20
17.401775052395
 30
0.0
 11
-104.2565582760448
 21
17.401775052395
 31
0.0
  0
LINE
  5
196
330
70
100
AcDbEntity
  8
1
  6
Continuous
 62
     6
100
AcDbLine
 10
25.28824625070686
 20
34.401775052395
 30
0.0
 11
25.28824625070638
 21
25.901775052395
 31
0.0
  0
LINE
  5
197
330
70
100
AcDbEntity
  8
1
  6
Continuous
 62
     7
100
AcDbLine
 10
-44.95655827604492
 20
38.65177505239494
 30
0.0
 11
-67.85655827604494
 21
38.651775052395
 31
0.0
  0
LINE
  5
198
330
70
100
AcDbEntity
  8
1
  6
Continuous
 62
     7
100
AcDbLine
 10
-81.35655827604495
 20
38.651775052395
 30
0.0
 11
-67.85655827604494
 21
38.651775052395
 31
0.0
  0
LINE
  5
199
330
70
100
AcDbEntity
  8
1
  6
Continuous
 62
     6
100
AcDbLine
 10
-67.85655827604494
 20
17.401775052395
 30
0.0
 11
-68.21175374929493
 21
17.40177505239511
 31
0.0
  0
LINE
  5
19A
330
70
100
AcDbEntity
  8
1
  6
Continuous
 62
     2
100
AcDbLine
 10
-207.0117537492951
 20
38.651775052395
 30
0.0
 11
-144.7565582760449
 21
38.651775052395
 31
0.0
  0
LINE
  5
19B
330
70
100
AcDbEntity
  8
1
  6
Continuous
 62
     2
100
AcDbLine
 10
-207.0117537492951
 20
42.901775052395
 30
0.0
 11
-144.7565582760449
 21
42.901775052395
 31
0.0
  0
LINE
  5
19C
330
70
100
AcDbEntity
  8
1
  6
Continuous
 62
     6
100
AcDbLine
 10
-144.7565582760449
 20
47.151775052395
 30
0.0
 11
-207.0117537492951
 21
47.151775052395
 31
0.0
  0
LINE
  5
19D
330
70
100
AcDbEntity
  8
1
  6
Continuous
 62
     6
100
AcDbLine
 10
-226.7117537492931
 20
25.901775052395
 30
0.0
 11
-226.7117537492931
 21
30.151775052395
 31
0.0
  0
LINE
  5
19E
330
70
100
AcDbEntity
  8
1
  6
Continuous
 62
     6
100
AcDbLine
 10
-226.7117537492931
 20
34.401775052395
 30
0.0
 11
-226.7117537492931
 21
38.651775052395
 31
0.0
  0
LINE
  5
19F
330
70
100
AcDbEntity
  8
1
  6
Continuous
 62
     6
100
AcDbLine
 10
-226.7117537492931
 20
38.651775052395
 30
0.0
 11
-226.7117537492931
 21
42.901775052395
 31
0.0
  0
LINE
  5
1A0
330
70
100
AcDbEntity
  8
1
  6
Continuous
 62
     6
100
AcDbLine
 10
-226.7117537492931
 20
42.901775052395
 30
0.0
 11
-226.7117537492931
 21
47.151775052395
 31
0.0
  0
LINE
  5
1A1
330
70
100
AcDbEntity
  8
1
  6
Continuous
 62
     6
100
AcDbLine
 10
-220.5117537492951
 20
17.401775052395
 30
0.0
 11
-226.7117537492931
 21
17.40177505239511
 31
0.0
  0
LINE
  5
1A2
330
70
100
AcDbEntity
  8
1
  6
Continuous
 62
     7
100
AcDbLine
 10
-38.21175374929255
 20
34.401775052395
 30
0.0
 11
-38.21175374929255
 21
25.901775052395
 31
0.0
  0
LINE
  5
1A3
330
70
100
AcDbEntity
  8
1
  6
Continuous
 62
     7
100
AcDbLine
 10
-38.21175374929255
 20
34.401775052395
 30
0.0
 11
-19.71175374929293
 21
34.401775052395
 31
0.0
  0
LINE
  5
1A4
330
70
100
AcDbEntity
  8
1
  6
Continuous
 62
     7
100
AcDbLine
 10
-1.51175374929292
 20
38.65177505239511
 30
0.0
 11
-38.21175374929255
 21
38.65177505239497
 31
0.0
  0
LINE
  5
1A5
330
70
100
AcDbEntity
  8
1
  6
Continuous
 62
     7
100
AcDbLine
 10
-1.51175374929292
 20
38.65177505239511
 30
0.0
 11
7.40665453238597
 21
38.651775052395
 31
0.0
  0
LINE
  5
1A6
330
70
100
AcDbEntity
  8
1
  6
Continuous
 62
     7
100
AcDbLine
 10
-67.85655827604494
 20
34.401775052395
 30
0.0
 11
-38.21175374929255
 21
34.401775052395
 31
0.0
  0
LINE
  5
1A7
330
70
100
AcDbEntity
  8
1
  6
Continuous
 62
     7
100
AcDbLine
 10
-67.85655827604494
 20
25.901775052395
 30
0.0
 11
-38.21175374929255
 21
25.901775052395
 31
0.0
  0
LINE
  5
1A8
330
70
100
AcDbEntity
  8
1
  6
Continuous
 62
     7
100
AcDbLine
 10
-104.2565582760448
 20
47.151775052395
 30
0.0
 11
-104.2565582760448
 21
42.901775052395
 31
0.0
  0
LINE
  5
1A9
330
70
100
AcDbEntity
  8
1
  6
Continuous
 62
     7
100
AcDbLine
 10
-104.2565582760448
 20
21.65177505239511
 30
0.0
 11
-104.2565582760448
 21
17.401775052395
 31
0.0
  0
LINE
  5
1AA
330
70
100
AcDbEntity
  8
1
  6
Continuous
 62
     7
100
AcDbLine
 10
-67.85655827604494
 20
21.65177505239511
 30
0.0
 11
-67.85655827604494
 21
17.401775052395
 31
0.0
  0
LINE
  5
1AB
330
70
100
AcDbEntity
  8
1
  6
Continuous
 62
     7
100
AcDbLine
 10
-67.85655827604494
 20
34.401775052395
 30
0.0
 11
-81.35655827604495
 21
34.401775052395
 31
0.0
  0
LINE
  5
1AC
330
70
100
AcDbEntity
  8
1
  6
Continuous
 62
     7
100
AcDbLine
 10
-104.2565582760448
 20
38.651775052395
 30
0.0
 11
-94.85655827604486
 21
38.651775052395
 31
0.0
  0
LINE
  5
1AD
330
70
100
AcDbEntity
  8
1
  6
Continuous
 62
     7
100
AcDbLine
 10
-94.85655827604486
 20
42.901775052395
 30
0.0
 11
-94.85655827604486
 21
38.651775052395
 31
0.0
  0
LINE
  5
1AE
330
70
100
AcDbEntity
  8
1
  6
Continuous
 62
     7
100
AcDbLine
 10
-81.35655827604495
 20
42.901775052395
 30
0.0
 11
-81.35655827604495
 21
38.651775052395
 31
0.0
  0
LINE
  5
1AF
330
70
100
AcDbEntity
  8
1
  6
Continuous
 62
     7
100
AcDbLine
 10
-104.2565582760448
 20
25.901775052395
 30
0.0
 11
-104.2565582760448
 21
21.65177505239511
 31
0.0
  0
LINE
  5
1B0
330
70
100
AcDbEntity
  8
1
  6
Continuous
 62
     7
100
AcDbLine
 10
-104.2565582760448
 20
30.151775052395
 30
0.0
 11
-104.2565582760448
 21
25.901775052395
 31
0.0
  0
LINE
  5
1B1
330
70
100
AcDbEntity
  8
1
  6
Continuous
 62
     7
100
AcDbLine
 10
-67.85655827604494
 20
25.901775052395
 30
0.0
 11
-67.85655827604494
 21
21.65177505239511
 31
0.0
  0
LINE
  5
1B2
330
70
100
AcDbEntity
  8
1
  6
Continuous
 62
     7
100
AcDbLine
 10
-226.7117537492931
 20
21.65177505239511
 30
0.0
 11
-220.5117537492951
 21
21.65177505239511
 31
0.0
  0
LINE
  5
1B3
330
70
100
AcDbEntity
  8
1
  6
Continuous
 62
     2
100
AcDbLine
 10
-226.7117537492931
 20
30.151775052395
 30
0.0
 11
-220.5117537492951
 21
30.151775052395
 31
0.0
  0
LINE
  5
1B4
330
70
100
AcDbEntity
  8
1
  6
Continuous
 62
     2
100
AcDbLine
 10
-226.7117537492931
 20
25.901775052395
 30
0.0
 11
-220.5117537492951
 21
25.901775052395
 31
0.0
  0
LINE
  5
1B5
330
70
100
AcDbEntity
  8
1
  6
Continuous
 62
     2
100
AcDbLine
 10
-220.5117537492951
 20
17.401775052395
 30
0.0
 11
-220.5117537492951
 21
21.65177505239511
 31
0.0
  0
LINE
  5
1B6
330
70
100
AcDbEntity
  8
1
  6
Continuous
 62
     7
100
AcDbLine
 10
-94.85655827604486
 20
47.151775052395
 30
0.0
 11
-94.85655827604486
 21
42.901775052395
 31
0.0
  0
LINE
  5
1B7
330
70
100
AcDbEntity
  8
1
  6
Continuous
 62
     7
100
AcDbLine
 10
-81.35655827604495
 20
47.151775052395
 30
0.0
 11
-81.35655827604495
 21
42.901775052395
 31
0.0
  0
LINE
  5
1B8
330
70
100
AcDbEntity
  8
1
  6
Continuous
 62
     7
100
AcDbLine
 10
-67.85655827604494
 20
38.651775052395
 30
0.0
 11
-67.85655827604494
 21
34.401775052395
 31
0.0
  0
LINE
  5
1B9
330
70
100
AcDbEntity
  8
1
  6
Continuous
 62
     7
100
AcDbLine
 10
-104.2565582760448
 20
42.901775052395
 30
0.0
 11
-104.2565582760448
 21
38.651775052395
 31
0.0
  0
LINE
  5
1BA
330
70
100
AcDbEntity
  8
1
  6
Continuous
 62
     2
100
AcDbLine
 10
-226.7117537492931
 20
38.651775052395
 30
0.0
 11
-220.5117537492951
 21
38.651775052395
 31
0.0
  0
LINE
  5
1BB
330
70
100
AcDbEntity
  8
1
  6
Continuous
 62
     7
100
AcDbLine
 10
-104.2565582760448
 20
38.651775052395
 30
0.0
 11
-104.2565582760448
 21
34.401775052395
 31
0.0
  0
LINE
  5
1BC
330
70
100
AcDbEntity
  8
1
  6
Continuous
 62
     7
100
AcDbLine
 10
-104.2565582760448
 20
34.401775052395
 30
0.0
 11
-104.2565582760448
 21
30.151775052395
 31
0.0
  0
LINE
  5
1BD
330
70
100
AcDbEntity
  8
1
  6
Continuous
 62
     6
100
AcDbLine
 10
-94.85655827604486
 20
47.151775052395
 30
0.0
 11
-81.35655827604495
 21
47.151775052395
 31
0.0
  0
LINE
  5
1BE
330
70
100
AcDbEntity
  8
1
  6
Continuous
 62
     7
100
AcDbLine
 10
-67.85655827604494
 20
47.151775052395
 30
0.0
 11
-67.85655827604494
 21
42.901775052395
 31
0.0
  0
LINE
  5
1BF
330
70
100
AcDbEntity
  8
1
  6
Continuous
 62
     6
100
AcDbLine
 10
-81.35655827604495
 20
47.151775052395
 30
0.0
 11
-67.85655827604494
 21
47.151775052395
 31
0.0
  0
LINE
  5
1C0
330
70
100
AcDbEntity
  8
1
  6
Continuous
 62
     7
100
AcDbLine
 10
-67.85655827604494
 20
25.901775052395
 30
0.0
 11
-67.85655827604494
 21
30.151775052395
 31
0.0
  0
LINE
  5
1C1
330
70
100
AcDbEntity
  8
1
  6
Continuous
 62
     2
100
AcDbLine
 10
-220.5117537492951
 20
21.65177505239511
 30
0.0
 11
-220.5117537492951
 21
25.901775052395
 31
0.0
  0
LINE
  5
1C2
330
70
100
AcDbEntity
  8
1
  6
Continuous
 62
     7
100
AcDbLine
 10
-220.5117537492951
 20
21.65177505239511
 30
0.0
 11
-207.0117537492951
 21
21.65177505239511
 31
0.0
  0
LINE
  5
1C3
330
70
100
AcDbEntity
  8
1
  6
Continuous
 62
     2
100
AcDbLine
 10
-220.5117537492951
 20
30.151775052395
 30
0.0
 11
-220.5117537492951
 21
34.401775052395
 31
0.0
  0
LINE
  5
1C4
330
70
100
AcDbEntity
  8
1
  6
Continuous
 62
     2
100
AcDbLine
 10
-220.5117537492951
 20
25.901775052395
 30
0.0
 11
-220.5117537492951
 21
30.151775052395
 31
0.0
  0
LINE
  5
1C5
330
70
100
AcDbEntity
  8
1
  6
Continuous
 62
     2
100
AcDbLine
 10
-104.2565582760448
 20
30.151775052395
 30
0.0
 11
-117.7565582760449
 21
30.151775052395
 31
0.0
  0
LINE
  5
1C6
330
70
100
AcDbEntity
  8
1
  6
Continuous
 62
     2
100
AcDbLine
 10
-104.2565582760448
 20
25.901775052395
 30
0.0
 11
-117.7565582760449
 21
25.901775052395
 31
0.0
  0
LINE
  5
1C7
330
70
100
AcDbEntity
  8
1
  6
Continuous
 62
     6
100
AcDbLine
 10
-104.2565582760448
 20
47.151775052395
 30
0.0
 11
-117.7565582760449
 21
47.151775052395
 31
0.0
  0
LINE
  5
1C8
330
70
100
AcDbEntity
  8
1
  6
Continuous
 62
     2
100
AcDbLine
 10
-220.5117537492951
 20
42.901775052395
 30
0.0
 11
-226.7117537492931
 21
42.901775052395
 31
0.0
  0
LINE
  5
1C9
330
70
100
AcDbEntity
  8
1
  6
Continuous
 62
     2
100
AcDbLine
 10
-220.5117537492951
 20
42.901775052395
 30
0.0
 11
-220.5117537492951
 21
47.151775052395
 31
0.0
  0
LINE
  5
1CA
330
70
100
AcDbEntity
  8
1
  6
Continuous
 62
     2
100
AcDbLine
 10
-104.2565582760448
 20
42.901775052395
 30
0.0
 11
-117.7565582760449
 21
42.901775052395
 31
0.0
  0
LINE
  5
1CB
330
70
100
AcDbEntity
  8
1
  6
Continuous
 62
     2
100
AcDbLine
 10
-220.5117537492951
 20
38.651775052395
 30
0.0
 11
-220.5117537492951
 21
42.901775052395
 31
0.0
  0
LINE
  5
1CC
330
70
100
AcDbEntity
  8
1
  6
Continuous
 62
     2
100
AcDbLine
 10
-104.2565582760448
 20
38.651775052395
 30
0.0
 11
-117.7565582760449
 21
38.651775052395
 31
0.0
  0
LINE
  5
1CD
330
70
100
AcDbEntity
  8
1
  6
Continuous
 62
     2
100
AcDbLine
 10
-220.5117537492951
 20
34.401775052395
 30
0.0
 11
-226.7117537492931
 21
34.401775052395
 31
0.0
  0
LINE
  5
1CE
330
70
100
AcDbEntity
  8
1
  6
Continuous
 62
     2
100
AcDbLine
 10
-220.5117537492951
 20
34.401775052395
 30
0.0
 11
-220.5117537492951
 21
38.651775052395
 31
0.0
  0
LINE
  5
1CF
330
70
100
AcDbEntity
  8
1
  6
Continuous
 62
     2
100
AcDbLine
 10
-104.2565582760448
 20
34.401775052395
 30
0.0
 11
-117.7565582760449
 21
34.401775052395
 31
0.0
  0
LINE
  5
1D0
330
70
100
AcDbEntity
  8
1
  6
Continuous
 62
     7
100
AcDbLine
 10
-81.35655827604495
 20
38.651775052395
 30
0.0
 11
-94.85655827604486
 21
38.651775052395
 31
0.0
  0
LINE
  5
1D1
330
70
100
AcDbEntity
  8
1
  6
Continuous
 62
     7
100
AcDbLine
 10
-94.85655827604486
 20
38.651775052395
 30
0.0
 11
-94.85655827604486
 21
34.40177505239511
 31
0.0
  0
LINE
  5
1D2
330
70
100
AcDbEntity
  8
1
  6
Continuous
 62
     7
100
AcDbLine
 10
-81.35655827604495
 20
38.651775052395
 30
0.0
 11
-81.35655827604495
 21
34.401775052395
 31
0.0
  0
LINE
  5
1D3
330
70
100
AcDbEntity
  8
1
  6
Continuous
 62
     6
100
AcDbLine
 10
-226.7117537492931
 20
21.65177505239511
 30
0.0
 11
-226.7117537492931
 21
25.901775052395
 31
0.0
  0
LINE
  5
1D4
330
70
100
AcDbEntity
  8
1
  6
Continuous
 62
     6
100
AcDbLine
 10
-226.7117537492931
 20
17.40177505239511
 30
0.0
 11
-226.7117537492931
 21
21.65177505239511
 31
0.0
  0
LINE
  5
1D5
330
70
100
AcDbEntity
  8
1
  6
Continuous
 62
     6
100
AcDbLine
 10
-220.5117537492951
 20
47.151775052395
 30
0.0
 11
-226.7117537492931
 21
47.151775052395
 31
0.0
  0
LINE
  5
1D6
330
70
100
AcDbEntity
  8
1
  6
Continuous
 62
     7
100
AcDbLine
 10
-44.95655827604492
 20
47.151775052395
 30
0.0
 11
-44.95655827604492
 21
38.65177505239494
 31
0.0
  0
LINE
  5
1D7
330
70
100
AcDbEntity
  8
1
  6
Continuous
 62
     6
100
AcDbLine
 10
-1.51175374929323
 20
47.151775052395
 30
0.0
 11
-44.95655827604492
 21
47.151775052395
 31
0.0
  0
LINE
  5
1D8
330
70
100
AcDbEntity
  8
1
  6
Continuous
 62
     6
100
AcDbLine
 10
-67.85655827604494
 20
47.151775052395
 30
0.0
 11
-44.95655827604492
 21
47.151775052395
 31
0.0
  0
LINE
  5
1D9
330
70
100
AcDbEntity
  8
1
  6
Continuous
 62
     7
100
AcDbLine
 10
-67.85655827604494
 20
21.65177505239511
 30
0.0
 11
-86.05655827604497
 21
21.65177505239511
 31
0.0
  0
LINE
  5
1DA
330
70
100
AcDbEntity
  8
1
  6
Continuous
 62
     7
100
AcDbLine
 10
-81.35655827604495
 20
34.401775052395
 30
0.0
 11
-94.85655827604486
 21
34.40177505239511
 31
0.0
  0
LINE
  5
1DB
330
70
100
AcDbEntity
  8
1
  6
Continuous
 62
     7
100
AcDbLine
 10
-86.05655827604497
 20
21.65177505239511
 30
0.0
 11
-104.2565582760448
 21
21.65177505239511
 31
0.0
  0
LINE
  5
1DC
330
70
100
AcDbEntity
  8
1
  6
Continuous
 62
     7
100
AcDbLine
 10
-86.05655827604497
 20
21.65177505239511
 30
0.0
 11
-86.05655827604497
 21
17.40177505239511
 31
0.0
  0
LINE
  5
1DD
330
70
100
AcDbEntity
  8
1
  6
Continuous
 62
     2
100
AcDbLine
 10
-144.7565582760449
 20
47.151775052395
 30
0.0
 11
-144.7565582760449
 21
42.901775052395
 31
0.0
  0
LINE
  5
1DE
330
70
100
AcDbEntity
  8
1
  6
Continuous
 62
     6
100
AcDbLine
 10
-131.2565582760449
 20
47.151775052395
 30
0.0
 11
-144.7565582760449
 21
47.151775052395
 31
0.0
  0
LINE
  5
1DF
330
70
100
AcDbEntity
  8
1
  6
Continuous
 62
     6
100
AcDbLine
 10
-117.7565582760449
 20
47.151775052395
 30
0.0
 11
-131.2565582760449
 21
47.151775052395
 31
0.0
  0
LINE
  5
1E0
330
70
100
AcDbEntity
  8
1
  6
Continuous
 62
     2
100
AcDbLine
 10
-131.2565582760449
 20
47.151775052395
 30
0.0
 11
-131.2565582760449
 21
42.901775052395
 31
0.0
  0
LINE
  5
1E1
330
70
100
AcDbEntity
  8
1
  6
Continuous
 62
     2
100
AcDbLine
 10
-117.7565582760449
 20
47.151775052395
 30
0.0
 11
-117.7565582760449
 21
42.901775052395
 31
0.0
  0
LINE
  5
1E2
330
70
100
AcDbEntity
  8
1
  6
Continuous
 62
     7
100
AcDbLine
 10
-19.71175374929293
 20
34.401775052395
 30
0.0
 11
-19.71175374929293
 21
25.901775052395
 31
0.0
  0
LINE
  5
1E3
330
70
100
AcDbEntity
  8
1
  6
Continuous
 62
     7
100
AcDbLine
 10
-19.71175374929293
 20
25.901775052395
 30
0.0
 11
-38.21175374929255
 21
25.901775052395
 31
0.0
  0
LINE
  5
1E4
330
70
100
AcDbEntity
  8
1
  6
Continuous
 62
     7
100
AcDbLine
 10
-1.51175374929323
 20
47.151775052395
 30
0.0
 11
-1.51175374929292
 21
38.65177505239511
 31
0.0
  0
LINE
  5
1E5
330
70
100
AcDbEntity
  8
1
  6
Continuous
 62
     6
100
AcDbLine
 10
-1.51175374929323
 20
47.151775052395
 30
0.0
 11
7.40665453238597
 21
47.151775052395
 31
0.0
  0
LINE
  5
1E6
330
70
100
AcDbEntity
  8
1
  6
Continuous
 62
     7
100
AcDbLine
 10
7.40665453238597
 20
38.651775052395
 30
0.0
 11
7.40665453238597
 21
47.151775052395
 31
0.0
  0
LINE
  5
1E7
330
70
100
AcDbEntity
  8
1
  6
Continuous
 62
     7
100
AcDbLine
 10
-81.35655827604495
 20
42.901775052395
 30
0.0
 11
-94.85655827604486
 21
42.901775052395
 31
0.0
  0
LINE
  5
1E8
330
70
100
AcDbEntity
  8
1
  6
Continuous
 62
     7
100
AcDbLine
 10
-81.35655827604495
 20
42.901775052395
 30
0.0
 11
-67.85655827604494
 21
42.901775052395
 31
0.0
  0
LINE
  5
1E9
330
70
100
AcDbEntity
  8
1
  6
Continuous
 62
     7
100
AcDbLine
 10
-67.85655827604494
 20
42.901775052395
 30
0.0
 11
-67.85655827604494
 21
38.651775052395
 31
0.0
  0
LINE
  5
1EA
330
70
100
AcDbEntity
  8
1
  6
Continuous
 62
     7
100
AcDbLine
 10
-19.71175374929293
 20
34.401775052395
 30
0.0
 11
25.28824625070686
 21
34.401775052395
 31
0.0
  0
LINE
  5
1EB
330
70
100
AcDbEntity
  8
1
  6
Continuous
 62
     7
100
AcDbLine
 10
25.28824625070588
 20
38.651775052395
 30
0.0
 11
7.40665453238597
 21
38.651775052395
 31
0.0
  0
LINE
  5
1EC
330
70
100
AcDbEntity
  8
1
  6
Continuous
 62
     7
100
AcDbLine
 10
25.28824625070638
 20
25.901775052395
 30
0.0
 11
-19.71175374929293
 21
25.901775052395
 31
0.0
  0
LINE
  5
1ED
330
70
100
AcDbEntity
  8
1
  6
Continuous
 62
     6
100
AcDbLine
 10
25.28824625070678
 20
47.151775052395
 30
0.0
 11
7.40665453238597
 21
47.151775052395
 31
0.0
  0
LINE
  5
1EE
330
70
100
AcDbEntity
  8
1
  6
Continuous
 62
     6
100
AcDbLine
 10
-144.7565582760449
 20
17.401775052395
 30
0.0
 11
-168.2117537492951
 21
17.40177505239511
 31
0.0
  0
LINE
  5
1EF
330
70
100
AcDbEntity
  8
1
  6
Continuous
 62
     6
100
AcDbLine
 10
-220.5117537492951
 20
17.401775052395
 30
0.0
 11
-218.211753749295
 21
17.40177505239511
 31
0.0
  0
LINE
  5
1F0
330
70
100
AcDbEntity
  8
1
  6
Continuous
 62
     6
100
AcDbLine
 10
-104.2565582760448
 20
17.401775052395
 30
0.0
 11
-86.05655827604497
 21
17.40177505239511
 31
0.0
  0
LINE
  5
1F1
330
70
100
AcDbEntity
  8
1
  6
Continuous
 62
     6
100
AcDbLine
 10
-67.85655827604494
 20
17.401775052395
 30
0.0
 11
-18.21175374929492
 21
17.40177505239511
 31
0.0
  0
LINE
  5
1F2
330
70
100
AcDbEntity
  8
1
  6
Continuous
 62
     6
100
AcDbLine
 10
25.28824625070588
 20
38.651775052395
 30
0.0
 11
25.28824625070686
 21
34.401775052395
 31
0.0
  0
LINE
  5
1F3
330
70
100
AcDbEntity
  8
1
  6
Continuous
 62
     6
100
AcDbLine
 10
25.28824625070507
 20
17.40177505239511
 30
0.0
 11
25.28824625070638
 21
25.901775052395
 31
0.0
  0
LINE
  5
1F4
330
70
100
AcDbEntity
  8
1
  6
Continuous
 62
     2
100
AcDbLine
 10
-207.0117537492951
 20
47.151775052395
 30
0.0
 11
-207.0117537492951
 21
42.901775052395
 31
0.0
  0
LINE
  5
1F5
330
70
100
AcDbEntity
  8
1
  6
Continuous
 62
     6
100
AcDbLine
 10
-207.0117537492951
 20
47.151775052395
 30
0.0
 11
-220.5117537492951
 21
47.151775052395
 31
0.0
  0
LINE
  5
1F6
330
70
100
AcDbEntity
  8
1
  6
Continuous
 62
     2
100
AcDbLine
 10
-207.0117537492951
 20
42.901775052395
 30
0.0
 11
-207.0117537492951
 21
38.651775052395
 31
0.0
  0
LINE
  5
1F7
330
70
100
AcDbEntity
  8
1
  6
Continuous
 62
     2
100
AcDbLine
 10
-207.0117537492951
 20
38.651775052395
 30
0.0
 11
-207.0117537492951
 21
34.401775052395
 31
0.0
  0
LINE
  5
1F8
330
70
100
AcDbEntity
  8
1
  6
Continuous
 62
     2
100
AcDbLine
 10
-207.0117537492951
 20
38.651775052395
 30
0.0
 11
-220.5117537492951
 21
38.651775052395
 31
0.0
  0
LINE
  5
1F9
330
70
100
AcDbEntity
  8
1
  6
Continuous
 62
     2
100
AcDbLine
 10
-207.0117537492951
 20
42.901775052395
 30
0.0
 11
-220.5117537492951
 21
42.901775052395
 31
0.0
  0
LINE
  5
1FA
330
70
100
AcDbEntity
  8
1
  6
Continuous
 62
     2
100
AcDbLine
 10
-207.0117537492951
 20
30.151775052395
 30
0.0
 11
-207.0117537492951
 21
25.901775052395
 31
0.0
  0
LINE
  5
1FB
330
70
100
AcDbEntity
  8
1
  6
Continuous
 62
     2
100
AcDbLine
 10
-207.0117537492951
 20
30.151775052395
 30
0.0
 11
-220.5117537492951
 21
30.151775052395
 31
0.0
  0
LINE
  5
1FC
330
70
100
AcDbEntity
  8
1
  6
Continuous
 62
     2
100
AcDbLine
 10
-207.0117537492951
 20
34.401775052395
 30
0.0
 11
-207.0117537492951
 21
30.151775052395
 31
0.0
  0
LINE
  5
1FD
330
70
100
AcDbEntity
  8
1
  6
Continuous
 62
     2
100
AcDbLine
 10
-207.0117537492951
 20
34.401775052395
 30
0.0
 11
-220.5117537492951
 21
34.401775052395
 31
0.0
  0
LINE
  5
1FE
330
70
100
AcDbEntity
  8
1
  6
Continuous
 62
     2
100
AcDbLine
 10
-207.0117537492951
 20
25.901775052395
 30
0.0
 11
-207.0117537492951
 21
21.65177505239511
 31
0.0
  0
LINE
  5
1FF
330
70
100
AcDbEntity
  8
1
  6
Continuous
 62
     2
100
AcDbLine
 10
-207.0117537492951
 20
25.901775052395
 30
0.0
 11
-220.5117537492951
 21
25.901775052395
 31
0.0
  0
LINE
  5
200
330
70
100
AcDbEntity
  8
1
  6
Continuous
 62
     2
100
AcDbLine
 10
-207.0117537492951
 20
21.65177505239511
 30
0.0
 11
-207.0117537492951
 21
17.40177505239511
 31
0.0
  0
LINE
  5
201
330
70
100
AcDbEntity
  8
1
  6
Continuous
 62
     7
100
AcDbLine
 10
-207.0117537492951
 20
21.65177505239511
 30
0.0
 11
-144.7565582760449
 21
21.65177505239511
 31
0.0
  0
LINE
  5
202
330
70
100
AcDbEntity
  8
1
  6
Continuous
 62
     2
100
AcDbLine
 10
-266.7117537492941
 20
17.40177505239511
 30
0.0
 11
-266.7117537492941
 21
12.401775052395
 31
0.0
  0
LINE
  5
203
330
70
100
AcDbEntity
  8
1
  6
Continuous
 62
     2
100
AcDbLine
 10
-261.7117537492929
 20
17.40177505239511
 30
0.0
 11
-266.7117537492941
 21
17.40177505239511
 31
0.0
  0
LINE
  5
204
330
70
100
AcDbEntity
  8
1
  6
Continuous
 62
     2
100
AcDbLine
 10
-261.7117537492929
 20
12.401775052395
 30
0.0
 11
-218.211753749295
 21
12.401775052395
 31
0.0
  0
LINE
  5
205
330
70
100
AcDbEntity
  8
1
  6
Continuous
 62
     2
100
AcDbLine
 10
-261.7117537492929
 20
17.40177505239511
 30
0.0
 11
-261.7117537492929
 21
12.401775052395
 31
0.0
  0
LINE
  5
206
330
70
100
AcDbEntity
  8
1
  6
Continuous
 62
     2
100
AcDbLine
 10
-18.21175374929492
 20
12.401775052395
 30
0.0
 11
-68.21175374929493
 21
12.401775052395
 31
0.0
  0
LINE
  5
207
330
70
100
AcDbEntity
  8
1
  6
Continuous
 62
     2
100
AcDbLine
 10
-18.21175374929492
 20
12.401775052395
 30
0.0
 11
-18.21175374929492
 21
17.40177505239511
 31
0.0
  0
LINE
  5
208
330
70
100
AcDbEntity
  8
1
  6
Continuous
 62
     2
100
AcDbLine
 10
-68.21175374929493
 20
12.401775052395
 30
0.0
 11
-68.21175374929493
 21
17.40177505239511
 31
0.0
  0
LINE
  5
209
330
70
100
AcDbEntity
  8
1
  6
Continuous
 62
     2
100
AcDbLine
 10
-118.2117537492949
 20
12.401775052395
 30
0.0
 11
-68.21175374929493
 21
12.401775052395
 31
0.0
  0
LINE
  5
20A
330
70
100
AcDbEntity
  8
1
  6
Continuous
 62
     2
100
AcDbLine
 10
-118.2117537492949
 20
12.401775052395
 30
0.0
 11
-118.2117537492949
 21
17.40177505239511
 31
0.0
  0
LINE
  5
20B
330
70
100
AcDbEntity
  8
1
  6
Continuous
 62
     2
100
AcDbLine
 10
-168.2117537492951
 20
12.401775052395
 30
0.0
 11
-118.2117537492949
 21
12.401775052395
 31
0.0
  0
LINE
  5
20C
330
70
100
AcDbEntity
  8
1
  6
Continuous
 62
     2
100
AcDbLine
 10
-168.2117537492951
 20
12.401775052395
 30
0.0
 11
-168.2117537492951
 21
17.40177505239511
 31
0.0
  0
LINE
  5
20D
330
70
100
AcDbEntity
  8
1
  6
Continuous
 62
     2
100
AcDbLine
 10
-218.211753749295
 20
12.401775052395
 30
0.0
 11
-168.2117537492951
 21
12.401775052395
 31
0.0
  0
LINE
  5
20E
330
70
100
AcDbEntity
  8
1
  6
Continuous
 62
     2
100
AcDbLine
 10
-218.211753749295
 20
12.401775052395
 30
0.0
 11
-218.211753749295
 21
17.40177505239511
 31
0.0
  0
LINE
  5
20F
330
70
100
AcDbEntity
  8
1
  6
Continuous
 62
     6
100
AcDbLine
 10
-261.7117537492932
 20
67.40177505239511
 30
0.0
 11
-261.7117537492929
 21
17.40177505239511
 31
0.0
  0
LINE
  5
210
330
70
100
AcDbEntity
  8
1
  6
Continuous
 62
     2
100
AcDbLine
 10
-266.7117537492941
 20
67.40177505239511
 30
0.0
 11
-266.7117537492941
 21
17.40177505239511
 31
0.0
  0
LINE
  5
211
330
70
100
AcDbEntity
  8
1
  6
Continuous
 62
     2
100
AcDbLine
 10
-266.7117537492941
 20
67.40177505239511
 30
0.0
 11
-261.7117537492932
 21
67.40177505239511
 31
0.0
  0
LINE
  5
212
330
70
100
AcDbEntity
  8
1
  6
Continuous
 62
     6
100
AcDbLine
 10
-261.7117537492935
 20
117.4017750523949
 30
0.0
 11
-261.7117537492932
 21
67.40177505239511
 31
0.0
  0
LINE
  5
213
330
70
100
AcDbEntity
  8
1
  6
Continuous
 62
     2
100
AcDbLine
 10
-266.7117537492941
 20
117.4017750523949
 30
0.0
 11
-266.7117537492941
 21
67.40177505239511
 31
0.0
  0
LINE
  5
214
330
70
100
AcDbEntity
  8
1
  6
Continuous
 62
     2
100
AcDbLine
 10
-266.7117537492941
 20
117.4017750523949
 30
0.0
 11
-261.7117537492935
 21
117.4017750523949
 31
0.0
  0
LINE
  5
215
330
70
100
AcDbEntity
  8
1
  6
Continuous
 62
     6
100
AcDbLine
 10
-261.7117537492939
 20
167.401775052395
 30
0.0
 11
-261.7117537492935
 21
117.4017750523949
 31
0.0
  0
LINE
  5
216
330
70
100
AcDbEntity
  8
1
  6
Continuous
 62
     2
100
AcDbLine
 10
-266.7117537492941
 20
167.401775052395
 30
0.0
 11
-266.7117537492941
 21
117.4017750523949
 31
0.0
  0
LINE
  5
217
330
70
100
AcDbEntity
  8
1
  6
Continuous
 62
     2
100
AcDbLine
 10
-266.7117537492941
 20
167.401775052395
 30
0.0
 11
-261.7117537492939
 21
167.401775052395
 31
0.0
  0
LINE
  5
218
330
70
100
AcDbEntity
  8
1
  6
Continuous
 62
     6
100
AcDbLine
 10
-261.7117537492941
 20
202.401775052395
 30
0.0
 11
-261.7117537492939
 21
167.401775052395
 31
0.0
  0
LINE
  5
219
330
70
100
AcDbEntity
  8
1
  6
Continuous
 62
     2
100
AcDbLine
 10
-266.7117537492941
 20
222.401775052395
 30
0.0
 11
-266.7117537492941
 21
167.401775052395
 31
0.0
  0
LINE
  5
21A
330
70
100
AcDbEntity
  8
1
  6
Continuous
 62
     2
100
AcDbLine
 10
-266.7117537492941
 20
12.401775052395
 30
0.0
 11
-261.7117537492929
 21
12.401775052395
 31
0.0
  0
LINE
  5
21B
330
70
100
AcDbEntity
  8
1
  6
Continuous
 62
     2
100
AcDbLine
 10
-118.2117537492949
 20
222.401775052395
 30
0.0
 11
-118.2117537492949
 21
213.1930832076937
 31
0.0
  0
LINE
  5
21C
330
70
100
AcDbEntity
  8
1
  6
Continuous
 62
     2
100
AcDbLine
 10
-118.2117537492949
 20
222.401775052395
 30
0.0
 11
-266.7117537492941
 21
222.401775052395
 31
0.0
  0
LINE
  5
21D
330
70
100
AcDbEntity
  8
1
  6
Continuous
 62
     2
100
AcDbLine
 10
30.28824625070408
 20
17.40177505239511
 30
0.0
 11
30.28824625070408
 21
67.40177505239511
 31
0.0
  0
LINE
  5
21E
330
70
100
AcDbEntity
  8
1
  6
Continuous
 62
     2
100
AcDbLine
 10
30.28824625070408
 20
167.401775052395
 30
0.0
 11
30.28824625070408
 21
222.401775052395
 31
0.0
  0
LINE
  5
21F
330
70
100
AcDbEntity
  8
1
  6
Continuous
 62
     6
100
AcDbLine
 10
25.28824625070436
 20
167.401775052395
 30
0.0
 11
25.28824625070408
 21
202.401775052395
 31
0.0
  0
LINE
  5
220
330
70
100
AcDbEntity
  8
1
  6
Continuous
 62
     2
100
AcDbLine
 10
25.28824625070436
 20
167.401775052395
 30
0.0
 11
30.28824625070408
 21
167.401775052395
 31
0.0
  0
LINE
  5
221
330
70
100
AcDbEntity
  8
1
  6
Continuous
 62
     2
100
AcDbLine
 10
30.28824625070408
 20
117.4017750523949
 30
0.0
 11
30.28824625070408
 21
167.401775052395
 31
0.0
  0
LINE
  5
222
330
70
100
AcDbEntity
  8
1
  6
Continuous
 62
     6
100
AcDbLine
 10
25.28824625070547
 20
117.4017750523949
 30
0.0
 11
25.28824625070436
 21
167.401775052395
 31
0.0
  0
LINE
  5
223
330
70
100
AcDbEntity
  8
1
  6
Continuous
 62
     2
100
AcDbLine
 10
25.28824625070547
 20
117.4017750523949
 30
0.0
 11
30.28824625070408
 21
117.4017750523949
 31
0.0
  0
LINE
  5
224
330
70
100
AcDbEntity
  8
1
  6
Continuous
 62
     2
100
AcDbLine
 10
30.28824625070408
 20
67.40177505239511
 30
0.0
 11
30.28824625070408
 21
117.4017750523949
 31
0.0
  0
LINE
  5
225
330
70
100
AcDbEntity
  8
1
  6
Continuous
 62
     6
100
AcDbLine
 10
25.28824625070598
 20
67.40177505239511
 30
0.0
 11
25.28824625070547
 21
117.4017750523949
 31
0.0
  0
LINE
  5
226
330
70
100
AcDbEntity
  8
1
  6
Continuous
 62
     2
100
AcDbLine
 10
25.28824625070598
 20
67.40177505239511
 30
0.0
 11
30.28824625070408
 21
67.40177505239511
 31
0.0
  0
LINE
  5
227
330
70
100
AcDbEntity
  8
1
  6
Continuous
 62
     6
100
AcDbLine
 10
25.28824625070408
 20
202.401775052395
 30
0.0
 11
-261.7117537492941
 21
202.401775052395
 31
0.0
  0
LINE
  5
228
330
70
100
AcDbEntity
  8
1
  6
Continuous
 62
     2
100
AcDbLine
 10
30.28824625070408
 20
222.401775052395
 30
0.0
 11
-118.2117537492949
 21
222.401775052395
 31
0.0
  0
LINE
  5
229
330
70
100
AcDbEntity
  8
1
  6
Continuous
 62
     6
100
AcDbLine
 10
25.28824625070678
 20
47.151775052395
 30
0.0
 11
25.28824625070598
 21
67.40177505239511
 31
0.0
  0
LINE
  5
22A
330
70
100
AcDbEntity
  8
1
  6
Continuous
 62
     2
100
AcDbLine
 10
25.28824625070507
 20
12.401775052395
 30
0.0
 11
-18.21175374929492
 21
12.401775052395
 31
0.0
  0
LINE
  5
22B
330
70
100
AcDbEntity
  8
1
  6
Continuous
 62
     2
100
AcDbLine
 10
30.28824625070408
 20
12.401775052395
 30
0.0
 11
25.28824625070507
 21
12.401775052395
 31
0.0
  0
LINE
  5
22C
330
70
100
AcDbEntity
  8
1
  6
Continuous
 62
     2
100
AcDbLine
 10
30.28824625070408
 20
12.401775052395
 30
0.0
 11
30.28824625070408
 21
17.40177505239511
 31
0.0
  0
LINE
  5
22D
330
70
100
AcDbEntity
  8
1
  6
Continuous
 62
     7
100
AcDbLine
 10
-104.2565582760448
 20
30.151775052395
 30
0.0
 11
-67.85655827604494
 21
30.151775052395
 31
0.0
  0
LINE
  5
22E
330
70
100
AcDbEntity
  8
1
  6
Continuous
 62
     7
100
AcDbLine
 10
-67.85655827604494
 20
30.151775052395
 30
0.0
 11
-67.85655827604494
 21
34.401775052395
 31
0.0
  0
LINE
  5
22F
330
70
100
AcDbEntity
  8
1
  6
Continuous
 62
     2
100
AcDbLine
 10
25.28824625070507
 20
17.40177505239511
 30
0.0
 11
25.28824625070507
 21
12.401775052395
 31
0.0
  0
LINE
  5
230
330
70
100
AcDbEntity
  8
1
  6
Continuous
 62
     2
100
AcDbLine
 10
25.28824625070507
 20
17.40177505239511
 30
0.0
 11
30.28824625070408
 21
17.40177505239511
 31
0.0
  0
LINE
  5
231
330
70
100
AcDbEntity
  8
1
  6
PHANTOM
 62
     2
100
AcDbLine
 10
-97.51429845094157
 20
32.276775052395
 30
0.0
 11
-100.8142984509416
 21
32.276775052395
 31
0.0
  0
LINE
  5
232
330
70
100
AcDbEntity
  8
1
  6
PHANTOM
 62
     2
100
AcDbLine
 10
-99.16429845094157
 20
33.92677505239503
 30
0.0
 11
-99.16429845094157
 21
30.62677505239502
 31
0.0
  0
LINE
  5
233
330
70
100
AcDbEntity
  8
1
  6
PHANTOM
 62
     2
100
AcDbLine
 10
-96.13729506124457
 20
32.276775052395
 30
0.0
 11
-91.82170009205556
 21
32.276775052395
 31
0.0
  0
LINE
  5
234
330
70
100
AcDbEntity
  8
1
  6
Continuous
 62
     6
100
AcDbLine
 10
-68.21175374929493
 20
17.40177505239511
 30
0.0
 11
-86.05655827604497
 21
17.40177505239511
 31
0.0
  0
LINE
  5
235
330
70
100
AcDbEntity
  8
1
  6
Continuous
 62
     6
100
AcDbLine
 10
-18.21175374929492
 20
17.40177505239511
 30
0.0
 11
25.28824625070507
 21
17.40177505239511
 31
0.0
  0
LINE
  5
236
330
70
100
AcDbEntity
  8
1
  6
Continuous
 62
     6
100
AcDbLine
 10
-218.211753749295
 20
17.40177505239511
 30
0.0
 11
-207.0117537492951
 21
17.40177505239511
 31
0.0
  0
LINE
  5
237
330
70
100
AcDbEntity
  8
1
  6
Continuous
 62
     6
100
AcDbLine
 10
-168.2117537492951
 20
17.40177505239511
 30
0.0
 11
-207.0117537492951
 21
17.40177505239511
 31
0.0
  0
LINE
  5
238
330
70
100
AcDbEntity
  8
1
  6
Continuous
 62
     6
100
AcDbLine
 10
-118.2117537492949
 20
17.40177505239511
 30
0.0
 11
-117.7565582760449
 21
17.401775052395
 31
0.0
  0
LINE
  5
239
330
70
100
AcDbEntity
  8
1
  6
Continuous
 62
     7
100
AcDbLine
 10
-38.21175374929255
 20
34.401775052395
 30
0.0
 11
-38.21175374929255
 21
38.65177505239497
 31
0.0
  0
LINE
  5
23A
102
{ACAD_REACTORS
330
35A
330
35A
330
35B
330
35B
102
}
330
70
100
AcDbEntity
  8
0
  6
Continuous
 62
     2
100
AcDbLine
 10
-94.88744592716318
 20
27.20137402446359
 30
0.0
 11
-94.88744592716318
 21
27.70181641165926
 31
0.0
  0
LINE
  5
23B
102
{ACAD_REACTORS
330
35A
330
35A
330
35B
330
35B
102
}
330
70
100
AcDbEntity
  8
0
  6
Continuous
 62
     2
100
AcDbLine
 10
-94.88744592716318
 20
24.88721319253691
 30
0.0
 11
-94.88744592716318
 21
25.36808212368988
 31
0.0
  0
LINE
  5
23C
102
{ACAD_REACTORS
330
35C
330
35C
330
35D
330
35D
102
}
330
70
100
AcDbEntity
  8
0
  6
Continuous
 62
     2
100
AcDbLine
 10
-76.18539102180853
 20
25.12660498437406
 30
0.0
 11
-76.18539102180853
 21
23.25177505240095
 31
0.0
  0
LINE
  5
23D
102
{ACAD_REACTORS
330
35C
330
35C
330
35D
330
35D
102
}
330
70
100
AcDbEntity
  8
0
  6
Continuous
 62
     2
100
AcDbLine
 10
-77.32675778130239
 20
25.77558457621133
 30
0.0
 11
-74.52928214607209
 21
25.77558457621179
 31
0.0
  0
LINE
  5
23E
102
{ACAD_REACTORS
330
35C
330
35C
330
35D
330
35D
102
}
330
70
100
AcDbEntity
  8
0
  6
Continuous
 62
     2
100
AcDbLine
 10
-74.52928214607209
 20
25.12660498437406
 30
0.0
 11
-74.52928214607209
 21
25.77558457621179
 31
0.0
  0
LINE
  5
23F
102
{ACAD_REACTORS
330
35C
330
35C
330
35D
330
35D
102
}
330
70
100
AcDbEntity
  8
0
  6
Continuous
 62
     2
100
AcDbLine
 10
-75.19961192910796
 20
25.12660498437406
 30
0.0
 11
-74.52928214607209
 21
25.12660498437406
 31
0.0
  0
LINE
  5
240
102
{ACAD_REACTORS
330
35C
330
35C
330
35D
330
35D
102
}
330
70
100
AcDbEntity
  8
0
  6
Continuous
 62
     2
100
AcDbLine
 10
-75.19961192910796
 20
23.25177505240095
 30
0.0
 11
-75.19961192910796
 21
25.12660498437406
 31
0.0
  0
LINE
  5
241
102
{ACAD_REACTORS
330
35C
330
35C
330
35D
330
35D
102
}
330
70
100
AcDbEntity
  8
0
  6
Continuous
 62
     2
100
AcDbLine
 10
-76.18539102180853
 20
23.25177505240095
 30
0.0
 11
-75.19961192910796
 21
23.25177505240095
 31
0.0
  0
LINE
  5
242
102
{ACAD_REACTORS
330
352
330
352
330
353
330
353
102
}
330
70
100
AcDbEntity
  8
0
  6
Continuous
 62
     2
100
AcDbLine
 10
-76.76108601194449
 20
28.55177505238894
 30
0.0
 11
-77.9203622249604
 21
28.55177505238894
 31
0.0
  0
LINE
  5
243
102
{ACAD_REACTORS
330
352
330
352
330
353
330
353
102
}
330
70
100
AcDbEntity
  8
0
  6
Continuous
 62
     2
100
AcDbLine
 10
-76.76108601194449
 20
28.55177505238894
 30
0.0
 11
-76.26425334922396
 21
27.98993759655795
 31
0.0
  0
LINE
  5
244
102
{ACAD_REACTORS
330
352
330
352
330
353
330
353
102
}
330
70
100
AcDbEntity
  8
0
  6
Continuous
 62
     2
100
AcDbLine
 10
-76.26425334922396
 20
27.98993759655795
 30
0.0
 11
-75.76742068650266
 21
28.55177505238894
 31
0.0
  0
LINE
  5
245
102
{ACAD_REACTORS
330
352
330
352
330
353
330
353
102
}
330
70
100
AcDbEntity
  8
0
  6
Continuous
 62
     2
100
AcDbLine
 10
-75.68461524271697
 20
27.33446056475572
 30
0.0
 11
-74.60814447348844
 21
28.55177505238894
 31
0.0
  0
LINE
  5
246
102
{ACAD_REACTORS
330
352
330
352
330
353
330
353
102
}
330
70
100
AcDbEntity
  8
0
  6
Continuous
 62
     2
100
AcDbLine
 10
-75.68461524271697
 20
27.33446056475572
 30
0.0
 11
-74.52928214607209
 21
26.02796552857811
 31
0.0
  0
LINE
  5
247
102
{ACAD_REACTORS
330
352
330
352
330
353
330
353
102
}
330
70
100
AcDbEntity
  8
0
  6
Continuous
 62
     2
100
AcDbLine
 10
-75.68855835908721
 20
26.02796552857811
 30
0.0
 11
-74.52928214607209
 21
26.02796552857811
 31
0.0
  0
LINE
  5
248
102
{ACAD_REACTORS
330
352
330
352
330
353
330
353
102
}
330
70
100
AcDbEntity
  8
0
  6
Continuous
 62
     2
100
AcDbLine
 10
-76.26425334922396
 20
26.67898353295305
 30
0.0
 11
-75.68855835908721
 21
26.02796552857811
 31
0.0
  0
LINE
  5
249
102
{ACAD_REACTORS
330
350
330
350
330
351
330
351
102
}
330
70
100
AcDbEntity
  8
0
  6
Continuous
 62
     2
100
AcDbLine
 10
-79.12301271805347
 20
28.55177505238894
 30
0.0
 11
-78.0978024616461
 21
28.55177505238894
 31
0.0
  0
LINE
  5
24A
102
{ACAD_REACTORS
330
350
330
350
330
351
330
351
102
}
330
70
100
AcDbEntity
  8
0
  6
Continuous
 62
     2
100
AcDbLine
 10
-78.0978024616461
 20
28.55177505238894
 30
0.0
 11
-78.0978024616461
 21
26.02796552857811
 31
0.0
  0
LINE
  5
24B
102
{ACAD_REACTORS
330
350
330
350
330
351
330
351
102
}
330
70
100
AcDbEntity
  8
0
  6
Continuous
 62
     2
100
AcDbLine
 10
-79.12301271805347
 20
26.02796552857811
 30
0.0
 11
-79.12301271805347
 21
28.55177505238894
 31
0.0
  0
LINE
  5
24C
102
{ACAD_REACTORS
330
34E
330
34E
330
34F
330
34F
102
}
330
70
100
AcDbEntity
  8
0
  6
Continuous
 62
     2
100
AcDbLine
 10
-80.33649212510933
 20
24.26129886192528
 30
0.0
 11
-80.0884216811487
 21
24.89585668505482
 31
0.0
  0
LINE
  5
24D
102
{ACAD_REACTORS
330
34E
330
34E
330
34F
330
34F
102
}
330
70
100
AcDbEntity
  8
0
  6
Continuous
 62
     2
100
AcDbLine
 10
-80.73114964958938
 20
23.25177505240095
 30
0.0
 11
-80.55637274589037
 21
23.69884988233307
 31
0.0
  0
LINE
  5
24E
102
{ACAD_REACTORS
330
34E
330
34E
330
34F
330
34F
102
}
330
70
100
AcDbEntity
  8
0
  6
Continuous
 62
     2
100
AcDbLine
 10
-80.60102680935279
 20
25.77558457621179
 30
0.0
 11
-81.75635990599676
 21
23.25177505240095
 31
0.0
  0
LINE
  5
24F
102
{ACAD_REACTORS
330
34E
330
34E
330
34F
330
34F
102
}
330
70
100
AcDbEntity
  8
0
  6
Continuous
 62
     2
100
AcDbLine
 10
-78.42048345630064
 20
23.25177505240095
 30
0.0
 11
-79.44569371270883
 21
23.25177505240095
 31
0.0
  0
LINE
  5
250
102
{ACAD_REACTORS
330
34E
330
34E
330
34F
330
34F
102
}
330
70
100
AcDbEntity
  8
0
  6
Continuous
 62
     2
100
AcDbLine
 10
-80.55637274589037
 20
23.69884988233307
 30
0.0
 11
-79.62047061640783
 21
23.69884988233307
 31
0.0
  0
LINE
  5
251
102
{ACAD_REACTORS
330
34C
330
34C
330
34D
330
34D
102
}
330
70
100
AcDbEntity
  8
0
  6
Continuous
 62
     2
100
AcDbLine
 10
-83.53942778961846
 20
25.12660498437406
 30
0.0
 11
-82.86909800658158
 21
25.12660498437406
 31
0.0
  0
LINE
  5
252
102
{ACAD_REACTORS
330
34C
330
34C
330
34D
330
34D
102
}
330
70
100
AcDbEntity
  8
0
  6
Continuous
 62
     2
100
AcDbLine
 10
-81.21298913084684
 20
25.77558457621179
 30
0.0
 11
-83.53942778961846
 21
25.77558457621179
 31
0.0
  0
LINE
  5
253
102
{ACAD_REACTORS
330
34C
330
34C
330
34D
330
34D
102
}
330
70
100
AcDbEntity
  8
0
  6
Continuous
 62
     2
100
AcDbLine
 10
-81.21298913084684
 20
25.12660498437406
 30
0.0
 11
-81.21298913084684
 21
25.77558457621179
 31
0.0
  0
LINE
  5
254
102
{ACAD_REACTORS
330
34C
330
34C
330
34D
330
34D
102
}
330
70
100
AcDbEntity
  8
0
  6
Continuous
 62
     2
100
AcDbLine
 10
-81.88331891388202
 20
25.12660498437406
 30
0.0
 11
-81.21298913084684
 21
25.12660498437406
 31
0.0
  0
LINE
  5
255
102
{ACAD_REACTORS
330
34C
330
34C
330
34D
330
34D
102
}
330
70
100
AcDbEntity
  8
0
  6
Continuous
 62
     2
100
AcDbLine
 10
-81.88331891388202
 20
23.25177505240095
 30
0.0
 11
-81.88331891388202
 21
25.12660498437406
 31
0.0
  0
LINE
  5
256
102
{ACAD_REACTORS
330
34A
330
34A
330
34B
330
34B
102
}
330
70
100
AcDbEntity
  8
0
  6
Continuous
 62
     2
100
AcDbLine
 10
-81.33115788570183
 20
26.02796552857811
 30
0.0
 11
-81.33115788570183
 21
27.10959818163977
 31
0.0
  0
LINE
  5
257
102
{ACAD_REACTORS
330
34A
330
34A
330
34B
330
34B
102
}
330
70
100
AcDbEntity
  8
0
  6
Continuous
 62
     2
100
AcDbLine
 10
-82.31693697840137
 20
28.55177505238894
 30
0.0
 11
-82.31693697840137
 21
26.02796552857811
 31
0.0
  0
LINE
  5
258
102
{ACAD_REACTORS
330
34A
330
34A
330
34B
330
34B
102
}
330
70
100
AcDbEntity
  8
0
  6
Continuous
 62
     2
100
AcDbLine
 10
-81.33115788570183
 20
28.55177505238894
 30
0.0
 11
-82.31693697840137
 21
28.55177505238894
 31
0.0
  0
LINE
  5
259
102
{ACAD_REACTORS
330
34A
330
34A
330
34B
330
34B
102
}
330
70
100
AcDbEntity
  8
0
  6
Continuous
 62
     2
100
AcDbLine
 10
-80.30594762929354
 20
28.55177505238894
 30
0.0
 11
-80.30594762929354
 21
27.47014239932683
 31
0.0
  0
LINE
  5
25A
102
{ACAD_REACTORS
330
348
330
348
330
349
330
349
102
}
330
70
100
AcDbEntity
  8
0
  6
Continuous
 62
     2
100
AcDbLine
 10
-86.6544897225499
 20
25.77558457621179
 30
0.0
 11
-86.6544897225499
 21
23.25177505240095
 31
0.0
  0
LINE
  5
25B
102
{ACAD_REACTORS
330
348
330
348
330
349
330
349
102
}
330
70
100
AcDbEntity
  8
0
  6
Continuous
 62
     2
100
AcDbLine
 10
-85.66871062984944
 20
25.77558457621179
 30
0.0
 11
-86.6544897225499
 21
25.77558457621179
 31
0.0
  0
LINE
  5
25C
102
{ACAD_REACTORS
330
348
330
348
330
349
330
349
102
}
330
70
100
AcDbEntity
  8
0
  6
Continuous
 62
     2
100
AcDbLine
 10
-84.64350037344208
 20
23.25177505240095
 30
0.0
 11
-83.65772128074252
 21
23.25177505240095
 31
0.0
  0
LINE
  5
25D
102
{ACAD_REACTORS
330
348
330
348
330
349
330
349
102
}
330
70
100
AcDbEntity
  8
0
  6
Continuous
 62
     2
100
AcDbLine
 10
-86.6544897225499
 20
23.25177505240095
 30
0.0
 11
-85.66871062984944
 21
23.25177505240095
 31
0.0
  0
LINE
  5
25E
102
{ACAD_REACTORS
330
358
330
358
330
359
330
359
102
}
330
70
100
AcDbEntity
  8
0
  6
Continuous
 62
     2
100
AcDbLine
 10
-83.6181653807655
 20
27.57830566463304
 30
0.0
 11
-83.6181653807655
 21
27.974904304089
 31
0.0
  0
LINE
  5
25F
102
{ACAD_REACTORS
330
358
330
358
330
359
330
359
102
}
330
70
100
AcDbEntity
  8
0
  6
Continuous
 62
     2
100
AcDbLine
 10
-82.51409279694099
 20
27.57830566463304
 30
0.0
 11
-83.6181653807655
 21
27.57830566463304
 31
0.0
  0
LINE
  5
260
102
{ACAD_REACTORS
330
358
330
358
330
359
330
359
102
}
330
70
100
AcDbEntity
  8
0
  6
Continuous
 62
     2
100
AcDbLine
 10
-82.51409279694099
 20
27.00143491633356
 30
0.0
 11
-82.51409279694099
 21
27.57830566463304
 31
0.0
  0
LINE
  5
261
102
{ACAD_REACTORS
330
358
330
358
330
359
330
359
102
}
330
70
100
AcDbEntity
  8
0
  6
Continuous
 62
     2
100
AcDbLine
 10
-83.6181653807655
 20
27.00143491633356
 30
0.0
 11
-82.51409279694099
 21
27.00143491633356
 31
0.0
  0
LINE
  5
262
102
{ACAD_REACTORS
330
346
330
346
330
347
330
347
102
}
330
70
100
AcDbEntity
  8
0
  6
Continuous
 62
     2
100
AcDbLine
 10
-86.49664033144893
 20
28.55177505238894
 30
0.0
 11
-86.49664033144893
 21
26.02796552857811
 31
0.0
  0
LINE
  5
263
102
{ACAD_REACTORS
330
346
330
346
330
347
330
347
102
}
330
70
100
AcDbEntity
  8
0
  6
Continuous
 62
     2
100
AcDbLine
 10
-86.49664033144893
 20
26.02796552857811
 30
0.0
 11
-87.48241942414847
 21
26.02796552857811
 31
0.0
  0
LINE
  5
264
102
{ACAD_REACTORS
330
346
330
346
330
347
330
347
102
}
330
70
100
AcDbEntity
  8
0
  6
Continuous
 62
     2
100
AcDbLine
 10
-87.48241942414847
 20
26.02796552857811
 30
0.0
 11
-87.48241942414847
 21
26.96538049456467
 31
0.0
  0
LINE
  5
265
102
{ACAD_REACTORS
330
346
330
346
330
347
330
347
102
}
330
70
100
AcDbEntity
  8
0
  6
Continuous
 62
     2
100
AcDbLine
 10
-88.34990502572487
 20
26.02796552857811
 30
0.0
 11
-89.33568411842452
 21
26.02796552857811
 31
0.0
  0
LINE
  5
266
102
{ACAD_REACTORS
330
346
330
346
330
347
330
347
102
}
330
70
100
AcDbEntity
  8
0
  6
Continuous
 62
     2
100
AcDbLine
 10
-89.33568411842452
 20
28.55177505238894
 30
0.0
 11
-88.34990502572487
 21
28.55177505238894
 31
0.0
  0
LINE
  5
267
102
{ACAD_REACTORS
330
346
330
346
330
347
330
347
102
}
330
70
100
AcDbEntity
  8
0
  6
Continuous
 62
     2
100
AcDbLine
 10
-88.34990502572487
 20
28.55177505238894
 30
0.0
 11
-88.34990502572487
 21
27.66844171905458
 31
0.0
  0
LINE
  5
268
102
{ACAD_REACTORS
330
346
330
346
330
347
330
347
102
}
330
70
100
AcDbEntity
  8
0
  6
Continuous
 62
     2
100
AcDbLine
 10
-88.34990502572487
 20
27.66844171905458
 30
0.0
 11
-87.48241942414847
 21
27.66844171905458
 31
0.0
  0
LINE
  5
269
102
{ACAD_REACTORS
330
354
330
354
330
355
330
355
102
}
330
70
100
AcDbEntity
  8
0
  6
Continuous
 62
     2
100
AcDbLine
 10
-90.95236183045233
 20
28.00375369252113
 30
0.0
 11
-90.69013450686396
 21
28.00375369252113
 31
0.0
  0
LINE
  5
26A
102
{ACAD_REACTORS
330
354
330
354
330
355
330
355
102
}
330
70
100
AcDbEntity
  8
0
  6
Continuous
 62
     2
100
AcDbLine
 10
-90.95236183045233
 20
27.42050770132917
 30
0.0
 11
-90.69013450686396
 21
27.42050770132917
 31
0.0
  0
LINE
  5
26B
102
{ACAD_REACTORS
330
354
330
354
330
355
330
355
102
}
330
70
100
AcDbEntity
  8
0
  6
Continuous
 62
     2
100
AcDbLine
 10
-91.97757208686062
 20
28.55177505238894
 30
0.0
 11
-91.97757208686062
 21
26.02796552857811
 31
0.0
  0
LINE
  5
26C
102
{ACAD_REACTORS
330
354
330
354
330
355
330
355
102
}
330
70
100
AcDbEntity
  8
0
  6
Continuous
 62
     2
100
AcDbLine
 10
-91.97757208686062
 20
28.55177505238894
 30
0.0
 11
-90.32528117939421
 21
28.55177505238894
 31
0.0
  0
LINE
  5
26D
102
{ACAD_REACTORS
330
354
330
354
330
355
330
355
102
}
330
70
100
AcDbEntity
  8
0
  6
Continuous
 62
     2
100
AcDbLine
 10
-90.95236183045233
 20
26.80736903365558
 30
0.0
 11
-90.32528117939421
 21
26.80736903365558
 31
0.0
  0
LINE
  5
26E
102
{ACAD_REACTORS
330
35A
330
35A
330
35B
330
35B
102
}
330
70
100
AcDbEntity
  8
0
  6
Continuous
 62
     2
100
AcDbLine
 10
-97.01599856065957
 20
27.7019630865751
 30
0.0
 11
-97.01599856065957
 21
24.10158701821387
 31
0.0
  0
LINE
  5
26F
102
{ACAD_REACTORS
330
35A
330
35A
330
35B
330
35B
102
}
330
70
100
AcDbEntity
  8
0
  6
Continuous
 62
     2
100
AcDbLine
 10
-96.75507548373753
 20
27.96288616349756
 30
0.0
 11
-95.5353785738123
 21
27.96288616349756
 31
0.0
  0
LINE
  5
270
102
{ACAD_REACTORS
330
35A
330
35A
330
35B
330
35B
102
}
330
70
100
AcDbEntity
  8
0
  6
Continuous
 62
     2
100
AcDbLine
 10
-95.27445549688946
 20
27.20276918652505
 30
0.0
 11
-95.27445549688946
 21
27.7019630865751
 31
0.0
  0
LINE
  5
271
102
{ACAD_REACTORS
330
35A
330
35A
330
35B
330
35B
102
}
330
70
100
AcDbEntity
  8
0
  6
Continuous
 62
     2
100
AcDbLine
 10
-95.27445549688946
 20
24.10158701821387
 30
0.0
 11
-95.27445549688946
 21
25.36668696162843
 31
0.0
  0
LINE
  5
272
102
{ACAD_REACTORS
330
35A
330
35A
330
35B
330
35B
102
}
330
70
100
AcDbEntity
  8
0
  6
Continuous
 62
     2
100
AcDbLine
 10
-92.72249910855544
 20
23.25177505240095
 30
0.0
 11
-97.24589753063549
 21
23.25177505240095
 31
0.0
  0
LINE
  5
273
102
{ACAD_REACTORS
330
35A
330
35A
330
35B
330
35B
102
}
330
70
100
AcDbEntity
  8
0
  6
Continuous
 62
     2
100
AcDbLine
 10
-92.37188372394064
 20
28.20115966775921
 30
0.0
 11
-92.37188372394064
 21
23.60239043701524
 31
0.0
  0
LINE
  5
274
102
{ACAD_REACTORS
330
35A
330
35A
330
35B
330
35B
102
}
330
70
100
AcDbEntity
  8
0
  6
Continuous
 62
     2
100
AcDbLine
 10
-97.24589753063549
 20
28.55177505237395
 30
0.0
 11
-92.72249910855544
 21
28.55177505237395
 31
0.0
  0
LINE
  5
275
102
{ACAD_REACTORS
330
35A
330
35A
330
35B
330
35B
102
}
330
70
100
AcDbEntity
  8
0
  6
Continuous
 62
     2
100
AcDbLine
 10
-97.59651291524938
 20
28.20115966775921
 30
0.0
 11
-97.59651291524938
 21
23.60239043701524
 31
0.0
  0
LINE
  5
276
102
{ACAD_REACTORS
330
35A
330
35A
330
35B
330
35B
102
}
330
70
100
AcDbEntity
  8
0
  6
Continuous
 62
     2
100
AcDbLine
 10
-95.5353785738123
 20
23.84066394129098
 30
0.0
 11
-96.75507548373753
 21
23.84066394129098
 31
0.0
  0
LINE
  5
277
102
{ACAD_REACTORS
330
354
330
354
330
355
330
355
102
}
330
70
100
AcDbEntity
  8
0
  6
Continuous
 62
     2
100
AcDbLine
 10
-90.95236183045233
 20
26.02796552857811
 30
0.0
 11
-90.95236183045233
 21
26.80736903365558
 31
0.0
  0
LINE
  5
278
102
{ACAD_REACTORS
330
354
330
354
330
355
330
355
102
}
330
70
100
AcDbEntity
  8
0
  6
Continuous
 62
     2
100
AcDbLine
 10
-91.97757208686062
 20
26.02796552857811
 30
0.0
 11
-90.95236183045233
 21
26.02796552857811
 31
0.0
  0
LINE
  5
279
102
{ACAD_REACTORS
330
354
330
354
330
355
330
355
102
}
330
70
100
AcDbEntity
  8
0
  6
Continuous
 62
     2
100
AcDbLine
 10
-90.95236183045233
 20
27.42050770132917
 30
0.0
 11
-90.95236183045233
 21
28.00375369252113
 31
0.0
  0
LINE
  5
27A
102
{ACAD_REACTORS
330
346
330
346
330
347
330
347
102
}
330
70
100
AcDbEntity
  8
0
  6
Continuous
 62
     2
100
AcDbLine
 10
-89.33568411842452
 20
28.55177505238894
 30
0.0
 11
-89.33568411842452
 21
26.02796552857811
 31
0.0
  0
LINE
  5
27B
102
{ACAD_REACTORS
330
346
330
346
330
347
330
347
102
}
330
70
100
AcDbEntity
  8
0
  6
Continuous
 62
     2
100
AcDbLine
 10
-88.34990502572487
 20
26.96538049456467
 30
0.0
 11
-88.34990502572487
 21
26.02796552857811
 31
0.0
  0
LINE
  5
27C
102
{ACAD_REACTORS
330
346
330
346
330
347
330
347
102
}
330
70
100
AcDbEntity
  8
0
  6
Continuous
 62
     2
100
AcDbLine
 10
-87.48241942414847
 20
26.96538049456467
 30
0.0
 11
-88.34990502572487
 21
26.96538049456467
 31
0.0
  0
LINE
  5
27D
102
{ACAD_REACTORS
330
346
330
346
330
347
330
347
102
}
330
70
100
AcDbEntity
  8
0
  6
Continuous
 62
     2
100
AcDbLine
 10
-87.48241942414847
 20
28.55177505238894
 30
0.0
 11
-86.49664033144893
 21
28.55177505238894
 31
0.0
  0
LINE
  5
27E
102
{ACAD_REACTORS
330
346
330
346
330
347
330
347
102
}
330
70
100
AcDbEntity
  8
0
  6
Continuous
 62
     2
100
AcDbLine
 10
-87.48241942414847
 20
27.66844171905458
 30
0.0
 11
-87.48241942414847
 21
28.55177505238894
 31
0.0
  0
LINE
  5
27F
102
{ACAD_REACTORS
330
358
330
358
330
359
330
359
102
}
330
70
100
AcDbEntity
  8
0
  6
Continuous
 62
     2
100
AcDbLine
 10
-82.51409279694099
 20
27.974904304089
 30
0.0
 11
-82.51409279694099
 21
28.55177505238894
 31
0.0
  0
LINE
  5
280
102
{ACAD_REACTORS
330
358
330
358
330
359
330
359
102
}
330
70
100
AcDbEntity
  8
0
  6
Continuous
 62
     2
100
AcDbLine
 10
-85.1176628165947
 20
28.55177505238894
 30
0.0
 11
-82.51409279694099
 21
28.55177505238894
 31
0.0
  0
LINE
  5
281
102
{ACAD_REACTORS
330
358
330
358
330
359
330
359
102
}
330
70
100
AcDbEntity
  8
0
  6
Continuous
 62
     2
100
AcDbLine
 10
-85.1176628165947
 20
26.02796552857811
 30
0.0
 11
-82.51409279694099
 21
26.02796552857811
 31
0.0
  0
LINE
  5
282
102
{ACAD_REACTORS
330
358
330
358
330
359
330
359
102
}
330
70
100
AcDbEntity
  8
0
  6
Continuous
 62
     2
100
AcDbLine
 10
-82.51409279694099
 20
26.02796552857811
 30
0.0
 11
-82.51409279694099
 21
26.6048362768776
 31
0.0
  0
LINE
  5
283
102
{ACAD_REACTORS
330
358
330
358
330
359
330
359
102
}
330
70
100
AcDbEntity
  8
0
  6
Continuous
 62
     2
100
AcDbLine
 10
-82.51409279694099
 20
26.6048362768776
 30
0.0
 11
-83.6181653807655
 21
26.6048362768776
 31
0.0
  0
LINE
  5
284
102
{ACAD_REACTORS
330
358
330
358
330
359
330
359
102
}
330
70
100
AcDbEntity
  8
0
  6
Continuous
 62
     2
100
AcDbLine
 10
-83.6181653807655
 20
26.6048362768776
 30
0.0
 11
-83.6181653807655
 21
27.00143491633356
 31
0.0
  0
LINE
  5
285
102
{ACAD_REACTORS
330
358
330
358
330
359
330
359
102
}
330
70
100
AcDbEntity
  8
0
  6
Continuous
 62
     2
100
AcDbLine
 10
-83.6181653807655
 20
27.974904304089
 30
0.0
 11
-82.51409279694099
 21
27.974904304089
 31
0.0
  0
LINE
  5
286
102
{ACAD_REACTORS
330
348
330
348
330
349
330
349
102
}
330
70
100
AcDbEntity
  8
0
  6
Continuous
 62
     2
100
AcDbLine
 10
-85.66871062984944
 20
23.25177505240095
 30
0.0
 11
-85.66871062984944
 21
24.33340770546261
 31
0.0
  0
LINE
  5
287
102
{ACAD_REACTORS
330
348
330
348
330
349
330
349
102
}
330
70
100
AcDbEntity
  8
0
  6
Continuous
 62
     2
100
AcDbLine
 10
-85.66871062984944
 20
24.33340770546261
 30
0.0
 11
-84.64350037344208
 21
23.25177505240095
 31
0.0
  0
LINE
  5
288
102
{ACAD_REACTORS
330
348
330
348
330
349
330
349
102
}
330
70
100
AcDbEntity
  8
0
  6
Continuous
 62
     2
100
AcDbLine
 10
-83.65772128074252
 20
23.25177505240095
 30
0.0
 11
-83.65772128074252
 21
25.77558457621179
 31
0.0
  0
LINE
  5
289
102
{ACAD_REACTORS
330
348
330
348
330
349
330
349
102
}
330
70
100
AcDbEntity
  8
0
  6
Continuous
 62
     2
100
AcDbLine
 10
-83.65772128074252
 20
25.77558457621179
 30
0.0
 11
-84.64350037344208
 21
25.77558457621179
 31
0.0
  0
LINE
  5
28A
102
{ACAD_REACTORS
330
348
330
348
330
349
330
349
102
}
330
70
100
AcDbEntity
  8
0
  6
Continuous
 62
     2
100
AcDbLine
 10
-84.64350037344208
 20
25.77558457621179
 30
0.0
 11
-84.64350037344208
 21
24.69395192314968
 31
0.0
  0
LINE
  5
28B
102
{ACAD_REACTORS
330
348
330
348
330
349
330
349
102
}
330
70
100
AcDbEntity
  8
0
  6
Continuous
 62
     2
100
AcDbLine
 10
-84.64350037344208
 20
24.69395192314968
 30
0.0
 11
-85.66871062984944
 21
25.77558457621179
 31
0.0
  0
LINE
  5
28C
102
{ACAD_REACTORS
330
34A
330
34A
330
34B
330
34B
102
}
330
70
100
AcDbEntity
  8
0
  6
Continuous
 62
     2
100
AcDbLine
 10
-81.33115788570183
 20
27.10959818163977
 30
0.0
 11
-80.30594762929354
 21
26.02796552857811
 31
0.0
  0
LINE
  5
28D
102
{ACAD_REACTORS
330
34A
330
34A
330
34B
330
34B
102
}
330
70
100
AcDbEntity
  8
0
  6
Continuous
 62
     2
100
AcDbLine
 10
-80.30594762929354
 20
26.02796552857811
 30
0.0
 11
-79.32016853659388
 21
26.02796552857811
 31
0.0
  0
LINE
  5
28E
102
{ACAD_REACTORS
330
34A
330
34A
330
34B
330
34B
102
}
330
70
100
AcDbEntity
  8
0
  6
Continuous
 62
     2
100
AcDbLine
 10
-79.32016853659388
 20
26.02796552857811
 30
0.0
 11
-79.32016853659388
 21
28.55177505238894
 31
0.0
  0
LINE
  5
28F
102
{ACAD_REACTORS
330
34A
330
34A
330
34B
330
34B
102
}
330
70
100
AcDbEntity
  8
0
  6
Continuous
 62
     2
100
AcDbLine
 10
-79.32016853659388
 20
28.55177505238894
 30
0.0
 11
-80.30594762929354
 21
28.55177505238894
 31
0.0
  0
LINE
  5
290
102
{ACAD_REACTORS
330
34A
330
34A
330
34B
330
34B
102
}
330
70
100
AcDbEntity
  8
0
  6
Continuous
 62
     2
100
AcDbLine
 10
-80.30594762929354
 20
27.47014239932683
 30
0.0
 11
-81.33115788570183
 21
28.55177505238894
 31
0.0
  0
LINE
  5
291
102
{ACAD_REACTORS
330
34A
330
34A
330
34B
330
34B
102
}
330
70
100
AcDbEntity
  8
0
  6
Continuous
 62
     2
100
AcDbLine
 10
-82.31693697840137
 20
26.02796552857811
 30
0.0
 11
-81.33115788570183
 21
26.02796552857811
 31
0.0
  0
LINE
  5
292
102
{ACAD_REACTORS
330
34C
330
34C
330
34D
330
34D
102
}
330
70
100
AcDbEntity
  8
0
  6
Continuous
 62
     2
100
AcDbLine
 10
-83.53942778961846
 20
25.77558457621179
 30
0.0
 11
-83.53942778961846
 21
25.12660498437406
 31
0.0
  0
LINE
  5
293
102
{ACAD_REACTORS
330
34C
330
34C
330
34D
330
34D
102
}
330
70
100
AcDbEntity
  8
0
  6
Continuous
 62
     2
100
AcDbLine
 10
-82.86909800658158
 20
25.12660498437406
 30
0.0
 11
-82.86909800658158
 21
23.25177505240095
 31
0.0
  0
LINE
  5
294
102
{ACAD_REACTORS
330
34C
330
34C
330
34D
330
34D
102
}
330
70
100
AcDbEntity
  8
0
  6
Continuous
 62
     2
100
AcDbLine
 10
-82.86909800658158
 20
23.25177505240095
 30
0.0
 11
-81.88331891388202
 21
23.25177505240095
 31
0.0
  0
LINE
  5
295
102
{ACAD_REACTORS
330
34E
330
34E
330
34F
330
34F
102
}
330
70
100
AcDbEntity
  8
0
  6
Continuous
 62
     2
100
AcDbLine
 10
-79.44569371270883
 20
23.25177505240095
 30
0.0
 11
-79.62047061640783
 21
23.69884988233307
 31
0.0
  0
LINE
  5
296
102
{ACAD_REACTORS
330
34E
330
34E
330
34F
330
34F
102
}
330
70
100
AcDbEntity
  8
0
  6
Continuous
 62
     2
100
AcDbLine
 10
-79.57581655294553
 20
25.77558457621179
 30
0.0
 11
-78.42048345630064
 21
23.25177505240095
 31
0.0
  0
LINE
  5
297
102
{ACAD_REACTORS
330
34E
330
34E
330
34F
330
34F
102
}
330
70
100
AcDbEntity
  8
0
  6
Continuous
 62
     2
100
AcDbLine
 10
-80.60102680935279
 20
25.77558457621179
 30
0.0
 11
-79.57581655294553
 21
25.77558457621179
 31
0.0
  0
LINE
  5
298
102
{ACAD_REACTORS
330
34E
330
34E
330
34F
330
34F
102
}
330
70
100
AcDbEntity
  8
0
  6
Continuous
 62
     2
100
AcDbLine
 10
-81.75635990599676
 20
23.25177505240095
 30
0.0
 11
-80.73114964958938
 21
23.25177505240095
 31
0.0
  0
LINE
  5
299
102
{ACAD_REACTORS
330
34E
330
34E
330
34F
330
34F
102
}
330
70
100
AcDbEntity
  8
0
  6
Continuous
 62
     2
100
AcDbLine
 10
-80.33649212510933
 20
24.26129886192528
 30
0.0
 11
-79.8403512371899
 21
24.26129886192528
 31
0.0
  0
LINE
  5
29A
102
{ACAD_REACTORS
330
34E
330
34E
330
34F
330
34F
102
}
330
70
100
AcDbEntity
  8
0
  6
Continuous
 62
     2
100
AcDbLine
 10
-79.8403512371899
 20
24.26129886192528
 30
0.0
 11
-80.0884216811487
 21
24.89585668505482
 31
0.0
  0
LINE
  5
29B
102
{ACAD_REACTORS
330
350
330
350
330
351
330
351
102
}
330
70
100
AcDbEntity
  8
0
  6
Continuous
 62
     2
100
AcDbLine
 10
-78.0978024616461
 20
26.02796552857811
 30
0.0
 11
-79.12301271805347
 21
26.02796552857811
 31
0.0
  0
LINE
  5
29C
102
{ACAD_REACTORS
330
352
330
352
330
353
330
353
102
}
330
70
100
AcDbEntity
  8
0
  6
Continuous
 62
     2
100
AcDbLine
 10
-76.83994833936094
 20
26.02796552857811
 30
0.0
 11
-77.99922455237595
 21
26.02796552857811
 31
0.0
  0
LINE
  5
29D
102
{ACAD_REACTORS
330
352
330
352
330
353
330
353
102
}
330
70
100
AcDbEntity
  8
0
  6
Continuous
 62
     2
100
AcDbLine
 10
-76.83994833936094
 20
26.02796552857811
 30
0.0
 11
-76.26425334922396
 21
26.67898353295305
 31
0.0
  0
LINE
  5
29E
102
{ACAD_REACTORS
330
352
330
352
330
353
330
353
102
}
330
70
100
AcDbEntity
  8
0
  6
Continuous
 62
     2
100
AcDbLine
 10
-75.76742068650266
 20
28.55177505238894
 30
0.0
 11
-74.60814447348844
 21
28.55177505238894
 31
0.0
  0
LINE
  5
29F
102
{ACAD_REACTORS
330
352
330
352
330
353
330
353
102
}
330
70
100
AcDbEntity
  8
0
  6
Continuous
 62
     2
100
AcDbLine
 10
-77.9203622249604
 20
28.55177505238894
 30
0.0
 11
-76.84389145573107
 21
27.33446056475572
 31
0.0
  0
LINE
  5
2A0
102
{ACAD_REACTORS
330
352
330
352
330
353
330
353
102
}
330
70
100
AcDbEntity
  8
0
  6
Continuous
 62
     2
100
AcDbLine
 10
-77.99922455237595
 20
26.02796552857811
 30
0.0
 11
-76.84389145573107
 21
27.33446056475572
 31
0.0
  0
LINE
  5
2A1
102
{ACAD_REACTORS
330
35C
330
35C
330
35D
330
35D
102
}
330
70
100
AcDbEntity
  8
0
  6
Continuous
 62
     2
100
AcDbLine
 10
-76.4614091677645
 20
24.11708117485018
 30
0.0
 11
-76.4614091677645
 21
23.39599273947561
 31
0.0
  0
LINE
  5
2A2
102
{ACAD_REACTORS
330
35C
330
35C
330
35D
330
35D
102
}
330
70
100
AcDbEntity
  8
0
  6
Continuous
 62
     2
100
AcDbLine
 10
-77.09748961649291
 20
25.12660498437406
 30
0.0
 11
-76.18539102180853
 21
25.12660498437406
 31
0.0
  0
LINE
  5
2A3
102
{ACAD_REACTORS
330
35E
330
35E
330
35F
330
35F
102
}
330
70
100
AcDbEntity
  8
0
  6
Continuous
 62
     2
100
AcDbLine
 10
-89.76942691921226
 20
24.11708117485064
 30
0.0
 11
-89.76942691921226
 21
23.39599273947605
 31
0.0
  0
LINE
  5
2A4
102
{ACAD_REACTORS
330
35E
330
35E
330
35F
330
35F
102
}
330
70
100
AcDbEntity
  8
0
  6
Continuous
 62
     2
100
AcDbLine
 10
-89.76942691921226
 20
24.9102784537621
 30
0.0
 11
-89.76942691921226
 21
25.63136688913669
 31
0.0
  0
ARC
  5
2A5
102
{ACAD_REACTORS
330
35E
330
35E
330
35F
330
35F
102
}
330
70
100
AcDbEntity
  8
0
  6
Continuous
 62
     2
100
AcDbCircle
 10
-90.87349957798733
 20
21.77592696698725
 30
0.0
 40
4.010410630990089
100
AcDbArc
 50
74.02000874164679
 51
84.84185523037544
  0
ARC
  5
2A6
102
{ACAD_REACTORS
330
35E
330
35E
330
35F
330
35F
102
}
330
70
100
AcDbEntity
  8
0
  6
Continuous
 62
     2
100
AcDbCircle
 10
-90.39743295918265
 20
24.38399337680901
 30
0.0
 40
0.7487023016407734
100
AcDbArc
 50
71.55192388185435
 51
113.3722778881285
  0
ARC
  5
2A7
102
{ACAD_REACTORS
330
35E
330
35E
330
35F
330
35F
102
}
330
70
100
AcDbEntity
  8
0
  6
Continuous
 62
     2
100
AcDbCircle
 10
-90.52672224240746
 20
24.34419929419169
 30
0.0
 40
0.4227934381775271
100
AcDbArc
 50
208.5214732576914
 51
246.6277221118263
  0
ARC
  5
2A8
102
{ACAD_REACTORS
330
35E
330
35E
330
35F
330
35F
102
}
330
70
100
AcDbEntity
  8
0
  6
Continuous
 62
     2
100
AcDbCircle
 10
-90.39743295918265
 20
24.64336625180327
 30
0.0
 40
0.748702301640389
100
AcDbArc
 50
246.6277221118711
 51
288.4480761181571
  0
ARC
  5
2A9
102
{ACAD_REACTORS
330
35E
330
35E
330
35F
330
35F
102
}
330
70
100
AcDbEntity
  8
0
  6
Continuous
 62
     2
100
AcDbCircle
 10
-90.74302612749739
 20
25.67935449646209
 30
0.0
 40
1.840813230556011
100
AcDbArc
 50
288.4480761181332
 51
301.9309089499624
  0
ARC
  5
2AA
102
{ACAD_REACTORS
330
35A
330
35A
330
35B
330
35B
102
}
330
70
100
AcDbEntity
  8
0
  6
Continuous
 62
     2
100
AcDbCircle
 10
-95.06126888171787
 20
26.28472807407697
 30
0.0
 40
0.7535935125161003
100
AcDbArc
 50
295.3740086781779
 51
64.62599132180713
  0
ARC
  5
2AB
102
{ACAD_REACTORS
330
35A
330
35A
330
35B
330
35B
102
}
330
70
100
AcDbEntity
  8
0
  6
Continuous
 62
     2
100
AcDbCircle
 10
-94.62652285024024
 20
27.70181641165926
 30
0.0
 40
0.2609230769224216
100
AcDbArc
 50
90.18896704255353
 51
180.0
  0
ARC
  5
2AC
102
{ACAD_REACTORS
330
35C
330
35C
330
35D
330
35D
102
}
330
70
100
AcDbEntity
  8
0
  6
Continuous
 62
     2
100
AcDbCircle
 10
-77.09748961649291
 20
24.33774299526162
 30
0.0
 40
0.7888619891124407
100
AcDbArc
 50
90.0
 51
109.3371432194312
  0
ARC
  5
2AD
102
{ACAD_REACTORS
330
35C
330
35C
330
35D
330
35D
102
}
330
70
100
AcDbEntity
  8
0
  6
Continuous
 62
     2
100
AcDbCircle
 10
-76.90683898841212
 20
24.51367981430615
 30
0.0
 40
0.777735318458663
100
AcDbArc
 50
151.4785267423618
 51
208.5214732576692
  0
ARC
  5
2AE
102
{ACAD_REACTORS
330
35C
330
35C
330
35D
330
35D
102
}
330
70
100
AcDbEntity
  8
0
  6
Continuous
 62
     2
100
AcDbCircle
 10
-77.08941520773305
 20
24.64336625180327
 30
0.0
 40
0.7487023016407047
100
AcDbArc
 50
246.6277221118153
 51
288.4480761180802
  0
ARC
  5
2AF
102
{ACAD_REACTORS
330
35C
330
35C
330
35D
330
35D
102
}
330
70
100
AcDbEntity
  8
0
  6
Continuous
 62
     2
100
AcDbCircle
 10
-77.4350083760487
 20
25.67935449646163
 30
0.0
 40
1.840813230556001
100
AcDbArc
 50
288.4480761181333
 51
301.930908949938
  0
ARC
  5
2B0
102
{ACAD_REACTORS
330
35C
330
35C
330
35D
330
35D
102
}
330
70
100
AcDbEntity
  8
0
  6
Continuous
 62
     2
100
AcDbCircle
 10
-77.56548182653864
 20
27.2514326616255
 30
0.0
 40
4.010410630990753
100
AcDbArc
 50
275.1581447696369
 51
285.9799912583387
  0
ARC
  5
2B1
102
{ACAD_REACTORS
330
35C
330
35C
330
35D
330
35D
102
}
330
70
100
AcDbEntity
  8
0
  6
Continuous
 62
     2
100
AcDbCircle
 10
-77.32675778130239
 20
24.60689498954154
 30
0.0
 40
1.355119937140894
100
AcDbArc
 50
195.0618917771007
 51
275.1581447696763
  0
ARC
  5
2B2
102
{ACAD_REACTORS
330
354
330
354
330
355
330
355
102
}
330
70
100
AcDbEntity
  8
0
  6
Continuous
 62
     2
100
AcDbCircle
 10
-90.32528117939421
 20
27.67957204302225
 30
0.0
 40
0.8722030093666717
100
AcDbArc
 50
270.0
 51
90.0
  0
ARC
  5
2B3
102
{ACAD_REACTORS
330
35A
330
35A
330
35B
330
35B
102
}
330
70
100
AcDbEntity
  8
0
  6
Continuous
 62
     2
100
AcDbCircle
 10
-96.75507548373753
 20
24.10158701821387
 30
0.0
 40
0.2609230769220403
100
AcDbArc
 50
180.0
 51
270.0
  0
ARC
  5
2B4
102
{ACAD_REACTORS
330
35A
330
35A
330
35B
330
35B
102
}
330
70
100
AcDbEntity
  8
0
  6
Continuous
 62
     2
100
AcDbCircle
 10
-95.5353785738123
 20
27.7019630865751
 30
0.0
 40
0.2609230769228361
100
AcDbArc
 50
0.0
 51
90.0
  0
ARC
  5
2B5
102
{ACAD_REACTORS
330
35A
330
35A
330
35B
330
35B
102
}
330
70
100
AcDbEntity
  8
0
  6
Continuous
 62
     2
100
AcDbCircle
 10
-95.5353785738123
 20
27.20276918652505
 30
0.0
 40
0.2609230769224065
100
AcDbArc
 50
295.1944106485601
 51
0.0
  0
ARC
  5
2B6
102
{ACAD_REACTORS
330
35A
330
35A
330
35B
330
35B
102
}
330
70
100
AcDbEntity
  8
0
  6
Continuous
 62
     2
100
AcDbCircle
 10
-95.5353785738123
 20
24.10158701821387
 30
0.0
 40
0.2609230769228894
100
AcDbArc
 50
270.0
 51
0.0
  0
ARC
  5
2B7
102
{ACAD_REACTORS
330
35A
330
35A
330
35B
330
35B
102
}
330
70
100
AcDbEntity
  8
0
  6
Continuous
 62
     2
100
AcDbCircle
 10
-97.24589753063549
 20
28.20115966775921
 30
0.0
 40
0.3506153846147413
100
AcDbArc
 50
90.0
 51
180.0
  0
ARC
  5
2B8
102
{ACAD_REACTORS
330
35A
330
35A
330
35B
330
35B
102
}
330
70
100
AcDbEntity
  8
0
  6
Continuous
 62
     2
100
AcDbCircle
 10
-92.72249910855544
 20
28.20115966775921
 30
0.0
 40
0.3506153846147981
100
AcDbArc
 50
0.0
 51
90.0
  0
ARC
  5
2B9
102
{ACAD_REACTORS
330
35A
330
35A
330
35B
330
35B
102
}
330
70
100
AcDbEntity
  8
0
  6
Continuous
 62
     2
100
AcDbCircle
 10
-92.72249910855544
 20
23.60239043701524
 30
0.0
 40
0.3506153846142901
100
AcDbArc
 50
270.0
 51
0.0
  0
ARC
  5
2BA
102
{ACAD_REACTORS
330
358
330
358
330
359
330
359
102
}
330
70
100
AcDbEntity
  8
0
  6
Continuous
 62
     2
100
AcDbCircle
 10
-85.10400002831454
 20
27.2898702904833
 30
0.0
 40
0.6378510567600001
100
AcDbArc
 50
321.8795802028413
 51
38.12041979715874
  0
ARC
  5
2BB
102
{ACAD_REACTORS
330
358
330
358
330
359
330
359
102
}
330
70
100
AcDbEntity
  8
0
  6
Continuous
 62
     2
100
AcDbCircle
 10
-84.93892561811106
 20
27.16034039121017
 30
0.0
 40
0.4280236140606795
100
AcDbArc
 50
218.1204197971439
 51
321.8795802028561
  0
ARC
  5
2BC
102
{ACAD_REACTORS
330
356
330
356
330
357
330
357
102
}
330
70
100
AcDbEntity
  8
0
  6
Continuous
 62
     2
100
AcDbCircle
 10
-87.9802542040286
 20
24.51367981430615
 30
0.0
 40
1.204986845993435
100
AcDbArc
 50
297.5481481757013
 51
62.45185182429798
  0
ARC
  5
2BD
102
{ACAD_REACTORS
330
356
330
356
330
357
330
357
102
}
330
70
100
AcDbEntity
  8
0
  6
Continuous
 62
     2
100
AcDbCircle
 10
-88.4446176616043
 20
24.51367981430615
 30
0.0
 40
1.204986845992986
100
AcDbArc
 50
117.5481481756637
 51
242.451851824337
  0
ARC
  5
2BE
102
{ACAD_REACTORS
330
356
330
356
330
357
330
357
102
}
330
70
100
AcDbEntity
  8
0
  6
Continuous
 62
     2
100
AcDbCircle
 10
-88.21243593281645
 20
24.06857650000633
 30
0.0
 40
1.707008076205437
100
AcDbArc
 50
62.45185182430557
 51
117.5481481756674
  0
ARC
  5
2BF
102
{ACAD_REACTORS
330
356
330
356
330
357
330
357
102
}
330
70
100
AcDbEntity
  8
0
  6
Continuous
 62
     2
100
AcDbCircle
 10
-88.21243593281645
 20
24.95878312860642
 30
0.0
 40
1.707008076205441
100
AcDbArc
 50
242.4518518243401
 51
297.548148175687
  0
ARC
  5
2C0
102
{ACAD_REACTORS
330
358
330
358
330
359
330
359
102
}
330
70
100
AcDbEntity
  8
0
  6
Continuous
 62
     2
100
AcDbCircle
 10
-84.77385120790757
 20
27.2898702904833
 30
0.0
 40
0.6378510567600001
100
AcDbArc
 50
141.8795802028413
 51
218.1204197971587
  0
ARC
  5
2C1
102
{ACAD_REACTORS
330
358
330
358
330
359
330
359
102
}
330
70
100
AcDbEntity
  8
0
  6
Continuous
 62
     2
100
AcDbCircle
 10
-84.93892561811106
 20
27.41940018975642
 30
0.0
 40
0.4280236140606861
100
AcDbArc
 50
38.12041979714503
 51
141.879580202855
  0
ARC
  5
2C2
102
{ACAD_REACTORS
330
35A
330
35A
330
35B
330
35B
102
}
330
70
100
AcDbEntity
  8
0
  6
Continuous
 62
     2
100
AcDbCircle
 10
-97.24589753063549
 20
23.60239043701524
 30
0.0
 40
0.3506153846138886
100
AcDbArc
 50
180.0
 51
270.0
  0
ARC
  5
2C3
102
{ACAD_REACTORS
330
35A
330
35A
330
35B
330
35B
102
}
330
70
100
AcDbEntity
  8
0
  6
Continuous
 62
     2
100
AcDbCircle
 10
-95.5353785738123
 20
25.36668696162843
 30
0.0
 40
0.2609230769228361
100
AcDbArc
 50
0.0
 51
64.80558935143995
  0
ARC
  5
2C4
102
{ACAD_REACTORS
330
35A
330
35A
330
35B
330
35B
102
}
330
70
100
AcDbEntity
  8
0
  6
Continuous
 62
     2
100
AcDbCircle
 10
-95.1034906006098
 20
26.28472807407697
 30
0.0
 40
0.7536343169897688
100
AcDbArc
 50
115.1944106485234
 51
244.8055893514914
  0
ARC
  5
2C5
102
{ACAD_REACTORS
330
35A
330
35A
330
35B
330
35B
102
}
330
70
100
AcDbEntity
  8
0
  6
Continuous
 62
     2
100
AcDbCircle
 10
-96.75507548373753
 20
27.7019630865751
 30
0.0
 40
0.2609230769224631
100
AcDbArc
 50
90.0
 51
180.0
  0
ARC
  5
2C6
102
{ACAD_REACTORS
330
354
330
354
330
355
330
355
102
}
330
70
100
AcDbEntity
  8
0
  6
Continuous
 62
     2
100
AcDbCircle
 10
-90.69013450686396
 20
27.71213069692516
 30
0.0
 40
0.2916229955959899
100
AcDbArc
 50
270.0
 51
90.0
  0
ARC
  5
2C7
102
{ACAD_REACTORS
330
358
330
358
330
359
330
359
102
}
330
70
100
AcDbEntity
  8
0
  6
Continuous
 62
     2
100
AcDbCircle
 10
-85.1176628165947
 20
27.2898702904833
 30
0.0
 40
1.26190476190564
100
AcDbArc
 50
90.0
 51
270.0
  0
ARC
  5
2C8
102
{ACAD_REACTORS
330
35C
330
35C
330
35D
330
35D
102
}
330
70
100
AcDbEntity
  8
0
  6
Continuous
 62
     2
100
AcDbCircle
 10
-77.32675778130239
 20
24.42046463907074
 30
0.0
 40
1.355119937140589
100
AcDbArc
 50
90.0
 51
164.9381082228993
  0
ARC
  5
2C9
102
{ACAD_REACTORS
330
35C
330
35C
330
35D
330
35D
102
}
330
70
100
AcDbEntity
  8
0
  6
Continuous
 62
     2
100
AcDbCircle
 10
-77.67314442879137
 20
24.51367981430615
 30
0.0
 40
0.9964100565231085
100
AcDbArc
 50
164.9381082229055
 51
195.0618917770957
  0
ARC
  5
2CA
102
{ACAD_REACTORS
330
35C
330
35C
330
35D
330
35D
102
}
330
70
100
AcDbEntity
  8
0
  6
Continuous
 62
     2
100
AcDbCircle
 10
-77.21870449095877
 20
24.34419929419169
 30
0.0
 40
0.4227934381785501
100
AcDbArc
 50
208.5214732576884
 51
246.6277221118405
  0
ARC
  5
2CB
102
{ACAD_REACTORS
330
35C
330
35C
330
35D
330
35D
102
}
330
70
100
AcDbEntity
  8
0
  6
Continuous
 62
     2
100
AcDbCircle
 10
-77.21870449095877
 20
24.68316033442106
 30
0.0
 40
0.4227934381772261
100
AcDbArc
 50
109.337143219486
 51
151.478526742422
  0
ARC
  5
2CC
102
{ACAD_REACTORS
330
35A
330
35A
330
35B
330
35B
102
}
330
70
100
AcDbEntity
  8
0
  6
Continuous
 62
     2
100
AcDbCircle
 10
-94.62652285024024
 20
24.88721319253691
 30
0.0
 40
0.2609230769229498
100
AcDbArc
 50
180.0
 51
269.8110329574465
  0
ARC
  5
2CD
102
{ACAD_REACTORS
330
35A
330
35A
330
35B
330
35B
102
}
330
70
100
AcDbEntity
  8
0
  6
Continuous
 62
     2
100
AcDbCircle
 10
-94.62188141609977
 20
26.29451480209808
 30
0.0
 40
1.668232340440704
100
AcDbArc
 50
269.8110329575862
 51
90.18896704241376
  0
ARC
  5
2CE
102
{ACAD_REACTORS
330
35A
330
35A
330
35B
330
35B
102
}
330
70
100
AcDbEntity
  8
0
  6
Continuous
 62
     2
100
AcDbCircle
 10
-94.62652285024024
 20
27.20137402446359
 30
0.0
 40
0.2609230769229498
100
AcDbArc
 50
180.0
 51
244.6259913216399
  0
ARC
  5
2CF
102
{ACAD_REACTORS
330
35A
330
35A
330
35B
330
35B
102
}
330
70
100
AcDbEntity
  8
0
  6
Continuous
 62
     2
100
AcDbCircle
 10
-94.62652285024024
 20
25.36808212368988
 30
0.0
 40
0.2609230769227309
100
AcDbArc
 50
115.3740086783591
 51
180.0
  0
ARC
  5
2D0
102
{ACAD_REACTORS
330
35E
330
35E
330
35F
330
35F
102
}
330
70
100
AcDbEntity
  8
0
  6
Continuous
 62
     2
100
AcDbCircle
 10
-90.63477553275106
 20
24.42046463907074
 30
0.0
 40
1.355119937140908
100
AcDbArc
 50
84.84185523036265
 51
164.9381082228907
  0
ARC
  5
2D1
102
{ACAD_REACTORS
330
35E
330
35E
330
35F
330
35F
102
}
330
70
100
AcDbEntity
  8
0
  6
Continuous
 62
     2
100
AcDbCircle
 10
-90.98116218024097
 20
24.51367981430615
 30
0.0
 40
0.9964100565214618
100
AcDbArc
 50
164.93810822288
 51
195.0618917770963
  0
ARC
  5
2D2
102
{ACAD_REACTORS
330
35E
330
35E
330
35F
330
35F
102
}
330
70
100
AcDbEntity
  8
0
  6
Continuous
 62
     2
100
AcDbCircle
 10
-90.63477553275106
 20
24.60689498954154
 30
0.0
 40
1.355119937140023
100
AcDbArc
 50
195.061891777091
 51
275.1581447696391
  0
ARC
  5
2D3
102
{ACAD_REACTORS
330
35E
330
35E
330
35F
330
35F
102
}
330
70
100
AcDbEntity
  8
0
  6
Continuous
 62
     2
100
AcDbCircle
 10
-90.87349957798733
 20
27.2514326616255
 30
0.0
 40
4.010410630990215
100
AcDbArc
 50
275.1581447696245
 51
285.9799912583532
  0
ARC
  5
2D4
102
{ACAD_REACTORS
330
35E
330
35E
330
35F
330
35F
102
}
330
70
100
AcDbEntity
  8
0
  6
Continuous
 62
     2
100
AcDbCircle
 10
-90.21485673986172
 20
24.51367981430615
 30
0.0
 40
0.7777353184572785
100
AcDbArc
 50
151.4785267422688
 51
208.5214732577029
  0
ARC
  5
2D5
102
{ACAD_REACTORS
330
35E
330
35E
330
35F
330
35F
102
}
330
70
100
AcDbEntity
  8
0
  6
Continuous
 62
     2
100
AcDbCircle
 10
-90.52672224240746
 20
24.68316033442106
 30
0.0
 40
0.4227934381775693
100
AcDbArc
 50
113.3722778881983
 51
151.4785267423099
  0
ARC
  5
2D6
102
{ACAD_REACTORS
330
35E
330
35E
330
35F
330
35F
102
}
330
70
100
AcDbEntity
  8
0
  6
Continuous
 62
     2
100
AcDbCircle
 10
-90.74302612749739
 20
23.34800513215065
 30
0.0
 40
1.840813230556617
100
AcDbArc
 50
58.06909105003761
 51
71.55192388186693
  0
ARC
  5
2D7
102
{ACAD_REACTORS
330
356
330
356
330
357
330
357
102
}
330
70
100
AcDbEntity
  8
0
  6
Continuous
 62
     2
100
AcDbCircle
 10
-88.21243593281645
 20
24.64320971357927
 30
0.0
 40
0.42802361406059
100
AcDbArc
 50
38.1204197971533
 51
141.8795802028561
  0
ARC
  5
2D8
102
{ACAD_REACTORS
330
356
330
356
330
357
330
357
102
}
330
70
100
AcDbEntity
  8
0
  6
Continuous
 62
     2
100
AcDbCircle
 10
-88.04736152261307
 20
24.51367981430615
 30
0.0
 40
0.6378510567599041
100
AcDbArc
 50
141.8795802028357
 51
218.1204197971658
  0
ARC
  5
2D9
102
{ACAD_REACTORS
330
356
330
356
330
357
330
357
102
}
330
70
100
AcDbEntity
  8
0
  6
Continuous
 62
     2
100
AcDbCircle
 10
-88.21243593281645
 20
24.38414991503346
 30
0.0
 40
0.428023614060958
100
AcDbArc
 50
218.1204197971914
 51
321.8795802027992
  0
ARC
  5
2DA
102
{ACAD_REACTORS
330
356
330
356
330
357
330
357
102
}
330
70
100
AcDbEntity
  8
0
  6
Continuous
 62
     2
100
AcDbCircle
 10
-88.37751034302005
 20
24.51367981430615
 30
0.0
 40
0.6378510567600066
100
AcDbArc
 50
321.8795802028405
 51
38.12041979715799
  0
CIRCLE
  5
2DB
330
70
100
AcDbEntity
  8
1
  6
Continuous
 62
     2
100
AcDbCircle
 10
-99.16429845094157
 20
32.276775052395
 30
0.0
 40
1.5
  0
CIRCLE
  5
2DC
330
70
100
AcDbEntity
  8
1
  6
Continuous
 62
     2
100
AcDbCircle
 10
-99.16429845094157
 20
32.276775052395
 30
0.0
 40
1.0
  0
CIRCLE
  5
2DD
102
{ACAD_REACTORS
330
35A
330
35A
330
35B
330
35B
102
}
330
70
100
AcDbEntity
  8
0
  6
Continuous
 62
     2
100
AcDbCircle
 10
-95.08095071202592
 20
26.28472807407697
 30
0.0
 40
0.3892387874202541
  0
MTEXT
  5
2DF
330
70
100
AcDbEntity
  8
1
 62
     3
100
AcDbMText
 10
-27.00473386268453
 20
37.75177505239499
 30
0.0
 40
2.0
 41
0.0
 71
     1
 72
     1
  1
Teilautomatisierung
  7
CONVERTER_12
 73
     1
 44
1.20048019207683
  0
TEXT
  5
2E1
330
70
100
AcDbEntity
  8
1
 62
     7
100
AcDbText
 10
-49.72664605698912
 20
39.951775052395
 30
0.0
 40
2.5
  1
04
 41
0.81
  7
CONVERTER_13
100
AcDbText
  0
TEXT
  5
2E3
330
70
100
AcDbEntity
  8
1
 62
     3
100
AcDbText
 10
-66.85655827604494
 20
27.201775052395
 30
0.0
 40
2.5
  1
KUNDENZCHNG-SELECT
 41
0.45
  7
CONVERTER_14
100
AcDbText
  0
TEXT
  5
2E5
330
70
100
AcDbEntity
  8
1
 62
     3
100
AcDbText
 10
8.40665453238597
 20
39.951775052395
 30
0.0
 40
2.5
  1
 
 41
0.54
  7
CONVERTER_15
100
AcDbText
  0
TEXT
  5
2E6
330
70
100
AcDbEntity
  8
1
 62
     7
100
AcDbText
 10
-37.21175374929255
 20
27.201775052395
 30
0.0
 40
2.5
  1
00469699
 41
0.81
  7
CONVERTER_13
100
AcDbText
  0
TEXT
  5
2E7
330
70
100
AcDbEntity
  8
1
 62
     7
100
AcDbText
 10
-66.35655827604512
 20
39.951775052395
 30
0.0
 40
2.5
  1
3005947
 41
0.81
  7
CONVERTER_13
100
AcDbText
  0
TEXT
  5
2E8
330
70
100
AcDbEntity
  8
1
 62
     3
100
AcDbText
 10
-43.95655827604492
 20
39.951775052395
 30
0.0
 40
2.5
  1
-
 41
0.54
  7
CONVERTER_15
100
AcDbText
  0
MTEXT
  5
2E9
330
70
100
AcDbEntity
  8
1
 62
     3
100
AcDbMText
 10
2.94745039154648
 20
39.95177505239511
 30
0.0
 40
2.5
 41
0.0
 71
     8
 72
     1
  1
1:1
  7
CONVERTER_12
 73
     1
 44
1.32052821128451
  0
MTEXT
  5
2EA
330
70
100
AcDbEntity
  8
1
 62
     7
100
AcDbMText
 10
-21.28415601266943
 20
20.65177505239523
 30
0.0
 40
3.0
 41
0.0
 71
     5
 72
     1
  1
FBS  2-10
  7
CONVERTER_13
 73
     1
 44
1.20048019207683
  0
TEXT
  5
2EB
330
70
100
AcDbEntity
  8
1
 62
     3
100
AcDbText
 10
-18.71175374929293
 20
27.201775052395
 30
0.0
 40
2.5
  1
 
 41
0.54
  7
CONVERTER_15
100
AcDbText
  0
TEXT
  5
2EC
330
70
100
AcDbEntity
  8
1
 62
     7
100
AcDbText
 10
-51.88301055403113
 20
39.951775052395
 30
0.0
 40
2.5
  1
/
 41
0.9
  7
CONVERTER_11
100
AcDbText
  0
MTEXT
  5
2ED
330
70
100
AcDbEntity
  8
1
 62
     2
100
AcDbMText
 10
-88.10655827604492
 20
40.776775052395
 30
0.0
 40
1.8
 41
0.0
 71
     5
 72
     1
  1
19.08.08
  7
CONVERTER_11
 73
     1
 44
1.32052821128451
  0
MTEXT
  5
2EE
330
70
100
AcDbEntity
  8
1
 62
     2
100
AcDbMText
 10
-88.10655827604492
 20
36.526775052395
 30
0.0
 40
1.8
 41
0.0
 71
     5
 72
     1
  1
20.08.08
  7
CONVERTER_11
 73
     1
 44
1.32052821128451
  0
MTEXT
  5
2EF
330
70
100
AcDbEntity
  8
1
 62
     2
100
AcDbMText
 10
-74.60655827604498
 20
40.776775052395
 30
0.0
 40
1.8
 41
0.0
 71
     5
 72
     1
  1
pbfm09
  7
CONVERTER_11
 73
     1
 44
1.32052821128451
  0
MTEXT
  5
2F0
330
70
100
AcDbEntity
  8
1
 62
     2
100
AcDbMText
 10
-74.60655827604498
 20
36.526775052395
 30
0.0
 40
1.8
 41
0.0
 71
     5
 72
     1
  1
pbpc03
  7
CONVERTER_11
 73
     1
 44
1.32052821128451
  0
MTEXT
  5
2F1
330
70
100
AcDbEntity
  8
1
 62
     2
100
AcDbMText
 10
-66.85655827604494
 20
33.40177505239494
 30
0.0
 40
1.8
 41
0.0
 71
     1
 72
     1
  1
document-type
  7
CONVERTER_11
 73
     1
 44
1.20048019207683
  0
MTEXT
  5
2F2
330
70
100
AcDbEntity
  8
1
 62
     2
100
AcDbMText
 10
-99.55655827604487
 20
44.10177505239503
 30
0.0
 40
1.8
 41
0.0
 71
     8
 72
     1
  1
00
  7
CONVERTER_11
 73
     1
 44
1.20048019207683
  0
MTEXT
  5
2F3
330
70
100
AcDbEntity
  8
1
 62
     2
100
AcDbMText
 10
-66.85655827604494
 20
24.901775052395
 30
0.0
 40
1.8
 41
0.0
 71
     1
 72
     1
  1
description
  7
CONVERTER_11
 73
     1
 44
1.20048019207683
  0
TEXT
  5
2F4
330
70
100
AcDbEntity
  8
1
 62
     2
100
AcDbText
 10
-79.82124946623128
 20
18.651775052395
 30
0.0
 40
1.8
  1
1
 41
0.9
  7
CONVERTER_11
100
AcDbText
  0
TEXT
  5
2F5
330
70
100
AcDbEntity
  8
1
 62
     2
100
AcDbText
 10
-94.61029330570277
 20
18.60252639859305
 30
0.0
 40
1.8
  1
 
 41
0.9
  7
CONVERTER_11
100
AcDbText
  0
MTEXT
  5
2F6
330
70
100
AcDbEntity
  8
1
 62
     2
100
AcDbMText
 10
-66.75655827604493
 20
46.151775052395
 30
0.0
 40
1.8
 41
0.0
 71
     1
 72
     1
  1
ident.-No. / RI
  7
CONVERTER_11
 73
     1
 44
1.20048019207683
  0
MTEXT
  5
2F7
330
70
100
AcDbEntity
  8
1
 62
     3
100
AcDbMText
 10
-78.05655827604497
 20
32.27677505239511
 30
0.0
 40
2.5
 41
0.0
 71
     5
 72
     1
  1
DIN A4
  7
CONVERTER_11
 73
     1
 44
1.20048019207683
  0
MTEXT
  5
2F8
330
70
100
AcDbEntity
  8
1
 62
     2
100
AcDbMText
 10
-99.55655827604487
 20
36.526775052395
 30
0.0
 40
1.8
 41
0.0
 71
     5
 72
     1
  1
check.
  7
CONVERTER_11
 73
     1
 44
1.20048019207683
  0
MTEXT
  5
2F9
330
70
100
AcDbEntity
  8
1
 62
     2
100
AcDbMText
 10
-99.55655827604487
 20
40.776775052395
 30
0.0
 40
1.8
 41
0.0
 71
     5
 72
     1
  1
creat.
  7
CONVERTER_11
 73
     1
 44
1.20048019207683
  0
MTEXT
  5
2FA
330
70
100
AcDbEntity
  8
1
 62
     2
100
AcDbMText
 10
-0.41175374929304
 20
46.151775052395
 30
0.0
 40
1.8
 41
0.0
 71
     1
 72
     1
  1
scale
  7
CONVERTER_11
 73
     1
 44
1.20048019207683
  0
MTEXT
  5
2FB
330
70
100
AcDbEntity
  8
1
 62
     2
100
AcDbMText
 10
-175.88415601267
 20
18.651775052395
 30
0.0
 40
1.8
 41
0.0
 71
     8
 72
     1
  1
revision
  7
CONVERTER_11
 73
     1
 44
1.32052821128451
  0
MTEXT
  5
2FC
330
70
100
AcDbEntity
  8
1
 62
     2
100
AcDbMText
 10
-74.60655827604498
 20
44.10177505239503
 30
0.0
 40
1.8
 41
0.0
 71
     8
 72
     1
  1
name
  7
CONVERTER_11
 73
     1
 44
1.32052821128451
  0
MTEXT
  5
2FD
330
70
100
AcDbEntity
  8
1
 62
     2
100
AcDbMText
 10
-88.10655827604498
 20
44.10177505239503
 30
0.0
 40
1.8
 41
0.0
 71
     8
 72
     1
  1
date
  7
CONVERTER_11
 73
     1
 44
1.32052821128451
  0
MTEXT
  5
2FE
330
70
100
AcDbEntity
  8
1
 62
     2
100
AcDbMText
 10
-223.6117537492941
 20
18.651775052395
 30
0.0
 40
1.8
 41
0.0
 71
     8
 72
     1
  1
RI
  7
CONVERTER_11
 73
     1
 44
1.32052821128451
  0
MTEXT
  5
2FF
330
70
100
AcDbEntity
  8
1
 62
     2
100
AcDbMText
 10
-43.73136911845344
 20
46.15177505239483
 30
0.0
 40
1.8
 41
0.0
 71
     1
 72
     1
  1
material
  7
CONVERTER_11
 73
     1
 44
1.20048019207683
  0
MTEXT
  5
300
330
70
100
AcDbEntity
  8
1
 62
     2
100
AcDbMText
 10
-213.7617537492951
 20
18.651775052395
 30
0.0
 40
1.8
 41
0.0
 71
     8
 72
     1
  1
date
  7
CONVERTER_11
 73
     1
 44
1.32052821128451
  0
MTEXT
  5
301
330
70
100
AcDbEntity
  8
1
 62
     2
100
AcDbMText
 10
-138.0065582760449
 20
18.651775052395
 30
0.0
 40
1.8
 41
0.0
 71
     8
 72
     1
  1
name
  7
CONVERTER_11
 73
     1
 44
1.32052821128451
  0
MTEXT
  5
302
330
70
100
AcDbEntity
  8
1
 62
     2
100
AcDbMText
 10
-124.5065582760448
 20
18.651775052395
 30
0.0
 40
1.8
 41
0.0
 71
     8
 72
     1
  1
check.on
  7
CONVERTER_11
 73
     1
 44
1.32052821128451
  0
MTEXT
  5
303
330
70
100
AcDbEntity
  8
1
 62
     2
100
AcDbMText
 10
-111.0065582760449
 20
18.651775052395
 30
0.0
 40
1.8
 41
0.0
 71
     8
 72
     1
  1
name
  7
CONVERTER_11
 73
     1
 44
1.32052821128451
  0
TEXT
  5
304
330
70
100
AcDbEntity
  8
1
 62
     2
100
AcDbText
 10
-103.2565582760448
 20
18.64275783740333
 30
0.0
 40
1.8
  1
page
 41
0.9
  7
CONVERTER_11
100
AcDbText
  0
TEXT
  5
305
330
70
100
AcDbEntity
  8
1
 62
     2
100
AcDbText
 10
-85.05655827604497
 20
18.64275783740344
 30
0.0
 40
1.8
  1
of
 41
0.9
  7
CONVERTER_11
100
AcDbText
  0
MTEXT
  5
307
330
70
100
AcDbEntity
  8
1
 62
     2
100
AcDbMText
 10
-37.21175374929255
 20
33.401775052395
 30
0.0
 40
1.8
 41
0.0
 71
     1
 72
     1
  1
document-No.
  7
CONVERTER_16
 73
     1
 44
1.32052821128451
  0
MTEXT
  5
308
330
70
100
AcDbEntity
  8
1
 62
     2
100
AcDbMText
 10
8.70665453238587
 20
46.151775052395
 30
0.0
 40
1.8
 41
0.0
 71
     1
 72
     1
  1
dim.var.
  7
CONVERTER_11
 73
     1
 44
1.20048019207683
  0
MTEXT
  5
309
330
70
100
AcDbEntity
  8
1
 62
     7
100
AcDbMText
 10
-264.211753749294
 20
39.901775052395
 30
0.0
 40
3.5
 41
0.0
 71
     5
 72
     1
  1
D
  7
CONVERTER_11
 73
     1
 44
1.20048019207683
  0
MTEXT
  5
30A
330
70
100
AcDbEntity
  8
1
 62
     7
100
AcDbMText
 10
-264.211753749294
 20
92.401775052395
 30
0.0
 40
3.5
 41
0.0
 71
     5
 72
     1
  1
C
  7
CONVERTER_11
 73
     1
 44
1.20048019207683
  0
MTEXT
  5
30B
330
70
100
AcDbEntity
  8
1
 62
     7
100
AcDbMText
 10
-264.211753749294
 20
142.401775052395
 30
0.0
 40
3.5
 41
0.0
 71
     5
 72
     1
  1
B
  7
CONVERTER_11
 73
     1
 44
1.20048019207683
  0
MTEXT
  5
30C
330
70
100
AcDbEntity
  8
1
 62
     7
100
AcDbMText
 10
-264.211753749294
 20
194.901775052395
 30
0.0
 40
3.5
 41
0.0
 71
     5
 72
     1
  1
A
  7
CONVERTER_11
 73
     1
 44
1.20048019207683
  0
MTEXT
  5
30D
330
70
100
AcDbEntity
  8
1
 62
     7
100
AcDbMText
 10
6.03824625070436
 20
14.901775052395
 30
0.0
 40
3.5
 41
0.0
 71
     5
 72
     1
  1
6
  7
CONVERTER_11
 73
     1
 44
1.20048019207683
  0
MTEXT
  5
30E
330
70
100
AcDbEntity
  8
1
 62
     7
100
AcDbMText
 10
-43.21175374929491
 20
14.901775052395
 30
0.0
 40
3.5
 41
0.0
 71
     5
 72
     1
  1
5
  7
CONVERTER_11
 73
     1
 44
1.20048019207683
  0
MTEXT
  5
30F
330
70
100
AcDbEntity
  8
1
 62
     7
100
AcDbMText
 10
-93.21175374929497
 20
14.901775052395
 30
0.0
 40
3.5
 41
0.0
 71
     5
 72
     1
  1
4
  7
CONVERTER_11
 73
     1
 44
1.20048019207683
  0
MTEXT
  5
310
330
70
100
AcDbEntity
  8
1
 62
     7
100
AcDbMText
 10
-143.211753749295
 20
14.901775052395
 30
0.0
 40
3.5
 41
0.0
 71
     5
 72
     1
  1
3
  7
CONVERTER_11
 73
     1
 44
1.20048019207683
  0
MTEXT
  5
311
330
70
100
AcDbEntity
  8
1
 62
     7
100
AcDbMText
 10
-193.211753749295
 20
14.901775052395
 30
0.0
 40
3.5
 41
0.0
 71
     5
 72
     1
  1
2
  7
CONVERTER_11
 73
     1
 44
1.20048019207683
  0
MTEXT
  5
312
330
70
100
AcDbEntity
  8
1
 62
     7
100
AcDbMText
 10
-242.4617537492946
 20
14.901775052395
 30
0.0
 40
3.5
 41
0.0
 71
     5
 72
     1
  1
1
  7
CONVERTER_11
 73
     1
 44
1.20048019207683
  0
MTEXT
  5
313
330
70
100
AcDbEntity
  8
1
 62
     3
100
AcDbMText
 10
-88.85357612443497
 20
204.1930832076938
 30
0.0
 40
1.8
 41
0.0
 71
     7
 72
     1
  3
The copying, distribution and utilistion of this document as well as the communication\Pof the contents to others without expressed authorization is prohibited according to\P\U+00a718 UWG German Law. Offenders will be held liable for the payment of 
  1
damages\Paccording to (\U+00a719 UWG German Law). All rights reserved, in particular the right to\Pcarry out patent, utility model or ornamental design registrations.\PFlachsmarktstra\U+00dfe 8  D-32825 Blomberg
  7
CONVERTER_11
 73
     1
 44
0.99639855942377
  0
MTEXT
  5
314
330
70
100
AcDbEntity
  8
1
 62
     3
100
AcDbMText
 10
-261.7066859632231
 20
204.1930832076938
 30
0.0
 40
1.8
 41
0.0
 71
     7
 72
     1
  3
Weitergabe sowie Vervielf\U+00e4ltigung dieses Dokuments, Verwertung und\PMitteilung seines Inhalts gem\U+00e4\U+00df \U+00a718 UWG verboten, soweit nicht aus-\Pdr\U+00fccklich gestattet. Zuwiderhandlungen verpflichten zu Schadenersatz\P(\U+00a719 U
  1
WG). Alle Rechte vorbehalten, insbesondere das Recht, Patent-,\PGebrauchsmuster- oder Geschmacksmusteranmeldungen durchzuf\U+00fchren.\PPhoenix Contact GmbH & Co. KG
  7
CONVERTER_11
 73
     1
 44
0.99639855942377
  0
MTEXT
  5
315
330
70
100
AcDbEntity
  8
1
 62
     7
100
AcDbMText
 10
27.78824625070416
 20
39.901775052395
 30
0.0
 40
3.5
 41
0.0
 71
     5
 72
     1
  1
D
  7
CONVERTER_11
 73
     1
 44
1.20048019207683
  0
MTEXT
  5
316
330
70
100
AcDbEntity
  8
1
 62
     7
100
AcDbMText
 10
27.78824625070416
 20
142.4017750523969
 30
0.0
 40
3.5
 41
0.0
 71
     5
 72
     1
  1
B
  7
CONVERTER_11
 73
     1
 44
1.20048019207683
  0
MTEXT
  5
317
330
70
100
AcDbEntity
  8
1
 62
     7
100
AcDbMText
 10
27.78824625070416
 20
194.901775052395
 30
0.0
 40
3.5
 41
0.0
 71
     5
 72
     1
  1
A
  7
CONVERTER_11
 73
     1
 44
1.20048019207683
  0
MTEXT
  5
318
330
70
100
AcDbEntity
  8
1
 62
     7
100
AcDbMText
 10
27.78824625070416
 20
92.40177505239693
 30
0.0
 40
3.5
 41
0.0
 71
     5
 72
     1
  1
C
  7
CONVERTER_11
 73
     1
 44
1.20048019207683
  0
MTEXT
  5
319
330
70
100
AcDbEntity
  8
1
 62
     2
100
AcDbMText
 10
-18.71175374929293
 20
33.401775052395
 30
0.0
 40
1.8
 41
0.0
 71
     1
 72
     1
  1
surface in um
  7
CONVERTER_11
 73
     1
 44
1.32052821128451
  0
MTEXT
  5
31A
330
70
100
AcDbEntity
  8
1
 62
     2
100
AcDbMText
 10
-37.21175374929255
 20
37.651775052395
 30
0.0
 40
1.8
 41
0.0
 71
     1
 72
     1
  1
part-rev.
  7
CONVERTER_12
 73
     1
 44
1.20048019207683
  0
MTEXT
  5
31B
330
70
100
AcDbEntity
  8
1
 62
     2
100
AcDbMText
 10
-223.6117537492941
 20
45.026775052395
 30
0.0
 40
2.0
 41
0.0
 71
     5
 72
     1
  1
 
  7
CONVERTER_11
 73
     1
 44
1.20048019207683
  0
MTEXT
  5
31C
330
70
100
AcDbEntity
  8
1
 62
     2
100
AcDbMText
 10
-223.6117537492941
 20
40.776775052395
 30
0.0
 40
2.0
 41
0.0
 71
     5
 72
     1
  1
 
  7
CONVERTER_11
 73
     1
 44
1.20048019207683
  0
MTEXT
  5
31D
330
70
100
AcDbEntity
  8
1
 62
     2
100
AcDbMText
 10
-223.6117537492941
 20
36.526775052395
 30
0.0
 40
2.0
 41
0.0
 71
     5
 72
     1
  1
 
  7
CONVERTER_11
 73
     1
 44
1.20048019207683
  0
MTEXT
  5
31E
330
70
100
AcDbEntity
  8
1
 62
     2
100
AcDbMText
 10
-223.6117537492941
 20
32.276775052395
 30
0.0
 40
2.0
 41
0.0
 71
     5
 72
     1
  1
 
  7
CONVERTER_11
 73
     1
 44
1.20048019207683
  0
MTEXT
  5
31F
330
70
100
AcDbEntity
  8
1
 62
     2
100
AcDbMText
 10
-223.6117537492941
 20
28.026775052395
 30
0.0
 40
2.0
 41
0.0
 71
     5
 72
     1
  1
 
  7
CONVERTER_11
 73
     1
 44
1.20048019207683
  0
MTEXT
  5
320
330
70
100
AcDbEntity
  8
1
 62
     2
100
AcDbMText
 10
-223.6117537492941
 20
23.77677505239511
 30
0.0
 40
2.0
 41
0.0
 71
     5
 72
     1
  1
01
  7
CONVERTER_11
 73
     1
 44
1.20048019207683
  0
MTEXT
  5
321
330
70
100
AcDbEntity
  8
1
 62
     2
100
AcDbMText
 10
-213.7617537492951
 20
23.77677505239511
 30
0.0
 40
2.0
 41
0.0
 71
     5
 72
     1
  1
06.12.10
  7
CONVERTER_11
 73
     1
 44
1.20048019207683
  0
MTEXT
  5
322
330
70
100
AcDbEntity
  8
1
 62
     2
100
AcDbMText
 10
-213.7617537492951
 20
28.026775052395
 30
0.0
 40
2.0
 41
0.0
 71
     5
 72
     1
  1
 
  7
CONVERTER_11
 73
     1
 44
1.20048019207683
  0
MTEXT
  5
323
330
70
100
AcDbEntity
  8
1
 62
     2
100
AcDbMText
 10
-213.7617537492951
 20
32.276775052395
 30
0.0
 40
2.0
 41
0.0
 71
     5
 72
     1
  1
 
  7
CONVERTER_11
 73
     1
 44
1.20048019207683
  0
MTEXT
  5
324
330
70
100
AcDbEntity
  8
1
 62
     2
100
AcDbMText
 10
-213.7617537492951
 20
36.526775052395
 30
0.0
 40
2.0
 41
0.0
 71
     5
 72
     1
  1
 
  7
CONVERTER_11
 73
     1
 44
1.20048019207683
  0
MTEXT
  5
325
330
70
100
AcDbEntity
  8
1
 62
     2
100
AcDbMText
 10
-213.7617537492951
 20
40.776775052395
 30
0.0
 40
2.0
 41
0.0
 71
     5
 72
     1
  1
 
  7
CONVERTER_11
 73
     1
 44
1.20048019207683
  0
MTEXT
  5
326
330
70
100
AcDbEntity
  8
1
 62
     2
100
AcDbMText
 10
-213.7617537492951
 20
45.026775052395
 30
0.0
 40
2.0
 41
0.0
 71
     5
 72
     1
  1
 
  7
CONVERTER_11
 73
     1
 44
1.20048019207683
  0
MTEXT
  5
327
330
70
100
AcDbEntity
  8
1
 62
     2
100
AcDbMText
 10
-138.0065582760449
 20
23.77677505239511
 30
0.0
 40
2.0
 41
0.0
 71
     5
 72
     1
  1
pbfm09
  7
CONVERTER_11
 73
     1
 44
1.20048019207683
  0
MTEXT
  5
328
330
70
100
AcDbEntity
  8
1
 62
     2
100
AcDbMText
 10
-138.0065582760449
 20
28.026775052395
 30
0.0
 40
2.0
 41
0.0
 71
     5
 72
     1
  1
 
  7
CONVERTER_11
 73
     1
 44
1.20048019207683
  0
MTEXT
  5
329
330
70
100
AcDbEntity
  8
1
 62
     2
100
AcDbMText
 10
-138.0065582760449
 20
32.276775052395
 30
0.0
 40
2.0
 41
0.0
 71
     5
 72
     1
  1
 
  7
CONVERTER_11
 73
     1
 44
1.20048019207683
  0
MTEXT
  5
32A
330
70
100
AcDbEntity
  8
1
 62
     2
100
AcDbMText
 10
-138.0065582760449
 20
36.526775052395
 30
0.0
 40
2.0
 41
0.0
 71
     5
 72
     1
  1
 
  7
CONVERTER_11
 73
     1
 44
1.20048019207683
  0
MTEXT
  5
32B
330
70
100
AcDbEntity
  8
1
 62
     2
100
AcDbMText
 10
-138.0065582760449
 20
40.776775052395
 30
0.0
 40
2.0
 41
0.0
 71
     5
 72
     1
  1
 
  7
CONVERTER_11
 73
     1
 44
1.20048019207683
  0
MTEXT
  5
32C
330
70
100
AcDbEntity
  8
1
 62
     2
100
AcDbMText
 10
-138.0065582760449
 20
45.026775052395
 30
0.0
 40
2.0
 41
0.0
 71
     5
 72
     1
  1
 
  7
CONVERTER_11
 73
     1
 44
1.20048019207683
  0
MTEXT
  5
32D
330
70
100
AcDbEntity
  8
1
 62
     2
100
AcDbMText
 10
-124.5065582760449
 20
45.026775052395
 30
0.0
 40
2.0
 41
0.0
 71
     5
 72
     1
  1
 
  7
CONVERTER_11
 73
     1
 44
1.20048019207683
  0
MTEXT
  5
32E
330
70
100
AcDbEntity
  8
1
 62
     2
100
AcDbMText
 10
-124.5065582760449
 20
40.776775052395
 30
0.0
 40
2.0
 41
0.0
 71
     5
 72
     1
  1
 
  7
CONVERTER_11
 73
     1
 44
1.20048019207683
  0
MTEXT
  5
32F
330
70
100
AcDbEntity
  8
1
 62
     2
100
AcDbMText
 10
-124.5065582760449
 20
36.526775052395
 30
0.0
 40
2.0
 41
0.0
 71
     5
 72
     1
  1
 
  7
CONVERTER_11
 73
     1
 44
1.20048019207683
  0
MTEXT
  5
330
330
70
100
AcDbEntity
  8
1
 62
     2
100
AcDbMText
 10
-124.5065582760449
 20
32.276775052395
 30
0.0
 40
2.0
 41
0.0
 71
     5
 72
     1
  1
 
  7
CONVERTER_11
 73
     1
 44
1.20048019207683
  0
MTEXT
  5
331
330
70
100
AcDbEntity
  8
1
 62
     2
100
AcDbMText
 10
-124.5065582760449
 20
28.026775052395
 30
0.0
 40
2.0
 41
0.0
 71
     5
 72
     1
  1
 
  7
CONVERTER_11
 73
     1
 44
1.20048019207683
  0
MTEXT
  5
332
330
70
100
AcDbEntity
  8
1
 62
     2
100
AcDbMText
 10
-124.5065582760449
 20
23.77677505239511
 30
0.0
 40
2.0
 41
0.0
 71
     5
 72
     1
  1
08.12.10
  7
CONVERTER_11
 73
     1
 44
1.20048019207683
  0
MTEXT
  5
333
330
70
100
AcDbEntity
  8
1
 62
     2
100
AcDbMText
 10
-111.0065582760449
 20
45.026775052395
 30
0.0
 40
2.0
 41
0.0
 71
     5
 72
     1
  1
 
  7
CONVERTER_11
 73
     1
 44
1.20048019207683
  0
MTEXT
  5
334
330
70
100
AcDbEntity
  8
1
 62
     2
100
AcDbMText
 10
-111.0065582760449
 20
40.776775052395
 30
0.0
 40
2.0
 41
0.0
 71
     5
 72
     1
  1
 
  7
CONVERTER_11
 73
     1
 44
1.20048019207683
  0
MTEXT
  5
335
330
70
100
AcDbEntity
  8
1
 62
     2
100
AcDbMText
 10
-111.0065582760449
 20
36.526775052395
 30
0.0
 40
2.0
 41
0.0
 71
     5
 72
     1
  1
 
  7
CONVERTER_11
 73
     1
 44
1.20048019207683
  0
MTEXT
  5
336
330
70
100
AcDbEntity
  8
1
 62
     2
100
AcDbMText
 10
-111.0065582760449
 20
32.276775052395
 30
0.0
 40
2.0
 41
0.0
 71
     5
 72
     1
  1
 
  7
CONVERTER_11
 73
     1
 44
1.20048019207683
  0
MTEXT
  5
337
330
70
100
AcDbEntity
  8
1
 62
     2
100
AcDbMText
 10
-111.0065582760449
 20
28.026775052395
 30
0.0
 40
2.0
 41
0.0
 71
     5
 72
     1
  1
 
  7
CONVERTER_11
 73
     1
 44
1.20048019207683
  0
MTEXT
  5
338
330
70
100
AcDbEntity
  8
1
 62
     2
100
AcDbMText
 10
-111.0065582760449
 20
23.77677505239511
 30
0.0
 40
2.0
 41
0.0
 71
     5
 72
     1
  1
pbam06
  7
CONVERTER_11
 73
     1
 44
1.20048019207683
  0
MTEXT
  5
33A
330
70
100
AcDbEntity
  8
1
 62
     2
100
AcDbMText
 10
-206.0117537492951
 20
45.026775052395
 30
0.0
 40
2.0
 41
0.0
 71
     4
 72
     1
  1
 
  7
CONVERTER_17
 73
     1
 44
1.20048019207683
  0
MTEXT
  5
33B
330
70
100
AcDbEntity
  8
1
 62
     2
100
AcDbMText
 10
-206.0117537492951
 20
40.776775052395
 30
0.0
 40
2.0
 41
0.0
 71
     4
 72
     1
  1
 
  7
CONVERTER_17
 73
     1
 44
1.20048019207683
  0
MTEXT
  5
33C
330
70
100
AcDbEntity
  8
1
 62
     2
100
AcDbMText
 10
-206.0117537492951
 20
36.526775052395
 30
0.0
 40
2.0
 41
0.0
 71
     4
 72
     1
  1
 
  7
CONVERTER_17
 73
     1
 44
1.20048019207683
  0
MTEXT
  5
33D
330
70
100
AcDbEntity
  8
1
 62
     2
100
AcDbMText
 10
-206.0117537492951
 20
32.276775052395
 30
0.0
 40
2.0
 41
0.0
 71
     4
 72
     1
  1
 
  7
CONVERTER_17
 73
     1
 44
1.20048019207683
  0
MTEXT
  5
33E
330
70
100
AcDbEntity
  8
1
 62
     2
100
AcDbMText
 10
-206.0117537492951
 20
28.026775052395
 30
0.0
 40
2.0
 41
0.0
 71
     4
 72
     1
  1
 
  7
CONVERTER_17
 73
     1
 44
1.20048019207683
  0
MTEXT
  5
33F
330
70
100
AcDbEntity
  8
1
 62
     2
100
AcDbMText
 10
-206.0117537492951
 20
23.77677505239511
 30
0.0
 40
2.0
 41
0.0
 71
     4
 72
     1
  1
Bemassung angepasst
  7
CONVERTER_17
 73
     1
 44
1.20048019207683
  0
TEXT
  5
340
330
70
100
AcDbEntity
  8
1
 62
     3
100
AcDbText
 10
-66.75655827604501
 20
56.44654662599925
 30
0.0
 40
2.5
  1
 
 41
0.72
  7
CONVERTER_12
100
AcDbText
  0
TEXT
  5
341
330
70
100
AcDbEntity
  8
1
 62
     3
100
AcDbText
 10
-66.75655827604501
 20
52.94654662599925
 30
0.0
 40
2.5
  1
 
 41
0.72
  7
CONVERTER_12
100
AcDbText
  0
TEXT
  5
342
330
70
100
AcDbEntity
  8
1
 62
     3
100
AcDbText
 10
-66.75655827604501
 20
49.44654662599925
 30
0.0
 40
2.5
  1
 
 41
0.72
  7
CONVERTER_12
100
AcDbText
  0
MTEXT
  5
344
330
70
100
AcDbEntity
  8
1
 62
     3
100
AcDbMText
 10
-57.52432145793004
 20
36.52677505239497
 30
0.0
 40
2.5
 41
0.0
 71
     4
 72
     1
  1
P01-10011/01
  7
CONVERTER_18
 73
     1
 44
1.20048019207683
  0
MTEXT
  5
345
330
70
100
AcDbEntity
  8
1
 62
     2
100
AcDbMText
 10
-66.75655827604493
 20
36.72677505239498
 30
0.0
 40
1.4
 41
0.0
 71
     4
 72
     1
  1
SAP\Pchange-No.
  7
CONVERTER_18
 73
     1
 44
0.66026410564226
  0
HATCH
  5
346
330
70
100
AcDbEntity
  8
1
  6
Continuous
 62
     2
100
AcDbHatch
 10
0.0
 20
0.0
 30
0.0
210
0.0
220
0.0
230
1.0
  2
_USER
 70
     0
 71
     1
 91
        1
 92
        1
 93
       12
 72
     1
 10
-86.49664033144893
 20
26.02796552857811
 11
-87.48241942414847
 21
26.02796552857811
 72
     1
 10
-87.48241942414847
 20
26.02796552857811
 11
-87.48241942414847
 21
26.96538049456467
 72
     1
 10
-87.48241942414847
 20
26.96538049456467
 11
-88.34990502572487
 21
26.96538049456467
 72
     1
 10
-88.34990502572487
 20
26.96538049456467
 11
-88.34990502572487
 21
26.02796552857811
 72
     1
 10
-88.34990502572487
 20
26.02796552857811
 11
-89.33568411842452
 21
26.02796552857811
 72
     1
 10
-89.33568411842452
 20
26.02796552857811
 11
-89.33568411842452
 21
28.55177505238894
 72
     1
 10
-89.33568411842452
 20
28.55177505238894
 11
-88.34990502572487
 21
28.55177505238894
 72
     1
 10
-88.34990502572487
 20
28.55177505238894
 11
-88.34990502572487
 21
27.66844171905458
 72
     1
 10
-88.34990502572487
 20
27.66844171905458
 11
-87.48241942414847
 21
27.66844171905458
 72
     1
 10
-87.48241942414847
 20
27.66844171905458
 11
-87.48241942414847
 21
28.55177505238894
 72
     1
 10
-87.48241942414847
 20
28.55177505238894
 11
-86.49664033144893
 21
28.55177505238894
 72
     1
 10
-86.49664033144893
 20
28.55177505238894
 11
-86.49664033144893
 21
26.02796552857811
 97
       12
330
27D
330
27E
330
268
330
267
330
266
330
27A
330
265
330
27B
330
27C
330
264
330
263
330
262
 75
     1
 76
     0
 52
45.0
 41
0.1
 77
     0
 78
     1
 53
45.0
 43
0.0
 44
0.0
 45
-0.0707106781186548
 46
0.0707106781186548
 79
     0
 98
        1
 10
0.0
 20
0.0
  0
HATCH
  5
347
330
70
100
AcDbEntity
  8
1
  6
Continuous
 62
     2
100
AcDbHatch
 10
0.0
 20
0.0
 30
0.0
210
0.0
220
0.0
230
1.0
  2
_USER
 70
     0
 71
     1
 91
        1
 92
        1
 93
       12
 72
     1
 10
-86.49664033144893
 20
26.02796552857811
 11
-87.48241942414847
 21
26.02796552857811
 72
     1
 10
-87.48241942414847
 20
26.02796552857811
 11
-87.48241942414847
 21
26.96538049456467
 72
     1
 10
-87.48241942414847
 20
26.96538049456467
 11
-88.34990502572487
 21
26.96538049456467
 72
     1
 10
-88.34990502572487
 20
26.96538049456467
 11
-88.34990502572487
 21
26.02796552857811
 72
     1
 10
-88.34990502572487
 20
26.02796552857811
 11
-89.33568411842452
 21
26.02796552857811
 72
     1
 10
-89.33568411842452
 20
26.02796552857811
 11
-89.33568411842452
 21
28.55177505238894
 72
     1
 10
-89.33568411842452
 20
28.55177505238894
 11
-88.34990502572487
 21
28.55177505238894
 72
     1
 10
-88.34990502572487
 20
28.55177505238894
 11
-88.34990502572487
 21
27.66844171905458
 72
     1
 10
-88.34990502572487
 20
27.66844171905458
 11
-87.48241942414847
 21
27.66844171905458
 72
     1
 10
-87.48241942414847
 20
27.66844171905458
 11
-87.48241942414847
 21
28.55177505238894
 72
     1
 10
-87.48241942414847
 20
28.55177505238894
 11
-86.49664033144893
 21
28.55177505238894
 72
     1
 10
-86.49664033144893
 20
28.55177505238894
 11
-86.49664033144893
 21
26.02796552857811
 97
       12
330
27D
330
27E
330
268
330
267
330
266
330
27A
330
265
330
27B
330
27C
330
264
330
263
330
262
 75
     1
 76
     0
 52
45.0
 41
0.1
 77
     0
 78
     1
 53
45.0
 43
0.0
 44
0.0
 45
-0.0707106781186548
 46
0.0707106781186548
 79
     0
 98
        1
 10
0.0
 20
0.0
  0
HATCH
  5
348
330
70
100
AcDbEntity
  8
1
  6
Continuous
 62
     2
100
AcDbHatch
 10
0.0
 20
0.0
 30
0.0
210
0.0
220
0.0
230
1.0
  2
_USER
 70
     0
 71
     1
 91
        1
 92
        1
 93
       10
 72
     1
 10
-84.64350037344208
 20
24.69395192314968
 11
-85.66871062984944
 21
25.77558457621179
 72
     1
 10
-85.66871062984944
 20
25.77558457621179
 11
-86.6544897225499
 21
25.77558457621179
 72
     1
 10
-86.6544897225499
 20
25.77558457621179
 11
-86.6544897225499
 21
23.25177505240095
 72
     1
 10
-86.6544897225499
 20
23.25177505240095
 11
-85.66871062984944
 21
23.25177505240095
 72
     1
 10
-85.66871062984944
 20
23.25177505240095
 11
-85.66871062984944
 21
24.33340770546261
 72
     1
 10
-85.66871062984944
 20
24.33340770546261
 11
-84.64350037344208
 21
23.25177505240095
 72
     1
 10
-84.64350037344208
 20
23.25177505240095
 11
-83.65772128074252
 21
23.25177505240095
 72
     1
 10
-83.65772128074252
 20
23.25177505240095
 11
-83.65772128074252
 21
25.77558457621179
 72
     1
 10
-83.65772128074252
 20
25.77558457621179
 11
-84.64350037344208
 21
25.77558457621179
 72
     1
 10
-84.64350037344208
 20
25.77558457621179
 11
-84.64350037344208
 21
24.69395192314968
 97
       10
330
28B
330
25B
330
25A
330
25D
330
286
330
287
330
25C
330
288
330
289
330
28A
 75
     1
 76
     0
 52
45.0
 41
0.1
 77
     0
 78
     1
 53
45.0
 43
0.0
 44
0.0
 45
-0.0707106781186548
 46
0.0707106781186548
 79
     0
 98
        1
 10
0.0
 20
0.0
  0
HATCH
  5
349
330
70
100
AcDbEntity
  8
1
  6
Continuous
 62
     2
100
AcDbHatch
 10
0.0
 20
0.0
 30
0.0
210
0.0
220
0.0
230
1.0
  2
_USER
 70
     0
 71
     1
 91
        1
 92
        1
 93
       10
 72
     1
 10
-84.64350037344208
 20
24.69395192314968
 11
-85.66871062984944
 21
25.77558457621179
 72
     1
 10
-85.66871062984944
 20
25.77558457621179
 11
-86.6544897225499
 21
25.77558457621179
 72
     1
 10
-86.6544897225499
 20
25.77558457621179
 11
-86.6544897225499
 21
23.25177505240095
 72
     1
 10
-86.6544897225499
 20
23.25177505240095
 11
-85.66871062984944
 21
23.25177505240095
 72
     1
 10
-85.66871062984944
 20
23.25177505240095
 11
-85.66871062984944
 21
24.33340770546261
 72
     1
 10
-85.66871062984944
 20
24.33340770546261
 11
-84.64350037344208
 21
23.25177505240095
 72
     1
 10
-84.64350037344208
 20
23.25177505240095
 11
-83.65772128074252
 21
23.25177505240095
 72
     1
 10
-83.65772128074252
 20
23.25177505240095
 11
-83.65772128074252
 21
25.77558457621179
 72
     1
 10
-83.65772128074252
 20
25.77558457621179
 11
-84.64350037344208
 21
25.77558457621179
 72
     1
 10
-84.64350037344208
 20
25.77558457621179
 11
-84.64350037344208
 21
24.69395192314968
 97
       10
330
28B
330
25B
330
25A
330
25D
330
286
330
287
330
25C
330
288
330
289
330
28A
 75
     1
 76
     0
 52
45.0
 41
0.1
 77
     0
 78
     1
 53
45.0
 43
0.0
 44
0.0
 45
-0.0707106781186548
 46
0.0707106781186548
 79
     0
 98
        1
 10
0.0
 20
0.0
  0
HATCH
  5
34A
330
70
100
AcDbEntity
  8
1
  6
Continuous
 62
     2
100
AcDbHatch
 10
0.0
 20
0.0
 30
0.0
210
0.0
220
0.0
230
1.0
  2
_USER
 70
     0
 71
     1
 91
        1
 92
        1
 93
       10
 72
     1
 10
-80.30594762929354
 20
27.47014239932683
 11
-81.33115788570183
 21
28.55177505238894
 72
     1
 10
-81.33115788570183
 20
28.55177505238894
 11
-82.31693697840137
 21
28.55177505238894
 72
     1
 10
-82.31693697840137
 20
28.55177505238894
 11
-82.31693697840137
 21
26.02796552857811
 72
     1
 10
-82.31693697840137
 20
26.02796552857811
 11
-81.33115788570183
 21
26.02796552857811
 72
     1
 10
-81.33115788570183
 20
26.02796552857811
 11
-81.33115788570183
 21
27.10959818163977
 72
     1
 10
-81.33115788570183
 20
27.10959818163977
 11
-80.30594762929354
 21
26.02796552857811
 72
     1
 10
-80.30594762929354
 20
26.02796552857811
 11
-79.32016853659388
 21
26.02796552857811
 72
     1
 10
-79.32016853659388
 20
26.02796552857811
 11
-79.32016853659388
 21
28.55177505238894
 72
     1
 10
-79.32016853659388
 20
28.55177505238894
 11
-80.30594762929354
 21
28.55177505238894
 72
     1
 10
-80.30594762929354
 20
28.55177505238894
 11
-80.30594762929354
 21
27.47014239932683
 97
       10
330
290
330
258
330
257
330
291
330
256
330
28C
330
28D
330
28E
330
28F
330
259
 75
     1
 76
     0
 52
45.0
 41
0.1
 77
     0
 78
     1
 53
45.0
 43
0.0
 44
0.0
 45
-0.0707106781186548
 46
0.0707106781186548
 79
     0
 98
        1
 10
0.0
 20
0.0
  0
HATCH
  5
34B
330
70
100
AcDbEntity
  8
1
  6
Continuous
 62
     2
100
AcDbHatch
 10
0.0
 20
0.0
 30
0.0
210
0.0
220
0.0
230
1.0
  2
_USER
 70
     0
 71
     1
 91
        1
 92
        1
 93
       10
 72
     1
 10
-80.30594762929354
 20
27.47014239932683
 11
-81.33115788570183
 21
28.55177505238894
 72
     1
 10
-81.33115788570183
 20
28.55177505238894
 11
-82.31693697840137
 21
28.55177505238894
 72
     1
 10
-82.31693697840137
 20
28.55177505238894
 11
-82.31693697840137
 21
26.02796552857811
 72
     1
 10
-82.31693697840137
 20
26.02796552857811
 11
-81.33115788570183
 21
26.02796552857811
 72
     1
 10
-81.33115788570183
 20
26.02796552857811
 11
-81.33115788570183
 21
27.10959818163977
 72
     1
 10
-81.33115788570183
 20
27.10959818163977
 11
-80.30594762929354
 21
26.02796552857811
 72
     1
 10
-80.30594762929354
 20
26.02796552857811
 11
-79.32016853659388
 21
26.02796552857811
 72
     1
 10
-79.32016853659388
 20
26.02796552857811
 11
-79.32016853659388
 21
28.55177505238894
 72
     1
 10
-79.32016853659388
 20
28.55177505238894
 11
-80.30594762929354
 21
28.55177505238894
 72
     1
 10
-80.30594762929354
 20
28.55177505238894
 11
-80.30594762929354
 21
27.47014239932683
 97
       10
330
290
330
258
330
257
330
291
330
256
330
28C
330
28D
330
28E
330
28F
330
259
 75
     1
 76
     0
 52
45.0
 41
0.1
 77
     0
 78
     1
 53
45.0
 43
0.0
 44
0.0
 45
-0.0707106781186548
 46
0.0707106781186548
 79
     0
 98
        1
 10
0.0
 20
0.0
  0
HATCH
  5
34C
330
70
100
AcDbEntity
  8
1
  6
Continuous
 62
     2
100
AcDbHatch
 10
0.0
 20
0.0
 30
0.0
210
0.0
220
0.0
230
1.0
  2
_USER
 70
     0
 71
     1
 91
        1
 92
        1
 93
        8
 72
     1
 10
-81.21298913084684
 20
25.77558457621179
 11
-83.53942778961846
 21
25.77558457621179
 72
     1
 10
-83.53942778961846
 20
25.77558457621179
 11
-83.53942778961846
 21
25.12660498437406
 72
     1
 10
-83.53942778961846
 20
25.12660498437406
 11
-82.86909800658158
 21
25.12660498437406
 72
     1
 10
-82.86909800658158
 20
25.12660498437406
 11
-82.86909800658158
 21
23.25177505240095
 72
     1
 10
-82.86909800658158
 20
23.25177505240095
 11
-81.88331891388202
 21
23.25177505240095
 72
     1
 10
-81.88331891388202
 20
23.25177505240095
 11
-81.88331891388202
 21
25.12660498437406
 72
     1
 10
-81.88331891388202
 20
25.12660498437406
 11
-81.21298913084684
 21
25.12660498437406
 72
     1
 10
-81.21298913084684
 20
25.12660498437406
 11
-81.21298913084684
 21
25.77558457621179
 97
        8
330
252
330
292
330
251
330
293
330
294
330
255
330
254
330
253
 75
     1
 76
     0
 52
45.0
 41
0.1
 77
     0
 78
     1
 53
45.0
 43
0.0
 44
0.0
 45
-0.0707106781186548
 46
0.0707106781186548
 79
     0
 98
        1
 10
0.0
 20
0.0
  0
HATCH
  5
34D
330
70
100
AcDbEntity
  8
1
  6
Continuous
 62
     2
100
AcDbHatch
 10
0.0
 20
0.0
 30
0.0
210
0.0
220
0.0
230
1.0
  2
_USER
 70
     0
 71
     1
 91
        1
 92
        1
 93
        8
 72
     1
 10
-81.21298913084684
 20
25.77558457621179
 11
-83.53942778961846
 21
25.77558457621179
 72
     1
 10
-83.53942778961846
 20
25.77558457621179
 11
-83.53942778961846
 21
25.12660498437406
 72
     1
 10
-83.53942778961846
 20
25.12660498437406
 11
-82.86909800658158
 21
25.12660498437406
 72
     1
 10
-82.86909800658158
 20
25.12660498437406
 11
-82.86909800658158
 21
23.25177505240095
 72
     1
 10
-82.86909800658158
 20
23.25177505240095
 11
-81.88331891388202
 21
23.25177505240095
 72
     1
 10
-81.88331891388202
 20
23.25177505240095
 11
-81.88331891388202
 21
25.12660498437406
 72
     1
 10
-81.88331891388202
 20
25.12660498437406
 11
-81.21298913084684
 21
25.12660498437406
 72
     1
 10
-81.21298913084684
 20
25.12660498437406
 11
-81.21298913084684
 21
25.77558457621179
 97
        8
330
252
330
292
330
251
330
293
330
294
330
255
330
254
330
253
 75
     1
 76
     0
 52
45.0
 41
0.1
 77
     0
 78
     1
 53
45.0
 43
0.0
 44
0.0
 45
-0.0707106781186548
 46
0.0707106781186548
 79
     0
 98
        1
 10
0.0
 20
0.0
  0
HATCH
  5
34E
330
70
100
AcDbEntity
  8
1
  6
Continuous
 62
     2
100
AcDbHatch
 10
0.0
 20
0.0
 30
0.0
210
0.0
220
0.0
230
1.0
  2
_USER
 70
     0
 71
     1
 91
        2
 92
        1
 93
        8
 72
     1
 10
-79.44569371270883
 20
23.25177505240095
 11
-79.62047061640783
 21
23.69884988233307
 72
     1
 10
-79.62047061640783
 20
23.69884988233307
 11
-80.55637274589037
 21
23.69884988233307
 72
     1
 10
-80.55637274589037
 20
23.69884988233307
 11
-80.73114964958938
 21
23.25177505240095
 72
     1
 10
-80.73114964958938
 20
23.25177505240095
 11
-81.75635990599676
 21
23.25177505240095
 72
     1
 10
-81.75635990599676
 20
23.25177505240095
 11
-80.60102680935279
 21
25.77558457621179
 72
     1
 10
-80.60102680935279
 20
25.77558457621179
 11
-79.57581655294553
 21
25.77558457621179
 72
     1
 10
-79.57581655294553
 20
25.77558457621179
 11
-78.42048345630064
 21
23.25177505240095
 72
     1
 10
-78.42048345630064
 20
23.25177505240095
 11
-79.44569371270883
 21
23.25177505240095
 97
        8
330
296
330
297
330
24E
330
298
330
24D
330
250
330
295
330
24F
 92
       16
 93
        3
 72
     1
 10
-80.33649212510933
 20
24.26129886192528
 11
-80.0884216811487
 21
24.89585668505482
 72
     1
 10
-80.0884216811487
 20
24.89585668505482
 11
-79.8403512371899
 21
24.26129886192528
 72
     1
 10
-79.8403512371899
 20
24.26129886192528
 11
-80.33649212510933
 21
24.26129886192528
 97
        3
330
24C
330
29A
330
299
 75
     1
 76
     0
 52
45.0
 41
0.1
 77
     0
 78
     1
 53
45.0
 43
0.0
 44
0.0
 45
-0.0707106781186548
 46
0.0707106781186548
 79
     0
 98
        1
 10
0.0
 20
0.0
  0
HATCH
  5
34F
330
70
100
AcDbEntity
  8
1
  6
Continuous
 62
     2
100
AcDbHatch
 10
0.0
 20
0.0
 30
0.0
210
0.0
220
0.0
230
1.0
  2
_USER
 70
     0
 71
     1
 91
        2
 92
        1
 93
        8
 72
     1
 10
-79.44569371270883
 20
23.25177505240095
 11
-79.62047061640783
 21
23.69884988233307
 72
     1
 10
-79.62047061640783
 20
23.69884988233307
 11
-80.55637274589037
 21
23.69884988233307
 72
     1
 10
-80.55637274589037
 20
23.69884988233307
 11
-80.73114964958938
 21
23.25177505240095
 72
     1
 10
-80.73114964958938
 20
23.25177505240095
 11
-81.75635990599676
 21
23.25177505240095
 72
     1
 10
-81.75635990599676
 20
23.25177505240095
 11
-80.60102680935279
 21
25.77558457621179
 72
     1
 10
-80.60102680935279
 20
25.77558457621179
 11
-79.57581655294553
 21
25.77558457621179
 72
     1
 10
-79.57581655294553
 20
25.77558457621179
 11
-78.42048345630064
 21
23.25177505240095
 72
     1
 10
-78.42048345630064
 20
23.25177505240095
 11
-79.44569371270883
 21
23.25177505240095
 97
        8
330
296
330
297
330
24E
330
298
330
24D
330
250
330
295
330
24F
 92
       16
 93
        3
 72
     1
 10
-80.33649212510933
 20
24.26129886192528
 11
-80.0884216811487
 21
24.89585668505482
 72
     1
 10
-80.0884216811487
 20
24.89585668505482
 11
-79.8403512371899
 21
24.26129886192528
 72
     1
 10
-79.8403512371899
 20
24.26129886192528
 11
-80.33649212510933
 21
24.26129886192528
 97
        3
330
24C
330
29A
330
299
 75
     1
 76
     0
 52
45.0
 41
0.1
 77
     0
 78
     1
 53
45.0
 43
0.0
 44
0.0
 45
-0.0707106781186548
 46
0.0707106781186548
 79
     0
 98
        1
 10
0.0
 20
0.0
  0
HATCH
  5
350
330
70
100
AcDbEntity
  8
1
  6
Continuous
 62
     2
100
AcDbHatch
 10
0.0
 20
0.0
 30
0.0
210
0.0
220
0.0
230
1.0
  2
_USER
 70
     0
 71
     1
 91
        1
 92
        1
 93
        4
 72
     1
 10
-78.0978024616461
 20
26.02796552857811
 11
-79.12301271805347
 21
26.02796552857811
 72
     1
 10
-79.12301271805347
 20
26.02796552857811
 11
-79.12301271805347
 21
28.55177505238894
 72
     1
 10
-79.12301271805347
 20
28.55177505238894
 11
-78.0978024616461
 21
28.55177505238894
 72
     1
 10
-78.0978024616461
 20
28.55177505238894
 11
-78.0978024616461
 21
26.02796552857811
 97
        4
330
249
330
24B
330
29B
330
24A
 75
     1
 76
     0
 52
45.0
 41
0.1
 77
     0
 78
     1
 53
45.0
 43
0.0
 44
0.0
 45
-0.0707106781186548
 46
0.0707106781186548
 79
     0
 98
        1
 10
0.0
 20
0.0
  0
HATCH
  5
351
330
70
100
AcDbEntity
  8
1
  6
Continuous
 62
     2
100
AcDbHatch
 10
0.0
 20
0.0
 30
0.0
210
0.0
220
0.0
230
1.0
  2
_USER
 70
     0
 71
     1
 91
        1
 92
        1
 93
        4
 72
     1
 10
-78.0978024616461
 20
26.02796552857811
 11
-79.12301271805347
 21
26.02796552857811
 72
     1
 10
-79.12301271805347
 20
26.02796552857811
 11
-79.12301271805347
 21
28.55177505238894
 72
     1
 10
-79.12301271805347
 20
28.55177505238894
 11
-78.0978024616461
 21
28.55177505238894
 72
     1
 10
-78.0978024616461
 20
28.55177505238894
 11
-78.0978024616461
 21
26.02796552857811
 97
        4
330
249
330
24B
330
29B
330
24A
 75
     1
 76
     0
 52
45.0
 41
0.1
 77
     0
 78
     1
 53
45.0
 43
0.0
 44
0.0
 45
-0.0707106781186548
 46
0.0707106781186548
 79
     0
 98
        1
 10
0.0
 20
0.0
  0
HATCH
  5
352
330
70
100
AcDbEntity
  8
1
  6
Continuous
 62
     2
100
AcDbHatch
 10
0.0
 20
0.0
 30
0.0
210
0.0
220
0.0
230
1.0
  2
_USER
 70
     0
 71
     1
 91
        1
 92
        1
 93
       12
 72
     1
 10
-74.60814447348844
 20
28.55177505238894
 11
-75.68461524271697
 21
27.33446056475572
 72
     1
 10
-75.68461524271697
 20
27.33446056475572
 11
-74.52928214607209
 21
26.02796552857811
 72
     1
 10
-74.52928214607209
 20
26.02796552857811
 11
-75.68855835908721
 21
26.02796552857811
 72
     1
 10
-75.68855835908721
 20
26.02796552857811
 11
-76.26425334922396
 21
26.67898353295305
 72
     1
 10
-76.26425334922396
 20
26.67898353295305
 11
-76.83994833936094
 21
26.02796552857811
 72
     1
 10
-76.83994833936094
 20
26.02796552857811
 11
-77.99922455237595
 21
26.02796552857811
 72
     1
 10
-77.99922455237595
 20
26.02796552857811
 11
-76.84389145573107
 21
27.33446056475572
 72
     1
 10
-76.84389145573107
 20
27.33446056475572
 11
-77.9203622249604
 21
28.55177505238894
 72
     1
 10
-77.9203622249604
 20
28.55177505238894
 11
-76.76108601194449
 21
28.55177505238894
 72
     1
 10
-76.76108601194449
 20
28.55177505238894
 11
-76.26425334922396
 21
27.98993759655795
 72
     1
 10
-76.26425334922396
 20
27.98993759655795
 11
-75.76742068650266
 21
28.55177505238894
 72
     1
 10
-75.76742068650266
 20
28.55177505238894
 11
-74.60814447348844
 21
28.55177505238894
 97
       12
330
244
330
243
330
242
330
29F
330
2A0
330
29C
330
29D
330
248
330
247
330
246
330
245
330
29E
 75
     1
 76
     0
 52
45.0
 41
0.1
 77
     0
 78
     1
 53
45.0
 43
0.0
 44
0.0
 45
-0.0707106781186548
 46
0.0707106781186548
 79
     0
 98
        1
 10
0.0
 20
0.0
  0
HATCH
  5
353
330
70
100
AcDbEntity
  8
1
  6
Continuous
 62
     2
100
AcDbHatch
 10
0.0
 20
0.0
 30
0.0
210
0.0
220
0.0
230
1.0
  2
_USER
 70
     0
 71
     1
 91
        1
 92
        1
 93
       12
 72
     1
 10
-74.60814447348844
 20
28.55177505238894
 11
-75.68461524271697
 21
27.33446056475572
 72
     1
 10
-75.68461524271697
 20
27.33446056475572
 11
-74.52928214607209
 21
26.02796552857811
 72
     1
 10
-74.52928214607209
 20
26.02796552857811
 11
-75.68855835908721
 21
26.02796552857811
 72
     1
 10
-75.68855835908721
 20
26.02796552857811
 11
-76.26425334922396
 21
26.67898353295305
 72
     1
 10
-76.26425334922396
 20
26.67898353295305
 11
-76.83994833936094
 21
26.02796552857811
 72
     1
 10
-76.83994833936094
 20
26.02796552857811
 11
-77.99922455237595
 21
26.02796552857811
 72
     1
 10
-77.99922455237595
 20
26.02796552857811
 11
-76.84389145573107
 21
27.33446056475572
 72
     1
 10
-76.84389145573107
 20
27.33446056475572
 11
-77.9203622249604
 21
28.55177505238894
 72
     1
 10
-77.9203622249604
 20
28.55177505238894
 11
-76.76108601194449
 21
28.55177505238894
 72
     1
 10
-76.76108601194449
 20
28.55177505238894
 11
-76.26425334922396
 21
27.98993759655795
 72
     1
 10
-76.26425334922396
 20
27.98993759655795
 11
-75.76742068650266
 21
28.55177505238894
 72
     1
 10
-75.76742068650266
 20
28.55177505238894
 11
-74.60814447348844
 21
28.55177505238894
 97
       12
330
244
330
243
330
242
330
29F
330
2A0
330
29C
330
29D
330
248
330
247
330
246
330
245
330
29E
 75
     1
 76
     0
 52
45.0
 41
0.1
 77
     0
 78
     1
 53
45.0
 43
0.0
 44
0.0
 45
-0.0707106781186548
 46
0.0707106781186548
 79
     0
 98
        1
 10
0.0
 20
0.0
  0
HATCH
  5
354
330
70
100
AcDbEntity
  8
1
  6
Continuous
 62
     2
100
AcDbHatch
 10
0.0
 20
0.0
 30
0.0
210
0.0
220
0.0
230
1.0
  2
_USER
 70
     0
 71
     1
 91
        2
 92
        1
 93
        6
 72
     1
 10
-90.32528117939421
 20
26.80736903365558
 11
-90.95236183045233
 21
26.80736903365558
 72
     1
 10
-90.95236183045233
 20
26.80736903365558
 11
-90.95236183045233
 21
26.02796552857811
 72
     1
 10
-90.95236183045233
 20
26.02796552857811
 11
-91.97757208686062
 21
26.02796552857811
 72
     1
 10
-91.97757208686062
 20
26.02796552857811
 11
-91.97757208686062
 21
28.55177505238894
 72
     1
 10
-91.97757208686062
 20
28.55177505238894
 11
-90.32528117939421
 21
28.55177505238894
 72
     2
 10
-90.32528117939421
 20
27.67957204302225
 40
0.8722030093666717
 50
270.0
 51
450.0
 73
     0
 97
        6
330
26C
330
26B
330
278
330
277
330
26D
330
2B2
 92
       16
 93
        4
 72
     2
 10
-90.69013450686396
 20
27.71213069692516
 40
0.2916229955959899
 50
270.0
 51
450.0
 73
     1
 72
     1
 10
-90.69013450686396
 20
28.00375369252113
 11
-90.95236183045233
 21
28.00375369252113
 72
     1
 10
-90.95236183045233
 20
28.00375369252113
 11
-90.95236183045233
 21
27.42050770132917
 72
     1
 10
-90.95236183045233
 20
27.42050770132917
 11
-90.69013450686396
 21
27.42050770132917
 97
        4
330
2C6
330
269
330
279
330
26A
 75
     1
 76
     0
 52
45.0
 41
0.1
 77
     0
 78
     1
 53
45.0
 43
0.0
 44
0.0
 45
-0.0707106781186548
 46
0.0707106781186548
 79
     0
 98
        1
 10
0.0
 20
0.0
  0
HATCH
  5
355
330
70
100
AcDbEntity
  8
1
  6
Continuous
 62
     2
100
AcDbHatch
 10
0.0
 20
0.0
 30
0.0
210
0.0
220
0.0
230
1.0
  2
_USER
 70
     0
 71
     1
 91
        2
 92
        1
 93
        6
 72
     1
 10
-90.32528117939421
 20
26.80736903365558
 11
-90.95236183045233
 21
26.80736903365558
 72
     1
 10
-90.95236183045233
 20
26.80736903365558
 11
-90.95236183045233
 21
26.02796552857811
 72
     1
 10
-90.95236183045233
 20
26.02796552857811
 11
-91.97757208686062
 21
26.02796552857811
 72
     1
 10
-91.97757208686062
 20
26.02796552857811
 11
-91.97757208686062
 21
28.55177505238894
 72
     1
 10
-91.97757208686062
 20
28.55177505238894
 11
-90.32528117939421
 21
28.55177505238894
 72
     2
 10
-90.32528117939421
 20
27.67957204302225
 40
0.8722030093666717
 50
270.0
 51
450.0
 73
     0
 97
        6
330
26C
330
26B
330
278
330
277
330
26D
330
2B2
 92
       16
 93
        4
 72
     2
 10
-90.69013450686396
 20
27.71213069692516
 40
0.2916229955959899
 50
270.0
 51
450.0
 73
     1
 72
     1
 10
-90.69013450686396
 20
28.00375369252113
 11
-90.95236183045233
 21
28.00375369252113
 72
     1
 10
-90.95236183045233
 20
28.00375369252113
 11
-90.95236183045233
 21
27.42050770132917
 72
     1
 10
-90.95236183045233
 20
27.42050770132917
 11
-90.69013450686396
 21
27.42050770132917
 97
        4
330
2C6
330
269
330
279
330
26A
 75
     1
 76
     0
 52
45.0
 41
0.1
 77
     0
 78
     1
 53
45.0
 43
0.0
 44
0.0
 45
-0.0707106781186548
 46
0.0707106781186548
 79
     0
 98
        1
 10
0.0
 20
0.0
  0
HATCH
  5
356
330
70
100
AcDbEntity
  8
1
  6
Continuous
 62
     2
100
AcDbHatch
 10
0.0
 20
0.0
 30
0.0
210
0.0
220
0.0
230
1.0
  2
_USER
 70
     0
 71
     1
 91
        2
 92
        1
 93
        4
 72
     2
 10
-88.21243593281645
 20
24.06857650000633
 40
1.707008076205437
 50
62.45185182430557
 51
117.5481481756674
 73
     1
 72
     2
 10
-88.4446176616043
 20
24.51367981430615
 40
1.204986845992986
 50
117.5481481756637
 51
242.451851824337
 73
     1
 72
     2
 10
-88.21243593281645
 20
24.95878312860642
 40
1.707008076205441
 50
242.4518518243401
 51
297.548148175687
 73
     1
 72
     2
 10
-87.9802542040286
 20
24.51367981430615
 40
1.204986845993435
 50
297.5481481757013
 51
422.4518518242979
 73
     1
 97
        4
330
2BE
330
2BD
330
2BF
330
2BC
 92
       16
 93
        4
 72
     2
 10
-88.37751034302005
 20
24.51367981430615
 40
0.6378510567600066
 50
321.8795802028405
 51
398.1204197971579
 73
     1
 72
     2
 10
-88.21243593281645
 20
24.64320971357927
 40
0.42802361406059
 50
38.1204197971533
 51
141.8795802028561
 73
     1
 72
     2
 10
-88.04736152261307
 20
24.51367981430615
 40
0.6378510567599041
 50
141.8795802028357
 51
218.1204197971658
 73
     1
 72
     2
 10
-88.21243593281645
 20
24.38414991503346
 40
0.428023614060958
 50
218.1204197971914
 51
321.8795802027992
 73
     1
 97
        4
330
2DA
330
2D7
330
2D8
330
2D9
 75
     1
 76
     0
 52
45.0
 41
0.1
 77
     0
 78
     1
 53
45.0
 43
0.0
 44
0.0
 45
-0.0707106781186548
 46
0.0707106781186548
 79
     0
 98
        1
 10
0.0
 20
0.0
  0
HATCH
  5
357
330
70
100
AcDbEntity
  8
1
  6
Continuous
 62
     2
100
AcDbHatch
 10
0.0
 20
0.0
 30
0.0
210
0.0
220
0.0
230
1.0
  2
_USER
 70
     0
 71
     1
 91
        2
 92
        1
 93
        4
 72
     2
 10
-88.21243593281645
 20
24.06857650000633
 40
1.707008076205437
 50
62.45185182430557
 51
117.5481481756674
 73
     1
 72
     2
 10
-88.4446176616043
 20
24.51367981430615
 40
1.204986845992986
 50
117.5481481756637
 51
242.451851824337
 73
     1
 72
     2
 10
-88.21243593281645
 20
24.95878312860642
 40
1.707008076205441
 50
242.4518518243401
 51
297.548148175687
 73
     1
 72
     2
 10
-87.9802542040286
 20
24.51367981430615
 40
1.204986845993435
 50
297.5481481757013
 51
422.4518518242979
 73
     1
 97
        4
330
2BE
330
2BD
330
2BF
330
2BC
 92
       16
 93
        4
 72
     2
 10
-88.37751034302005
 20
24.51367981430615
 40
0.6378510567600066
 50
321.8795802028405
 51
398.1204197971579
 73
     1
 72
     2
 10
-88.21243593281645
 20
24.64320971357927
 40
0.42802361406059
 50
38.1204197971533
 51
141.8795802028561
 73
     1
 72
     2
 10
-88.04736152261307
 20
24.51367981430615
 40
0.6378510567599041
 50
141.8795802028357
 51
218.1204197971658
 73
     1
 72
     2
 10
-88.21243593281645
 20
24.38414991503346
 40
0.428023614060958
 50
218.1204197971914
 51
321.8795802027992
 73
     1
 97
        4
330
2DA
330
2D7
330
2D8
330
2D9
 75
     1
 76
     0
 52
45.0
 41
0.1
 77
     0
 78
     1
 53
45.0
 43
0.0
 44
0.0
 45
-0.0707106781186548
 46
0.0707106781186548
 79
     0
 98
        1
 10
0.0
 20
0.0
  0
HATCH
  5
358
330
70
100
AcDbEntity
  8
1
  6
Continuous
 62
     2
100
AcDbHatch
 10
0.0
 20
0.0
 30
0.0
210
0.0
220
0.0
230
1.0
  2
_USER
 70
     0
 71
     1
 91
        2
 92
        1
 93
       12
 72
     1
 10
-82.51409279694099
 20
27.974904304089
 11
-83.6181653807655
 21
27.974904304089
 72
     1
 10
-83.6181653807655
 20
27.974904304089
 11
-83.6181653807655
 21
27.57830566463304
 72
     1
 10
-83.6181653807655
 20
27.57830566463304
 11
-82.51409279694099
 21
27.57830566463304
 72
     1
 10
-82.51409279694099
 20
27.57830566463304
 11
-82.51409279694099
 21
27.00143491633356
 72
     1
 10
-82.51409279694099
 20
27.00143491633356
 11
-83.6181653807655
 21
27.00143491633356
 72
     1
 10
-83.6181653807655
 20
27.00143491633356
 11
-83.6181653807655
 21
26.6048362768776
 72
     1
 10
-83.6181653807655
 20
26.6048362768776
 11
-82.51409279694099
 21
26.6048362768776
 72
     1
 10
-82.51409279694099
 20
26.6048362768776
 11
-82.51409279694099
 21
26.02796552857811
 72
     1
 10
-82.51409279694099
 20
26.02796552857811
 11
-85.1176628165947
 21
26.02796552857811
 72
     2
 10
-85.1176628165947
 20
27.2898702904833
 40
1.26190476190564
 50
90.0
 51
270.0
 73
     0
 72
     1
 10
-85.1176628165947
 20
28.55177505238894
 11
-82.51409279694099
 21
28.55177505238894
 72
     1
 10
-82.51409279694099
 20
28.55177505238894
 11
-82.51409279694099
 21
27.974904304089
 97
       12
330
280
330
2C7
330
281
330
282
330
283
330
284
330
261
330
260
330
25F
330
25E
330
285
330
27F
 92
       16
 93
        4
 72
     2
 10
-84.93892561811106
 20
27.41940018975642
 40
0.4280236140606861
 50
38.12041979714503
 51
141.879580202855
 73
     1
 72
     2
 10
-84.77385120790757
 20
27.2898702904833
 40
0.6378510567600001
 50
141.8795802028413
 51
218.1204197971587
 73
     1
 72
     2
 10
-84.93892561811106
 20
27.16034039121017
 40
0.4280236140606795
 50
218.1204197971439
 51
321.8795802028561
 73
     1
 72
     2
 10
-85.10400002831454
 20
27.2898702904833
 40
0.6378510567600001
 50
321.8795802028413
 51
398.1204197971587
 73
     1
 97
        4
330
2C1
330
2C0
330
2BB
330
2BA
 75
     1
 76
     0
 52
45.0
 41
0.1
 77
     0
 78
     1
 53
45.0
 43
0.0
 44
0.0
 45
-0.0707106781186548
 46
0.0707106781186548
 79
     0
 98
        1
 10
0.0
 20
0.0
  0
HATCH
  5
359
330
70
100
AcDbEntity
  8
1
  6
Continuous
 62
     2
100
AcDbHatch
 10
0.0
 20
0.0
 30
0.0
210
0.0
220
0.0
230
1.0
  2
_USER
 70
     0
 71
     1
 91
        2
 92
        1
 93
       12
 72
     1
 10
-82.51409279694099
 20
27.974904304089
 11
-83.6181653807655
 21
27.974904304089
 72
     1
 10
-83.6181653807655
 20
27.974904304089
 11
-83.6181653807655
 21
27.57830566463304
 72
     1
 10
-83.6181653807655
 20
27.57830566463304
 11
-82.51409279694099
 21
27.57830566463304
 72
     1
 10
-82.51409279694099
 20
27.57830566463304
 11
-82.51409279694099
 21
27.00143491633356
 72
     1
 10
-82.51409279694099
 20
27.00143491633356
 11
-83.6181653807655
 21
27.00143491633356
 72
     1
 10
-83.6181653807655
 20
27.00143491633356
 11
-83.6181653807655
 21
26.6048362768776
 72
     1
 10
-83.6181653807655
 20
26.6048362768776
 11
-82.51409279694099
 21
26.6048362768776
 72
     1
 10
-82.51409279694099
 20
26.6048362768776
 11
-82.51409279694099
 21
26.02796552857811
 72
     1
 10
-82.51409279694099
 20
26.02796552857811
 11
-85.1176628165947
 21
26.02796552857811
 72
     2
 10
-85.1176628165947
 20
27.2898702904833
 40
1.26190476190564
 50
90.0
 51
270.0
 73
     0
 72
     1
 10
-85.1176628165947
 20
28.55177505238894
 11
-82.51409279694099
 21
28.55177505238894
 72
     1
 10
-82.51409279694099
 20
28.55177505238894
 11
-82.51409279694099
 21
27.974904304089
 97
       12
330
280
330
2C7
330
281
330
282
330
283
330
284
330
261
330
260
330
25F
330
25E
330
285
330
27F
 92
       16
 93
        4
 72
     2
 10
-84.93892561811106
 20
27.41940018975642
 40
0.4280236140606861
 50
38.12041979714503
 51
141.879580202855
 73
     1
 72
     2
 10
-84.77385120790757
 20
27.2898702904833
 40
0.6378510567600001
 50
141.8795802028413
 51
218.1204197971587
 73
     1
 72
     2
 10
-84.93892561811106
 20
27.16034039121017
 40
0.4280236140606795
 50
218.1204197971439
 51
321.8795802028561
 73
     1
 72
     2
 10
-85.10400002831454
 20
27.2898702904833
 40
0.6378510567600001
 50
321.8795802028413
 51
398.1204197971587
 73
     1
 97
        4
330
2C1
330
2C0
330
2BB
330
2BA
 75
     1
 76
     0
 52
45.0
 41
0.1
 77
     0
 78
     1
 53
45.0
 43
0.0
 44
0.0
 45
-0.0707106781186548
 46
0.0707106781186548
 79
     0
 98
        1
 10
0.0
 20
0.0
  0
HATCH
  5
35A
330
70
100
AcDbEntity
  8
1
  6
Continuous
 62
     2
100
AcDbHatch
 10
0.0
 20
0.0
 30
0.0
210
0.0
220
0.0
230
1.0
  2
_USER
 70
     0
 71
     1
 91
        4
 92
        1
 93
        8
 72
     1
 10
-92.37188372394064
 20
28.20115966775921
 11
-92.37188372394064
 21
23.60239043701524
 72
     2
 10
-92.72249910855544
 20
23.60239043701524
 40
0.3506153846142901
 50
0.0
 51
90.0
 73
     0
 72
     1
 10
-92.72249910855544
 20
23.25177505240095
 11
-97.24589753063549
 21
23.25177505240095
 72
     2
 10
-97.24589753063549
 20
23.60239043701524
 40
0.3506153846138886
 50
90.0
 51
180.0
 73
     0
 72
     1
 10
-97.59651291524938
 20
23.60239043701524
 11
-97.59651291524938
 21
28.20115966775921
 72
     2
 10
-97.24589753063549
 20
28.20115966775921
 40
0.3506153846147413
 50
180.0
 51
270.0
 73
     0
 72
     1
 10
-97.24589753063549
 20
28.55177505237395
 11
-92.72249910855544
 21
28.55177505237395
 72
     2
 10
-92.72249910855544
 20
28.20115966775921
 40
0.3506153846147981
 50
270.0
 51
360.0
 73
     0
 97
        8
330
274
330
2B7
330
275
330
2C2
330
272
330
2B9
330
273
330
2B8
 92
       16
 93
        1
 72
     2
 10
-95.08095071202592
 20
26.28472807407697
 40
0.3892387874202541
 50
0.0
 51
360.0
 73
     1
 97
        1
330
2DD
 92
       16
 93
        8
 72
     2
 10
-94.62652285024024
 20
25.36808212368988
 40
0.2609230769227309
 50
115.3740086783591
 51
180.0
 73
     1
 72
     1
 10
-94.88744592716318
 20
25.36808212368988
 11
-94.88744592716318
 21
24.88721319253691
 72
     2
 10
-94.62652285024024
 20
24.88721319253691
 40
0.2609230769229498
 50
180.0
 51
269.8110329574465
 73
     1
 72
     2
 10
-94.62188141609977
 20
26.29451480209808
 40
1.668232340440704
 50
269.8110329575862
 51
450.1889670424138
 73
     1
 72
     2
 10
-94.62652285024024
 20
27.70181641165926
 40
0.2609230769224216
 50
90.18896704255353
 51
180.0
 73
     1
 72
     1
 10
-94.88744592716318
 20
27.70181641165926
 11
-94.88744592716318
 21
27.20137402446359
 72
     2
 10
-94.62652285024024
 20
27.20137402446359
 40
0.2609230769229498
 50
180.0
 51
244.6259913216399
 73
     1
 72
     2
 10
-95.06126888171787
 20
26.28472807407697
 40
0.7535935125161003
 50
295.3740086781929
 51
424.625991321822
 73
     0
 97
        8
330
2CF
330
23B
330
2CC
330
2CD
330
2AB
330
23A
330
2CE
330
2AA
 92
       16
 93
       12
 72
     2
 10
-96.75507548373753
 20
24.10158701821387
 40
0.2609230769220403
 50
180.0
 51
270.0
 73
     1
 72
     1
 10
-96.75507548373753
 20
23.84066394129098
 11
-95.5353785738123
 21
23.84066394129098
 72
     2
 10
-95.5353785738123
 20
24.10158701821387
 40
0.2609230769228894
 50
270.0
 51
360.0
 73
     1
 72
     1
 10
-95.27445549688946
 20
24.10158701821387
 11
-95.27445549688946
 21
25.36668696162843
 72
     2
 10
-95.5353785738123
 20
25.36668696162843
 40
0.2609230769228361
 50
0.0
 51
64.80558935143995
 73
     1
 72
     2
 10
-95.1034906006098
 20
26.28472807407697
 40
0.7536343169897688
 50
115.1944106485086
 51
244.8055893514766
 73
     0
 72
     2
 10
-95.5353785738123
 20
27.20276918652505
 40
0.2609230769224065
 50
295.1944106485601
 51
360.0
 73
     1
 72
     1
 10
-95.27445549688946
 20
27.20276918652505
 11
-95.27445549688946
 21
27.7019630865751
 72
     2
 10
-95.5353785738123
 20
27.7019630865751
 40
0.2609230769228361
 50
0.0
 51
90.0
 73
     1
 72
     1
 10
-95.5353785738123
 20
27.96288616349756
 11
-96.75507548373753
 21
27.96288616349756
 72
     2
 10
-96.75507548373753
 20
27.7019630865751
 40
0.2609230769224631
 50
90.0
 51
180.0
 73
     1
 72
     1
 10
-97.01599856065957
 20
27.7019630865751
 11
-97.01599856065957
 21
24.10158701821387
 97
       12
330
2B3
330
276
330
2B6
330
271
330
2C3
330
2C4
330
2B5
330
270
330
2B4
330
26F
330
2C5
330
26E
 75
     1
 76
     0
 52
45.0
 41
0.1
 77
     0
 78
     1
 53
45.0
 43
0.0
 44
0.0
 45
-0.0707106781186548
 46
0.0707106781186548
 79
     0
 98
        1
 10
0.0
 20
0.0
  0
HATCH
  5
35B
330
70
100
AcDbEntity
  8
1
  6
Continuous
 62
     2
100
AcDbHatch
 10
0.0
 20
0.0
 30
0.0
210
0.0
220
0.0
230
1.0
  2
_USER
 70
     0
 71
     1
 91
        4
 92
        1
 93
        8
 72
     1
 10
-92.37188372394064
 20
28.20115966775921
 11
-92.37188372394064
 21
23.60239043701524
 72
     2
 10
-92.72249910855544
 20
23.60239043701524
 40
0.3506153846142901
 50
0.0
 51
90.0
 73
     0
 72
     1
 10
-92.72249910855544
 20
23.25177505240095
 11
-97.24589753063549
 21
23.25177505240095
 72
     2
 10
-97.24589753063549
 20
23.60239043701524
 40
0.3506153846138886
 50
90.0
 51
180.0
 73
     0
 72
     1
 10
-97.59651291524938
 20
23.60239043701524
 11
-97.59651291524938
 21
28.20115966775921
 72
     2
 10
-97.24589753063549
 20
28.20115966775921
 40
0.3506153846147413
 50
180.0
 51
270.0
 73
     0
 72
     1
 10
-97.24589753063549
 20
28.55177505237395
 11
-92.72249910855544
 21
28.55177505237395
 72
     2
 10
-92.72249910855544
 20
28.20115966775921
 40
0.3506153846147981
 50
270.0
 51
360.0
 73
     0
 97
        8
330
274
330
2B7
330
275
330
2C2
330
272
330
2B9
330
273
330
2B8
 92
       16
 93
        1
 72
     2
 10
-95.08095071202592
 20
26.28472807407697
 40
0.3892387874202541
 50
0.0
 51
360.0
 73
     1
 97
        1
330
2DD
 92
       16
 93
        8
 72
     2
 10
-94.62652285024024
 20
25.36808212368988
 40
0.2609230769227309
 50
115.3740086783591
 51
180.0
 73
     1
 72
     1
 10
-94.88744592716318
 20
25.36808212368988
 11
-94.88744592716318
 21
24.88721319253691
 72
     2
 10
-94.62652285024024
 20
24.88721319253691
 40
0.2609230769229498
 50
180.0
 51
269.8110329574465
 73
     1
 72
     2
 10
-94.62188141609977
 20
26.29451480209808
 40
1.668232340440704
 50
269.8110329575862
 51
450.1889670424138
 73
     1
 72
     2
 10
-94.62652285024024
 20
27.70181641165926
 40
0.2609230769224216
 50
90.18896704255353
 51
180.0
 73
     1
 72
     1
 10
-94.88744592716318
 20
27.70181641165926
 11
-94.88744592716318
 21
27.20137402446359
 72
     2
 10
-94.62652285024024
 20
27.20137402446359
 40
0.2609230769229498
 50
180.0
 51
244.6259913216399
 73
     1
 72
     2
 10
-95.06126888171787
 20
26.28472807407697
 40
0.7535935125161003
 50
295.3740086781929
 51
424.625991321822
 73
     0
 97
        8
330
2CF
330
23B
330
2CC
330
2CD
330
2AB
330
23A
330
2CE
330
2AA
 92
       16
 93
       12
 72
     2
 10
-96.75507548373753
 20
24.10158701821387
 40
0.2609230769220403
 50
180.0
 51
270.0
 73
     1
 72
     1
 10
-96.75507548373753
 20
23.84066394129098
 11
-95.5353785738123
 21
23.84066394129098
 72
     2
 10
-95.5353785738123
 20
24.10158701821387
 40
0.2609230769228894
 50
270.0
 51
360.0
 73
     1
 72
     1
 10
-95.27445549688946
 20
24.10158701821387
 11
-95.27445549688946
 21
25.36668696162843
 72
     2
 10
-95.5353785738123
 20
25.36668696162843
 40
0.2609230769228361
 50
0.0
 51
64.80558935143995
 73
     1
 72
     2
 10
-95.1034906006098
 20
26.28472807407697
 40
0.7536343169897688
 50
115.1944106485086
 51
244.8055893514766
 73
     0
 72
     2
 10
-95.5353785738123
 20
27.20276918652505
 40
0.2609230769224065
 50
295.1944106485601
 51
360.0
 73
     1
 72
     1
 10
-95.27445549688946
 20
27.20276918652505
 11
-95.27445549688946
 21
27.7019630865751
 72
     2
 10
-95.5353785738123
 20
27.7019630865751
 40
0.2609230769228361
 50
0.0
 51
90.0
 73
     1
 72
     1
 10
-95.5353785738123
 20
27.96288616349756
 11
-96.75507548373753
 21
27.96288616349756
 72
     2
 10
-96.75507548373753
 20
27.7019630865751
 40
0.2609230769224631
 50
90.0
 51
180.0
 73
     1
 72
     1
 10
-97.01599856065957
 20
27.7019630865751
 11
-97.01599856065957
 21
24.10158701821387
 97
       12
330
2B3
330
276
330
2B6
330
271
330
2C3
330
2C4
330
2B5
330
270
330
2B4
330
26F
330
2C5
330
26E
 75
     1
 76
     0
 52
45.0
 41
0.1
 77
     0
 78
     1
 53
45.0
 43
0.0
 44
0.0
 45
-0.0707106781186548
 46
0.0707106781186548
 79
     0
 98
        1
 10
0.0
 20
0.0
  0
HATCH
  5
35C
330
70
100
AcDbEntity
  8
1
  6
Continuous
 62
     2
100
AcDbHatch
 10
0.0
 20
0.0
 30
0.0
210
0.0
220
0.0
230
1.0
  2
_USER
 70
     0
 71
     1
 91
        1
 92
        1
 93
       18
 72
     1
 10
-74.52928214607209
 20
25.12660498437406
 11
-75.19961192910796
 21
25.12660498437406
 72
     1
 10
-75.19961192910796
 20
25.12660498437406
 11
-75.19961192910796
 21
23.25177505240095
 72
     1
 10
-75.19961192910796
 20
23.25177505240095
 11
-76.18539102180853
 21
23.25177505240095
 72
     1
 10
-76.18539102180853
 20
23.25177505240095
 11
-76.18539102180853
 21
25.12660498437406
 72
     1
 10
-76.18539102180853
 20
25.12660498437406
 11
-77.09748961649291
 21
25.12660498437406
 72
     2
 10
-77.09748961649291
 20
24.33774299526162
 40
0.7888619891124407
 50
90.0
 51
109.3371432194312
 73
     1
 72
     2
 10
-77.21870449095877
 20
24.68316033442106
 40
0.4227934381772261
 50
109.337143219486
 51
151.478526742422
 73
     1
 72
     2
 10
-76.90683898841212
 20
24.51367981430615
 40
0.777735318458663
 50
151.4785267423618
 51
208.5214732576692
 73
     1
 72
     2
 10
-77.21870449095877
 20
24.34419929419169
 40
0.4227934381785501
 50
208.5214732576884
 51
246.6277221118405
 73
     1
 72
     2
 10
-77.08941520773305
 20
24.64336625180327
 40
0.7487023016407047
 50
246.6277221118153
 51
288.4480761180802
 73
     1
 72
     2
 10
-77.4350083760487
 20
25.67935449646163
 40
1.840813230556001
 50
288.4480761181333
 51
301.930908949938
 73
     1
 72
     1
 10
-76.4614091677645
 20
24.11708117485018
 11
-76.4614091677645
 21
23.39599273947561
 72
     2
 10
-77.56548182653864
 20
27.2514326616255
 40
4.010410630990753
 50
74.02000874166129
 51
84.8418552303631
 73
     0
 72
     2
 10
-77.32675778130239
 20
24.60689498954154
 40
1.355119937140894
 50
84.8418552303237
 51
164.9381082228993
 73
     0
 72
     2
 10
-77.67314442879137
 20
24.51367981430615
 40
0.9964100565231085
 50
164.9381082229043
 51
195.0618917770945
 73
     0
 72
     2
 10
-77.32675778130239
 20
24.42046463907074
 40
1.355119937140589
 50
195.0618917771007
 51
270.0
 73
     0
 72
     1
 10
-77.32675778130239
 20
25.77558457621133
 11
-74.52928214607209
 21
25.77558457621179
 72
     1
 10
-74.52928214607209
 20
25.77558457621179
 11
-74.52928214607209
 21
25.12660498437406
 97
       18
330
23D
330
2C8
330
2C9
330
2B1
330
2B0
330
2A1
330
2AF
330
2AE
330
2CA
330
2AD
330
2CB
330
2AC
330
2A2
330
23C
330
241
330
240
330
23F
330
23E
 75
     1
 76
     0
 52
45.0
 41
0.1
 77
     0
 78
     1
 53
45.0
 43
0.0
 44
0.0
 45
-0.0707106781186548
 46
0.0707106781186548
 79
     0
 98
        1
 10
0.0
 20
0.0
  0
HATCH
  5
35D
330
70
100
AcDbEntity
  8
1
  6
Continuous
 62
     2
100
AcDbHatch
 10
0.0
 20
0.0
 30
0.0
210
0.0
220
0.0
230
1.0
  2
_USER
 70
     0
 71
     1
 91
        1
 92
        1
 93
       18
 72
     1
 10
-74.52928214607209
 20
25.12660498437406
 11
-75.19961192910796
 21
25.12660498437406
 72
     1
 10
-75.19961192910796
 20
25.12660498437406
 11
-75.19961192910796
 21
23.25177505240095
 72
     1
 10
-75.19961192910796
 20
23.25177505240095
 11
-76.18539102180853
 21
23.25177505240095
 72
     1
 10
-76.18539102180853
 20
23.25177505240095
 11
-76.18539102180853
 21
25.12660498437406
 72
     1
 10
-76.18539102180853
 20
25.12660498437406
 11
-77.09748961649291
 21
25.12660498437406
 72
     2
 10
-77.09748961649291
 20
24.33774299526162
 40
0.7888619891124407
 50
90.0
 51
109.3371432194312
 73
     1
 72
     2
 10
-77.21870449095877
 20
24.68316033442106
 40
0.4227934381772261
 50
109.337143219486
 51
151.478526742422
 73
     1
 72
     2
 10
-76.90683898841212
 20
24.51367981430615
 40
0.777735318458663
 50
151.4785267423618
 51
208.5214732576692
 73
     1
 72
     2
 10
-77.21870449095877
 20
24.34419929419169
 40
0.4227934381785501
 50
208.5214732576884
 51
246.6277221118405
 73
     1
 72
     2
 10
-77.08941520773305
 20
24.64336625180327
 40
0.7487023016407047
 50
246.6277221118153
 51
288.4480761180802
 73
     1
 72
     2
 10
-77.4350083760487
 20
25.67935449646163
 40
1.840813230556001
 50
288.4480761181333
 51
301.930908949938
 73
     1
 72
     1
 10
-76.4614091677645
 20
24.11708117485018
 11
-76.4614091677645
 21
23.39599273947561
 72
     2
 10
-77.56548182653864
 20
27.2514326616255
 40
4.010410630990753
 50
74.02000874166129
 51
84.8418552303631
 73
     0
 72
     2
 10
-77.32675778130239
 20
24.60689498954154
 40
1.355119937140894
 50
84.8418552303237
 51
164.9381082228993
 73
     0
 72
     2
 10
-77.67314442879137
 20
24.51367981430615
 40
0.9964100565231085
 50
164.9381082229043
 51
195.0618917770945
 73
     0
 72
     2
 10
-77.32675778130239
 20
24.42046463907074
 40
1.355119937140589
 50
195.0618917771007
 51
270.0
 73
     0
 72
     1
 10
-77.32675778130239
 20
25.77558457621133
 11
-74.52928214607209
 21
25.77558457621179
 72
     1
 10
-74.52928214607209
 20
25.77558457621179
 11
-74.52928214607209
 21
25.12660498437406
 97
       18
330
23D
330
2C8
330
2C9
330
2B1
330
2B0
330
2A1
330
2AF
330
2AE
330
2CA
330
2AD
330
2CB
330
2AC
330
2A2
330
23C
330
241
330
240
330
23F
330
23E
 75
     1
 76
     0
 52
45.0
 41
0.1
 77
     0
 78
     1
 53
45.0
 43
0.0
 44
0.0
 45
-0.0707106781186548
 46
0.0707106781186548
 79
     0
 98
        1
 10
0.0
 20
0.0
  0
HATCH
  5
35E
330
70
100
AcDbEntity
  8
1
  6
Continuous
 62
     2
100
AcDbHatch
 10
0.0
 20
0.0
 30
0.0
210
0.0
220
0.0
230
1.0
  2
_USER
 70
     0
 71
     1
 91
        1
 92
        1
 93
       14
 72
     2
 10
-90.63477553275106
 20
24.42046463907074
 40
1.355119937140908
 50
84.84185523036265
 51
164.9381082228907
 73
     1
 72
     2
 10
-90.98116218024097
 20
24.51367981430615
 40
0.9964100565214618
 50
164.93810822288
 51
195.0618917770963
 73
     1
 72
     2
 10
-90.63477553275106
 20
24.60689498954154
 40
1.355119937140023
 50
195.061891777091
 51
275.1581447696391
 73
     1
 72
     2
 10
-90.87349957798733
 20
27.2514326616255
 40
4.010410630990215
 50
275.1581447696245
 51
285.9799912583532
 73
     1
 72
     1
 10
-89.76942691921226
 20
23.39599273947605
 11
-89.76942691921226
 21
24.11708117485064
 72
     2
 10
-90.74302612749739
 20
25.67935449646209
 40
1.840813230556011
 50
58.0690910500376
 51
71.55192388186683
 73
     0
 72
     2
 10
-90.39743295918265
 20
24.64336625180327
 40
0.748702301640389
 50
71.55192388184291
 51
113.3722778881289
 73
     0
 72
     2
 10
-90.52672224240746
 20
24.34419929419169
 40
0.4227934381775271
 50
113.3722778881737
 51
151.4785267423086
 73
     0
 72
     2
 10
-90.21485673986172
 20
24.51367981430615
 40
0.7777353184572785
 50
151.4785267422971
 51
208.5214732577312
 73
     0
 72
     2
 10
-90.52672224240746
 20
24.68316033442106
 40
0.4227934381775693
 50
208.5214732576901
 51
246.6277221118017
 73
     0
 72
     2
 10
-90.39743295918265
 20
24.38399337680901
 40
0.7487023016407734
 50
246.6277221118715
 51
288.4480761181456
 73
     0
 72
     2
 10
-90.74302612749739
 20
23.34800513215065
 40
1.840813230556617
 50
288.4480761181331
 51
301.9309089499624
 73
     0
 72
     1
 10
-89.76942691921226
 20
24.9102784537621
 11
-89.76942691921226
 21
25.63136688913669
 72
     2
 10
-90.87349957798733
 20
21.77592696698725
 40
4.010410630990089
 50
74.02000874164679
 51
84.84185523037544
 73
     1
 97
       14
330
2D0
330
2D1
330
2D2
330
2D3
330
2A3
330
2A9
330
2A8
330
2A7
330
2D4
330
2D5
330
2A6
330
2D6
330
2A4
330
2A5
 75
     1
 76
     0
 52
45.0
 41
0.1
 77
     0
 78
     1
 53
45.0
 43
0.0
 44
0.0
 45
-0.0707106781186548
 46
0.0707106781186548
 79
     0
 98
        1
 10
0.0
 20
0.0
  0
HATCH
  5
35F
330
70
100
AcDbEntity
  8
1
  6
Continuous
 62
     2
100
AcDbHatch
 10
0.0
 20
0.0
 30
0.0
210
0.0
220
0.0
230
1.0
  2
_USER
 70
     0
 71
     1
 91
        1
 92
        1
 93
       14
 72
     2
 10
-90.63477553275106
 20
24.42046463907074
 40
1.355119937140908
 50
84.84185523036265
 51
164.9381082228907
 73
     1
 72
     2
 10
-90.98116218024097
 20
24.51367981430615
 40
0.9964100565214618
 50
164.93810822288
 51
195.0618917770963
 73
     1
 72
     2
 10
-90.63477553275106
 20
24.60689498954154
 40
1.355119937140023
 50
195.061891777091
 51
275.1581447696391
 73
     1
 72
     2
 10
-90.87349957798733
 20
27.2514326616255
 40
4.010410630990215
 50
275.1581447696245
 51
285.9799912583532
 73
     1
 72
     1
 10
-89.76942691921226
 20
23.39599273947605
 11
-89.76942691921226
 21
24.11708117485064
 72
     2
 10
-90.74302612749739
 20
25.67935449646209
 40
1.840813230556011
 50
58.0690910500376
 51
71.55192388186683
 73
     0
 72
     2
 10
-90.39743295918265
 20
24.64336625180327
 40
0.748702301640389
 50
71.55192388184291
 51
113.3722778881289
 73
     0
 72
     2
 10
-90.52672224240746
 20
24.34419929419169
 40
0.4227934381775271
 50
113.3722778881737
 51
151.4785267423086
 73
     0
 72
     2
 10
-90.21485673986172
 20
24.51367981430615
 40
0.7777353184572785
 50
151.4785267422971
 51
208.5214732577312
 73
     0
 72
     2
 10
-90.52672224240746
 20
24.68316033442106
 40
0.4227934381775693
 50
208.5214732576901
 51
246.6277221118017
 73
     0
 72
     2
 10
-90.39743295918265
 20
24.38399337680901
 40
0.7487023016407734
 50
246.6277221118715
 51
288.4480761181456
 73
     0
 72
     2
 10
-90.74302612749739
 20
23.34800513215065
 40
1.840813230556617
 50
288.4480761181331
 51
301.9309089499624
 73
     0
 72
     1
 10
-89.76942691921226
 20
24.9102784537621
 11
-89.76942691921226
 21
25.63136688913669
 72
     2
 10
-90.87349957798733
 20
21.77592696698725
 40
4.010410630990089
 50
74.02000874164679
 51
84.84185523037544
 73
     1
 97
       14
330
2D0
330
2D1
330
2D2
330
2D3
330
2A3
330
2A9
330
2A8
330
2A7
330
2D4
330
2D5
330
2A6
330
2D6
330
2A4
330
2A5
 75
     1
 76
     0
 52
45.0
 41
0.1
 77
     0
 78
     1
 53
45.0
 43
0.0
 44
0.0
 45
-0.0707106781186548
 46
0.0707106781186548
 79
     0
 98
        1
 10
0.0
 20
0.0
  0
ENDBLK
  5
72
330
70
100
AcDbEntity
  8
0
100
AcDbBlockEnd
  0
BLOCK
  5
76
330
73
100
AcDbEntity
  8
0
100
AcDbBlockBegin
  2
A4I
 70
     0
 10
27.86373607321741
 20
23.0376880076749
 30
0.0
  3
A4I
  1

  0
INSERT
  5
74
330
73
100
AcDbEntity
  8
1
100
AcDbBlockReference
  2
_punkt
 10
27.86373607321741
 20
28.03768800767501
 30
0.0
  0
INSERT
  5
75
330
73
100
AcDbEntity
  8
1
100
AcDbBlockReference
  2
_rahmen
 10
27.86373607321741
 20
23.0376880076749
 30
0.0
  0
ENDBLK
  5
77
330
73
100
AcDbEntity
  8
0
100
AcDbBlockEnd
  0
BLOCK
  5
F2
330
EA
100
AcDbEntity
  8
0
100
AcDbBlockBegin
  2
*D16
 70
     1
 10
0.0
 20
0.0
 30
0.0
  3
*D16
  1

  0
LINE
  5
EB
330
EA
100
AcDbEntity
  8
1
  6
Continuous
 62
     2
100
AcDbLine
 10
-209.988906314953
 20
172.6000008598611
 30
0.0
 11
-209.988906314953
 21
137.4000008598611
 31
0.0
  0
LINE
  5
EC
330
EA
100
AcDbEntity
  8
1
  6
Continuous
 62
     2
100
AcDbLine
 10
-187.7000003632035
 20
172.6000008598611
 30
0.0
 11
-211.988906314953
 21
172.6000008598611
 31
0.0
  0
LINE
  5
ED
330
EA
100
AcDbEntity
  8
1
  6
Continuous
 62
     2
100
AcDbLine
 10
-185.0641019783412
 20
137.4000008598611
 30
0.0
 11
-211.988906314953
 21
137.4000008598611
 31
0.0
  0
SOLID
  5
EE
330
EA
100
AcDbEntity
  8
1
 62
     2
100
AcDbTrace
 10
-209.5281225733971
 20
169.1000008598611
 30
0.0
 11
-210.4496900565089
 21
169.1000008598611
 31
0.0
 12
-209.988906314953
 22
172.6000008598611
 32
0.0
 13
-209.988906314953
 23
172.6000008598611
 33
0.0
  0
SOLID
  5
EF
330
EA
100
AcDbEntity
  8
1
 62
     2
100
AcDbTrace
 10
-210.4496900565089
 20
140.9000008598611
 30
0.0
 11
-209.5281225733971
 21
140.9000008598611
 31
0.0
 12
-209.988906314953
 22
137.4000008598611
 32
0.0
 13
-209.988906314953
 23
137.4000008598611
 33
0.0
  0
MTEXT
  5
F1
330
EA
100
AcDbEntity
  8
1
 62
     3
100
AcDbMText
 10
-211.988906314953
 20
153.604923133558
 30
0.0
 40
3.5
 41
0.0
 71
     7
 72
     1
  1
35
  7
CONVERTER_11
 11
0.0
 21
1.0
 31
0.0
 73
     1
 44
0.60024009603842
  0
ENDBLK
  5
F3
330
EA
100
AcDbEntity
  8
0
100
AcDbBlockEnd
  0
BLOCK
  5
FD
330
F6
100
AcDbEntity
  8
0
100
AcDbBlockBegin
  2
*D17
 70
     1
 10
0.0
 20
0.0
 30
0.0
  3
*D17
  1

  0
LINE
  5
F7
330
F6
100
AcDbEntity
  8
1
  6
Continuous
 62
     2
100
AcDbLine
 10
-199.203998695878
 20
172.6000008598611
 30
0.0
 11
-199.203998695878
 21
157.4000008598611
 31
0.0
  0
LINE
  5
F8
330
F6
100
AcDbEntity
  8
1
  6
Continuous
 62
     2
100
AcDbLine
 10
-181.4000003632035
 20
157.4000008598611
 30
0.0
 11
-201.203998695878
 21
157.4000008598611
 31
0.0
  0
LINE
  5
F9
330
F6
100
AcDbEntity
  8
1
  6
Continuous
 62
     2
100
AcDbLine
 10
-187.7000003632035
 20
172.6000008598611
 30
0.0
 11
-201.203998695878
 21
172.6000008598611
 31
0.0
  0
SOLID
  5
FA
330
F6
100
AcDbEntity
  8
1
 62
     2
100
AcDbTrace
 10
-198.7432149543221
 20
169.1000008598611
 30
0.0
 11
-199.6647824374339
 21
169.1000008598611
 31
0.0
 12
-199.203998695878
 22
172.6000008598611
 32
0.0
 13
-199.203998695878
 23
172.6000008598611
 33
0.0
  0
SOLID
  5
FB
330
F6
100
AcDbEntity
  8
1
 62
     2
100
AcDbTrace
 10
-199.6647824374339
 20
160.9000008598611
 30
0.0
 11
-198.7432149543221
 21
160.9000008598611
 31
0.0
 12
-199.203998695878
 22
157.4000008598611
 32
0.0
 13
-199.203998695878
 23
157.4000008598611
 33
0.0
  0
MTEXT
  5
FC
330
F6
100
AcDbEntity
  8
1
 62
     3
100
AcDbMText
 10
-201.553998695878
 20
160.835241696655
 30
0.0
 40
3.5
 41
0.0
 71
     7
 72
     1
  1
15,2
  7
CONVERTER_11
 11
0.0
 21
1.0
 31
0.0
 73
     1
 44
0.60024009603842
  0
ENDBLK
  5
FE
330
F6
100
AcDbEntity
  8
0
100
AcDbBlockEnd
  0
BLOCK
  5
108
330
101
100
AcDbEntity
  8
0
100
AcDbBlockBegin
  2
*D18
 70
     1
 10
0.0
 20
0.0
 30
0.0
  3
*D18
  1

  0
LINE
  5
102
330
101
100
AcDbEntity
  8
1
  6
Continuous
 62
     2
100
AcDbLine
 10
-169.9000003632035
 20
182.6000008598611
 30
0.0
 11
-187.7000003632035
 21
182.6000008598611
 31
0.0
  0
LINE
  5
103
330
101
100
AcDbEntity
  8
1
  6
Continuous
 62
     2
100
AcDbLine
 10
-187.7000003632035
 20
172.6000008598611
 30
0.0
 11
-187.7000003632035
 21
184.6000008598611
 31
0.0
  0
LINE
  5
104
330
101
100
AcDbEntity
  8
1
  6
Continuous
 62
     2
100
AcDbLine
 10
-169.9000003632035
 20
172.6000008598611
 30
0.0
 11
-169.9000003632035
 21
184.6000008598611
 31
0.0
  0
SOLID
  5
105
330
101
100
AcDbEntity
  8
1
 62
     2
100
AcDbTrace
 10
-173.4000003632035
 20
182.1392171183052
 30
0.0
 11
-173.4000003632035
 21
183.060784601417
 31
0.0
 12
-169.9000003632035
 22
182.6000008598611
 32
0.0
 13
-169.9000003632035
 23
182.6000008598611
 33
0.0
  0
SOLID
  5
106
330
101
100
AcDbEntity
  8
1
 62
     2
100
AcDbTrace
 10
-184.2000003632035
 20
183.060784601417
 30
0.0
 11
-184.2000003632035
 21
182.1392171183052
 31
0.0
 12
-187.7000003632035
 22
182.6000008598611
 32
0.0
 13
-187.7000003632035
 23
182.6000008598611
 33
0.0
  0
MTEXT
  5
107
330
101
100
AcDbEntity
  8
1
 62
     3
100
AcDbMText
 10
-183.0875003632035
 20
184.9500008598611
 30
0.0
 40
3.5
 41
0.0
 71
     7
 72
     1
  1
17,8
  7
CONVERTER_11
 11
0.9999999999970619
 21
2.424068405545306E-6
 31
0.0
 73
     1
 44
0.60024009603842
  0
ENDBLK
  5
109
330
101
100
AcDbEntity
  8
0
100
AcDbBlockEnd
  0
BLOCK
  5
12A
330
121
100
AcDbEntity
  8
0
100
AcDbBlockBegin
  2
*D19
 70
     1
 10
0.0
 20
0.0
 30
0.0
  3
*D19
  1

  0
LINE
  5
122
330
121
100
AcDbEntity
  8
1
  6
Continuous
 62
     2
100
AcDbLine
 10
-135.8999999999651
 20
182.6000008598611
 30
0.0
 11
-128.650142445944
 21
182.6000008598611
 31
0.0
  0
LINE
  5
123
330
121
100
AcDbEntity
  8
1
  6
Continuous
 62
     2
100
AcDbLine
 10
-139.8999999999651
 20
182.6000008598611
 30
0.0
 11
-135.8999999999651
 21
182.6000008598611
 31
0.0
  0
LINE
  5
124
330
121
100
AcDbEntity
  8
1
  6
Continuous
 62
     2
100
AcDbLine
 10
-146.8999999999651
 20
182.6000008598611
 30
0.0
 11
-139.8999999999651
 21
182.6000008598611
 31
0.0
  0
LINE
  5
125
330
121
100
AcDbEntity
  8
1
  6
Continuous
 62
     2
100
AcDbLine
 10
-135.8999999999651
 20
172.6000008598611
 30
0.0
 11
-135.8999999999651
 21
184.6000008598611
 31
0.0
  0
LINE
  5
126
330
121
100
AcDbEntity
  8
1
  6
Continuous
 62
     2
100
AcDbLine
 10
-139.8999999999651
 20
172.6000008598611
 30
0.0
 11
-139.8999999999651
 21
184.6000008598611
 31
0.0
  0
SOLID
  5
127
330
121
100
AcDbEntity
  8
1
 62
     2
100
AcDbTrace
 10
-143.3999999999651
 20
182.1392171183052
 30
0.0
 11
-143.3999999999651
 21
183.060784601417
 31
0.0
 12
-139.8999999999651
 22
182.6000008598611
 32
0.0
 13
-139.8999999999651
 23
182.6000008598611
 33
0.0
  0
SOLID
  5
128
330
121
100
AcDbEntity
  8
1
 62
     2
100
AcDbTrace
 10
-132.3999999999651
 20
183.060784601417
 30
0.0
 11
-132.3999999999651
 21
182.1392171183052
 31
0.0
 12
-135.8999999999651
 22
182.6000008598611
 32
0.0
 13
-135.8999999999651
 23
182.6000008598611
 33
0.0
  0
MTEXT
  5
129
330
121
100
AcDbEntity
  8
1
 62
     3
100
AcDbMText
 10
-130.750142445944
 20
184.6000008598611
 30
0.0
 40
3.5
 41
0.0
 71
     7
 72
     1
  1
4
  7
CONVERTER_11
 11
0.9999999999970619
 21
2.424068405545306E-6
 31
0.0
 73
     1
 44
0.60024009603842
  0
ENDBLK
  5
12B
330
121
100
AcDbEntity
  8
0
100
AcDbBlockEnd
  0
BLOCK
  5
137
330
12E
100
AcDbEntity
  8
0
100
AcDbBlockBegin
  2
*D20
 70
     1
 10
0.0
 20
0.0
 30
0.0
  3
*D20
  1

  0
LINE
  5
12F
330
12E
100
AcDbEntity
  8
1
  6
Continuous
 62
     2
100
AcDbLine
 10
-136.8999999999651
 20
126.618729407501
 30
0.0
 11
-128.46441426403
 21
126.618729407501
 31
0.0
  0
LINE
  5
130
330
12E
100
AcDbEntity
  8
1
  6
Continuous
 62
     2
100
AcDbLine
 10
-138.8999999999651
 20
126.618729407501
 30
0.0
 11
-136.8999999999651
 21
126.618729407501
 31
0.0
  0
LINE
  5
131
330
12E
100
AcDbEntity
  8
1
  6
Continuous
 62
     2
100
AcDbLine
 10
-145.8999999999651
 20
126.618729407501
 30
0.0
 11
-138.8999999999651
 21
126.618729407501
 31
0.0
  0
LINE
  5
132
330
12E
100
AcDbEntity
  8
1
  6
Continuous
 62
     2
100
AcDbLine
 10
-136.8999999999651
 20
141.6000008598611
 30
0.0
 11
-136.8999999999651
 21
124.618729407501
 31
0.0
  0
LINE
  5
133
330
12E
100
AcDbEntity
  8
1
  6
Continuous
 62
     2
100
AcDbLine
 10
-138.8999999999651
 20
141.6000008598611
 30
0.0
 11
-138.8999999999651
 21
124.618729407501
 31
0.0
  0
SOLID
  5
134
330
12E
100
AcDbEntity
  8
1
 62
     2
100
AcDbTrace
 10
-142.3999999999651
 20
126.1579456659451
 30
0.0
 11
-142.3999999999651
 21
127.0795131490569
 31
0.0
 12
-138.8999999999651
 22
126.618729407501
 32
0.0
 13
-138.8999999999651
 23
126.618729407501
 33
0.0
  0
SOLID
  5
135
330
12E
100
AcDbEntity
  8
1
 62
     2
100
AcDbTrace
 10
-133.3999999999651
 20
127.0795131490569
 30
0.0
 11
-133.3999999999651
 21
126.1579456659451
 31
0.0
 12
-136.8999999999651
 22
126.618729407501
 32
0.0
 13
-136.8999999999651
 23
126.618729407501
 33
0.0
  0
MTEXT
  5
136
330
12E
100
AcDbEntity
  8
1
 62
     3
100
AcDbMText
 10
-130.56441426403
 20
128.618729407501
 30
0.0
 40
3.5
 41
0.0
 71
     7
 72
     1
  1
2
  7
CONVERTER_11
 11
0.9999999999970619
 21
2.424068405545306E-6
 31
0.0
 73
     1
 44
0.60024009603842
  0
ENDBLK
  5
138
330
12E
100
AcDbEntity
  8
0
100
AcDbBlockEnd
  0
ENDSEC
  0
SECTION
  2
ENTITIES
  0
INSERT
  5
78
330
1F
100
AcDbEntity
  8
0
100
AcDbBlockReference
  2
AllgSicht1
 10
-23.00000009078806
 20
82.00000029368994
 30
0.0
  0
INSERT
  5
79
330
1F
100
AcDbEntity
  8
0
100
AcDbBlockReference
  2
Rcksicht1
 10
-42.5666397714789
 20
155.0000004299299
 30
0.0
  0
INSERT
  5
7A
330
1F
100
AcDbEntity
  8
0
100
AcDbBlockReference
  2
SA_rechts1
 10
-178.8000001816019
 20
155.00000042993
 30
0.0
  0
INSERT
  5
7B
330
1F
100
AcDbEntity
  8
0
100
AcDbBlockReference
  2
Vordans1
 10
-137.89999999998
 20
155.00000042993
 30
0.0
  0
INSERT
  5
7C
330
1F
100
AcDbEntity
  8
0
100
AcDbBlockReference
  2
Drfsicht1
 10
-137.89999999998
 20
101.2505833649271
 30
0.0
  0
INSERT
  5
7D
330
1F
100
AcDbEntity
  8
0
100
AcDbBlockReference
  2
SA_links1
 10
-89.99999981840006
 20
155.0000004299299
 30
0.0
  0
INSERT
  5
7E
330
1F
100
AcDbEntity
  8
0
100
AcDbBlockReference
  2
A4I
 10
27.86373607321741
 20
23.0376880076749
 30
0.0
  0
ENDSEC
  0
SECTION
  2
OBJECTS
  0
DICTIONARY
  5
C
330
0
100
AcDbDictionary
281
     1
  3
ACAD_GROUP
350
D
  3
ACAD_LAYOUT
350
1A
  3
ACAD_MLEADERSTYLE
350
361
  3
ACAD_MLINESTYLE
350
17
  3
ACAD_PLOTSETTINGS
350
19
  3
ACAD_PLOTSTYLENAME
350
E
  3
ACAD_TABLESTYLE
350
360
  3
ACAD_VISUALSTYLE
350
2A
  0
DICTIONARY
  5
D
102
{ACAD_REACTORS
330
C
102
}
330
C
100
AcDbDictionary
281
     1
  0
DICTIONARY
  5
1A
102
{ACAD_REACTORS
330
C
102
}
330
C
100
AcDbDictionary
281
     1
  3
Layout1
350
1E
  3
Layout2
350
26
  3
Model
350
22
  0
DICTIONARY
  5
361
102
{ACAD_REACTORS
330
C
102
}
330
C
100
AcDbDictionary
281
     1
  0
DICTIONARY
  5
17
102
{ACAD_REACTORS
330
C
102
}
330
C
100
AcDbDictionary
281
     1
  3
Standard
350
18
  0
DICTIONARY
  5
19
102
{ACAD_REACTORS
330
C
102
}
330
C
100
AcDbDictionary
281
     1
  0
ACDBDICTIONARYWDFLT
  5
E
102
{ACAD_REACTORS
330
C
102
}
330
C
100
AcDbDictionary
281
     1
  3
Normal
350
F
100
AcDbDictionaryWithDefault
340
F
  0
DICTIONARY
  5
360
102
{ACAD_REACTORS
330
C
102
}
330
C
100
AcDbDictionary
281
     1
  0
DICTIONARY
  5
2A
102
{ACAD_REACTORS
330
C
102
}
330
C
100
AcDbDictionary
281
     1
  3
2dWireframe
350
2F
  3
3D Hidden
350
31
  3
3dWireframe
350
30
  3
Basic
350
32
  3
Brighten
350
36
  3
ColorChange
350
3A
  3
Conceptual
350
34
  3
Dim
350
35
  3
Facepattern
350
39
  3
Flat
350
2B
  3
FlatWithEdges
350
2C
  3
Gouraud
350
2D
  3
GouraudWithEdges
350
2E
  3
Linepattern
350
38
  3
Realistic
350
33
  3
Thicken
350
37
  0
LAYOUT
  5
1E
102
{ACAD_REACTORS
330
1A
102
}
330
1A
100
AcDbPlotSettings
  1

  2
none_device
  4

  6

 40
0.0
 41
0.0
 42
0.0
 43
0.0
 44
0.0
 45
0.0
 46
0.0
 47
0.0
 48
0.0
 49
0.0
140
0.0
141
0.0
142
1.0
143
1.0
 70
   688
 72
     0
 73
     0
 74
     5
  7

 75
    16
147
1.0
148
0.0
149
0.0
100
AcDbLayout
  1
Layout1
 70
     1
 71
     1
 10
0.0
 20
0.0
 11
12.0
 21
9.0
 12
0.0
 22
0.0
 32
0.0
 14
1.00000000000000E+20
 24
1.00000000000000E+20
 34
1.00000000000000E+20
 15
-1.00000000000000E+20
 25
-1.00000000000000E+20
 35
-1.00000000000000E+20
146
0.0
 13
0.0
 23
0.0
 33
0.0
 16
1.0
 26
0.0
 36
0.0
 17
0.0
 27
1.0
 37
0.0
 76
     0
330
1B
  0
LAYOUT
  5
26
102
{ACAD_REACTORS
330
1A
102
}
330
1A
100
AcDbPlotSettings
  1

  2
none_device
  4

  6

 40
0.0
 41
0.0
 42
0.0
 43
0.0
 44
0.0
 45
0.0
 46
0.0
 47
0.0
 48
0.0
 49
0.0
140
0.0
141
0.0
142
1.0
143
1.0
 70
   688
 72
     0
 73
     0
 74
     5
  7

 75
    16
147
1.0
148
0.0
149
0.0
100
AcDbLayout
  1
Layout2
 70
     1
 71
     2
 10
0.0
 20
0.0
 11
0.0
 21
0.0
 12
0.0
 22
0.0
 32
0.0
 14
0.0
 24
0.0
 34
0.0
 15
0.0
 25
0.0
 35
0.0
146
0.0
 13
0.0
 23
0.0
 33
0.0
 16
1.0
 26
0.0
 36
0.0
 17
0.0
 27
1.0
 37
0.0
 76
     0
330
23
  0
LAYOUT
  5
22
102
{ACAD_REACTORS
330
1A
102
}
330
1A
100
AcDbPlotSettings
  1

  2
none_device
  4

  6

 40
0.0
 41
0.0
 42
0.0
 43
0.0
 44
0.0
 45
0.0
 46
0.0
 47
0.0
 48
0.0
 49
0.0
140
0.0
141
0.0
142
1.0
143
1.0
 70
  1712
 72
     0
 73
     0
 74
     0
  7

 75
     0
147
1.0
148
0.0
149
0.0
100
AcDbLayout
  1
Model
 70
     1
 71
     0
 10
0.0
 20
0.0
 11
12.0
 21
9.0
 12
0.0
 22
0.0
 32
0.0
 14
-266.7117537492941
 24
12.401775052395
 34
0.0
 15
30.28824625070408
 25
222.401775052395
 35
0.0
146
0.0
 13
0.0
 23
0.0
 33
0.0
 16
1.0
 26
0.0
 36
0.0
 17
0.0
 27
1.0
 37
0.0
 76
     0
330
1F
331
29
  0
MLINESTYLE
  5
18
102
{ACAD_REACTORS
330
17
102
}
330
17
100
AcDbMlineStyle
  2
Standard
 70
     0
  3

 62
   256
 51
90.0
 52
90.0
 71
     2
 49
0.5
 62
   256
  6
BYLAYER
 49
-0.5
 62
   256
  6
BYLAYER
  0
ACDBPLACEHOLDER
  5
F
102
{ACAD_REACTORS
330
E
102
}
330
E
  0
VISUALSTYLE
  5
2F
102
{ACAD_REACTORS
330
2A
102
}
330
2A
100
AcDbVisualStyle
  2
2dWireframe
 70
     4
 71
     0
 72
     2
 73
     0
 90
        0
 40
-0.6
 41
-30.0
 62
     5
 63
     7
 74
     1
 91
        4
 64
     7
 65
   257
 75
     1
175
     1
 42
1.0
 92
        0
 66
   257
 43
1.0
 76
     1
 77
     6
 78
     2
 67
     7
 79
     5
170
     0
171
     0
290
     0
174
     0
 93
        1
 44
0.0
173
     0
291
     0
 45
0.0
1001
ACAD
1000
AcDbSavedByObjectVersion
1070
     0
  0
VISUALSTYLE
  5
31
102
{ACAD_REACTORS
330
2A
102
}
330
2A
100
AcDbVisualStyle
  2
3D Hidden
 70
     6
 71
     1
 72
     2
 73
     2
 90
        0
 40
-0.6
 41
-30.0
 62
     5
 63
     7
 74
     2
 91
        2
 64
     7
 65
   257
 75
     2
175
     1
 42
40.0
 92
        0
 66
   257
 43
1.0
 76
     1
 77
     6
 78
     2
 67
     7
 79
     3
170
     0
171
     0
290
     0
174
     0
 93
        1
 44
0.0
173
     0
291
     0
 45
0.0
1001
ACAD
1000
AcDbSavedByObjectVersion
1070
     0
  0
VISUALSTYLE
  5
30
102
{ACAD_REACTORS
330
2A
102
}
330
2A
100
AcDbVisualStyle
  2
3dWireframe
 70
     5
 71
     0
 72
     2
 73
     0
 90
        0
 40
-0.6
 41
-30.0
 62
     5
 63
     7
 74
     1
 91
        4
 64
     7
 65
   257
 75
     1
175
     1
 42
1.0
 92
        0
 66
   257
 43
1.0
 76
     1
 77
     6
 78
     2
 67
     7
 79
     5
170
     0
171
     0
290
     0
174
     0
 93
        1
 44
0.0
173
     0
291
     0
 45
0.0
1001
ACAD
1000
AcDbSavedByObjectVersion
1070
     0
  0
VISUALSTYLE
  5
32
102
{ACAD_REACTORS
330
2A
102
}
330
2A
100
AcDbVisualStyle
  2
Basic
 70
     7
 71
     1
 72
     0
 73
     1
 90
        0
 40
-0.6
 41
-30.0
 62
     5
 63
     7
 74
     0
 91
        4
 64
     7
 65
   257
 75
     1
175
     1
 42
1.0
 92
        8
 66
     7
 43
1.0
 76
     1
 77
     6
 78
     2
 67
     7
 79
     5
170
     0
171
     0
290
     0
174
     0
 93
        1
 44
0.0
173
     0
291
     1
 45
0.0
1001
ACAD
1000
AcDbSavedByObjectVersion
1070
     0
  0
VISUALSTYLE
  5
36
102
{ACAD_REACTORS
330
2A
102
}
330
2A
100
AcDbVisualStyle
  2
Brighten
 70
    12
 71
     2
 72
     2
 73
     0
 90
        0
 40
-0.6
 41
-30.0
 62
     5
 63
     7
 74
     1
 91
        4
 64
     7
 65
   257
 75
     1
175
     1
 42
1.0
 92
        8
 66
     7
 43
1.0
 76
     1
 77
     6
 78
     2
 67
     7
 79
     5
170
     0
171
     0
290
     0
174
     0
 93
        1
 44
50.0
173
     0
291
     1
 45
0.0
1001
ACAD
1000
AcDbSavedByObjectVersion
1070
     0
  0
VISUALSTYLE
  5
3A
102
{ACAD_REACTORS
330
2A
102
}
330
2A
100
AcDbVisualStyle
  2
ColorChange
 70
    16
 71
     2
 72
     2
 73
     3
 90
        0
 40
-0.6
 41
-30.0
 62
     5
 63
     8
 74
     1
 91
        4
 64
     7
 65
   257
 75
     1
175
     1
 42
1.0
 92
        8
 66
     8
 43
1.0
 76
     1
 77
     6
 78
     2
 67
     7
 79
     5
170
     0
171
     0
290
     0
174
     0
 93
        1
 44
0.0
173
     0
291
     1
 45
0.0
1001
ACAD
1000
AcDbSavedByObjectVersion
1070
     0
  0
VISUALSTYLE
  5
34
102
{ACAD_REACTORS
330
2A
102
}
330
2A
100
AcDbVisualStyle
  2
Conceptual
 70
     9
 71
     3
 72
     2
 73
     0
 90
        0
 40
-0.6
 41
-30.0
 62
     5
 63
     7
 74
     2
 91
        2
 64
     7
 65
   257
 75
     1
175
     1
 42
40.0
 92
        8
 66
     7
 43
1.0
 76
     1
 77
     6
 78
     2
 67
     7
 79
     3
170
     0
171
     0
290
     0
174
     0
 93
        1
 44
0.0
173
     0
291
     0
 45
0.0
1001
ACAD
1000
AcDbSavedByObjectVersion
1070
     0
  0
VISUALSTYLE
  5
35
102
{ACAD_REACTORS
330
2A
102
}
330
2A
100
AcDbVisualStyle
  2
Dim
 70
    11
 71
     2
 72
     2
 73
     0
 90
        0
 40
-0.6
 41
-30.0
 62
     5
 63
     7
 74
     1
 91
        4
 64
     7
 65
   257
 75
     1
175
     1
 42
1.0
 92
        8
 66
     7
 43
1.0
 76
     1
 77
     6
 78
     2
 67
     7
 79
     5
170
     0
171
     0
290
     0
174
     0
 93
        1
 44
-50.0
173
     0
291
     1
 45
0.0
1001
ACAD
1000
AcDbSavedByObjectVersion
1070
     0
  0
VISUALSTYLE
  5
39
102
{ACAD_REACTORS
330
2A
102
}
330
2A
100
AcDbVisualStyle
  2
Facepattern
 70
    15
 71
     2
 72
     2
 73
     0
 90
        0
 40
-0.6
 41
-30.0
 62
     5
 63
     7
 74
     1
 91
        4
 64
     7
 65
   257
 75
     1
175
     1
 42
1.0
 92
        8
 66
     7
 43
1.0
 76
     1
 77
     6
 78
     2
 67
     7
 79
     5
170
     0
171
     0
290
     0
174
     0
 93
        1
 44
0.0
173
     0
291
     1
 45
0.0
1001
ACAD
1000
AcDbSavedByObjectVersion
1070
     0
  0
VISUALSTYLE
  5
2B
102
{ACAD_REACTORS
330
2A
102
}
330
2A
100
AcDbVisualStyle
  2
Flat
 70
     0
 71
     2
 72
     1
 73
     1
 90
        2
 40
-0.6
 41
30.0
 62
     5
 63
     7
 74
     0
 91
        4
 64
     7
 65
   257
 75
     1
175
     1
 42
1.0
 92
        8
 66
     7
 43
1.0
 76
     1
 77
     6
 78
     2
 67
     7
 79
     5
170
     0
171
     0
290
     0
174
     0
 93
       13
 44
0.0
173
     0
291
     1
 45
0.0
1001
ACAD
1000
AcDbSavedByObjectVersion
1070
     0
  0
VISUALSTYLE
  5
2C
102
{ACAD_REACTORS
330
2A
102
}
330
2A
100
AcDbVisualStyle
  2
FlatWithEdges
 70
     1
 71
     2
 72
     1
 73
     1
 90
        2
 40
-0.6
 41
30.0
 62
     5
 63
     7
 74
     1
 91
        4
 64
     7
 65
   257
 75
     1
175
     1
 42
1.0
 92
        0
 66
   257
 43
1.0
 76
     1
 77
     6
 78
     2
 67
     7
 79
     5
170
     0
171
     0
290
     0
174
     0
 93
       13
 44
0.0
173
     0
291
     1
 45
0.0
1001
ACAD
1000
AcDbSavedByObjectVersion
1070
     0
  0
VISUALSTYLE
  5
2D
102
{ACAD_REACTORS
330
2A
102
}
330
2A
100
AcDbVisualStyle
  2
Gouraud
 70
     2
 71
     2
 72
     2
 73
     1
 90
        2
 40
-0.6
 41
30.0
 62
     5
 63
     7
 74
     0
 91
        4
 64
     7
 65
   257
 75
     1
175
     1
 42
1.0
 92
        0
 66
     7
 43
1.0
 76
     1
 77
     6
 78
     2
 67
     7
 79
     5
170
     0
171
     0
290
     0
174
     0
 93
       13
 44
0.0
173
     0
291
     1
 45
0.0
1001
ACAD
1000
AcDbSavedByObjectVersion
1070
     0
  0
VISUALSTYLE
  5
2E
102
{ACAD_REACTORS
330
2A
102
}
330
2A
100
AcDbVisualStyle
  2
GouraudWithEdges
 70
     3
 71
     2
 72
     2
 73
     1
 90
        2
 40
-0.6
 41
30.0
 62
     5
 63
     7
 74
     1
 91
        4
 64
     7
 65
   257
 75
     1
175
     1
 42
1.0
 92
        0
 66
   257
 43
1.0
 76
     1
 77
     6
 78
     2
 67
     7
 79
     5
170
     0
171
     0
290
     0
174
     0
 93
       13
 44
0.0
173
     0
291
     1
 45
0.0
1001
ACAD
1000
AcDbSavedByObjectVersion
1070
     0
  0
VISUALSTYLE
  5
38
102
{ACAD_REACTORS
330
2A
102
}
330
2A
100
AcDbVisualStyle
  2
Linepattern
 70
    14
 71
     2
 72
     2
 73
     0
 90
        0
 40
-0.6
 41
-30.0
 62
     5
 63
     7
 74
     1
 91
        4
 64
     7
 65
   257
 75
     7
175
     7
 42
1.0
 92
        8
 66
     7
 43
1.0
 76
     1
 77
     6
 78
     2
 67
     7
 79
     5
170
     0
171
     0
290
     0
174
     0
 93
        1
 44
0.0
173
     0
291
     1
 45
0.0
1001
ACAD
1000
AcDbSavedByObjectVersion
1070
     0
  0
VISUALSTYLE
  5
33
102
{ACAD_REACTORS
330
2A
102
}
330
2A
100
AcDbVisualStyle
  2
Realistic
 70
     8
 71
     2
 72
     2
 73
     0
 90
        0
 40
-0.6
 41
-30.0
 62
     5
 63
     7
 74
     1
 91
        0
 64
     7
 65
   257
 75
     1
175
     1
 42
1.0
 92
        8
 66
     8
 43
1.0
 76
     1
 77
     6
 78
     2
 67
     7
 79
     5
170
     0
171
     0
290
     0
174
     0
 93
       13
 44
0.0
173
     0
291
     0
 45
0.0
1001
ACAD
1000
AcDbSavedByObjectVersion
1070
     0
  0
VISUALSTYLE
  5
37
102
{ACAD_REACTORS
330
2A
102
}
330
2A
100
AcDbVisualStyle
  2
Thicken
 70
    13
 71
     2
 72
     2
 73
     0
 90
        0
 40
-0.6
 41
-30.0
 62
     5
 63
     7
 74
     1
 91
        4
 64
     7
 65
   257
 75
     1
175
     1
 42
1.0
 92
       12
 66
     7
 43
1.0
 76
     1
 77
     6
 78
     2
 67
     7
 79
     5
170
     0
171
     0
290
     0
174
     0
 93
        1
 44
0.0
173
     0
291
     1
 45
0.0
1001
ACAD
1000
AcDbSavedByObjectVersion
1070
     0
  0
ENDSEC
  0
EOF
