  0
SECTION
  2
HEADER
  9
$ACADVER
  1
AC1015
  9
$ACADMAINTVER
 70
     6
  9
$DWGCODEPAGE
  3
ANSI_1252
  9
$INSBASE
 10
0.0
 20
0.0
 30
0.0
  9
$EXTMIN
 10
-244.037669747061
 20
2.28207210725108
 30
0.0
  9
$EXTMAX
 10
52.96233025293711
 20
212.2820721072511
 30
0.0
  9
$LIMMIN
 10
0.0
 20
0.0
  9
$LIMMAX
 10
12.0
 20
9.0
  9
$ORTHOMODE
 70
     0
  9
$REGENMODE
 70
     1
  9
$FILLMODE
 70
     1
  9
$QTEXTMODE
 70
     0
  9
$MIRRTEXT
 70
     1
  9
$LTSCALE
 40
1.0
  9
$ATTMODE
 70
     1
  9
$TEXTSIZE
 40
0.2
  9
$TRACEWID
 40
0.05
  9
$TEXTSTYLE
  7
Standard
  9
$CLAYER
  8
0
  9
$CELTYPE
  6
ByLayer
  9
$CECOLOR
 62
   256
  9
$CELTSCALE
 40
1.0
  9
$DISPSILH
 70
     0
  9
$DIMSCALE
 40
1.0
  9
$DIMASZ
 40
0.18
  9
$DIMEXO
 40
0.0625
  9
$DIMDLI
 40
0.38
  9
$DIMRND
 40
0.0
  9
$DIMDLE
 40
0.0
  9
$DIMEXE
 40
0.18
  9
$DIMTP
 40
0.0
  9
$DIMTM
 40
0.0
  9
$DIMTXT
 40
0.18
  9
$DIMCEN
 40
0.09
  9
$DIMTSZ
 40
0.0
  9
$DIMTOL
 70
     0
  9
$DIMLIM
 70
     0
  9
$DIMTIH
 70
     1
  9
$DIMTOH
 70
     1
  9
$DIMSE1
 70
     0
  9
$DIMSE2
 70
     0
  9
$DIMTAD
 70
     0
  9
$DIMZIN
 70
     0
  9
$DIMBLK
  1

  9
$DIMASO
 70
     1
  9
$DIMSHO
 70
     1
  9
$DIMPOST
  1

  9
$DIMAPOST
  1

  9
$DIMALT
 70
     0
  9
$DIMALTD
 70
     2
  9
$DIMALTF
 40
25.4
  9
$DIMLFAC
 40
1.0
  9
$DIMTOFL
 70
     0
  9
$DIMTVP
 40
0.0
  9
$DIMTIX
 70
     0
  9
$DIMSOXD
 70
     0
  9
$DIMSAH
 70
     0
  9
$DIMBLK1
  1

  9
$DIMBLK2
  1

  9
$DIMSTYLE
  2
Standard
  9
$DIMCLRD
 70
     0
  9
$DIMCLRE
 70
     0
  9
$DIMCLRT
 70
     0
  9
$DIMTFAC
 40
1.0
  9
$DIMGAP
 40
0.09
  9
$DIMJUST
 70
     0
  9
$DIMSD1
 70
     0
  9
$DIMSD2
 70
     0
  9
$DIMTOLJ
 70
     1
  9
$DIMTZIN
 70
     0
  9
$DIMALTZ
 70
     0
  9
$DIMALTTZ
 70
     0
  9
$DIMUPT
 70
     0
  9
$DIMDEC
 70
     4
  9
$DIMTDEC
 70
     4
  9
$DIMALTU
 70
     2
  9
$DIMALTTD
 70
     2
  9
$DIMTXSTY
  7
Standard
  9
$DIMAUNIT
 70
     0
  9
$DIMADEC
 70
     0
  9
$DIMALTRND
 40
0.0
  9
$DIMAZIN
 70
     0
  9
$DIMDSEP
 70
    46
  9
$DIMATFIT
 70
     3
  9
$DIMFRAC
 70
     0
  9
$DIMLDRBLK
  1

  9
$DIMLUNIT
 70
     2
  9
$DIMLWD
 70
    -2
  9
$DIMLWE
 70
    -2
  9
$DIMTMOVE
 70
     0
  9
$LUNITS
 70
     2
  9
$LUPREC
 70
     4
  9
$SKETCHINC
 40
0.1
  9
$FILLETRAD
 40
0.5
  9
$AUNITS
 70
     0
  9
$AUPREC
 70
     0
  9
$MENU
  1
.
  9
$ELEVATION
 40
0.0
  9
$PELEVATION
 40
0.0
  9
$THICKNESS
 40
0.0
  9
$LIMCHECK
 70
     0
  9
$CHAMFERA
 40
0.5
  9
$CHAMFERB
 40
0.5
  9
$CHAMFERC
 40
1.0
  9
$CHAMFERD
 40
0.0
  9
$SKPOLY
 70
     0
  9
$TDCREATE
 40
2455521.502835937
  9
$TDUCREATE
 40
2455521.461169271
  9
$TDUPDATE
 40
2455521.502835949
  9
$TDUUPDATE
 40
2455521.461169282
  9
$TDINDWG
 40
0.0000000116
  9
$TDUSRTIMER
 40
0.0000000116
  9
$USRTIMER
 70
     1
  9
$ANGBASE
 50
0.0
  9
$ANGDIR
 70
     0
  9
$PDMODE
 70
     0
  9
$PDSIZE
 40
0.0
  9
$PLINEWID
 40
0.0
  9
$SPLFRAME
 70
     0
  9
$SPLINETYPE
 70
     6
  9
$SPLINESEGS
 70
     8
  9
$HANDSEED
  5
49C
  9
$SURFTAB1
 70
     6
  9
$SURFTAB2
 70
     6
  9
$SURFTYPE
 70
     6
  9
$SURFU
 70
     6
  9
$SURFV
 70
     6
  9
$UCSBASE
  2

  9
$UCSNAME
  2

  9
$UCSORG
 10
0.0
 20
0.0
 30
0.0
  9
$UCSXDIR
 10
1.0
 20
0.0
 30
0.0
  9
$UCSYDIR
 10
0.0
 20
1.0
 30
0.0
  9
$UCSORTHOREF
  2

  9
$UCSORTHOVIEW
 70
     0
  9
$UCSORGTOP
 10
0.0
 20
0.0
 30
0.0
  9
$UCSORGBOTTOM
 10
0.0
 20
0.0
 30
0.0
  9
$UCSORGLEFT
 10
0.0
 20
0.0
 30
0.0
  9
$UCSORGRIGHT
 10
0.0
 20
0.0
 30
0.0
  9
$UCSORGFRONT
 10
0.0
 20
0.0
 30
0.0
  9
$UCSORGBACK
 10
0.0
 20
0.0
 30
0.0
  9
$PUCSBASE
  2

  9
$PUCSNAME
  2

  9
$PUCSORG
 10
0.0
 20
0.0
 30
0.0
  9
$PUCSXDIR
 10
1.0
 20
0.0
 30
0.0
  9
$PUCSYDIR
 10
0.0
 20
1.0
 30
0.0
  9
$PUCSORTHOREF
  2

  9
$PUCSORTHOVIEW
 70
     0
  9
$PUCSORGTOP
 10
0.0
 20
0.0
 30
0.0
  9
$PUCSORGBOTTOM
 10
0.0
 20
0.0
 30
0.0
  9
$PUCSORGLEFT
 10
0.0
 20
0.0
 30
0.0
  9
$PUCSORGRIGHT
 10
0.0
 20
0.0
 30
0.0
  9
$PUCSORGFRONT
 10
0.0
 20
0.0
 30
0.0
  9
$PUCSORGBACK
 10
0.0
 20
0.0
 30
0.0
  9
$USERI1
 70
     0
  9
$USERI2
 70
     0
  9
$USERI3
 70
     0
  9
$USERI4
 70
     0
  9
$USERI5
 70
     0
  9
$USERR1
 40
16.0
  9
$USERR2
 40
0.0
  9
$USERR3
 40
0.0
  9
$USERR4
 40
0.0
  9
$USERR5
 40
0.0
  9
$WORLDVIEW
 70
     1
  9
$SHADEDGE
 70
     3
  9
$SHADEDIF
 70
    70
  9
$TILEMODE
 70
     1
  9
$MAXACTVP
 70
    64
  9
$PINSBASE
 10
0.0
 20
0.0
 30
0.0
  9
$PLIMCHECK
 70
     0
  9
$PEXTMIN
 10
1.00000000000000E+20
 20
1.00000000000000E+20
 30
1.00000000000000E+20
  9
$PEXTMAX
 10
-1.00000000000000E+20
 20
-1.00000000000000E+20
 30
-1.00000000000000E+20
  9
$PLIMMIN
 10
0.0
 20
0.0
  9
$PLIMMAX
 10
12.0
 20
9.0
  9
$UNITMODE
 70
     0
  9
$VISRETAIN
 70
     1
  9
$PLINEGEN
 70
     0
  9
$PSLTSCALE
 70
     1
  9
$TREEDEPTH
 70
  3020
  9
$CMLSTYLE
  2
Standard
  9
$CMLJUST
 70
     0
  9
$CMLSCALE
 40
1.0
  9
$PROXYGRAPHICS
 70
     1
  9
$MEASUREMENT
 70
     1
  9
$CELWEIGHT
370
    -1
  9
$ENDCAPS
280
     0
  9
$JOINSTYLE
280
     0
  9
$LWDISPLAY
290
     0
  9
$INSUNITS
 70
     1
  9
$HYPERLINKBASE
  1

  9
$STYLESHEET
  1

  9
$XEDIT
290
     1
  9
$CEPSNTYPE
380
     0
  9
$PSTYLEMODE
290
     1
  9
$FINGERPRINTGUID
  2
{6A06EB61-4A5B-43CD-B0C8-D800A730D1C6}
  9
$VERSIONGUID
  2
{FAEB1C32-E019-11D5-929B-00C0DF256EC4}
  9
$EXTNAMES
290
     1
  9
$PSVPSCALE
 40
0.0
  9
$OLESTARTUP
290
     0
  0
ENDSEC
  0
SECTION
  2
CLASSES
  0
CLASS
  1
ACDBDICTIONARYWDFLT
  2
AcDbDictionaryWithDefault
  3
ObjectDBX Classes
 90
        0
280
     0
281
     0
  0
CLASS
  1
VISUALSTYLE
  2
AcDbVisualStyle
  3
ObjectDBX Classes
 90
     4095
280
     0
281
     0
  0
CLASS
  1

  2
exOdDbCircle
  3

 90
        0
280
     0
281
     1
  0
CLASS
  1
ACDBPLACEHOLDER
  2
AcDbPlaceHolder
  3
ObjectDBX Classes
 90
        0
280
     0
281
     0
  0
CLASS
  1
LAYOUT
  2
AcDbLayout
  3
ObjectDBX Classes
 90
        0
280
     0
281
     0
  0
ENDSEC
  0
SECTION
  2
TABLES
  0
TABLE
  2
VPORT
  5
8
330
0
100
AcDbSymbolTable
 70
     1
  0
VPORT
  5
29
330
8
100
AcDbSymbolTableRecord
100
AcDbViewportTableRecord
  2
*Active
 70
     0
 10
0.0
 20
0.0
 11
1.0
 21
1.0
 12
-95.53766974706194
 22
107.2820721072511
 13
0.0
 23
0.0
 14
0.5
 24
0.5
 15
0.5
 25
0.5
 16
0.0
 26
0.0
 36
1.0
 17
0.0
 27
0.0
 37
0.0
 40
231.0000000000001
 41
1.60267857142857
 42
50.0
 43
0.0
 44
0.0
 50
0.0
 51
0.0
 71
     0
 72
   100
 73
     1
 74
     3
 75
     0
 76
     0
 77
     0
 78
     0
281
     0
 65
     1
110
0.0
120
0.0
130
0.0
111
1.0
121
0.0
131
0.0
112
0.0
122
1.0
132
0.0
 79
     0
146
0.0
  0
ENDTAB
  0
TABLE
  2
LTYPE
  5
5
330
0
100
AcDbSymbolTable
 70
     8
  0
LTYPE
  5
14
330
5
100
AcDbSymbolTableRecord
100
AcDbLinetypeTableRecord
  2
ByBlock
 70
     0
  3

 72
    65
 73
     0
 40
0.0
  0
LTYPE
  5
15
330
5
100
AcDbSymbolTableRecord
100
AcDbLinetypeTableRecord
  2
ByLayer
 70
     0
  3

 72
    65
 73
     0
 40
0.0
  0
LTYPE
  5
16
330
5
100
AcDbSymbolTableRecord
100
AcDbLinetypeTableRecord
  2
Continuous
 70
     0
  3
Solid line
 72
    65
 73
     0
 40
0.0
  0
LTYPE
  5
3B
330
5
100
AcDbSymbolTableRecord
100
AcDbLinetypeTableRecord
  2
DASHED
 70
     0
  3
Dashed
 72
    65
 73
     2
 40
15.0
 49
7.0
 74
     0
 49
-8.0
 74
     0
  0
LTYPE
  5
3C
330
5
100
AcDbSymbolTableRecord
100
AcDbLinetypeTableRecord
  2
DOTTED
 70
     0
  3
Dotted
 72
    65
 73
     2
 40
1.0
 49
0.0
 74
     0
 49
-1.0
 74
     0
  0
LTYPE
  5
3D
330
5
100
AcDbSymbolTableRecord
100
AcDbLinetypeTableRecord
  2
DOT_CENTER
 70
     0
  3
Dot_Center
 72
    65
 73
     4
 40
14.0
 49
12.0
 74
     0
 49
-1.0
 74
     0
 49
0.0
 74
     0
 49
-1.0
 74
     0
  0
LTYPE
  5
3E
330
5
100
AcDbSymbolTableRecord
100
AcDbLinetypeTableRecord
  2
LONG_DASHED
 70
     0
  3
Long_Dashed
 72
    65
 73
     2
 40
15.0
 49
10.0
 74
     0
 49
-5.0
 74
     0
  0
LTYPE
  5
3F
330
5
100
AcDbSymbolTableRecord
100
AcDbLinetypeTableRecord
  2
DASH_CENTER
 70
     0
  3
Dash_Center
 72
    65
 73
     4
 40
14.0
 49
11.0
 74
     0
 49
-1.0
 74
     0
 49
1.0
 74
     0
 49
-1.0
 74
     0
  0
LTYPE
  5
40
330
5
100
AcDbSymbolTableRecord
100
AcDbLinetypeTableRecord
  2
PHANTOM
 70
     0
  3
Phantom
 72
    65
 73
     6
 40
13.0
 49
10.0
 74
     0
 49
-1.0
 74
     0
 49
0.0
 74
     0
 49
-1.0
 74
     0
 49
0.0
 74
     0
 49
-1.0
 74
     0
  0
LTYPE
  5
41
330
5
100
AcDbSymbolTableRecord
100
AcDbLinetypeTableRecord
  2
CENTER_DASH_DASH
 70
     0
  3
Center_Dash_Dash
 72
    65
 73
     6
 40
14.0
 49
9.0
 74
     0
 49
-1.0
 74
     0
 49
1.0
 74
     0
 49
-1.0
 74
     0
 49
1.0
 74
     0
 49
-1.0
 74
     0
  0
ENDTAB
  0
TABLE
  2
LAYER
  5
2
330
0
100
AcDbSymbolTable
 70
     2
  0
LAYER
  5
10
330
2
100
AcDbSymbolTableRecord
100
AcDbLayerTableRecord
  2
0
 70
     0
 62
     7
  6
Continuous
370
    -3
390
F
  0
LAYER
  5
42
330
2
100
AcDbSymbolTableRecord
100
AcDbLayerTableRecord
  2
1
 70
     0
 62
     7
  6
Continuous
370
    -3
390
F
  0
ENDTAB
  0
TABLE
  2
STYLE
  5
3
330
0
100
AcDbSymbolTable
 70
     9
  0
STYLE
  5
11
330
3
100
AcDbSymbolTableRecord
100
AcDbTextStyleTableRecord
  2
Standard
 70
     0
 40
0.0
 41
1.0
 50
0.0
 71
     0
 42
0.2
  3
txt
  4

  0
STYLE
  5
140
330
3
100
AcDbSymbolTableRecord
100
AcDbTextStyleTableRecord
  2
CONVERTER_11
 70
     0
 40
0.0
 41
0.9
 50
0.0
 71
     0
 42
0.2
  3
txt.shx
  4

  0
STYLE
  5
423
330
3
100
AcDbSymbolTableRecord
100
AcDbTextStyleTableRecord
  2
CONVERTER_12
 70
     0
 40
0.0
 41
0.63
 50
0.0
 71
     0
 42
0.2
  3
txt.shx
  4

  0
STYLE
  5
426
330
3
100
AcDbSymbolTableRecord
100
AcDbTextStyleTableRecord
  2
CONVERTER_13
 70
     0
 40
0.0
 41
0.72
 50
0.0
 71
     0
 42
0.2
  3
txt.shx
  4

  0
STYLE
  5
42A
330
3
100
AcDbSymbolTableRecord
100
AcDbTextStyleTableRecord
  2
CONVERTER_14
 70
     0
 40
0.0
 41
0.765
 50
0.0
 71
     0
 42
0.2
  3
txt.shx
  4

  0
STYLE
  5
462
330
3
100
AcDbSymbolTableRecord
100
AcDbTextStyleTableRecord
  2
CONVERTER_15
 70
     0
 40
0.0
 41
0.855
 50
0.0
 71
     0
 42
0.2
  3
txt.shx
  4

  0
STYLE
  5
47E
330
3
100
AcDbSymbolTableRecord
100
AcDbTextStyleTableRecord
  2
CONVERTER_16
 70
     0
 40
0.0
 41
0.54
 50
0.0
 71
     0
 42
0.2
  3
txt.shx
  4

  0
STYLE
  5
480
330
3
100
AcDbSymbolTableRecord
100
AcDbTextStyleTableRecord
  2
CONVERTER_17
 70
     0
 40
0.0
 41
0.81
 50
0.0
 71
     0
 42
0.2
  3
txt.shx
  4

  0
STYLE
  5
487
330
3
100
AcDbSymbolTableRecord
100
AcDbTextStyleTableRecord
  2
CONVERTER_18
 70
     0
 40
0.0
 41
0.45
 50
0.0
 71
     0
 42
0.2
  3
txt.shx
  4

  0
ENDTAB
  0
TABLE
  2
VIEW
  5
6
330
0
100
AcDbSymbolTable
 70
     0
  0
ENDTAB
  0
TABLE
  2
UCS
  5
7
330
0
100
AcDbSymbolTable
 70
     0
  0
ENDTAB
  0
TABLE
  2
APPID
  5
9
330
0
100
AcDbSymbolTable
 70
     1
  0
APPID
  5
12
330
9
100
AcDbSymbolTableRecord
100
AcDbRegAppTableRecord
  2
ACAD
 70
     0
  0
ENDTAB
  0
TABLE
  2
DIMSTYLE
  5
A
330
0
100
AcDbSymbolTable
 70
     6
100
AcDbDimStyleTable
  0
DIMSTYLE
105
27
330
A
100
AcDbSymbolTableRecord
100
AcDbDimStyleTableRecord
  2
Standard
 70
     0
340
11
  0
DIMSTYLE
105
1EE
102
{ACAD_REACTORS
330
1EF
102
}
330
A
100
AcDbSymbolTableRecord
100
AcDbDimStyleTableRecord
  2
ME10_DIM_10
 70
     0
 41
3.5
 42
0.0
 44
2.0
 73
     0
 74
     0
 77
     1
 78
     8
140
3.5
147
2.0
172
     1
173
     1
176
     2
177
     2
178
     3
340
140
  0
DIMSTYLE
105
1FB
102
{ACAD_REACTORS
330
1FC
102
}
330
A
100
AcDbSymbolTableRecord
100
AcDbDimStyleTableRecord
  2
ME10_DIM_11
 70
     0
 41
3.5
 42
0.0
 44
2.0
 73
     0
 74
     0
 77
     1
 78
     8
140
3.5
147
2.0
172
     1
173
     1
176
     2
177
     2
178
     3
340
140
  0
DIMSTYLE
105
2A2
102
{ACAD_REACTORS
330
2A3
102
}
330
A
100
AcDbSymbolTableRecord
100
AcDbDimStyleTableRecord
  2
ME10_DIM_12
 70
     0
 41
3.5
 42
0.0
 44
2.0
 73
     0
 74
     0
 77
     1
 78
     8
140
3.5
147
2.0
172
     1
173
     1
176
     2
177
     2
178
     3
271
     1
340
140
  0
DIMSTYLE
105
2AD
102
{ACAD_REACTORS
330
2AE
102
}
330
A
100
AcDbSymbolTableRecord
100
AcDbDimStyleTableRecord
  2
ME10_DIM_13
 70
     0
 41
3.5
 42
0.0
 44
2.0
 73
     0
 74
     0
 77
     1
 78
     8
140
3.5
147
2.0
172
     1
173
     1
176
     2
177
     2
178
     3
340
140
  0
DIMSTYLE
105
2B8
102
{ACAD_REACTORS
330
2B9
102
}
330
A
100
AcDbSymbolTableRecord
100
AcDbDimStyleTableRecord
  2
ME10_DIM_14
 70
     0
 41
3.5
 42
0.0
 44
2.0
 73
     0
 74
     0
 77
     1
 78
     8
140
3.5
147
2.0
172
     1
173
     1
176
     2
177
     2
178
     3
340
140
  0
ENDTAB
  0
TABLE
  2
BLOCK_RECORD
  5
1
330
0
100
AcDbSymbolTable
 70
    21
  0
BLOCK_RECORD
  5
1F
330
1
100
AcDbSymbolTableRecord
100
AcDbBlockTableRecord
  2
*Model_Space
340
22
  0
BLOCK_RECORD
  5
1B
330
1
100
AcDbSymbolTableRecord
100
AcDbBlockTableRecord
  2
*Paper_Space
340
1E
  0
BLOCK_RECORD
  5
23
330
1
100
AcDbSymbolTableRecord
100
AcDbBlockTableRecord
  2
*Paper_Space0
340
26
  0
BLOCK_RECORD
  5
43
330
1
100
AcDbSymbolTableRecord
100
AcDbBlockTableRecord
  2
3030271_FBS_10-6_select__1
340
0
102
{BLKREFS
331
47
102
}
  0
BLOCK_RECORD
  5
46
330
1
100
AcDbSymbolTableRecord
100
AcDbBlockTableRecord
  2
AllgSicht1
340
0
102
{BLKREFS
331
78
102
}
  0
BLOCK_RECORD
  5
4A
330
1
100
AcDbSymbolTableRecord
100
AcDbBlockTableRecord
  2
3030271_FBS_10-6_select__2
340
0
102
{BLKREFS
331
4E
102
}
  0
BLOCK_RECORD
  5
4D
330
1
100
AcDbSymbolTableRecord
100
AcDbBlockTableRecord
  2
Drfsicht1
340
0
102
{BLKREFS
331
79
102
}
  0
BLOCK_RECORD
  5
51
330
1
100
AcDbSymbolTableRecord
100
AcDbBlockTableRecord
  2
3030271_FBS_10-6_select__3
340
0
102
{BLKREFS
331
55
102
}
  0
BLOCK_RECORD
  5
54
330
1
100
AcDbSymbolTableRecord
100
AcDbBlockTableRecord
  2
Rckans1
340
0
102
{BLKREFS
331
7A
102
}
  0
BLOCK_RECORD
  5
58
330
1
100
AcDbSymbolTableRecord
100
AcDbBlockTableRecord
  2
3030271_FBS_10-6_select__4
340
0
102
{BLKREFS
331
5C
102
}
  0
BLOCK_RECORD
  5
5B
330
1
100
AcDbSymbolTableRecord
100
AcDbBlockTableRecord
  2
SA_Links1
340
0
102
{BLKREFS
331
7B
102
}
  0
BLOCK_RECORD
  5
5F
330
1
100
AcDbSymbolTableRecord
100
AcDbBlockTableRecord
  2
3030271_FBS_10-6_select__5
340
0
102
{BLKREFS
331
63
102
}
  0
BLOCK_RECORD
  5
62
330
1
100
AcDbSymbolTableRecord
100
AcDbBlockTableRecord
  2
SA_Rechts1
340
0
102
{BLKREFS
331
7C
102
}
  0
BLOCK_RECORD
  5
66
330
1
100
AcDbSymbolTableRecord
100
AcDbBlockTableRecord
  2
3030271_FBS_10-6_select__6
340
0
102
{BLKREFS
331
6A
102
}
  0
BLOCK_RECORD
  5
69
330
1
100
AcDbSymbolTableRecord
100
AcDbBlockTableRecord
  2
Vordans1
340
0
102
{BLKREFS
331
7D
102
}
  0
BLOCK_RECORD
  5
6D
330
1
100
AcDbSymbolTableRecord
100
AcDbBlockTableRecord
  2
_rahmen
340
0
102
{BLKREFS
331
74
102
}
  0
BLOCK_RECORD
  5
70
330
1
100
AcDbSymbolTableRecord
100
AcDbBlockTableRecord
  2
_punkt
340
0
102
{BLKREFS
331
75
102
}
  0
BLOCK_RECORD
  5
73
330
1
100
AcDbSymbolTableRecord
100
AcDbBlockTableRecord
  2
A4I
340
0
102
{BLKREFS
331
7E
102
}
  0
BLOCK_RECORD
  5
1E3
330
1
100
AcDbSymbolTableRecord
100
AcDbBlockTableRecord
  2
*D16
340
0
  0
BLOCK_RECORD
  5
1F0
330
1
100
AcDbSymbolTableRecord
100
AcDbBlockTableRecord
  2
*D17
340
0
  0
BLOCK_RECORD
  5
299
330
1
100
AcDbSymbolTableRecord
100
AcDbBlockTableRecord
  2
*D18
340
0
  0
BLOCK_RECORD
  5
2A4
330
1
100
AcDbSymbolTableRecord
100
AcDbBlockTableRecord
  2
*D19
340
0
  0
BLOCK_RECORD
  5
2AF
330
1
100
AcDbSymbolTableRecord
100
AcDbBlockTableRecord
  2
*D20
340
0
  0
ENDTAB
  0
ENDSEC
  0
SECTION
  2
BLOCKS
  0
BLOCK
  5
20
330
1F
100
AcDbEntity
  8
0
100
AcDbBlockBegin
  2
*Model_Space
 70
     0
 10
0.0
 20
0.0
 30
0.0
  3
*Model_Space
  1

  0
ENDBLK
  5
21
330
1F
100
AcDbEntity
  8
0
100
AcDbBlockEnd
  0
BLOCK
  5
1C
330
1B
100
AcDbEntity
 67
     1
  8
0
100
AcDbBlockBegin
  2
*Paper_Space
 70
     0
 10
0.0
 20
0.0
 30
0.0
  3
*Paper_Space
  1

  0
ENDBLK
  5
1D
330
1B
100
AcDbEntity
 67
     1
  8
0
100
AcDbBlockEnd
  0
BLOCK
  5
24
330
23
100
AcDbEntity
  8
0
100
AcDbBlockBegin
  2
*Paper_Space0
 70
     0
 10
0.0
 20
0.0
 30
0.0
  3
*Paper_Space0
  1

  0
ENDBLK
  5
25
330
23
100
AcDbEntity
  8
0
100
AcDbBlockEnd
  0
BLOCK
  5
44
330
43
100
AcDbEntity
  8
0
100
AcDbBlockBegin
  2
3030271_FBS_10-6_select__1
 70
     0
 10
-31.86066614113632
 20
54.63882415161568
 30
0.0
  3
3030271_FBS_10-6_select__1
  1

  0
LINE
  5
7F
330
43
100
AcDbEntity
  8
0
  6
Continuous
 62
     7
100
AcDbLine
 10
20.36066570706527
 20
73.6315440283455
 30
0.0
 11
-31.86066614113632
 21
88.70654402834549
 31
0.0
  0
LINE
  5
80
330
43
100
AcDbEntity
  8
0
  6
Continuous
 62
     7
100
AcDbLine
 10
-10.38323612728223
 20
75.97930269239335
 30
0.0
 11
-11.85547931371582
 21
74.70430269239334
 31
0.0
  0
LINE
  5
81
330
43
100
AcDbEntity
  8
0
  6
Continuous
 62
     7
100
AcDbLine
 10
-10.38323612728223
 20
77.31039160563887
 30
0.0
 11
-11.85547931371582
 21
77.73539160563888
 31
0.0
  0
LINE
  5
82
330
43
100
AcDbEntity
  8
0
  6
Continuous
 62
     7
100
AcDbLine
 10
-9.16721072349713
 20
65.4982822852271
 30
0.0
 11
-9.16721072349713
 21
71.82093791274984
 31
0.0
  0
LINE
  5
83
330
43
100
AcDbEntity
  8
0
  6
Continuous
 62
     7
100
AcDbLine
 10
-7.00214721403353
 20
71.1959379127469
 30
0.0
 11
-6.69903832270813
 21
71.41154680407205
 31
0.0
  0
LINE
  5
84
330
43
100
AcDbEntity
  8
0
  6
Continuous
 62
     7
100
AcDbLine
 10
-7.00214721403384
 20
64.87328228523161
 30
0.0
 11
-6.20214721403383
 21
65.56610260825914
 31
0.0
  0
LINE
  5
85
330
43
100
AcDbEntity
  8
0
  6
Continuous
 62
     7
100
AcDbLine
 10
-9.47031961482034
 20
74.01576639528456
 30
0.0
 11
-9.47031961482034
 21
72.21154680407261
 31
0.0
  0
LINE
  5
86
330
43
100
AcDbEntity
  8
0
  6
Continuous
 62
     7
100
AcDbLine
 10
-11.85547931371582
 20
77.73539160563888
 30
0.0
 11
-11.85547931371582
 21
74.70430269239334
 31
0.0
  0
LINE
  5
87
330
43
100
AcDbEntity
  8
0
  6
Continuous
 62
     7
100
AcDbLine
 10
-11.26839582616802
 20
73.65436712709854
 30
0.0
 11
-11.26839582616802
 21
75.21273190675208
 31
0.0
  0
LINE
  5
88
330
43
100
AcDbEntity
  8
0
  6
Continuous
 62
     7
100
AcDbLine
 10
-10.38323612728223
 20
77.31039160563887
 30
0.0
 11
-10.38323612728223
 21
74.27930269239334
 31
0.0
  0
LINE
  5
89
330
43
100
AcDbEntity
  8
0
  6
Continuous
 62
     7
100
AcDbLine
 10
-11.57150471749122
 20
73.39186712709974
 30
0.0
 11
-11.57150471749122
 21
67.11610260825223
 31
0.0
  0
LINE
  5
8A
330
43
100
AcDbEntity
  8
0
  6
Continuous
 62
     7
100
AcDbLine
 10
-16.94086222096084
 20
74.94186712709865
 30
0.0
 11
-16.94086222096084
 21
68.66610260825915
 31
0.0
  0
LINE
  5
8B
330
43
100
AcDbEntity
  8
0
  6
Continuous
 62
     7
100
AcDbLine
 10
-17.74086222096082
 20
74.295937912747
 30
0.0
 11
-17.74086222096082
 21
67.9732822852316
 31
0.0
  0
LINE
  5
8C
330
43
100
AcDbEntity
  8
0
  6
Continuous
 62
     7
100
AcDbLine
 10
-12.06839582616803
 20
72.96154680407099
 30
0.0
 11
-12.06839582616803
 21
74.76576639528294
 31
0.0
  0
LINE
  5
8D
330
43
100
AcDbEntity
  8
0
  6
Continuous
 62
     7
100
AcDbLine
 10
-14.53656822695453
 20
73.37093791274586
 30
0.0
 11
-14.53656822695453
 21
67.04828228523047
 31
0.0
  0
LINE
  5
8E
330
43
100
AcDbEntity
  8
0
  6
Continuous
 62
     7
100
AcDbLine
 10
-14.83967711828012
 20
73.76154680407156
 30
0.0
 11
-14.53656822695453
 21
73.37093791274586
 31
0.0
  0
LINE
  5
8F
330
43
100
AcDbEntity
  8
0
  6
Continuous
 62
     7
100
AcDbLine
 10
-11.57150471749122
 20
67.11610260825223
 30
0.0
 11
-12.37150471749112
 21
66.42328228522469
 31
0.0
  0
LINE
  5
90
330
43
100
AcDbEntity
  8
0
  6
Continuous
 62
     7
100
AcDbLine
 10
-12.37150471749112
 20
72.74593791274742
 30
0.0
 11
-12.37150471749112
 21
66.42328228522469
 31
0.0
  0
LINE
  5
91
330
43
100
AcDbEntity
  8
0
  6
Continuous
 62
     7
100
AcDbLine
 10
-14.83967711828012
 20
75.5657663952835
 30
0.0
 11
-14.83967711828012
 21
73.76154680407156
 31
0.0
  0
LINE
  5
92
330
43
100
AcDbEntity
  8
0
  6
Continuous
 62
     7
100
AcDbLine
 10
-11.26839582616802
 20
73.65436712709854
 30
0.0
 11
-12.06839582616803
 21
72.96154680407099
 31
0.0
  0
LINE
  5
93
330
43
100
AcDbEntity
  8
0
  6
Continuous
 62
     7
100
AcDbLine
 10
-12.37150471749112
 20
72.74593791274742
 30
0.0
 11
-12.06839582616803
 21
72.96154680407099
 31
0.0
  0
LINE
  5
94
330
43
100
AcDbEntity
  8
0
  6
Continuous
 62
     7
100
AcDbLine
 10
7.25712478223878
 20
58.18122962608958
 30
0.0
 11
6.94086178689957
 21
60.84828228523048
 31
0.0
  0
LINE
  5
95
330
43
100
AcDbEntity
  8
0
  6
Continuous
 62
     7
100
AcDbLine
 10
1.57150428342987
 20
62.3982822852271
 30
0.0
 11
1.88776727876507
 21
59.73122962611997
 31
0.0
  0
LINE
  5
96
330
43
100
AcDbEntity
  8
0
  6
Continuous
 62
     7
100
AcDbLine
 10
12.31021929036308
 20
59.29828228523048
 30
0.0
 11
12.62648228570228
 21
56.63122962608959
 31
0.0
  0
LINE
  5
97
330
43
100
AcDbEntity
  8
0
  6
Continuous
 62
     7
100
AcDbLine
 10
20.36066570706527
 20
61.85359853687714
 30
0.0
 11
16.46355139003538
 21
62.97859853687714
 31
0.0
  0
LINE
  5
98
330
43
100
AcDbEntity
  8
0
  6
Continuous
 62
     7
100
AcDbLine
 10
-3.48159022468823
 20
61.28122962608958
 30
0.0
 11
-3.79785322002743
 21
63.94828228523048
 31
0.0
  0
LINE
  5
99
330
43
100
AcDbEntity
  8
0
  6
Continuous
 62
     7
100
AcDbLine
 10
4.53656779289318
 20
62.46610260825916
 30
0.0
 11
4.22030479755398
 21
59.98164447461208
 31
0.0
  0
LINE
  5
9A
330
43
100
AcDbEntity
  8
0
  6
Continuous
 62
     7
100
AcDbLine
 10
3.73656779289328
 20
61.77328228523161
 30
0.0
 11
3.42030479755397
 21
59.28882415158453
 31
0.0
  0
LINE
  5
9B
330
43
100
AcDbEntity
  8
0
  6
Continuous
 62
     7
100
AcDbLine
 10
-8.85094772816194
 20
62.83122962611997
 30
0.0
 11
-7.31841020937301
 21
62.38882415158453
 31
0.0
  0
LINE
  5
9C
330
43
100
AcDbEntity
  8
0
  6
Continuous
 62
     7
100
AcDbLine
 10
-9.16721072349713
 20
65.4982822852271
 30
0.0
 11
-8.85094772816194
 21
62.83122962611997
 31
0.0
  0
LINE
  5
9D
330
43
100
AcDbEntity
  8
0
  6
Continuous
 62
     7
100
AcDbLine
 10
-7.31841020937301
 20
62.38882415158453
 30
0.0
 11
-6.51841020937303
 21
63.08164447461208
 31
0.0
  0
LINE
  5
9E
330
43
100
AcDbEntity
  8
0
  6
Continuous
 62
     7
100
AcDbLine
 10
14.47528279982637
 20
64.99593791274742
 30
0.0
 11
14.47528279982637
 21
58.67328228522469
 31
0.0
  0
LINE
  5
9F
330
43
100
AcDbEntity
  8
0
  6
Continuous
 62
     7
100
AcDbLine
 10
-1.14905270590612
 20
61.53164447463855
 30
0.0
 11
-1.94905270590613
 21
60.83882415161101
 31
0.0
  0
LINE
  5
A0
330
43
100
AcDbEntity
  8
0
  6
Continuous
 62
     7
100
AcDbLine
 10
-1.94905270590613
 20
60.83882415161101
 30
0.0
 11
-3.48159022468823
 21
61.28122962608958
 31
0.0
  0
LINE
  5
A1
330
43
100
AcDbEntity
  8
0
  6
Continuous
 62
     7
100
AcDbLine
 10
3.73656779289328
 20
61.77328228523161
 30
0.0
 11
4.53656779289318
 21
62.46610260825916
 31
0.0
  0
LINE
  5
A2
330
43
100
AcDbEntity
  8
0
  6
Continuous
 62
     7
100
AcDbLine
 10
4.22030479755398
 20
59.98164447461208
 30
0.0
 11
3.42030479755397
 21
59.28882415158453
 31
0.0
  0
LINE
  5
A3
330
43
100
AcDbEntity
  8
0
  6
Continuous
 62
     7
100
AcDbLine
 10
-1.94905270590613
 20
60.83882415161101
 30
0.0
 11
-1.63278971057034
 21
63.32328228523161
 31
0.0
  0
LINE
  5
A4
330
43
100
AcDbEntity
  8
0
  6
Continuous
 62
     7
100
AcDbLine
 10
3.42030479755397
 20
59.28882415158453
 30
0.0
 11
1.88776727876507
 21
59.73122962611997
 31
0.0
  0
LINE
  5
A5
330
43
100
AcDbEntity
  8
0
  6
Continuous
 62
     7
100
AcDbLine
 10
9.10592529635679
 20
60.22328228523162
 30
0.0
 11
9.90592529635677
 21
60.91610260825917
 31
0.0
  0
LINE
  5
A6
330
43
100
AcDbEntity
  8
0
  6
Continuous
 62
     7
100
AcDbLine
 10
-1.14905270590612
 20
61.53164447463855
 30
0.0
 11
-0.83278971057032
 21
64.01610260825916
 31
0.0
  0
LINE
  5
A7
330
43
100
AcDbEntity
  8
0
  6
Continuous
 62
     7
100
AcDbLine
 10
15.27528279982639
 20
59.36610260825225
 30
0.0
 11
14.47528279982637
 21
58.67328228522469
 31
0.0
  0
LINE
  5
A8
330
43
100
AcDbEntity
  8
0
  6
Continuous
 62
     7
100
AcDbLine
 10
15.27528279982639
 20
65.64186712709974
 30
0.0
 11
15.27528279982639
 21
59.36610260825225
 31
0.0
  0
LINE
  5
A9
330
43
100
AcDbEntity
  8
0
  6
Continuous
 62
     7
100
AcDbLine
 10
12.31021929036288
 20
65.62093791274593
 30
0.0
 11
12.31021929036308
 21
59.29828228523048
 31
0.0
  0
LINE
  5
AA
330
43
100
AcDbEntity
  8
0
  6
Continuous
 62
     7
100
AcDbLine
 10
19.84464030328746
 20
62.00256223976707
 30
0.0
 11
19.84464030328746
 21
57.12328228522333
 31
0.0
  0
LINE
  5
AB
330
43
100
AcDbEntity
  8
0
  6
Continuous
 62
     7
100
AcDbLine
 10
17.67957679382408
 20
57.74828228523121
 30
0.0
 11
17.67957679382408
 21
62.62756223976771
 31
0.0
  0
LINE
  5
AC
330
43
100
AcDbEntity
  8
0
  6
Continuous
 62
     7
100
AcDbLine
 10
15.27528279982639
 20
59.36610260825225
 30
0.0
 11
14.95901980449116
 21
56.88164447463661
 31
0.0
  0
LINE
  5
AD
330
43
100
AcDbEntity
  8
0
  6
Continuous
 62
     7
100
AcDbLine
 10
9.58966230102087
 20
58.43164447463857
 30
0.0
 11
8.78966230102088
 21
57.73882415161101
 31
0.0
  0
LINE
  5
AE
330
43
100
AcDbEntity
  8
0
  6
Continuous
 62
     7
100
AcDbLine
 10
9.58966230102087
 20
58.43164447463857
 30
0.0
 11
9.90592529635677
 21
60.91610260825917
 31
0.0
  0
LINE
  5
AF
330
43
100
AcDbEntity
  8
0
  6
Continuous
 62
     7
100
AcDbLine
 10
8.78966230102088
 20
57.73882415161101
 30
0.0
 11
9.10592529635679
 21
60.22328228523162
 31
0.0
  0
LINE
  5
B0
330
43
100
AcDbEntity
  8
0
  6
Continuous
 62
     7
100
AcDbLine
 10
8.78966230102088
 20
57.73882415161101
 30
0.0
 11
7.25712478223878
 21
58.18122962608958
 31
0.0
  0
LINE
  5
B1
330
43
100
AcDbEntity
  8
0
  6
Continuous
 62
     7
100
AcDbLine
 10
14.15901980449118
 20
56.18882415160906
 30
0.0
 11
12.62648228570228
 21
56.63122962608959
 31
0.0
  0
LINE
  5
B2
330
43
100
AcDbEntity
  8
0
  6
Continuous
 62
     7
100
AcDbLine
 10
14.15901980449118
 20
56.18882415160906
 30
0.0
 11
14.95901980449116
 21
56.88164447463661
 31
0.0
  0
LINE
  5
B3
330
43
100
AcDbEntity
  8
0
  6
Continuous
 62
     7
100
AcDbLine
 10
14.47528279982637
 20
58.67328228522469
 30
0.0
 11
14.15901980449118
 21
56.18882415160906
 31
0.0
  0
LINE
  5
B4
330
43
100
AcDbEntity
  8
0
  6
Continuous
 62
     7
100
AcDbLine
 10
-5.01387862381873
 20
74.42930269239332
 30
0.0
 11
-6.48612181025231
 21
73.15430269239333
 31
0.0
  0
LINE
  5
B5
330
43
100
AcDbEntity
  8
0
  6
Continuous
 62
     7
100
AcDbLine
 10
-5.01387862381873
 20
75.76039160563887
 30
0.0
 11
-6.48612181025231
 21
76.18539160563887
 31
0.0
  0
LINE
  5
B6
330
43
100
AcDbEntity
  8
0
  6
Continuous
 62
     7
100
AcDbLine
 10
-6.51841020937303
 20
63.08164447461208
 30
0.0
 11
-6.20214721403383
 21
65.56610260825914
 31
0.0
  0
LINE
  5
B7
330
43
100
AcDbEntity
  8
0
  6
Continuous
 62
     7
100
AcDbLine
 10
-6.48612181025231
 20
73.15430269239333
 30
0.0
 11
-6.48612181025231
 21
76.18539160563887
 31
0.0
  0
LINE
  5
B8
330
43
100
AcDbEntity
  8
0
  6
Continuous
 62
     7
100
AcDbLine
 10
-5.89903832270812
 20
72.1043671270996
 30
0.0
 11
-5.89903832270812
 21
73.66273190674892
 31
0.0
  0
LINE
  5
B9
330
43
100
AcDbEntity
  8
0
  6
Continuous
 62
     7
100
AcDbLine
 10
-6.20214721403383
 20
65.56610260825914
 30
0.0
 11
-6.20214721403383
 21
71.84186712709864
 31
0.0
  0
LINE
  5
BA
330
43
100
AcDbEntity
  8
0
  6
Continuous
 62
     7
100
AcDbLine
 10
-5.01387862381873
 20
72.72930269239333
 30
0.0
 11
-5.01387862381873
 21
75.76039160563887
 31
0.0
  0
LINE
  5
BB
330
43
100
AcDbEntity
  8
0
  6
Continuous
 62
     7
100
AcDbLine
 10
-30.64464073734872
 20
71.69828228522431
 30
0.0
 11
-30.32837774201452
 21
69.03122962612575
 31
0.0
  0
LINE
  5
BC
330
43
100
AcDbEntity
  8
0
  6
Continuous
 62
     7
100
AcDbLine
 10
-28.79584022322382
 20
68.58882415158979
 30
0.0
 11
-28.47957722788543
 21
71.0732822852309
 31
0.0
  0
LINE
  5
BD
330
43
100
AcDbEntity
  8
0
  6
Continuous
 62
     7
100
AcDbLine
 10
-19.90592573041803
 20
68.59828228523047
 30
0.0
 11
-19.58966273508221
 21
65.93122962611801
 31
0.0
  0
LINE
  5
BE
330
43
100
AcDbEntity
  8
0
  6
Continuous
 62
     7
100
AcDbLine
 10
-26.49130863767283
 20
78.92930269239334
 30
0.0
 11
-22.59419432064283
 21
77.80430269239334
 31
0.0
  0
LINE
  5
BF
330
43
100
AcDbEntity
  8
0
  6
Continuous
 62
     7
100
AcDbLine
 10
-27.67957722788543
 20
76.04952775123394
 30
0.0
 11
-27.67957722788543
 21
71.76610260825836
 31
0.0
  0
LINE
  5
C0
330
43
100
AcDbEntity
  8
0
  6
Continuous
 62
     7
100
AcDbLine
 10
-26.46355182410633
 20
78.92128999050112
 30
0.0
 11
-26.46355182410633
 21
77.1026366425538
 31
0.0
  0
LINE
  5
C1
330
43
100
AcDbEntity
  8
0
  6
Continuous
 62
     7
100
AcDbLine
 10
-22.59419432064283
 20
77.80430269239334
 30
0.0
 11
-22.59419432064283
 21
80.83539160563888
 31
0.0
  0
LINE
  5
C2
330
43
100
AcDbEntity
  8
0
  6
Continuous
 62
     7
100
AcDbLine
 10
-21.12195113420933
 20
80.41039160563886
 30
0.0
 11
-22.59419432064283
 21
80.83539160563888
 31
0.0
  0
LINE
  5
C3
330
43
100
AcDbEntity
  8
0
  6
Continuous
 62
     7
100
AcDbLine
 10
-21.12195113420933
 20
77.37930269239334
 30
0.0
 11
-21.12195113420933
 21
80.41039160563886
 31
0.0
  0
LINE
  5
C4
330
43
100
AcDbEntity
  8
0
  6
Continuous
 62
     7
100
AcDbLine
 10
-25.57839212521083
 20
76.8615468040726
 30
0.0
 11
-25.27528323388773
 21
76.47093791274983
 31
0.0
  0
LINE
  5
C5
330
43
100
AcDbEntity
  8
0
  6
Continuous
 62
     7
100
AcDbLine
 10
-22.80711083309873
 20
76.06154680407205
 30
0.0
 11
-22.80711083309873
 21
77.865766395284
 31
0.0
  0
LINE
  5
C6
330
43
100
AcDbEntity
  8
0
  6
Continuous
 62
     7
100
AcDbLine
 10
-25.57839212521083
 20
78.66576639528455
 30
0.0
 11
-25.57839212521083
 21
76.8615468040726
 31
0.0
  0
LINE
  5
C7
330
43
100
AcDbEntity
  8
0
  6
Continuous
 62
     7
100
AcDbLine
 10
-22.00711083309872
 20
76.7543671270996
 30
0.0
 11
-22.00711083309872
 21
78.31273190674891
 31
0.0
  0
LINE
  5
C8
330
43
100
AcDbEntity
  8
0
  6
Continuous
 62
     7
100
AcDbLine
 10
-23.11021972442413
 20
75.8459379127469
 30
0.0
 11
-22.80711083309873
 21
76.06154680407205
 31
0.0
  0
LINE
  5
C9
330
43
100
AcDbEntity
  8
0
  6
Continuous
 62
     7
100
AcDbLine
 10
-22.80711083309873
 20
76.06154680407205
 30
0.0
 11
-22.00711083309872
 21
76.7543671270996
 31
0.0
  0
LINE
  5
CA
330
43
100
AcDbEntity
  8
0
  6
Continuous
 62
     7
100
AcDbLine
 10
-19.90592573041803
 20
74.92093791274584
 30
0.0
 11
-19.90592573041803
 21
68.59828228523047
 31
0.0
  0
LINE
  5
CB
330
43
100
AcDbEntity
  8
0
  6
Continuous
 62
     7
100
AcDbLine
 10
-23.11021972442443
 20
69.5232822852316
 30
0.0
 11
-22.31021972442433
 21
70.21610260825916
 31
0.0
  0
LINE
  5
CC
330
43
100
AcDbEntity
  8
0
  6
Continuous
 62
     7
100
AcDbLine
 10
-22.31021972442433
 20
70.21610260825916
 30
0.0
 11
-22.31021972442433
 21
76.49186712709863
 31
0.0
  0
LINE
  5
CD
330
43
100
AcDbEntity
  8
0
  6
Continuous
 62
     7
100
AcDbLine
 10
-23.11021972442443
 20
69.5232822852316
 30
0.0
 11
-23.11021972442413
 21
75.8459379127469
 31
0.0
  0
LINE
  5
CE
330
43
100
AcDbEntity
  8
0
  6
Continuous
 62
     7
100
AcDbLine
 10
-25.27528323388773
 20
70.1482822852271
 30
0.0
 11
-24.95902023855253
 21
67.48122962611997
 31
0.0
  0
LINE
  5
CF
330
43
100
AcDbEntity
  8
0
  6
Continuous
 62
     7
100
AcDbLine
 10
-22.31021972442433
 20
70.21610260825916
 30
0.0
 11
-22.62648271976363
 21
67.73164447461207
 31
0.0
  0
LINE
  5
D0
330
43
100
AcDbEntity
  8
0
  6
Continuous
 62
     7
100
AcDbLine
 10
-23.11021972442443
 20
69.5232822852316
 30
0.0
 11
-23.42648271976363
 21
67.03882415158452
 31
0.0
  0
LINE
  5
D1
330
43
100
AcDbEntity
  8
0
  6
Continuous
 62
     7
100
AcDbLine
 10
-25.27528323388773
 20
70.1482822852271
 30
0.0
 11
-25.27528323388773
 21
76.47093791274983
 31
0.0
  0
LINE
  5
D2
330
43
100
AcDbEntity
  8
0
  6
Continuous
 62
     7
100
AcDbLine
 10
-24.95902023855253
 20
67.48122962611997
 30
0.0
 11
-23.42648271976363
 21
67.03882415158452
 31
0.0
  0
LINE
  5
D3
330
43
100
AcDbEntity
  8
0
  6
Continuous
 62
     7
100
AcDbLine
 10
-22.62648271976363
 20
67.73164447461207
 30
0.0
 11
-23.42648271976363
 21
67.03882415158452
 31
0.0
  0
LINE
  5
D4
330
43
100
AcDbEntity
  8
0
  6
Continuous
 62
     7
100
AcDbLine
 10
-27.99584022322382
 20
69.28164447461734
 30
0.0
 11
-27.67957722788543
 21
71.76610260825836
 31
0.0
  0
LINE
  5
D5
330
43
100
AcDbEntity
  8
0
  6
Continuous
 62
     7
100
AcDbLine
 10
-30.32837774201452
 20
69.03122962612575
 30
0.0
 11
-28.79584022322382
 21
68.58882415158979
 31
0.0
  0
LINE
  5
D6
330
43
100
AcDbEntity
  8
0
  6
Continuous
 62
     7
100
AcDbLine
 10
-28.79584022322382
 20
68.58882415158979
 30
0.0
 11
-27.99584022322382
 21
69.28164447461734
 31
0.0
  0
LINE
  5
D7
330
43
100
AcDbEntity
  8
0
  6
Continuous
 62
     7
100
AcDbLine
 10
-14.53656822695453
 20
67.04828228523047
 30
0.0
 11
-14.22030523161533
 21
64.38122962608958
 31
0.0
  0
LINE
  5
D8
330
43
100
AcDbEntity
  8
0
  6
Continuous
 62
     7
100
AcDbLine
 10
-7.00214721403384
 20
64.87328228523161
 30
0.0
 11
-7.00214721403353
 21
71.1959379127469
 31
0.0
  0
LINE
  5
D9
330
43
100
AcDbEntity
  8
0
  6
Continuous
 62
     7
100
AcDbLine
 10
-7.31841020937301
 20
62.38882415158453
 30
0.0
 11
-7.00214721403384
 21
64.87328228523161
 31
0.0
  0
LINE
  5
DA
330
43
100
AcDbEntity
  8
0
  6
Continuous
 62
     7
100
AcDbLine
 10
-19.58966273508221
 20
65.93122962611801
 30
0.0
 11
-18.05712521630002
 21
65.48882415158452
 31
0.0
  0
LINE
  5
DB
330
43
100
AcDbEntity
  8
0
  6
Continuous
 62
     7
100
AcDbLine
 10
-18.05712521630002
 20
65.48882415158452
 30
0.0
 11
-17.25712521630004
 21
66.18164447461209
 31
0.0
  0
LINE
  5
DC
330
43
100
AcDbEntity
  8
0
  6
Continuous
 62
     7
100
AcDbLine
 10
-16.94086222096084
 20
68.66610260825915
 30
0.0
 11
-17.25712521630004
 21
66.18164447461209
 31
0.0
  0
LINE
  5
DD
330
43
100
AcDbEntity
  8
0
  6
Continuous
 62
     7
100
AcDbLine
 10
-17.74086222096082
 20
67.9732822852316
 30
0.0
 11
-16.94086222096084
 21
68.66610260825915
 31
0.0
  0
LINE
  5
DE
330
43
100
AcDbEntity
  8
0
  6
Continuous
 62
     7
100
AcDbLine
 10
-17.74086222096082
 20
67.9732822852316
 30
0.0
 11
-18.05712521630002
 21
65.48882415158452
 31
0.0
  0
LINE
  5
DF
330
43
100
AcDbEntity
  8
0
  6
Continuous
 62
     7
100
AcDbLine
 10
-14.22030523161533
 20
64.38122962608958
 30
0.0
 11
-12.68776771282643
 21
63.93882415160906
 31
0.0
  0
LINE
  5
E0
330
43
100
AcDbEntity
  8
0
  6
Continuous
 62
     7
100
AcDbLine
 10
-12.68776771282643
 20
63.93882415160906
 30
0.0
 11
-12.37150471749112
 21
66.42328228522469
 31
0.0
  0
LINE
  5
E1
330
43
100
AcDbEntity
  8
0
  6
Continuous
 62
     7
100
AcDbLine
 10
-11.57150471749122
 20
67.11610260825223
 30
0.0
 11
-11.88776771282642
 21
64.6316444746366
 31
0.0
  0
LINE
  5
E2
330
43
100
AcDbEntity
  8
0
  6
Continuous
 62
     7
100
AcDbLine
 10
-11.88776771282642
 20
64.6316444746366
 30
0.0
 11
-12.68776771282643
 21
63.93882415160906
 31
0.0
  0
LINE
  5
E3
330
43
100
AcDbEntity
  8
0
  6
Continuous
 62
     7
100
AcDbLine
 10
19.52837730795326
 20
54.63882415161568
 30
0.0
 11
20.32837730795328
 21
55.33164447464323
 31
0.0
  0
LINE
  5
E4
330
43
100
AcDbEntity
  8
0
  6
Continuous
 62
     7
100
AcDbLine
 10
20.64464030328747
 20
62.09952775123495
 30
0.0
 11
20.64464030328747
 21
57.81610260825086
 31
0.0
  0
LINE
  5
E5
330
43
100
AcDbEntity
  8
0
  6
Continuous
 62
     7
100
AcDbLine
 10
19.52837730795326
 20
54.63882415161568
 30
0.0
 11
19.84464030328746
 21
57.12328228522333
 31
0.0
  0
LINE
  5
E6
330
43
100
AcDbEntity
  8
0
  6
Continuous
 62
     7
100
AcDbLine
 10
17.99583978916257
 20
55.08122962609673
 30
0.0
 11
19.52837730795326
 21
54.63882415161568
 31
0.0
  0
LINE
  5
E7
330
43
100
AcDbEntity
  8
0
  6
Continuous
 62
     7
100
AcDbLine
 10
9.10592529635679
 20
60.22328228523162
 30
0.0
 11
9.10592529635687
 21
66.54593791274681
 31
0.0
  0
LINE
  5
E8
330
43
100
AcDbEntity
  8
0
  6
Continuous
 62
     7
100
AcDbLine
 10
15.57839169114956
 20
65.90436712709855
 30
0.0
 11
14.77839169114958
 21
65.21154680407099
 31
0.0
  0
LINE
  5
E9
330
43
100
AcDbEntity
  8
0
  6
Continuous
 62
     7
100
AcDbLine
 10
16.46355139003538
 20
68.22930269239335
 30
0.0
 11
14.99130820360176
 21
66.95430269239334
 31
0.0
  0
LINE
  5
EA
330
43
100
AcDbEntity
  8
0
  6
Continuous
 62
     7
100
AcDbLine
 10
11.09419388657176
 20
69.77930269239334
 30
0.0
 11
9.62195070013829
 21
68.50430269239334
 31
0.0
  0
LINE
  5
EB
330
43
100
AcDbEntity
  8
0
  6
Continuous
 62
     7
100
AcDbLine
 10
14.99130820360176
 20
66.95430269239334
 30
0.0
 11
11.09419388657176
 21
68.07930269239334
 31
0.0
  0
LINE
  5
EC
330
43
100
AcDbEntity
  8
0
  6
Continuous
 62
     7
100
AcDbLine
 10
5.72483638310828
 20
71.32930269239333
 30
0.0
 11
4.25259319667478
 21
70.05430269239334
 31
0.0
  0
LINE
  5
ED
330
43
100
AcDbEntity
  8
0
  6
Continuous
 62
     7
100
AcDbLine
 10
9.62195070013829
 20
71.53539160563888
 30
0.0
 11
11.09419388657176
 21
71.11039160563888
 31
0.0
  0
LINE
  5
EE
330
43
100
AcDbEntity
  8
0
  6
Continuous
 62
     7
100
AcDbLine
 10
9.62195070013829
 20
68.50430269239334
 30
0.0
 11
5.72483638310828
 21
69.62930269239334
 31
0.0
  0
LINE
  5
EF
330
43
100
AcDbEntity
  8
0
  6
Continuous
 62
     7
100
AcDbLine
 10
5.72483638310828
 20
72.66039160563888
 30
0.0
 11
4.25259319667478
 21
73.08539160563888
 31
0.0
  0
LINE
  5
F0
330
43
100
AcDbEntity
  8
0
  6
Continuous
 62
     7
100
AcDbLine
 10
1.26839539210678
 20
69.1115468040726
 30
0.0
 11
1.57150428342987
 21
68.72093791274983
 31
0.0
  0
LINE
  5
F1
330
43
100
AcDbEntity
  8
0
  6
Continuous
 62
     7
100
AcDbLine
 10
0.35547887964478
 20
71.17930269239334
 30
0.0
 11
4.25259319667478
 21
70.05430269239334
 31
0.0
  0
LINE
  5
F2
330
43
100
AcDbEntity
  8
0
  6
Continuous
 62
     7
100
AcDbLine
 10
0.35547887964478
 20
74.21039160563888
 30
0.0
 11
-1.11676430678872
 21
74.63539160563887
 31
0.0
  0
LINE
  5
F3
330
43
100
AcDbEntity
  8
0
  6
Continuous
 62
     7
100
AcDbLine
 10
0.35547887964478
 20
72.87930269239334
 30
0.0
 11
-1.11676430678872
 21
71.60430269239333
 31
0.0
  0
LINE
  5
F4
330
43
100
AcDbEntity
  8
0
  6
Continuous
 62
     7
100
AcDbLine
 10
-0.83278971057032
 20
64.01610260825916
 30
0.0
 11
-0.83278971057032
 21
70.29186712709864
 31
0.0
  0
LINE
  5
F5
330
43
100
AcDbEntity
  8
0
  6
Continuous
 62
     7
100
AcDbLine
 10
-0.52968081924462
 20
70.5543671270996
 30
0.0
 11
-0.52968081924462
 21
72.11273190674892
 31
0.0
  0
LINE
  5
F6
330
43
100
AcDbEntity
  8
0
  6
Continuous
 62
     7
100
AcDbLine
 10
0.35547887964478
 20
74.21039160563888
 30
0.0
 11
0.35547887964478
 21
71.17930269239334
 31
0.0
  0
LINE
  5
F7
330
43
100
AcDbEntity
  8
0
  6
Continuous
 62
     7
100
AcDbLine
 10
4.03967668421888
 20
68.31154680407205
 30
0.0
 11
4.03967668421888
 21
70.115766395284
 31
0.0
  0
LINE
  5
F8
330
43
100
AcDbEntity
  8
0
  6
Continuous
 62
     7
100
AcDbLine
 10
1.26839539210678
 20
70.91576639528455
 30
0.0
 11
1.26839539210678
 21
69.1115468040726
 31
0.0
  0
LINE
  5
F9
330
43
100
AcDbEntity
  8
0
  6
Continuous
 62
     7
100
AcDbLine
 10
3.73656779289328
 20
68.09593791274699
 30
0.0
 11
4.03967668421888
 21
68.31154680407205
 31
0.0
  0
LINE
  5
FA
330
43
100
AcDbEntity
  8
0
  6
Continuous
 62
     7
100
AcDbLine
 10
4.25259319667478
 20
70.05430269239334
 30
0.0
 11
4.25259319667478
 21
73.08539160563888
 31
0.0
  0
LINE
  5
FB
330
43
100
AcDbEntity
  8
0
  6
Continuous
 62
     7
100
AcDbLine
 10
5.72483638310828
 20
69.62930269239334
 30
0.0
 11
5.72483638310828
 21
72.66039160563888
 31
0.0
  0
LINE
  5
FC
330
43
100
AcDbEntity
  8
0
  6
Continuous
 62
     7
100
AcDbLine
 10
4.83967668421889
 20
69.0043671270996
 30
0.0
 11
4.83967668421889
 21
70.56273190674891
 31
0.0
  0
LINE
  5
FD
330
43
100
AcDbEntity
  8
0
  6
Continuous
 62
     7
100
AcDbLine
 10
4.03967668421888
 20
68.31154680407205
 30
0.0
 11
4.83967668421889
 21
69.0043671270996
 31
0.0
  0
LINE
  5
FE
330
43
100
AcDbEntity
  8
0
  6
Continuous
 62
     7
100
AcDbLine
 10
9.62195070013829
 20
68.50430269239334
 30
0.0
 11
9.62195070013829
 21
71.53539160563888
 31
0.0
  0
LINE
  5
FF
330
43
100
AcDbEntity
  8
0
  6
Continuous
 62
     7
100
AcDbLine
 10
9.40903418768238
 20
66.76154680407205
 30
0.0
 11
9.40903418768238
 21
68.565766395284
 31
0.0
  0
LINE
  5
100
330
43
100
AcDbEntity
  8
0
  6
Continuous
 62
     7
100
AcDbLine
 10
9.10592529635687
 20
66.54593791274681
 30
0.0
 11
9.40903418768238
 21
66.76154680407205
 31
0.0
  0
LINE
  5
101
330
43
100
AcDbEntity
  8
0
  6
Continuous
 62
     7
100
AcDbLine
 10
6.63775289557398
 20
67.56154680407155
 30
0.0
 11
6.63775289557398
 21
69.3657663952835
 31
0.0
  0
LINE
  5
102
330
43
100
AcDbEntity
  8
0
  6
Continuous
 62
     7
100
AcDbLine
 10
6.94086178689957
 20
67.17093791274586
 30
0.0
 11
6.63775289557398
 21
67.56154680407155
 31
0.0
  0
LINE
  5
103
330
43
100
AcDbEntity
  8
0
  6
Continuous
 62
     7
100
AcDbLine
 10
10.20903418768236
 20
67.4543671270996
 30
0.0
 11
10.20903418768236
 21
69.01273190674893
 31
0.0
  0
LINE
  5
104
330
43
100
AcDbEntity
  8
0
  6
Continuous
 62
     7
100
AcDbLine
 10
9.40903418768238
 20
66.76154680407205
 30
0.0
 11
10.20903418768236
 21
67.4543671270996
 31
0.0
  0
LINE
  5
105
330
43
100
AcDbEntity
  8
0
  6
Continuous
 62
     7
100
AcDbLine
 10
11.09419388657176
 20
68.07930269239334
 30
0.0
 11
11.09419388657176
 21
71.11039160563888
 31
0.0
  0
LINE
  5
106
330
43
100
AcDbEntity
  8
0
  6
Continuous
 62
     7
100
AcDbLine
 10
14.99130820360176
 20
69.98539160563888
 30
0.0
 11
14.99130820360176
 21
66.95430269239334
 31
0.0
  0
LINE
  5
107
330
43
100
AcDbEntity
  8
0
  6
Continuous
 62
     7
100
AcDbLine
 10
14.77839169114958
 20
65.21154680407099
 30
0.0
 11
14.77839169114958
 21
67.01576639528295
 31
0.0
  0
LINE
  5
108
330
43
100
AcDbEntity
  8
0
  6
Continuous
 62
     7
100
AcDbLine
 10
12.00711039903749
 20
67.8157663952835
 30
0.0
 11
12.00711039903749
 21
66.01154680407156
 31
0.0
  0
LINE
  5
109
330
43
100
AcDbEntity
  8
0
  6
Continuous
 62
     7
100
AcDbLine
 10
14.47528279982637
 20
64.99593791274742
 30
0.0
 11
14.77839169114958
 21
65.21154680407099
 31
0.0
  0
LINE
  5
10A
330
43
100
AcDbEntity
  8
0
  6
Continuous
 62
     7
100
AcDbLine
 10
12.00711039903749
 20
66.01154680407156
 30
0.0
 11
12.31021929036288
 21
65.62093791274593
 31
0.0
  0
LINE
  5
10B
330
43
100
AcDbEntity
  8
0
  6
Continuous
 62
     7
100
AcDbLine
 10
16.46355139003538
 20
62.97859853687714
 30
0.0
 11
16.46355139003538
 21
69.56039160563887
 31
0.0
  0
LINE
  5
10C
330
43
100
AcDbEntity
  8
0
  6
Continuous
 62
     7
100
AcDbLine
 10
15.57839169114956
 20
65.90436712709855
 30
0.0
 11
15.57839169114956
 21
67.4627319067521
 31
0.0
  0
LINE
  5
10D
330
43
100
AcDbEntity
  8
0
  6
Continuous
 62
     7
100
AcDbLine
 10
20.36066570706527
 20
73.6315440283455
 30
0.0
 11
20.36066570706527
 21
61.85359853687714
 31
0.0
  0
LINE
  5
10E
330
43
100
AcDbEntity
  8
0
  6
Continuous
 62
     7
100
AcDbLine
 10
4.53656779289318
 20
62.46610260825916
 30
0.0
 11
4.53656779289318
 21
68.74186712709864
 31
0.0
  0
LINE
  5
10F
330
43
100
AcDbEntity
  8
0
  6
Continuous
 62
     7
100
AcDbLine
 10
1.57150428342987
 20
62.3982822852271
 30
0.0
 11
1.57150428342987
 21
68.72093791274983
 31
0.0
  0
LINE
  5
110
330
43
100
AcDbEntity
  8
0
  6
Continuous
 62
     7
100
AcDbLine
 10
21.86066570706538
 20
74.93058213402217
 30
0.0
 11
-30.36066614113632
 21
90.00558213402216
 31
0.0
  0
LINE
  5
111
330
43
100
AcDbEntity
  8
0
  6
Continuous
 62
     7
100
AcDbLine
 10
-26.49130863767283
 20
81.96039160563888
 30
0.0
 11
-27.96355182410633
 21
82.38539160563887
 31
0.0
  0
LINE
  5
112
330
43
100
AcDbEntity
  8
0
  6
Continuous
 62
     7
100
AcDbLine
 10
-26.46355182410633
 20
77.1026366425538
 30
0.0
 11
-27.96355182410633
 21
75.80359853687715
 31
0.0
  0
LINE
  5
113
330
43
100
AcDbEntity
  8
0
  6
Continuous
 62
     7
100
AcDbLine
 10
-27.96355182410633
 20
75.80359853687715
 30
0.0
 11
-27.96355182410633
 21
82.38539160563887
 31
0.0
  0
LINE
  5
114
330
43
100
AcDbEntity
  8
0
  6
Continuous
 62
     7
100
AcDbLine
 10
-28.47957722788543
 20
75.95256223976739
 30
0.0
 11
-28.47957722788543
 21
71.0732822852309
 31
0.0
  0
LINE
  5
115
330
43
100
AcDbEntity
  8
0
  6
Continuous
 62
     7
100
AcDbLine
 10
-26.49130863767283
 20
81.96039160563888
 30
0.0
 11
-26.49130863767283
 21
78.92930269239334
 31
0.0
  0
LINE
  5
116
330
43
100
AcDbEntity
  8
0
  6
Continuous
 62
     7
100
AcDbLine
 10
-31.86066614113632
 20
88.70654402834549
 30
0.0
 11
-31.86066614113632
 21
76.92859853687713
 31
0.0
  0
LINE
  5
117
330
43
100
AcDbEntity
  8
0
  6
Continuous
 62
     7
100
AcDbLine
 10
-30.64464073734872
 20
71.69828228522431
 30
0.0
 11
-30.64464073734872
 21
76.57756223976804
 31
0.0
  0
LINE
  5
118
330
43
100
AcDbEntity
  8
0
  6
Continuous
 62
     7
100
AcDbLine
 10
14.99130820360176
 20
69.98539160563888
 30
0.0
 11
16.46355139003538
 21
69.56039160563887
 31
0.0
  0
LINE
  5
119
330
43
100
AcDbEntity
  8
0
  6
Continuous
 62
     7
100
AcDbLine
 10
-11.85547931371582
 20
74.70430269239334
 30
0.0
 11
-15.75259363074582
 21
75.82930269239334
 31
0.0
  0
LINE
  5
11A
330
43
100
AcDbEntity
  8
0
  6
Continuous
 62
     7
100
AcDbLine
 10
-1.11676430678872
 20
71.60430269239333
 30
0.0
 11
-5.01387862381873
 21
72.72930269239333
 31
0.0
  0
LINE
  5
11B
330
43
100
AcDbEntity
  8
0
  6
Continuous
 62
     7
100
AcDbLine
 10
-6.69903832270813
 20
71.41154680407205
 30
0.0
 11
-5.89903832270812
 21
72.1043671270996
 31
0.0
  0
LINE
  5
11C
330
43
100
AcDbEntity
  8
0
  6
Continuous
 62
     7
100
AcDbLine
 10
-1.32968081924463
 20
69.86154680407205
 30
0.0
 11
-0.52968081924462
 21
70.5543671270996
 31
0.0
  0
LINE
  5
11D
330
43
100
AcDbEntity
  8
0
  6
Continuous
 62
     7
100
AcDbLine
 10
-9.47031961482034
 20
72.21154680407261
 30
0.0
 11
-9.16721072349713
 21
71.82093791274984
 31
0.0
  0
LINE
  5
11E
330
43
100
AcDbEntity
  8
0
  6
Continuous
 62
     7
100
AcDbLine
 10
-3.79785322002743
 20
70.27093791274585
 30
0.0
 11
-4.10096211135314
 21
70.66154680407155
 31
0.0
  0
LINE
  5
11F
330
43
100
AcDbEntity
  8
0
  6
Continuous
 62
     7
100
AcDbLine
 10
-1.32968081924463
 20
69.86154680407205
 30
0.0
 11
-1.32968081924463
 21
71.665766395284
 31
0.0
  0
LINE
  5
120
330
43
100
AcDbEntity
  8
0
  6
Continuous
 62
     7
100
AcDbLine
 10
-4.10096211135314
 20
70.66154680407155
 30
0.0
 11
-4.10096211135314
 21
72.46576639528351
 31
0.0
  0
LINE
  5
121
330
43
100
AcDbEntity
  8
0
  6
Continuous
 62
     7
100
AcDbLine
 10
-10.38323612728223
 20
74.27930269239334
 30
0.0
 11
-6.48612181025231
 21
73.15430269239333
 31
0.0
  0
LINE
  5
122
330
43
100
AcDbEntity
  8
0
  6
Continuous
 62
     7
100
AcDbLine
 10
-6.69903832270813
 20
71.41154680407205
 30
0.0
 11
-6.69903832270813
 21
73.21576639528399
 31
0.0
  0
LINE
  5
123
330
43
100
AcDbEntity
  8
0
  6
Continuous
 62
     7
100
AcDbLine
 10
-15.75259363074582
 20
77.52930269239333
 30
0.0
 11
-17.22483681717932
 21
76.25430269239334
 31
0.0
  0
LINE
  5
124
330
43
100
AcDbEntity
  8
0
  6
Continuous
 62
     7
100
AcDbLine
 10
-17.22483681717932
 20
79.28539160563888
 30
0.0
 11
-15.75259363074582
 21
78.86039160563888
 31
0.0
  0
LINE
  5
125
330
43
100
AcDbEntity
  8
0
  6
Continuous
 62
     7
100
AcDbLine
 10
-20.20903462174374
 20
75.31154680407155
 30
0.0
 11
-19.90592573041803
 21
74.92093791274584
 31
0.0
  0
LINE
  5
126
330
43
100
AcDbEntity
  8
0
  6
Continuous
 62
     7
100
AcDbLine
 10
-21.12195113420933
 20
77.37930269239334
 30
0.0
 11
-17.22483681717932
 21
76.25430269239334
 31
0.0
  0
LINE
  5
127
330
43
100
AcDbEntity
  8
0
  6
Continuous
 62
     7
100
AcDbLine
 10
-31.86066614113632
 20
76.92859853687713
 30
0.0
 11
-27.96355182410633
 21
75.80359853687715
 31
0.0
  0
LINE
  5
128
330
43
100
AcDbEntity
  8
0
  6
Continuous
 62
     7
100
AcDbLine
 10
-21.12195113420933
 20
79.07930269239333
 30
0.0
 11
-22.59419432064283
 21
77.80430269239334
 31
0.0
  0
LINE
  5
129
330
43
100
AcDbEntity
  8
0
  6
Continuous
 62
     7
100
AcDbLine
 10
-27.67957722788543
 20
71.76610260825836
 30
0.0
 11
-28.47957722788543
 21
71.0732822852309
 31
0.0
  0
LINE
  5
12A
330
43
100
AcDbEntity
  8
0
  6
Continuous
 62
     7
100
AcDbLine
 10
-17.43775332963523
 20
76.31576639528399
 30
0.0
 11
-17.43775332963523
 21
74.51154680407204
 31
0.0
  0
LINE
  5
12B
330
43
100
AcDbEntity
  8
0
  6
Continuous
 62
     7
100
AcDbLine
 10
-20.20903462174374
 20
77.11576639528349
 30
0.0
 11
-20.20903462174374
 21
75.31154680407155
 31
0.0
  0
LINE
  5
12C
330
43
100
AcDbEntity
  8
0
  6
Continuous
 62
     7
100
AcDbLine
 10
-17.43775332963523
 20
74.51154680407204
 30
0.0
 11
-17.74086222096082
 21
74.295937912747
 31
0.0
  0
LINE
  5
12D
330
43
100
AcDbEntity
  8
0
  6
Continuous
 62
     7
100
AcDbLine
 10
-17.22483681717932
 20
76.25430269239334
 30
0.0
 11
-17.22483681717932
 21
79.28539160563888
 31
0.0
  0
LINE
  5
12E
330
43
100
AcDbEntity
  8
0
  6
Continuous
 62
     7
100
AcDbLine
 10
-16.63775332963522
 20
76.76273190674891
 30
0.0
 11
-16.63775332963522
 21
75.2043671270996
 31
0.0
  0
LINE
  5
12F
330
43
100
AcDbEntity
  8
0
  6
Continuous
 62
     7
100
AcDbLine
 10
-17.43775332963523
 20
74.51154680407204
 30
0.0
 11
-16.63775332963522
 21
75.2043671270996
 31
0.0
  0
LINE
  5
130
330
43
100
AcDbEntity
  8
0
  6
Continuous
 62
     7
100
AcDbLine
 10
-15.75259363074582
 20
75.82930269239334
 30
0.0
 11
-15.75259363074582
 21
78.86039160563888
 31
0.0
  0
LINE
  5
131
330
43
100
AcDbEntity
  8
0
  6
Continuous
 62
     7
100
AcDbLine
 10
-31.86066614113632
 20
88.70654402834549
 30
0.0
 11
-30.36066614113632
 21
90.00558213402216
 31
0.0
  0
LINE
  5
132
330
43
100
AcDbEntity
  8
0
  6
Continuous
 62
     7
100
AcDbLine
 10
20.36066570706527
 20
73.6315440283455
 30
0.0
 11
21.86066570706538
 21
74.93058213402217
 31
0.0
  0
LINE
  5
133
330
43
100
AcDbEntity
  8
0
  6
Continuous
 62
     7
100
AcDbLine
 10
6.94086178689957
 20
60.84828228523048
 30
0.0
 11
6.94086178689957
 21
67.17093791274586
 31
0.0
  0
LINE
  5
134
330
43
100
AcDbEntity
  8
0
  6
Continuous
 62
     7
100
AcDbLine
 10
3.73656779289328
 20
61.77328228523161
 30
0.0
 11
3.73656779289328
 21
68.09593791274699
 31
0.0
  0
LINE
  5
135
330
43
100
AcDbEntity
  8
0
  6
Continuous
 62
     7
100
AcDbLine
 10
-3.79785322002743
 20
63.94828228523048
 30
0.0
 11
-3.79785322002743
 21
70.27093791274585
 31
0.0
  0
LINE
  5
136
330
43
100
AcDbEntity
  8
0
  6
Continuous
 62
     7
100
AcDbLine
 10
-1.63278971057034
 20
69.64593791274699
 30
0.0
 11
-1.32968081924463
 21
69.86154680407205
 31
0.0
  0
LINE
  5
137
330
43
100
AcDbEntity
  8
0
  6
Continuous
 62
     7
100
AcDbLine
 10
-1.63278971057034
 20
63.32328228523161
 30
0.0
 11
-1.63278971057034
 21
69.64593791274699
 31
0.0
  0
LINE
  5
138
330
43
100
AcDbEntity
  8
0
  6
Continuous
 62
     7
100
AcDbLine
 10
-1.63278971057034
 20
63.32328228523161
 30
0.0
 11
-0.83278971057032
 21
64.01610260825916
 31
0.0
  0
LINE
  5
139
330
43
100
AcDbEntity
  8
0
  6
Continuous
 62
     7
100
AcDbLine
 10
-1.11676430678872
 20
71.60430269239333
 30
0.0
 11
-1.11676430678872
 21
74.63539160563887
 31
0.0
  0
LINE
  5
13A
330
43
100
AcDbEntity
  8
0
  6
Continuous
 62
     7
100
AcDbLine
 10
21.86066570706538
 20
63.1526366425538
 30
0.0
 11
20.36066570706527
 21
61.85359853687714
 31
0.0
  0
LINE
  5
13B
330
43
100
AcDbEntity
  8
0
  6
Continuous
 62
     7
100
AcDbLine
 10
9.90592529635677
 20
60.91610260825917
 30
0.0
 11
9.90592529635677
 21
67.19186712709865
 31
0.0
  0
LINE
  5
13C
330
43
100
AcDbEntity
  8
0
  6
Continuous
 62
     7
100
AcDbLine
 10
19.84464030328746
 20
57.12328228522333
 30
0.0
 11
20.64464030328747
 21
57.81610260825086
 31
0.0
  0
LINE
  5
13D
330
43
100
AcDbEntity
  8
0
  6
Continuous
 62
     7
100
AcDbLine
 10
17.67957679382408
 20
57.74828228523121
 30
0.0
 11
17.99583978916257
 21
55.08122962609673
 31
0.0
  0
LINE
  5
13E
330
43
100
AcDbEntity
  8
0
  6
Continuous
 62
     7
100
AcDbLine
 10
21.86066570706538
 20
63.1526366425538
 30
0.0
 11
21.86066570706538
 21
74.93058213402217
 31
0.0
  0
LINE
  5
13F
330
43
100
AcDbEntity
  8
0
  6
Continuous
 62
     7
100
AcDbLine
 10
20.32837730795328
 20
55.33164447464323
 30
0.0
 11
20.64464030328747
 21
57.81610260825086
 31
0.0
  0
ENDBLK
  5
45
330
43
100
AcDbEntity
  8
0
100
AcDbBlockEnd
  0
BLOCK
  5
48
330
46
100
AcDbEntity
  8
0
100
AcDbBlockBegin
  2
AllgSicht1
 70
     0
 10
-4.99999999999943
 20
72.00000000015007
 30
0.0
  3
AllgSicht1
  1

  0
INSERT
  5
47
330
46
100
AcDbEntity
  8
0
100
AcDbBlockReference
  2
3030271_FBS_10-6_select__1
 10
-31.86066614113632
 20
54.63882415161568
 30
0.0
  0
MTEXT
  5
141
330
46
100
AcDbEntity
  8
1
 62
     6
100
AcDbMText
 10
-4.99999999999989
 20
48.99441794468248
 30
0.0
 40
5.0
 41
0.0
 71
     2
 72
     1
  1
 
  7
CONVERTER_11
 73
     1
 44
1.32052821128451
  0
ENDBLK
  5
49
330
46
100
AcDbEntity
  8
0
100
AcDbBlockEnd
  0
BLOCK
  5
4B
330
4A
100
AcDbEntity
  8
0
100
AcDbBlockBegin
  2
3030271_FBS_10-6_select__2
 70
     0
 10
-169.1500002506117
 20
93.50000000000001
 30
0.0
  3
3030271_FBS_10-6_select__2
  1

  0
LINE
  5
142
330
4A
100
AcDbEntity
  8
0
  6
Continuous
 62
     7
100
AcDbLine
 10
-108.8500002506117
 20
96.50000000000001
 30
0.0
 11
-169.1500002506117
 21
96.50000000000001
 31
0.0
  0
LINE
  5
143
330
4A
100
AcDbEntity
  8
0
  6
Continuous
 62
     7
100
AcDbLine
 10
-169.1500002506117
 20
93.50000000000001
 30
0.0
 11
-169.1500002506117
 21
96.50000000000001
 31
0.0
  0
LINE
  5
144
330
4A
100
AcDbEntity
  8
0
  6
Continuous
 62
     7
100
AcDbLine
 10
-108.8500002506117
 20
93.50000000000001
 30
0.0
 11
-169.1500002506117
 21
93.50000000000001
 31
0.0
  0
LINE
  5
145
330
4A
100
AcDbEntity
  8
0
  6
Continuous
 62
     7
100
AcDbLine
 10
-108.8500002506117
 20
93.50000000000001
 30
0.0
 11
-108.8500002506117
 21
96.50000000000001
 31
0.0
  0
ENDBLK
  5
4C
330
4A
100
AcDbEntity
  8
0
100
AcDbBlockEnd
  0
BLOCK
  5
4F
330
4D
100
AcDbEntity
  8
0
100
AcDbBlockBegin
  2
Drfsicht1
 70
     0
 10
-139.0
 20
95.0
 30
0.0
  3
Drfsicht1
  1

  0
INSERT
  5
4E
330
4D
100
AcDbEntity
  8
0
100
AcDbBlockReference
  2
3030271_FBS_10-6_select__2
 10
-169.1500002506117
 20
93.50000000000001
 30
0.0
  0
MTEXT
  5
146
330
4D
100
AcDbEntity
  8
1
 62
     6
100
AcDbMText
 10
-139.0
 20
88.5
 30
0.0
 40
5.0
 41
0.0
 71
     2
 72
     1
  1
 
  7
CONVERTER_11
 73
     1
 44
1.32052821128451
  0
ENDBLK
  5
50
330
4D
100
AcDbEntity
  8
0
100
AcDbBlockEnd
  0
BLOCK
  5
52
330
51
100
AcDbEntity
  8
0
100
AcDbBlockBegin
  2
3030271_FBS_10-6_select__3
 70
     0
 10
-53.85000051232717
 20
126.5000000989435
 30
0.0
  3
3030271_FBS_10-6_select__3
  1

  0
LINE
  5
147
330
51
100
AcDbEntity
  8
0
  6
Continuous
 62
     7
100
AcDbLine
 10
-44.15000051232937
 20
129.4742262418929
 30
0.0
 11
-44.51518956331707
 21
126.5000000989435
 31
0.0
  0
LINE
  5
148
330
51
100
AcDbEntity
  8
0
  6
Continuous
 62
     7
100
AcDbLine
 10
-15.65000051233196
 20
136.7750000989741
 30
0.0
 11
-15.65000051233196
 21
129.474226241887
 31
0.0
  0
LINE
  5
149
330
51
100
AcDbEntity
  8
0
  6
Continuous
 62
     7
100
AcDbLine
 10
-16.65000051232715
 20
143.1750000989725
 30
0.0
 11
-16.65000051232715
 21
139.6750000989725
 31
0.0
  0
LINE
  5
14A
330
51
100
AcDbEntity
  8
0
  6
Continuous
 62
     7
100
AcDbLine
 10
-18.35000051232717
 20
143.1750000989725
 30
0.0
 11
-18.35000051232717
 21
139.6750000989725
 31
0.0
  0
LINE
  5
14B
330
51
100
AcDbEntity
  8
0
  6
Continuous
 62
     7
100
AcDbLine
 10
-21.85000051232487
 20
136.7750000989712
 30
0.0
 11
-22.20000051232617
 21
137.1250000989725
 31
0.0
  0
LINE
  5
14C
330
51
100
AcDbEntity
  8
0
  6
Continuous
 62
     7
100
AcDbLine
 10
-25.20000051232816
 20
137.1250000989725
 30
0.0
 11
-25.20000051232816
 21
139.6750000989725
 31
0.0
  0
LINE
  5
14D
330
51
100
AcDbEntity
  8
0
  6
Continuous
 62
     7
100
AcDbLine
 10
-28.40000051232616
 20
137.1250000989725
 30
0.0
 11
-28.40000051232616
 21
139.6750000989725
 31
0.0
  0
LINE
  5
14E
330
51
100
AcDbEntity
  8
0
  6
Continuous
 62
     7
100
AcDbLine
 10
-22.20000051232617
 20
137.1250000989725
 30
0.0
 11
-22.20000051232617
 21
139.6750000989725
 31
0.0
  0
LINE
  5
14F
330
51
100
AcDbEntity
  8
0
  6
Continuous
 62
     7
100
AcDbLine
 10
-19.35000051232225
 20
129.474226241887
 30
0.0
 11
-19.35000051232225
 21
136.7750000989741
 31
0.0
  0
LINE
  5
150
330
51
100
AcDbEntity
  8
0
  6
Continuous
 62
     7
100
AcDbLine
 10
-21.85000051232487
 20
129.4742262418929
 30
0.0
 11
-21.85000051232487
 21
136.7750000989712
 31
0.0
  0
LINE
  5
151
330
51
100
AcDbEntity
  8
0
  6
Continuous
 62
     7
100
AcDbLine
 10
-18.35000051232717
 20
143.1750000989725
 30
0.0
 11
-16.65000051232715
 21
143.1750000989725
 31
0.0
  0
LINE
  5
152
330
51
100
AcDbEntity
  8
0
  6
Continuous
 62
     7
100
AcDbLine
 10
-53.85000051232717
 20
135.5750000989725
 30
0.0
 11
-53.85000051232717
 21
149.1750000989725
 31
0.0
  0
LINE
  5
153
330
51
100
AcDbEntity
  8
0
  6
Continuous
 62
     7
100
AcDbLine
 10
-46.65000051233197
 20
136.7750000989741
 30
0.0
 11
-47.00000051233036
 21
137.1250000989725
 31
0.0
  0
LINE
  5
154
330
51
100
AcDbEntity
  8
0
  6
Continuous
 62
     7
100
AcDbLine
 10
-50.35000051232537
 20
135.5750000989725
 30
0.0
 11
-52.85000051232906
 21
135.5750000989725
 31
0.0
  0
LINE
  5
155
330
51
100
AcDbEntity
  8
0
  6
Continuous
 62
     7
100
AcDbLine
 10
-49.35000051232717
 20
135.5750000989725
 30
0.0
 11
-50.35000051232537
 21
135.5750000989725
 31
0.0
  0
LINE
  5
156
330
51
100
AcDbEntity
  8
0
  6
Continuous
 62
     7
100
AcDbLine
 10
-52.85000051232906
 20
135.5750000989725
 30
0.0
 11
-53.85000051232717
 21
135.5750000989725
 31
0.0
  0
LINE
  5
157
330
51
100
AcDbEntity
  8
0
  6
Continuous
 62
     7
100
AcDbLine
 10
-49.35000051232717
 20
143.1750000989725
 30
0.0
 11
-49.35000051232717
 21
135.5750000989725
 31
0.0
  0
LINE
  5
158
330
51
100
AcDbEntity
  8
0
  6
Continuous
 62
     7
100
AcDbLine
 10
-24.55000051232716
 20
143.1750000989725
 30
0.0
 11
-24.55000051232716
 21
139.6750000989725
 31
0.0
  0
LINE
  5
159
330
51
100
AcDbEntity
  8
0
  6
Continuous
 62
     7
100
AcDbLine
 10
-21.48481146133727
 20
126.5000000989435
 30
0.0
 11
-21.85000051232487
 21
129.4742262418929
 31
0.0
  0
LINE
  5
15A
330
51
100
AcDbEntity
  8
0
  6
Continuous
 62
     7
100
AcDbLine
 10
-25.55000051232946
 20
129.4742262418929
 30
0.0
 11
-25.91518956331706
 21
126.5000000989435
 31
0.0
  0
LINE
  5
15B
330
51
100
AcDbEntity
  8
0
  6
Continuous
 62
     7
100
AcDbLine
 10
-27.68481146134116
 20
126.5000000989752
 30
0.0
 11
-28.05000051232486
 21
129.4742262418929
 31
0.0
  0
LINE
  5
15C
330
51
100
AcDbEntity
  8
0
  6
Continuous
 62
     7
100
AcDbLine
 10
-28.05000051232486
 20
129.4742262418929
 30
0.0
 11
-28.05000051232486
 21
136.7750000989712
 31
0.0
  0
LINE
  5
15D
330
51
100
AcDbEntity
  8
0
  6
Continuous
 62
     7
100
AcDbLine
 10
-28.05000051232486
 20
136.7750000989712
 30
0.0
 11
-28.40000051232616
 21
137.1250000989725
 31
0.0
  0
LINE
  5
15E
330
51
100
AcDbEntity
  8
0
  6
Continuous
 62
     7
100
AcDbLine
 10
-25.55000051232946
 20
129.4742262418929
 30
0.0
 11
-25.55000051232946
 21
136.7750000989712
 31
0.0
  0
LINE
  5
15F
330
51
100
AcDbEntity
  8
0
  6
Continuous
 62
     7
100
AcDbLine
 10
-22.85000051232717
 20
143.1750000989725
 30
0.0
 11
-24.55000051232716
 21
143.1750000989725
 31
0.0
  0
LINE
  5
160
330
51
100
AcDbEntity
  8
0
  6
Continuous
 62
     7
100
AcDbLine
 10
-22.85000051232717
 20
143.1750000989725
 30
0.0
 11
-22.85000051232717
 21
139.6750000989725
 31
0.0
  0
LINE
  5
161
330
51
100
AcDbEntity
  8
0
  6
Continuous
 62
     7
100
AcDbLine
 10
-22.85000051232717
 20
139.6750000989725
 30
0.0
 11
-22.20000051232617
 21
139.6750000989725
 31
0.0
  0
LINE
  5
162
330
51
100
AcDbEntity
  8
0
  6
Continuous
 62
     7
100
AcDbLine
 10
-34.25000051232487
 20
136.7750000989712
 30
0.0
 11
-34.60000051232618
 21
137.1250000989725
 31
0.0
  0
LINE
  5
163
330
51
100
AcDbEntity
  8
0
  6
Continuous
 62
     7
100
AcDbLine
 10
-37.95000051232935
 20
136.7750000989712
 30
0.0
 11
-37.60000051232817
 21
137.1250000989725
 31
0.0
  0
LINE
  5
164
330
51
100
AcDbEntity
  8
0
  6
Continuous
 62
     7
100
AcDbLine
 10
-25.55000051232946
 20
136.7750000989712
 30
0.0
 11
-25.20000051232816
 21
137.1250000989725
 31
0.0
  0
LINE
  5
165
330
51
100
AcDbEntity
  8
0
  6
Continuous
 62
     7
100
AcDbLine
 10
-43.80000051232817
 20
137.1250000989725
 30
0.0
 11
-44.15000051232947
 21
136.7750000989712
 31
0.0
  0
LINE
  5
166
330
51
100
AcDbEntity
  8
0
  6
Continuous
 62
     7
100
AcDbLine
 10
-31.40000051232386
 20
137.1250000989725
 30
0.0
 11
-31.75000051232226
 21
136.7750000989741
 31
0.0
  0
LINE
  5
167
330
51
100
AcDbEntity
  8
0
  6
Continuous
 62
     7
100
AcDbLine
 10
-19.00000051232388
 20
137.1250000989725
 30
0.0
 11
-19.35000051232225
 21
136.7750000989741
 31
0.0
  0
LINE
  5
168
330
51
100
AcDbEntity
  8
0
  6
Continuous
 62
     7
100
AcDbLine
 10
2.94999948767102
 20
135.5750000989725
 30
0.0
 11
5.44999948767483
 21
135.5750000989725
 31
0.0
  0
LINE
  5
169
330
51
100
AcDbEntity
  8
0
  6
Continuous
 62
     7
100
AcDbLine
 10
5.44999948767483
 20
135.5750000989725
 30
0.0
 11
6.44999948767284
 21
135.5750000989725
 31
0.0
  0
LINE
  5
16A
330
51
100
AcDbEntity
  8
0
  6
Continuous
 62
     7
100
AcDbLine
 10
1.94999948767284
 20
135.5750000989725
 30
0.0
 11
2.94999948767102
 21
135.5750000989725
 31
0.0
  0
LINE
  5
16B
330
51
100
AcDbEntity
  8
0
  6
Continuous
 62
     7
100
AcDbLine
 10
-15.65000051233196
 20
136.7750000989741
 30
0.0
 11
-16.00000051233036
 21
137.1250000989725
 31
0.0
  0
LINE
  5
16C
330
51
100
AcDbEntity
  8
0
  6
Continuous
 62
     7
100
AcDbLine
 10
-9.80000051232616
 20
137.1250000989725
 30
0.0
 11
-9.45000051232486
 21
136.7750000989712
 31
0.0
  0
LINE
  5
16D
330
51
100
AcDbEntity
  8
0
  6
Continuous
 62
     7
100
AcDbLine
 10
-3.25000051232487
 20
136.7750000989712
 30
0.0
 11
-3.60000051232618
 21
137.1250000989725
 31
0.0
  0
LINE
  5
16E
330
51
100
AcDbEntity
  8
0
  6
Continuous
 62
     7
100
AcDbLine
 10
-12.80000051232815
 20
137.1250000989725
 30
0.0
 11
-13.15000051232946
 21
136.7750000989712
 31
0.0
  0
LINE
  5
16F
330
51
100
AcDbEntity
  8
0
  6
Continuous
 62
     7
100
AcDbLine
 10
-37.60000051232817
 20
139.6750000989725
 30
0.0
 11
-40.80000051232616
 21
139.6750000989725
 31
0.0
  0
LINE
  5
170
330
51
100
AcDbEntity
  8
0
  6
Continuous
 62
     7
100
AcDbLine
 10
-34.60000051232618
 20
139.6750000989725
 30
0.0
 11
-31.40000051232386
 21
139.6750000989725
 31
0.0
  0
LINE
  5
171
330
51
100
AcDbEntity
  8
0
  6
Continuous
 62
     7
100
AcDbLine
 10
-4.25000051232718
 20
143.1750000989725
 30
0.0
 11
-4.25000051232718
 21
139.6750000989725
 31
0.0
  0
LINE
  5
172
330
51
100
AcDbEntity
  8
0
  6
Continuous
 62
     7
100
AcDbLine
 10
-5.95000051232716
 20
143.1750000989725
 30
0.0
 11
-5.95000051232716
 21
139.6750000989725
 31
0.0
  0
LINE
  5
173
330
51
100
AcDbEntity
  8
0
  6
Continuous
 62
     7
100
AcDbLine
 10
-43.15000051232717
 20
143.1750000989725
 30
0.0
 11
-43.15000051232717
 21
139.6750000989725
 31
0.0
  0
LINE
  5
174
330
51
100
AcDbEntity
  8
0
  6
Continuous
 62
     7
100
AcDbLine
 10
-41.45000051232717
 20
143.1750000989725
 30
0.0
 11
-41.45000051232717
 21
139.6750000989725
 31
0.0
  0
LINE
  5
175
330
51
100
AcDbEntity
  8
0
  6
Continuous
 62
     7
100
AcDbLine
 10
-12.80000051232815
 20
139.6750000989725
 30
0.0
 11
-16.00000051233036
 21
139.6750000989725
 31
0.0
  0
LINE
  5
176
330
51
100
AcDbEntity
  8
0
  6
Continuous
 62
     7
100
AcDbLine
 10
-22.20000051232617
 20
139.6750000989725
 30
0.0
 11
-19.00000051232388
 21
139.6750000989725
 31
0.0
  0
LINE
  5
177
330
51
100
AcDbEntity
  8
0
  6
Continuous
 62
     7
100
AcDbLine
 10
-25.20000051232816
 20
139.6750000989725
 30
0.0
 11
-28.40000051232616
 21
139.6750000989725
 31
0.0
  0
LINE
  5
178
330
51
100
AcDbEntity
  8
0
  6
Continuous
 62
     7
100
AcDbLine
 10
-43.80000051232817
 20
139.6750000989725
 30
0.0
 11
-43.80000051232817
 21
137.1250000989725
 31
0.0
  0
LINE
  5
179
330
51
100
AcDbEntity
  8
0
  6
Continuous
 62
     7
100
AcDbLine
 10
-28.40000051232616
 20
139.6750000989725
 30
0.0
 11
-29.05000051232716
 21
139.6750000989725
 31
0.0
  0
LINE
  5
17A
330
51
100
AcDbEntity
  8
0
  6
Continuous
 62
     7
100
AcDbLine
 10
-24.55000051232716
 20
139.6750000989725
 30
0.0
 11
-25.20000051232816
 21
139.6750000989725
 31
0.0
  0
LINE
  5
17B
330
51
100
AcDbEntity
  8
0
  6
Continuous
 62
     7
100
AcDbLine
 10
-19.00000051232388
 20
139.6750000989725
 30
0.0
 11
-19.00000051232388
 21
137.1250000989725
 31
0.0
  0
LINE
  5
17C
330
51
100
AcDbEntity
  8
0
  6
Continuous
 62
     7
100
AcDbLine
 10
-43.15000051232717
 20
139.6750000989725
 30
0.0
 11
-43.80000051232817
 21
139.6750000989725
 31
0.0
  0
LINE
  5
17D
330
51
100
AcDbEntity
  8
0
  6
Continuous
 62
     7
100
AcDbLine
 10
-31.40000051232386
 20
139.6750000989725
 30
0.0
 11
-30.75000051232718
 21
139.6750000989725
 31
0.0
  0
LINE
  5
17E
330
51
100
AcDbEntity
  8
0
  6
Continuous
 62
     7
100
AcDbLine
 10
-31.40000051232386
 20
139.6750000989725
 30
0.0
 11
-31.40000051232386
 21
137.1250000989725
 31
0.0
  0
LINE
  5
17F
330
51
100
AcDbEntity
  8
0
  6
Continuous
 62
     7
100
AcDbLine
 10
-40.80000051232616
 20
137.1250000989725
 30
0.0
 11
-40.80000051232616
 21
139.6750000989725
 31
0.0
  0
LINE
  5
180
330
51
100
AcDbEntity
  8
0
  6
Continuous
 62
     7
100
AcDbLine
 10
-40.80000051232616
 20
139.6750000989725
 30
0.0
 11
-41.45000051232717
 21
139.6750000989725
 31
0.0
  0
LINE
  5
181
330
51
100
AcDbEntity
  8
0
  6
Continuous
 62
     7
100
AcDbLine
 10
-37.60000051232817
 20
137.1250000989725
 30
0.0
 11
-37.60000051232817
 21
139.6750000989725
 31
0.0
  0
LINE
  5
182
330
51
100
AcDbEntity
  8
0
  6
Continuous
 62
     7
100
AcDbLine
 10
-34.60000051232618
 20
137.1250000989725
 30
0.0
 11
-34.60000051232618
 21
139.6750000989725
 31
0.0
  0
LINE
  5
183
330
51
100
AcDbEntity
  8
0
  6
Continuous
 62
     7
100
AcDbLine
 10
-35.25000051232718
 20
139.6750000989725
 30
0.0
 11
-34.60000051232618
 21
139.6750000989725
 31
0.0
  0
LINE
  5
184
330
51
100
AcDbEntity
  8
0
  6
Continuous
 62
     7
100
AcDbLine
 10
-36.95000051232717
 20
139.6750000989725
 30
0.0
 11
-37.60000051232817
 21
139.6750000989725
 31
0.0
  0
LINE
  5
185
330
51
100
AcDbEntity
  8
0
  6
Continuous
 62
     7
100
AcDbLine
 10
-19.00000051232388
 20
139.6750000989725
 30
0.0
 11
-18.35000051232717
 21
139.6750000989725
 31
0.0
  0
LINE
  5
186
330
51
100
AcDbEntity
  8
0
  6
Continuous
 62
     7
100
AcDbLine
 10
-12.80000051232815
 20
139.6750000989725
 30
0.0
 11
-12.80000051232815
 21
137.1250000989725
 31
0.0
  0
LINE
  5
187
330
51
100
AcDbEntity
  8
0
  6
Continuous
 62
     7
100
AcDbLine
 10
-12.15000051232715
 20
139.6750000989725
 30
0.0
 11
-12.80000051232815
 21
139.6750000989725
 31
0.0
  0
LINE
  5
188
330
51
100
AcDbEntity
  8
0
  6
Continuous
 62
     7
100
AcDbLine
 10
-16.00000051233036
 20
139.6750000989725
 30
0.0
 11
-16.65000051232715
 21
139.6750000989725
 31
0.0
  0
LINE
  5
189
330
51
100
AcDbEntity
  8
0
  6
Continuous
 62
     7
100
AcDbLine
 10
-16.00000051233036
 20
137.1250000989725
 30
0.0
 11
-16.00000051233036
 21
139.6750000989725
 31
0.0
  0
LINE
  5
18A
330
51
100
AcDbEntity
  8
0
  6
Continuous
 62
     7
100
AcDbLine
 10
-43.15000051232717
 20
143.1750000989725
 30
0.0
 11
-41.45000051232717
 21
143.1750000989725
 31
0.0
  0
LINE
  5
18B
330
51
100
AcDbEntity
  8
0
  6
Continuous
 62
     7
100
AcDbLine
 10
-36.95000051232717
 20
143.1750000989725
 30
0.0
 11
-36.95000051232717
 21
139.6750000989725
 31
0.0
  0
LINE
  5
18C
330
51
100
AcDbEntity
  8
0
  6
Continuous
 62
     7
100
AcDbLine
 10
-35.25000051232718
 20
143.1750000989725
 30
0.0
 11
-36.95000051232717
 21
143.1750000989725
 31
0.0
  0
LINE
  5
18D
330
51
100
AcDbEntity
  8
0
  6
Continuous
 62
     7
100
AcDbLine
 10
-35.25000051232718
 20
143.1750000989725
 30
0.0
 11
-35.25000051232718
 21
139.6750000989725
 31
0.0
  0
LINE
  5
18E
330
51
100
AcDbEntity
  8
0
  6
Continuous
 62
     7
100
AcDbLine
 10
-12.15000051232715
 20
143.1750000989725
 30
0.0
 11
-12.15000051232715
 21
139.6750000989725
 31
0.0
  0
LINE
  5
18F
330
51
100
AcDbEntity
  8
0
  6
Continuous
 62
     7
100
AcDbLine
 10
-30.75000051232718
 20
143.1750000989725
 30
0.0
 11
-30.75000051232718
 21
139.6750000989725
 31
0.0
  0
LINE
  5
190
330
51
100
AcDbEntity
  8
0
  6
Continuous
 62
     7
100
AcDbLine
 10
-30.75000051232718
 20
143.1750000989725
 30
0.0
 11
-29.05000051232716
 21
143.1750000989725
 31
0.0
  0
LINE
  5
191
330
51
100
AcDbEntity
  8
0
  6
Continuous
 62
     7
100
AcDbLine
 10
-29.05000051232716
 20
143.1750000989725
 30
0.0
 11
-29.05000051232716
 21
139.6750000989725
 31
0.0
  0
LINE
  5
192
330
51
100
AcDbEntity
  8
0
  6
Continuous
 62
     7
100
AcDbLine
 10
-12.15000051232715
 20
143.1750000989725
 30
0.0
 11
-10.45000051232717
 21
143.1750000989725
 31
0.0
  0
LINE
  5
193
330
51
100
AcDbEntity
  8
0
  6
Continuous
 62
     7
100
AcDbLine
 10
-10.45000051232717
 20
143.1750000989725
 30
0.0
 11
-10.45000051232717
 21
139.6750000989725
 31
0.0
  0
LINE
  5
194
330
51
100
AcDbEntity
  8
0
  6
Continuous
 62
     7
100
AcDbLine
 10
-9.80000051232616
 20
139.6750000989725
 30
0.0
 11
-9.80000051232616
 21
137.1250000989725
 31
0.0
  0
LINE
  5
195
330
51
100
AcDbEntity
  8
0
  6
Continuous
 62
     7
100
AcDbLine
 10
-6.60000051232817
 20
139.6750000989725
 30
0.0
 11
-6.60000051232817
 21
137.1250000989725
 31
0.0
  0
LINE
  5
196
330
51
100
AcDbEntity
  8
0
  6
Continuous
 62
     7
100
AcDbLine
 10
-9.80000051232616
 20
139.6750000989725
 30
0.0
 11
-6.60000051232817
 21
139.6750000989725
 31
0.0
  0
LINE
  5
197
330
51
100
AcDbEntity
  8
0
  6
Continuous
 62
     7
100
AcDbLine
 10
-10.45000051232717
 20
139.6750000989725
 30
0.0
 11
-9.80000051232616
 21
139.6750000989725
 31
0.0
  0
LINE
  5
198
330
51
100
AcDbEntity
  8
0
  6
Continuous
 62
     7
100
AcDbLine
 10
-4.25000051232718
 20
143.1750000989725
 30
0.0
 11
-5.95000051232716
 21
143.1750000989725
 31
0.0
  0
LINE
  5
199
330
51
100
AcDbEntity
  8
0
  6
Continuous
 62
     7
100
AcDbLine
 10
0.24999948767282
 20
143.1750000989725
 30
0.0
 11
0.24999948767282
 21
139.6750000989725
 31
0.0
  0
LINE
  5
19A
330
51
100
AcDbEntity
  8
0
  6
Continuous
 62
     7
100
AcDbLine
 10
-0.40000051232386
 20
139.6750000989725
 30
0.0
 11
-0.40000051232386
 21
137.1250000989725
 31
0.0
  0
LINE
  5
19B
330
51
100
AcDbEntity
  8
0
  6
Continuous
 62
     7
100
AcDbLine
 10
-3.60000051232618
 20
139.6750000989725
 30
0.0
 11
-0.40000051232386
 21
139.6750000989725
 31
0.0
  0
LINE
  5
19C
330
51
100
AcDbEntity
  8
0
  6
Continuous
 62
     7
100
AcDbLine
 10
-4.25000051232718
 20
139.6750000989725
 30
0.0
 11
-3.60000051232618
 21
139.6750000989725
 31
0.0
  0
LINE
  5
19D
330
51
100
AcDbEntity
  8
0
  6
Continuous
 62
     7
100
AcDbLine
 10
-3.60000051232618
 20
137.1250000989725
 30
0.0
 11
-3.60000051232618
 21
139.6750000989725
 31
0.0
  0
LINE
  5
19E
330
51
100
AcDbEntity
  8
0
  6
Continuous
 62
     7
100
AcDbLine
 10
0.24999948767282
 20
143.1750000989725
 30
0.0
 11
1.94999948767284
 21
143.1750000989725
 31
0.0
  0
LINE
  5
19F
330
51
100
AcDbEntity
  8
0
  6
Continuous
 62
     7
100
AcDbLine
 10
1.94999948767284
 20
143.1750000989725
 30
0.0
 11
1.94999948767284
 21
135.5750000989725
 31
0.0
  0
LINE
  5
1A0
330
51
100
AcDbEntity
  8
0
  6
Continuous
 62
     7
100
AcDbLine
 10
-0.40000051232386
 20
137.1250000989725
 30
0.0
 11
-0.75000051232226
 21
136.7750000989741
 31
0.0
  0
LINE
  5
1A1
330
51
100
AcDbEntity
  8
0
  6
Continuous
 62
     7
100
AcDbLine
 10
-6.60000051232817
 20
137.1250000989725
 30
0.0
 11
-6.95000051232947
 21
136.7750000989712
 31
0.0
  0
LINE
  5
1A2
330
51
100
AcDbEntity
  8
0
  6
Continuous
 62
     7
100
AcDbLine
 10
-40.45000051232486
 20
136.7750000989712
 30
0.0
 11
-40.80000051232616
 21
137.1250000989725
 31
0.0
  0
LINE
  5
1A3
330
51
100
AcDbEntity
  8
0
  6
Continuous
 62
     7
100
AcDbLine
 10
6.44999948767284
 20
135.5750000989725
 30
0.0
 11
6.44999948767284
 21
149.1750000989725
 31
0.0
  0
LINE
  5
1A4
330
51
100
AcDbEntity
  8
0
  6
Continuous
 62
     7
100
AcDbLine
 10
-53.85000051232717
 20
149.1750000989725
 30
0.0
 11
6.44999948767284
 21
149.1750000989725
 31
0.0
  0
LINE
  5
1A5
330
51
100
AcDbEntity
  8
0
  6
Continuous
 62
     7
100
AcDbLine
 10
-0.40000051232386
 20
139.6750000989725
 30
0.0
 11
0.24999948767282
 21
139.6750000989725
 31
0.0
  0
LINE
  5
1A6
330
51
100
AcDbEntity
  8
0
  6
Continuous
 62
     7
100
AcDbLine
 10
-6.60000051232817
 20
139.6750000989725
 30
0.0
 11
-5.95000051232716
 21
139.6750000989725
 31
0.0
  0
LINE
  5
1A7
330
51
100
AcDbEntity
  8
0
  6
Continuous
 62
     7
100
AcDbLine
 10
-47.00000051233036
 20
137.1250000989725
 30
0.0
 11
-47.00000051233036
 21
139.6750000989725
 31
0.0
  0
LINE
  5
1A8
330
51
100
AcDbEntity
  8
0
  6
Continuous
 62
     7
100
AcDbLine
 10
-43.80000051232817
 20
139.6750000989725
 30
0.0
 11
-47.00000051233036
 21
139.6750000989725
 31
0.0
  0
LINE
  5
1A9
330
51
100
AcDbEntity
  8
0
  6
Continuous
 62
     7
100
AcDbLine
 10
-47.65000051232717
 20
143.1750000989725
 30
0.0
 11
-49.35000051232717
 21
143.1750000989725
 31
0.0
  0
LINE
  5
1AA
330
51
100
AcDbEntity
  8
0
  6
Continuous
 62
     7
100
AcDbLine
 10
-47.65000051232717
 20
143.1750000989725
 30
0.0
 11
-47.65000051232717
 21
139.6750000989725
 31
0.0
  0
LINE
  5
1AB
330
51
100
AcDbEntity
  8
0
  6
Continuous
 62
     7
100
AcDbLine
 10
-47.00000051233036
 20
139.6750000989725
 30
0.0
 11
-47.65000051232717
 21
139.6750000989725
 31
0.0
  0
LINE
  5
1AC
330
51
100
AcDbEntity
  8
0
  6
Continuous
 62
     7
100
AcDbLine
 10
-52.85000051232906
 20
135.5750000989725
 30
0.0
 11
-52.85000051232916
 21
129.4742262418846
 31
0.0
  0
LINE
  5
1AD
330
51
100
AcDbEntity
  8
0
  6
Continuous
 62
     7
100
AcDbLine
 10
-50.35000051232537
 20
135.5750000989725
 30
0.0
 11
-50.35000051232656
 21
129.4742262418928
 31
0.0
  0
LINE
  5
1AE
330
51
100
AcDbEntity
  8
0
  6
Continuous
 62
     7
100
AcDbLine
 10
-46.65000051233197
 20
136.7750000989741
 30
0.0
 11
-46.65000051233197
 21
129.474226241887
 31
0.0
  0
LINE
  5
1AF
330
51
100
AcDbEntity
  8
0
  6
Continuous
 62
     7
100
AcDbLine
 10
-40.45000051232486
 20
129.4742262418929
 30
0.0
 11
-40.45000051232486
 21
136.7750000989712
 31
0.0
  0
LINE
  5
1B0
330
51
100
AcDbEntity
  8
0
  6
Continuous
 62
     7
100
AcDbLine
 10
-0.75000051232226
 20
129.474226241887
 30
0.0
 11
-0.75000051232226
 21
136.7750000989741
 31
0.0
  0
LINE
  5
1B1
330
51
100
AcDbEntity
  8
0
  6
Continuous
 62
     7
100
AcDbLine
 10
-6.95000051232947
 20
136.7750000989712
 30
0.0
 11
-6.95000051232947
 21
129.4742262418929
 31
0.0
  0
LINE
  5
1B2
330
51
100
AcDbEntity
  8
0
  6
Continuous
 62
     7
100
AcDbLine
 10
-9.45000051232486
 20
136.7750000989712
 30
0.0
 11
-9.45000051232486
 21
129.4742262418929
 31
0.0
  0
LINE
  5
1B3
330
51
100
AcDbEntity
  8
0
  6
Continuous
 62
     7
100
AcDbLine
 10
-44.15000051232947
 20
136.7750000989712
 30
0.0
 11
-44.15000051232937
 21
129.4742262418929
 31
0.0
  0
LINE
  5
1B4
330
51
100
AcDbEntity
  8
0
  6
Continuous
 62
     7
100
AcDbLine
 10
-13.15000051232946
 20
136.7750000989712
 30
0.0
 11
-13.15000051232946
 21
129.4742262418929
 31
0.0
  0
LINE
  5
1B5
330
51
100
AcDbEntity
  8
0
  6
Continuous
 62
     7
100
AcDbLine
 10
-34.25000051232487
 20
129.4742262418929
 30
0.0
 11
-34.25000051232487
 21
136.7750000989712
 31
0.0
  0
LINE
  5
1B6
330
51
100
AcDbEntity
  8
0
  6
Continuous
 62
     7
100
AcDbLine
 10
-37.95000051232935
 20
129.4742262418929
 30
0.0
 11
-37.95000051232935
 21
136.7750000989712
 31
0.0
  0
LINE
  5
1B7
330
51
100
AcDbEntity
  8
0
  6
Continuous
 62
     7
100
AcDbLine
 10
-3.25000051232487
 20
129.4742262418929
 30
0.0
 11
-3.25000051232487
 21
136.7750000989712
 31
0.0
  0
LINE
  5
1B8
330
51
100
AcDbEntity
  8
0
  6
Continuous
 62
     7
100
AcDbLine
 10
-31.75000051232226
 20
129.474226241887
 30
0.0
 11
-31.75000051232226
 21
136.7750000989741
 31
0.0
  0
LINE
  5
1B9
330
51
100
AcDbEntity
  8
0
  6
Continuous
 62
     7
100
AcDbLine
 10
2.94999948767102
 20
135.5750000989725
 30
0.0
 11
2.94999948767224
 21
129.4742262418928
 31
0.0
  0
LINE
  5
1BA
330
51
100
AcDbEntity
  8
0
  6
Continuous
 62
     7
100
AcDbLine
 10
5.44999948767483
 20
129.4742262418846
 30
0.0
 11
5.44999948767483
 21
135.5750000989725
 31
0.0
  0
LINE
  5
1BB
330
51
100
AcDbEntity
  8
0
  6
Continuous
 62
     7
100
AcDbLine
 10
-34.25000051232487
 20
129.4742262418929
 30
0.0
 11
-33.88481146133728
 21
126.5000000989435
 31
0.0
  0
LINE
  5
1BC
330
51
100
AcDbEntity
  8
0
  6
Continuous
 62
     7
100
AcDbLine
 10
-3.25000051232487
 20
129.4742262418929
 30
0.0
 11
-2.88481146133728
 21
126.5000000989435
 31
0.0
  0
LINE
  5
1BD
330
51
100
AcDbEntity
  8
0
  6
Continuous
 62
     7
100
AcDbLine
 10
-13.15000051232946
 20
129.4742262418929
 30
0.0
 11
-13.51518956331708
 21
126.5000000989435
 31
0.0
  0
LINE
  5
1BE
330
51
100
AcDbEntity
  8
0
  6
Continuous
 62
     7
100
AcDbLine
 10
-31.75000051232226
 20
129.474226241887
 30
0.0
 11
-32.11518956330528
 21
126.5000000989752
 31
0.0
  0
LINE
  5
1BF
330
51
100
AcDbEntity
  8
0
  6
Continuous
 62
     7
100
AcDbLine
 10
-9.45000051232486
 20
129.4742262418929
 30
0.0
 11
-9.08481146133727
 21
126.5000000989435
 31
0.0
  0
LINE
  5
1C0
330
51
100
AcDbEntity
  8
0
  6
Continuous
 62
     7
100
AcDbLine
 10
-19.71518956330536
 20
126.5000000989752
 30
0.0
 11
-19.35000051232225
 21
129.474226241887
 31
0.0
  0
LINE
  5
1C1
330
51
100
AcDbEntity
  8
0
  6
Continuous
 62
     7
100
AcDbLine
 10
-33.88481146133728
 20
126.5000000989435
 30
0.0
 11
-32.11518956330528
 21
126.5000000989752
 31
0.0
  0
LINE
  5
1C2
330
51
100
AcDbEntity
  8
0
  6
Continuous
 62
     7
100
AcDbLine
 10
-46.28481146134897
 20
126.5000000989752
 30
0.0
 11
-44.51518956331707
 21
126.5000000989435
 31
0.0
  0
LINE
  5
1C3
330
51
100
AcDbEntity
  8
0
  6
Continuous
 62
     7
100
AcDbLine
 10
-25.91518956331706
 20
126.5000000989435
 30
0.0
 11
-27.68481146134116
 21
126.5000000989752
 31
0.0
  0
LINE
  5
1C4
330
51
100
AcDbEntity
  8
0
  6
Continuous
 62
     7
100
AcDbLine
 10
-21.48481146133727
 20
126.5000000989435
 30
0.0
 11
-19.71518956330536
 21
126.5000000989752
 31
0.0
  0
LINE
  5
1C5
330
51
100
AcDbEntity
  8
0
  6
Continuous
 62
     7
100
AcDbLine
 10
-40.08481146134116
 20
126.5000000989752
 30
0.0
 11
-38.31518956331706
 21
126.5000000989435
 31
0.0
  0
LINE
  5
1C6
330
51
100
AcDbEntity
  8
0
  6
Continuous
 62
     7
100
AcDbLine
 10
-15.28481146134897
 20
126.5000000989752
 30
0.0
 11
-13.51518956331708
 21
126.5000000989435
 31
0.0
  0
LINE
  5
1C7
330
51
100
AcDbEntity
  8
0
  6
Continuous
 62
     7
100
AcDbLine
 10
-15.65000051233196
 20
129.474226241887
 30
0.0
 11
-15.28481146134897
 21
126.5000000989752
 31
0.0
  0
LINE
  5
1C8
330
51
100
AcDbEntity
  8
0
  6
Continuous
 62
     7
100
AcDbLine
 10
-7.31518956331317
 20
126.5000000989752
 30
0.0
 11
-9.08481146133727
 21
126.5000000989435
 31
0.0
  0
LINE
  5
1C9
330
51
100
AcDbEntity
  8
0
  6
Continuous
 62
     7
100
AcDbLine
 10
-6.95000051232947
 20
129.4742262418929
 30
0.0
 11
-7.31518956331317
 21
126.5000000989752
 31
0.0
  0
LINE
  5
1CA
330
51
100
AcDbEntity
  8
0
  6
Continuous
 62
     7
100
AcDbLine
 10
-40.08481146134116
 20
126.5000000989752
 30
0.0
 11
-40.45000051232486
 21
129.4742262418929
 31
0.0
  0
LINE
  5
1CB
330
51
100
AcDbEntity
  8
0
  6
Continuous
 62
     7
100
AcDbLine
 10
-0.75000051232226
 20
129.474226241887
 30
0.0
 11
-1.11518956330536
 21
126.5000000989752
 31
0.0
  0
LINE
  5
1CC
330
51
100
AcDbEntity
  8
0
  6
Continuous
 62
     7
100
AcDbLine
 10
-2.88481146133728
 20
126.5000000989435
 30
0.0
 11
-1.11518956330536
 21
126.5000000989752
 31
0.0
  0
LINE
  5
1CD
330
51
100
AcDbEntity
  8
0
  6
Continuous
 62
     7
100
AcDbLine
 10
5.44999948767483
 20
129.4742262418846
 30
0.0
 11
5.08481043669295
 21
126.5000000989824
 31
0.0
  0
LINE
  5
1CE
330
51
100
AcDbEntity
  8
0
  6
Continuous
 62
     7
100
AcDbLine
 10
5.08481043669295
 20
126.5000000989824
 30
0.0
 11
3.31518853865904
 21
126.5000000989507
 31
0.0
  0
LINE
  5
1CF
330
51
100
AcDbEntity
  8
0
  6
Continuous
 62
     7
100
AcDbLine
 10
3.31518853865904
 20
126.5000000989507
 30
0.0
 11
2.94999948767224
 21
129.4742262418928
 31
0.0
  0
LINE
  5
1D0
330
51
100
AcDbEntity
  8
0
  6
Continuous
 62
     7
100
AcDbLine
 10
-50.35000051232656
 20
129.4742262418928
 30
0.0
 11
-50.71518956331326
 21
126.5000000989507
 31
0.0
  0
LINE
  5
1D1
330
51
100
AcDbEntity
  8
0
  6
Continuous
 62
     7
100
AcDbLine
 10
-38.31518956331706
 20
126.5000000989435
 30
0.0
 11
-37.95000051232935
 21
129.4742262418929
 31
0.0
  0
LINE
  5
1D2
330
51
100
AcDbEntity
  8
0
  6
Continuous
 62
     7
100
AcDbLine
 10
-46.65000051233197
 20
129.474226241887
 30
0.0
 11
-46.28481146134897
 21
126.5000000989752
 31
0.0
  0
LINE
  5
1D3
330
51
100
AcDbEntity
  8
0
  6
Continuous
 62
     7
100
AcDbLine
 10
-50.71518956331326
 20
126.5000000989507
 30
0.0
 11
-52.48481146134726
 21
126.5000000989824
 31
0.0
  0
LINE
  5
1D4
330
51
100
AcDbEntity
  8
0
  6
Continuous
 62
     7
100
AcDbLine
 10
-52.48481146134726
 20
126.5000000989824
 30
0.0
 11
-52.85000051232916
 21
129.4742262418846
 31
0.0
  0
ENDBLK
  5
53
330
51
100
AcDbEntity
  8
0
100
AcDbBlockEnd
  0
BLOCK
  5
56
330
54
100
AcDbEntity
  8
0
100
AcDbBlockBegin
  2
Rckans1
 70
     0
 10
-23.70000076293886
 20
137.8375000955375
 30
0.0
  3
Rckans1
  1

  0
INSERT
  5
55
330
54
100
AcDbEntity
  8
0
100
AcDbBlockReference
  2
3030271_FBS_10-6_select__3
 10
-53.85000051232717
 20
126.5000000989435
 30
0.0
  0
MTEXT
  5
1D5
330
54
100
AcDbEntity
  8
1
 62
     6
100
AcDbMText
 10
-23.70000076293923
 20
121.5000000001701
 30
0.0
 40
5.0
 41
0.0
 71
     2
 72
     1
  1
 
  7
CONVERTER_11
 73
     1
 44
1.32052821128451
  0
ENDBLK
  5
57
330
54
100
AcDbEntity
  8
0
100
AcDbBlockEnd
  0
BLOCK
  5
59
330
58
100
AcDbEntity
  8
0
100
AcDbBlockBegin
  2
3030271_FBS_10-6_select__4
 70
     0
 10
-82.84487547523192
 20
126.5000000989824
 30
0.0
  3
3030271_FBS_10-6_select__4
  1

  0
LINE
  5
1D6
330
58
100
AcDbEntity
  8
0
  6
Continuous
 62
     7
100
AcDbLine
 10
-80.54487547524165
 20
126.5000000989824
 30
0.0
 11
-82.14487547524166
 21
126.5000000989824
 31
0.0
  0
LINE
  5
1D7
330
58
100
AcDbEntity
  8
0
  6
Continuous
 62
     7
100
AcDbLine
 10
-80.54487547524165
 20
129.4742262418846
 30
0.0
 11
-82.14487547524166
 21
129.4742262418846
 31
0.0
  0
LINE
  5
1D8
330
58
100
AcDbEntity
  8
0
  6
Continuous
 62
     7
100
AcDbLine
 10
-82.84487547523192
 20
135.5750000989725
 30
0.0
 11
-82.14487547524165
 21
135.5750000989725
 31
0.0
  0
LINE
  5
1D9
330
58
100
AcDbEntity
  8
0
  6
Continuous
 62
     7
100
AcDbLine
 10
-80.54487547524165
 20
129.4742262418846
 30
0.0
 11
-80.54487547524165
 21
135.5750000989725
 31
0.0
  0
LINE
  5
1DA
330
58
100
AcDbEntity
  8
0
  6
Continuous
 62
     7
100
AcDbLine
 10
-80.54487547524165
 20
129.4742262418846
 30
0.0
 11
-80.54487547524165
 21
126.5000000989824
 31
0.0
  0
LINE
  5
1DB
330
58
100
AcDbEntity
  8
0
  6
Continuous
 62
     7
100
AcDbLine
 10
-79.8448754752319
 20
135.5750000989725
 30
0.0
 11
-79.8448754752319
 21
149.1750000989725
 31
0.0
  0
LINE
  5
1DC
330
58
100
AcDbEntity
  8
0
  6
Continuous
 62
     7
100
AcDbLine
 10
-82.14487547524165
 20
135.5750000989725
 30
0.0
 11
-80.54487547524165
 21
135.5750000989725
 31
0.0
  0
LINE
  5
1DD
330
58
100
AcDbEntity
  8
0
  6
Continuous
 62
     7
100
AcDbLine
 10
-80.54487547524165
 20
135.5750000989725
 30
0.0
 11
-79.8448754752319
 21
135.5750000989725
 31
0.0
  0
LINE
  5
1DE
330
58
100
AcDbEntity
  8
0
  6
Continuous
 62
     7
100
AcDbLine
 10
-82.14487547524166
 20
129.4742262418846
 30
0.0
 11
-82.14487547524165
 21
135.5750000989725
 31
0.0
  0
LINE
  5
1DF
330
58
100
AcDbEntity
  8
0
  6
Continuous
 62
     7
100
AcDbLine
 10
-82.14487547524166
 20
129.4742262418846
 30
0.0
 11
-82.14487547524166
 21
126.5000000989824
 31
0.0
  0
LINE
  5
1E0
330
58
100
AcDbEntity
  8
0
  6
Continuous
 62
     7
100
AcDbLine
 10
-82.84487547523192
 20
135.5750000989725
 30
0.0
 11
-82.84487547523192
 21
149.1750000989725
 31
0.0
  0
LINE
  5
1E1
330
58
100
AcDbEntity
  8
0
  6
Continuous
 62
     7
100
AcDbLine
 10
-79.8448754752319
 20
149.1750000989725
 30
0.0
 11
-82.84487547523192
 21
149.1750000989725
 31
0.0
  0
ENDBLK
  5
5A
330
58
100
AcDbEntity
  8
0
100
AcDbBlockEnd
  0
BLOCK
  5
5D
330
5B
100
AcDbEntity
  8
0
100
AcDbBlockBegin
  2
SA_Links1
 70
     0
 10
-81.3448754752319
 20
137.8375000955375
 30
0.0
  3
SA_Links1
  1

  0
INSERT
  5
5C
330
5B
100
AcDbEntity
  8
0
100
AcDbBlockReference
  2
3030271_FBS_10-6_select__4
 10
-82.84487547523192
 20
126.5000000989824
 30
0.0
  0
MTEXT
  5
1E2
330
5B
100
AcDbEntity
  8
1
 62
     6
100
AcDbMText
 10
-81.3448754752319
 20
121.5000000001701
 30
0.0
 40
5.0
 41
0.0
 71
     2
 72
     1
  1
 
  7
CONVERTER_11
 73
     1
 44
1.32052821128451
  0
DIMENSION
  5
1EF
330
5B
100
AcDbEntity
  8
1
100
AcDbDimension
  2
*D16
 10
-82.14487547524166
 20
114.550104702223
 30
0.0
 11
-72.61110448382547
 21
118.475104702223
 31
0.0
 70
    32
  1
<>
 71
     5
 42
-1.0
 53
0.00013888888889
  3
ME10_DIM_10
100
AcDbAlignedDimension
 13
-80.54487547524165
 23
126.5000000989824
 33
0.0
 14
-82.14487547524166
 24
126.5000000989824
 34
0.0
100
AcDbRotatedDimension
  0
DIMENSION
  5
1FC
330
5B
100
AcDbEntity
  8
1
100
AcDbDimension
  2
*D17
 10
-79.8448754752319
 20
159.1750000989725
 30
0.0
 11
-88.96328206119698
 21
162.9250000989725
 31
0.0
 70
    32
  1
<>
 71
     5
 42
-1.0
 53
0.00013888888889
  3
ME10_DIM_11
100
AcDbAlignedDimension
 13
-82.84487547523192
 23
149.1750000989725
 33
0.0
 14
-79.8448754752319
 24
149.1750000989725
 34
0.0
100
AcDbRotatedDimension
  0
ENDBLK
  5
5E
330
5B
100
AcDbEntity
  8
0
100
AcDbBlockEnd
  0
BLOCK
  5
60
330
5F
100
AcDbEntity
  8
0
100
AcDbBlockBegin
  2
3030271_FBS_10-6_select__5
 70
     0
 10
-202.01168301702
 20
126.5000000989435
 30
0.0
  3
3030271_FBS_10-6_select__5
  1

  0
LINE
  5
1FD
330
5F
100
AcDbEntity
  8
0
  6
Continuous
 62
     7
100
AcDbLine
 10
-199.7116830170103
 20
135.5750000989725
 30
0.0
 11
-199.7116830170103
 21
129.4742262418928
 31
0.0
  0
LINE
  5
1FE
330
5F
100
AcDbEntity
  8
0
  6
Continuous
 62
     7
100
AcDbLine
 10
-199.7116830170103
 20
135.5750000989725
 30
0.0
 11
-201.3116830170103
 21
135.5750000989725
 31
0.0
  0
LINE
  5
1FF
330
5F
100
AcDbEntity
  8
0
  6
Continuous
 62
     7
100
AcDbLine
 10
-201.3116830170103
 20
135.5750000989725
 30
0.0
 11
-202.01168301702
 21
135.5750000989725
 31
0.0
  0
LINE
  5
200
330
5F
100
AcDbEntity
  8
0
  6
Continuous
 62
     7
100
AcDbLine
 10
-199.01168301702
 20
135.5750000989725
 30
0.0
 11
-199.7116830170103
 21
135.5750000989725
 31
0.0
  0
LINE
  5
201
330
5F
100
AcDbEntity
  8
0
  6
Continuous
 62
     7
100
AcDbLine
 10
-201.3116830170103
 20
135.5750000989725
 30
0.0
 11
-201.3116830170103
 21
129.474226241893
 31
0.0
  0
LINE
  5
202
330
5F
100
AcDbEntity
  8
0
  6
Continuous
 62
     7
100
AcDbLine
 10
-199.01168301702
 20
149.1750000989725
 30
0.0
 11
-199.01168301702
 21
135.5750000989725
 31
0.0
  0
LINE
  5
203
330
5F
100
AcDbEntity
  8
0
  6
Continuous
 62
     7
100
AcDbLine
 10
-199.7116830170103
 20
129.4742262418928
 30
0.0
 11
-201.3116830170103
 21
129.474226241893
 31
0.0
  0
LINE
  5
204
330
5F
100
AcDbEntity
  8
0
  6
Continuous
 62
     7
100
AcDbLine
 10
-199.7116830170103
 20
126.5000000989435
 30
0.0
 11
-199.7116830170103
 21
129.4742262418928
 31
0.0
  0
LINE
  5
205
330
5F
100
AcDbEntity
  8
0
  6
Continuous
 62
     7
100
AcDbLine
 10
-201.3116830170103
 20
126.5000000989435
 30
0.0
 11
-199.7116830170103
 21
126.5000000989435
 31
0.0
  0
LINE
  5
206
330
5F
100
AcDbEntity
  8
0
  6
Continuous
 62
     7
100
AcDbLine
 10
-201.3116830170103
 20
126.5000000989435
 30
0.0
 11
-201.3116830170103
 21
129.474226241893
 31
0.0
  0
LINE
  5
207
330
5F
100
AcDbEntity
  8
0
  6
Continuous
 62
     7
100
AcDbLine
 10
-202.01168301702
 20
149.1750000989725
 30
0.0
 11
-202.01168301702
 21
135.5750000989725
 31
0.0
  0
LINE
  5
208
330
5F
100
AcDbEntity
  8
0
  6
Continuous
 62
     7
100
AcDbLine
 10
-202.01168301702
 20
149.1750000989725
 30
0.0
 11
-199.01168301702
 21
149.1750000989725
 31
0.0
  0
ENDBLK
  5
61
330
5F
100
AcDbEntity
  8
0
100
AcDbBlockEnd
  0
BLOCK
  5
64
330
62
100
AcDbEntity
  8
0
100
AcDbBlockBegin
  2
SA_Rechts1
 70
     0
 10
-200.51168301702
 20
137.8375000955375
 30
0.0
  3
SA_Rechts1
  1

  0
INSERT
  5
63
330
62
100
AcDbEntity
  8
0
100
AcDbBlockReference
  2
3030271_FBS_10-6_select__5
 10
-202.01168301702
 20
126.5000000989435
 30
0.0
  0
MTEXT
  5
209
330
62
100
AcDbEntity
  8
1
 62
     6
100
AcDbMText
 10
-200.51168301702
 20
121.50000000017
 30
0.0
 40
5.0
 41
0.0
 71
     2
 72
     1
  1
 
  7
CONVERTER_11
 73
     1
 44
1.32052821128451
  0
ENDBLK
  5
65
330
62
100
AcDbEntity
  8
0
100
AcDbBlockEnd
  0
BLOCK
  5
67
330
66
100
AcDbEntity
  8
0
100
AcDbBlockBegin
  2
3030271_FBS_10-6_select__6
 70
     0
 10
-169.1500002506117
 20
126.5000000989434
 30
0.0
  3
3030271_FBS_10-6_select__6
  1

  0
LINE
  5
20A
330
66
100
AcDbEntity
  8
0
  6
Continuous
 62
     7
100
AcDbLine
 10
-136.7848111996218
 20
126.5000000989434
 30
0.0
 11
-137.1500002506095
 21
129.4742262418928
 31
0.0
  0
LINE
  5
20B
330
66
100
AcDbEntity
  8
0
  6
Continuous
 62
     7
100
AcDbLine
 10
-128.450000250614
 20
129.4742262418928
 30
0.0
 11
-128.8151893016016
 21
126.5000000989434
 31
0.0
  0
LINE
  5
20C
330
66
100
AcDbEntity
  8
0
  6
Continuous
 62
     7
100
AcDbLine
 10
-137.1500002506095
 20
129.4742262418928
 30
0.0
 11
-137.1500002506095
 21
136.7750000989715
 31
0.0
  0
LINE
  5
20D
330
66
100
AcDbEntity
  8
0
  6
Continuous
 62
     7
100
AcDbLine
 10
-135.0151893015977
 20
126.5000000989751
 30
0.0
 11
-134.650000250614
 21
129.4742262418928
 31
0.0
  0
LINE
  5
20E
330
66
100
AcDbEntity
  8
0
  6
Continuous
 62
     7
100
AcDbLine
 10
-122.6151893015978
 20
126.5000000989751
 30
0.0
 11
-122.250000250614
 21
129.4742262418928
 31
0.0
  0
LINE
  5
20F
330
66
100
AcDbEntity
  8
0
  6
Continuous
 62
     7
100
AcDbLine
 10
-130.9500002506166
 20
129.4742262418869
 30
0.0
 11
-130.5848111996336
 21
126.5000000989751
 31
0.0
  0
LINE
  5
210
330
66
100
AcDbEntity
  8
0
  6
Continuous
 62
     7
100
AcDbLine
 10
-112.3500002506124
 20
129.4742262418928
 30
0.0
 11
-111.9848111996256
 21
126.5000000989506
 31
0.0
  0
LINE
  5
211
330
66
100
AcDbEntity
  8
0
  6
Continuous
 62
     7
100
AcDbLine
 10
-116.0500002506069
 20
129.4742262418869
 30
0.0
 11
-116.4151893015899
 21
126.5000000989751
 31
0.0
  0
LINE
  5
212
330
66
100
AcDbEntity
  8
0
  6
Continuous
 62
     7
100
AcDbLine
 10
-116.4151893015899
 20
126.5000000989751
 30
0.0
 11
-118.1848111996218
 21
126.5000000989434
 31
0.0
  0
LINE
  5
213
330
66
100
AcDbEntity
  8
0
  6
Continuous
 62
     7
100
AcDbLine
 10
-118.5500002506095
 20
129.4742262418928
 30
0.0
 11
-118.1848111996218
 21
126.5000000989434
 31
0.0
  0
LINE
  5
214
330
66
100
AcDbEntity
  8
0
  6
Continuous
 62
     7
100
AcDbLine
 10
-149.1848111996218
 20
126.5000000989434
 30
0.0
 11
-147.4151893015899
 21
126.5000000989751
 31
0.0
  0
LINE
  5
215
330
66
100
AcDbEntity
  8
0
  6
Continuous
 62
     7
100
AcDbLine
 10
-135.0151893015977
 20
126.5000000989751
 30
0.0
 11
-136.7848111996218
 21
126.5000000989434
 31
0.0
  0
LINE
  5
216
330
66
100
AcDbEntity
  8
0
  6
Continuous
 62
     7
100
AcDbLine
 10
-142.9848111996336
 20
126.5000000989751
 30
0.0
 11
-141.2151893016016
 21
126.5000000989434
 31
0.0
  0
LINE
  5
217
330
66
100
AcDbEntity
  8
0
  6
Continuous
 62
     7
100
AcDbLine
 10
-155.3848111996257
 20
126.5000000989751
 30
0.0
 11
-153.6151893016016
 21
126.5000000989434
 31
0.0
  0
LINE
  5
218
330
66
100
AcDbEntity
  8
0
  6
Continuous
 62
     7
100
AcDbLine
 10
-128.8151893016016
 20
126.5000000989434
 30
0.0
 11
-130.5848111996336
 21
126.5000000989751
 31
0.0
  0
LINE
  5
219
330
66
100
AcDbEntity
  8
0
  6
Continuous
 62
     7
100
AcDbLine
 10
-122.6151893015978
 20
126.5000000989751
 30
0.0
 11
-124.3848111996218
 21
126.5000000989434
 31
0.0
  0
LINE
  5
21A
330
66
100
AcDbEntity
  8
0
  6
Continuous
 62
     7
100
AcDbLine
 10
-111.9848111996256
 20
126.5000000989506
 30
0.0
 11
-110.2151893015916
 21
126.5000000989823
 31
0.0
  0
LINE
  5
21B
330
66
100
AcDbEntity
  8
0
  6
Continuous
 62
     7
100
AcDbLine
 10
-110.2151893015916
 20
126.5000000989823
 30
0.0
 11
-109.8500002506097
 21
129.4742262418845
 31
0.0
  0
LINE
  5
21C
330
66
100
AcDbEntity
  8
0
  6
Continuous
 62
     7
100
AcDbLine
 10
-122.2500002506138
 20
136.7750000989713
 30
0.0
 11
-121.9000002506127
 21
137.1250000989724
 31
0.0
  0
LINE
  5
21D
330
66
100
AcDbEntity
  8
0
  6
Continuous
 62
     7
100
AcDbLine
 10
-124.7500002506095
 20
136.7750000989715
 30
0.0
 11
-125.1000002506107
 21
137.1250000989724
 31
0.0
  0
LINE
  5
21E
330
66
100
AcDbEntity
  8
0
  6
Continuous
 62
     7
100
AcDbLine
 10
-134.3000002506127
 20
137.1250000989724
 30
0.0
 11
-134.3000002506127
 21
139.6750000989724
 31
0.0
  0
LINE
  5
21F
330
66
100
AcDbEntity
  8
0
  6
Continuous
 62
     7
100
AcDbLine
 10
-134.650000250614
 20
129.4742262418928
 30
0.0
 11
-134.650000250614
 21
136.7750000989715
 31
0.0
  0
LINE
  5
220
330
66
100
AcDbEntity
  8
0
  6
Continuous
 62
     7
100
AcDbLine
 10
-118.5500002506098
 20
136.7750000989715
 30
0.0
 11
-118.5500002506095
 21
129.4742262418928
 31
0.0
  0
LINE
  5
221
330
66
100
AcDbEntity
  8
0
  6
Continuous
 62
     7
100
AcDbLine
 10
-128.450000250614
 20
136.7750000989715
 30
0.0
 11
-128.1000002506127
 21
137.1250000989724
 31
0.0
  0
LINE
  5
222
330
66
100
AcDbEntity
  8
0
  6
Continuous
 62
     7
100
AcDbLine
 10
-131.300000250615
 20
137.1250000989724
 30
0.0
 11
-130.9500002506166
 21
136.775000098974
 31
0.0
  0
LINE
  5
223
330
66
100
AcDbEntity
  8
0
  6
Continuous
 62
     7
100
AcDbLine
 10
-121.9000002506127
 20
139.6750000989724
 30
0.0
 11
-125.1000002506107
 21
139.6750000989724
 31
0.0
  0
LINE
  5
224
330
66
100
AcDbEntity
  8
0
  6
Continuous
 62
     7
100
AcDbLine
 10
-131.300000250615
 20
139.6750000989724
 30
0.0
 11
-128.1000002506127
 21
139.6750000989724
 31
0.0
  0
LINE
  5
225
330
66
100
AcDbEntity
  8
0
  6
Continuous
 62
     7
100
AcDbLine
 10
-131.9500002506117
 20
139.6750000989724
 30
0.0
 11
-131.300000250615
 21
139.6750000989724
 31
0.0
  0
LINE
  5
226
330
66
100
AcDbEntity
  8
0
  6
Continuous
 62
     7
100
AcDbLine
 10
-121.2500002506117
 20
139.6750000989724
 30
0.0
 11
-121.9000002506127
 21
139.6750000989724
 31
0.0
  0
LINE
  5
227
330
66
100
AcDbEntity
  8
0
  6
Continuous
 62
     7
100
AcDbLine
 10
-121.9000002506127
 20
137.1250000989724
 30
0.0
 11
-121.9000002506127
 21
139.6750000989724
 31
0.0
  0
LINE
  5
228
330
66
100
AcDbEntity
  8
0
  6
Continuous
 62
     7
100
AcDbLine
 10
-122.250000250614
 20
129.4742262418928
 30
0.0
 11
-122.2500002506138
 21
136.7750000989713
 31
0.0
  0
LINE
  5
229
330
66
100
AcDbEntity
  8
0
  6
Continuous
 62
     7
100
AcDbLine
 10
-131.300000250615
 20
139.6750000989724
 30
0.0
 11
-131.300000250615
 21
137.1250000989724
 31
0.0
  0
LINE
  5
22A
330
66
100
AcDbEntity
  8
0
  6
Continuous
 62
     7
100
AcDbLine
 10
-116.0500002506069
 20
136.775000098974
 30
0.0
 11
-116.0500002506069
 21
129.4742262418869
 31
0.0
  0
LINE
  5
22B
330
66
100
AcDbEntity
  8
0
  6
Continuous
 62
     7
100
AcDbLine
 10
-130.9500002506166
 20
129.4742262418869
 30
0.0
 11
-130.9500002506166
 21
136.775000098974
 31
0.0
  0
LINE
  5
22C
330
66
100
AcDbEntity
  8
0
  6
Continuous
 62
     7
100
AcDbLine
 10
-125.1000002506107
 20
137.1250000989724
 30
0.0
 11
-125.1000002506107
 21
139.6750000989724
 31
0.0
  0
LINE
  5
22D
330
66
100
AcDbEntity
  8
0
  6
Continuous
 62
     7
100
AcDbLine
 10
-128.1000002506127
 20
137.1250000989724
 30
0.0
 11
-128.1000002506127
 21
139.6750000989724
 31
0.0
  0
LINE
  5
22E
330
66
100
AcDbEntity
  8
0
  6
Continuous
 62
     7
100
AcDbLine
 10
-124.7500002506095
 20
129.4742262418928
 30
0.0
 11
-124.7500002506095
 21
136.7750000989715
 31
0.0
  0
LINE
  5
22F
330
66
100
AcDbEntity
  8
0
  6
Continuous
 62
     7
100
AcDbLine
 10
-128.450000250614
 20
129.4742262418928
 30
0.0
 11
-128.450000250614
 21
136.7750000989715
 31
0.0
  0
LINE
  5
230
330
66
100
AcDbEntity
  8
0
  6
Continuous
 62
     7
100
AcDbLine
 10
-112.3500002506124
 20
129.4742262418928
 30
0.0
 11
-112.3500002506124
 21
135.5750000989724
 31
0.0
  0
LINE
  5
231
330
66
100
AcDbEntity
  8
0
  6
Continuous
 62
     7
100
AcDbLine
 10
-109.8500002506098
 20
135.5750000989724
 30
0.0
 11
-109.8500002506097
 21
129.4742262418845
 31
0.0
  0
LINE
  5
232
330
66
100
AcDbEntity
  8
0
  6
Continuous
 62
     7
100
AcDbLine
 10
-108.8500002506117
 20
149.1750000989724
 30
0.0
 11
-169.1500002506117
 21
149.1750000989724
 31
0.0
  0
LINE
  5
233
330
66
100
AcDbEntity
  8
0
  6
Continuous
 62
     7
100
AcDbLine
 10
-149.9000002506107
 20
139.6750000989724
 30
0.0
 11
-149.9000002506107
 21
137.1250000989724
 31
0.0
  0
LINE
  5
234
330
66
100
AcDbEntity
  8
0
  6
Continuous
 62
     7
100
AcDbLine
 10
-152.9000002506127
 20
139.6750000989724
 30
0.0
 11
-152.9000002506127
 21
137.1250000989724
 31
0.0
  0
LINE
  5
235
330
66
100
AcDbEntity
  8
0
  6
Continuous
 62
     7
100
AcDbLine
 10
-150.5500002506117
 20
139.6750000989724
 30
0.0
 11
-150.5500002506117
 21
143.1750000989724
 31
0.0
  0
LINE
  5
236
330
66
100
AcDbEntity
  8
0
  6
Continuous
 62
     7
100
AcDbLine
 10
-152.2500002506117
 20
139.6750000989724
 30
0.0
 11
-152.2500002506117
 21
143.1750000989724
 31
0.0
  0
LINE
  5
237
330
66
100
AcDbEntity
  8
0
  6
Continuous
 62
     7
100
AcDbLine
 10
-152.2500002506117
 20
143.1750000989724
 30
0.0
 11
-150.5500002506117
 21
143.1750000989724
 31
0.0
  0
LINE
  5
238
330
66
100
AcDbEntity
  8
0
  6
Continuous
 62
     7
100
AcDbLine
 10
-162.9500002506117
 20
143.1750000989724
 30
0.0
 11
-164.6500002506117
 21
143.1750000989724
 31
0.0
  0
LINE
  5
239
330
66
100
AcDbEntity
  8
0
  6
Continuous
 62
     7
100
AcDbLine
 10
-162.9500002506117
 20
143.1750000989724
 30
0.0
 11
-162.9500002506117
 21
139.6750000989724
 31
0.0
  0
LINE
  5
23A
330
66
100
AcDbEntity
  8
0
  6
Continuous
 62
     7
100
AcDbLine
 10
-162.300000250615
 20
139.6750000989724
 30
0.0
 11
-159.1000002506127
 21
139.6750000989724
 31
0.0
  0
LINE
  5
23B
330
66
100
AcDbEntity
  8
0
  6
Continuous
 62
     7
100
AcDbLine
 10
-159.1000002506127
 20
139.6750000989724
 30
0.0
 11
-158.4500002506117
 21
139.6750000989724
 31
0.0
  0
LINE
  5
23C
330
66
100
AcDbEntity
  8
0
  6
Continuous
 62
     7
100
AcDbLine
 10
-162.9500002506117
 20
139.6750000989724
 30
0.0
 11
-162.300000250615
 21
139.6750000989724
 31
0.0
  0
LINE
  5
23D
330
66
100
AcDbEntity
  8
0
  6
Continuous
 62
     7
100
AcDbLine
 10
-115.7000002506085
 20
137.1250000989724
 30
0.0
 11
-115.7000002506085
 21
139.6750000989724
 31
0.0
  0
LINE
  5
23E
330
66
100
AcDbEntity
  8
0
  6
Continuous
 62
     7
100
AcDbLine
 10
-118.9000002506108
 20
139.6750000989724
 30
0.0
 11
-119.5500002506118
 21
139.6750000989724
 31
0.0
  0
LINE
  5
23F
330
66
100
AcDbEntity
  8
0
  6
Continuous
 62
     7
100
AcDbLine
 10
-125.1000002506107
 20
139.6750000989724
 30
0.0
 11
-125.7500002506117
 21
139.6750000989724
 31
0.0
  0
LINE
  5
240
330
66
100
AcDbEntity
  8
0
  6
Continuous
 62
     7
100
AcDbLine
 10
-128.1000002506127
 20
139.6750000989724
 30
0.0
 11
-127.4500002506117
 21
139.6750000989724
 31
0.0
  0
LINE
  5
241
330
66
100
AcDbEntity
  8
0
  6
Continuous
 62
     7
100
AcDbLine
 10
-146.7000002506085
 20
139.6750000989724
 30
0.0
 11
-149.9000002506107
 21
139.6750000989724
 31
0.0
  0
LINE
  5
242
330
66
100
AcDbEntity
  8
0
  6
Continuous
 62
     7
100
AcDbLine
 10
-143.700000250615
 20
139.6750000989724
 30
0.0
 11
-140.5000002506127
 21
139.6750000989724
 31
0.0
  0
LINE
  5
243
330
66
100
AcDbEntity
  8
0
  6
Continuous
 62
     7
100
AcDbLine
 10
-156.1000002506107
 20
139.6750000989724
 30
0.0
 11
-152.9000002506127
 21
139.6750000989724
 31
0.0
  0
LINE
  5
244
330
66
100
AcDbEntity
  8
0
  6
Continuous
 62
     7
100
AcDbLine
 10
-152.9000002506127
 20
139.6750000989724
 30
0.0
 11
-152.2500002506117
 21
139.6750000989724
 31
0.0
  0
LINE
  5
245
330
66
100
AcDbEntity
  8
0
  6
Continuous
 62
     7
100
AcDbLine
 10
-156.7500002506117
 20
139.6750000989724
 30
0.0
 11
-156.1000002506107
 21
139.6750000989724
 31
0.0
  0
LINE
  5
246
330
66
100
AcDbEntity
  8
0
  6
Continuous
 62
     7
100
AcDbLine
 10
-144.3500002506117
 20
139.6750000989724
 30
0.0
 11
-143.700000250615
 21
139.6750000989724
 31
0.0
  0
LINE
  5
247
330
66
100
AcDbEntity
  8
0
  6
Continuous
 62
     7
100
AcDbLine
 10
-146.0500002506117
 20
139.6750000989724
 30
0.0
 11
-146.7000002506085
 21
139.6750000989724
 31
0.0
  0
LINE
  5
248
330
66
100
AcDbEntity
  8
0
  6
Continuous
 62
     7
100
AcDbLine
 10
-133.6500002506117
 20
139.6750000989724
 30
0.0
 11
-134.3000002506127
 21
139.6750000989724
 31
0.0
  0
LINE
  5
249
330
66
100
AcDbEntity
  8
0
  6
Continuous
 62
     7
100
AcDbLine
 10
-134.3000002506127
 20
139.6750000989724
 30
0.0
 11
-137.5000002506108
 21
139.6750000989724
 31
0.0
  0
LINE
  5
24A
330
66
100
AcDbEntity
  8
0
  6
Continuous
 62
     7
100
AcDbLine
 10
-127.4500002506117
 20
139.6750000989724
 30
0.0
 11
-127.4500002506117
 21
143.1750000989724
 31
0.0
  0
LINE
  5
24B
330
66
100
AcDbEntity
  8
0
  6
Continuous
 62
     7
100
AcDbLine
 10
-131.9500002506117
 20
143.1750000989724
 30
0.0
 11
-131.9500002506117
 21
139.6750000989724
 31
0.0
  0
LINE
  5
24C
330
66
100
AcDbEntity
  8
0
  6
Continuous
 62
     7
100
AcDbLine
 10
-133.6500002506117
 20
139.6750000989724
 30
0.0
 11
-133.6500002506117
 21
143.1750000989724
 31
0.0
  0
LINE
  5
24D
330
66
100
AcDbEntity
  8
0
  6
Continuous
 62
     7
100
AcDbLine
 10
-139.8500002506117
 20
139.6750000989724
 30
0.0
 11
-139.8500002506117
 21
143.1750000989724
 31
0.0
  0
LINE
  5
24E
330
66
100
AcDbEntity
  8
0
  6
Continuous
 62
     7
100
AcDbLine
 10
-137.5000002506108
 20
137.1250000989724
 30
0.0
 11
-137.5000002506108
 21
139.6750000989724
 31
0.0
  0
LINE
  5
24F
330
66
100
AcDbEntity
  8
0
  6
Continuous
 62
     7
100
AcDbLine
 10
-140.5000002506127
 20
137.1250000989724
 30
0.0
 11
-140.5000002506127
 21
139.6750000989724
 31
0.0
  0
LINE
  5
250
330
66
100
AcDbEntity
  8
0
  6
Continuous
 62
     7
100
AcDbLine
 10
-140.5000002506127
 20
139.6750000989724
 30
0.0
 11
-139.8500002506117
 21
139.6750000989724
 31
0.0
  0
LINE
  5
251
330
66
100
AcDbEntity
  8
0
  6
Continuous
 62
     7
100
AcDbLine
 10
-137.5000002506108
 20
139.6750000989724
 30
0.0
 11
-138.1500002506117
 21
139.6750000989724
 31
0.0
  0
LINE
  5
252
330
66
100
AcDbEntity
  8
0
  6
Continuous
 62
     7
100
AcDbLine
 10
-138.1500002506117
 20
143.1750000989724
 30
0.0
 11
-139.8500002506117
 21
143.1750000989724
 31
0.0
  0
LINE
  5
253
330
66
100
AcDbEntity
  8
0
  6
Continuous
 62
     7
100
AcDbLine
 10
-138.1500002506117
 20
139.6750000989724
 30
0.0
 11
-138.1500002506117
 21
143.1750000989724
 31
0.0
  0
LINE
  5
254
330
66
100
AcDbEntity
  8
0
  6
Continuous
 62
     7
100
AcDbLine
 10
-156.1000002506107
 20
139.6750000989724
 30
0.0
 11
-156.1000002506107
 21
137.1250000989724
 31
0.0
  0
LINE
  5
255
330
66
100
AcDbEntity
  8
0
  6
Continuous
 62
     7
100
AcDbLine
 10
-156.7500002506117
 20
139.6750000989724
 30
0.0
 11
-156.7500002506117
 21
143.1750000989724
 31
0.0
  0
LINE
  5
256
330
66
100
AcDbEntity
  8
0
  6
Continuous
 62
     7
100
AcDbLine
 10
-115.0500002506117
 20
143.1750000989724
 30
0.0
 11
-115.0500002506117
 21
139.6750000989724
 31
0.0
  0
LINE
  5
257
330
66
100
AcDbEntity
  8
0
  6
Continuous
 62
     7
100
AcDbLine
 10
-119.5500002506118
 20
139.6750000989724
 30
0.0
 11
-119.5500002506118
 21
143.1750000989724
 31
0.0
  0
LINE
  5
258
330
66
100
AcDbEntity
  8
0
  6
Continuous
 62
     7
100
AcDbLine
 10
-121.2500002506117
 20
139.6750000989724
 30
0.0
 11
-121.2500002506117
 21
143.1750000989724
 31
0.0
  0
LINE
  5
259
330
66
100
AcDbEntity
  8
0
  6
Continuous
 62
     7
100
AcDbLine
 10
-125.7500002506117
 20
139.6750000989724
 30
0.0
 11
-125.7500002506117
 21
143.1750000989724
 31
0.0
  0
LINE
  5
25A
330
66
100
AcDbEntity
  8
0
  6
Continuous
 62
     7
100
AcDbLine
 10
-144.3500002506117
 20
143.1750000989724
 30
0.0
 11
-144.3500002506117
 21
139.6750000989724
 31
0.0
  0
LINE
  5
25B
330
66
100
AcDbEntity
  8
0
  6
Continuous
 62
     7
100
AcDbLine
 10
-146.0500002506117
 20
143.1750000989724
 30
0.0
 11
-146.0500002506117
 21
139.6750000989724
 31
0.0
  0
LINE
  5
25C
330
66
100
AcDbEntity
  8
0
  6
Continuous
 62
     7
100
AcDbLine
 10
-149.9000002506107
 20
139.6750000989724
 30
0.0
 11
-150.5500002506117
 21
139.6750000989724
 31
0.0
  0
LINE
  5
25D
330
66
100
AcDbEntity
  8
0
  6
Continuous
 62
     7
100
AcDbLine
 10
-115.0500002506117
 20
139.6750000989724
 30
0.0
 11
-115.7000002506085
 21
139.6750000989724
 31
0.0
  0
LINE
  5
25E
330
66
100
AcDbEntity
  8
0
  6
Continuous
 62
     7
100
AcDbLine
 10
-115.7000002506085
 20
139.6750000989724
 30
0.0
 11
-118.9000002506108
 21
139.6750000989724
 31
0.0
  0
LINE
  5
25F
330
66
100
AcDbEntity
  8
0
  6
Continuous
 62
     7
100
AcDbLine
 10
-115.0500002506117
 20
143.1750000989724
 30
0.0
 11
-113.3500002506117
 21
143.1750000989724
 31
0.0
  0
LINE
  5
260
330
66
100
AcDbEntity
  8
0
  6
Continuous
 62
     7
100
AcDbLine
 10
-121.2500002506117
 20
143.1750000989724
 30
0.0
 11
-119.5500002506118
 21
143.1750000989724
 31
0.0
  0
LINE
  5
261
330
66
100
AcDbEntity
  8
0
  6
Continuous
 62
     7
100
AcDbLine
 10
-125.7500002506117
 20
143.1750000989724
 30
0.0
 11
-127.4500002506117
 21
143.1750000989724
 31
0.0
  0
LINE
  5
262
330
66
100
AcDbEntity
  8
0
  6
Continuous
 62
     7
100
AcDbLine
 10
-131.9500002506117
 20
143.1750000989724
 30
0.0
 11
-133.6500002506117
 21
143.1750000989724
 31
0.0
  0
LINE
  5
263
330
66
100
AcDbEntity
  8
0
  6
Continuous
 62
     7
100
AcDbLine
 10
-144.3500002506117
 20
143.1750000989724
 30
0.0
 11
-146.0500002506117
 21
143.1750000989724
 31
0.0
  0
LINE
  5
264
330
66
100
AcDbEntity
  8
0
  6
Continuous
 62
     7
100
AcDbLine
 10
-156.7500002506117
 20
143.1750000989724
 30
0.0
 11
-158.4500002506117
 21
143.1750000989724
 31
0.0
  0
LINE
  5
265
330
66
100
AcDbEntity
  8
0
  6
Continuous
 62
     7
100
AcDbLine
 10
-159.1000002506127
 20
137.1250000989724
 30
0.0
 11
-159.1000002506127
 21
139.6750000989724
 31
0.0
  0
LINE
  5
266
330
66
100
AcDbEntity
  8
0
  6
Continuous
 62
     7
100
AcDbLine
 10
-158.4500002506117
 20
139.6750000989724
 30
0.0
 11
-158.4500002506117
 21
143.1750000989724
 31
0.0
  0
LINE
  5
267
330
66
100
AcDbEntity
  8
0
  6
Continuous
 62
     7
100
AcDbLine
 10
-118.9000002506107
 20
137.1250000989724
 30
0.0
 11
-118.5500002506098
 21
136.7750000989715
 31
0.0
  0
LINE
  5
268
330
66
100
AcDbEntity
  8
0
  6
Continuous
 62
     7
100
AcDbLine
 10
-143.700000250615
 20
137.1250000989724
 30
0.0
 11
-143.3500002506166
 21
136.775000098974
 31
0.0
  0
LINE
  5
269
330
66
100
AcDbEntity
  8
0
  6
Continuous
 62
     7
100
AcDbLine
 10
-109.8500002506098
 20
135.5750000989724
 30
0.0
 11
-112.3500002506124
 21
135.5750000989724
 31
0.0
  0
LINE
  5
26A
330
66
100
AcDbEntity
  8
0
  6
Continuous
 62
     7
100
AcDbLine
 10
-108.8500002506117
 20
135.5750000989724
 30
0.0
 11
-109.8500002506098
 21
135.5750000989724
 31
0.0
  0
LINE
  5
26B
330
66
100
AcDbEntity
  8
0
  6
Continuous
 62
     7
100
AcDbLine
 10
-112.3500002506124
 20
135.5750000989724
 30
0.0
 11
-113.3500002506117
 21
135.5750000989724
 31
0.0
  0
LINE
  5
26C
330
66
100
AcDbEntity
  8
0
  6
Continuous
 62
     7
100
AcDbLine
 10
-168.1500002506137
 20
129.4742262418845
 30
0.0
 11
-168.1500002506137
 21
135.5750000989724
 31
0.0
  0
LINE
  5
26D
330
66
100
AcDbEntity
  8
0
  6
Continuous
 62
     7
100
AcDbLine
 10
-165.6500002506111
 20
135.5750000989724
 30
0.0
 11
-165.6500002506111
 21
129.4742262418928
 31
0.0
  0
LINE
  5
26E
330
66
100
AcDbEntity
  8
0
  6
Continuous
 62
     7
100
AcDbLine
 10
-161.9500002506166
 20
129.4742262418869
 30
0.0
 11
-161.9500002506166
 21
136.775000098974
 31
0.0
  0
LINE
  5
26F
330
66
100
AcDbEntity
  8
0
  6
Continuous
 62
     7
100
AcDbLine
 10
-159.450000250614
 20
129.4742262418928
 30
0.0
 11
-159.4500002506137
 21
136.7750000989715
 31
0.0
  0
LINE
  5
270
330
66
100
AcDbEntity
  8
0
  6
Continuous
 62
     7
100
AcDbLine
 10
-155.7500002506095
 20
136.7750000989715
 30
0.0
 11
-155.7500002506095
 21
129.4742262418928
 31
0.0
  0
LINE
  5
271
330
66
100
AcDbEntity
  8
0
  6
Continuous
 62
     7
100
AcDbLine
 10
-147.0500002506069
 20
136.775000098974
 30
0.0
 11
-147.0500002506069
 21
129.4742262418869
 31
0.0
  0
LINE
  5
272
330
66
100
AcDbEntity
  8
0
  6
Continuous
 62
     7
100
AcDbLine
 10
-143.3500002506166
 20
129.4742262418869
 30
0.0
 11
-143.3500002506166
 21
136.775000098974
 31
0.0
  0
LINE
  5
273
330
66
100
AcDbEntity
  8
0
  6
Continuous
 62
     7
100
AcDbLine
 10
-153.250000250614
 20
136.7750000989715
 30
0.0
 11
-153.250000250614
 21
129.4742262418928
 31
0.0
  0
LINE
  5
274
330
66
100
AcDbEntity
  8
0
  6
Continuous
 62
     7
100
AcDbLine
 10
-149.5500002506095
 20
136.7750000989715
 30
0.0
 11
-149.5500002506095
 21
129.4742262418928
 31
0.0
  0
LINE
  5
275
330
66
100
AcDbEntity
  8
0
  6
Continuous
 62
     7
100
AcDbLine
 10
-116.0500002506069
 20
136.775000098974
 30
0.0
 11
-115.7000002506085
 21
137.1250000989724
 31
0.0
  0
LINE
  5
276
330
66
100
AcDbEntity
  8
0
  6
Continuous
 62
     7
100
AcDbLine
 10
-113.3500002506117
 20
135.5750000989724
 30
0.0
 11
-113.3500002506117
 21
143.1750000989724
 31
0.0
  0
LINE
  5
277
330
66
100
AcDbEntity
  8
0
  6
Continuous
 62
     7
100
AcDbLine
 10
-137.1500002506095
 20
136.7750000989715
 30
0.0
 11
-137.5000002506108
 21
137.1250000989724
 31
0.0
  0
LINE
  5
278
330
66
100
AcDbEntity
  8
0
  6
Continuous
 62
     7
100
AcDbLine
 10
-134.650000250614
 20
136.7750000989715
 30
0.0
 11
-134.3000002506127
 21
137.1250000989724
 31
0.0
  0
LINE
  5
279
330
66
100
AcDbEntity
  8
0
  6
Continuous
 62
     7
100
AcDbLine
 10
-140.8500002506137
 20
136.7750000989715
 30
0.0
 11
-140.5000002506127
 21
137.1250000989724
 31
0.0
  0
LINE
  5
27A
330
66
100
AcDbEntity
  8
0
  6
Continuous
 62
     7
100
AcDbLine
 10
-118.9000002506108
 20
139.6750000989724
 30
0.0
 11
-118.9000002506107
 21
137.1250000989724
 31
0.0
  0
LINE
  5
27B
330
66
100
AcDbEntity
  8
0
  6
Continuous
 62
     7
100
AcDbLine
 10
-108.8500002506117
 20
149.1750000989724
 30
0.0
 11
-108.8500002506117
 21
135.5750000989724
 31
0.0
  0
LINE
  5
27C
330
66
100
AcDbEntity
  8
0
  6
Continuous
 62
     7
100
AcDbLine
 10
-141.2151893016016
 20
126.5000000989434
 30
0.0
 11
-140.850000250614
 21
129.4742262418928
 31
0.0
  0
LINE
  5
27D
330
66
100
AcDbEntity
  8
0
  6
Continuous
 62
     7
100
AcDbLine
 10
-140.850000250614
 20
129.4742262418928
 30
0.0
 11
-140.8500002506137
 21
136.7750000989715
 31
0.0
  0
LINE
  5
27E
330
66
100
AcDbEntity
  8
0
  6
Continuous
 62
     7
100
AcDbLine
 10
-156.1000002506107
 20
137.1250000989724
 30
0.0
 11
-155.7500002506095
 21
136.7750000989715
 31
0.0
  0
LINE
  5
27F
330
66
100
AcDbEntity
  8
0
  6
Continuous
 62
     7
100
AcDbLine
 10
-143.700000250615
 20
139.6750000989724
 30
0.0
 11
-143.700000250615
 21
137.1250000989724
 31
0.0
  0
LINE
  5
280
330
66
100
AcDbEntity
  8
0
  6
Continuous
 62
     7
100
AcDbLine
 10
-168.1500002506137
 20
135.5750000989724
 30
0.0
 11
-165.6500002506111
 21
135.5750000989724
 31
0.0
  0
LINE
  5
281
330
66
100
AcDbEntity
  8
0
  6
Continuous
 62
     7
100
AcDbLine
 10
-165.6500002506111
 20
135.5750000989724
 30
0.0
 11
-164.6500002506117
 21
135.5750000989724
 31
0.0
  0
LINE
  5
282
330
66
100
AcDbEntity
  8
0
  6
Continuous
 62
     7
100
AcDbLine
 10
-169.1500002506117
 20
135.5750000989724
 30
0.0
 11
-168.1500002506137
 21
135.5750000989724
 31
0.0
  0
LINE
  5
283
330
66
100
AcDbEntity
  8
0
  6
Continuous
 62
     7
100
AcDbLine
 10
-164.6500002506117
 20
135.5750000989724
 30
0.0
 11
-164.6500002506117
 21
143.1750000989724
 31
0.0
  0
LINE
  5
284
330
66
100
AcDbEntity
  8
0
  6
Continuous
 62
     7
100
AcDbLine
 10
-169.1500002506117
 20
149.1750000989724
 30
0.0
 11
-169.1500002506117
 21
135.5750000989724
 31
0.0
  0
LINE
  5
285
330
66
100
AcDbEntity
  8
0
  6
Continuous
 62
     7
100
AcDbLine
 10
-152.9000002506127
 20
137.1250000989724
 30
0.0
 11
-153.250000250614
 21
136.7750000989715
 31
0.0
  0
LINE
  5
286
330
66
100
AcDbEntity
  8
0
  6
Continuous
 62
     7
100
AcDbLine
 10
-147.0500002506069
 20
136.775000098974
 30
0.0
 11
-146.7000002506085
 21
137.1250000989724
 31
0.0
  0
LINE
  5
287
330
66
100
AcDbEntity
  8
0
  6
Continuous
 62
     7
100
AcDbLine
 10
-146.7000002506085
 20
137.1250000989724
 30
0.0
 11
-146.7000002506085
 21
139.6750000989724
 31
0.0
  0
LINE
  5
288
330
66
100
AcDbEntity
  8
0
  6
Continuous
 62
     7
100
AcDbLine
 10
-149.9000002506107
 20
137.1250000989724
 30
0.0
 11
-149.5500002506095
 21
136.7750000989715
 31
0.0
  0
LINE
  5
289
330
66
100
AcDbEntity
  8
0
  6
Continuous
 62
     7
100
AcDbLine
 10
-159.4500002506137
 20
136.7750000989715
 30
0.0
 11
-159.1000002506127
 21
137.1250000989724
 31
0.0
  0
LINE
  5
28A
330
66
100
AcDbEntity
  8
0
  6
Continuous
 62
     7
100
AcDbLine
 10
-162.300000250615
 20
137.1250000989724
 30
0.0
 11
-161.9500002506166
 21
136.775000098974
 31
0.0
  0
LINE
  5
28B
330
66
100
AcDbEntity
  8
0
  6
Continuous
 62
     7
100
AcDbLine
 10
-162.300000250615
 20
139.6750000989724
 30
0.0
 11
-162.300000250615
 21
137.1250000989724
 31
0.0
  0
LINE
  5
28C
330
66
100
AcDbEntity
  8
0
  6
Continuous
 62
     7
100
AcDbLine
 10
-124.3848111996218
 20
126.5000000989434
 30
0.0
 11
-124.7500002506095
 21
129.4742262418928
 31
0.0
  0
LINE
  5
28D
330
66
100
AcDbEntity
  8
0
  6
Continuous
 62
     7
100
AcDbLine
 10
-168.1500002506137
 20
129.4742262418845
 30
0.0
 11
-167.7848111996319
 21
126.5000000989823
 31
0.0
  0
LINE
  5
28E
330
66
100
AcDbEntity
  8
0
  6
Continuous
 62
     7
100
AcDbLine
 10
-166.0151893015979
 20
126.5000000989506
 30
0.0
 11
-165.6500002506111
 21
129.4742262418928
 31
0.0
  0
LINE
  5
28F
330
66
100
AcDbEntity
  8
0
  6
Continuous
 62
     7
100
AcDbLine
 10
-161.9500002506166
 20
129.4742262418869
 30
0.0
 11
-161.5848111996336
 21
126.5000000989751
 31
0.0
  0
LINE
  5
290
330
66
100
AcDbEntity
  8
0
  6
Continuous
 62
     7
100
AcDbLine
 10
-159.450000250614
 20
129.4742262418928
 30
0.0
 11
-159.8151893016016
 21
126.5000000989434
 31
0.0
  0
LINE
  5
291
330
66
100
AcDbEntity
  8
0
  6
Continuous
 62
     7
100
AcDbLine
 10
-149.5500002506095
 20
129.4742262418928
 30
0.0
 11
-149.1848111996218
 21
126.5000000989434
 31
0.0
  0
LINE
  5
292
330
66
100
AcDbEntity
  8
0
  6
Continuous
 62
     7
100
AcDbLine
 10
-153.250000250614
 20
129.4742262418928
 30
0.0
 11
-153.6151893016016
 21
126.5000000989434
 31
0.0
  0
LINE
  5
293
330
66
100
AcDbEntity
  8
0
  6
Continuous
 62
     7
100
AcDbLine
 10
-155.7500002506095
 20
129.4742262418928
 30
0.0
 11
-155.3848111996257
 21
126.5000000989751
 31
0.0
  0
LINE
  5
294
330
66
100
AcDbEntity
  8
0
  6
Continuous
 62
     7
100
AcDbLine
 10
-143.3500002506166
 20
129.4742262418869
 30
0.0
 11
-142.9848111996336
 21
126.5000000989751
 31
0.0
  0
LINE
  5
295
330
66
100
AcDbEntity
  8
0
  6
Continuous
 62
     7
100
AcDbLine
 10
-147.4151893015899
 20
126.5000000989751
 30
0.0
 11
-147.0500002506069
 21
129.4742262418869
 31
0.0
  0
LINE
  5
296
330
66
100
AcDbEntity
  8
0
  6
Continuous
 62
     7
100
AcDbLine
 10
-161.5848111996336
 20
126.5000000989751
 30
0.0
 11
-159.8151893016016
 21
126.5000000989434
 31
0.0
  0
LINE
  5
297
330
66
100
AcDbEntity
  8
0
  6
Continuous
 62
     7
100
AcDbLine
 10
-167.7848111996319
 20
126.5000000989823
 30
0.0
 11
-166.0151893015979
 21
126.5000000989506
 31
0.0
  0
ENDBLK
  5
68
330
66
100
AcDbEntity
  8
0
100
AcDbBlockEnd
  0
BLOCK
  5
6B
330
69
100
AcDbEntity
  8
0
100
AcDbBlockBegin
  2
Vordans1
 70
     0
 10
-139.0
 20
137.8375000955374
 30
0.0
  3
Vordans1
  1

  0
INSERT
  5
6A
330
69
100
AcDbEntity
  8
0
100
AcDbBlockReference
  2
3030271_FBS_10-6_select__6
 10
-169.1500002506117
 20
126.5000000989434
 30
0.0
  0
MTEXT
  5
298
330
69
100
AcDbEntity
  8
1
 62
     6
100
AcDbMText
 10
-139.0000000000001
 20
121.50000000017
 30
0.0
 40
5.0
 41
0.0
 71
     2
 72
     1
  1
 
  7
CONVERTER_11
 73
     1
 44
1.32052821128451
  0
DIMENSION
  5
2A3
330
69
100
AcDbEntity
  8
1
100
AcDbDimension
  2
*D18
 10
-98.8500002506117
 20
149.1750000989724
 30
0.0
 11
-102.7750002506117
 21
137.757340070612
 31
0.0
 70
    32
  1
<>
 71
     5
 42
-1.0
 53
90.0
  3
ME10_DIM_12
100
AcDbAlignedDimension
 13
-110.2151893015916
 23
126.5000000989823
 33
0.0
 14
-108.8500002506117
 24
149.1750000989724
 34
0.0
 50
90.0
100
AcDbRotatedDimension
  0
DIMENSION
  5
2AE
330
69
100
AcDbEntity
  8
1
100
AcDbDimension
  2
*D19
 10
-179.1500002506117
 20
135.5750000989724
 30
0.0
 11
-183.0750002506117
 21
142.355065533309
 31
0.0
 70
    32
  1
<>
 71
     5
 42
-1.0
 53
90.0
  3
ME10_DIM_13
100
AcDbAlignedDimension
 13
-169.1500002506117
 23
149.1750000989724
 33
0.0
 14
-169.1500002506117
 24
135.5750000989724
 34
0.0
 50
90.0
100
AcDbRotatedDimension
  0
DIMENSION
  5
2B9
330
69
100
AcDbEntity
  8
1
100
AcDbDimension
  2
*D20
 10
-108.8500002506117
 20
159.1750000989724
 30
0.0
 11
-139.0000002506117
 21
163.1000000989724
 31
0.0
 70
    32
  1
<>
 71
     5
 42
-1.0
 53
0.00013888888889
  3
ME10_DIM_14
100
AcDbAlignedDimension
 13
-169.1500002506117
 23
149.1750000989724
 33
0.0
 14
-108.8500002506117
 24
149.1750000989724
 34
0.0
100
AcDbRotatedDimension
  0
ENDBLK
  5
6C
330
69
100
AcDbEntity
  8
0
100
AcDbBlockEnd
  0
BLOCK
  5
6E
330
6D
100
AcDbEntity
  8
0
100
AcDbBlockBegin
  2
_rahmen
 70
     0
 10
47.9623302529381
 20
2.28207210725108
 30
0.0
  3
_rahmen
  1

  0
POINT
  5
2BA
330
6D
100
AcDbEntity
  8
1
 62
     3
 60
     1
100
AcDbPoint
 10
-15.53766974705952
 20
28.53207210725106
 30
0.0
  0
LINE
  5
2BB
330
6D
100
AcDbEntity
  8
1
  6
Continuous
 62
     7
100
AcDbLine
 10
-15.53766974705952
 20
24.28207210725108
 30
0.0
 11
-15.53766974705952
 21
28.53207210725106
 31
0.0
  0
LINE
  5
2BC
330
6D
100
AcDbEntity
  8
1
  6
Continuous
 62
     6
100
AcDbLine
 10
-95.53766974706191
 20
7.28207210725119
 30
0.0
 11
-95.08247427381191
 21
7.28207210725108
 31
0.0
  0
LINE
  5
2BD
330
6D
100
AcDbEntity
  8
1
  6
Continuous
 62
     6
100
AcDbLine
 10
-145.537669747062
 20
7.28207210725119
 30
0.0
 11
-184.337669747062
 21
7.28207210725119
 31
0.0
  0
LINE
  5
2BE
330
6D
100
AcDbEntity
  8
1
  6
Continuous
 62
     6
100
AcDbLine
 10
-195.5376697470619
 20
7.28207210725119
 30
0.0
 11
-184.337669747062
 21
7.28207210725119
 31
0.0
  0
LINE
  5
2BF
330
6D
100
AcDbEntity
  8
1
  6
Continuous
 62
     6
100
AcDbLine
 10
4.46233025293811
 20
7.28207210725119
 30
0.0
 11
47.9623302529381
 21
7.28207210725119
 31
0.0
  0
LINE
  5
2C0
330
6D
100
AcDbEntity
  8
1
  6
Continuous
 62
     6
100
AcDbLine
 10
-45.5376697470619
 20
7.28207210725119
 30
0.0
 11
-63.38247427381194
 21
7.28207210725119
 31
0.0
  0
LINE
  5
2C1
330
6D
100
AcDbEntity
  8
1
  6
PHANTOM
 62
     2
100
AcDbLine
 10
-73.46321105901154
 20
22.15707210725108
 30
0.0
 11
-69.14761608982253
 21
22.15707210725108
 31
0.0
  0
LINE
  5
2C2
330
6D
100
AcDbEntity
  8
1
  6
PHANTOM
 62
     2
100
AcDbLine
 10
-76.49021444870854
 20
23.80707210725111
 30
0.0
 11
-76.49021444870854
 21
20.5070721072511
 31
0.0
  0
LINE
  5
2C3
330
6D
100
AcDbEntity
  8
1
  6
PHANTOM
 62
     2
100
AcDbLine
 10
-74.84021444870854
 20
22.15707210725108
 30
0.0
 11
-78.14021444870853
 21
22.15707210725108
 31
0.0
  0
LINE
  5
2C4
330
6D
100
AcDbEntity
  8
1
  6
Continuous
 62
     2
100
AcDbLine
 10
47.9623302529381
 20
7.28207210725119
 30
0.0
 11
52.96233025293711
 21
7.28207210725119
 31
0.0
  0
LINE
  5
2C5
330
6D
100
AcDbEntity
  8
1
  6
Continuous
 62
     2
100
AcDbLine
 10
47.9623302529381
 20
7.28207210725119
 30
0.0
 11
47.9623302529381
 21
2.28207210725108
 31
0.0
  0
LINE
  5
2C6
330
6D
100
AcDbEntity
  8
1
  6
Continuous
 62
     7
100
AcDbLine
 10
-45.18247427381191
 20
20.03207210725108
 30
0.0
 11
-45.18247427381191
 21
24.28207210725108
 31
0.0
  0
LINE
  5
2C7
330
6D
100
AcDbEntity
  8
1
  6
Continuous
 62
     7
100
AcDbLine
 10
-81.58247427381181
 20
20.03207210725108
 30
0.0
 11
-45.18247427381191
 21
20.03207210725108
 31
0.0
  0
LINE
  5
2C8
330
6D
100
AcDbEntity
  8
1
  6
Continuous
 62
     2
100
AcDbLine
 10
52.96233025293711
 20
2.28207210725108
 30
0.0
 11
52.96233025293711
 21
7.28207210725119
 31
0.0
  0
LINE
  5
2C9
330
6D
100
AcDbEntity
  8
1
  6
Continuous
 62
     2
100
AcDbLine
 10
52.96233025293711
 20
2.28207210725108
 30
0.0
 11
47.9623302529381
 21
2.28207210725108
 31
0.0
  0
LINE
  5
2CA
330
6D
100
AcDbEntity
  8
1
  6
Continuous
 62
     2
100
AcDbLine
 10
47.9623302529381
 20
2.28207210725108
 30
0.0
 11
4.46233025293811
 21
2.28207210725108
 31
0.0
  0
LINE
  5
2CB
330
6D
100
AcDbEntity
  8
1
  6
Continuous
 62
     6
100
AcDbLine
 10
47.96233025293981
 20
37.03207210725108
 30
0.0
 11
47.96233025293901
 21
57.28207210725119
 31
0.0
  0
LINE
  5
2CC
330
6D
100
AcDbEntity
  8
1
  6
Continuous
 62
     2
100
AcDbLine
 10
52.96233025293711
 20
212.2820721072511
 30
0.0
 11
-95.53766974706191
 21
212.2820721072511
 31
0.0
  0
LINE
  5
2CD
330
6D
100
AcDbEntity
  8
1
  6
Continuous
 62
     6
100
AcDbLine
 10
47.96233025293711
 20
192.2820721072511
 30
0.0
 11
-239.037669747061
 21
192.2820721072511
 31
0.0
  0
LINE
  5
2CE
330
6D
100
AcDbEntity
  8
1
  6
Continuous
 62
     2
100
AcDbLine
 10
47.96233025293901
 20
57.28207210725119
 30
0.0
 11
52.96233025293711
 21
57.28207210725119
 31
0.0
  0
LINE
  5
2CF
330
6D
100
AcDbEntity
  8
1
  6
Continuous
 62
     6
100
AcDbLine
 10
47.96233025293901
 20
57.28207210725119
 30
0.0
 11
47.9623302529385
 21
107.282072107251
 31
0.0
  0
LINE
  5
2D0
330
6D
100
AcDbEntity
  8
1
  6
Continuous
 62
     2
100
AcDbLine
 10
52.96233025293711
 20
57.28207210725119
 30
0.0
 11
52.96233025293711
 21
107.282072107251
 31
0.0
  0
LINE
  5
2D1
330
6D
100
AcDbEntity
  8
1
  6
Continuous
 62
     2
100
AcDbLine
 10
47.9623302529385
 20
107.282072107251
 30
0.0
 11
52.96233025293711
 21
107.282072107251
 31
0.0
  0
LINE
  5
2D2
330
6D
100
AcDbEntity
  8
1
  6
Continuous
 62
     6
100
AcDbLine
 10
47.9623302529385
 20
107.282072107251
 30
0.0
 11
47.96233025293739
 21
157.2820721072511
 31
0.0
  0
LINE
  5
2D3
330
6D
100
AcDbEntity
  8
1
  6
Continuous
 62
     2
100
AcDbLine
 10
52.96233025293711
 20
107.282072107251
 30
0.0
 11
52.96233025293711
 21
157.2820721072511
 31
0.0
  0
LINE
  5
2D4
330
6D
100
AcDbEntity
  8
1
  6
Continuous
 62
     2
100
AcDbLine
 10
47.96233025293739
 20
157.2820721072511
 30
0.0
 11
52.96233025293711
 21
157.2820721072511
 31
0.0
  0
LINE
  5
2D5
330
6D
100
AcDbEntity
  8
1
  6
Continuous
 62
     6
100
AcDbLine
 10
47.96233025293739
 20
157.2820721072511
 30
0.0
 11
47.96233025293711
 21
192.2820721072511
 31
0.0
  0
LINE
  5
2D6
330
6D
100
AcDbEntity
  8
1
  6
Continuous
 62
     2
100
AcDbLine
 10
52.96233025293711
 20
157.2820721072511
 30
0.0
 11
52.96233025293711
 21
212.2820721072511
 31
0.0
  0
LINE
  5
2D7
330
6D
100
AcDbEntity
  8
1
  6
Continuous
 62
     2
100
AcDbLine
 10
52.96233025293711
 20
7.28207210725119
 30
0.0
 11
52.96233025293711
 21
57.28207210725119
 31
0.0
  0
LINE
  5
2D8
330
6D
100
AcDbEntity
  8
1
  6
Continuous
 62
     2
100
AcDbLine
 10
-95.53766974706191
 20
212.2820721072511
 30
0.0
 11
-244.037669747061
 21
212.2820721072511
 31
0.0
  0
LINE
  5
2D9
330
6D
100
AcDbEntity
  8
1
  6
Continuous
 62
     2
100
AcDbLine
 10
-95.53766974706191
 20
212.2820721072511
 30
0.0
 11
-95.53766974706191
 21
203.0733802625498
 31
0.0
  0
LINE
  5
2DA
330
6D
100
AcDbEntity
  8
1
  6
Continuous
 62
     2
100
AcDbLine
 10
-244.037669747061
 20
2.28207210725108
 30
0.0
 11
-239.0376697470599
 21
2.28207210725108
 31
0.0
  0
LINE
  5
2DB
330
6D
100
AcDbEntity
  8
1
  6
Continuous
 62
     2
100
AcDbLine
 10
-244.037669747061
 20
212.2820721072511
 30
0.0
 11
-244.037669747061
 21
157.2820721072511
 31
0.0
  0
LINE
  5
2DC
330
6D
100
AcDbEntity
  8
1
  6
Continuous
 62
     6
100
AcDbLine
 10
-239.037669747061
 20
192.2820721072511
 30
0.0
 11
-239.0376697470608
 21
157.2820721072511
 31
0.0
  0
LINE
  5
2DD
330
6D
100
AcDbEntity
  8
1
  6
Continuous
 62
     2
100
AcDbLine
 10
-244.037669747061
 20
157.2820721072511
 30
0.0
 11
-239.0376697470608
 21
157.2820721072511
 31
0.0
  0
LINE
  5
2DE
330
6D
100
AcDbEntity
  8
1
  6
Continuous
 62
     2
100
AcDbLine
 10
-244.037669747061
 20
157.2820721072511
 30
0.0
 11
-244.037669747061
 21
107.282072107251
 31
0.0
  0
LINE
  5
2DF
330
6D
100
AcDbEntity
  8
1
  6
Continuous
 62
     6
100
AcDbLine
 10
-239.0376697470608
 20
157.2820721072511
 30
0.0
 11
-239.0376697470604
 21
107.282072107251
 31
0.0
  0
LINE
  5
2E0
330
6D
100
AcDbEntity
  8
1
  6
Continuous
 62
     2
100
AcDbLine
 10
-244.037669747061
 20
107.282072107251
 30
0.0
 11
-239.0376697470604
 21
107.282072107251
 31
0.0
  0
LINE
  5
2E1
330
6D
100
AcDbEntity
  8
1
  6
Continuous
 62
     2
100
AcDbLine
 10
-244.037669747061
 20
107.282072107251
 30
0.0
 11
-244.037669747061
 21
57.28207210725119
 31
0.0
  0
LINE
  5
2E2
330
6D
100
AcDbEntity
  8
1
  6
Continuous
 62
     6
100
AcDbLine
 10
-239.0376697470604
 20
107.282072107251
 30
0.0
 11
-239.0376697470601
 21
57.28207210725119
 31
0.0
  0
LINE
  5
2E3
330
6D
100
AcDbEntity
  8
1
  6
Continuous
 62
     2
100
AcDbLine
 10
-244.037669747061
 20
57.28207210725119
 30
0.0
 11
-239.0376697470601
 21
57.28207210725119
 31
0.0
  0
LINE
  5
2E4
330
6D
100
AcDbEntity
  8
1
  6
Continuous
 62
     2
100
AcDbLine
 10
-244.037669747061
 20
57.28207210725119
 30
0.0
 11
-244.037669747061
 21
7.28207210725119
 31
0.0
  0
LINE
  5
2E5
330
6D
100
AcDbEntity
  8
1
  6
Continuous
 62
     6
100
AcDbLine
 10
-239.0376697470601
 20
57.28207210725119
 30
0.0
 11
-239.0376697470599
 21
7.28207210725119
 31
0.0
  0
LINE
  5
2E6
330
6D
100
AcDbEntity
  8
1
  6
Continuous
 62
     2
100
AcDbLine
 10
-195.5376697470619
 20
2.28207210725108
 30
0.0
 11
-195.5376697470619
 21
7.28207210725119
 31
0.0
  0
LINE
  5
2E7
330
6D
100
AcDbEntity
  8
1
  6
Continuous
 62
     2
100
AcDbLine
 10
-195.5376697470619
 20
2.28207210725108
 30
0.0
 11
-145.537669747062
 21
2.28207210725108
 31
0.0
  0
LINE
  5
2E8
330
6D
100
AcDbEntity
  8
1
  6
Continuous
 62
     2
100
AcDbLine
 10
-145.537669747062
 20
2.28207210725108
 30
0.0
 11
-145.537669747062
 21
7.28207210725119
 31
0.0
  0
LINE
  5
2E9
330
6D
100
AcDbEntity
  8
1
  6
Continuous
 62
     2
100
AcDbLine
 10
-145.537669747062
 20
2.28207210725108
 30
0.0
 11
-95.53766974706191
 21
2.28207210725108
 31
0.0
  0
LINE
  5
2EA
330
6D
100
AcDbEntity
  8
1
  6
Continuous
 62
     2
100
AcDbLine
 10
-95.53766974706191
 20
2.28207210725108
 30
0.0
 11
-95.53766974706191
 21
7.28207210725119
 31
0.0
  0
LINE
  5
2EB
330
6D
100
AcDbEntity
  8
1
  6
Continuous
 62
     2
100
AcDbLine
 10
-95.53766974706191
 20
2.28207210725108
 30
0.0
 11
-45.5376697470619
 21
2.28207210725108
 31
0.0
  0
LINE
  5
2EC
330
6D
100
AcDbEntity
  8
1
  6
Continuous
 62
     2
100
AcDbLine
 10
-45.5376697470619
 20
2.28207210725108
 30
0.0
 11
-45.5376697470619
 21
7.28207210725119
 31
0.0
  0
LINE
  5
2ED
330
6D
100
AcDbEntity
  8
1
  6
Continuous
 62
     2
100
AcDbLine
 10
4.46233025293811
 20
2.28207210725108
 30
0.0
 11
4.46233025293811
 21
7.28207210725119
 31
0.0
  0
LINE
  5
2EE
330
6D
100
AcDbEntity
  8
1
  6
Continuous
 62
     2
100
AcDbLine
 10
4.46233025293811
 20
2.28207210725108
 30
0.0
 11
-45.5376697470619
 21
2.28207210725108
 31
0.0
  0
LINE
  5
2EF
330
6D
100
AcDbEntity
  8
1
  6
Continuous
 62
     2
100
AcDbLine
 10
-239.0376697470599
 20
7.28207210725119
 30
0.0
 11
-239.0376697470599
 21
2.28207210725108
 31
0.0
  0
LINE
  5
2F0
330
6D
100
AcDbEntity
  8
1
  6
Continuous
 62
     2
100
AcDbLine
 10
-239.0376697470599
 20
2.28207210725108
 30
0.0
 11
-195.5376697470619
 21
2.28207210725108
 31
0.0
  0
LINE
  5
2F1
330
6D
100
AcDbEntity
  8
1
  6
Continuous
 62
     2
100
AcDbLine
 10
-239.0376697470599
 20
7.28207210725119
 30
0.0
 11
-244.037669747061
 21
7.28207210725119
 31
0.0
  0
LINE
  5
2F2
330
6D
100
AcDbEntity
  8
1
  6
Continuous
 62
     2
100
AcDbLine
 10
-244.037669747061
 20
7.28207210725119
 30
0.0
 11
-244.037669747061
 21
2.28207210725108
 31
0.0
  0
LINE
  5
2F3
330
6D
100
AcDbEntity
  8
1
  6
Continuous
 62
     7
100
AcDbLine
 10
-184.337669747062
 20
11.53207210725119
 30
0.0
 11
-122.0824742738118
 21
11.53207210725119
 31
0.0
  0
LINE
  5
2F4
330
6D
100
AcDbEntity
  8
1
  6
Continuous
 62
     2
100
AcDbLine
 10
-184.337669747062
 20
11.53207210725119
 30
0.0
 11
-184.337669747062
 21
7.28207210725119
 31
0.0
  0
LINE
  5
2F5
330
6D
100
AcDbEntity
  8
1
  6
Continuous
 62
     2
100
AcDbLine
 10
-184.337669747062
 20
15.78207210725108
 30
0.0
 11
-197.837669747062
 21
15.78207210725108
 31
0.0
  0
LINE
  5
2F6
330
6D
100
AcDbEntity
  8
1
  6
Continuous
 62
     2
100
AcDbLine
 10
-184.337669747062
 20
15.78207210725108
 30
0.0
 11
-184.337669747062
 21
11.53207210725119
 31
0.0
  0
LINE
  5
2F7
330
6D
100
AcDbEntity
  8
1
  6
Continuous
 62
     2
100
AcDbLine
 10
-184.337669747062
 20
24.28207210725108
 30
0.0
 11
-197.837669747062
 21
24.28207210725108
 31
0.0
  0
LINE
  5
2F8
330
6D
100
AcDbEntity
  8
1
  6
Continuous
 62
     2
100
AcDbLine
 10
-184.337669747062
 20
24.28207210725108
 30
0.0
 11
-184.337669747062
 21
20.03207210725108
 31
0.0
  0
LINE
  5
2F9
330
6D
100
AcDbEntity
  8
1
  6
Continuous
 62
     2
100
AcDbLine
 10
-184.337669747062
 20
20.03207210725108
 30
0.0
 11
-197.837669747062
 21
20.03207210725108
 31
0.0
  0
LINE
  5
2FA
330
6D
100
AcDbEntity
  8
1
  6
Continuous
 62
     2
100
AcDbLine
 10
-184.337669747062
 20
20.03207210725108
 30
0.0
 11
-184.337669747062
 21
15.78207210725108
 31
0.0
  0
LINE
  5
2FB
330
6D
100
AcDbEntity
  8
1
  6
Continuous
 62
     2
100
AcDbLine
 10
-184.337669747062
 20
32.78207210725108
 30
0.0
 11
-197.837669747062
 21
32.78207210725108
 31
0.0
  0
LINE
  5
2FC
330
6D
100
AcDbEntity
  8
1
  6
Continuous
 62
     2
100
AcDbLine
 10
-184.337669747062
 20
28.53207210725108
 30
0.0
 11
-197.837669747062
 21
28.53207210725108
 31
0.0
  0
LINE
  5
2FD
330
6D
100
AcDbEntity
  8
1
  6
Continuous
 62
     2
100
AcDbLine
 10
-184.337669747062
 20
28.53207210725108
 30
0.0
 11
-184.337669747062
 21
24.28207210725108
 31
0.0
  0
LINE
  5
2FE
330
6D
100
AcDbEntity
  8
1
  6
Continuous
 62
     2
100
AcDbLine
 10
-184.337669747062
 20
32.78207210725108
 30
0.0
 11
-184.337669747062
 21
28.53207210725108
 31
0.0
  0
LINE
  5
2FF
330
6D
100
AcDbEntity
  8
1
  6
Continuous
 62
     6
100
AcDbLine
 10
-184.337669747062
 20
37.03207210725108
 30
0.0
 11
-197.837669747062
 21
37.03207210725108
 31
0.0
  0
LINE
  5
300
330
6D
100
AcDbEntity
  8
1
  6
Continuous
 62
     2
100
AcDbLine
 10
-184.337669747062
 20
37.03207210725108
 30
0.0
 11
-184.337669747062
 21
32.78207210725108
 31
0.0
  0
LINE
  5
301
330
6D
100
AcDbEntity
  8
1
  6
Continuous
 62
     6
100
AcDbLine
 10
47.9623302529381
 20
7.28207210725119
 30
0.0
 11
47.96233025293941
 21
15.78207210725108
 31
0.0
  0
LINE
  5
302
330
6D
100
AcDbEntity
  8
1
  6
Continuous
 62
     6
100
AcDbLine
 10
47.9623302529389
 20
28.53207210725108
 30
0.0
 11
47.96233025293989
 21
24.28207210725108
 31
0.0
  0
LINE
  5
303
330
6D
100
AcDbEntity
  8
1
  6
Continuous
 62
     6
100
AcDbLine
 10
-45.18247427381191
 20
7.28207210725108
 30
0.0
 11
4.46233025293811
 21
7.28207210725119
 31
0.0
  0
LINE
  5
304
330
6D
100
AcDbEntity
  8
1
  6
Continuous
 62
     6
100
AcDbLine
 10
-81.58247427381181
 20
7.28207210725108
 30
0.0
 11
-63.38247427381194
 21
7.28207210725119
 31
0.0
  0
LINE
  5
305
330
6D
100
AcDbEntity
  8
1
  6
Continuous
 62
     6
100
AcDbLine
 10
-197.837669747062
 20
7.28207210725108
 30
0.0
 11
-195.5376697470619
 21
7.28207210725119
 31
0.0
  0
LINE
  5
306
330
6D
100
AcDbEntity
  8
1
  6
Continuous
 62
     6
100
AcDbLine
 10
-122.0824742738118
 20
7.28207210725108
 30
0.0
 11
-145.537669747062
 21
7.28207210725119
 31
0.0
  0
LINE
  5
307
330
6D
100
AcDbEntity
  8
1
  6
Continuous
 62
     6
100
AcDbLine
 10
47.96233025293981
 20
37.03207210725108
 30
0.0
 11
30.080738534619
 21
37.03207210725108
 31
0.0
  0
LINE
  5
308
330
6D
100
AcDbEntity
  8
1
  6
Continuous
 62
     7
100
AcDbLine
 10
47.96233025293941
 20
15.78207210725108
 30
0.0
 11
2.9623302529401
 21
15.78207210725108
 31
0.0
  0
LINE
  5
309
330
6D
100
AcDbEntity
  8
1
  6
Continuous
 62
     7
100
AcDbLine
 10
47.9623302529389
 20
28.53207210725108
 30
0.0
 11
30.080738534619
 21
28.53207210725108
 31
0.0
  0
LINE
  5
30A
330
6D
100
AcDbEntity
  8
1
  6
Continuous
 62
     7
100
AcDbLine
 10
2.9623302529401
 20
24.28207210725108
 30
0.0
 11
47.96233025293989
 21
24.28207210725108
 31
0.0
  0
LINE
  5
30B
330
6D
100
AcDbEntity
  8
1
  6
Continuous
 62
     2
100
AcDbLine
 10
-53.66546747109183
 20
14.90077959024981
 30
0.0
 11
-54.45225027957565
 21
14.90077959024981
 31
0.0
  0
LINE
  5
30C
330
6D
100
AcDbEntity
  8
1
  6
Continuous
 62
     2
100
AcDbLine
 10
-53.66546747109183
 20
14.90077959024981
 30
0.0
 11
-53.66546747109183
 21
13.13207210725702
 31
0.0
  0
LINE
  5
30D
330
6D
100
AcDbEntity
  8
1
  6
Continuous
 62
     2
100
AcDbLine
 10
-53.66546747109183
 20
13.13207210725702
 30
0.0
 11
-52.81512733503774
 21
13.13207210725702
 31
0.0
  0
LINE
  5
30E
330
6D
100
AcDbEntity
  8
1
  6
Continuous
 62
     2
100
AcDbLine
 10
-52.81512733503774
 20
13.13207210725702
 30
0.0
 11
-52.81512733503774
 21
14.90077959024981
 31
0.0
  0
LINE
  5
30F
330
6D
100
AcDbEntity
  8
1
  6
Continuous
 62
     2
100
AcDbLine
 10
-52.81512733503774
 20
14.90077959024981
 30
0.0
 11
-52.23689604252073
 21
14.90077959024981
 31
0.0
  0
LINE
  5
310
330
6D
100
AcDbEntity
  8
1
  6
Continuous
 62
     2
100
AcDbLine
 10
-52.23689604252073
 20
14.90077959024981
 30
0.0
 11
-52.23689604252073
 21
15.51302448821113
 31
0.0
  0
LINE
  5
311
330
6D
100
AcDbEntity
  8
1
  6
Continuous
 62
     2
100
AcDbLine
 10
-52.23689604252073
 20
15.51302448821113
 30
0.0
 11
-54.58384969745353
 21
15.51302448821113
 31
0.0
  0
LINE
  5
312
330
6D
100
AcDbEntity
  8
1
  6
Continuous
 62
     2
100
AcDbLine
 10
-54.62028352114675
 20
15.51299340471539
 30
0.0
 11
-54.58384969745353
 21
15.51302448821113
 31
0.0
  0
LINE
  5
313
330
6D
100
AcDbEntity
  8
1
  6
Continuous
 62
     2
100
AcDbLine
 10
-54.00356270918655
 20
13.88789652258029
 30
0.0
 11
-54.00356270918655
 21
13.24182301518428
 31
0.0
  0
LINE
  5
314
102
{ACAD_REACTORS
330
48B
330
48B
102
}
330
6D
100
AcDbEntity
  8
1
  6
Continuous
 62
     2
100
AcDbLine
 10
-53.73349468197503
 20
17.90203677155378
 30
0.0
 11
-53.30492325340435
 21
18.4320721072452
 31
0.0
  0
LINE
  5
315
102
{ACAD_REACTORS
330
48B
330
48B
102
}
330
6D
100
AcDbEntity
  8
1
  6
Continuous
 62
     2
100
AcDbLine
 10
-54.16206611054733
 20
18.4320721072452
 30
0.0
 11
-53.73349468197503
 21
17.90203677155378
 31
0.0
  0
LINE
  5
316
102
{ACAD_REACTORS
330
48B
330
48B
102
}
330
6D
100
AcDbEntity
  8
1
  6
Continuous
 62
     2
100
AcDbLine
 10
-54.16206611054733
 20
18.4320721072452
 30
0.0
 11
-55.16206611054733
 21
18.4320721072452
 31
0.0
  0
LINE
  5
317
102
{ACAD_REACTORS
330
48B
330
48B
102
}
330
6D
100
AcDbEntity
  8
1
  6
Continuous
 62
     2
100
AcDbLine
 10
-55.16206611054733
 20
18.4320721072452
 30
0.0
 11
-54.23349468197583
 21
17.28366221325072
 31
0.0
  0
LINE
  5
318
102
{ACAD_REACTORS
330
48B
330
48B
102
}
330
6D
100
AcDbEntity
  8
1
  6
Continuous
 62
     2
100
AcDbLine
 10
-55.23009332143175
 20
16.0511197262912
 30
0.0
 11
-54.23349468197583
 21
17.28366221325072
 31
0.0
  0
LINE
  5
319
102
{ACAD_REACTORS
330
48B
330
48B
102
}
330
6D
100
AcDbEntity
  8
1
  6
Continuous
 62
     2
100
AcDbLine
 10
-54.23009332143175
 20
16.0511197262912
 30
0.0
 11
-55.23009332143175
 21
16.0511197262912
 31
0.0
  0
LINE
  5
31A
102
{ACAD_REACTORS
330
48B
330
48B
102
}
330
6D
100
AcDbEntity
  8
1
  6
Continuous
 62
     2
100
AcDbLine
 10
-54.23009332143175
 20
16.0511197262912
 30
0.0
 11
-53.73349468197503
 21
16.66528765494783
 31
0.0
  0
LINE
  5
31B
102
{ACAD_REACTORS
330
48B
330
48B
102
}
330
6D
100
AcDbEntity
  8
1
  6
Continuous
 62
     2
100
AcDbLine
 10
-53.73349468197503
 20
16.66528765494783
 30
0.0
 11
-53.23689604252033
 21
16.0511197262912
 31
0.0
  0
LINE
  5
31C
102
{ACAD_REACTORS
330
48B
330
48B
102
}
330
6D
100
AcDbEntity
  8
1
  6
Continuous
 62
     2
100
AcDbLine
 10
-53.23689604252033
 20
16.0511197262912
 30
0.0
 11
-52.23689604252033
 21
16.0511197262912
 31
0.0
  0
LINE
  5
31D
102
{ACAD_REACTORS
330
48B
330
48B
102
}
330
6D
100
AcDbEntity
  8
1
  6
Continuous
 62
     2
100
AcDbLine
 10
-53.23349468197583
 20
17.28366221325072
 30
0.0
 11
-52.23689604252033
 21
16.0511197262912
 31
0.0
  0
LINE
  5
31E
102
{ACAD_REACTORS
330
48B
330
48B
102
}
330
6D
100
AcDbEntity
  8
1
  6
Continuous
 62
     2
100
AcDbLine
 10
-53.23349468197583
 20
17.28366221325072
 30
0.0
 11
-52.30492325340435
 21
18.4320721072452
 31
0.0
  0
LINE
  5
31F
102
{ACAD_REACTORS
330
48B
330
48B
102
}
330
6D
100
AcDbEntity
  8
1
  6
Continuous
 62
     2
100
AcDbLine
 10
-53.30492325340435
 20
18.4320721072452
 30
0.0
 11
-52.30492325340435
 21
18.4320721072452
 31
0.0
  0
LINE
  5
320
102
{ACAD_REACTORS
330
48F
330
48F
102
}
330
6D
100
AcDbEntity
  8
1
  6
Continuous
 62
     2
100
AcDbLine
 10
-56.49948107653373
 20
18.4320721072452
 30
0.0
 11
-55.61512733503633
 21
18.4320721072452
 31
0.0
  0
LINE
  5
321
102
{ACAD_REACTORS
330
48F
330
48F
102
}
330
6D
100
AcDbEntity
  8
1
  6
Continuous
 62
     2
100
AcDbLine
 10
-55.61512733503633
 20
16.0511197262912
 30
0.0
 11
-56.49948107653373
 21
16.0511197262912
 31
0.0
  0
LINE
  5
322
102
{ACAD_REACTORS
330
48F
330
48F
102
}
330
6D
100
AcDbEntity
  8
1
  6
Continuous
 62
     2
100
AcDbLine
 10
-55.61512733503633
 20
18.4320721072452
 30
0.0
 11
-55.61512733503633
 21
16.0511197262912
 31
0.0
  0
LINE
  5
323
330
6D
100
AcDbEntity
  8
1
  6
Continuous
 62
     7
100
AcDbLine
 10
-45.18247427381191
 20
32.78207210725108
 30
0.0
 11
-45.18247427381191
 21
28.53207210725108
 31
0.0
  0
LINE
  5
324
330
6D
100
AcDbEntity
  8
1
  6
Continuous
 62
     7
100
AcDbLine
 10
-58.68247427381193
 20
32.78207210725108
 30
0.0
 11
-45.18247427381191
 21
32.78207210725108
 31
0.0
  0
LINE
  5
325
330
6D
100
AcDbEntity
  8
1
  6
Continuous
 62
     7
100
AcDbLine
 10
-58.68247427381193
 20
32.78207210725108
 30
0.0
 11
-72.18247427381183
 21
32.78207210725108
 31
0.0
  0
LINE
  5
326
330
6D
100
AcDbEntity
  8
1
  6
Continuous
 62
     7
100
AcDbLine
 10
30.080738534619
 20
28.53207210725108
 30
0.0
 11
30.080738534619
 21
37.03207210725108
 31
0.0
  0
LINE
  5
327
330
6D
100
AcDbEntity
  8
1
  6
Continuous
 62
     6
100
AcDbLine
 10
21.1623302529398
 20
37.03207210725108
 30
0.0
 11
30.080738534619
 21
37.03207210725108
 31
0.0
  0
LINE
  5
328
330
6D
100
AcDbEntity
  8
1
  6
Continuous
 62
     7
100
AcDbLine
 10
21.1623302529398
 20
37.03207210725108
 30
0.0
 11
21.16233025294011
 21
28.53207210725119
 31
0.0
  0
LINE
  5
329
330
6D
100
AcDbEntity
  8
1
  6
Continuous
 62
     7
100
AcDbLine
 10
2.9623302529401
 20
15.78207210725108
 30
0.0
 11
-15.53766974705952
 21
15.78207210725108
 31
0.0
  0
LINE
  5
32A
330
6D
100
AcDbEntity
  8
1
  6
Continuous
 62
     7
100
AcDbLine
 10
2.9623302529401
 20
24.28207210725108
 30
0.0
 11
2.9623302529401
 21
15.78207210725108
 31
0.0
  0
LINE
  5
32B
330
6D
100
AcDbEntity
  8
1
  6
Continuous
 62
     2
100
AcDbLine
 10
-95.08247427381191
 20
37.03207210725108
 30
0.0
 11
-95.08247427381191
 21
32.78207210725108
 31
0.0
  0
LINE
  5
32C
330
6D
100
AcDbEntity
  8
1
  6
Continuous
 62
     2
100
AcDbLine
 10
-108.5824742738118
 20
37.03207210725108
 30
0.0
 11
-108.5824742738118
 21
32.78207210725108
 31
0.0
  0
LINE
  5
32D
330
6D
100
AcDbEntity
  8
1
  6
Continuous
 62
     6
100
AcDbLine
 10
-95.08247427381191
 20
37.03207210725108
 30
0.0
 11
-108.5824742738118
 21
37.03207210725108
 31
0.0
  0
LINE
  5
32E
330
6D
100
AcDbEntity
  8
1
  6
Continuous
 62
     6
100
AcDbLine
 10
-108.5824742738118
 20
37.03207210725108
 30
0.0
 11
-122.0824742738118
 21
37.03207210725108
 31
0.0
  0
LINE
  5
32F
330
6D
100
AcDbEntity
  8
1
  6
Continuous
 62
     2
100
AcDbLine
 10
-122.0824742738118
 20
37.03207210725108
 30
0.0
 11
-122.0824742738118
 21
32.78207210725108
 31
0.0
  0
LINE
  5
330
330
6D
100
AcDbEntity
  8
1
  6
Continuous
 62
     7
100
AcDbLine
 10
-63.38247427381194
 20
11.53207210725119
 30
0.0
 11
-63.38247427381194
 21
7.28207210725119
 31
0.0
  0
LINE
  5
331
330
6D
100
AcDbEntity
  8
1
  6
Continuous
 62
     7
100
AcDbLine
 10
-63.38247427381194
 20
11.53207210725119
 30
0.0
 11
-81.58247427381181
 21
11.53207210725119
 31
0.0
  0
LINE
  5
332
330
6D
100
AcDbEntity
  8
1
  6
Continuous
 62
     7
100
AcDbLine
 10
-58.68247427381193
 20
24.28207210725108
 30
0.0
 11
-72.18247427381183
 21
24.28207210725119
 31
0.0
  0
LINE
  5
333
330
6D
100
AcDbEntity
  8
1
  6
Continuous
 62
     7
100
AcDbLine
 10
-45.18247427381191
 20
11.53207210725119
 30
0.0
 11
-63.38247427381194
 21
11.53207210725119
 31
0.0
  0
LINE
  5
334
330
6D
100
AcDbEntity
  8
1
  6
Continuous
 62
     6
100
AcDbLine
 10
-45.18247427381191
 20
37.03207210725108
 30
0.0
 11
-22.28247427381189
 21
37.03207210725108
 31
0.0
  0
LINE
  5
335
330
6D
100
AcDbEntity
  8
1
  6
Continuous
 62
     6
100
AcDbLine
 10
21.1623302529398
 20
37.03207210725108
 30
0.0
 11
-22.28247427381189
 21
37.03207210725108
 31
0.0
  0
LINE
  5
336
330
6D
100
AcDbEntity
  8
1
  6
Continuous
 62
     7
100
AcDbLine
 10
-22.28247427381189
 20
37.03207210725108
 30
0.0
 11
-22.28247427381189
 21
28.53207210725102
 31
0.0
  0
LINE
  5
337
330
6D
100
AcDbEntity
  8
1
  6
Continuous
 62
     6
100
AcDbLine
 10
-197.837669747062
 20
37.03207210725108
 30
0.0
 11
-204.03766974706
 21
37.03207210725108
 31
0.0
  0
LINE
  5
338
330
6D
100
AcDbEntity
  8
1
  6
Continuous
 62
     6
100
AcDbLine
 10
-204.03766974706
 20
7.28207210725119
 30
0.0
 11
-204.03766974706
 21
11.53207210725119
 31
0.0
  0
LINE
  5
339
330
6D
100
AcDbEntity
  8
1
  6
Continuous
 62
     6
100
AcDbLine
 10
-204.03766974706
 20
11.53207210725119
 30
0.0
 11
-204.03766974706
 21
15.78207210725108
 31
0.0
  0
LINE
  5
33A
330
6D
100
AcDbEntity
  8
1
  6
Continuous
 62
     7
100
AcDbLine
 10
-58.68247427381193
 20
28.53207210725108
 30
0.0
 11
-58.68247427381193
 21
24.28207210725108
 31
0.0
  0
LINE
  5
33B
330
6D
100
AcDbEntity
  8
1
  6
Continuous
 62
     7
100
AcDbLine
 10
-72.18247427381183
 20
28.53207210725108
 30
0.0
 11
-72.18247427381183
 21
24.28207210725119
 31
0.0
  0
LINE
  5
33C
330
6D
100
AcDbEntity
  8
1
  6
Continuous
 62
     7
100
AcDbLine
 10
-58.68247427381193
 20
28.53207210725108
 30
0.0
 11
-72.18247427381183
 21
28.53207210725108
 31
0.0
  0
LINE
  5
33D
330
6D
100
AcDbEntity
  8
1
  6
Continuous
 62
     2
100
AcDbLine
 10
-81.58247427381181
 20
24.28207210725108
 30
0.0
 11
-95.08247427381191
 21
24.28207210725108
 31
0.0
  0
LINE
  5
33E
330
6D
100
AcDbEntity
  8
1
  6
Continuous
 62
     2
100
AcDbLine
 10
-197.837669747062
 20
24.28207210725108
 30
0.0
 11
-197.837669747062
 21
28.53207210725108
 31
0.0
  0
LINE
  5
33F
330
6D
100
AcDbEntity
  8
1
  6
Continuous
 62
     2
100
AcDbLine
 10
-197.837669747062
 20
24.28207210725108
 30
0.0
 11
-204.03766974706
 21
24.28207210725108
 31
0.0
  0
LINE
  5
340
330
6D
100
AcDbEntity
  8
1
  6
Continuous
 62
     2
100
AcDbLine
 10
-81.58247427381181
 20
28.53207210725108
 30
0.0
 11
-95.08247427381191
 21
28.53207210725108
 31
0.0
  0
LINE
  5
341
330
6D
100
AcDbEntity
  8
1
  6
Continuous
 62
     2
100
AcDbLine
 10
-197.837669747062
 20
28.53207210725108
 30
0.0
 11
-197.837669747062
 21
32.78207210725108
 31
0.0
  0
LINE
  5
342
330
6D
100
AcDbEntity
  8
1
  6
Continuous
 62
     2
100
AcDbLine
 10
-81.58247427381181
 20
32.78207210725108
 30
0.0
 11
-95.08247427381191
 21
32.78207210725108
 31
0.0
  0
LINE
  5
343
330
6D
100
AcDbEntity
  8
1
  6
Continuous
 62
     2
100
AcDbLine
 10
-197.837669747062
 20
32.78207210725108
 30
0.0
 11
-197.837669747062
 21
37.03207210725108
 31
0.0
  0
LINE
  5
344
330
6D
100
AcDbEntity
  8
1
  6
Continuous
 62
     2
100
AcDbLine
 10
-197.837669747062
 20
32.78207210725108
 30
0.0
 11
-204.03766974706
 21
32.78207210725108
 31
0.0
  0
LINE
  5
345
330
6D
100
AcDbEntity
  8
1
  6
Continuous
 62
     6
100
AcDbLine
 10
-81.58247427381181
 20
37.03207210725108
 30
0.0
 11
-95.08247427381191
 21
37.03207210725108
 31
0.0
  0
LINE
  5
346
330
6D
100
AcDbEntity
  8
1
  6
Continuous
 62
     2
100
AcDbLine
 10
-81.58247427381181
 20
15.78207210725108
 30
0.0
 11
-95.08247427381191
 21
15.78207210725108
 31
0.0
  0
LINE
  5
347
330
6D
100
AcDbEntity
  8
1
  6
Continuous
 62
     2
100
AcDbLine
 10
-81.58247427381181
 20
20.03207210725108
 30
0.0
 11
-95.08247427381191
 21
20.03207210725108
 31
0.0
  0
LINE
  5
348
330
6D
100
AcDbEntity
  8
1
  6
Continuous
 62
     2
100
AcDbLine
 10
-197.837669747062
 20
15.78207210725108
 30
0.0
 11
-197.837669747062
 21
20.03207210725108
 31
0.0
  0
LINE
  5
349
330
6D
100
AcDbEntity
  8
1
  6
Continuous
 62
     2
100
AcDbLine
 10
-197.837669747062
 20
20.03207210725108
 30
0.0
 11
-197.837669747062
 21
24.28207210725108
 31
0.0
  0
LINE
  5
34A
330
6D
100
AcDbEntity
  8
1
  6
Continuous
 62
     7
100
AcDbLine
 10
-197.837669747062
 20
11.53207210725119
 30
0.0
 11
-184.337669747062
 21
11.53207210725119
 31
0.0
  0
LINE
  5
34B
330
6D
100
AcDbEntity
  8
1
  6
Continuous
 62
     2
100
AcDbLine
 10
-197.837669747062
 20
11.53207210725119
 30
0.0
 11
-197.837669747062
 21
15.78207210725108
 31
0.0
  0
LINE
  5
34C
330
6D
100
AcDbEntity
  8
1
  6
Continuous
 62
     7
100
AcDbLine
 10
-45.18247427381191
 20
15.78207210725108
 30
0.0
 11
-45.18247427381191
 21
20.03207210725108
 31
0.0
  0
LINE
  5
34D
330
6D
100
AcDbEntity
  8
1
  6
Continuous
 62
     6
100
AcDbLine
 10
-58.68247427381193
 20
37.03207210725108
 30
0.0
 11
-45.18247427381191
 21
37.03207210725108
 31
0.0
  0
LINE
  5
34E
330
6D
100
AcDbEntity
  8
1
  6
Continuous
 62
     7
100
AcDbLine
 10
-45.18247427381191
 20
37.03207210725108
 30
0.0
 11
-45.18247427381191
 21
32.78207210725108
 31
0.0
  0
LINE
  5
34F
330
6D
100
AcDbEntity
  8
1
  6
Continuous
 62
     6
100
AcDbLine
 10
-72.18247427381183
 20
37.03207210725108
 30
0.0
 11
-58.68247427381193
 21
37.03207210725108
 31
0.0
  0
LINE
  5
350
330
6D
100
AcDbEntity
  8
1
  6
Continuous
 62
     7
100
AcDbLine
 10
-81.58247427381181
 20
24.28207210725108
 30
0.0
 11
-81.58247427381181
 21
20.03207210725108
 31
0.0
  0
LINE
  5
351
330
6D
100
AcDbEntity
  8
1
  6
Continuous
 62
     7
100
AcDbLine
 10
-81.58247427381181
 20
28.53207210725108
 30
0.0
 11
-81.58247427381181
 21
24.28207210725108
 31
0.0
  0
LINE
  5
352
330
6D
100
AcDbEntity
  8
1
  6
Continuous
 62
     2
100
AcDbLine
 10
-204.03766974706
 20
28.53207210725108
 30
0.0
 11
-197.837669747062
 21
28.53207210725108
 31
0.0
  0
LINE
  5
353
330
6D
100
AcDbEntity
  8
1
  6
Continuous
 62
     7
100
AcDbLine
 10
-81.58247427381181
 20
32.78207210725108
 30
0.0
 11
-81.58247427381181
 21
28.53207210725108
 31
0.0
  0
LINE
  5
354
330
6D
100
AcDbEntity
  8
1
  6
Continuous
 62
     7
100
AcDbLine
 10
-45.18247427381191
 20
28.53207210725108
 30
0.0
 11
-45.18247427381191
 21
24.28207210725108
 31
0.0
  0
LINE
  5
355
330
6D
100
AcDbEntity
  8
1
  6
Continuous
 62
     7
100
AcDbLine
 10
-58.68247427381193
 20
37.03207210725108
 30
0.0
 11
-58.68247427381193
 21
32.78207210725108
 31
0.0
  0
LINE
  5
356
330
6D
100
AcDbEntity
  8
1
  6
Continuous
 62
     7
100
AcDbLine
 10
-72.18247427381183
 20
37.03207210725108
 30
0.0
 11
-72.18247427381183
 21
32.78207210725108
 31
0.0
  0
LINE
  5
357
330
6D
100
AcDbEntity
  8
1
  6
Continuous
 62
     2
100
AcDbLine
 10
-197.837669747062
 20
7.28207210725108
 30
0.0
 11
-197.837669747062
 21
11.53207210725119
 31
0.0
  0
LINE
  5
358
330
6D
100
AcDbEntity
  8
1
  6
Continuous
 62
     2
100
AcDbLine
 10
-204.03766974706
 20
15.78207210725108
 30
0.0
 11
-197.837669747062
 21
15.78207210725108
 31
0.0
  0
LINE
  5
359
330
6D
100
AcDbEntity
  8
1
  6
Continuous
 62
     2
100
AcDbLine
 10
-204.03766974706
 20
20.03207210725108
 30
0.0
 11
-197.837669747062
 21
20.03207210725108
 31
0.0
  0
LINE
  5
35A
330
6D
100
AcDbEntity
  8
1
  6
Continuous
 62
     7
100
AcDbLine
 10
-204.03766974706
 20
11.53207210725119
 30
0.0
 11
-197.837669747062
 21
11.53207210725119
 31
0.0
  0
LINE
  5
35B
330
6D
100
AcDbEntity
  8
1
  6
Continuous
 62
     7
100
AcDbLine
 10
-45.18247427381191
 20
15.78207210725108
 30
0.0
 11
-45.18247427381191
 21
11.53207210725119
 31
0.0
  0
LINE
  5
35C
330
6D
100
AcDbEntity
  8
1
  6
Continuous
 62
     7
100
AcDbLine
 10
-81.58247427381181
 20
20.03207210725108
 30
0.0
 11
-81.58247427381181
 21
15.78207210725108
 31
0.0
  0
LINE
  5
35D
330
6D
100
AcDbEntity
  8
1
  6
Continuous
 62
     7
100
AcDbLine
 10
-81.58247427381181
 20
15.78207210725108
 30
0.0
 11
-81.58247427381181
 21
11.53207210725119
 31
0.0
  0
LINE
  5
35E
330
6D
100
AcDbEntity
  8
1
  6
Continuous
 62
     7
100
AcDbLine
 10
-58.68247427381193
 20
32.78207210725108
 30
0.0
 11
-58.68247427381193
 21
28.53207210725108
 31
0.0
  0
LINE
  5
35F
330
6D
100
AcDbEntity
  8
1
  6
Continuous
 62
     7
100
AcDbLine
 10
-72.18247427381183
 20
32.78207210725108
 30
0.0
 11
-72.18247427381183
 21
28.53207210725108
 31
0.0
  0
LINE
  5
360
330
6D
100
AcDbEntity
  8
1
  6
Continuous
 62
     7
100
AcDbLine
 10
-81.58247427381181
 20
28.53207210725108
 30
0.0
 11
-72.18247427381183
 21
28.53207210725108
 31
0.0
  0
LINE
  5
361
330
6D
100
AcDbEntity
  8
1
  6
Continuous
 62
     7
100
AcDbLine
 10
-45.18247427381191
 20
24.28207210725108
 30
0.0
 11
-58.68247427381193
 21
24.28207210725108
 31
0.0
  0
LINE
  5
362
330
6D
100
AcDbEntity
  8
1
  6
Continuous
 62
     7
100
AcDbLine
 10
-45.18247427381191
 20
11.53207210725119
 30
0.0
 11
-45.18247427381191
 21
7.28207210725108
 31
0.0
  0
LINE
  5
363
330
6D
100
AcDbEntity
  8
1
  6
Continuous
 62
     7
100
AcDbLine
 10
-81.58247427381181
 20
11.53207210725119
 30
0.0
 11
-81.58247427381181
 21
7.28207210725108
 31
0.0
  0
LINE
  5
364
330
6D
100
AcDbEntity
  8
1
  6
Continuous
 62
     7
100
AcDbLine
 10
-81.58247427381181
 20
37.03207210725108
 30
0.0
 11
-81.58247427381181
 21
32.78207210725108
 31
0.0
  0
LINE
  5
365
330
6D
100
AcDbEntity
  8
1
  6
Continuous
 62
     7
100
AcDbLine
 10
-45.18247427381191
 20
15.78207210725108
 30
0.0
 11
-15.53766974705952
 21
15.78207210725108
 31
0.0
  0
LINE
  5
366
330
6D
100
AcDbEntity
  8
1
  6
Continuous
 62
     7
100
AcDbLine
 10
-45.18247427381191
 20
24.28207210725108
 30
0.0
 11
-15.53766974705952
 21
24.28207210725108
 31
0.0
  0
LINE
  5
367
330
6D
100
AcDbEntity
  8
1
  6
Continuous
 62
     7
100
AcDbLine
 10
21.16233025294011
 20
28.53207210725119
 30
0.0
 11
30.080738534619
 21
28.53207210725108
 31
0.0
  0
LINE
  5
368
330
6D
100
AcDbEntity
  8
1
  6
Continuous
 62
     2
100
AcDbLine
 10
-66.88315454592065
 20
13.94839863786913
 30
0.0
 11
-66.88315454592065
 21
13.26812652902569
 31
0.0
  0
LINE
  5
369
330
6D
100
AcDbEntity
  8
1
  6
Continuous
 62
     2
100
AcDbLine
 10
-66.88315454592065
 20
14.69669795759901
 30
0.0
 11
-66.88315454592065
 21
15.37697006644228
 31
0.0
  0
LINE
  5
36A
102
{ACAD_REACTORS
330
492
330
492
102
}
330
6D
100
AcDbEntity
  8
1
  6
Continuous
 62
     2
100
AcDbLine
 10
-65.18866262762774
 20
13.13207210725702
 30
0.0
 11
-65.29070344395504
 21
13.13207210725702
 31
0.0
  0
LINE
  5
36B
102
{ACAD_REACTORS
330
492
330
492
102
}
330
6D
100
AcDbEntity
  8
1
  6
Continuous
 62
     2
100
AcDbLine
 10
-65.29070344395504
 20
15.51302448821113
 30
0.0
 11
-65.18866262762774
 21
15.51302448821113
 31
0.0
  0
LINE
  5
36C
102
{ACAD_REACTORS
330
493
330
493
102
}
330
6D
100
AcDbEntity
  8
1
  6
Continuous
 62
     2
100
AcDbLine
 10
-62.06551131899384
 20
16.0511197262912
 30
0.0
 11
-62.16755213531994
 21
16.0511197262912
 31
0.0
  0
LINE
  5
36D
102
{ACAD_REACTORS
330
493
330
493
102
}
330
6D
100
AcDbEntity
  8
1
  6
Continuous
 62
     2
100
AcDbLine
 10
-60.02465114456064
 20
16.0511197262912
 30
0.0
 11
-62.06551131899384
 21
16.0511197262912
 31
0.0
  0
LINE
  5
36E
102
{ACAD_REACTORS
330
493
330
493
102
}
330
6D
100
AcDbEntity
  8
1
  6
Continuous
 62
     2
100
AcDbLine
 10
-60.02465114456064
 20
16.0511197262912
 30
0.0
 11
-60.02465114456064
 21
16.59533741336591
 31
0.0
  0
LINE
  5
36F
102
{ACAD_REACTORS
330
493
330
493
102
}
330
6D
100
AcDbEntity
  8
1
  6
Continuous
 62
     2
100
AcDbLine
 10
-60.02465114456064
 20
16.59533741336591
 30
0.0
 11
-60.97703209694194
 21
16.59533741336591
 31
0.0
  0
LINE
  5
370
102
{ACAD_REACTORS
330
493
330
493
102
}
330
6D
100
AcDbEntity
  8
1
  6
Continuous
 62
     2
100
AcDbLine
 10
-60.97703209694194
 20
16.59533741336591
 30
0.0
 11
-60.97703209694194
 21
16.96948707323079
 31
0.0
  0
LINE
  5
371
102
{ACAD_REACTORS
330
493
330
493
102
}
330
6D
100
AcDbEntity
  8
1
  6
Continuous
 62
     2
100
AcDbLine
 10
-60.97703209694194
 20
16.96948707323079
 30
0.0
 11
-60.02465114456064
 21
16.96948707323079
 31
0.0
  0
LINE
  5
372
102
{ACAD_REACTORS
330
493
330
493
102
}
330
6D
100
AcDbEntity
  8
1
  6
Continuous
 62
     2
100
AcDbLine
 10
-60.02465114456064
 20
16.96948707323079
 30
0.0
 11
-60.02465114456064
 21
17.51370476030561
 31
0.0
  0
LINE
  5
373
102
{ACAD_REACTORS
330
493
330
493
102
}
330
6D
100
AcDbEntity
  8
1
  6
Continuous
 62
     2
100
AcDbLine
 10
-60.02465114456064
 20
17.51370476030561
 30
0.0
 11
-60.97703209694194
 21
17.51370476030561
 31
0.0
  0
LINE
  5
374
102
{ACAD_REACTORS
330
493
330
493
102
}
330
6D
100
AcDbEntity
  8
1
  6
Continuous
 62
     2
100
AcDbLine
 10
-60.97703209694194
 20
17.51370476030561
 30
0.0
 11
-60.97703209694194
 21
17.88785442017061
 31
0.0
  0
LINE
  5
375
102
{ACAD_REACTORS
330
493
330
493
102
}
330
6D
100
AcDbEntity
  8
1
  6
Continuous
 62
     2
100
AcDbLine
 10
-60.97703209694194
 20
17.88785442017061
 30
0.0
 11
-60.02465114456064
 21
17.88785442017061
 31
0.0
  0
LINE
  5
376
102
{ACAD_REACTORS
330
493
330
493
102
}
330
6D
100
AcDbEntity
  8
1
  6
Continuous
 62
     2
100
AcDbLine
 10
-60.02465114456064
 20
17.88785442017061
 30
0.0
 11
-60.02465114456064
 21
18.4320721072452
 31
0.0
  0
LINE
  5
377
102
{ACAD_REACTORS
330
493
330
493
102
}
330
6D
100
AcDbEntity
  8
1
  6
Continuous
 62
     2
100
AcDbLine
 10
-60.02465114456064
 20
18.4320721072452
 30
0.0
 11
-62.06551131899384
 21
18.4320721072452
 31
0.0
  0
LINE
  5
378
102
{ACAD_REACTORS
330
493
330
493
102
}
330
6D
100
AcDbEntity
  8
1
  6
Continuous
 62
     2
100
AcDbLine
 10
-62.16755213531994
 20
18.4320721072452
 30
0.0
 11
-62.06551131899384
 21
18.4320721072452
 31
0.0
  0
LINE
  5
379
102
{ACAD_REACTORS
330
495
330
495
102
}
330
6D
100
AcDbEntity
  8
1
  6
Continuous
 62
     2
100
AcDbLine
 10
-71.51138583843743
 20
14.42096099614619
 30
0.0
 11
-71.55212657917784
 21
14.42096099614619
 31
0.0
  0
LINE
  5
37A
102
{ACAD_REACTORS
330
495
330
495
102
}
330
6D
100
AcDbEntity
  8
1
  6
Continuous
 62
     2
100
AcDbLine
 10
-71.51138583843743
 20
17.88392395910878
 30
0.0
 11
-71.55212657917784
 21
17.88392395910878
 31
0.0
  0
LINE
  5
37B
102
{ACAD_REACTORS
330
495
330
495
102
}
330
6D
100
AcDbEntity
  8
1
  6
Continuous
 62
     2
100
AcDbLine
 10
-71.81694139399204
 20
17.6191091442997
 30
0.0
 11
-71.81694139399204
 21
17.1251143313265
 31
0.0
  0
LINE
  5
37C
102
{ACAD_REACTORS
330
495
330
495
102
}
330
6D
100
AcDbEntity
  8
1
  6
Continuous
 62
     2
100
AcDbLine
 10
-71.81694139399204
 20
14.68577581095073
 30
0.0
 11
-71.81694139399204
 21
15.17977062391489
 31
0.0
  0
LINE
  5
37D
102
{ACAD_REACTORS
330
495
330
495
102
}
330
6D
100
AcDbEntity
  8
1
  6
Continuous
 62
     2
100
AcDbLine
 10
-74.05768213473294
 20
17.6191091442997
 30
0.0
 11
-74.05768213473294
 21
13.87096099613879
 31
0.0
  0
LINE
  5
37E
102
{ACAD_REACTORS
330
495
330
495
102
}
330
6D
100
AcDbEntity
  8
1
  6
Continuous
 62
     2
100
AcDbLine
 10
-72.48916361621454
 20
13.6061461813342
 30
0.0
 11
-73.79286731991894
 21
13.6061461813342
 31
0.0
  0
LINE
  5
37F
102
{ACAD_REACTORS
330
495
330
495
102
}
330
6D
100
AcDbEntity
  8
1
  6
Continuous
 62
     2
100
AcDbLine
 10
-72.22434880139944
 20
15.17977062392381
 30
0.0
 11
-72.22434880139944
 21
13.87096099613879
 31
0.0
  0
LINE
  5
380
102
{ACAD_REACTORS
330
495
330
495
102
}
330
6D
100
AcDbEntity
  8
1
  6
Continuous
 62
     2
100
AcDbLine
 10
-72.22434880139944
 20
17.61910914429049
 30
0.0
 11
-72.22434880139944
 21
17.1251143313265
 31
0.0
  0
LINE
  5
381
102
{ACAD_REACTORS
330
495
330
495
102
}
330
6D
100
AcDbEntity
  8
1
  6
Continuous
 62
     2
100
AcDbLine
 10
-73.79286731991894
 20
17.88392395910878
 30
0.0
 11
-72.48916361621454
 21
17.88392395910878
 31
0.0
  0
LINE
  5
382
102
{ACAD_REACTORS
330
495
330
495
102
}
330
6D
100
AcDbEntity
  8
1
  6
Continuous
 62
     2
100
AcDbLine
 10
-74.19471917176985
 20
18.4320721072452
 30
0.0
 11
-69.66138583843654
 21
18.4320721072452
 31
0.0
  0
LINE
  5
383
102
{ACAD_REACTORS
330
495
330
495
102
}
330
6D
100
AcDbEntity
  8
1
  6
Continuous
 62
     2
100
AcDbLine
 10
-74.52805250510345
 20
18.09873877391223
 30
0.0
 11
-74.52805250510345
 21
13.46540544058999
 31
0.0
  0
LINE
  5
384
102
{ACAD_REACTORS
330
495
330
495
102
}
330
6D
100
AcDbEntity
  8
1
  6
Continuous
 62
     2
100
AcDbLine
 10
-69.66138583843654
 20
13.13207210725702
 30
0.0
 11
-74.19471917176985
 21
13.13207210725702
 31
0.0
  0
LINE
  5
385
102
{ACAD_REACTORS
330
495
330
495
102
}
330
6D
100
AcDbEntity
  8
1
  6
Continuous
 62
     2
100
AcDbLine
 10
-69.32805250510384
 20
18.09873877391223
 30
0.0
 11
-69.32805250510384
 21
13.46540544058999
 31
0.0
  0
LINE
  5
386
102
{ACAD_REACTORS
330
494
330
494
102
}
330
6D
100
AcDbEntity
  8
1
  6
Continuous
 62
     2
100
AcDbLine
 10
-67.75633966659954
 20
17.91507082434859
 30
0.0
 11
-67.70115689439004
 21
17.91507082434859
 31
0.0
  0
LINE
  5
387
102
{ACAD_REACTORS
330
494
330
494
102
}
330
6D
100
AcDbEntity
  8
1
  6
Continuous
 62
     2
100
AcDbLine
 10
-67.90356270918593
 20
17.91507082434859
 30
0.0
 11
-67.75633966659954
 21
17.91507082434859
 31
0.0
  0
LINE
  5
388
102
{ACAD_REACTORS
330
494
330
494
102
}
330
6D
100
AcDbEntity
  8
1
  6
Continuous
 62
     2
100
AcDbLine
 10
-67.90356270918593
 20
17.3648387571865
 30
0.0
 11
-67.90356270918593
 21
17.91507082434859
 31
0.0
  0
LINE
  5
389
102
{ACAD_REACTORS
330
494
330
494
102
}
330
6D
100
AcDbEntity
  8
1
  6
Continuous
 62
     2
100
AcDbLine
 10
-67.75633966659954
 20
17.3648387571865
 30
0.0
 11
-67.90356270918593
 21
17.3648387571865
 31
0.0
  0
LINE
  5
38A
102
{ACAD_REACTORS
330
494
330
494
102
}
330
6D
100
AcDbEntity
  8
1
  6
Continuous
 62
     2
100
AcDbLine
 10
-67.75633966659954
 20
17.3648387571865
 30
0.0
 11
-67.70115689439004
 21
17.3648387571865
 31
0.0
  0
LINE
  5
38B
102
{ACAD_REACTORS
330
494
330
494
102
}
330
6D
100
AcDbEntity
  8
1
  6
Continuous
 62
     2
100
AcDbLine
 10
-68.78791645068173
 20
18.4320721072452
 30
0.0
 11
-67.63012484532894
 21
18.4320721072452
 31
0.0
  0
LINE
  5
38C
102
{ACAD_REACTORS
330
494
330
494
102
}
330
6D
100
AcDbEntity
  8
1
  6
Continuous
 62
     2
100
AcDbLine
 10
-68.78791645068173
 20
18.4320721072452
 30
0.0
 11
-68.78791645068173
 21
16.0511197262912
 31
0.0
  0
LINE
  5
38D
102
{ACAD_REACTORS
330
494
330
494
102
}
330
6D
100
AcDbEntity
  8
1
  6
Continuous
 62
     2
100
AcDbLine
 10
-68.78791645068173
 20
16.0511197262912
 30
0.0
 11
-68.05246392149535
 21
16.0511197262912
 31
0.0
  0
LINE
  5
38E
102
{ACAD_REACTORS
330
494
330
494
102
}
330
6D
100
AcDbEntity
  8
1
  6
Continuous
 62
     2
100
AcDbLine
 10
-68.05246392149535
 20
16.0511197262912
 30
0.0
 11
-67.90356270918593
 21
16.0511197262912
 31
0.0
  0
LINE
  5
38F
102
{ACAD_REACTORS
330
494
330
494
102
}
330
6D
100
AcDbEntity
  8
1
  6
Continuous
 62
     2
100
AcDbLine
 10
-67.90356270918593
 20
16.0511197262912
 30
0.0
 11
-67.90356270918593
 21
16.7864060518348
 31
0.0
  0
LINE
  5
390
102
{ACAD_REACTORS
330
494
330
494
102
}
330
6D
100
AcDbEntity
  8
1
  6
Continuous
 62
     2
100
AcDbLine
 10
-67.90356270918593
 20
16.7864060518348
 30
0.0
 11
-67.48122363301854
 21
16.7864060518348
 31
0.0
  0
LINE
  5
391
102
{ACAD_REACTORS
330
494
330
494
102
}
330
6D
100
AcDbEntity
  8
1
  6
Continuous
 62
     2
100
AcDbLine
 10
-67.48122363301854
 20
16.7864060518348
 30
0.0
 11
-67.34643165085564
 21
16.7864060518348
 31
0.0
  0
LINE
  5
392
102
{ACAD_REACTORS
330
494
330
494
102
}
330
6D
100
AcDbEntity
  8
1
  6
Continuous
 62
     2
100
AcDbLine
 10
-67.63012484532894
 20
18.4320721072452
 30
0.0
 11
-67.34643165085564
 21
18.4320721072452
 31
0.0
  0
LINE
  5
393
102
{ACAD_REACTORS
330
48C
330
48C
102
}
330
6D
100
AcDbEntity
  8
1
  6
Continuous
 62
     2
100
AcDbLine
 10
-57.48772568412545
 20
14.08445305963769
 30
0.0
 11
-57.05975098547435
 21
14.08445305963769
 31
0.0
  0
LINE
  5
394
102
{ACAD_REACTORS
330
48C
330
48C
102
}
330
6D
100
AcDbEntity
  8
1
  6
Continuous
 62
     2
100
AcDbLine
 10
-57.05975098547435
 20
14.08445305963769
 30
0.0
 11
-57.27373833480053
 21
14.68309251542169
 31
0.0
  0
LINE
  5
395
102
{ACAD_REACTORS
330
48C
330
48C
102
}
330
6D
100
AcDbEntity
  8
1
  6
Continuous
 62
     2
100
AcDbLine
 10
-57.48772568412545
 20
14.08445305963769
 30
0.0
 11
-57.27373833480053
 21
14.68309251542169
 31
0.0
  0
LINE
  5
396
102
{ACAD_REACTORS
330
48C
330
48C
102
}
330
6D
100
AcDbEntity
  8
1
  6
Continuous
 62
     2
100
AcDbLine
 10
-57.71591520554904
 20
15.51302448821113
 30
0.0
 11
-58.71251384500493
 21
13.13207210725702
 31
0.0
  0
LINE
  5
397
102
{ACAD_REACTORS
330
48C
330
48C
102
}
330
6D
100
AcDbEntity
  8
1
  6
Continuous
 62
     2
100
AcDbLine
 10
-58.71251384500493
 20
13.13207210725702
 30
0.0
 11
-57.82816010350794
 21
13.13207210725702
 31
0.0
  0
LINE
  5
398
102
{ACAD_REACTORS
330
48C
330
48C
102
}
330
6D
100
AcDbEntity
  8
1
  6
Continuous
 62
     2
100
AcDbLine
 10
-57.82816010350794
 20
13.13207210725702
 30
0.0
 11
-57.67739628921075
 21
13.55384081474031
 31
0.0
  0
LINE
  5
399
102
{ACAD_REACTORS
330
48C
330
48C
102
}
330
6D
100
AcDbEntity
  8
1
  6
Continuous
 62
     2
100
AcDbLine
 10
-57.67739628921075
 20
13.55384081474031
 30
0.0
 11
-56.87008038039053
 21
13.55384081474031
 31
0.0
  0
LINE
  5
39A
102
{ACAD_REACTORS
330
48C
330
48C
102
}
330
6D
100
AcDbEntity
  8
1
  6
Continuous
 62
     2
100
AcDbLine
 10
-56.71931656609282
 20
13.13207210725702
 30
0.0
 11
-56.87008038039053
 21
13.55384081474031
 31
0.0
  0
LINE
  5
39B
102
{ACAD_REACTORS
330
48C
330
48C
102
}
330
6D
100
AcDbEntity
  8
1
  6
Continuous
 62
     2
100
AcDbLine
 10
-55.83496282459643
 20
13.13207210725702
 30
0.0
 11
-56.71931656609282
 21
13.13207210725702
 31
0.0
  0
LINE
  5
39C
102
{ACAD_REACTORS
330
48C
330
48C
102
}
330
6D
100
AcDbEntity
  8
1
  6
Continuous
 62
     2
100
AcDbLine
 10
-56.83156146405184
 20
15.51302448821113
 30
0.0
 11
-55.83496282459643
 21
13.13207210725702
 31
0.0
  0
LINE
  5
39D
102
{ACAD_REACTORS
330
48C
330
48C
102
}
330
6D
100
AcDbEntity
  8
1
  6
Continuous
 62
     2
100
AcDbLine
 10
-57.71591520554904
 20
15.51302448821113
 30
0.0
 11
-56.83156146405184
 21
15.51302448821113
 31
0.0
  0
LINE
  5
39E
102
{ACAD_REACTORS
330
48D
330
48D
102
}
330
6D
100
AcDbEntity
  8
1
  6
Continuous
 62
     2
100
AcDbLine
 10
-58.60230976337203
 20
15.51302448821113
 30
0.0
 11
-60.60911248445915
 21
15.51302448821113
 31
0.0
  0
LINE
  5
39F
102
{ACAD_REACTORS
330
48D
330
48D
102
}
330
6D
100
AcDbEntity
  8
1
  6
Continuous
 62
     2
100
AcDbLine
 10
-60.60911248445915
 20
15.51302448821113
 30
0.0
 11
-60.60911248445915
 21
14.90077959024981
 31
0.0
  0
LINE
  5
3A0
102
{ACAD_REACTORS
330
48D
330
48D
102
}
330
6D
100
AcDbEntity
  8
1
  6
Continuous
 62
     2
100
AcDbLine
 10
-60.60911248445915
 20
14.90077959024981
 30
0.0
 11
-60.03088119194314
 21
14.90077959024981
 31
0.0
  0
LINE
  5
3A1
102
{ACAD_REACTORS
330
48D
330
48D
102
}
330
6D
100
AcDbEntity
  8
1
  6
Continuous
 62
     2
100
AcDbLine
 10
-60.03088119194314
 20
14.90077959024981
 30
0.0
 11
-60.03088119194314
 21
13.13207210725702
 31
0.0
  0
LINE
  5
3A2
102
{ACAD_REACTORS
330
48D
330
48D
102
}
330
6D
100
AcDbEntity
  8
1
  6
Continuous
 62
     2
100
AcDbLine
 10
-60.03088119194314
 20
13.13207210725702
 30
0.0
 11
-59.18054105588804
 21
13.13207210725702
 31
0.0
  0
LINE
  5
3A3
102
{ACAD_REACTORS
330
48D
330
48D
102
}
330
6D
100
AcDbEntity
  8
1
  6
Continuous
 62
     2
100
AcDbLine
 10
-59.18054105588804
 20
13.13207210725702
 30
0.0
 11
-59.18054105588804
 21
14.90077959024981
 31
0.0
  0
LINE
  5
3A4
102
{ACAD_REACTORS
330
48D
330
48D
102
}
330
6D
100
AcDbEntity
  8
1
  6
Continuous
 62
     2
100
AcDbLine
 10
-59.18054105588804
 20
14.90077959024981
 30
0.0
 11
-58.60230976337203
 21
14.90077959024981
 31
0.0
  0
LINE
  5
3A5
102
{ACAD_REACTORS
330
48D
330
48D
102
}
330
6D
100
AcDbEntity
  8
1
  6
Continuous
 62
     2
100
AcDbLine
 10
-58.60230976337203
 20
14.90077959024981
 30
0.0
 11
-58.60230976337203
 21
15.51302448821113
 31
0.0
  0
LINE
  5
3A6
102
{ACAD_REACTORS
330
48E
330
48E
102
}
330
6D
100
AcDbEntity
  8
1
  6
Continuous
 62
     2
100
AcDbLine
 10
-62.74584717833633
 20
15.51302448821113
 30
0.0
 11
-63.59618731439204
 21
15.51302448821113
 31
0.0
  0
LINE
  5
3A7
102
{ACAD_REACTORS
330
48E
330
48E
102
}
330
6D
100
AcDbEntity
  8
1
  6
Continuous
 62
     2
100
AcDbLine
 10
-63.59618731439204
 20
15.51302448821113
 30
0.0
 11
-63.59618731439204
 21
13.13207210725702
 31
0.0
  0
LINE
  5
3A8
102
{ACAD_REACTORS
330
48E
330
48E
102
}
330
6D
100
AcDbEntity
  8
1
  6
Continuous
 62
     2
100
AcDbLine
 10
-63.59618731439204
 20
13.13207210725702
 30
0.0
 11
-62.74584717833633
 21
13.13207210725702
 31
0.0
  0
LINE
  5
3A9
102
{ACAD_REACTORS
330
48E
330
48E
102
}
330
6D
100
AcDbEntity
  8
1
  6
Continuous
 62
     2
100
AcDbLine
 10
-62.74584717833633
 20
13.13207210725702
 30
0.0
 11
-62.74584717833633
 21
14.15248027052419
 31
0.0
  0
LINE
  5
3AA
102
{ACAD_REACTORS
330
48E
330
48E
102
}
330
6D
100
AcDbEntity
  8
1
  6
Continuous
 62
     2
100
AcDbLine
 10
-62.74584717833633
 20
14.15248027052419
 30
0.0
 11
-61.86149343684075
 21
13.13207210725702
 31
0.0
  0
LINE
  5
3AB
102
{ACAD_REACTORS
330
48E
330
48E
102
}
330
6D
100
AcDbEntity
  8
1
  6
Continuous
 62
     2
100
AcDbLine
 10
-61.86149343684075
 20
13.13207210725702
 30
0.0
 11
-61.01115330078665
 21
13.13207210725702
 31
0.0
  0
LINE
  5
3AC
102
{ACAD_REACTORS
330
48E
330
48E
102
}
330
6D
100
AcDbEntity
  8
1
  6
Continuous
 62
     2
100
AcDbLine
 10
-61.01115330078665
 20
13.13207210725702
 30
0.0
 11
-61.01115330078665
 21
15.51302448821113
 31
0.0
  0
LINE
  5
3AD
102
{ACAD_REACTORS
330
48E
330
48E
102
}
330
6D
100
AcDbEntity
  8
1
  6
Continuous
 62
     2
100
AcDbLine
 10
-61.01115330078665
 20
15.51302448821113
 30
0.0
 11
-61.86149343684075
 21
15.51302448821113
 31
0.0
  0
LINE
  5
3AE
102
{ACAD_REACTORS
330
48E
330
48E
102
}
330
6D
100
AcDbEntity
  8
1
  6
Continuous
 62
     2
100
AcDbLine
 10
-61.86149343684075
 20
15.51302448821113
 30
0.0
 11
-61.86149343684075
 21
14.49261632494378
 31
0.0
  0
LINE
  5
3AF
102
{ACAD_REACTORS
330
48E
330
48E
102
}
330
6D
100
AcDbEntity
  8
1
  6
Continuous
 62
     2
100
AcDbLine
 10
-61.86149343684075
 20
14.49261632494378
 30
0.0
 11
-62.74584717833633
 21
15.51302448821113
 31
0.0
  0
LINE
  5
3B0
102
{ACAD_REACTORS
330
48F
330
48F
102
}
330
6D
100
AcDbEntity
  8
1
  6
Continuous
 62
     2
100
AcDbLine
 10
-56.49948107653373
 20
16.0511197262912
 30
0.0
 11
-56.49948107653373
 21
18.4320721072452
 31
0.0
  0
LINE
  5
3B1
102
{ACAD_REACTORS
330
490
330
490
102
}
330
6D
100
AcDbEntity
  8
1
  6
Continuous
 62
     2
100
AcDbLine
 10
-56.96954910374495
 20
18.4320721072452
 30
0.0
 11
-57.81988923979854
 21
18.4320721072452
 31
0.0
  0
LINE
  5
3B2
102
{ACAD_REACTORS
330
490
330
490
102
}
330
6D
100
AcDbEntity
  8
1
  6
Continuous
 62
     2
100
AcDbLine
 10
-57.81988923979854
 20
18.4320721072452
 30
0.0
 11
-57.81988923979854
 21
17.41166394397803
 31
0.0
  0
LINE
  5
3B3
102
{ACAD_REACTORS
330
490
330
490
102
}
330
6D
100
AcDbEntity
  8
1
  6
Continuous
 62
     2
100
AcDbLine
 10
-57.81988923979854
 20
17.41166394397803
 30
0.0
 11
-58.70424298129583
 21
18.4320721072452
 31
0.0
  0
LINE
  5
3B4
102
{ACAD_REACTORS
330
490
330
490
102
}
330
6D
100
AcDbEntity
  8
1
  6
Continuous
 62
     2
100
AcDbLine
 10
-58.70424298129583
 20
18.4320721072452
 30
0.0
 11
-59.55458311734944
 21
18.4320721072452
 31
0.0
  0
LINE
  5
3B5
102
{ACAD_REACTORS
330
490
330
490
102
}
330
6D
100
AcDbEntity
  8
1
  6
Continuous
 62
     2
100
AcDbLine
 10
-59.55458311734944
 20
18.4320721072452
 30
0.0
 11
-59.55458311734944
 21
16.0511197262912
 31
0.0
  0
LINE
  5
3B6
102
{ACAD_REACTORS
330
490
330
490
102
}
330
6D
100
AcDbEntity
  8
1
  6
Continuous
 62
     2
100
AcDbLine
 10
-59.55458311734944
 20
16.0511197262912
 30
0.0
 11
-58.70424298129583
 21
16.0511197262912
 31
0.0
  0
LINE
  5
3B7
102
{ACAD_REACTORS
330
490
330
490
102
}
330
6D
100
AcDbEntity
  8
1
  6
Continuous
 62
     2
100
AcDbLine
 10
-58.70424298129583
 20
16.0511197262912
 30
0.0
 11
-58.70424298129583
 21
17.07152788955861
 31
0.0
  0
LINE
  5
3B8
102
{ACAD_REACTORS
330
490
330
490
102
}
330
6D
100
AcDbEntity
  8
1
  6
Continuous
 62
     2
100
AcDbLine
 10
-58.70424298129583
 20
17.07152788955861
 30
0.0
 11
-57.81988923979854
 21
16.0511197262912
 31
0.0
  0
LINE
  5
3B9
102
{ACAD_REACTORS
330
490
330
490
102
}
330
6D
100
AcDbEntity
  8
1
  6
Continuous
 62
     2
100
AcDbLine
 10
-57.81988923979854
 20
16.0511197262912
 30
0.0
 11
-56.96954910374495
 21
16.0511197262912
 31
0.0
  0
LINE
  5
3BA
102
{ACAD_REACTORS
330
490
330
490
102
}
330
6D
100
AcDbEntity
  8
1
  6
Continuous
 62
     2
100
AcDbLine
 10
-56.96954910374495
 20
16.0511197262912
 30
0.0
 11
-56.96954910374495
 21
18.4320721072452
 31
0.0
  0
LINE
  5
3BB
102
{ACAD_REACTORS
330
491
330
491
102
}
330
6D
100
AcDbEntity
  8
1
  6
Continuous
 62
     2
100
AcDbLine
 10
-66.20900488605655
 20
18.4320721072452
 30
0.0
 11
-65.35866475000213
 21
18.4320721072452
 31
0.0
  0
LINE
  5
3BC
102
{ACAD_REACTORS
330
491
330
491
102
}
330
6D
100
AcDbEntity
  8
1
  6
Continuous
 62
     2
100
AcDbLine
 10
-66.20900488605655
 20
18.4320721072452
 30
0.0
 11
-66.20900488605655
 21
16.0511197262912
 31
0.0
  0
LINE
  5
3BD
102
{ACAD_REACTORS
330
491
330
491
102
}
330
6D
100
AcDbEntity
  8
1
  6
Continuous
 62
     2
100
AcDbLine
 10
-65.35866475000213
 20
16.0511197262912
 30
0.0
 11
-66.20900488605655
 21
16.0511197262912
 31
0.0
  0
LINE
  5
3BE
102
{ACAD_REACTORS
330
491
330
491
102
}
330
6D
100
AcDbEntity
  8
1
  6
Continuous
 62
     2
100
AcDbLine
 10
-65.35866475000213
 20
16.93547346778982
 30
0.0
 11
-65.35866475000213
 21
16.0511197262912
 31
0.0
  0
LINE
  5
3BF
102
{ACAD_REACTORS
330
491
330
491
102
}
330
6D
100
AcDbEntity
  8
1
  6
Continuous
 62
     2
100
AcDbLine
 10
-64.61036543027464
 20
16.93547346778982
 30
0.0
 11
-65.35866475000213
 21
16.93547346778982
 31
0.0
  0
LINE
  5
3C0
102
{ACAD_REACTORS
330
491
330
491
102
}
330
6D
100
AcDbEntity
  8
1
  6
Continuous
 62
     2
100
AcDbLine
 10
-64.61036543027464
 20
16.0511197262912
 30
0.0
 11
-64.61036543027464
 21
16.93547346778982
 31
0.0
  0
LINE
  5
3C1
102
{ACAD_REACTORS
330
491
330
491
102
}
330
6D
100
AcDbEntity
  8
1
  6
Continuous
 62
     2
100
AcDbLine
 10
-63.76002529421974
 20
16.0511197262912
 30
0.0
 11
-64.61036543027464
 21
16.0511197262912
 31
0.0
  0
LINE
  5
3C2
102
{ACAD_REACTORS
330
491
330
491
102
}
330
6D
100
AcDbEntity
  8
1
  6
Continuous
 62
     2
100
AcDbLine
 10
-63.76002529421974
 20
18.4320721072452
 30
0.0
 11
-63.76002529421974
 21
16.0511197262912
 31
0.0
  0
LINE
  5
3C3
102
{ACAD_REACTORS
330
491
330
491
102
}
330
6D
100
AcDbEntity
  8
1
  6
Continuous
 62
     2
100
AcDbLine
 10
-64.61036543027464
 20
18.4320721072452
 30
0.0
 11
-63.76002529421974
 21
18.4320721072452
 31
0.0
  0
LINE
  5
3C4
102
{ACAD_REACTORS
330
491
330
491
102
}
330
6D
100
AcDbEntity
  8
1
  6
Continuous
 62
     2
100
AcDbLine
 10
-64.61036543027464
 20
17.59873877391041
 30
0.0
 11
-64.61036543027464
 21
18.4320721072452
 31
0.0
  0
LINE
  5
3C5
102
{ACAD_REACTORS
330
491
330
491
102
}
330
6D
100
AcDbEntity
  8
1
  6
Continuous
 62
     2
100
AcDbLine
 10
-65.35866475000213
 20
17.59873877391041
 30
0.0
 11
-64.61036543027464
 21
17.59873877391041
 31
0.0
  0
LINE
  5
3C6
102
{ACAD_REACTORS
330
491
330
491
102
}
330
6D
100
AcDbEntity
  8
1
  6
Continuous
 62
     2
100
AcDbLine
 10
-65.35866475000213
 20
18.4320721072452
 30
0.0
 11
-65.35866475000213
 21
17.59873877391041
 31
0.0
  0
LINE
  5
3C7
330
6D
100
AcDbEntity
  8
1
  6
Continuous
 62
     7
100
AcDbLine
 10
21.16233025294011
 20
28.53207210725119
 30
0.0
 11
-15.53766974705952
 21
28.53207210725106
 31
0.0
  0
LINE
  5
3C8
330
6D
100
AcDbEntity
  8
1
  6
Continuous
 62
     7
100
AcDbLine
 10
-15.53766974705952
 20
24.28207210725108
 30
0.0
 11
2.9623302529401
 21
24.28207210725108
 31
0.0
  0
LINE
  5
3C9
330
6D
100
AcDbEntity
  8
1
  6
Continuous
 62
     7
100
AcDbLine
 10
-15.53766974705952
 20
24.28207210725108
 30
0.0
 11
-15.53766974705952
 21
15.78207210725108
 31
0.0
  0
LINE
  5
3CA
330
6D
100
AcDbEntity
  8
1
  6
Continuous
 62
     6
100
AcDbLine
 10
-197.837669747062
 20
7.28207210725108
 30
0.0
 11
-204.03766974706
 21
7.28207210725119
 31
0.0
  0
LINE
  5
3CB
330
6D
100
AcDbEntity
  8
1
  6
Continuous
 62
     6
100
AcDbLine
 10
-204.03766974706
 20
32.78207210725108
 30
0.0
 11
-204.03766974706
 21
37.03207210725108
 31
0.0
  0
LINE
  5
3CC
330
6D
100
AcDbEntity
  8
1
  6
Continuous
 62
     6
100
AcDbLine
 10
-204.03766974706
 20
28.53207210725108
 30
0.0
 11
-204.03766974706
 21
32.78207210725108
 31
0.0
  0
LINE
  5
3CD
330
6D
100
AcDbEntity
  8
1
  6
Continuous
 62
     6
100
AcDbLine
 10
-204.03766974706
 20
24.28207210725108
 30
0.0
 11
-204.03766974706
 21
28.53207210725108
 31
0.0
  0
LINE
  5
3CE
330
6D
100
AcDbEntity
  8
1
  6
Continuous
 62
     6
100
AcDbLine
 10
-204.03766974706
 20
15.78207210725108
 30
0.0
 11
-204.03766974706
 21
20.03207210725108
 31
0.0
  0
LINE
  5
3CF
330
6D
100
AcDbEntity
  8
1
  6
Continuous
 62
     6
100
AcDbLine
 10
-122.0824742738118
 20
37.03207210725108
 30
0.0
 11
-184.337669747062
 21
37.03207210725108
 31
0.0
  0
LINE
  5
3D0
330
6D
100
AcDbEntity
  8
1
  6
Continuous
 62
     2
100
AcDbLine
 10
-184.337669747062
 20
32.78207210725108
 30
0.0
 11
-122.0824742738118
 21
32.78207210725108
 31
0.0
  0
LINE
  5
3D1
330
6D
100
AcDbEntity
  8
1
  6
Continuous
 62
     2
100
AcDbLine
 10
-184.337669747062
 20
28.53207210725108
 30
0.0
 11
-122.0824742738118
 21
28.53207210725108
 31
0.0
  0
LINE
  5
3D2
330
6D
100
AcDbEntity
  8
1
  6
Continuous
 62
     6
100
AcDbLine
 10
-45.18247427381191
 20
7.28207210725108
 30
0.0
 11
-45.5376697470619
 21
7.28207210725119
 31
0.0
  0
LINE
  5
3D3
330
6D
100
AcDbEntity
  8
1
  6
Continuous
 62
     7
100
AcDbLine
 10
-58.68247427381193
 20
28.53207210725108
 30
0.0
 11
-45.18247427381191
 21
28.53207210725108
 31
0.0
  0
LINE
  5
3D4
330
6D
100
AcDbEntity
  8
1
  6
Continuous
 62
     7
100
AcDbLine
 10
-22.28247427381189
 20
28.53207210725102
 30
0.0
 11
-45.18247427381191
 21
28.53207210725108
 31
0.0
  0
LINE
  5
3D5
330
6D
100
AcDbEntity
  8
1
  6
Continuous
 62
     6
100
AcDbLine
 10
47.96233025293989
 20
24.28207210725108
 30
0.0
 11
47.96233025293941
 21
15.78207210725108
 31
0.0
  0
LINE
  5
3D6
330
6D
100
AcDbEntity
  8
1
  6
Continuous
 62
     6
100
AcDbLine
 10
-95.08247427381191
 20
7.28207210725108
 30
0.0
 11
-81.58247427381181
 21
7.28207210725108
 31
0.0
  0
LINE
  5
3D7
330
6D
100
AcDbEntity
  8
1
  6
Continuous
 62
     2
100
AcDbLine
 10
-95.08247427381191
 20
15.78207210725108
 30
0.0
 11
-95.08247427381191
 21
11.53207210725119
 31
0.0
  0
LINE
  5
3D8
330
6D
100
AcDbEntity
  8
1
  6
Continuous
 62
     2
100
AcDbLine
 10
-95.08247427381191
 20
15.78207210725108
 30
0.0
 11
-108.5824742738118
 21
15.78207210725108
 31
0.0
  0
LINE
  5
3D9
330
6D
100
AcDbEntity
  8
1
  6
Continuous
 62
     2
100
AcDbLine
 10
-95.08247427381191
 20
11.53207210725119
 30
0.0
 11
-95.08247427381191
 21
7.28207210725108
 31
0.0
  0
LINE
  5
3DA
330
6D
100
AcDbEntity
  8
1
  6
Continuous
 62
     7
100
AcDbLine
 10
-95.08247427381191
 20
11.53207210725119
 30
0.0
 11
-81.58247427381181
 21
11.53207210725119
 31
0.0
  0
LINE
  5
3DB
330
6D
100
AcDbEntity
  8
1
  6
Continuous
 62
     2
100
AcDbLine
 10
-95.08247427381191
 20
24.28207210725108
 30
0.0
 11
-95.08247427381191
 21
20.03207210725108
 31
0.0
  0
LINE
  5
3DC
330
6D
100
AcDbEntity
  8
1
  6
Continuous
 62
     2
100
AcDbLine
 10
-95.08247427381191
 20
24.28207210725108
 30
0.0
 11
-108.5824742738118
 21
24.28207210725108
 31
0.0
  0
LINE
  5
3DD
330
6D
100
AcDbEntity
  8
1
  6
Continuous
 62
     2
100
AcDbLine
 10
-95.08247427381191
 20
28.53207210725108
 30
0.0
 11
-95.08247427381191
 21
24.28207210725108
 31
0.0
  0
LINE
  5
3DE
330
6D
100
AcDbEntity
  8
1
  6
Continuous
 62
     2
100
AcDbLine
 10
-95.08247427381191
 20
28.53207210725108
 30
0.0
 11
-108.5824742738118
 21
28.53207210725108
 31
0.0
  0
LINE
  5
3DF
330
6D
100
AcDbEntity
  8
1
  6
Continuous
 62
     2
100
AcDbLine
 10
-95.08247427381191
 20
32.78207210725108
 30
0.0
 11
-95.08247427381191
 21
28.53207210725108
 31
0.0
  0
LINE
  5
3E0
330
6D
100
AcDbEntity
  8
1
  6
Continuous
 62
     2
100
AcDbLine
 10
-95.08247427381191
 20
32.78207210725108
 30
0.0
 11
-108.5824742738118
 21
32.78207210725108
 31
0.0
  0
LINE
  5
3E1
330
6D
100
AcDbEntity
  8
1
  6
Continuous
 62
     2
100
AcDbLine
 10
-95.08247427381191
 20
20.03207210725108
 30
0.0
 11
-95.08247427381191
 21
15.78207210725108
 31
0.0
  0
LINE
  5
3E2
330
6D
100
AcDbEntity
  8
1
  6
Continuous
 62
     2
100
AcDbLine
 10
-95.08247427381191
 20
20.03207210725108
 30
0.0
 11
-108.5824742738118
 21
20.03207210725108
 31
0.0
  0
LINE
  5
3E3
330
6D
100
AcDbEntity
  8
1
  6
Continuous
 62
     6
100
AcDbLine
 10
-108.5824742738118
 20
7.28207210725108
 30
0.0
 11
-95.53766974706191
 21
7.28207210725119
 31
0.0
  0
LINE
  5
3E4
330
6D
100
AcDbEntity
  8
1
  6
Continuous
 62
     2
100
AcDbLine
 10
-108.5824742738118
 20
15.78207210725108
 30
0.0
 11
-108.5824742738118
 21
11.53207210725119
 31
0.0
  0
LINE
  5
3E5
330
6D
100
AcDbEntity
  8
1
  6
Continuous
 62
     2
100
AcDbLine
 10
-108.5824742738118
 20
15.78207210725108
 30
0.0
 11
-122.0824742738118
 21
15.78207210725108
 31
0.0
  0
LINE
  5
3E6
330
6D
100
AcDbEntity
  8
1
  6
Continuous
 62
     2
100
AcDbLine
 10
-108.5824742738118
 20
11.53207210725119
 30
0.0
 11
-108.5824742738118
 21
7.28207210725108
 31
0.0
  0
LINE
  5
3E7
330
6D
100
AcDbEntity
  8
1
  6
Continuous
 62
     7
100
AcDbLine
 10
-108.5824742738118
 20
11.53207210725119
 30
0.0
 11
-95.08247427381191
 21
11.53207210725119
 31
0.0
  0
LINE
  5
3E8
330
6D
100
AcDbEntity
  8
1
  6
Continuous
 62
     2
100
AcDbLine
 10
-108.5824742738118
 20
24.28207210725108
 30
0.0
 11
-108.5824742738118
 21
20.03207210725108
 31
0.0
  0
LINE
  5
3E9
330
6D
100
AcDbEntity
  8
1
  6
Continuous
 62
     2
100
AcDbLine
 10
-108.5824742738118
 20
24.28207210725108
 30
0.0
 11
-122.0824742738118
 21
24.28207210725108
 31
0.0
  0
LINE
  5
3EA
330
6D
100
AcDbEntity
  8
1
  6
Continuous
 62
     2
100
AcDbLine
 10
-108.5824742738118
 20
28.53207210725108
 30
0.0
 11
-108.5824742738118
 21
24.28207210725108
 31
0.0
  0
LINE
  5
3EB
330
6D
100
AcDbEntity
  8
1
  6
Continuous
 62
     2
100
AcDbLine
 10
-108.5824742738118
 20
28.53207210725108
 30
0.0
 11
-122.0824742738118
 21
28.53207210725108
 31
0.0
  0
LINE
  5
3EC
330
6D
100
AcDbEntity
  8
1
  6
Continuous
 62
     2
100
AcDbLine
 10
-108.5824742738118
 20
32.78207210725108
 30
0.0
 11
-108.5824742738118
 21
28.53207210725108
 31
0.0
  0
LINE
  5
3ED
330
6D
100
AcDbEntity
  8
1
  6
Continuous
 62
     2
100
AcDbLine
 10
-108.5824742738118
 20
32.78207210725108
 30
0.0
 11
-122.0824742738118
 21
32.78207210725108
 31
0.0
  0
LINE
  5
3EE
330
6D
100
AcDbEntity
  8
1
  6
Continuous
 62
     2
100
AcDbLine
 10
-108.5824742738118
 20
20.03207210725108
 30
0.0
 11
-108.5824742738118
 21
15.78207210725108
 31
0.0
  0
LINE
  5
3EF
330
6D
100
AcDbEntity
  8
1
  6
Continuous
 62
     2
100
AcDbLine
 10
-108.5824742738118
 20
20.03207210725108
 30
0.0
 11
-122.0824742738118
 21
20.03207210725108
 31
0.0
  0
LINE
  5
3F0
330
6D
100
AcDbEntity
  8
1
  6
Continuous
 62
     6
100
AcDbLine
 10
-122.0824742738118
 20
7.28207210725108
 30
0.0
 11
-108.5824742738118
 21
7.28207210725108
 31
0.0
  0
LINE
  5
3F1
330
6D
100
AcDbEntity
  8
1
  6
Continuous
 62
     2
100
AcDbLine
 10
-122.0824742738118
 20
15.78207210725108
 30
0.0
 11
-122.0824742738118
 21
11.53207210725119
 31
0.0
  0
LINE
  5
3F2
330
6D
100
AcDbEntity
  8
1
  6
Continuous
 62
     2
100
AcDbLine
 10
-122.0824742738118
 20
15.78207210725108
 30
0.0
 11
-184.337669747062
 21
15.78207210725108
 31
0.0
  0
LINE
  5
3F3
330
6D
100
AcDbEntity
  8
1
  6
Continuous
 62
     2
100
AcDbLine
 10
-122.0824742738118
 20
11.53207210725119
 30
0.0
 11
-122.0824742738118
 21
7.28207210725108
 31
0.0
  0
LINE
  5
3F4
330
6D
100
AcDbEntity
  8
1
  6
Continuous
 62
     7
100
AcDbLine
 10
-122.0824742738118
 20
11.53207210725119
 30
0.0
 11
-108.5824742738118
 21
11.53207210725119
 31
0.0
  0
LINE
  5
3F5
330
6D
100
AcDbEntity
  8
1
  6
Continuous
 62
     2
100
AcDbLine
 10
-122.0824742738118
 20
24.28207210725108
 30
0.0
 11
-122.0824742738118
 21
20.03207210725108
 31
0.0
  0
LINE
  5
3F6
330
6D
100
AcDbEntity
  8
1
  6
Continuous
 62
     2
100
AcDbLine
 10
-122.0824742738118
 20
24.28207210725108
 30
0.0
 11
-184.337669747062
 21
24.28207210725108
 31
0.0
  0
LINE
  5
3F7
330
6D
100
AcDbEntity
  8
1
  6
Continuous
 62
     2
100
AcDbLine
 10
-122.0824742738118
 20
28.53207210725108
 30
0.0
 11
-122.0824742738118
 21
24.28207210725108
 31
0.0
  0
LINE
  5
3F8
330
6D
100
AcDbEntity
  8
1
  6
Continuous
 62
     2
100
AcDbLine
 10
-122.0824742738118
 20
32.78207210725108
 30
0.0
 11
-122.0824742738118
 21
28.53207210725108
 31
0.0
  0
LINE
  5
3F9
330
6D
100
AcDbEntity
  8
1
  6
Continuous
 62
     2
100
AcDbLine
 10
-122.0824742738118
 20
20.03207210725108
 30
0.0
 11
-122.0824742738118
 21
15.78207210725108
 31
0.0
  0
LINE
  5
3FA
330
6D
100
AcDbEntity
  8
1
  6
Continuous
 62
     2
100
AcDbLine
 10
-122.0824742738118
 20
20.03207210725108
 30
0.0
 11
-184.337669747062
 21
20.03207210725108
 31
0.0
  0
LINE
  5
3FB
330
6D
100
AcDbEntity
  8
1
  6
Continuous
 62
     7
100
AcDbLine
 10
-72.18247427381183
 20
24.28207210725119
 30
0.0
 11
-81.58247427381181
 21
24.28207210725108
 31
0.0
  0
LINE
  5
3FC
330
6D
100
AcDbEntity
  8
1
  6
Continuous
 62
     6
100
AcDbLine
 10
-72.18247427381183
 20
37.03207210725108
 30
0.0
 11
-81.58247427381181
 21
37.03207210725108
 31
0.0
  0
LINE
  5
3FD
330
6D
100
AcDbEntity
  8
1
  6
Continuous
 62
     7
100
AcDbLine
 10
-81.58247427381181
 20
32.78207210725108
 30
0.0
 11
-72.18247427381183
 21
32.78207210725108
 31
0.0
  0
LINE
  5
3FE
330
6D
100
AcDbEntity
  8
1
  6
Continuous
 62
     6
100
AcDbLine
 10
-204.03766974706
 20
20.03207210725108
 30
0.0
 11
-204.03766974706
 21
24.28207210725108
 31
0.0
  0
LINE
  5
3FF
330
6D
100
AcDbEntity
  8
1
  6
Continuous
 62
     6
100
AcDbLine
 10
47.96233025293981
 20
37.03207210725108
 30
0.0
 11
47.9623302529389
 21
28.53207210725108
 31
0.0
  0
LINE
  5
400
330
6D
100
AcDbEntity
  8
1
  6
Continuous
 62
     6
100
AcDbLine
 10
-204.03766974706
 20
7.28207210725119
 30
0.0
 11
-239.0376697470599
 21
7.28207210725119
 31
0.0
  0
LINE
  5
401
330
6D
100
AcDbEntity
  8
1
  6
Continuous
 62
     2
100
AcDbLine
 10
-73.30220513929655
 20
23.65707210725108
 30
0.0
 11
-69.30220513929655
 21
23.15707210725108
 31
0.0
  0
LINE
  5
402
330
6D
100
AcDbEntity
  8
1
  6
Continuous
 62
     2
100
AcDbLine
 10
-69.30220513929655
 20
23.15707210725108
 30
0.0
 11
-69.30220513929655
 21
21.15707210725108
 31
0.0
  0
LINE
  5
403
330
6D
100
AcDbEntity
  8
1
  6
Continuous
 62
     2
100
AcDbLine
 10
-69.30220513929655
 20
21.15707210725108
 30
0.0
 11
-73.30220513929655
 21
20.65707210725108
 31
0.0
  0
LINE
  5
404
330
6D
100
AcDbEntity
  8
1
  6
Continuous
 62
     2
100
AcDbLine
 10
-73.30220513929655
 20
20.65707210725108
 30
0.0
 11
-73.30220513929655
 21
23.65707210725108
 31
0.0
  0
LINE
  5
405
330
6D
100
AcDbEntity
  8
1
  6
Continuous
 62
     7
100
AcDbLine
 10
-15.53766974705952
 20
28.53207210725106
 30
0.0
 11
-22.28247427381189
 21
28.53207210725102
 31
0.0
  0
LINE
  5
406
330
6D
100
AcDbEntity
  8
1
  6
Continuous
 62
     7
100
AcDbLine
 10
-15.53766974705952
 20
24.28207210725108
 30
0.0
 11
-13.53766974705952
 21
24.28207210725108
 31
0.0
  0
LINE
  5
407
330
6D
100
AcDbEntity
  8
1
  6
Continuous
 62
     2
100
AcDbLine
 10
19.39706693772709
 20
22.73185282821832
 30
0.0
 11
19.39706693772709
 21
20.67445686336482
 31
0.0
  0
ARC
  5
408
330
6D
100
AcDbEntity
  8
1
  6
Continuous
 62
     2
100
AcDbCircle
 10
-54.58634853104724
 20
14.30712051180032
 30
0.0
 40
1.206350288026
100
AcDbArc
 50
91.6119598515516
 51
216.1353968693291
  0
ARC
  5
409
330
6D
100
AcDbEntity
  8
1
  6
Continuous
 62
     2
100
AcDbCircle
 10
-54.61090523629804
 20
14.33152988236722
 30
0.0
 40
1.201398482875458
100
AcDbArc
 50
217.7663890934394
 51
250.482095160258
  0
ARC
  5
40A
102
{ACAD_REACTORS
330
492
330
492
102
}
330
6D
100
AcDbEntity
  8
1
  6
Continuous
 62
     2
100
AcDbCircle
 10
-65.29070344395504
 20
14.32254829773402
 30
0.0
 40
1.19047619047711
100
AcDbArc
 50
90.0
 51
270.0
  0
ARC
  5
40B
102
{ACAD_REACTORS
330
492
330
492
102
}
330
6D
100
AcDbEntity
  8
1
  6
Continuous
 62
     2
100
AcDbCircle
 10
-65.18866262762774
 20
14.32254829773402
 30
0.0
 40
1.190476190477
100
AcDbArc
 50
270.0
 51
90.0
  0
ARC
  5
40C
102
{ACAD_REACTORS
330
493
330
493
102
}
330
6D
100
AcDbEntity
  8
1
  6
Continuous
 62
     2
100
AcDbCircle
 10
-62.16755213531994
 20
17.24159591676832
 30
0.0
 40
1.190476190476883
100
AcDbArc
 50
90.0
 51
270.0
  0
ARC
  5
40D
102
{ACAD_REACTORS
330
495
330
495
102
}
330
6D
100
AcDbEntity
  8
1
  6
Continuous
 62
     2
100
AcDbCircle
 10
-71.51138583843743
 20
16.15244247762061
 30
0.0
 40
1.73148148147442
100
AcDbArc
 50
270.0
 51
90.0
  0
ARC
  5
40E
102
{ACAD_REACTORS
330
495
330
495
102
}
330
6D
100
AcDbEntity
  8
1
  6
Continuous
 62
     2
100
AcDbCircle
 10
-72.02064509769554
 20
16.15244247762061
 30
0.0
 40
0.8148148148132894
100
AcDbArc
 50
295.7192795021669
 51
64.2807204979753
  0
ARC
  5
40F
102
{ACAD_REACTORS
330
495
330
495
102
}
330
6D
100
AcDbEntity
  8
1
  6
Continuous
 62
     2
100
AcDbCircle
 10
-72.02064509769554
 20
16.15244247762061
 30
0.0
 40
0.8148148148137929
100
AcDbArc
 50
115.7192795022131
 51
244.2807204978133
  0
ARC
  5
410
102
{ACAD_REACTORS
330
494
330
494
102
}
330
6D
100
AcDbEntity
  8
1
  6
Continuous
 62
     2
100
AcDbCircle
 10
-67.70115689439004
 20
17.63995479076763
 30
0.0
 40
0.2751160335811278
100
AcDbArc
 50
270.0
 51
90.0
  0
ARC
  5
411
102
{ACAD_REACTORS
330
494
330
494
102
}
330
6D
100
AcDbEntity
  8
1
  6
Continuous
 62
     2
100
AcDbCircle
 10
-67.43900307007704
 20
17.60923907954
 30
0.0
 40
0.8280239484092065
100
AcDbArc
 50
276.4189726355862
 51
83.58102736441384
  0
CIRCLE
  5
412
102
{ACAD_REACTORS
330
495
330
495
102
}
330
6D
100
AcDbEntity
  8
1
  6
Continuous
 62
     2
100
AcDbCircle
 10
-72.02064509769554
 20
16.15244247762061
 30
0.0
 40
0.4074074074073053
  0
CIRCLE
  5
413
330
6D
100
AcDbEntity
  8
1
  6
Continuous
 62
     2
100
AcDbCircle
 10
-76.49021444870854
 20
22.15707210725108
 30
0.0
 40
1.0
  0
CIRCLE
  5
414
330
6D
100
AcDbEntity
  8
1
  6
Continuous
 62
     2
100
AcDbCircle
 10
-76.49021444870854
 20
22.15707210725108
 30
0.0
 40
1.5
  0
ARC
  5
415
102
{ACAD_REACTORS
330
495
330
495
102
}
330
6D
100
AcDbEntity
  8
1
  6
Continuous
 62
     2
100
AcDbCircle
 10
-71.55212657917784
 20
14.68577581095073
 30
0.0
 40
0.2648148148142013
100
AcDbArc
 50
180.0
 51
270.0
  0
ARC
  5
416
102
{ACAD_REACTORS
330
495
330
495
102
}
330
6D
100
AcDbEntity
  8
1
  6
Continuous
 62
     2
100
AcDbCircle
 10
-71.55212657917784
 20
17.6191091442997
 30
0.0
 40
0.2648148148090819
100
AcDbArc
 50
90.0
 51
180.0
  0
ARC
  5
417
102
{ACAD_REACTORS
330
495
330
495
102
}
330
6D
100
AcDbEntity
  8
1
  6
Continuous
 62
     2
100
AcDbCircle
 10
-71.55212657917784
 20
17.1251143313265
 30
0.0
 40
0.2648148148142013
100
AcDbArc
 50
180.0
 51
244.2807204980797
  0
ARC
  5
418
102
{ACAD_REACTORS
330
495
330
495
102
}
330
6D
100
AcDbEntity
  8
1
  6
Continuous
 62
     2
100
AcDbCircle
 10
-71.55212657917784
 20
15.17977062391489
 30
0.0
 40
0.2648148148214936
100
AcDbArc
 50
115.7192795014989
 51
180.0
  0
ARC
  5
419
102
{ACAD_REACTORS
330
495
330
495
102
}
330
6D
100
AcDbEntity
  8
1
  6
Continuous
 62
     2
100
AcDbCircle
 10
-73.79286731991894
 20
17.6191091442997
 30
0.0
 40
0.2648148148090819
100
AcDbArc
 50
90.0
 51
180.0
  0
ARC
  5
41A
102
{ACAD_REACTORS
330
495
330
495
102
}
330
6D
100
AcDbEntity
  8
1
  6
Continuous
 62
     2
100
AcDbCircle
 10
-73.79286731991894
 20
13.87096099613879
 30
0.0
 40
0.2648148148140024
100
AcDbArc
 50
180.0
 51
270.0
  0
ARC
  5
41B
102
{ACAD_REACTORS
330
495
330
495
102
}
330
6D
100
AcDbEntity
  8
1
  6
Continuous
 62
     2
100
AcDbCircle
 10
-72.48916361621454
 20
13.87096099613879
 30
0.0
 40
0.2648148148045895
100
AcDbArc
 50
270.0
 51
0.0
  0
ARC
  5
41C
102
{ACAD_REACTORS
330
495
330
495
102
}
330
6D
100
AcDbEntity
  8
1
  6
Continuous
 62
     2
100
AcDbCircle
 10
-72.48916361621454
 20
15.17977062391489
 30
0.0
 40
0.2648148148150966
100
AcDbArc
 50
0.00000000192975
 51
64.28072049830722
  0
ARC
  5
41D
102
{ACAD_REACTORS
330
495
330
495
102
}
330
6D
100
AcDbEntity
  8
1
  6
Continuous
 62
     2
100
AcDbCircle
 10
-72.48916361621454
 20
17.1251143313265
 30
0.0
 40
0.2648148148217111
100
AcDbArc
 50
295.7192795015957
 51
0.0
  0
ARC
  5
41E
102
{ACAD_REACTORS
330
495
330
495
102
}
330
6D
100
AcDbEntity
  8
1
  6
Continuous
 62
     2
100
AcDbCircle
 10
-72.48916361621454
 20
17.6191091442997
 30
0.0
 40
0.2648148148150966
100
AcDbArc
 50
359.9999999980076
 51
90.0
  0
ARC
  5
41F
102
{ACAD_REACTORS
330
495
330
495
102
}
330
6D
100
AcDbEntity
  8
1
  6
Continuous
 62
     2
100
AcDbCircle
 10
-74.19471917176985
 20
18.09873877391223
 30
0.0
 40
0.3333333333329698
100
AcDbArc
 50
90.0
 51
180.0
  0
ARC
  5
420
102
{ACAD_REACTORS
330
495
330
495
102
}
330
6D
100
AcDbEntity
  8
1
  6
Continuous
 62
     2
100
AcDbCircle
 10
-74.19471917176985
 20
13.46540544058999
 30
0.0
 40
0.3333333333335986
100
AcDbArc
 50
180.0
 51
270.0
  0
ARC
  5
421
102
{ACAD_REACTORS
330
495
330
495
102
}
330
6D
100
AcDbEntity
  8
1
  6
Continuous
 62
     2
100
AcDbCircle
 10
-69.66138583843654
 20
13.46540544058999
 30
0.0
 40
0.3333333333329698
100
AcDbArc
 50
270.0
 51
0.0
  0
ARC
  5
422
102
{ACAD_REACTORS
330
495
330
495
102
}
330
6D
100
AcDbEntity
  8
1
  6
Continuous
 62
     2
100
AcDbCircle
 10
-69.66138583843654
 20
18.09873877391223
 30
0.0
 40
0.3333333333327033
100
AcDbArc
 50
0.0
 51
90.0
  0
MTEXT
  5
424
330
6D
100
AcDbEntity
  8
1
 62
     2
100
AcDbMText
 10
-44.0824742738119
 20
26.60707210725107
 30
0.0
 40
1.4
 41
0.0
 71
     4
 72
     1
  1
SAP\Pchange-No.
  7
CONVERTER_12
 73
     1
 44
0.66026410564226
  0
MTEXT
  5
425
330
6D
100
AcDbEntity
  8
1
 62
     3
100
AcDbMText
 10
-34.85023745569701
 20
26.40707210725107
 30
0.0
 40
2.5
 41
0.0
 71
     4
 72
     1
  1
MIG-020019
  7
CONVERTER_12
 73
     1
 44
1.20048019207683
  0
TEXT
  5
427
330
6D
100
AcDbEntity
  8
1
 62
     3
100
AcDbText
 10
-44.08247427381198
 20
39.32684368085533
 30
0.0
 40
2.5
  1
 
 41
0.72
  7
CONVERTER_13
100
AcDbText
  0
TEXT
  5
428
330
6D
100
AcDbEntity
  8
1
 62
     3
100
AcDbText
 10
-44.08247427381198
 20
42.82684368085533
 30
0.0
 40
2.5
  1
 
 41
0.72
  7
CONVERTER_13
100
AcDbText
  0
TEXT
  5
429
330
6D
100
AcDbEntity
  8
1
 62
     3
100
AcDbText
 10
-44.08247427381198
 20
46.32684368085533
 30
0.0
 40
2.5
  1
 
 41
0.72
  7
CONVERTER_13
100
AcDbText
  0
MTEXT
  5
42B
330
6D
100
AcDbEntity
  8
1
 62
     2
100
AcDbMText
 10
-183.337669747062
 20
13.65707210725119
 30
0.0
 40
2.0
 41
0.0
 71
     4
 72
     1
  1
 
  7
CONVERTER_14
 73
     1
 44
1.20048019207683
  0
MTEXT
  5
42C
330
6D
100
AcDbEntity
  8
1
 62
     2
100
AcDbMText
 10
-183.337669747062
 20
17.90707210725108
 30
0.0
 40
2.0
 41
0.0
 71
     4
 72
     1
  1
 
  7
CONVERTER_14
 73
     1
 44
1.20048019207683
  0
MTEXT
  5
42D
330
6D
100
AcDbEntity
  8
1
 62
     2
100
AcDbMText
 10
-183.337669747062
 20
22.15707210725108
 30
0.0
 40
2.0
 41
0.0
 71
     4
 72
     1
  1
 
  7
CONVERTER_14
 73
     1
 44
1.20048019207683
  0
MTEXT
  5
42E
330
6D
100
AcDbEntity
  8
1
 62
     2
100
AcDbMText
 10
-183.337669747062
 20
26.40707210725108
 30
0.0
 40
2.0
 41
0.0
 71
     4
 72
     1
  1
 
  7
CONVERTER_14
 73
     1
 44
1.20048019207683
  0
MTEXT
  5
42F
330
6D
100
AcDbEntity
  8
1
 62
     2
100
AcDbMText
 10
-183.337669747062
 20
30.65707210725108
 30
0.0
 40
2.0
 41
0.0
 71
     4
 72
     1
  1
 
  7
CONVERTER_14
 73
     1
 44
1.20048019207683
  0
MTEXT
  5
430
330
6D
100
AcDbEntity
  8
1
 62
     2
100
AcDbMText
 10
-183.337669747062
 20
34.90707210725108
 30
0.0
 40
2.0
 41
0.0
 71
     4
 72
     1
  1
 
  7
CONVERTER_14
 73
     1
 44
1.20048019207683
  0
MTEXT
  5
431
330
6D
100
AcDbEntity
  8
1
 62
     2
100
AcDbMText
 10
-88.33247427381188
 20
13.65707210725119
 30
0.0
 40
2.0
 41
0.0
 71
     5
 72
     1
  1
 
  7
CONVERTER_11
 73
     1
 44
1.20048019207683
  0
MTEXT
  5
432
330
6D
100
AcDbEntity
  8
1
 62
     2
100
AcDbMText
 10
-88.33247427381188
 20
17.90707210725108
 30
0.0
 40
2.0
 41
0.0
 71
     5
 72
     1
  1
 
  7
CONVERTER_11
 73
     1
 44
1.20048019207683
  0
MTEXT
  5
433
330
6D
100
AcDbEntity
  8
1
 62
     2
100
AcDbMText
 10
-88.33247427381188
 20
22.15707210725108
 30
0.0
 40
2.0
 41
0.0
 71
     5
 72
     1
  1
 
  7
CONVERTER_11
 73
     1
 44
1.20048019207683
  0
MTEXT
  5
434
330
6D
100
AcDbEntity
  8
1
 62
     2
100
AcDbMText
 10
-88.33247427381188
 20
26.40707210725108
 30
0.0
 40
2.0
 41
0.0
 71
     5
 72
     1
  1
 
  7
CONVERTER_11
 73
     1
 44
1.20048019207683
  0
MTEXT
  5
435
330
6D
100
AcDbEntity
  8
1
 62
     2
100
AcDbMText
 10
-88.33247427381188
 20
30.65707210725108
 30
0.0
 40
2.0
 41
0.0
 71
     5
 72
     1
  1
 
  7
CONVERTER_11
 73
     1
 44
1.20048019207683
  0
MTEXT
  5
436
330
6D
100
AcDbEntity
  8
1
 62
     2
100
AcDbMText
 10
-88.33247427381188
 20
34.90707210725108
 30
0.0
 40
2.0
 41
0.0
 71
     5
 72
     1
  1
 
  7
CONVERTER_11
 73
     1
 44
1.20048019207683
  0
MTEXT
  5
437
330
6D
100
AcDbEntity
  8
1
 62
     2
100
AcDbMText
 10
-101.8324742738119
 20
13.65707210725119
 30
0.0
 40
2.0
 41
0.0
 71
     5
 72
     1
  1
 
  7
CONVERTER_11
 73
     1
 44
1.20048019207683
  0
MTEXT
  5
438
330
6D
100
AcDbEntity
  8
1
 62
     2
100
AcDbMText
 10
-101.8324742738119
 20
17.90707210725108
 30
0.0
 40
2.0
 41
0.0
 71
     5
 72
     1
  1
 
  7
CONVERTER_11
 73
     1
 44
1.20048019207683
  0
MTEXT
  5
439
330
6D
100
AcDbEntity
  8
1
 62
     2
100
AcDbMText
 10
-101.8324742738119
 20
22.15707210725108
 30
0.0
 40
2.0
 41
0.0
 71
     5
 72
     1
  1
 
  7
CONVERTER_11
 73
     1
 44
1.20048019207683
  0
MTEXT
  5
43A
330
6D
100
AcDbEntity
  8
1
 62
     2
100
AcDbMText
 10
-101.8324742738119
 20
26.40707210725108
 30
0.0
 40
2.0
 41
0.0
 71
     5
 72
     1
  1
 
  7
CONVERTER_11
 73
     1
 44
1.20048019207683
  0
MTEXT
  5
43B
330
6D
100
AcDbEntity
  8
1
 62
     2
100
AcDbMText
 10
-101.8324742738119
 20
30.65707210725108
 30
0.0
 40
2.0
 41
0.0
 71
     5
 72
     1
  1
 
  7
CONVERTER_11
 73
     1
 44
1.20048019207683
  0
MTEXT
  5
43C
330
6D
100
AcDbEntity
  8
1
 62
     2
100
AcDbMText
 10
-101.8324742738119
 20
34.90707210725108
 30
0.0
 40
2.0
 41
0.0
 71
     5
 72
     1
  1
 
  7
CONVERTER_11
 73
     1
 44
1.20048019207683
  0
MTEXT
  5
43D
330
6D
100
AcDbEntity
  8
1
 62
     2
100
AcDbMText
 10
-115.3324742738118
 20
34.90707210725108
 30
0.0
 40
2.0
 41
0.0
 71
     5
 72
     1
  1
 
  7
CONVERTER_11
 73
     1
 44
1.20048019207683
  0
MTEXT
  5
43E
330
6D
100
AcDbEntity
  8
1
 62
     2
100
AcDbMText
 10
-115.3324742738118
 20
30.65707210725108
 30
0.0
 40
2.0
 41
0.0
 71
     5
 72
     1
  1
 
  7
CONVERTER_11
 73
     1
 44
1.20048019207683
  0
MTEXT
  5
43F
330
6D
100
AcDbEntity
  8
1
 62
     2
100
AcDbMText
 10
-115.3324742738118
 20
26.40707210725108
 30
0.0
 40
2.0
 41
0.0
 71
     5
 72
     1
  1
 
  7
CONVERTER_11
 73
     1
 44
1.20048019207683
  0
MTEXT
  5
440
330
6D
100
AcDbEntity
  8
1
 62
     2
100
AcDbMText
 10
-115.3324742738118
 20
22.15707210725108
 30
0.0
 40
2.0
 41
0.0
 71
     5
 72
     1
  1
 
  7
CONVERTER_11
 73
     1
 44
1.20048019207683
  0
MTEXT
  5
441
330
6D
100
AcDbEntity
  8
1
 62
     2
100
AcDbMText
 10
-115.3324742738118
 20
17.90707210725108
 30
0.0
 40
2.0
 41
0.0
 71
     5
 72
     1
  1
 
  7
CONVERTER_11
 73
     1
 44
1.20048019207683
  0
MTEXT
  5
442
330
6D
100
AcDbEntity
  8
1
 62
     2
100
AcDbMText
 10
-115.3324742738118
 20
13.65707210725119
 30
0.0
 40
2.0
 41
0.0
 71
     5
 72
     1
  1
 
  7
CONVERTER_11
 73
     1
 44
1.20048019207683
  0
MTEXT
  5
443
330
6D
100
AcDbEntity
  8
1
 62
     2
100
AcDbMText
 10
-191.087669747062
 20
34.90707210725108
 30
0.0
 40
2.0
 41
0.0
 71
     5
 72
     1
  1
 
  7
CONVERTER_11
 73
     1
 44
1.20048019207683
  0
MTEXT
  5
444
330
6D
100
AcDbEntity
  8
1
 62
     2
100
AcDbMText
 10
-191.087669747062
 20
30.65707210725108
 30
0.0
 40
2.0
 41
0.0
 71
     5
 72
     1
  1
 
  7
CONVERTER_11
 73
     1
 44
1.20048019207683
  0
MTEXT
  5
445
330
6D
100
AcDbEntity
  8
1
 62
     2
100
AcDbMText
 10
-191.087669747062
 20
26.40707210725108
 30
0.0
 40
2.0
 41
0.0
 71
     5
 72
     1
  1
 
  7
CONVERTER_11
 73
     1
 44
1.20048019207683
  0
MTEXT
  5
446
330
6D
100
AcDbEntity
  8
1
 62
     2
100
AcDbMText
 10
-191.087669747062
 20
22.15707210725108
 30
0.0
 40
2.0
 41
0.0
 71
     5
 72
     1
  1
 
  7
CONVERTER_11
 73
     1
 44
1.20048019207683
  0
MTEXT
  5
447
330
6D
100
AcDbEntity
  8
1
 62
     2
100
AcDbMText
 10
-191.087669747062
 20
17.90707210725108
 30
0.0
 40
2.0
 41
0.0
 71
     5
 72
     1
  1
 
  7
CONVERTER_11
 73
     1
 44
1.20048019207683
  0
MTEXT
  5
448
330
6D
100
AcDbEntity
  8
1
 62
     2
100
AcDbMText
 10
-191.087669747062
 20
13.65707210725119
 30
0.0
 40
2.0
 41
0.0
 71
     5
 72
     1
  1
 
  7
CONVERTER_11
 73
     1
 44
1.20048019207683
  0
MTEXT
  5
449
330
6D
100
AcDbEntity
  8
1
 62
     2
100
AcDbMText
 10
-200.937669747061
 20
13.65707210725119
 30
0.0
 40
2.0
 41
0.0
 71
     5
 72
     1
  1
 
  7
CONVERTER_11
 73
     1
 44
1.20048019207683
  0
MTEXT
  5
44A
330
6D
100
AcDbEntity
  8
1
 62
     2
100
AcDbMText
 10
-200.937669747061
 20
17.90707210725108
 30
0.0
 40
2.0
 41
0.0
 71
     5
 72
     1
  1
 
  7
CONVERTER_11
 73
     1
 44
1.20048019207683
  0
MTEXT
  5
44B
330
6D
100
AcDbEntity
  8
1
 62
     2
100
AcDbMText
 10
-200.937669747061
 20
22.15707210725108
 30
0.0
 40
2.0
 41
0.0
 71
     5
 72
     1
  1
 
  7
CONVERTER_11
 73
     1
 44
1.20048019207683
  0
MTEXT
  5
44C
330
6D
100
AcDbEntity
  8
1
 62
     2
100
AcDbMText
 10
-200.937669747061
 20
26.40707210725108
 30
0.0
 40
2.0
 41
0.0
 71
     5
 72
     1
  1
 
  7
CONVERTER_11
 73
     1
 44
1.20048019207683
  0
MTEXT
  5
44D
330
6D
100
AcDbEntity
  8
1
 62
     2
100
AcDbMText
 10
-200.937669747061
 20
30.65707210725108
 30
0.0
 40
2.0
 41
0.0
 71
     5
 72
     1
  1
 
  7
CONVERTER_11
 73
     1
 44
1.20048019207683
  0
MTEXT
  5
44E
330
6D
100
AcDbEntity
  8
1
 62
     2
100
AcDbMText
 10
-200.937669747061
 20
34.90707210725108
 30
0.0
 40
2.0
 41
0.0
 71
     5
 72
     1
  1
 
  7
CONVERTER_11
 73
     1
 44
1.20048019207683
  0
MTEXT
  5
44F
330
6D
100
AcDbEntity
  8
1
 62
     2
100
AcDbMText
 10
-14.53766974705952
 20
27.53207210725108
 30
0.0
 40
1.8
 41
0.0
 71
     1
 72
     1
  1
part-rev.
  7
CONVERTER_13
 73
     1
 44
1.20048019207683
  0
MTEXT
  5
450
330
6D
100
AcDbEntity
  8
1
 62
     2
100
AcDbMText
 10
3.9623302529401
 20
23.28207210725108
 30
0.0
 40
1.8
 41
0.0
 71
     1
 72
     1
  1
surface in um
  7
CONVERTER_11
 73
     1
 44
1.32052821128451
  0
MTEXT
  5
451
330
6D
100
AcDbEntity
  8
1
 62
     7
100
AcDbMText
 10
50.46233025293719
 20
82.28207210725301
 30
0.0
 40
3.5
 41
0.0
 71
     5
 72
     1
  1
C
  7
CONVERTER_11
 73
     1
 44
1.20048019207683
  0
MTEXT
  5
452
330
6D
100
AcDbEntity
  8
1
 62
     7
100
AcDbMText
 10
50.46233025293719
 20
184.7820721072511
 30
0.0
 40
3.5
 41
0.0
 71
     5
 72
     1
  1
A
  7
CONVERTER_11
 73
     1
 44
1.20048019207683
  0
MTEXT
  5
453
330
6D
100
AcDbEntity
  8
1
 62
     7
100
AcDbMText
 10
50.46233025293719
 20
132.282072107253
 30
0.0
 40
3.5
 41
0.0
 71
     5
 72
     1
  1
B
  7
CONVERTER_11
 73
     1
 44
1.20048019207683
  0
MTEXT
  5
454
330
6D
100
AcDbEntity
  8
1
 62
     7
100
AcDbMText
 10
50.46233025293719
 20
29.78207210725108
 30
0.0
 40
3.5
 41
0.0
 71
     5
 72
     1
  1
D
  7
CONVERTER_11
 73
     1
 44
1.20048019207683
  0
MTEXT
  5
455
330
6D
100
AcDbEntity
  8
1
 62
     3
100
AcDbMText
 10
-239.03260196099
 20
194.0733802625499
 30
0.0
 40
1.8
 41
0.0
 71
     7
 72
     1
  3
Weitergabe sowie Vervielf\U+00e4ltigung dieses Dokuments, Verwertung und\PMitteilung seines Inhalts gem\U+00e4\U+00df \U+00a718 UWG verboten, soweit nicht aus-\Pdr\U+00fccklich gestattet. Zuwiderhandlungen verpflichten zu Schadenersatz\P(\U+00a719 U
  1
WG). Alle Rechte vorbehalten, insbesondere das Recht, Patent-,\PGebrauchsmuster- oder Geschmacksmusteranmeldungen durchzuf\U+00fchren.\PPhoenix Contact GmbH & Co. KG
  7
CONVERTER_11
 73
     1
 44
0.99639855942377
  0
MTEXT
  5
456
330
6D
100
AcDbEntity
  8
1
 62
     3
100
AcDbMText
 10
-66.17949212220194
 20
194.0733802625499
 30
0.0
 40
1.8
 41
0.0
 71
     7
 72
     1
  3
The copying, distribution and utilistion of this document as well as the communication\Pof the contents to others without expressed authorization is prohibited according to\P\U+00a718 UWG German Law. Offenders will be held liable for the payment of 
  1
damages\Paccording to (\U+00a719 UWG German Law). All rights reserved, in particular the right to\Pcarry out patent, utility model or ornamental design registrations.\PFlachsmarktstra\U+00dfe 8  D-32825 Blomberg
  7
CONVERTER_11
 73
     1
 44
0.99639855942377
  0
MTEXT
  5
457
330
6D
100
AcDbEntity
  8
1
 62
     7
100
AcDbMText
 10
-219.7876697470615
 20
4.78207210725108
 30
0.0
 40
3.5
 41
0.0
 71
     5
 72
     1
  1
1
  7
CONVERTER_11
 73
     1
 44
1.20048019207683
  0
MTEXT
  5
458
330
6D
100
AcDbEntity
  8
1
 62
     7
100
AcDbMText
 10
-170.5376697470619
 20
4.78207210725108
 30
0.0
 40
3.5
 41
0.0
 71
     5
 72
     1
  1
2
  7
CONVERTER_11
 73
     1
 44
1.20048019207683
  0
MTEXT
  5
459
330
6D
100
AcDbEntity
  8
1
 62
     7
100
AcDbMText
 10
-120.5376697470619
 20
4.78207210725108
 30
0.0
 40
3.5
 41
0.0
 71
     5
 72
     1
  1
3
  7
CONVERTER_11
 73
     1
 44
1.20048019207683
  0
MTEXT
  5
45A
330
6D
100
AcDbEntity
  8
1
 62
     7
100
AcDbMText
 10
-70.53766974706194
 20
4.78207210725108
 30
0.0
 40
3.5
 41
0.0
 71
     5
 72
     1
  1
4
  7
CONVERTER_11
 73
     1
 44
1.20048019207683
  0
MTEXT
  5
45B
330
6D
100
AcDbEntity
  8
1
 62
     7
100
AcDbMText
 10
-20.53766974706189
 20
4.78207210725108
 30
0.0
 40
3.5
 41
0.0
 71
     5
 72
     1
  1
5
  7
CONVERTER_11
 73
     1
 44
1.20048019207683
  0
MTEXT
  5
45C
330
6D
100
AcDbEntity
  8
1
 62
     7
100
AcDbMText
 10
28.71233025293739
 20
4.78207210725108
 30
0.0
 40
3.5
 41
0.0
 71
     5
 72
     1
  1
6
  7
CONVERTER_11
 73
     1
 44
1.20048019207683
  0
MTEXT
  5
45D
330
6D
100
AcDbEntity
  8
1
 62
     7
100
AcDbMText
 10
-241.5376697470609
 20
184.7820721072511
 30
0.0
 40
3.5
 41
0.0
 71
     5
 72
     1
  1
A
  7
CONVERTER_11
 73
     1
 44
1.20048019207683
  0
MTEXT
  5
45E
330
6D
100
AcDbEntity
  8
1
 62
     7
100
AcDbMText
 10
-241.5376697470609
 20
132.2820721072511
 30
0.0
 40
3.5
 41
0.0
 71
     5
 72
     1
  1
B
  7
CONVERTER_11
 73
     1
 44
1.20048019207683
  0
MTEXT
  5
45F
330
6D
100
AcDbEntity
  8
1
 62
     7
100
AcDbMText
 10
-241.5376697470609
 20
82.28207210725108
 30
0.0
 40
3.5
 41
0.0
 71
     5
 72
     1
  1
C
  7
CONVERTER_11
 73
     1
 44
1.20048019207683
  0
MTEXT
  5
460
330
6D
100
AcDbEntity
  8
1
 62
     7
100
AcDbMText
 10
-241.5376697470609
 20
29.78207210725108
 30
0.0
 40
3.5
 41
0.0
 71
     5
 72
     1
  1
D
  7
CONVERTER_11
 73
     1
 44
1.20048019207683
  0
MTEXT
  5
461
330
6D
100
AcDbEntity
  8
1
 62
     2
100
AcDbMText
 10
31.3807385346189
 20
36.03207210725108
 30
0.0
 40
1.8
 41
0.0
 71
     1
 72
     1
  1
dim.var.
  7
CONVERTER_11
 73
     1
 44
1.20048019207683
  0
MTEXT
  5
463
330
6D
100
AcDbEntity
  8
1
 62
     2
100
AcDbMText
 10
-14.53766974705952
 20
23.28207210725108
 30
0.0
 40
1.8
 41
0.0
 71
     1
 72
     1
  1
document-No.
  7
CONVERTER_15
 73
     1
 44
1.32052821128451
  0
TEXT
  5
464
330
6D
100
AcDbEntity
  8
1
 62
     2
100
AcDbText
 10
-62.38247427381194
 20
8.52305489225952
 30
0.0
 40
1.8
  1
of
 41
0.9
  7
CONVERTER_11
100
AcDbText
  0
TEXT
  5
465
330
6D
100
AcDbEntity
  8
1
 62
     2
100
AcDbText
 10
-80.58247427381181
 20
8.52305489225941
 30
0.0
 40
1.8
  1
page
 41
0.9
  7
CONVERTER_11
100
AcDbText
  0
MTEXT
  5
466
330
6D
100
AcDbEntity
  8
1
 62
     2
100
AcDbMText
 10
-88.33247427381191
 20
8.53207210725108
 30
0.0
 40
1.8
 41
0.0
 71
     8
 72
     1
  1
name
  7
CONVERTER_11
 73
     1
 44
1.32052821128451
  0
MTEXT
  5
467
330
6D
100
AcDbEntity
  8
1
 62
     2
100
AcDbMText
 10
-101.8324742738118
 20
8.53207210725108
 30
0.0
 40
1.8
 41
0.0
 71
     8
 72
     1
  1
check.on
  7
CONVERTER_11
 73
     1
 44
1.32052821128451
  0
MTEXT
  5
468
330
6D
100
AcDbEntity
  8
1
 62
     2
100
AcDbMText
 10
-115.3324742738118
 20
8.53207210725108
 30
0.0
 40
1.8
 41
0.0
 71
     8
 72
     1
  1
name
  7
CONVERTER_11
 73
     1
 44
1.32052821128451
  0
MTEXT
  5
469
330
6D
100
AcDbEntity
  8
1
 62
     2
100
AcDbMText
 10
-191.087669747062
 20
8.53207210725108
 30
0.0
 40
1.8
 41
0.0
 71
     8
 72
     1
  1
date
  7
CONVERTER_11
 73
     1
 44
1.32052821128451
  0
MTEXT
  5
46A
330
6D
100
AcDbEntity
  8
1
 62
     2
100
AcDbMText
 10
-21.05728511622041
 20
36.03207210725091
 30
0.0
 40
1.8
 41
0.0
 71
     1
 72
     1
  1
material
  7
CONVERTER_11
 73
     1
 44
1.20048019207683
  0
MTEXT
  5
46B
330
6D
100
AcDbEntity
  8
1
 62
     2
100
AcDbMText
 10
-200.937669747061
 20
8.53207210725108
 30
0.0
 40
1.8
 41
0.0
 71
     8
 72
     1
  1
RI
  7
CONVERTER_11
 73
     1
 44
1.32052821128451
  0
MTEXT
  5
46C
330
6D
100
AcDbEntity
  8
1
 62
     2
100
AcDbMText
 10
-65.43247427381193
 20
33.98207210725113
 30
0.0
 40
1.8
 41
0.0
 71
     8
 72
     1
  1
date
  7
CONVERTER_11
 73
     1
 44
1.32052821128451
  0
MTEXT
  5
46D
330
6D
100
AcDbEntity
  8
1
 62
     2
100
AcDbMText
 10
-51.93247427381195
 20
33.98207210725113
 30
0.0
 40
1.8
 41
0.0
 71
     8
 72
     1
  1
name
  7
CONVERTER_11
 73
     1
 44
1.32052821128451
  0
MTEXT
  5
46E
330
6D
100
AcDbEntity
  8
1
 62
     2
100
AcDbMText
 10
-153.2100720104369
 20
8.53207210725108
 30
0.0
 40
1.8
 41
0.0
 71
     8
 72
     1
  1
revision
  7
CONVERTER_11
 73
     1
 44
1.32052821128451
  0
MTEXT
  5
46F
330
6D
100
AcDbEntity
  8
1
 62
     2
100
AcDbMText
 10
22.26233025293999
 20
36.03207210725108
 30
0.0
 40
1.8
 41
0.0
 71
     1
 72
     1
  1
scale
  7
CONVERTER_11
 73
     1
 44
1.20048019207683
  0
MTEXT
  5
470
330
6D
100
AcDbEntity
  8
1
 62
     2
100
AcDbMText
 10
-76.88247427381184
 20
30.65707210725108
 30
0.0
 40
1.8
 41
0.0
 71
     5
 72
     1
  1
creat.
  7
CONVERTER_11
 73
     1
 44
1.20048019207683
  0
MTEXT
  5
471
330
6D
100
AcDbEntity
  8
1
 62
     2
100
AcDbMText
 10
-76.88247427381184
 20
26.40707210725108
 30
0.0
 40
1.8
 41
0.0
 71
     5
 72
     1
  1
check.
  7
CONVERTER_11
 73
     1
 44
1.20048019207683
  0
MTEXT
  5
472
330
6D
100
AcDbEntity
  8
1
 62
     3
100
AcDbMText
 10
-55.38247427381194
 20
22.15707210725119
 30
0.0
 40
2.5
 41
0.0
 71
     5
 72
     1
  1
DIN A4
  7
CONVERTER_11
 73
     1
 44
1.20048019207683
  0
MTEXT
  5
473
330
6D
100
AcDbEntity
  8
1
 62
     2
100
AcDbMText
 10
-44.0824742738119
 20
36.03207210725108
 30
0.0
 40
1.8
 41
0.0
 71
     1
 72
     1
  1
ident.-No. / RI
  7
CONVERTER_11
 73
     1
 44
1.20048019207683
  0
TEXT
  5
474
330
6D
100
AcDbEntity
  8
1
 62
     2
100
AcDbText
 10
-71.93620930346974
 20
8.48282345344913
 30
0.0
 40
1.8
  1
 
 41
0.9
  7
CONVERTER_11
100
AcDbText
  0
TEXT
  5
475
330
6D
100
AcDbEntity
  8
1
 62
     2
100
AcDbText
 10
-57.14716546399824
 20
8.53207210725108
 30
0.0
 40
1.8
  1
1
 41
0.9
  7
CONVERTER_11
100
AcDbText
  0
MTEXT
  5
476
330
6D
100
AcDbEntity
  8
1
 62
     2
100
AcDbMText
 10
-44.18247427381191
 20
14.78207210725108
 30
0.0
 40
1.8
 41
0.0
 71
     1
 72
     1
  1
description
  7
CONVERTER_11
 73
     1
 44
1.20048019207683
  0
MTEXT
  5
477
330
6D
100
AcDbEntity
  8
1
 62
     2
100
AcDbMText
 10
-76.88247427381184
 20
33.98207210725113
 30
0.0
 40
1.8
 41
0.0
 71
     8
 72
     1
  1
00
  7
CONVERTER_11
 73
     1
 44
1.20048019207683
  0
MTEXT
  5
478
330
6D
100
AcDbEntity
  8
1
 62
     2
100
AcDbMText
 10
-44.18247427381191
 20
23.28207210725102
 30
0.0
 40
1.8
 41
0.0
 71
     1
 72
     1
  1
document-type
  7
CONVERTER_11
 73
     1
 44
1.20048019207683
  0
MTEXT
  5
479
330
6D
100
AcDbEntity
  8
1
 62
     2
100
AcDbMText
 10
-51.93247427381195
 20
26.40707210725108
 30
0.0
 40
1.8
 41
0.0
 71
     5
 72
     1
  1
pbam06
  7
CONVERTER_11
 73
     1
 44
1.32052821128451
  0
MTEXT
  5
47A
330
6D
100
AcDbEntity
  8
1
 62
     2
100
AcDbMText
 10
-51.93247427381195
 20
30.65707210725108
 30
0.0
 40
1.8
 41
0.0
 71
     5
 72
     1
  1
pbfm09
  7
CONVERTER_11
 73
     1
 44
1.32052821128451
  0
MTEXT
  5
47B
330
6D
100
AcDbEntity
  8
1
 62
     2
100
AcDbMText
 10
-65.43247427381189
 20
26.40707210725108
 30
0.0
 40
1.8
 41
0.0
 71
     5
 72
     1
  1
20.11.10
  7
CONVERTER_11
 73
     1
 44
1.32052821128451
  0
MTEXT
  5
47C
330
6D
100
AcDbEntity
  8
1
 62
     2
100
AcDbMText
 10
-65.43247427381189
 20
30.65707210725108
 30
0.0
 40
1.8
 41
0.0
 71
     5
 72
     1
  1
01.06.05
  7
CONVERTER_11
 73
     1
 44
1.32052821128451
  0
TEXT
  5
47D
330
6D
100
AcDbEntity
  8
1
 62
     7
100
AcDbText
 10
-29.2089265517981
 20
29.83207210725108
 30
0.0
 40
2.5
  1
/
 41
0.9
  7
CONVERTER_11
100
AcDbText
  0
TEXT
  5
47F
330
6D
100
AcDbEntity
  8
1
 62
     3
100
AcDbText
 10
3.9623302529401
 20
17.08207210725108
 30
0.0
 40
2.5
  1
 
 41
0.54
  7
CONVERTER_16
100
AcDbText
  0
MTEXT
  5
481
330
6D
100
AcDbEntity
  8
1
 62
     7
100
AcDbMText
 10
1.3899279895636
 20
10.53207210725131
 30
0.0
 40
3.0
 41
0.0
 71
     5
 72
     1
  1
FBS 10-6
  7
CONVERTER_17
 73
     1
 44
1.20048019207683
  0
MTEXT
  5
482
330
6D
100
AcDbEntity
  8
1
 62
     3
100
AcDbMText
 10
25.62153439377951
 20
29.83207210725119
 30
0.0
 40
2.5
 41
0.0
 71
     8
 72
     1
  1
1:1
  7
CONVERTER_13
 73
     1
 44
1.32052821128451
  0
TEXT
  5
483
330
6D
100
AcDbEntity
  8
1
 62
     3
100
AcDbText
 10
-21.28247427381189
 20
29.83207210725108
 30
0.0
 40
2.5
  1
-
 41
0.54
  7
CONVERTER_16
100
AcDbText
  0
TEXT
  5
484
330
6D
100
AcDbEntity
  8
1
 62
     7
100
AcDbText
 10
-43.6824742738121
 20
29.83207210725108
 30
0.0
 40
2.5
  1
3030271
 41
0.81
  7
CONVERTER_17
100
AcDbText
  0
TEXT
  5
485
330
6D
100
AcDbEntity
  8
1
 62
     7
100
AcDbText
 10
-14.53766974705952
 20
17.08207210725108
 30
0.0
 40
2.5
  1
00357348
 41
0.81
  7
CONVERTER_17
100
AcDbText
  0
TEXT
  5
486
330
6D
100
AcDbEntity
  8
1
 62
     3
100
AcDbText
 10
31.080738534619
 20
29.83207210725108
 30
0.0
 40
2.5
  1
 
 41
0.54
  7
CONVERTER_16
100
AcDbText
  0
TEXT
  5
488
330
6D
100
AcDbEntity
  8
1
 62
     3
100
AcDbText
 10
-44.18247427381191
 20
17.08207210725108
 30
0.0
 40
2.5
  1
KUNDENZCHNG-SELECT
 41
0.45
  7
CONVERTER_18
100
AcDbText
  0
TEXT
  5
489
330
6D
100
AcDbEntity
  8
1
 62
     7
100
AcDbText
 10
-27.05256205475609
 20
29.83207210725108
 30
0.0
 40
2.5
  1
00
 41
0.81
  7
CONVERTER_17
100
AcDbText
  0
MTEXT
  5
48A
330
6D
100
AcDbEntity
  8
1
 62
     3
100
AcDbMText
 10
-4.3306498604515
 20
27.63207210725108
 30
0.0
 40
2.0
 41
0.0
 71
     1
 72
     1
  1
 
  7
CONVERTER_13
 73
     1
 44
1.20048019207683
  0
HATCH
  5
48B
330
6D
100
AcDbEntity
  8
1
  6
Continuous
 62
     2
100
AcDbHatch
 10
0.0
 20
0.0
 30
0.0
210
0.0
220
0.0
230
1.0
  2
CUSTOM0
 70
     0
 71
     1
 91
        1
 92
        1
 93
       12
 72
     1
 10
-53.30492325340435
 20
18.4320721072452
 11
-52.30492325340435
 21
18.4320721072452
 72
     1
 10
-52.30492325340435
 20
18.4320721072452
 11
-53.23349468197583
 21
17.28366221325072
 72
     1
 10
-53.23349468197583
 20
17.28366221325072
 11
-52.23689604252033
 21
16.0511197262912
 72
     1
 10
-52.23689604252033
 20
16.0511197262912
 11
-53.23689604252033
 21
16.0511197262912
 72
     1
 10
-53.23689604252033
 20
16.0511197262912
 11
-53.73349468197503
 21
16.66528765494783
 72
     1
 10
-53.73349468197503
 20
16.66528765494783
 11
-54.23009332143175
 21
16.0511197262912
 72
     1
 10
-54.23009332143175
 20
16.0511197262912
 11
-55.23009332143175
 21
16.0511197262912
 72
     1
 10
-55.23009332143175
 20
16.0511197262912
 11
-54.23349468197583
 21
17.28366221325072
 72
     1
 10
-54.23349468197583
 20
17.28366221325072
 11
-55.16206611054733
 21
18.4320721072452
 72
     1
 10
-55.16206611054733
 20
18.4320721072452
 11
-54.16206611054733
 21
18.4320721072452
 72
     1
 10
-54.16206611054733
 20
18.4320721072452
 11
-53.73349468197503
 21
17.90203677155378
 72
     1
 10
-53.73349468197503
 20
17.90203677155378
 11
-53.30492325340435
 21
18.4320721072452
 97
       12
330
31F
330
31E
330
31D
330
31C
330
31B
330
31A
330
319
330
318
330
317
330
316
330
315
330
314
 75
     1
 76
     2
 52
0.02257274673786
 41
0.05
 77
     0
 78
     1
 53
0.02257274673786
 43
-1699.81996388569
 44
12438.36661982803
 45
-0.0500196945567958
 46
0.0499802976826355
 79
     0
 98
        1
 10
0.0
 20
0.0
  0
HATCH
  5
48C
330
6D
100
AcDbEntity
  8
1
  6
Continuous
 62
     2
100
AcDbHatch
 10
0.0
 20
0.0
 30
0.0
210
0.0
220
0.0
230
1.0
  2
CUSTOM1
 70
     0
 71
     1
 91
        2
 92
        1
 93
        8
 72
     1
 10
-57.71591520554904
 20
15.51302448821113
 11
-56.83156146405184
 21
15.51302448821113
 72
     1
 10
-56.83156146405184
 20
15.51302448821113
 11
-55.83496282459643
 21
13.13207210725702
 72
     1
 10
-55.83496282459643
 20
13.13207210725702
 11
-56.71931656609282
 21
13.13207210725702
 72
     1
 10
-56.71931656609282
 20
13.13207210725702
 11
-56.87008038039053
 21
13.55384081474031
 72
     1
 10
-56.87008038039053
 20
13.55384081474031
 11
-57.67739628921075
 21
13.55384081474031
 72
     1
 10
-57.67739628921075
 20
13.55384081474031
 11
-57.82816010350794
 21
13.13207210725702
 72
     1
 10
-57.82816010350794
 20
13.13207210725702
 11
-58.71251384500493
 21
13.13207210725702
 72
     1
 10
-58.71251384500493
 20
13.13207210725702
 11
-57.71591520554904
 21
15.51302448821113
 97
        8
330
39D
330
39C
330
39B
330
39A
330
399
330
398
330
397
330
396
 92
       16
 93
        3
 72
     1
 10
-57.48772568412545
 20
14.08445305963769
 11
-57.27373833480053
 21
14.68309251542169
 72
     1
 10
-57.27373833480053
 20
14.68309251542169
 11
-57.05975098547435
 21
14.08445305963769
 72
     1
 10
-57.05975098547435
 20
14.08445305963769
 11
-57.48772568412545
 21
14.08445305963769
 97
        3
330
395
330
394
330
393
 75
     1
 76
     2
 52
0.02257274673786
 41
0.05
 77
     0
 78
     1
 53
0.02257274673786
 43
-1699.81996388569
 44
12438.36661982803
 45
-0.0500196945567958
 46
0.0499802976826355
 79
     0
 98
        1
 10
0.0
 20
0.0
  0
HATCH
  5
48D
330
6D
100
AcDbEntity
  8
1
  6
Continuous
 62
     2
100
AcDbHatch
 10
0.0
 20
0.0
 30
0.0
210
0.0
220
0.0
230
1.0
  2
CUSTOM2
 70
     0
 71
     1
 91
        1
 92
        1
 93
        8
 72
     1
 10
-60.60911248445915
 20
15.51302448821113
 11
-60.60911248445915
 21
14.90077959024981
 72
     1
 10
-60.60911248445915
 20
14.90077959024981
 11
-60.03088119194314
 21
14.90077959024981
 72
     1
 10
-60.03088119194314
 20
14.90077959024981
 11
-60.03088119194314
 21
13.13207210725702
 72
     1
 10
-60.03088119194314
 20
13.13207210725702
 11
-59.18054105588804
 21
13.13207210725702
 72
     1
 10
-59.18054105588804
 20
13.13207210725702
 11
-59.18054105588804
 21
14.90077959024981
 72
     1
 10
-59.18054105588804
 20
14.90077959024981
 11
-58.60230976337203
 21
14.90077959024981
 72
     1
 10
-58.60230976337203
 20
14.90077959024981
 11
-58.60230976337203
 21
15.51302448821113
 72
     1
 10
-58.60230976337203
 20
15.51302448821113
 11
-60.60911248445915
 21
15.51302448821113
 97
        8
330
3A5
330
3A4
330
3A3
330
3A2
330
3A1
330
3A0
330
39F
330
39E
 75
     1
 76
     2
 52
0.02257274673786
 41
0.05
 77
     0
 78
     1
 53
0.02257274673786
 43
-1699.81996388569
 44
12438.36661982803
 45
-0.0500196945567958
 46
0.0499802976826355
 79
     0
 98
        1
 10
0.0
 20
0.0
  0
HATCH
  5
48E
330
6D
100
AcDbEntity
  8
1
  6
Continuous
 62
     2
100
AcDbHatch
 10
0.0
 20
0.0
 30
0.0
210
0.0
220
0.0
230
1.0
  2
CUSTOM3
 70
     0
 71
     1
 91
        1
 92
        1
 93
       10
 72
     1
 10
-63.59618731439204
 20
15.51302448821113
 11
-63.59618731439204
 21
13.13207210725702
 72
     1
 10
-63.59618731439204
 20
13.13207210725702
 11
-62.74584717833633
 21
13.13207210725702
 72
     1
 10
-62.74584717833633
 20
13.13207210725702
 11
-62.74584717833633
 21
14.15248027052419
 72
     1
 10
-62.74584717833633
 20
14.15248027052419
 11
-61.86149343684075
 21
13.13207210725702
 72
     1
 10
-61.86149343684075
 20
13.13207210725702
 11
-61.01115330078665
 21
13.13207210725702
 72
     1
 10
-61.01115330078665
 20
13.13207210725702
 11
-61.01115330078665
 21
15.51302448821113
 72
     1
 10
-61.01115330078665
 20
15.51302448821113
 11
-61.86149343684075
 21
15.51302448821113
 72
     1
 10
-61.86149343684075
 20
15.51302448821113
 11
-61.86149343684075
 21
14.49261632494378
 72
     1
 10
-61.86149343684075
 20
14.49261632494378
 11
-62.74584717833633
 21
15.51302448821113
 72
     1
 10
-62.74584717833633
 20
15.51302448821113
 11
-63.59618731439204
 21
15.51302448821113
 97
       10
330
3AF
330
3AE
330
3AD
330
3AC
330
3AB
330
3AA
330
3A9
330
3A8
330
3A7
330
3A6
 75
     1
 76
     2
 52
0.02257274673786
 41
0.05
 77
     0
 78
     1
 53
0.02257274673786
 43
-1699.81996388569
 44
12438.36661982803
 45
-0.0500196945567958
 46
0.0499802976826355
 79
     0
 98
        1
 10
0.0
 20
0.0
  0
HATCH
  5
48F
330
6D
100
AcDbEntity
  8
1
  6
Continuous
 62
     2
100
AcDbHatch
 10
0.0
 20
0.0
 30
0.0
210
0.0
220
0.0
230
1.0
  2
_USER
 70
     0
 71
     1
 91
        1
 92
        1
 93
        4
 72
     1
 10
-55.61512733503633
 20
18.4320721072452
 11
-55.61512733503633
 21
16.0511197262912
 72
     1
 10
-55.61512733503633
 20
16.0511197262912
 11
-56.49948107653373
 21
16.0511197262912
 72
     1
 10
-56.49948107653373
 20
16.0511197262912
 11
-56.49948107653373
 21
18.4320721072452
 72
     1
 10
-56.49948107653373
 20
18.4320721072452
 11
-55.61512733503633
 21
18.4320721072452
 97
        4
330
322
330
321
330
3B0
330
320
 75
     1
 76
     0
 52
0.0
 41
0.05
 77
     0
 78
     1
 53
0.0
 43
0.0
 44
0.0
 45
0.0
 46
0.05
 79
     0
 98
        1
 10
0.0
 20
0.0
  0
HATCH
  5
490
330
6D
100
AcDbEntity
  8
1
  6
Continuous
 62
     2
100
AcDbHatch
 10
0.0
 20
0.0
 30
0.0
210
0.0
220
0.0
230
1.0
  2
CUSTOM4
 70
     0
 71
     1
 91
        1
 92
        1
 93
       10
 72
     1
 10
-57.81988923979854
 20
18.4320721072452
 11
-57.81988923979854
 21
17.41166394397803
 72
     1
 10
-57.81988923979854
 20
17.41166394397803
 11
-58.70424298129583
 21
18.4320721072452
 72
     1
 10
-58.70424298129583
 20
18.4320721072452
 11
-59.55458311734944
 21
18.4320721072452
 72
     1
 10
-59.55458311734944
 20
18.4320721072452
 11
-59.55458311734944
 21
16.0511197262912
 72
     1
 10
-59.55458311734944
 20
16.0511197262912
 11
-58.70424298129583
 21
16.0511197262912
 72
     1
 10
-58.70424298129583
 20
16.0511197262912
 11
-58.70424298129583
 21
17.07152788955861
 72
     1
 10
-58.70424298129583
 20
17.07152788955861
 11
-57.81988923979854
 21
16.0511197262912
 72
     1
 10
-57.81988923979854
 20
16.0511197262912
 11
-56.96954910374495
 21
16.0511197262912
 72
     1
 10
-56.96954910374495
 20
16.0511197262912
 11
-56.96954910374495
 21
18.4320721072452
 72
     1
 10
-56.96954910374495
 20
18.4320721072452
 11
-57.81988923979854
 21
18.4320721072452
 97
       10
330
3BA
330
3B9
330
3B8
330
3B7
330
3B6
330
3B5
330
3B4
330
3B3
330
3B2
330
3B1
 75
     1
 76
     2
 52
0.02257274673786
 41
0.05
 77
     0
 78
     1
 53
0.02257274673786
 43
-1699.81996388569
 44
12438.36661982803
 45
-0.0500196945567958
 46
0.0499802976826355
 79
     0
 98
        1
 10
0.0
 20
0.0
  0
HATCH
  5
491
330
6D
100
AcDbEntity
  8
1
  6
Continuous
 62
     2
100
AcDbHatch
 10
0.0
 20
0.0
 30
0.0
210
0.0
220
0.0
230
1.0
  2
CUSTOM5
 70
     0
 71
     1
 91
        1
 92
        1
 93
       12
 72
     1
 10
-65.35866475000213
 20
18.4320721072452
 11
-65.35866475000213
 21
17.59873877391041
 72
     1
 10
-65.35866475000213
 20
17.59873877391041
 11
-64.61036543027464
 21
17.59873877391041
 72
     1
 10
-64.61036543027464
 20
17.59873877391041
 11
-64.61036543027464
 21
18.4320721072452
 72
     1
 10
-64.61036543027464
 20
18.4320721072452
 11
-63.76002529421974
 21
18.4320721072452
 72
     1
 10
-63.76002529421974
 20
18.4320721072452
 11
-63.76002529421974
 21
16.0511197262912
 72
     1
 10
-63.76002529421974
 20
16.0511197262912
 11
-64.61036543027464
 21
16.0511197262912
 72
     1
 10
-64.61036543027464
 20
16.0511197262912
 11
-64.61036543027464
 21
16.93547346778982
 72
     1
 10
-64.61036543027464
 20
16.93547346778982
 11
-65.35866475000213
 21
16.93547346778982
 72
     1
 10
-65.35866475000213
 20
16.93547346778982
 11
-65.35866475000213
 21
16.0511197262912
 72
     1
 10
-65.35866475000213
 20
16.0511197262912
 11
-66.20900488605655
 21
16.0511197262912
 72
     1
 10
-66.20900488605655
 20
16.0511197262912
 11
-66.20900488605655
 21
18.4320721072452
 72
     1
 10
-66.20900488605655
 20
18.4320721072452
 11
-65.35866475000213
 21
18.4320721072452
 97
       12
330
3C6
330
3C5
330
3C4
330
3C3
330
3C2
330
3C1
330
3C0
330
3BF
330
3BE
330
3BD
330
3BC
330
3BB
 75
     1
 76
     2
 52
0.02257274673786
 41
0.05
 77
     0
 78
     1
 53
0.02257274673786
 43
-1699.81996388569
 44
12438.36661982803
 45
-0.0500196945567958
 46
0.0499802976826355
 79
     0
 98
        1
 10
0.0
 20
0.0
  0
HATCH
  5
492
330
6D
100
AcDbEntity
  8
1
  6
Continuous
 62
     2
100
AcDbHatch
 10
0.0
 20
0.0
 30
0.0
210
0.0
220
0.0
230
1.0
  2
CUSTOM6
 70
     0
 71
     1
 91
        1
 92
        1
 93
        4
 72
     1
 10
-65.29070344395504
 20
15.51302448821113
 11
-65.18866262762774
 21
15.51302448821113
 72
     2
 10
-65.18866262762774
 20
14.32254829773402
 40
1.190476190477
 50
270.0
 51
450.0
 73
     0
 72
     1
 10
-65.18866262762774
 20
13.13207210725702
 11
-65.29070344395504
 21
13.13207210725702
 72
     2
 10
-65.29070344395504
 20
14.32254829773402
 40
1.19047619047711
 50
90.0
 51
270.0
 73
     0
 97
        4
330
36B
330
40B
330
36A
330
40A
 75
     1
 76
     2
 52
0.02257274673786
 41
0.05
 77
     0
 78
     1
 53
0.02257274673786
 43
-1699.81996388569
 44
12438.36661982803
 45
-0.0500196945567958
 46
0.0499802976826355
 79
     0
 98
        1
 10
0.0
 20
0.0
  0
HATCH
  5
493
330
6D
100
AcDbEntity
  8
1
  6
Continuous
 62
     2
100
AcDbHatch
 10
0.0
 20
0.0
 30
0.0
210
0.0
220
0.0
230
1.0
  2
CUSTOM7
 70
     0
 71
     1
 91
        1
 92
        1
 93
       14
 72
     1
 10
-62.16755213531994
 20
18.4320721072452
 11
-62.06551131899384
 21
18.4320721072452
 72
     1
 10
-62.06551131899384
 20
18.4320721072452
 11
-60.02465114456064
 21
18.4320721072452
 72
     1
 10
-60.02465114456064
 20
18.4320721072452
 11
-60.02465114456064
 21
17.88785442017061
 72
     1
 10
-60.02465114456064
 20
17.88785442017061
 11
-60.97703209694194
 21
17.88785442017061
 72
     1
 10
-60.97703209694194
 20
17.88785442017061
 11
-60.97703209694194
 21
17.51370476030561
 72
     1
 10
-60.97703209694194
 20
17.51370476030561
 11
-60.02465114456064
 21
17.51370476030561
 72
     1
 10
-60.02465114456064
 20
17.51370476030561
 11
-60.02465114456064
 21
16.96948707323079
 72
     1
 10
-60.02465114456064
 20
16.96948707323079
 11
-60.97703209694194
 21
16.96948707323079
 72
     1
 10
-60.97703209694194
 20
16.96948707323079
 11
-60.97703209694194
 21
16.59533741336591
 72
     1
 10
-60.97703209694194
 20
16.59533741336591
 11
-60.02465114456064
 21
16.59533741336591
 72
     1
 10
-60.02465114456064
 20
16.59533741336591
 11
-60.02465114456064
 21
16.0511197262912
 72
     1
 10
-60.02465114456064
 20
16.0511197262912
 11
-62.06551131899384
 21
16.0511197262912
 72
     1
 10
-62.06551131899384
 20
16.0511197262912
 11
-62.16755213531994
 21
16.0511197262912
 72
     2
 10
-62.16755213531994
 20
17.24159591676832
 40
1.190476190476883
 50
90.0
 51
270.0
 73
     0
 97
       14
330
378
330
377
330
376
330
375
330
374
330
373
330
372
330
371
330
370
330
36F
330
36E
330
36D
330
36C
330
40C
 75
     1
 76
     2
 52
0.02257274673786
 41
0.05
 77
     0
 78
     1
 53
0.02257274673786
 43
-1699.81996388569
 44
12438.36661982803
 45
-0.0500196945567958
 46
0.0499802976826355
 79
     0
 98
        1
 10
0.0
 20
0.0
  0
HATCH
  5
494
330
6D
100
AcDbEntity
  8
1
  6
Continuous
 62
     2
100
AcDbHatch
 10
0.0
 20
0.0
 30
0.0
210
0.0
220
0.0
230
1.0
  2
CUSTOM8
 70
     0
 71
     1
 91
        2
 92
        1
 93
        9
 72
     1
 10
-67.63012484532894
 20
18.4320721072452
 11
-67.34643165085564
 21
18.4320721072452
 72
     2
 10
-67.43900307007704
 20
17.60923907954
 40
0.8280239484092065
 50
276.4189726355862
 51
443.5810273644138
 73
     0
 72
     1
 10
-67.34643165085564
 20
16.7864060518348
 11
-67.48122363301854
 21
16.7864060518348
 72
     1
 10
-67.48122363301854
 20
16.7864060518348
 11
-67.90356270918593
 21
16.7864060518348
 72
     1
 10
-67.90356270918593
 20
16.7864060518348
 11
-67.90356270918593
 21
16.0511197262912
 72
     1
 10
-67.90356270918593
 20
16.0511197262912
 11
-68.05246392149535
 21
16.0511197262912
 72
     1
 10
-68.05246392149535
 20
16.0511197262912
 11
-68.78791645068173
 21
16.0511197262912
 72
     1
 10
-68.78791645068173
 20
16.0511197262912
 11
-68.78791645068173
 21
18.4320721072452
 72
     1
 10
-68.78791645068173
 20
18.4320721072452
 11
-67.63012484532894
 21
18.4320721072452
 97
        9
330
392
330
411
330
391
330
390
330
38F
330
38E
330
38D
330
38C
330
38B
 92
       16
 93
        6
 72
     1
 10
-67.70115689439004
 20
17.91507082434859
 11
-67.75633966659954
 21
17.91507082434859
 72
     1
 10
-67.75633966659954
 20
17.91507082434859
 11
-67.90356270918593
 21
17.91507082434859
 72
     1
 10
-67.90356270918593
 20
17.91507082434859
 11
-67.90356270918593
 21
17.3648387571865
 72
     1
 10
-67.90356270918593
 20
17.3648387571865
 11
-67.75633966659954
 21
17.3648387571865
 72
     1
 10
-67.75633966659954
 20
17.3648387571865
 11
-67.70115689439004
 21
17.3648387571865
 72
     2
 10
-67.70115689439004
 20
17.63995479076763
 40
0.2751160335811278
 50
270.0
 51
450.0
 73
     1
 97
        6
330
38A
330
389
330
388
330
387
330
386
330
410
 75
     1
 76
     2
 52
0.02257274673786
 41
0.05
 77
     0
 78
     1
 53
0.02257274673786
 43
-1699.81996388569
 44
12438.36661982803
 45
-0.0500196945567958
 46
0.0499802976826355
 79
     0
 98
        1
 10
0.0
 20
0.0
  0
HATCH
  5
495
330
6D
100
AcDbEntity
  8
1
  6
Continuous
 62
     2
100
AcDbHatch
 10
0.0
 20
0.0
 30
0.0
210
0.0
220
0.0
230
1.0
  2
CUSTOM9
 70
     0
 71
     1
 91
        4
 92
        1
 93
        8
 72
     2
 10
-74.19471917176985
 20
18.09873877391223
 40
0.3333333333329698
 50
90.0
 51
180.0
 73
     1
 72
     1
 10
-74.52805250510345
 20
18.09873877391223
 11
-74.52805250510345
 21
13.46540544058999
 72
     2
 10
-74.19471917176985
 20
13.46540544058999
 40
0.3333333333335986
 50
180.0
 51
270.0
 73
     1
 72
     1
 10
-74.19471917176985
 20
13.13207210725702
 11
-69.66138583843654
 21
13.13207210725702
 72
     2
 10
-69.66138583843654
 20
13.46540544058999
 40
0.3333333333329698
 50
270.0
 51
360.0
 73
     1
 72
     1
 10
-69.32805250510384
 20
13.46540544058999
 11
-69.32805250510384
 21
18.09873877391223
 72
     2
 10
-69.66138583843654
 20
18.09873877391223
 40
0.3333333333327033
 50
0.0
 51
90.0
 73
     1
 72
     1
 10
-69.66138583843654
 20
18.4320721072452
 11
-74.19471917176985
 21
18.4320721072452
 97
        8
330
422
330
385
330
421
330
384
330
420
330
383
330
41F
330
382
 92
       16
 93
       10
 72
     1
 10
-71.81694139399204
 20
14.68577581095073
 11
-71.81694139399204
 21
15.17977062391489
 72
     2
 10
-71.55212657917784
 20
15.17977062391489
 40
0.2648148148214936
 50
180.0
 51
244.2807204985011
 73
     0
 72
     2
 10
-72.02064509769554
 20
16.15244247762061
 40
0.8148148148132894
 50
295.7192795021669
 51
424.2807204979753
 73
     1
 72
     2
 10
-71.55212657917784
 20
17.1251143313265
 40
0.2648148148142013
 50
115.7192795019203
 51
180.0
 73
     0
 72
     1
 10
-71.81694139399204
 20
17.1251143313265
 11
-71.81694139399204
 21
17.6191091442997
 72
     2
 10
-71.55212657917784
 20
17.6191091442997
 40
0.2648148148090819
 50
180.0
 51
270.0
 73
     0
 72
     1
 10
-71.55212657917784
 20
17.88392395910878
 11
-71.51138583843743
 21
17.88392395910878
 72
     2
 10
-71.51138583843743
 20
16.15244247762061
 40
1.73148148147442
 50
270.0
 51
450.0
 73
     0
 72
     1
 10
-71.51138583843743
 20
14.42096099614619
 11
-71.55212657917784
 21
14.42096099614619
 72
     2
 10
-71.55212657917784
 20
14.68577581095073
 40
0.2648148148142013
 50
90.0
 51
180.0
 73
     0
 97
       10
330
37C
330
418
330
40E
330
417
330
37B
330
416
330
37A
330
40D
330
379
330
415
 92
       16
 93
       12
 72
     1
 10
-73.79286731991894
 20
17.88392395910878
 11
-72.48916361621454
 21
17.88392395910878
 72
     2
 10
-72.48916361621454
 20
17.6191091442997
 40
0.2648148148150966
 50
270.0
 51
360.0000000019924
 73
     0
 72
     1
 10
-72.22434880139944
 20
17.61910914429049
 11
-72.22434880139944
 21
17.1251143313265
 72
     2
 10
-72.48916361621454
 20
17.1251143313265
 40
0.2648148148217111
 50
0.0
 51
64.28072049840434
 73
     0
 72
     2
 10
-72.02064509769554
 20
16.15244247762061
 40
0.8148148148137929
 50
115.7192795022131
 51
244.2807204978133
 73
     1
 72
     2
 10
-72.48916361621454
 20
15.17977062391489
 40
0.2648148148150966
 50
295.7192795016928
 51
359.9999999980702
 73
     0
 72
     1
 10
-72.22434880139944
 20
15.17977062392381
 11
-72.22434880139944
 21
13.87096099613879
 72
     2
 10
-72.48916361621454
 20
13.87096099613879
 40
0.2648148148045895
 50
0.0
 51
90.0
 73
     0
 72
     1
 10
-72.48916361621454
 20
13.6061461813342
 11
-73.79286731991894
 21
13.6061461813342
 72
     2
 10
-73.79286731991894
 20
13.87096099613879
 40
0.2648148148140024
 50
90.0
 51
180.0
 73
     0
 72
     1
 10
-74.05768213473294
 20
13.87096099613879
 11
-74.05768213473294
 21
17.6191091442997
 72
     2
 10
-73.79286731991894
 20
17.6191091442997
 40
0.2648148148090819
 50
180.0
 51
270.0
 73
     0
 97
       12
330
381
330
41E
330
380
330
41D
330
40F
330
41C
330
37F
330
41B
330
37E
330
41A
330
37D
330
419
 92
       16
 93
        1
 72
     2
 10
-72.02064509769554
 20
16.15244247762061
 40
0.4074074074073053
 50
0.0
 51
360.0
 73
     1
 97
        1
330
412
 75
     1
 76
     2
 52
0.0
 41
0.05
 77
     0
 78
     1
 53
0.0
 43
-1699.81996388569
 44
12438.36661982803
 45
-0.05
 46
0.05
 79
     0
 98
        1
 10
0.0
 20
0.0
  0
ENDBLK
  5
6F
330
6D
100
AcDbEntity
  8
0
100
AcDbBlockEnd
  0
BLOCK
  5
71
330
70
100
AcDbEntity
  8
0
100
AcDbBlockBegin
  2
_punkt
 70
     0
 10
47.9623302529381
 20
7.28207210725119
 30
0.0
  3
_punkt
  1

  0
LINE
  5
498
330
70
100
AcDbEntity
  8
1
  6
Continuous
 62
     2
100
AcDbLine
 10
47.9623302529381
 20
7.28207210725119
 30
0.0
 11
47.9623302529381
 21
2.28207210725108
 31
0.0
  0
LINE
  5
499
330
70
100
AcDbEntity
  8
1
  6
Continuous
 62
     2
100
AcDbLine
 10
47.9623302529381
 20
7.28207210725119
 30
0.0
 11
52.96233025293711
 21
7.28207210725119
 31
0.0
  0
ENDBLK
  5
72
330
70
100
AcDbEntity
  8
0
100
AcDbBlockEnd
  0
BLOCK
  5
76
330
73
100
AcDbEntity
  8
0
100
AcDbBlockBegin
  2
A4I
 70
     0
 10
47.9623302529381
 20
2.28207210725108
 30
0.0
  3
A4I
  1

  0
INSERT
  5
74
330
73
100
AcDbEntity
  8
1
100
AcDbBlockReference
  2
_rahmen
 10
47.9623302529381
 20
2.28207210725108
 30
0.0
  0
INSERT
  5
75
330
73
100
AcDbEntity
  8
1
100
AcDbBlockReference
  2
_punkt
 10
47.9623302529381
 20
7.28207210725119
 30
0.0
  0
ENDBLK
  5
77
330
73
100
AcDbEntity
  8
0
100
AcDbBlockEnd
  0
BLOCK
  5
1EC
330
1E3
100
AcDbEntity
  8
0
100
AcDbBlockBegin
  2
*D16
 70
     1
 10
0.0
 20
0.0
 30
0.0
  3
*D16
  1

  0
LINE
  5
1E4
330
1E3
100
AcDbEntity
  8
1
  6
Continuous
 62
     2
100
AcDbLine
 10
-89.14487547524166
 20
114.550104702223
 30
0.0
 11
-82.14487547524166
 21
114.550104702223
 31
0.0
  0
LINE
  5
1E5
330
1E3
100
AcDbEntity
  8
1
  6
Continuous
 62
     2
100
AcDbLine
 10
-82.14487547524166
 20
114.550104702223
 30
0.0
 11
-80.54487547524165
 21
114.550104702223
 31
0.0
  0
LINE
  5
1E6
330
1E3
100
AcDbEntity
  8
1
  6
Continuous
 62
     2
100
AcDbLine
 10
-80.54487547524165
 20
114.550104702223
 30
0.0
 11
-69.89860448382547
 21
114.550104702223
 31
0.0
  0
LINE
  5
1E7
330
1E3
100
AcDbEntity
  8
1
  6
Continuous
 62
     2
100
AcDbLine
 10
-82.14487547524166
 20
126.5000000989824
 30
0.0
 11
-82.14487547524166
 21
112.550104702223
 31
0.0
  0
LINE
  5
1E8
330
1E3
100
AcDbEntity
  8
1
  6
Continuous
 62
     2
100
AcDbLine
 10
-80.54487547524165
 20
126.5000000989824
 30
0.0
 11
-80.54487547524165
 21
112.550104702223
 31
0.0
  0
SOLID
  5
1E9
330
1E3
100
AcDbEntity
  8
1
 62
     2
100
AcDbTrace
 10
-85.64487547524166
 20
114.0893209606671
 30
0.0
 11
-85.64487547524166
 21
115.0108884437789
 31
0.0
 12
-82.14487547524166
 22
114.550104702223
 32
0.0
 13
-82.14487547524166
 23
114.550104702223
 33
0.0
  0
SOLID
  5
1EA
330
1E3
100
AcDbEntity
  8
1
 62
     2
100
AcDbTrace
 10
-77.04487547524165
 20
115.0108884437789
 30
0.0
 11
-77.04487547524165
 21
114.0893209606671
 31
0.0
 12
-80.54487547524165
 22
114.550104702223
 32
0.0
 13
-80.54487547524165
 23
114.550104702223
 33
0.0
  0
MTEXT
  5
1EB
330
1E3
100
AcDbEntity
  8
1
 62
     3
100
AcDbMText
 10
-75.32360448382548
 20
116.900104702223
 30
0.0
 40
3.5
 41
0.0
 71
     7
 72
     1
  1
1,6
  7
CONVERTER_11
 11
0.9999999999970619
 21
2.424068405545306E-6
 31
0.0
 73
     1
 44
0.60024009603842
  0
ENDBLK
  5
1ED
330
1E3
100
AcDbEntity
  8
0
100
AcDbBlockEnd
  0
BLOCK
  5
1F9
330
1F0
100
AcDbEntity
  8
0
100
AcDbBlockBegin
  2
*D17
 70
     1
 10
0.0
 20
0.0
 30
0.0
  3
*D17
  1

  0
LINE
  5
1F1
330
1F0
100
AcDbEntity
  8
1
  6
Continuous
 62
     2
100
AcDbLine
 10
-72.8448754752319
 20
159.1750000989725
 30
0.0
 11
-79.8448754752319
 21
159.1750000989725
 31
0.0
  0
LINE
  5
1F2
330
1F0
100
AcDbEntity
  8
1
  6
Continuous
 62
     2
100
AcDbLine
 10
-79.8448754752319
 20
159.1750000989725
 30
0.0
 11
-82.84487547523192
 21
159.1750000989725
 31
0.0
  0
LINE
  5
1F3
330
1F0
100
AcDbEntity
  8
1
  6
Continuous
 62
     2
100
AcDbLine
 10
-82.84487547523192
 20
159.1750000989725
 30
0.0
 11
-90.01328206119697
 21
159.1750000989725
 31
0.0
  0
LINE
  5
1F4
330
1F0
100
AcDbEntity
  8
1
  6
Continuous
 62
     2
100
AcDbLine
 10
-79.8448754752319
 20
149.1750000989725
 30
0.0
 11
-79.8448754752319
 21
161.1750000989725
 31
0.0
  0
LINE
  5
1F5
330
1F0
100
AcDbEntity
  8
1
  6
Continuous
 62
     2
100
AcDbLine
 10
-82.84487547523192
 20
149.1750000989725
 30
0.0
 11
-82.84487547523192
 21
161.1750000989725
 31
0.0
  0
SOLID
  5
1F6
330
1F0
100
AcDbEntity
  8
1
 62
     2
100
AcDbTrace
 10
-76.3448754752319
 20
159.6357838405284
 30
0.0
 11
-76.3448754752319
 21
158.7142163574166
 31
0.0
 12
-79.8448754752319
 22
159.1750000989725
 32
0.0
 13
-79.8448754752319
 23
159.1750000989725
 33
0.0
  0
SOLID
  5
1F7
330
1F0
100
AcDbEntity
  8
1
 62
     2
100
AcDbTrace
 10
-86.34487547523192
 20
158.7142163574166
 30
0.0
 11
-86.34487547523192
 21
159.6357838405284
 31
0.0
 12
-82.84487547523192
 22
159.1750000989725
 32
0.0
 13
-82.84487547523192
 23
159.1750000989725
 33
0.0
  0
MTEXT
  5
1F8
330
1F0
100
AcDbEntity
  8
1
 62
     3
100
AcDbMText
 10
-90.01328206119697
 20
161.1750000989725
 30
0.0
 40
3.5
 41
0.0
 71
     7
 72
     1
  1
3
  7
CONVERTER_11
 11
0.9999999999970619
 21
2.424068405545306E-6
 31
0.0
 73
     1
 44
0.60024009603842
  0
ENDBLK
  5
1FA
330
1F0
100
AcDbEntity
  8
0
100
AcDbBlockEnd
  0
BLOCK
  5
2A0
330
299
100
AcDbEntity
  8
0
100
AcDbBlockBegin
  2
*D18
 70
     1
 10
0.0
 20
0.0
 30
0.0
  3
*D18
  1

  0
LINE
  5
29A
330
299
100
AcDbEntity
  8
1
  6
Continuous
 62
     2
100
AcDbLine
 10
-98.8500002506117
 20
149.1750000989724
 30
0.0
 11
-98.8500002506117
 21
126.5000000989823
 31
0.0
  0
LINE
  5
29B
330
299
100
AcDbEntity
  8
1
  6
Continuous
 62
     2
100
AcDbLine
 10
-108.8500002506117
 20
149.1750000989724
 30
0.0
 11
-96.8500002506117
 21
149.1750000989724
 31
0.0
  0
LINE
  5
29C
330
299
100
AcDbEntity
  8
1
  6
Continuous
 62
     2
100
AcDbLine
 10
-110.2151893015916
 20
126.5000000989823
 30
0.0
 11
-96.8500002506117
 21
126.5000000989823
 31
0.0
  0
SOLID
  5
29D
330
299
100
AcDbEntity
  8
1
 62
     2
100
AcDbTrace
 10
-98.38921650905581
 20
145.6750000989724
 30
0.0
 11
-99.31078399216759
 21
145.6750000989724
 31
0.0
 12
-98.8500002506117
 22
149.1750000989724
 32
0.0
 13
-98.8500002506117
 23
149.1750000989724
 33
0.0
  0
SOLID
  5
29E
330
299
100
AcDbEntity
  8
1
 62
     2
100
AcDbTrace
 10
-99.31078399216759
 20
130.0000000989823
 30
0.0
 11
-98.38921650905581
 21
130.0000000989823
 31
0.0
 12
-98.8500002506117
 22
126.5000000989823
 32
0.0
 13
-98.8500002506117
 23
126.5000000989823
 33
0.0
  0
MTEXT
  5
29F
330
299
100
AcDbEntity
  8
1
 62
     3
100
AcDbMText
 10
-101.2000002506117
 20
132.944840070612
 30
0.0
 40
3.5
 41
0.0
 71
     7
 72
     1
  1
22,7
  7
CONVERTER_11
 11
0.0
 21
1.0
 31
0.0
 73
     1
 44
0.60024009603842
  0
ENDBLK
  5
2A1
330
299
100
AcDbEntity
  8
0
100
AcDbBlockEnd
  0
BLOCK
  5
2AB
330
2A4
100
AcDbEntity
  8
0
100
AcDbBlockBegin
  2
*D19
 70
     1
 10
0.0
 20
0.0
 30
0.0
  3
*D19
  1

  0
LINE
  5
2A5
330
2A4
100
AcDbEntity
  8
1
  6
Continuous
 62
     2
100
AcDbLine
 10
-179.1500002506117
 20
135.5750000989724
 30
0.0
 11
-179.1500002506117
 21
149.1750000989724
 31
0.0
  0
LINE
  5
2A6
330
2A4
100
AcDbEntity
  8
1
  6
Continuous
 62
     2
100
AcDbLine
 10
-169.1500002506117
 20
135.5750000989724
 30
0.0
 11
-181.1500002506117
 21
135.5750000989724
 31
0.0
  0
LINE
  5
2A7
330
2A4
100
AcDbEntity
  8
1
  6
Continuous
 62
     2
100
AcDbLine
 10
-169.1500002506117
 20
149.1750000989724
 30
0.0
 11
-181.1500002506117
 21
149.1750000989724
 31
0.0
  0
SOLID
  5
2A8
330
2A4
100
AcDbEntity
  8
1
 62
     2
100
AcDbTrace
 10
-179.6107839921676
 20
139.0750000989724
 30
0.0
 11
-178.6892165090558
 21
139.0750000989724
 31
0.0
 12
-179.1500002506117
 22
135.5750000989724
 32
0.0
 13
-179.1500002506117
 23
135.5750000989724
 33
0.0
  0
SOLID
  5
2A9
330
2A4
100
AcDbEntity
  8
1
 62
     2
100
AcDbTrace
 10
-178.6892165090558
 20
145.6750000989724
 30
0.0
 11
-179.6107839921676
 21
145.6750000989724
 31
0.0
 12
-179.1500002506117
 22
149.1750000989724
 32
0.0
 13
-179.1500002506117
 23
149.1750000989724
 33
0.0
  0
MTEXT
  5
2AA
330
2A4
100
AcDbEntity
  8
1
 62
     3
100
AcDbMText
 10
-181.5000002506117
 20
138.067565533309
 30
0.0
 40
3.5
 41
0.0
 71
     7
 72
     1
  1
13,6
  7
CONVERTER_11
 11
0.0
 21
1.0
 31
0.0
 73
     1
 44
0.60024009603842
  0
ENDBLK
  5
2AC
330
2A4
100
AcDbEntity
  8
0
100
AcDbBlockEnd
  0
BLOCK
  5
2B6
330
2AF
100
AcDbEntity
  8
0
100
AcDbBlockBegin
  2
*D20
 70
     1
 10
0.0
 20
0.0
 30
0.0
  3
*D20
  1

  0
LINE
  5
2B0
330
2AF
100
AcDbEntity
  8
1
  6
Continuous
 62
     2
100
AcDbLine
 10
-108.8500002506117
 20
159.1750000989724
 30
0.0
 11
-169.1500002506117
 21
159.1750000989724
 31
0.0
  0
LINE
  5
2B1
330
2AF
100
AcDbEntity
  8
1
  6
Continuous
 62
     2
100
AcDbLine
 10
-108.8500002506117
 20
149.1750000989724
 30
0.0
 11
-108.8500002506117
 21
161.1750000989724
 31
0.0
  0
LINE
  5
2B2
330
2AF
100
AcDbEntity
  8
1
  6
Continuous
 62
     2
100
AcDbLine
 10
-169.1500002506117
 20
149.1750000989724
 30
0.0
 11
-169.1500002506117
 21
161.1750000989724
 31
0.0
  0
SOLID
  5
2B3
330
2AF
100
AcDbEntity
  8
1
 62
     2
100
AcDbTrace
 10
-112.3500002506117
 20
158.7142163574165
 30
0.0
 11
-112.3500002506117
 21
159.6357838405283
 31
0.0
 12
-108.8500002506117
 22
159.1750000989724
 32
0.0
 13
-108.8500002506117
 23
159.1750000989724
 33
0.0
  0
SOLID
  5
2B4
330
2AF
100
AcDbEntity
  8
1
 62
     2
100
AcDbTrace
 10
-165.6500002506117
 20
159.6357838405283
 30
0.0
 11
-165.6500002506117
 21
158.7142163574165
 31
0.0
 12
-169.1500002506117
 22
159.1750000989724
 32
0.0
 13
-169.1500002506117
 23
159.1750000989724
 33
0.0
  0
MTEXT
  5
2B5
330
2AF
100
AcDbEntity
  8
1
 62
     3
100
AcDbMText
 10
-143.8125002506117
 20
161.5250000989724
 30
0.0
 40
3.5
 41
0.0
 71
     7
 72
     1
  1
60,3
  7
CONVERTER_11
 11
0.9999999999970619
 21
2.424068405545306E-6
 31
0.0
 73
     1
 44
0.60024009603842
  0
ENDBLK
  5
2B7
330
2AF
100
AcDbEntity
  8
0
100
AcDbBlockEnd
  0
ENDSEC
  0
SECTION
  2
ENTITIES
  0
INSERT
  5
78
330
1F
100
AcDbEntity
  8
0
100
AcDbBlockReference
  2
AllgSicht1
 10
-4.99999999999943
 20
72.00000000015007
 30
0.0
  0
INSERT
  5
79
330
1F
100
AcDbEntity
  8
0
100
AcDbBlockReference
  2
Drfsicht1
 10
-139.0
 20
95.0
 30
0.0
  0
INSERT
  5
7A
330
1F
100
AcDbEntity
  8
0
100
AcDbBlockReference
  2
Rckans1
 10
-23.70000076293886
 20
137.8375000955375
 30
0.0
  0
INSERT
  5
7B
330
1F
100
AcDbEntity
  8
0
100
AcDbBlockReference
  2
SA_Links1
 10
-81.3448754752319
 20
137.8375000955375
 30
0.0
  0
INSERT
  5
7C
330
1F
100
AcDbEntity
  8
0
100
AcDbBlockReference
  2
SA_Rechts1
 10
-200.51168301702
 20
137.8375000955375
 30
0.0
  0
INSERT
  5
7D
330
1F
100
AcDbEntity
  8
0
100
AcDbBlockReference
  2
Vordans1
 10
-139.0
 20
137.8375000955374
 30
0.0
  0
INSERT
  5
7E
330
1F
100
AcDbEntity
  8
0
100
AcDbBlockReference
  2
A4I
 10
47.9623302529381
 20
2.28207210725108
 30
0.0
  0
ENDSEC
  0
SECTION
  2
OBJECTS
  0
DICTIONARY
  5
C
330
0
100
AcDbDictionary
281
     1
  3
ACAD_GROUP
350
D
  3
ACAD_LAYOUT
350
1A
  3
ACAD_MLEADERSTYLE
350
49B
  3
ACAD_MLINESTYLE
350
17
  3
ACAD_PLOTSETTINGS
350
19
  3
ACAD_PLOTSTYLENAME
350
E
  3
ACAD_TABLESTYLE
350
49A
  3
ACAD_VISUALSTYLE
350
2A
  0
DICTIONARY
  5
D
102
{ACAD_REACTORS
330
C
102
}
330
C
100
AcDbDictionary
281
     1
  0
DICTIONARY
  5
1A
102
{ACAD_REACTORS
330
C
102
}
330
C
100
AcDbDictionary
281
     1
  3
Layout1
350
1E
  3
Layout2
350
26
  3
Model
350
22
  0
DICTIONARY
  5
49B
102
{ACAD_REACTORS
330
C
102
}
330
C
100
AcDbDictionary
281
     1
  0
DICTIONARY
  5
17
102
{ACAD_REACTORS
330
C
102
}
330
C
100
AcDbDictionary
281
     1
  3
Standard
350
18
  0
DICTIONARY
  5
19
102
{ACAD_REACTORS
330
C
102
}
330
C
100
AcDbDictionary
281
     1
  0
ACDBDICTIONARYWDFLT
  5
E
102
{ACAD_REACTORS
330
C
102
}
330
C
100
AcDbDictionary
281
     1
  3
Normal
350
F
100
AcDbDictionaryWithDefault
340
F
  0
DICTIONARY
  5
49A
102
{ACAD_REACTORS
330
C
102
}
330
C
100
AcDbDictionary
281
     1
  0
DICTIONARY
  5
2A
102
{ACAD_REACTORS
330
C
102
}
330
C
100
AcDbDictionary
281
     1
  3
2dWireframe
350
2F
  3
3D Hidden
350
31
  3
3dWireframe
350
30
  3
Basic
350
32
  3
Brighten
350
36
  3
ColorChange
350
3A
  3
Conceptual
350
34
  3
Dim
350
35
  3
Facepattern
350
39
  3
Flat
350
2B
  3
FlatWithEdges
350
2C
  3
Gouraud
350
2D
  3
GouraudWithEdges
350
2E
  3
Linepattern
350
38
  3
Realistic
350
33
  3
Thicken
350
37
  0
LAYOUT
  5
1E
102
{ACAD_REACTORS
330
1A
102
}
330
1A
100
AcDbPlotSettings
  1

  2
none_device
  4

  6

 40
0.0
 41
0.0
 42
0.0
 43
0.0
 44
0.0
 45
0.0
 46
0.0
 47
0.0
 48
0.0
 49
0.0
140
0.0
141
0.0
142
1.0
143
1.0
 70
   688
 72
     0
 73
     0
 74
     5
  7

 75
    16
147
1.0
148
0.0
149
0.0
100
AcDbLayout
  1
Layout1
 70
     1
 71
     1
 10
0.0
 20
0.0
 11
12.0
 21
9.0
 12
0.0
 22
0.0
 32
0.0
 14
1.00000000000000E+20
 24
1.00000000000000E+20
 34
1.00000000000000E+20
 15
-1.00000000000000E+20
 25
-1.00000000000000E+20
 35
-1.00000000000000E+20
146
0.0
 13
0.0
 23
0.0
 33
0.0
 16
1.0
 26
0.0
 36
0.0
 17
0.0
 27
1.0
 37
0.0
 76
     0
330
1B
  0
LAYOUT
  5
26
102
{ACAD_REACTORS
330
1A
102
}
330
1A
100
AcDbPlotSettings
  1

  2
none_device
  4

  6

 40
0.0
 41
0.0
 42
0.0
 43
0.0
 44
0.0
 45
0.0
 46
0.0
 47
0.0
 48
0.0
 49
0.0
140
0.0
141
0.0
142
1.0
143
1.0
 70
   688
 72
     0
 73
     0
 74
     5
  7

 75
    16
147
1.0
148
0.0
149
0.0
100
AcDbLayout
  1
Layout2
 70
     1
 71
     2
 10
0.0
 20
0.0
 11
0.0
 21
0.0
 12
0.0
 22
0.0
 32
0.0
 14
0.0
 24
0.0
 34
0.0
 15
0.0
 25
0.0
 35
0.0
146
0.0
 13
0.0
 23
0.0
 33
0.0
 16
1.0
 26
0.0
 36
0.0
 17
0.0
 27
1.0
 37
0.0
 76
     0
330
23
  0
LAYOUT
  5
22
102
{ACAD_REACTORS
330
1A
102
}
330
1A
100
AcDbPlotSettings
  1

  2
none_device
  4

  6

 40
0.0
 41
0.0
 42
0.0
 43
0.0
 44
0.0
 45
0.0
 46
0.0
 47
0.0
 48
0.0
 49
0.0
140
0.0
141
0.0
142
1.0
143
1.0
 70
  1712
 72
     0
 73
     0
 74
     0
  7

 75
     0
147
1.0
148
0.0
149
0.0
100
AcDbLayout
  1
Model
 70
     1
 71
     0
 10
0.0
 20
0.0
 11
12.0
 21
9.0
 12
0.0
 22
0.0
 32
0.0
 14
-244.037669747061
 24
2.28207210725108
 34
0.0
 15
52.96233025293711
 25
212.2820721072511
 35
0.0
146
0.0
 13
0.0
 23
0.0
 33
0.0
 16
1.0
 26
0.0
 36
0.0
 17
0.0
 27
1.0
 37
0.0
 76
     0
330
1F
331
29
  0
MLINESTYLE
  5
18
102
{ACAD_REACTORS
330
17
102
}
330
17
100
AcDbMlineStyle
  2
Standard
 70
     0
  3

 62
   256
 51
90.0
 52
90.0
 71
     2
 49
0.5
 62
   256
  6
BYLAYER
 49
-0.5
 62
   256
  6
BYLAYER
  0
ACDBPLACEHOLDER
  5
F
102
{ACAD_REACTORS
330
E
102
}
330
E
  0
VISUALSTYLE
  5
2F
102
{ACAD_REACTORS
330
2A
102
}
330
2A
100
AcDbVisualStyle
  2
2dWireframe
 70
     4
 71
     0
 72
     2
 73
     0
 90
        0
 40
-0.6
 41
-30.0
 62
     5
 63
     7
 74
     1
 91
        4
 64
     7
 65
   257
 75
     1
175
     1
 42
1.0
 92
        0
 66
   257
 43
1.0
 76
     1
 77
     6
 78
     2
 67
     7
 79
     5
170
     0
171
     0
290
     0
174
     0
 93
        1
 44
0.0
173
     0
291
     0
 45
0.0
1001
ACAD
1000
AcDbSavedByObjectVersion
1070
     0
  0
VISUALSTYLE
  5
31
102
{ACAD_REACTORS
330
2A
102
}
330
2A
100
AcDbVisualStyle
  2
3D Hidden
 70
     6
 71
     1
 72
     2
 73
     2
 90
        0
 40
-0.6
 41
-30.0
 62
     5
 63
     7
 74
     2
 91
        2
 64
     7
 65
   257
 75
     2
175
     1
 42
40.0
 92
        0
 66
   257
 43
1.0
 76
     1
 77
     6
 78
     2
 67
     7
 79
     3
170
     0
171
     0
290
     0
174
     0
 93
        1
 44
0.0
173
     0
291
     0
 45
0.0
1001
ACAD
1000
AcDbSavedByObjectVersion
1070
     0
  0
VISUALSTYLE
  5
30
102
{ACAD_REACTORS
330
2A
102
}
330
2A
100
AcDbVisualStyle
  2
3dWireframe
 70
     5
 71
     0
 72
     2
 73
     0
 90
        0
 40
-0.6
 41
-30.0
 62
     5
 63
     7
 74
     1
 91
        4
 64
     7
 65
   257
 75
     1
175
     1
 42
1.0
 92
        0
 66
   257
 43
1.0
 76
     1
 77
     6
 78
     2
 67
     7
 79
     5
170
     0
171
     0
290
     0
174
     0
 93
        1
 44
0.0
173
     0
291
     0
 45
0.0
1001
ACAD
1000
AcDbSavedByObjectVersion
1070
     0
  0
VISUALSTYLE
  5
32
102
{ACAD_REACTORS
330
2A
102
}
330
2A
100
AcDbVisualStyle
  2
Basic
 70
     7
 71
     1
 72
     0
 73
     1
 90
        0
 40
-0.6
 41
-30.0
 62
     5
 63
     7
 74
     0
 91
        4
 64
     7
 65
   257
 75
     1
175
     1
 42
1.0
 92
        8
 66
     7
 43
1.0
 76
     1
 77
     6
 78
     2
 67
     7
 79
     5
170
     0
171
     0
290
     0
174
     0
 93
        1
 44
0.0
173
     0
291
     1
 45
0.0
1001
ACAD
1000
AcDbSavedByObjectVersion
1070
     0
  0
VISUALSTYLE
  5
36
102
{ACAD_REACTORS
330
2A
102
}
330
2A
100
AcDbVisualStyle
  2
Brighten
 70
    12
 71
     2
 72
     2
 73
     0
 90
        0
 40
-0.6
 41
-30.0
 62
     5
 63
     7
 74
     1
 91
        4
 64
     7
 65
   257
 75
     1
175
     1
 42
1.0
 92
        8
 66
     7
 43
1.0
 76
     1
 77
     6
 78
     2
 67
     7
 79
     5
170
     0
171
     0
290
     0
174
     0
 93
        1
 44
50.0
173
     0
291
     1
 45
0.0
1001
ACAD
1000
AcDbSavedByObjectVersion
1070
     0
  0
VISUALSTYLE
  5
3A
102
{ACAD_REACTORS
330
2A
102
}
330
2A
100
AcDbVisualStyle
  2
ColorChange
 70
    16
 71
     2
 72
     2
 73
     3
 90
        0
 40
-0.6
 41
-30.0
 62
     5
 63
     8
 74
     1
 91
        4
 64
     7
 65
   257
 75
     1
175
     1
 42
1.0
 92
        8
 66
     8
 43
1.0
 76
     1
 77
     6
 78
     2
 67
     7
 79
     5
170
     0
171
     0
290
     0
174
     0
 93
        1
 44
0.0
173
     0
291
     1
 45
0.0
1001
ACAD
1000
AcDbSavedByObjectVersion
1070
     0
  0
VISUALSTYLE
  5
34
102
{ACAD_REACTORS
330
2A
102
}
330
2A
100
AcDbVisualStyle
  2
Conceptual
 70
     9
 71
     3
 72
     2
 73
     0
 90
        0
 40
-0.6
 41
-30.0
 62
     5
 63
     7
 74
     2
 91
        2
 64
     7
 65
   257
 75
     1
175
     1
 42
40.0
 92
        8
 66
     7
 43
1.0
 76
     1
 77
     6
 78
     2
 67
     7
 79
     3
170
     0
171
     0
290
     0
174
     0
 93
        1
 44
0.0
173
     0
291
     0
 45
0.0
1001
ACAD
1000
AcDbSavedByObjectVersion
1070
     0
  0
VISUALSTYLE
  5
35
102
{ACAD_REACTORS
330
2A
102
}
330
2A
100
AcDbVisualStyle
  2
Dim
 70
    11
 71
     2
 72
     2
 73
     0
 90
        0
 40
-0.6
 41
-30.0
 62
     5
 63
     7
 74
     1
 91
        4
 64
     7
 65
   257
 75
     1
175
     1
 42
1.0
 92
        8
 66
     7
 43
1.0
 76
     1
 77
     6
 78
     2
 67
     7
 79
     5
170
     0
171
     0
290
     0
174
     0
 93
        1
 44
-50.0
173
     0
291
     1
 45
0.0
1001
ACAD
1000
AcDbSavedByObjectVersion
1070
     0
  0
VISUALSTYLE
  5
39
102
{ACAD_REACTORS
330
2A
102
}
330
2A
100
AcDbVisualStyle
  2
Facepattern
 70
    15
 71
     2
 72
     2
 73
     0
 90
        0
 40
-0.6
 41
-30.0
 62
     5
 63
     7
 74
     1
 91
        4
 64
     7
 65
   257
 75
     1
175
     1
 42
1.0
 92
        8
 66
     7
 43
1.0
 76
     1
 77
     6
 78
     2
 67
     7
 79
     5
170
     0
171
     0
290
     0
174
     0
 93
        1
 44
0.0
173
     0
291
     1
 45
0.0
1001
ACAD
1000
AcDbSavedByObjectVersion
1070
     0
  0
VISUALSTYLE
  5
2B
102
{ACAD_REACTORS
330
2A
102
}
330
2A
100
AcDbVisualStyle
  2
Flat
 70
     0
 71
     2
 72
     1
 73
     1
 90
        2
 40
-0.6
 41
30.0
 62
     5
 63
     7
 74
     0
 91
        4
 64
     7
 65
   257
 75
     1
175
     1
 42
1.0
 92
        8
 66
     7
 43
1.0
 76
     1
 77
     6
 78
     2
 67
     7
 79
     5
170
     0
171
     0
290
     0
174
     0
 93
       13
 44
0.0
173
     0
291
     1
 45
0.0
1001
ACAD
1000
AcDbSavedByObjectVersion
1070
     0
  0
VISUALSTYLE
  5
2C
102
{ACAD_REACTORS
330
2A
102
}
330
2A
100
AcDbVisualStyle
  2
FlatWithEdges
 70
     1
 71
     2
 72
     1
 73
     1
 90
        2
 40
-0.6
 41
30.0
 62
     5
 63
     7
 74
     1
 91
        4
 64
     7
 65
   257
 75
     1
175
     1
 42
1.0
 92
        0
 66
   257
 43
1.0
 76
     1
 77
     6
 78
     2
 67
     7
 79
     5
170
     0
171
     0
290
     0
174
     0
 93
       13
 44
0.0
173
     0
291
     1
 45
0.0
1001
ACAD
1000
AcDbSavedByObjectVersion
1070
     0
  0
VISUALSTYLE
  5
2D
102
{ACAD_REACTORS
330
2A
102
}
330
2A
100
AcDbVisualStyle
  2
Gouraud
 70
     2
 71
     2
 72
     2
 73
     1
 90
        2
 40
-0.6
 41
30.0
 62
     5
 63
     7
 74
     0
 91
        4
 64
     7
 65
   257
 75
     1
175
     1
 42
1.0
 92
        0
 66
     7
 43
1.0
 76
     1
 77
     6
 78
     2
 67
     7
 79
     5
170
     0
171
     0
290
     0
174
     0
 93
       13
 44
0.0
173
     0
291
     1
 45
0.0
1001
ACAD
1000
AcDbSavedByObjectVersion
1070
     0
  0
VISUALSTYLE
  5
2E
102
{ACAD_REACTORS
330
2A
102
}
330
2A
100
AcDbVisualStyle
  2
GouraudWithEdges
 70
     3
 71
     2
 72
     2
 73
     1
 90
        2
 40
-0.6
 41
30.0
 62
     5
 63
     7
 74
     1
 91
        4
 64
     7
 65
   257
 75
     1
175
     1
 42
1.0
 92
        0
 66
   257
 43
1.0
 76
     1
 77
     6
 78
     2
 67
     7
 79
     5
170
     0
171
     0
290
     0
174
     0
 93
       13
 44
0.0
173
     0
291
     1
 45
0.0
1001
ACAD
1000
AcDbSavedByObjectVersion
1070
     0
  0
VISUALSTYLE
  5
38
102
{ACAD_REACTORS
330
2A
102
}
330
2A
100
AcDbVisualStyle
  2
Linepattern
 70
    14
 71
     2
 72
     2
 73
     0
 90
        0
 40
-0.6
 41
-30.0
 62
     5
 63
     7
 74
     1
 91
        4
 64
     7
 65
   257
 75
     7
175
     7
 42
1.0
 92
        8
 66
     7
 43
1.0
 76
     1
 77
     6
 78
     2
 67
     7
 79
     5
170
     0
171
     0
290
     0
174
     0
 93
        1
 44
0.0
173
     0
291
     1
 45
0.0
1001
ACAD
1000
AcDbSavedByObjectVersion
1070
     0
  0
VISUALSTYLE
  5
33
102
{ACAD_REACTORS
330
2A
102
}
330
2A
100
AcDbVisualStyle
  2
Realistic
 70
     8
 71
     2
 72
     2
 73
     0
 90
        0
 40
-0.6
 41
-30.0
 62
     5
 63
     7
 74
     1
 91
        0
 64
     7
 65
   257
 75
     1
175
     1
 42
1.0
 92
        8
 66
     8
 43
1.0
 76
     1
 77
     6
 78
     2
 67
     7
 79
     5
170
     0
171
     0
290
     0
174
     0
 93
       13
 44
0.0
173
     0
291
     0
 45
0.0
1001
ACAD
1000
AcDbSavedByObjectVersion
1070
     0
  0
VISUALSTYLE
  5
37
102
{ACAD_REACTORS
330
2A
102
}
330
2A
100
AcDbVisualStyle
  2
Thicken
 70
    13
 71
     2
 72
     2
 73
     0
 90
        0
 40
-0.6
 41
-30.0
 62
     5
 63
     7
 74
     1
 91
        4
 64
     7
 65
   257
 75
     1
175
     1
 42
1.0
 92
       12
 66
     7
 43
1.0
 76
     1
 77
     6
 78
     2
 67
     7
 79
     5
170
     0
171
     0
290
     0
174
     0
 93
        1
 44
0.0
173
     0
291
     1
 45
0.0
1001
ACAD
1000
AcDbSavedByObjectVersion
1070
     0
  0
ENDSEC
  0
EOF
