  0
SECTION
  2
HEADER
  9
$ACADVER
  1
AC1015
  9
$ACADMAINTVER
 70
     6
  9
$DWGCODEPAGE
  3
ANSI_1252
  9
$INSBASE
 10
0.0
 20
0.0
 30
0.0
  9
$EXTMIN
 10
-244.037669747061
 20
2.28207210725108
 30
0.0
  9
$EXTMAX
 10
52.96233025293711
 20
212.2820721072511
 30
0.0
  9
$LIMMIN
 10
0.0
 20
0.0
  9
$LIMMAX
 10
12.0
 20
9.0
  9
$ORTHOMODE
 70
     0
  9
$REGENMODE
 70
     1
  9
$FILLMODE
 70
     1
  9
$QTEXTMODE
 70
     0
  9
$MIRRTEXT
 70
     1
  9
$LTSCALE
 40
1.0
  9
$ATTMODE
 70
     1
  9
$TEXTSIZE
 40
0.2
  9
$TRACEWID
 40
0.05
  9
$TEXTSTYLE
  7
Standard
  9
$CLAYER
  8
0
  9
$CELTYPE
  6
ByLayer
  9
$CECOLOR
 62
   256
  9
$CELTSCALE
 40
1.0
  9
$DISPSILH
 70
     0
  9
$DIMSCALE
 40
1.0
  9
$DIMASZ
 40
0.18
  9
$DIMEXO
 40
0.0625
  9
$DIMDLI
 40
0.38
  9
$DIMRND
 40
0.0
  9
$DIMDLE
 40
0.0
  9
$DIMEXE
 40
0.18
  9
$DIMTP
 40
0.0
  9
$DIMTM
 40
0.0
  9
$DIMTXT
 40
0.18
  9
$DIMCEN
 40
0.09
  9
$DIMTSZ
 40
0.0
  9
$DIMTOL
 70
     0
  9
$DIMLIM
 70
     0
  9
$DIMTIH
 70
     1
  9
$DIMTOH
 70
     1
  9
$DIMSE1
 70
     0
  9
$DIMSE2
 70
     0
  9
$DIMTAD
 70
     0
  9
$DIMZIN
 70
     0
  9
$DIMBLK
  1

  9
$DIMASO
 70
     1
  9
$DIMSHO
 70
     1
  9
$DIMPOST
  1

  9
$DIMAPOST
  1

  9
$DIMALT
 70
     0
  9
$DIMALTD
 70
     2
  9
$DIMALTF
 40
25.4
  9
$DIMLFAC
 40
1.0
  9
$DIMTOFL
 70
     0
  9
$DIMTVP
 40
0.0
  9
$DIMTIX
 70
     0
  9
$DIMSOXD
 70
     0
  9
$DIMSAH
 70
     0
  9
$DIMBLK1
  1

  9
$DIMBLK2
  1

  9
$DIMSTYLE
  2
Standard
  9
$DIMCLRD
 70
     0
  9
$DIMCLRE
 70
     0
  9
$DIMCLRT
 70
     0
  9
$DIMTFAC
 40
1.0
  9
$DIMGAP
 40
0.09
  9
$DIMJUST
 70
     0
  9
$DIMSD1
 70
     0
  9
$DIMSD2
 70
     0
  9
$DIMTOLJ
 70
     1
  9
$DIMTZIN
 70
     0
  9
$DIMALTZ
 70
     0
  9
$DIMALTTZ
 70
     0
  9
$DIMUPT
 70
     0
  9
$DIMDEC
 70
     4
  9
$DIMTDEC
 70
     4
  9
$DIMALTU
 70
     2
  9
$DIMALTTD
 70
     2
  9
$DIMTXSTY
  7
Standard
  9
$DIMAUNIT
 70
     0
  9
$DIMADEC
 70
     0
  9
$DIMALTRND
 40
0.0
  9
$DIMAZIN
 70
     0
  9
$DIMDSEP
 70
    46
  9
$DIMATFIT
 70
     3
  9
$DIMFRAC
 70
     0
  9
$DIMLDRBLK
  1

  9
$DIMLUNIT
 70
     2
  9
$DIMLWD
 70
    -2
  9
$DIMLWE
 70
    -2
  9
$DIMTMOVE
 70
     0
  9
$LUNITS
 70
     2
  9
$LUPREC
 70
     4
  9
$SKETCHINC
 40
0.1
  9
$FILLETRAD
 40
0.5
  9
$AUNITS
 70
     0
  9
$AUPREC
 70
     0
  9
$MENU
  1
.
  9
$ELEVATION
 40
0.0
  9
$PELEVATION
 40
0.0
  9
$THICKNESS
 40
0.0
  9
$LIMCHECK
 70
     0
  9
$CHAMFERA
 40
0.5
  9
$CHAMFERB
 40
0.5
  9
$CHAMFERC
 40
1.0
  9
$CHAMFERD
 40
0.0
  9
$SKPOLY
 70
     0
  9
$TDCREATE
 40
2455538.592887327
  9
$TDUCREATE
 40
2455538.55122066
  9
$TDUPDATE
 40
2455538.592887338
  9
$TDUUPDATE
 40
2455538.551220671
  9
$TDINDWG
 40
0.0000000116
  9
$TDUSRTIMER
 40
0.0000000116
  9
$USRTIMER
 70
     1
  9
$ANGBASE
 50
0.0
  9
$ANGDIR
 70
     0
  9
$PDMODE
 70
     0
  9
$PDSIZE
 40
0.0
  9
$PLINEWID
 40
0.0
  9
$SPLFRAME
 70
     0
  9
$SPLINETYPE
 70
     6
  9
$SPLINESEGS
 70
     8
  9
$HANDSEED
  5
422
  9
$SURFTAB1
 70
     6
  9
$SURFTAB2
 70
     6
  9
$SURFTYPE
 70
     6
  9
$SURFU
 70
     6
  9
$SURFV
 70
     6
  9
$UCSBASE
  2

  9
$UCSNAME
  2

  9
$UCSORG
 10
0.0
 20
0.0
 30
0.0
  9
$UCSXDIR
 10
1.0
 20
0.0
 30
0.0
  9
$UCSYDIR
 10
0.0
 20
1.0
 30
0.0
  9
$UCSORTHOREF
  2

  9
$UCSORTHOVIEW
 70
     0
  9
$UCSORGTOP
 10
0.0
 20
0.0
 30
0.0
  9
$UCSORGBOTTOM
 10
0.0
 20
0.0
 30
0.0
  9
$UCSORGLEFT
 10
0.0
 20
0.0
 30
0.0
  9
$UCSORGRIGHT
 10
0.0
 20
0.0
 30
0.0
  9
$UCSORGFRONT
 10
0.0
 20
0.0
 30
0.0
  9
$UCSORGBACK
 10
0.0
 20
0.0
 30
0.0
  9
$PUCSBASE
  2

  9
$PUCSNAME
  2

  9
$PUCSORG
 10
0.0
 20
0.0
 30
0.0
  9
$PUCSXDIR
 10
1.0
 20
0.0
 30
0.0
  9
$PUCSYDIR
 10
0.0
 20
1.0
 30
0.0
  9
$PUCSORTHOREF
  2

  9
$PUCSORTHOVIEW
 70
     0
  9
$PUCSORGTOP
 10
0.0
 20
0.0
 30
0.0
  9
$PUCSORGBOTTOM
 10
0.0
 20
0.0
 30
0.0
  9
$PUCSORGLEFT
 10
0.0
 20
0.0
 30
0.0
  9
$PUCSORGRIGHT
 10
0.0
 20
0.0
 30
0.0
  9
$PUCSORGFRONT
 10
0.0
 20
0.0
 30
0.0
  9
$PUCSORGBACK
 10
0.0
 20
0.0
 30
0.0
  9
$USERI1
 70
     0
  9
$USERI2
 70
     0
  9
$USERI3
 70
     0
  9
$USERI4
 70
     0
  9
$USERI5
 70
     0
  9
$USERR1
 40
16.0
  9
$USERR2
 40
0.0
  9
$USERR3
 40
0.0
  9
$USERR4
 40
0.0
  9
$USERR5
 40
0.0
  9
$WORLDVIEW
 70
     1
  9
$SHADEDGE
 70
     3
  9
$SHADEDIF
 70
    70
  9
$TILEMODE
 70
     1
  9
$MAXACTVP
 70
    64
  9
$PINSBASE
 10
0.0
 20
0.0
 30
0.0
  9
$PLIMCHECK
 70
     0
  9
$PEXTMIN
 10
1.00000000000000E+20
 20
1.00000000000000E+20
 30
1.00000000000000E+20
  9
$PEXTMAX
 10
-1.00000000000000E+20
 20
-1.00000000000000E+20
 30
-1.00000000000000E+20
  9
$PLIMMIN
 10
0.0
 20
0.0
  9
$PLIMMAX
 10
12.0
 20
9.0
  9
$UNITMODE
 70
     0
  9
$VISRETAIN
 70
     1
  9
$PLINEGEN
 70
     0
  9
$PSLTSCALE
 70
     1
  9
$TREEDEPTH
 70
  3020
  9
$CMLSTYLE
  2
Standard
  9
$CMLJUST
 70
     0
  9
$CMLSCALE
 40
1.0
  9
$PROXYGRAPHICS
 70
     1
  9
$MEASUREMENT
 70
     1
  9
$CELWEIGHT
370
    -1
  9
$ENDCAPS
280
     0
  9
$JOINSTYLE
280
     0
  9
$LWDISPLAY
290
     0
  9
$INSUNITS
 70
     1
  9
$HYPERLINKBASE
  1

  9
$STYLESHEET
  1

  9
$XEDIT
290
     1
  9
$CEPSNTYPE
380
     0
  9
$PSTYLEMODE
290
     1
  9
$FINGERPRINTGUID
  2
{34DFB5DB-D932-430D-B425-EDB99EF6D054}
  9
$VERSIONGUID
  2
{FAEB1C32-E019-11D5-929B-00C0DF256EC4}
  9
$EXTNAMES
290
     1
  9
$PSVPSCALE
 40
0.0
  9
$OLESTARTUP
290
     0
  0
ENDSEC
  0
SECTION
  2
CLASSES
  0
CLASS
  1
ACDBDICTIONARYWDFLT
  2
AcDbDictionaryWithDefault
  3
ObjectDBX Classes
 90
        0
280
     0
281
     0
  0
CLASS
  1
VISUALSTYLE
  2
AcDbVisualStyle
  3
ObjectDBX Classes
 90
     4095
280
     0
281
     0
  0
CLASS
  1

  2
exOdDbCircle
  3

 90
        0
280
     0
281
     1
  0
CLASS
  1
ACDBPLACEHOLDER
  2
AcDbPlaceHolder
  3
ObjectDBX Classes
 90
        0
280
     0
281
     0
  0
CLASS
  1
LAYOUT
  2
AcDbLayout
  3
ObjectDBX Classes
 90
        0
280
     0
281
     0
  0
ENDSEC
  0
SECTION
  2
TABLES
  0
TABLE
  2
VPORT
  5
8
330
0
100
AcDbSymbolTable
 70
     1
  0
VPORT
  5
29
330
8
100
AcDbSymbolTableRecord
100
AcDbViewportTableRecord
  2
*Active
 70
     0
 10
0.0
 20
0.0
 11
1.0
 21
1.0
 12
-95.53766974706194
 22
107.2820721072511
 13
0.0
 23
0.0
 14
0.5
 24
0.5
 15
0.5
 25
0.5
 16
0.0
 26
0.0
 36
1.0
 17
0.0
 27
0.0
 37
0.0
 40
231.0000000000001
 41
1.60267857142857
 42
50.0
 43
0.0
 44
0.0
 50
0.0
 51
0.0
 71
     0
 72
   100
 73
     1
 74
     3
 75
     0
 76
     0
 77
     0
 78
     0
281
     0
 65
     1
110
0.0
120
0.0
130
0.0
111
1.0
121
0.0
131
0.0
112
0.0
122
1.0
132
0.0
 79
     0
146
0.0
  0
ENDTAB
  0
TABLE
  2
LTYPE
  5
5
330
0
100
AcDbSymbolTable
 70
     8
  0
LTYPE
  5
14
330
5
100
AcDbSymbolTableRecord
100
AcDbLinetypeTableRecord
  2
ByBlock
 70
     0
  3

 72
    65
 73
     0
 40
0.0
  0
LTYPE
  5
15
330
5
100
AcDbSymbolTableRecord
100
AcDbLinetypeTableRecord
  2
ByLayer
 70
     0
  3

 72
    65
 73
     0
 40
0.0
  0
LTYPE
  5
16
330
5
100
AcDbSymbolTableRecord
100
AcDbLinetypeTableRecord
  2
Continuous
 70
     0
  3
Solid line
 72
    65
 73
     0
 40
0.0
  0
LTYPE
  5
3B
330
5
100
AcDbSymbolTableRecord
100
AcDbLinetypeTableRecord
  2
DASHED
 70
     0
  3
Dashed
 72
    65
 73
     2
 40
15.0
 49
7.0
 74
     0
 49
-8.0
 74
     0
  0
LTYPE
  5
3C
330
5
100
AcDbSymbolTableRecord
100
AcDbLinetypeTableRecord
  2
DOTTED
 70
     0
  3
Dotted
 72
    65
 73
     2
 40
1.0
 49
0.0
 74
     0
 49
-1.0
 74
     0
  0
LTYPE
  5
3D
330
5
100
AcDbSymbolTableRecord
100
AcDbLinetypeTableRecord
  2
DOT_CENTER
 70
     0
  3
Dot_Center
 72
    65
 73
     4
 40
14.0
 49
12.0
 74
     0
 49
-1.0
 74
     0
 49
0.0
 74
     0
 49
-1.0
 74
     0
  0
LTYPE
  5
3E
330
5
100
AcDbSymbolTableRecord
100
AcDbLinetypeTableRecord
  2
LONG_DASHED
 70
     0
  3
Long_Dashed
 72
    65
 73
     2
 40
15.0
 49
10.0
 74
     0
 49
-5.0
 74
     0
  0
LTYPE
  5
3F
330
5
100
AcDbSymbolTableRecord
100
AcDbLinetypeTableRecord
  2
DASH_CENTER
 70
     0
  3
Dash_Center
 72
    65
 73
     4
 40
14.0
 49
11.0
 74
     0
 49
-1.0
 74
     0
 49
1.0
 74
     0
 49
-1.0
 74
     0
  0
LTYPE
  5
40
330
5
100
AcDbSymbolTableRecord
100
AcDbLinetypeTableRecord
  2
PHANTOM
 70
     0
  3
Phantom
 72
    65
 73
     6
 40
13.0
 49
10.0
 74
     0
 49
-1.0
 74
     0
 49
0.0
 74
     0
 49
-1.0
 74
     0
 49
0.0
 74
     0
 49
-1.0
 74
     0
  0
LTYPE
  5
41
330
5
100
AcDbSymbolTableRecord
100
AcDbLinetypeTableRecord
  2
CENTER_DASH_DASH
 70
     0
  3
Center_Dash_Dash
 72
    65
 73
     6
 40
14.0
 49
9.0
 74
     0
 49
-1.0
 74
     0
 49
1.0
 74
     0
 49
-1.0
 74
     0
 49
1.0
 74
     0
 49
-1.0
 74
     0
  0
ENDTAB
  0
TABLE
  2
LAYER
  5
2
330
0
100
AcDbSymbolTable
 70
     2
  0
LAYER
  5
10
330
2
100
AcDbSymbolTableRecord
100
AcDbLayerTableRecord
  2
0
 70
     0
 62
     7
  6
Continuous
370
    -3
390
F
  0
LAYER
  5
42
330
2
100
AcDbSymbolTableRecord
100
AcDbLayerTableRecord
  2
1
 70
     0
 62
     7
  6
Continuous
370
    -3
390
F
  0
ENDTAB
  0
TABLE
  2
STYLE
  5
3
330
0
100
AcDbSymbolTable
 70
     9
  0
STYLE
  5
11
330
3
100
AcDbSymbolTableRecord
100
AcDbTextStyleTableRecord
  2
Standard
 70
     0
 40
0.0
 41
1.0
 50
0.0
 71
     0
 42
0.2
  3
txt
  4

  0
STYLE
  5
106
330
3
100
AcDbSymbolTableRecord
100
AcDbTextStyleTableRecord
  2
CONVERTER_11
 70
     0
 40
0.0
 41
0.9
 50
0.0
 71
     0
 42
0.2
  3
txt.shx
  4

  0
STYLE
  5
3A9
330
3
100
AcDbSymbolTableRecord
100
AcDbTextStyleTableRecord
  2
CONVERTER_12
 70
     0
 40
0.0
 41
0.72
 50
0.0
 71
     0
 42
0.2
  3
txt.shx
  4

  0
STYLE
  5
3AB
330
3
100
AcDbSymbolTableRecord
100
AcDbTextStyleTableRecord
  2
CONVERTER_13
 70
     0
 40
0.0
 41
0.81
 50
0.0
 71
     0
 42
0.2
  3
txt.shx
  4

  0
STYLE
  5
3AD
330
3
100
AcDbSymbolTableRecord
100
AcDbTextStyleTableRecord
  2
CONVERTER_14
 70
     0
 40
0.0
 41
0.45
 50
0.0
 71
     0
 42
0.2
  3
txt.shx
  4

  0
STYLE
  5
3AF
330
3
100
AcDbSymbolTableRecord
100
AcDbTextStyleTableRecord
  2
CONVERTER_15
 70
     0
 40
0.0
 41
0.54
 50
0.0
 71
     0
 42
0.2
  3
txt.shx
  4

  0
STYLE
  5
3D1
330
3
100
AcDbSymbolTableRecord
100
AcDbTextStyleTableRecord
  2
CONVERTER_16
 70
     0
 40
0.0
 41
0.855
 50
0.0
 71
     0
 42
0.2
  3
txt.shx
  4

  0
STYLE
  5
404
330
3
100
AcDbSymbolTableRecord
100
AcDbTextStyleTableRecord
  2
CONVERTER_17
 70
     0
 40
0.0
 41
0.765
 50
0.0
 71
     0
 42
0.2
  3
txt.shx
  4

  0
STYLE
  5
40E
330
3
100
AcDbSymbolTableRecord
100
AcDbTextStyleTableRecord
  2
CONVERTER_18
 70
     0
 40
0.0
 41
0.63
 50
0.0
 71
     0
 42
0.2
  3
txt.shx
  4

  0
ENDTAB
  0
TABLE
  2
VIEW
  5
6
330
0
100
AcDbSymbolTable
 70
     0
  0
ENDTAB
  0
TABLE
  2
UCS
  5
7
330
0
100
AcDbSymbolTable
 70
     0
  0
ENDTAB
  0
TABLE
  2
APPID
  5
9
330
0
100
AcDbSymbolTable
 70
     1
  0
APPID
  5
12
330
9
100
AcDbSymbolTableRecord
100
AcDbRegAppTableRecord
  2
ACAD
 70
     0
  0
ENDTAB
  0
TABLE
  2
DIMSTYLE
  5
A
330
0
100
AcDbSymbolTable
 70
     6
100
AcDbDimStyleTable
  0
DIMSTYLE
105
27
330
A
100
AcDbSymbolTableRecord
100
AcDbDimStyleTableRecord
  2
Standard
 70
     0
340
11
  0
DIMSTYLE
105
201
102
{ACAD_REACTORS
330
202
102
}
330
A
100
AcDbSymbolTableRecord
100
AcDbDimStyleTableRecord
  2
ME10_DIM_10
 70
     0
 41
3.5
 42
0.0
 44
2.0
 73
     0
 74
     0
 77
     1
 78
     8
140
3.5
147
2.0
172
     1
173
     1
176
     2
177
     2
178
     3
340
106
  0
DIMSTYLE
105
20C
102
{ACAD_REACTORS
330
20D
102
}
330
A
100
AcDbSymbolTableRecord
100
AcDbDimStyleTableRecord
  2
ME10_DIM_11
 70
     0
 41
3.5
 42
0.0
 44
2.0
 73
     0
 74
     0
 77
     1
 78
     8
140
3.5
147
2.0
172
     1
173
     1
176
     2
177
     2
178
     3
340
106
  0
DIMSTYLE
105
217
102
{ACAD_REACTORS
330
218
102
}
330
A
100
AcDbSymbolTableRecord
100
AcDbDimStyleTableRecord
  2
ME10_DIM_12
 70
     0
 41
3.5
 42
0.0
 44
2.0
 73
     0
 74
     0
 77
     1
 78
     8
140
3.5
147
2.0
172
     1
173
     1
176
     2
177
     2
178
     3
271
     1
340
106
  0
DIMSTYLE
105
231
102
{ACAD_REACTORS
330
232
102
}
330
A
100
AcDbSymbolTableRecord
100
AcDbDimStyleTableRecord
  2
ME10_DIM_13
 70
     0
 41
3.5
 42
0.0
 44
2.0
 73
     0
 74
     0
 77
     1
 78
     8
140
3.5
147
2.0
172
     1
173
     1
176
     2
177
     2
178
     3
340
106
  0
DIMSTYLE
105
23E
102
{ACAD_REACTORS
330
23F
102
}
330
A
100
AcDbSymbolTableRecord
100
AcDbDimStyleTableRecord
  2
ME10_DIM_14
 70
     0
 41
3.5
 42
0.0
 44
2.0
 73
     0
 74
     0
 77
     1
 78
     8
140
3.5
147
2.0
172
     1
173
     1
176
     2
177
     2
178
     3
340
106
  0
ENDTAB
  0
TABLE
  2
BLOCK_RECORD
  5
1
330
0
100
AcDbSymbolTable
 70
    21
  0
BLOCK_RECORD
  5
1F
330
1
100
AcDbSymbolTableRecord
100
AcDbBlockTableRecord
  2
*Model_Space
340
22
  0
BLOCK_RECORD
  5
1B
330
1
100
AcDbSymbolTableRecord
100
AcDbBlockTableRecord
  2
*Paper_Space
340
1E
  0
BLOCK_RECORD
  5
23
330
1
100
AcDbSymbolTableRecord
100
AcDbBlockTableRecord
  2
*Paper_Space0
340
26
  0
BLOCK_RECORD
  5
43
330
1
100
AcDbSymbolTableRecord
100
AcDbBlockTableRecord
  2
3030213_FBS_10-5_select__1
340
0
102
{BLKREFS
331
47
102
}
  0
BLOCK_RECORD
  5
46
330
1
100
AcDbSymbolTableRecord
100
AcDbBlockTableRecord
  2
AllgSicht1
340
0
102
{BLKREFS
331
78
102
}
  0
BLOCK_RECORD
  5
4A
330
1
100
AcDbSymbolTableRecord
100
AcDbBlockTableRecord
  2
3030213_FBS_10-5_select__2
340
0
102
{BLKREFS
331
4E
102
}
  0
BLOCK_RECORD
  5
4D
330
1
100
AcDbSymbolTableRecord
100
AcDbBlockTableRecord
  2
Drfsicht1
340
0
102
{BLKREFS
331
79
102
}
  0
BLOCK_RECORD
  5
51
330
1
100
AcDbSymbolTableRecord
100
AcDbBlockTableRecord
  2
3030213_FBS_10-5_select__3
340
0
102
{BLKREFS
331
55
102
}
  0
BLOCK_RECORD
  5
54
330
1
100
AcDbSymbolTableRecord
100
AcDbBlockTableRecord
  2
Rckans1
340
0
102
{BLKREFS
331
7A
102
}
  0
BLOCK_RECORD
  5
58
330
1
100
AcDbSymbolTableRecord
100
AcDbBlockTableRecord
  2
3030213_FBS_10-5_select__4
340
0
102
{BLKREFS
331
5C
102
}
  0
BLOCK_RECORD
  5
5B
330
1
100
AcDbSymbolTableRecord
100
AcDbBlockTableRecord
  2
SA_Links1
340
0
102
{BLKREFS
331
7B
102
}
  0
BLOCK_RECORD
  5
5F
330
1
100
AcDbSymbolTableRecord
100
AcDbBlockTableRecord
  2
3030213_FBS_10-5_select__5
340
0
102
{BLKREFS
331
63
102
}
  0
BLOCK_RECORD
  5
62
330
1
100
AcDbSymbolTableRecord
100
AcDbBlockTableRecord
  2
SA_Rechts1
340
0
102
{BLKREFS
331
7C
102
}
  0
BLOCK_RECORD
  5
66
330
1
100
AcDbSymbolTableRecord
100
AcDbBlockTableRecord
  2
3030213_FBS_10-5_select__6
340
0
102
{BLKREFS
331
6A
102
}
  0
BLOCK_RECORD
  5
69
330
1
100
AcDbSymbolTableRecord
100
AcDbBlockTableRecord
  2
Vordans1
340
0
102
{BLKREFS
331
7D
102
}
  0
BLOCK_RECORD
  5
6D
330
1
100
AcDbSymbolTableRecord
100
AcDbBlockTableRecord
  2
_rahmen
340
0
102
{BLKREFS
331
74
102
}
  0
BLOCK_RECORD
  5
70
330
1
100
AcDbSymbolTableRecord
100
AcDbBlockTableRecord
  2
_punkt
340
0
102
{BLKREFS
331
75
102
}
  0
BLOCK_RECORD
  5
73
330
1
100
AcDbSymbolTableRecord
100
AcDbBlockTableRecord
  2
A4I
340
0
102
{BLKREFS
331
7E
102
}
  0
BLOCK_RECORD
  5
1F8
330
1
100
AcDbSymbolTableRecord
100
AcDbBlockTableRecord
  2
*D16
340
0
  0
BLOCK_RECORD
  5
203
330
1
100
AcDbSymbolTableRecord
100
AcDbBlockTableRecord
  2
*D17
340
0
  0
BLOCK_RECORD
  5
20E
330
1
100
AcDbSymbolTableRecord
100
AcDbBlockTableRecord
  2
*D18
340
0
  0
BLOCK_RECORD
  5
226
330
1
100
AcDbSymbolTableRecord
100
AcDbBlockTableRecord
  2
*D19
340
0
  0
BLOCK_RECORD
  5
233
330
1
100
AcDbSymbolTableRecord
100
AcDbBlockTableRecord
  2
*D20
340
0
  0
ENDTAB
  0
ENDSEC
  0
SECTION
  2
BLOCKS
  0
BLOCK
  5
20
330
1F
100
AcDbEntity
  8
0
100
AcDbBlockBegin
  2
*Model_Space
 70
     0
 10
0.0
 20
0.0
 30
0.0
  3
*Model_Space
  1

  0
ENDBLK
  5
21
330
1F
100
AcDbEntity
  8
0
100
AcDbBlockEnd
  0
BLOCK
  5
1C
330
1B
100
AcDbEntity
 67
     1
  8
0
100
AcDbBlockBegin
  2
*Paper_Space
 70
     0
 10
0.0
 20
0.0
 30
0.0
  3
*Paper_Space
  1

  0
ENDBLK
  5
1D
330
1B
100
AcDbEntity
 67
     1
  8
0
100
AcDbBlockEnd
  0
BLOCK
  5
24
330
23
100
AcDbEntity
  8
0
100
AcDbBlockBegin
  2
*Paper_Space0
 70
     0
 10
0.0
 20
0.0
 30
0.0
  3
*Paper_Space0
  1

  0
ENDBLK
  5
25
330
23
100
AcDbEntity
  8
0
100
AcDbBlockEnd
  0
BLOCK
  5
44
330
43
100
AcDbEntity
  8
0
100
AcDbBlockBegin
  2
3030213_FBS_10-5_select__1
 70
     0
 10
-22.34903845736243
 20
64.46580507889016
 30
0.0
  3
3030213_FBS_10-5_select__1
  1

  0
LINE
  5
7F
330
43
100
AcDbEntity
  8
0
  6
Continuous
 62
     7
100
AcDbLine
 10
-21.2352261492146
 20
64.86580507889016
 30
0.0
 11
-21.41782067470604
 21
67.28342897758397
 31
0.0
  0
LINE
  5
80
330
43
100
AcDbEntity
  8
0
  6
Continuous
 62
     7
100
AcDbLine
 10
-19.75096224600911
 20
71.7103958643313
 30
0.0
 11
-22.34903845736243
 21
72.4603958643313
 31
0.0
  0
LINE
  5
81
330
43
100
AcDbEntity
  8
0
  6
Continuous
 62
     7
100
AcDbLine
 10
-22.34903845736243
 20
72.4603958643313
 30
0.0
 11
-22.34903845736243
 21
84.23834135579966
 31
0.0
  0
LINE
  5
82
330
43
100
AcDbEntity
  8
0
  6
Continuous
 62
     7
100
AcDbLine
 10
-19.75096224600911
 20
83.48834135579966
 30
0.0
 11
-22.34903845736243
 21
84.23834135579966
 31
0.0
  0
LINE
  5
83
330
43
100
AcDbEntity
  8
0
  6
Continuous
 62
     7
100
AcDbLine
 10
-4.85096224600906
 20
91.19596744948117
 30
0.0
 11
-4.15096224600906
 21
91.80218523213028
 31
0.0
  0
LINE
  5
84
330
43
100
AcDbEntity
  8
0
  6
Continuous
 62
     7
100
AcDbLine
 10
-4.85096224600906
 20
91.19596744948117
 30
0.0
 11
-4.85096224600906
 21
88.16487853623565
 31
0.0
  0
LINE
  5
85
330
43
100
AcDbEntity
  8
0
  6
Continuous
 62
     7
100
AcDbLine
 10
0.76781997134994
 20
93.35560899981816
 30
0.0
 11
0.76781997134984
 21
84.89675737629986
 31
0.0
  0
LINE
  5
86
330
43
100
AcDbEntity
  8
0
  6
Continuous
 62
     7
100
AcDbLine
 10
-4.15096224600906
 20
91.80218523213028
 30
0.0
 11
-4.15096224600906
 21
88.77109631888474
 31
0.0
  0
LINE
  5
87
330
43
100
AcDbEntity
  8
0
  6
Continuous
 62
     7
100
AcDbLine
 10
2.01781997135115
 20
85.9792891310244
 30
0.0
 11
2.01781997135115
 21
94.11341842953243
 31
0.0
  0
LINE
  5
88
330
43
100
AcDbEntity
  8
0
  6
Continuous
 62
     7
100
AcDbLine
 10
-4.15096224600906
 20
88.77109631888474
 30
0.0
 11
-2.25096224600905
 21
90.41654458607519
 31
0.0
  0
LINE
  5
89
330
43
100
AcDbEntity
  8
0
  6
Continuous
 62
     7
100
AcDbLine
 10
-1.55096224600906
 20
94.05385128196983
 30
0.0
 11
-2.25096224600905
 21
93.44763349932072
 31
0.0
  0
LINE
  5
8A
330
43
100
AcDbEntity
  8
0
  6
Continuous
 62
     7
100
AcDbLine
 10
-1.55096224600906
 20
91.02276236872429
 30
0.0
 11
-2.25096224600905
 21
91.22483496294065
 31
0.0
  0
LINE
  5
8B
330
43
100
AcDbEntity
  8
0
  6
Continuous
 62
     7
100
AcDbLine
 10
-3.18218002864946
 20
81.47595703135192
 30
0.0
 11
-3.18218002864946
 21
89.61008632985282
 31
0.0
  0
LINE
  5
8C
330
43
100
AcDbEntity
  8
0
  6
Continuous
 62
     7
100
AcDbLine
 10
-2.25096224600905
 20
90.41654458607519
 30
0.0
 11
-2.25096224600905
 21
93.44763349932072
 31
0.0
  0
LINE
  5
8D
330
43
100
AcDbEntity
  8
0
  6
Continuous
 62
     7
100
AcDbLine
 10
-1.83218002865016
 20
82.64509132646033
 30
0.0
 11
-1.83218002865006
 21
91.10394294997862
 31
0.0
  0
LINE
  5
8E
330
43
100
AcDbEntity
  8
0
  6
Continuous
 62
     7
100
AcDbLine
 10
-1.55096224600906
 20
91.02276236872429
 30
0.0
 11
-1.55096224600906
 21
94.05385128196983
 31
0.0
  0
LINE
  5
8F
330
43
100
AcDbEntity
  8
0
  6
Continuous
 62
     7
100
AcDbLine
 10
1.04903775399095
 20
93.27442841856382
 30
0.0
 11
0.34903775399084
 21
93.47650101278019
 31
0.0
  0
LINE
  5
90
330
43
100
AcDbEntity
  8
0
  6
Continuous
 62
     7
100
AcDbLine
 10
0.34903775399084
 20
92.66821063591472
 30
0.0
 11
0.34903775399084
 21
95.69929954916026
 31
0.0
  0
LINE
  5
91
330
43
100
AcDbEntity
  8
0
  6
Continuous
 62
     7
100
AcDbLine
 10
-0.58218002864946
 20
83.72762308119148
 30
0.0
 11
-0.58218002864946
 21
91.86175237969235
 31
0.0
  0
LINE
  5
92
330
43
100
AcDbEntity
  8
0
  6
Continuous
 62
     7
100
AcDbLine
 10
1.04903775399095
 20
93.27442841856382
 30
0.0
 11
1.04903775399095
 21
96.30551733180936
 31
0.0
  0
LINE
  5
93
330
43
100
AcDbEntity
  8
0
  6
Continuous
 62
     7
100
AcDbLine
 10
0.76781997134984
 20
84.89675737629986
 30
0.0
 11
0.95041449684365
 21
82.47913347757557
 31
0.0
  0
LINE
  5
94
330
43
100
AcDbEntity
  8
0
  6
Continuous
 62
     7
100
AcDbLine
 10
-0.76477455414125
 20
80.99373618715711
 30
0.0
 11
-0.58218002864946
 21
83.72762308119148
 31
0.0
  0
LINE
  5
95
330
43
100
AcDbEntity
  8
0
  6
Continuous
 62
     7
100
AcDbLine
 10
0.34903775399084
 20
95.69929954916026
 30
0.0
 11
1.04903775399095
 21
96.30551733180936
 31
0.0
  0
LINE
  5
96
330
43
100
AcDbEntity
  8
0
  6
Continuous
 62
     7
100
AcDbLine
 10
0.34903775399084
 20
92.66821063591472
 30
0.0
 11
-1.55096224600906
 21
91.02276236872429
 31
0.0
  0
LINE
  5
97
330
43
100
AcDbEntity
  8
0
  6
Continuous
 62
     7
100
AcDbLine
 10
-10.05096224600912
 20
83.66154643655655
 30
0.0
 11
-11.95096224600913
 21
82.0160981693661
 31
0.0
  0
LINE
  5
98
330
43
100
AcDbEntity
  8
0
  6
Continuous
 62
     7
100
AcDbLine
 10
1.83522544585985
 20
83.2454022369976
 30
0.0
 11
2.01781997135115
 21
85.9792891310244
 31
0.0
  0
LINE
  5
99
330
43
100
AcDbEntity
  8
0
  6
Continuous
 62
     7
100
AcDbLine
 10
-9.3509622460091
 20
84.26776421920567
 30
0.0
 11
-9.35096224600909
 21
87.29885313245121
 31
0.0
  0
LINE
  5
9A
330
43
100
AcDbEntity
  8
0
  6
Continuous
 62
     7
100
AcDbLine
 10
-4.15096224600906
 20
88.77109631888474
 30
0.0
 11
-4.85096224600906
 21
88.97316891310112
 31
0.0
  0
LINE
  5
9B
330
43
100
AcDbEntity
  8
0
  6
Continuous
 62
     7
100
AcDbLine
 10
-12.65096224600913
 20
84.44096929996255
 30
0.0
 11
-11.95096224600913
 21
85.04718708261164
 31
0.0
  0
LINE
  5
9C
330
43
100
AcDbEntity
  8
0
  6
Continuous
 62
     7
100
AcDbLine
 10
-4.85096224600906
 20
88.16487853623565
 30
0.0
 11
-6.75096224600911
 21
86.5194302690452
 31
0.0
  0
LINE
  5
9D
330
43
100
AcDbEntity
  8
0
  6
Continuous
 62
     7
100
AcDbLine
 10
2.94903775399084
 20
97.9509655989998
 30
0.0
 11
2.94903775399094
 21
94.91987668575425
 31
0.0
  0
LINE
  5
9E
330
43
100
AcDbEntity
  8
0
  6
Continuous
 62
     7
100
AcDbLine
 10
4.61781997135144
 20
92.814380323856
 30
0.0
 11
4.61781997135134
 21
88.23095518087236
 31
0.0
  0
LINE
  5
9F
330
43
100
AcDbEntity
  8
0
  6
Continuous
 62
     7
100
AcDbLine
 10
3.36781997134945
 20
92.05657089414163
 30
0.0
 11
3.36781997134975
 21
87.14842342613923
 31
0.0
  0
LINE
  5
A0
330
43
100
AcDbEntity
  8
0
  6
Continuous
 62
     7
100
AcDbLine
 10
3.64903775399084
 20
91.97539031288716
 30
0.0
 11
2.01781997135115
 21
92.44628232584414
 31
0.0
  0
LINE
  5
A1
330
43
100
AcDbEntity
  8
0
  6
Continuous
 62
     7
100
AcDbLine
 10
3.64903775399084
 20
98.5571833816489
 30
0.0
 11
3.64903775399084
 21
91.97539031288716
 31
0.0
  0
LINE
  5
A2
330
43
100
AcDbEntity
  8
0
  6
Continuous
 62
     7
100
AcDbLine
 10
2.94903775399094
 20
94.91987668575425
 30
0.0
 11
1.04903775399095
 21
93.27442841856382
 31
0.0
  0
LINE
  5
A3
330
43
100
AcDbEntity
  8
0
  6
Continuous
 62
     7
100
AcDbLine
 10
2.94903775399084
 20
97.9509655989998
 30
0.0
 11
3.64903775399084
 21
98.5571833816489
 31
0.0
  0
LINE
  5
A4
330
43
100
AcDbEntity
  8
0
  6
Continuous
 62
     7
100
AcDbLine
 10
5.54903775399094
 20
93.62083858007759
 30
0.0
 11
3.64903775399084
 21
91.97539031288716
 31
0.0
  0
LINE
  5
A5
330
43
100
AcDbEntity
  8
0
  6
Continuous
 62
     7
100
AcDbLine
 10
5.54903775399094
 20
93.62083858007759
 30
0.0
 11
5.54903775399094
 21
105.398784071546
 31
0.0
  0
LINE
  5
A6
330
43
100
AcDbEntity
  8
0
  6
Continuous
 62
     7
100
AcDbLine
 10
5.54903775399094
 20
105.398784071546
 30
0.0
 11
2.95096154263754
 21
106.148784071546
 31
0.0
  0
LINE
  5
A7
330
43
100
AcDbEntity
  8
0
  6
Continuous
 62
     7
100
AcDbLine
 10
-5.78218002864885
 20
80.78313670831544
 30
0.0
 11
-4.43218002865076
 21
80.39342527661297
 31
0.0
  0
LINE
  5
A8
330
43
100
AcDbEntity
  8
0
  6
Continuous
 62
     7
100
AcDbLine
 10
-5.78218002864885
 20
80.32152899461708
 30
0.0
 11
-5.63522614922296
 21
78.37580137792376
 31
0.0
  0
LINE
  5
A9
330
43
100
AcDbEntity
  8
0
  6
Continuous
 62
     7
100
AcDbLine
 10
-4.43218002865076
 20
80.39342527661297
 30
0.0
 11
-4.24958550315935
 21
77.97580137792131
 31
0.0
  0
LINE
  5
AA
330
43
100
AcDbEntity
  8
0
  6
Continuous
 62
     7
100
AcDbLine
 10
-4.43218002865076
 20
88.85227690013927
 30
0.0
 11
-4.43218002865076
 21
80.39342527661297
 31
0.0
  0
LINE
  5
AB
330
43
100
AcDbEntity
  8
0
  6
Continuous
 62
     7
100
AcDbLine
 10
-3.18218002864946
 20
81.47595703135192
 30
0.0
 11
-3.36477455414325
 21
78.74207013728844
 31
0.0
  0
LINE
  5
AC
330
43
100
AcDbEntity
  8
0
  6
Continuous
 62
     7
100
AcDbLine
 10
-3.18218002864946
 20
82.57319504448063
 30
0.0
 11
-3.03522614921985
 21
80.62746742773848
 31
0.0
  0
LINE
  5
AD
330
43
100
AcDbEntity
  8
0
  6
Continuous
 62
     7
100
AcDbLine
 10
-1.64958550315636
 20
80.22746742773603
 30
0.0
 11
-1.83218002865016
 21
82.64509132646033
 31
0.0
  0
LINE
  5
AE
330
43
100
AcDbEntity
  8
0
  6
Continuous
 62
     7
100
AcDbLine
 10
3.36781997134975
 20
87.14842342613923
 30
0.0
 11
2.01781997135115
 21
87.53813485784477
 31
0.0
  0
LINE
  5
AF
330
43
100
AcDbEntity
  8
0
  6
Continuous
 62
     7
100
AcDbLine
 10
2.16477385078794
 20
85.13079952742079
 30
0.0
 11
3.55041449684305
 21
84.73079952742079
 31
0.0
  0
LINE
  5
B0
330
43
100
AcDbEntity
  8
0
  6
Continuous
 62
     7
100
AcDbLine
 10
2.16477385078794
 20
85.13079952742079
 30
0.0
 11
2.01781997135115
 21
87.07652714425838
 31
0.0
  0
LINE
  5
B1
330
43
100
AcDbEntity
  8
0
  6
Continuous
 62
     7
100
AcDbLine
 10
4.61781997135134
 20
88.23095518087236
 30
0.0
 11
4.43522544585994
 21
85.49706828684346
 31
0.0
  0
LINE
  5
B2
330
43
100
AcDbEntity
  8
0
  6
Continuous
 62
     7
100
AcDbLine
 10
3.55041449684305
 20
84.73079952742079
 30
0.0
 11
3.36781997134975
 21
87.14842342613923
 31
0.0
  0
LINE
  5
B3
330
43
100
AcDbEntity
  8
0
  6
Continuous
 62
     7
100
AcDbLine
 10
0.95041449684365
 20
82.47913347757557
 30
0.0
 11
1.83522544585985
 21
83.2454022369976
 31
0.0
  0
LINE
  5
B4
330
43
100
AcDbEntity
  8
0
  6
Continuous
 62
     7
100
AcDbLine
 10
4.43522544585994
 20
85.49706828684346
 30
0.0
 11
3.55041449684305
 21
84.73079952742079
 31
0.0
  0
LINE
  5
B5
330
43
100
AcDbEntity
  8
0
  6
Continuous
 62
     7
100
AcDbLine
 10
-0.76477455414125
 20
80.99373618715711
 30
0.0
 11
-1.64958550315636
 21
80.22746742773603
 31
0.0
  0
LINE
  5
B6
330
43
100
AcDbEntity
  8
0
  6
Continuous
 62
     7
100
AcDbLine
 10
-3.03522614921985
 20
80.62746742773848
 30
0.0
 11
-1.64958550315636
 21
80.22746742773603
 31
0.0
  0
LINE
  5
B7
330
43
100
AcDbEntity
  8
0
  6
Continuous
 62
     7
100
AcDbLine
 10
-3.18218002864946
 20
83.03480275816261
 30
0.0
 11
-1.83218002865016
 21
82.64509132646033
 31
0.0
  0
LINE
  5
B8
330
43
100
AcDbEntity
  8
0
  6
Continuous
 62
     7
100
AcDbLine
 10
-0.58218002864946
 20
84.82486109432018
 30
0.0
 11
-0.43522614921986
 21
82.87913347757801
 31
0.0
  0
LINE
  5
B9
330
43
100
AcDbEntity
  8
0
  6
Continuous
 62
     7
100
AcDbLine
 10
-3.36477455414325
 20
78.74207013728844
 30
0.0
 11
-4.24958550315935
 21
77.97580137792131
 31
0.0
  0
LINE
  5
BA
330
43
100
AcDbEntity
  8
0
  6
Continuous
 62
     7
100
AcDbLine
 10
-0.58218002864946
 20
85.28646880800213
 30
0.0
 11
0.76781997134984
 21
84.89675737629986
 31
0.0
  0
LINE
  5
BB
330
43
100
AcDbEntity
  8
0
  6
Continuous
 62
     7
100
AcDbLine
 10
-5.63522614922296
 20
78.37580137792376
 30
0.0
 11
-4.24958550315935
 21
77.97580137792131
 31
0.0
  0
LINE
  5
BC
330
43
100
AcDbEntity
  8
0
  6
Continuous
 62
     7
100
AcDbLine
 10
-0.43522614921986
 20
82.87913347757801
 30
0.0
 11
0.95041449684365
 21
82.47913347757557
 31
0.0
  0
LINE
  5
BD
330
43
100
AcDbEntity
  8
0
  6
Continuous
 62
     7
100
AcDbLine
 10
-22.34903845736243
 20
84.23834135579966
 30
0.0
 11
2.95096154263754
 21
106.148784071546
 31
0.0
  0
LINE
  5
BE
330
43
100
AcDbEntity
  8
0
  6
Continuous
 62
     7
100
AcDbLine
 10
-14.8321800286501
 20
71.38676107726266
 30
0.0
 11
-14.64958550315826
 21
68.9691371785641
 31
0.0
  0
LINE
  5
BF
330
43
100
AcDbEntity
  8
0
  6
Continuous
 62
     7
100
AcDbLine
 10
-14.64958550315826
 20
68.9691371785641
 30
0.0
 11
-16.03522614922181
 21
69.36913717856655
 31
0.0
  0
LINE
  5
C0
330
43
100
AcDbEntity
  8
0
  6
Continuous
 62
     7
100
AcDbLine
 10
-13.58218002864948
 20
72.46929283199376
 30
0.0
 11
-13.76477455414326
 21
69.73540593793025
 31
0.0
  0
LINE
  5
C1
330
43
100
AcDbEntity
  8
0
  6
Continuous
 62
     7
100
AcDbLine
 10
-16.18218002864947
 20
71.7764725089649
 30
0.0
 11
-14.8321800286501
 21
71.38676107726266
 31
0.0
  0
LINE
  5
C2
330
43
100
AcDbEntity
  8
0
  6
Continuous
 62
     7
100
AcDbLine
 10
-16.03522614922181
 20
69.36913717856655
 30
0.0
 11
-16.18218002864947
 21
71.31486479528296
 31
0.0
  0
LINE
  5
C3
330
43
100
AcDbEntity
  8
0
  6
Continuous
 62
     7
100
AcDbLine
 10
-13.43522614921987
 20
71.6208032283803
 30
0.0
 11
-13.58218002864948
 21
73.56653084512247
 31
0.0
  0
LINE
  5
C4
330
43
100
AcDbEntity
  8
0
  6
Continuous
 62
     7
100
AcDbLine
 10
-13.58218002864948
 20
74.02813855880441
 30
0.0
 11
-12.23218002865011
 21
73.6384271271022
 31
0.0
  0
LINE
  5
C5
330
43
100
AcDbEntity
  8
0
  6
Continuous
 62
     7
100
AcDbLine
 10
-12.23218002865011
 20
73.6384271271022
 30
0.0
 11
-12.04958550315632
 21
71.22080322837786
 31
0.0
  0
LINE
  5
C6
330
43
100
AcDbEntity
  8
0
  6
Continuous
 62
     7
100
AcDbLine
 10
-12.04958550315632
 20
71.22080322837786
 30
0.0
 11
-13.43522614921987
 21
71.6208032283803
 31
0.0
  0
LINE
  5
C7
330
43
100
AcDbEntity
  8
0
  6
Continuous
 62
     7
100
AcDbLine
 10
-10.98218002864886
 20
76.27980460864381
 30
0.0
 11
-9.63218002865011
 21
75.89009317694172
 31
0.0
  0
LINE
  5
C8
330
43
100
AcDbEntity
  8
0
  6
Continuous
 62
     7
100
AcDbLine
 10
-18.63522614922292
 20
67.11747112872604
 30
0.0
 11
-17.24958550315937
 21
66.7174711287236
 31
0.0
  0
LINE
  5
C9
330
43
100
AcDbEntity
  8
0
  6
Continuous
 62
     7
100
AcDbLine
 10
-13.76477455414326
 20
69.73540593793025
 30
0.0
 11
-14.64958550315826
 21
68.9691371785641
 31
0.0
  0
LINE
  5
CA
330
43
100
AcDbEntity
  8
0
  6
Continuous
 62
     7
100
AcDbLine
 10
-16.36477455414325
 20
67.48373988809072
 30
0.0
 11
-17.24958550315937
 21
66.7174711287236
 31
0.0
  0
LINE
  5
CB
330
43
100
AcDbEntity
  8
0
  6
Continuous
 62
     7
100
AcDbLine
 10
-12.23218002865011
 20
82.09727875062045
 30
0.0
 11
-12.23218002865011
 21
73.6384271271022
 31
0.0
  0
LINE
  5
CC
330
43
100
AcDbEntity
  8
0
  6
Continuous
 62
     7
100
AcDbLine
 10
-11.95096224600913
 20
82.0160981693661
 30
0.0
 11
-11.95096224600913
 21
85.04718708261164
 31
0.0
  0
LINE
  5
CD
330
43
100
AcDbEntity
  8
0
  6
Continuous
 62
     7
100
AcDbLine
 10
-12.65096224600913
 20
81.409880386717
 30
0.0
 11
-12.65096224600913
 21
84.44096929996255
 31
0.0
  0
LINE
  5
CE
330
43
100
AcDbEntity
  8
0
  6
Continuous
 62
     7
100
AcDbLine
 10
-14.55096224600912
 20
82.79552103277211
 30
0.0
 11
-15.25096224600911
 21
82.189303250123
 31
0.0
  0
LINE
  5
CF
330
43
100
AcDbEntity
  8
0
  6
Continuous
 62
     7
100
AcDbLine
 10
-14.55096224600912
 20
79.76443211952657
 30
0.0
 11
-15.25096224600911
 21
79.96650471374294
 31
0.0
  0
LINE
  5
D0
330
43
100
AcDbEntity
  8
0
  6
Continuous
 62
     7
100
AcDbLine
 10
-14.55096224600912
 20
79.76443211952657
 30
0.0
 11
-14.55096224600912
 21
82.79552103277211
 31
0.0
  0
LINE
  5
D1
330
43
100
AcDbEntity
  8
0
  6
Continuous
 62
     7
100
AcDbLine
 10
-15.25096224600911
 20
79.15821433687746
 30
0.0
 11
-15.25096224600911
 21
82.189303250123
 31
0.0
  0
LINE
  5
D2
330
43
100
AcDbEntity
  8
0
  6
Continuous
 62
     7
100
AcDbLine
 10
-16.18218002864943
 20
70.21762678215424
 30
0.0
 11
-16.18218002864947
 21
78.35175608065511
 31
0.0
  0
LINE
  5
D3
330
43
100
AcDbEntity
  8
0
  6
Continuous
 62
     7
100
AcDbLine
 10
-17.43218002865072
 20
69.13509502741543
 30
0.0
 11
-17.24958550315937
 21
66.7174711287236
 31
0.0
  0
LINE
  5
D4
330
43
100
AcDbEntity
  8
0
  6
Continuous
 62
     7
100
AcDbLine
 10
-17.15096224600912
 20
80.54385498293257
 30
0.0
 11
-17.15096224600912
 21
77.51276606968703
 31
0.0
  0
LINE
  5
D5
330
43
100
AcDbEntity
  8
0
  6
Continuous
 62
     7
100
AcDbLine
 10
-14.8321800286501
 20
79.8456127007809
 30
0.0
 11
-14.8321800286501
 21
71.38676107726266
 31
0.0
  0
LINE
  5
D6
330
43
100
AcDbEntity
  8
0
  6
Continuous
 62
     7
100
AcDbLine
 10
-17.43218002865072
 20
77.59394665094156
 30
0.0
 11
-17.43218002865072
 21
69.13509502741543
 31
0.0
  0
LINE
  5
D7
330
43
100
AcDbEntity
  8
0
  6
Continuous
 62
     7
100
AcDbLine
 10
-16.18218002864943
 20
70.21762678215424
 30
0.0
 11
-16.36477455414325
 21
67.48373988809072
 31
0.0
  0
LINE
  5
D8
330
43
100
AcDbEntity
  8
0
  6
Continuous
 62
     7
100
AcDbLine
 10
-14.55096224600912
 20
79.76443211952657
 30
0.0
 11
-12.65096224600913
 21
81.409880386717
 31
0.0
  0
LINE
  5
D9
330
43
100
AcDbEntity
  8
0
  6
Continuous
 62
     7
100
AcDbLine
 10
-17.15096224600912
 20
77.51276606968703
 30
0.0
 11
-15.25096224600911
 21
79.15821433687746
 31
0.0
  0
LINE
  5
DA
330
43
100
AcDbEntity
  8
0
  6
Continuous
 62
     7
100
AcDbLine
 10
-11.95096224600913
 20
82.0160981693661
 30
0.0
 11
-12.65096224600913
 21
82.21817076358248
 31
0.0
  0
LINE
  5
DB
330
43
100
AcDbEntity
  8
0
  6
Continuous
 62
     7
100
AcDbLine
 10
-13.58218002864948
 20
80.60342213049464
 30
0.0
 11
-13.58218002864948
 21
72.46929283199376
 31
0.0
  0
LINE
  5
DC
330
43
100
AcDbEntity
  8
0
  6
Continuous
 62
     7
100
AcDbLine
 10
-10.8352261492218
 20
73.87246927824563
 30
0.0
 11
-10.98218002864886
 21
75.81819689495407
 31
0.0
  0
LINE
  5
DD
330
43
100
AcDbEntity
  8
0
  6
Continuous
 62
     7
100
AcDbLine
 10
-10.98218002864884
 20
74.72095888182669
 30
0.0
 11
-10.98218002864886
 21
82.85508818033472
 31
0.0
  0
LINE
  5
DE
330
43
100
AcDbEntity
  8
0
  6
Continuous
 62
     7
100
AcDbLine
 10
-9.3509622460091
 20
84.26776421920567
 30
0.0
 11
-10.05096224600912
 21
84.46983681342205
 31
0.0
  0
LINE
  5
DF
330
43
100
AcDbEntity
  8
0
  6
Continuous
 62
     7
100
AcDbLine
 10
-10.05096224600912
 20
86.69263534980207
 30
0.0
 11
-10.05096224600912
 21
83.66154643655655
 31
0.0
  0
LINE
  5
E0
330
43
100
AcDbEntity
  8
0
  6
Continuous
 62
     7
100
AcDbLine
 10
-9.63218002865008
 20
84.34894480046002
 30
0.0
 11
-9.63218002865011
 21
75.89009317694172
 31
0.0
  0
LINE
  5
E1
330
43
100
AcDbEntity
  8
0
  6
Continuous
 62
     7
100
AcDbLine
 10
-9.63218002865011
 20
75.89009317694172
 30
0.0
 11
-9.44958550315825
 21
73.4724692782432
 31
0.0
  0
LINE
  5
E2
330
43
100
AcDbEntity
  8
0
  6
Continuous
 62
     7
100
AcDbLine
 10
-6.75096224600911
 20
86.5194302690452
 30
0.0
 11
-7.4509622460091
 21
86.72150286326158
 31
0.0
  0
LINE
  5
E3
330
43
100
AcDbEntity
  8
0
  6
Continuous
 62
     7
100
AcDbLine
 10
-5.96477455414016
 20
76.49040408747899
 30
0.0
 11
-6.84958550315631
 21
75.72413532805696
 31
0.0
  0
LINE
  5
E4
330
43
100
AcDbEntity
  8
0
  6
Continuous
 62
     7
100
AcDbLine
 10
-5.78218002864885
 20
79.22429098150562
 30
0.0
 11
-5.96477455414016
 21
76.49040408747899
 31
0.0
  0
LINE
  5
E5
330
43
100
AcDbEntity
  8
0
  6
Continuous
 62
     7
100
AcDbLine
 10
-5.78218002864885
 20
79.22429098150562
 30
0.0
 11
-5.78218002864885
 21
87.35842028001383
 31
0.0
  0
LINE
  5
E6
330
43
100
AcDbEntity
  8
0
  6
Continuous
 62
     7
100
AcDbLine
 10
-7.03218002865013
 20
78.14175922678126
 30
0.0
 11
-6.84958550315631
 21
75.72413532805696
 31
0.0
  0
LINE
  5
E7
330
43
100
AcDbEntity
  8
0
  6
Continuous
 62
     7
100
AcDbLine
 10
-7.4509622460091
 20
85.9132124863961
 30
0.0
 11
-7.4509622460091
 21
88.94430139964165
 31
0.0
  0
LINE
  5
E8
330
43
100
AcDbEntity
  8
0
  6
Continuous
 62
     7
100
AcDbLine
 10
-8.38218002864946
 20
85.10675423017373
 30
0.0
 11
-8.38218002864946
 21
76.97262493167284
 31
0.0
  0
LINE
  5
E9
330
43
100
AcDbEntity
  8
0
  6
Continuous
 62
     7
100
AcDbLine
 10
-7.03218002865009
 20
86.60061085029955
 30
0.0
 11
-7.03218002865013
 21
78.14175922678126
 31
0.0
  0
LINE
  5
EA
330
43
100
AcDbEntity
  8
0
  6
Continuous
 62
     7
100
AcDbLine
 10
-8.38218002864946
 20
78.06986294480153
 30
0.0
 11
-8.23522614921986
 21
76.12413532805941
 31
0.0
  0
LINE
  5
EB
330
43
100
AcDbEntity
  8
0
  6
Continuous
 62
     7
100
AcDbLine
 10
-6.75096224600911
 20
86.5194302690452
 30
0.0
 11
-6.7509622460091
 21
89.55051918229074
 31
0.0
  0
LINE
  5
EC
330
43
100
AcDbEntity
  8
0
  6
Continuous
 62
     7
100
AcDbLine
 10
-7.4509622460091
 20
88.94430139964165
 30
0.0
 11
-6.7509622460091
 21
89.55051918229074
 31
0.0
  0
LINE
  5
ED
330
43
100
AcDbEntity
  8
0
  6
Continuous
 62
     7
100
AcDbLine
 10
-8.23522614921986
 20
76.12413532805941
 30
0.0
 11
-6.84958550315631
 21
75.72413532805696
 31
0.0
  0
LINE
  5
EE
330
43
100
AcDbEntity
  8
0
  6
Continuous
 62
     7
100
AcDbLine
 10
-8.38218002864946
 20
78.53147065848353
 30
0.0
 11
-7.03218002865013
 21
78.14175922678126
 31
0.0
  0
LINE
  5
EF
330
43
100
AcDbEntity
  8
0
  6
Continuous
 62
     7
100
AcDbLine
 10
-8.38218002864946
 20
76.97262493167284
 30
0.0
 11
-8.56477455414324
 21
74.23873803760935
 31
0.0
  0
LINE
  5
F0
330
43
100
AcDbEntity
  8
0
  6
Continuous
 62
     7
100
AcDbLine
 10
-8.56477455414324
 20
74.23873803760935
 30
0.0
 11
-9.44958550315825
 21
73.4724692782432
 31
0.0
  0
LINE
  5
F1
330
43
100
AcDbEntity
  8
0
  6
Continuous
 62
     7
100
AcDbLine
 10
-9.44958550315825
 20
73.4724692782432
 30
0.0
 11
-10.8352261492218
 21
73.87246927824563
 31
0.0
  0
LINE
  5
F2
330
43
100
AcDbEntity
  8
0
  6
Continuous
 62
     7
100
AcDbLine
 10
-9.35096224600909
 20
87.29885313245121
 30
0.0
 11
-10.05096224600912
 21
86.69263534980207
 31
0.0
  0
LINE
  5
F3
330
43
100
AcDbEntity
  8
0
  6
Continuous
 62
     7
100
AcDbLine
 10
-9.3509622460091
 20
84.26776421920567
 30
0.0
 11
-7.4509622460091
 21
85.9132124863961
 31
0.0
  0
LINE
  5
F4
330
43
100
AcDbEntity
  8
0
  6
Continuous
 62
     7
100
AcDbLine
 10
-11.16477455414021
 20
71.9870719877999
 30
0.0
 11
-10.98218002864884
 21
74.72095888182669
 31
0.0
  0
LINE
  5
F5
330
43
100
AcDbEntity
  8
0
  6
Continuous
 62
     7
100
AcDbLine
 10
-17.15096224600912
 20
77.51276606968703
 30
0.0
 11
-17.85096224600912
 21
77.71483866390341
 31
0.0
  0
LINE
  5
F6
330
43
100
AcDbEntity
  8
0
  6
Continuous
 62
     7
100
AcDbLine
 10
-18.78218002864904
 20
69.52480645911778
 30
0.0
 11
-17.43218002865072
 21
69.13509502741543
 31
0.0
  0
LINE
  5
F7
330
43
100
AcDbEntity
  8
0
  6
Continuous
 62
     7
100
AcDbLine
 10
-12.04958550315632
 20
71.22080322837786
 30
0.0
 11
-11.16477455414021
 21
71.9870719877999
 31
0.0
  0
LINE
  5
F8
330
43
100
AcDbEntity
  8
0
  6
Continuous
 62
     7
100
AcDbLine
 10
-17.15096224600912
 20
80.54385498293257
 30
0.0
 11
-17.85096224600912
 21
79.93763720028346
 31
0.0
  0
LINE
  5
F9
330
43
100
AcDbEntity
  8
0
  6
Continuous
 62
     7
100
AcDbLine
 10
-17.85096224600912
 20
79.93763720028346
 30
0.0
 11
-17.8509622460091
 21
73.35584413152174
 31
0.0
  0
LINE
  5
FA
330
43
100
AcDbEntity
  8
0
  6
Continuous
 62
     7
100
AcDbLine
 10
-18.78218002864904
 20
67.96596073231501
 30
0.0
 11
-18.96477455414264
 21
65.23207383825792
 31
0.0
  0
LINE
  5
FB
330
43
100
AcDbEntity
  8
0
  6
Continuous
 62
     7
100
AcDbLine
 10
-19.84958550315949
 20
64.46580507889016
 30
0.0
 11
-20.03218002865093
 21
66.88342897758305
 31
0.0
  0
LINE
  5
FC
330
43
100
AcDbEntity
  8
0
  6
Continuous
 62
     7
100
AcDbLine
 10
-21.41782067470604
 20
67.28342897758397
 30
0.0
 11
-21.41782067470609
 21
72.1915764455859
 31
0.0
  0
LINE
  5
FD
330
43
100
AcDbEntity
  8
0
  6
Continuous
 62
     7
100
AcDbLine
 10
-20.03218002865093
 20
66.88342897758305
 30
0.0
 11
-20.03218002865098
 21
71.7915764455859
 31
0.0
  0
LINE
  5
FE
330
43
100
AcDbEntity
  8
0
  6
Continuous
 62
     7
100
AcDbLine
 10
-18.78218002864904
 20
69.06319874542203
 30
0.0
 11
-18.63522614922292
 21
67.11747112872604
 31
0.0
  0
LINE
  5
FF
330
43
100
AcDbEntity
  8
0
  6
Continuous
 62
     7
100
AcDbLine
 10
-18.78218002864904
 20
67.96596073231501
 30
0.0
 11
-18.78218002864904
 21
72.54938587529973
 31
0.0
  0
LINE
  5
100
330
43
100
AcDbEntity
  8
0
  6
Continuous
 62
     7
100
AcDbLine
 10
-20.03218002865093
 20
66.88342897758305
 30
0.0
 11
-21.41782067470604
 21
67.28342897758397
 31
0.0
  0
LINE
  5
101
330
43
100
AcDbEntity
  8
0
  6
Continuous
 62
     7
100
AcDbLine
 10
-18.96477455414264
 20
65.23207383825792
 30
0.0
 11
-19.84958550315949
 21
64.46580507889016
 31
0.0
  0
LINE
  5
102
330
43
100
AcDbEntity
  8
0
  6
Continuous
 62
     7
100
AcDbLine
 10
-19.75096224600911
 20
71.7103958643313
 30
0.0
 11
-19.75096224600911
 21
83.48834135579966
 31
0.0
  0
LINE
  5
103
330
43
100
AcDbEntity
  8
0
  6
Continuous
 62
     7
100
AcDbLine
 10
-19.75096224600911
 20
71.7103958643313
 30
0.0
 11
-17.8509622460091
 21
73.35584413152174
 31
0.0
  0
LINE
  5
104
330
43
100
AcDbEntity
  8
0
  6
Continuous
 62
     7
100
AcDbLine
 10
-19.84958550315949
 20
64.46580507889016
 30
0.0
 11
-21.2352261492146
 21
64.86580507889016
 31
0.0
  0
LINE
  5
105
330
43
100
AcDbEntity
  8
0
  6
Continuous
 62
     7
100
AcDbLine
 10
5.54903775399094
 20
105.398784071546
 30
0.0
 11
-19.75096224600911
 21
83.48834135579966
 31
0.0
  0
ENDBLK
  5
45
330
43
100
AcDbEntity
  8
0
100
AcDbBlockEnd
  0
BLOCK
  5
48
330
46
100
AcDbEntity
  8
0
100
AcDbBlockBegin
  2
AllgSicht1
 70
     0
 10
-8.40000000007697
 20
84.99999999993702
 30
0.0
  3
AllgSicht1
  1

  0
INSERT
  5
47
330
46
100
AcDbEntity
  8
0
100
AcDbBlockReference
  2
3030213_FBS_10-5_select__1
 10
-22.34903845736243
 20
64.46580507889016
 30
0.0
  0
MTEXT
  5
107
330
46
100
AcDbEntity
  8
1
 62
     6
100
AcDbMText
 10
-8.40000000007706
 20
58.85121546147661
 30
0.0
 40
5.0
 41
0.0
 71
     2
 72
     1
  1
 
  7
CONVERTER_11
 73
     1
 44
1.32052821128451
  0
ENDBLK
  5
49
330
46
100
AcDbEntity
  8
0
100
AcDbBlockEnd
  0
BLOCK
  5
4B
330
4A
100
AcDbEntity
  8
0
100
AcDbBlockBegin
  2
3030213_FBS_10-5_select__2
 70
     0
 10
-111.5
 20
59.69999929662731
 30
0.0
  3
3030213_FBS_10-5_select__2
  1

  0
LINE
  5
108
330
4A
100
AcDbEntity
  8
0
  6
Continuous
 62
     7
100
AcDbLine
 10
-108.5
 20
59.69999929662731
 30
0.0
 11
-111.5
 21
59.69999929662731
 31
0.0
  0
LINE
  5
109
330
4A
100
AcDbEntity
  8
0
  6
Continuous
 62
     7
100
AcDbLine
 10
-111.5
 20
59.69999929662731
 30
0.0
 11
-111.5
 21
110.2999992966273
 31
0.0
  0
LINE
  5
10A
330
4A
100
AcDbEntity
  8
0
  6
Continuous
 62
     7
100
AcDbLine
 10
-108.5
 20
110.2999992966273
 30
0.0
 11
-111.5
 21
110.2999992966273
 31
0.0
  0
LINE
  5
10B
330
4A
100
AcDbEntity
  8
0
  6
Continuous
 62
     7
100
AcDbLine
 10
-108.5
 20
110.2999992966273
 30
0.0
 11
-108.5
 21
59.69999929662731
 31
0.0
  0
ENDBLK
  5
4C
330
4A
100
AcDbEntity
  8
0
100
AcDbBlockEnd
  0
BLOCK
  5
4F
330
4D
100
AcDbEntity
  8
0
100
AcDbBlockBegin
  2
Drfsicht1
 70
     0
 10
-110.0
 20
84.99999999984493
 30
0.0
  3
Drfsicht1
  1

  0
INSERT
  5
4E
330
4D
100
AcDbEntity
  8
0
100
AcDbBlockReference
  2
3030213_FBS_10-5_select__2
 10
-111.5
 20
59.69999929662731
 30
0.0
  0
MTEXT
  5
10C
330
4D
100
AcDbEntity
  8
1
 62
     6
100
AcDbMText
 10
-110.0
 20
54.69999980911007
 30
0.0
 40
5.0
 41
0.0
 71
     2
 72
     1
  1
 
  7
CONVERTER_11
 73
     1
 44
1.32052821128451
  0
ENDBLK
  5
50
330
4D
100
AcDbEntity
  8
0
100
AcDbBlockEnd
  0
BLOCK
  5
52
330
51
100
AcDbEntity
  8
0
100
AcDbBlockBegin
  2
3030213_FBS_10-5_select__3
 70
     0
 10
-9.89999961853017
 20
140.3000002893533
 30
0.0
  3
3030213_FBS_10-5_select__3
  1

  0
LINE
  5
10D
330
51
100
AcDbEntity
  8
0
  6
Continuous
 62
     7
100
AcDbLine
 10
-9.89999961853017
 20
149.3750002893823
 30
0.0
 11
-9.89999961853017
 21
162.9750002893823
 31
0.0
  0
LINE
  5
10E
330
51
100
AcDbEntity
  8
0
  6
Continuous
 62
     7
100
AcDbLine
 10
-9.19999961853991
 20
143.2742264323026
 30
0.0
 11
-9.19999961853991
 21
149.3750002893823
 31
0.0
  0
LINE
  5
10F
330
51
100
AcDbEntity
  8
0
  6
Continuous
 62
     7
100
AcDbLine
 10
-7.59999961853015
 20
140.3000002893533
 30
0.0
 11
-9.19999961853991
 21
140.3000002893533
 31
0.0
  0
LINE
  5
110
330
51
100
AcDbEntity
  8
0
  6
Continuous
 62
     7
100
AcDbLine
 10
-9.19999961853991
 20
143.2742264323026
 30
0.0
 11
-7.59999961853015
 21
143.2742264323019
 31
0.0
  0
LINE
  5
111
330
51
100
AcDbEntity
  8
0
  6
Continuous
 62
     7
100
AcDbLine
 10
-7.59999961853015
 20
143.2742264323019
 30
0.0
 11
-7.59999961853015
 21
140.3000002893533
 31
0.0
  0
LINE
  5
112
330
51
100
AcDbEntity
  8
0
  6
Continuous
 62
     7
100
AcDbLine
 10
-9.19999961853991
 20
143.2742264323026
 30
0.0
 11
-9.19999961853991
 21
140.3000002893533
 31
0.0
  0
LINE
  5
113
330
51
100
AcDbEntity
  8
0
  6
Continuous
 62
     7
100
AcDbLine
 10
-6.89999961853016
 20
162.9750002893823
 30
0.0
 11
-6.89999961853016
 21
149.3750002893823
 31
0.0
  0
LINE
  5
114
330
51
100
AcDbEntity
  8
0
  6
Continuous
 62
     7
100
AcDbLine
 10
-9.89999961853017
 20
162.9750002893823
 30
0.0
 11
-6.89999961853016
 21
162.9750002893823
 31
0.0
  0
LINE
  5
115
330
51
100
AcDbEntity
  8
0
  6
Continuous
 62
     7
100
AcDbLine
 10
-9.89999961853017
 20
149.3750002893823
 30
0.0
 11
-9.19999961853991
 21
149.3750002893823
 31
0.0
  0
LINE
  5
116
330
51
100
AcDbEntity
  8
0
  6
Continuous
 62
     7
100
AcDbLine
 10
-7.59999961853015
 20
149.3750002893823
 30
0.0
 11
-6.89999961853016
 21
149.3750002893823
 31
0.0
  0
LINE
  5
117
330
51
100
AcDbEntity
  8
0
  6
Continuous
 62
     7
100
AcDbLine
 10
-9.19999961853991
 20
149.3750002893823
 30
0.0
 11
-7.59999961853015
 21
149.3750002893823
 31
0.0
  0
LINE
  5
118
330
51
100
AcDbEntity
  8
0
  6
Continuous
 62
     7
100
AcDbLine
 10
-7.59999961853015
 20
143.2742264323019
 30
0.0
 11
-7.59999961853015
 21
149.3750002893823
 31
0.0
  0
ENDBLK
  5
53
330
51
100
AcDbEntity
  8
0
100
AcDbBlockEnd
  0
BLOCK
  5
56
330
54
100
AcDbEntity
  8
0
100
AcDbBlockBegin
  2
Rckans1
 70
     0
 10
-8.39999961853016
 20
151.6375002861123
 30
0.0
  3
Rckans1
  1

  0
INSERT
  5
55
330
54
100
AcDbEntity
  8
0
100
AcDbBlockReference
  2
3030213_FBS_10-5_select__3
 10
-9.89999961853017
 20
140.3000002893533
 30
0.0
  0
MTEXT
  5
119
330
54
100
AcDbEntity
  8
1
 62
     6
100
AcDbMText
 10
-8.39999961853016
 20
135.3000001907449
 30
0.0
 40
5.0
 41
0.0
 71
     2
 72
     1
  1
 
  7
CONVERTER_11
 73
     1
 44
1.32052821128451
  0
ENDBLK
  5
57
330
54
100
AcDbEntity
  8
0
100
AcDbBlockEnd
  0
BLOCK
  5
59
330
58
100
AcDbEntity
  8
0
100
AcDbBlockBegin
  2
3030213_FBS_10-5_select__4
 70
     0
 10
-80.99999910589756
 20
140.3000002893533
 30
0.0
  3
3030213_FBS_10-5_select__4
  1

  0
LINE
  5
11A
330
58
100
AcDbEntity
  8
0
  6
Continuous
 62
     7
100
AcDbLine
 10
-69.94999910589827
 20
143.2742264323026
 30
0.0
 11
-69.58481005491451
 21
140.300000289385
 31
0.0
  0
LINE
  5
11B
330
58
100
AcDbEntity
  8
0
  6
Continuous
 62
     7
100
AcDbLine
 10
-67.81518815688452
 20
140.3000002893533
 30
0.0
 11
-69.58481005491451
 21
140.300000289385
 31
0.0
  0
LINE
  5
11C
330
58
100
AcDbEntity
  8
0
  6
Continuous
 62
     7
100
AcDbLine
 10
-62.24999910589567
 20
143.2742264322943
 30
0.0
 11
-62.6151881568784
 21
140.300000289385
 31
0.0
  0
LINE
  5
11D
330
58
100
AcDbEntity
  8
0
  6
Continuous
 62
     7
100
AcDbLine
 10
-64.38481005491063
 20
140.3000002893533
 30
0.0
 11
-62.6151881568784
 21
140.300000289385
 31
0.0
  0
LINE
  5
11E
330
58
100
AcDbEntity
  8
0
  6
Continuous
 62
     7
100
AcDbLine
 10
-59.54999910589947
 20
143.2742264322943
 30
0.0
 11
-59.18481005491675
 21
140.300000289385
 31
0.0
  0
LINE
  5
11F
330
58
100
AcDbEntity
  8
0
  6
Continuous
 62
     7
100
AcDbLine
 10
-67.44999910589686
 20
143.2742264323026
 30
0.0
 11
-67.81518815688452
 21
140.3000002893533
 31
0.0
  0
LINE
  5
120
330
58
100
AcDbEntity
  8
0
  6
Continuous
 62
     7
100
AcDbLine
 10
-64.38481005491063
 20
140.3000002893533
 30
0.0
 11
-64.7499991058982
 21
143.2742264323026
 31
0.0
  0
LINE
  5
121
330
58
100
AcDbEntity
  8
0
  6
Continuous
 62
     7
100
AcDbLine
 10
-47.01518815688451
 20
140.3000002893533
 30
0.0
 11
-46.6499991058969
 21
143.2742264323019
 31
0.0
  0
LINE
  5
122
330
58
100
AcDbEntity
  8
0
  6
Continuous
 62
     7
100
AcDbLine
 10
-43.9499991058982
 20
143.2742264323019
 30
0.0
 11
-43.58481005491061
 21
140.3000002893533
 31
0.0
  0
LINE
  5
123
330
58
100
AcDbEntity
  8
0
  6
Continuous
 62
     7
100
AcDbLine
 10
-43.58481005491061
 20
140.3000002893533
 30
0.0
 11
-41.8151881568806
 21
140.300000289385
 31
0.0
  0
LINE
  5
124
330
58
100
AcDbEntity
  8
0
  6
Continuous
 62
     7
100
AcDbLine
 10
-33.54999910589901
 20
149.3750002893823
 30
0.0
 11
-34.1999991058975
 21
149.3750002893823
 31
0.0
  0
LINE
  5
125
330
58
100
AcDbEntity
  8
0
  6
Continuous
 62
     7
100
AcDbLine
 10
-33.18481005491179
 20
140.3000002893605
 30
0.0
 11
-31.4151881568781
 21
140.3000002893922
 31
0.0
  0
LINE
  5
126
330
58
100
AcDbEntity
  8
0
  6
Continuous
 62
     7
100
AcDbLine
 10
-31.0499991058953
 20
143.2742264323039
 30
0.0
 11
-31.0499991058951
 21
149.3750002893823
 31
0.0
  0
LINE
  5
127
330
58
100
AcDbEntity
  8
0
  6
Continuous
 62
     7
100
AcDbLine
 10
-33.54999910589901
 20
149.3750002893823
 30
0.0
 11
-33.54999910589901
 21
143.2742264323028
 31
0.0
  0
LINE
  5
128
330
58
100
AcDbEntity
  8
0
  6
Continuous
 62
     7
100
AcDbLine
 10
-57.04999910589687
 20
143.2742264323026
 30
0.0
 11
-57.41518815688453
 21
140.3000002893533
 31
0.0
  0
LINE
  5
129
330
58
100
AcDbEntity
  8
0
  6
Continuous
 62
     7
100
AcDbLine
 10
-53.98481005491064
 20
140.3000002893533
 30
0.0
 11
-54.34999910589821
 21
143.2742264323019
 31
0.0
  0
LINE
  5
12A
330
58
100
AcDbEntity
  8
0
  6
Continuous
 62
     7
100
AcDbLine
 10
-33.54999910589901
 20
143.2742264323028
 30
0.0
 11
-33.18481005491179
 21
140.3000002893605
 31
0.0
  0
LINE
  5
12B
330
58
100
AcDbEntity
  8
0
  6
Continuous
 62
     7
100
AcDbLine
 10
-69.94999910589819
 20
153.4750002893823
 30
0.0
 11
-70.59999910589757
 21
153.4750002893823
 31
0.0
  0
LINE
  5
12C
330
58
100
AcDbEntity
  8
0
  6
Continuous
 62
     7
100
AcDbLine
 10
-67.44999910589695
 20
153.4750002893823
 30
0.0
 11
-69.94999910589819
 21
153.4750002893823
 31
0.0
  0
LINE
  5
12D
330
58
100
AcDbEntity
  8
0
  6
Continuous
 62
     7
100
AcDbLine
 10
-72.64999910589694
 20
153.4750002893823
 30
0.0
 11
-71.99999910589756
 21
153.4750002893823
 31
0.0
  0
LINE
  5
12E
330
58
100
AcDbEntity
  8
0
  6
Continuous
 62
     7
100
AcDbLine
 10
-67.44999910589695
 20
153.4750002893823
 30
0.0
 11
-67.44999910589686
 21
143.2742264323026
 31
0.0
  0
LINE
  5
12F
330
58
100
AcDbEntity
  8
0
  6
Continuous
 62
     7
100
AcDbLine
 10
-72.64999910589694
 20
153.4750002893823
 30
0.0
 11
-72.64999910589685
 21
143.2742264323026
 31
0.0
  0
LINE
  5
130
330
58
100
AcDbEntity
  8
0
  6
Continuous
 62
     7
100
AcDbLine
 10
-69.94999910589819
 20
153.4750002893823
 30
0.0
 11
-69.94999910589827
 21
143.2742264323026
 31
0.0
  0
LINE
  5
131
330
58
100
AcDbEntity
  8
0
  6
Continuous
 62
     7
100
AcDbLine
 10
-38.7499991058982
 20
143.2742264323026
 30
0.0
 11
-38.7499991058982
 21
153.4750002893823
 31
0.0
  0
LINE
  5
132
330
58
100
AcDbEntity
  8
0
  6
Continuous
 62
     7
100
AcDbLine
 10
-71.99999910589756
 20
156.9750002893823
 30
0.0
 11
-70.59999910589757
 21
156.9750002893823
 31
0.0
  0
LINE
  5
133
330
58
100
AcDbEntity
  8
0
  6
Continuous
 62
     7
100
AcDbLine
 10
-65.39999910589758
 20
156.9750002893823
 30
0.0
 11
-66.79999910589757
 21
156.9750002893823
 31
0.0
  0
LINE
  5
134
330
58
100
AcDbEntity
  8
0
  6
Continuous
 62
     7
100
AcDbLine
 10
-61.59999910589758
 20
156.9750002893823
 30
0.0
 11
-60.19999910589758
 21
156.9750002893823
 31
0.0
  0
LINE
  5
135
330
58
100
AcDbEntity
  8
0
  6
Continuous
 62
     7
100
AcDbLine
 10
-56.39999910589758
 20
156.9750002893823
 30
0.0
 11
-54.99999910589759
 21
156.9750002893823
 31
0.0
  0
LINE
  5
136
330
58
100
AcDbEntity
  8
0
  6
Continuous
 62
     7
100
AcDbLine
 10
-49.7999991058975
 20
156.9750002893823
 30
0.0
 11
-51.1999991058976
 21
156.9750002893823
 31
0.0
  0
LINE
  5
137
330
58
100
AcDbEntity
  8
0
  6
Continuous
 62
     7
100
AcDbLine
 10
-45.9999991058975
 20
156.9750002893823
 30
0.0
 11
-44.5999991058975
 21
156.9750002893823
 31
0.0
  0
LINE
  5
138
330
58
100
AcDbEntity
  8
0
  6
Continuous
 62
     7
100
AcDbLine
 10
-39.39999910589751
 20
156.9750002893823
 30
0.0
 11
-40.7999991058975
 21
156.9750002893823
 31
0.0
  0
LINE
  5
139
330
58
100
AcDbEntity
  8
0
  6
Continuous
 62
     7
100
AcDbLine
 10
-35.5999991058975
 20
156.9750002893823
 30
0.0
 11
-34.1999991058975
 21
156.9750002893823
 31
0.0
  0
LINE
  5
13A
330
58
100
AcDbEntity
  8
0
  6
Continuous
 62
     7
100
AcDbLine
 10
-35.5999991058975
 20
153.4750002893823
 30
0.0
 11
-36.2499991058956
 21
153.4750002893823
 31
0.0
  0
LINE
  5
13B
330
58
100
AcDbEntity
  8
0
  6
Continuous
 62
     7
100
AcDbLine
 10
-51.849999105897
 20
153.4750002893823
 30
0.0
 11
-51.1999991058976
 21
153.4750002893823
 31
0.0
  0
LINE
  5
13C
330
58
100
AcDbEntity
  8
0
  6
Continuous
 62
     7
100
AcDbLine
 10
-75.14999910589944
 20
153.4750002893823
 30
0.0
 11
-72.64999910589694
 21
153.4750002893823
 31
0.0
  0
LINE
  5
13D
330
58
100
AcDbEntity
  8
0
  6
Continuous
 62
     7
100
AcDbLine
 10
-66.79999910589757
 20
153.4750002893823
 30
0.0
 11
-67.44999910589695
 21
153.4750002893823
 31
0.0
  0
LINE
  5
13E
330
58
100
AcDbEntity
  8
0
  6
Continuous
 62
     7
100
AcDbLine
 10
-64.7499991058982
 20
153.4750002893823
 30
0.0
 11
-65.39999910589758
 21
153.4750002893823
 31
0.0
  0
LINE
  5
13F
330
58
100
AcDbEntity
  8
0
  6
Continuous
 62
     7
100
AcDbLine
 10
-59.54999910589947
 20
153.4750002893823
 30
0.0
 11
-57.04999910589696
 21
153.4750002893823
 31
0.0
  0
LINE
  5
140
330
58
100
AcDbEntity
  8
0
  6
Continuous
 62
     7
100
AcDbLine
 10
-54.34999910589821
 20
153.4750002893823
 30
0.0
 11
-51.849999105897
 21
153.4750002893823
 31
0.0
  0
LINE
  5
141
330
58
100
AcDbEntity
  8
0
  6
Continuous
 62
     7
100
AcDbLine
 10
-46.6499991058969
 20
153.4750002893823
 30
0.0
 11
-45.9999991058975
 21
153.4750002893823
 31
0.0
  0
LINE
  5
142
330
58
100
AcDbEntity
  8
0
  6
Continuous
 62
     7
100
AcDbLine
 10
-41.44999910589689
 20
153.4750002893823
 30
0.0
 11
-40.7999991058975
 21
153.4750002893823
 31
0.0
  0
LINE
  5
143
330
58
100
AcDbEntity
  8
0
  6
Continuous
 62
     7
100
AcDbLine
 10
-38.7499991058982
 20
153.4750002893823
 30
0.0
 11
-39.39999910589751
 21
153.4750002893823
 31
0.0
  0
LINE
  5
144
330
58
100
AcDbEntity
  8
0
  6
Continuous
 62
     7
100
AcDbLine
 10
-75.79999910589757
 20
156.9750002893823
 30
0.0
 11
-75.79999910589757
 21
153.4750002893823
 31
0.0
  0
LINE
  5
145
330
58
100
AcDbEntity
  8
0
  6
Continuous
 62
     7
100
AcDbLine
 10
-75.79999910589757
 20
156.9750002893823
 30
0.0
 11
-77.19999910589755
 21
156.9750002893823
 31
0.0
  0
LINE
  5
146
330
58
100
AcDbEntity
  8
0
  6
Continuous
 62
     7
100
AcDbLine
 10
-77.19999910589755
 20
156.9750002893823
 30
0.0
 11
-77.19999910589755
 21
149.3750002893823
 31
0.0
  0
LINE
  5
147
330
58
100
AcDbEntity
  8
0
  6
Continuous
 62
     7
100
AcDbLine
 10
-80.99999910589756
 20
149.3750002893823
 30
0.0
 11
-80.34999910589997
 21
149.3750002893823
 31
0.0
  0
LINE
  5
148
330
58
100
AcDbEntity
  8
0
  6
Continuous
 62
     7
100
AcDbLine
 10
-80.34999910589997
 20
149.3750002893823
 30
0.0
 11
-77.84999910589607
 21
149.3750002893823
 31
0.0
  0
LINE
  5
149
330
58
100
AcDbEntity
  8
0
  6
Continuous
 62
     7
100
AcDbLine
 10
-31.0499991058951
 20
149.3750002893823
 30
0.0
 11
-33.54999910589901
 21
149.3750002893823
 31
0.0
  0
LINE
  5
14A
330
58
100
AcDbEntity
  8
0
  6
Continuous
 62
     7
100
AcDbLine
 10
-30.39999910589751
 20
149.3750002893823
 30
0.0
 11
-31.0499991058951
 21
149.3750002893823
 31
0.0
  0
LINE
  5
14B
330
58
100
AcDbEntity
  8
0
  6
Continuous
 62
     7
100
AcDbLine
 10
-80.99999910589756
 20
149.3750002893823
 30
0.0
 11
-80.99999910589756
 21
162.9750002893823
 31
0.0
  0
LINE
  5
14C
330
58
100
AcDbEntity
  8
0
  6
Continuous
 62
     7
100
AcDbLine
 10
-36.2499991058956
 20
153.4750002893823
 30
0.0
 11
-38.7499991058982
 21
153.4750002893823
 31
0.0
  0
LINE
  5
14D
330
58
100
AcDbEntity
  8
0
  6
Continuous
 62
     7
100
AcDbLine
 10
-71.99999910589756
 20
156.9750002893823
 30
0.0
 11
-71.99999910589756
 21
153.4750002893823
 31
0.0
  0
LINE
  5
14E
330
58
100
AcDbEntity
  8
0
  6
Continuous
 62
     7
100
AcDbLine
 10
-70.59999910589757
 20
156.9750002893823
 30
0.0
 11
-70.59999910589757
 21
153.4750002893823
 31
0.0
  0
LINE
  5
14F
330
58
100
AcDbEntity
  8
0
  6
Continuous
 62
     7
100
AcDbLine
 10
-66.79999910589757
 20
156.9750002893823
 30
0.0
 11
-66.79999910589757
 21
153.4750002893823
 31
0.0
  0
LINE
  5
150
330
58
100
AcDbEntity
  8
0
  6
Continuous
 62
     7
100
AcDbLine
 10
-65.39999910589758
 20
156.9750002893823
 30
0.0
 11
-65.39999910589758
 21
153.4750002893823
 31
0.0
  0
LINE
  5
151
330
58
100
AcDbEntity
  8
0
  6
Continuous
 62
     7
100
AcDbLine
 10
-61.59999910589758
 20
156.9750002893823
 30
0.0
 11
-61.59999910589758
 21
153.4750002893823
 31
0.0
  0
LINE
  5
152
330
58
100
AcDbEntity
  8
0
  6
Continuous
 62
     7
100
AcDbLine
 10
-60.19999910589758
 20
156.9750002893823
 30
0.0
 11
-60.19999910589758
 21
153.4750002893823
 31
0.0
  0
LINE
  5
153
330
58
100
AcDbEntity
  8
0
  6
Continuous
 62
     7
100
AcDbLine
 10
-56.39999910589758
 20
156.9750002893823
 30
0.0
 11
-56.39999910589758
 21
153.4750002893823
 31
0.0
  0
LINE
  5
154
330
58
100
AcDbEntity
  8
0
  6
Continuous
 62
     7
100
AcDbLine
 10
-54.99999910589759
 20
156.9750002893823
 30
0.0
 11
-54.99999910589759
 21
153.4750002893823
 31
0.0
  0
LINE
  5
155
330
58
100
AcDbEntity
  8
0
  6
Continuous
 62
     7
100
AcDbLine
 10
-51.1999991058976
 20
156.9750002893823
 30
0.0
 11
-51.1999991058976
 21
153.4750002893823
 31
0.0
  0
LINE
  5
156
330
58
100
AcDbEntity
  8
0
  6
Continuous
 62
     7
100
AcDbLine
 10
-49.7999991058975
 20
156.9750002893823
 30
0.0
 11
-49.7999991058975
 21
153.4750002893823
 31
0.0
  0
LINE
  5
157
330
58
100
AcDbEntity
  8
0
  6
Continuous
 62
     7
100
AcDbLine
 10
-45.9999991058975
 20
156.9750002893823
 30
0.0
 11
-45.9999991058975
 21
153.4750002893823
 31
0.0
  0
LINE
  5
158
330
58
100
AcDbEntity
  8
0
  6
Continuous
 62
     7
100
AcDbLine
 10
-44.5999991058975
 20
156.9750002893823
 30
0.0
 11
-44.5999991058975
 21
153.4750002893823
 31
0.0
  0
LINE
  5
159
330
58
100
AcDbEntity
  8
0
  6
Continuous
 62
     7
100
AcDbLine
 10
-40.7999991058975
 20
156.9750002893823
 30
0.0
 11
-40.7999991058975
 21
153.4750002893823
 31
0.0
  0
LINE
  5
15A
330
58
100
AcDbEntity
  8
0
  6
Continuous
 62
     7
100
AcDbLine
 10
-39.39999910589751
 20
156.9750002893823
 30
0.0
 11
-39.39999910589751
 21
153.4750002893823
 31
0.0
  0
LINE
  5
15B
330
58
100
AcDbEntity
  8
0
  6
Continuous
 62
     7
100
AcDbLine
 10
-35.5999991058975
 20
156.9750002893823
 30
0.0
 11
-35.5999991058975
 21
153.4750002893823
 31
0.0
  0
LINE
  5
15C
330
58
100
AcDbEntity
  8
0
  6
Continuous
 62
     7
100
AcDbLine
 10
-34.1999991058975
 20
156.9750002893823
 30
0.0
 11
-34.1999991058975
 21
149.3750002893823
 31
0.0
  0
LINE
  5
15D
330
58
100
AcDbEntity
  8
0
  6
Continuous
 62
     7
100
AcDbLine
 10
-30.39999910589751
 20
149.3750002893823
 30
0.0
 11
-30.39999910589751
 21
162.9750002893823
 31
0.0
  0
LINE
  5
15E
330
58
100
AcDbEntity
  8
0
  6
Continuous
 62
     7
100
AcDbLine
 10
-30.39999910589751
 20
162.9750002893823
 30
0.0
 11
-80.99999910589756
 21
162.9750002893823
 31
0.0
  0
LINE
  5
15F
330
58
100
AcDbEntity
  8
0
  6
Continuous
 62
     7
100
AcDbLine
 10
-43.9499991058982
 20
143.2742264323019
 30
0.0
 11
-43.9499991058982
 21
153.4750002893823
 31
0.0
  0
LINE
  5
160
330
58
100
AcDbEntity
  8
0
  6
Continuous
 62
     7
100
AcDbLine
 10
-44.5999991058975
 20
153.4750002893823
 30
0.0
 11
-43.9499991058982
 21
153.4750002893823
 31
0.0
  0
LINE
  5
161
330
58
100
AcDbEntity
  8
0
  6
Continuous
 62
     7
100
AcDbLine
 10
-43.9499991058982
 20
153.4750002893823
 30
0.0
 11
-41.44999910589689
 21
153.4750002893823
 31
0.0
  0
LINE
  5
162
330
58
100
AcDbEntity
  8
0
  6
Continuous
 62
     7
100
AcDbLine
 10
-41.44999910589689
 20
143.2742264323019
 30
0.0
 11
-41.44999910589689
 21
153.4750002893823
 31
0.0
  0
LINE
  5
163
330
58
100
AcDbEntity
  8
0
  6
Continuous
 62
     7
100
AcDbLine
 10
-49.7999991058975
 20
153.4750002893823
 30
0.0
 11
-49.1499991058994
 21
153.4750002893823
 31
0.0
  0
LINE
  5
164
330
58
100
AcDbEntity
  8
0
  6
Continuous
 62
     7
100
AcDbLine
 10
-49.1499991058994
 20
153.4750002893823
 30
0.0
 11
-46.6499991058969
 21
153.4750002893823
 31
0.0
  0
LINE
  5
165
330
58
100
AcDbEntity
  8
0
  6
Continuous
 62
     7
100
AcDbLine
 10
-46.6499991058969
 20
153.4750002893823
 30
0.0
 11
-46.6499991058969
 21
143.2742264323019
 31
0.0
  0
LINE
  5
166
330
58
100
AcDbEntity
  8
0
  6
Continuous
 62
     7
100
AcDbLine
 10
-54.99999910589759
 20
153.4750002893823
 30
0.0
 11
-54.34999910589821
 21
153.4750002893823
 31
0.0
  0
LINE
  5
167
330
58
100
AcDbEntity
  8
0
  6
Continuous
 62
     7
100
AcDbLine
 10
-57.04999910589696
 20
153.4750002893823
 30
0.0
 11
-56.39999910589758
 21
153.4750002893823
 31
0.0
  0
LINE
  5
168
330
58
100
AcDbEntity
  8
0
  6
Continuous
 62
     7
100
AcDbLine
 10
-57.04999910589696
 20
153.4750002893823
 30
0.0
 11
-57.04999910589687
 21
143.2742264323026
 31
0.0
  0
LINE
  5
169
330
58
100
AcDbEntity
  8
0
  6
Continuous
 62
     7
100
AcDbLine
 10
-54.34999910589821
 20
143.2742264323019
 30
0.0
 11
-54.34999910589821
 21
153.4750002893823
 31
0.0
  0
LINE
  5
16A
330
58
100
AcDbEntity
  8
0
  6
Continuous
 62
     7
100
AcDbLine
 10
-36.2499991058956
 20
153.4750002893823
 30
0.0
 11
-36.2499991058956
 21
143.2742264322943
 31
0.0
  0
LINE
  5
16B
330
58
100
AcDbEntity
  8
0
  6
Continuous
 62
     7
100
AcDbLine
 10
-52.2151881568806
 20
140.300000289385
 30
0.0
 11
-53.98481005491064
 21
140.3000002893533
 31
0.0
  0
LINE
  5
16C
330
58
100
AcDbEntity
  8
0
  6
Continuous
 62
     7
100
AcDbLine
 10
-52.2151881568806
 20
140.300000289385
 30
0.0
 11
-51.8499991058969
 21
143.2742264323026
 31
0.0
  0
LINE
  5
16D
330
58
100
AcDbEntity
  8
0
  6
Continuous
 62
     7
100
AcDbLine
 10
-51.8499991058969
 20
143.2742264323026
 30
0.0
 11
-51.849999105897
 21
153.4750002893823
 31
0.0
  0
LINE
  5
16E
330
58
100
AcDbEntity
  8
0
  6
Continuous
 62
     7
100
AcDbLine
 10
-49.1499991058994
 20
143.2742264322943
 30
0.0
 11
-49.1499991058994
 21
153.4750002893823
 31
0.0
  0
LINE
  5
16F
330
58
100
AcDbEntity
  8
0
  6
Continuous
 62
     7
100
AcDbLine
 10
-74.78481005491673
 20
140.300000289385
 30
0.0
 11
-73.0151881568845
 21
140.3000002893533
 31
0.0
  0
LINE
  5
170
330
58
100
AcDbEntity
  8
0
  6
Continuous
 62
     7
100
AcDbLine
 10
-80.34999910589985
 20
143.2742264323039
 30
0.0
 11
-79.98481005491698
 21
140.3000002893922
 31
0.0
  0
LINE
  5
171
330
58
100
AcDbEntity
  8
0
  6
Continuous
 62
     7
100
AcDbLine
 10
-72.64999910589685
 20
143.2742264323026
 30
0.0
 11
-73.0151881568845
 21
140.3000002893533
 31
0.0
  0
LINE
  5
172
330
58
100
AcDbEntity
  8
0
  6
Continuous
 62
     7
100
AcDbLine
 10
-78.21518815688326
 20
140.3000002893605
 30
0.0
 11
-79.98481005491698
 21
140.3000002893922
 31
0.0
  0
LINE
  5
173
330
58
100
AcDbEntity
  8
0
  6
Continuous
 62
     7
100
AcDbLine
 10
-74.78481005491673
 20
140.300000289385
 30
0.0
 11
-75.14999910589947
 21
143.2742264322943
 31
0.0
  0
LINE
  5
174
330
58
100
AcDbEntity
  8
0
  6
Continuous
 62
     7
100
AcDbLine
 10
-78.21518815688326
 20
140.3000002893605
 30
0.0
 11
-77.8499991058965
 21
143.2742264323028
 31
0.0
  0
LINE
  5
175
330
58
100
AcDbEntity
  8
0
  6
Continuous
 62
     7
100
AcDbLine
 10
-80.34999910589997
 20
149.3750002893823
 30
0.0
 11
-80.34999910589985
 21
143.2742264323039
 31
0.0
  0
LINE
  5
176
330
58
100
AcDbEntity
  8
0
  6
Continuous
 62
     7
100
AcDbLine
 10
-31.4151881568781
 20
140.3000002893922
 30
0.0
 11
-31.0499991058953
 21
143.2742264323039
 31
0.0
  0
LINE
  5
177
330
58
100
AcDbEntity
  8
0
  6
Continuous
 62
     7
100
AcDbLine
 10
-47.01518815688451
 20
140.3000002893533
 30
0.0
 11
-48.7848100549167
 21
140.300000289385
 31
0.0
  0
LINE
  5
178
330
58
100
AcDbEntity
  8
0
  6
Continuous
 62
     7
100
AcDbLine
 10
-48.7848100549167
 20
140.300000289385
 30
0.0
 11
-49.1499991058994
 21
143.2742264322943
 31
0.0
  0
LINE
  5
179
330
58
100
AcDbEntity
  8
0
  6
Continuous
 62
     7
100
AcDbLine
 10
-36.2499991058956
 20
143.2742264322943
 30
0.0
 11
-36.6151881568784
 21
140.300000289385
 31
0.0
  0
LINE
  5
17A
330
58
100
AcDbEntity
  8
0
  6
Continuous
 62
     7
100
AcDbLine
 10
-38.3848100549106
 20
140.3000002893533
 30
0.0
 11
-36.6151881568784
 21
140.300000289385
 31
0.0
  0
LINE
  5
17B
330
58
100
AcDbEntity
  8
0
  6
Continuous
 62
     7
100
AcDbLine
 10
-59.18481005491675
 20
140.300000289385
 30
0.0
 11
-57.41518815688453
 21
140.3000002893533
 31
0.0
  0
LINE
  5
17C
330
58
100
AcDbEntity
  8
0
  6
Continuous
 62
     7
100
AcDbLine
 10
-41.8151881568806
 20
140.300000289385
 30
0.0
 11
-41.44999910589689
 21
143.2742264323019
 31
0.0
  0
LINE
  5
17D
330
58
100
AcDbEntity
  8
0
  6
Continuous
 62
     7
100
AcDbLine
 10
-75.79999910589757
 20
153.4750002893823
 30
0.0
 11
-75.14999910589944
 21
153.4750002893823
 31
0.0
  0
LINE
  5
17E
330
58
100
AcDbEntity
  8
0
  6
Continuous
 62
     7
100
AcDbLine
 10
-77.84999910589607
 20
149.3750002893823
 30
0.0
 11
-77.19999910589755
 21
149.3750002893823
 31
0.0
  0
LINE
  5
17F
330
58
100
AcDbEntity
  8
0
  6
Continuous
 62
     7
100
AcDbLine
 10
-75.14999910589947
 20
143.2742264322943
 30
0.0
 11
-75.14999910589944
 21
153.4750002893823
 31
0.0
  0
LINE
  5
180
330
58
100
AcDbEntity
  8
0
  6
Continuous
 62
     7
100
AcDbLine
 10
-77.84999910589607
 20
149.3750002893823
 30
0.0
 11
-77.8499991058965
 21
143.2742264323028
 31
0.0
  0
LINE
  5
181
330
58
100
AcDbEntity
  8
0
  6
Continuous
 62
     7
100
AcDbLine
 10
-62.24999910589568
 20
153.4750002893823
 30
0.0
 11
-64.7499991058982
 21
153.4750002893823
 31
0.0
  0
LINE
  5
182
330
58
100
AcDbEntity
  8
0
  6
Continuous
 62
     7
100
AcDbLine
 10
-60.19999910589758
 20
153.4750002893823
 30
0.0
 11
-59.54999910589947
 21
153.4750002893823
 31
0.0
  0
LINE
  5
183
330
58
100
AcDbEntity
  8
0
  6
Continuous
 62
     7
100
AcDbLine
 10
-61.59999910589758
 20
153.4750002893823
 30
0.0
 11
-62.24999910589568
 21
153.4750002893823
 31
0.0
  0
LINE
  5
184
330
58
100
AcDbEntity
  8
0
  6
Continuous
 62
     7
100
AcDbLine
 10
-59.54999910589947
 20
143.2742264322943
 30
0.0
 11
-59.54999910589947
 21
153.4750002893823
 31
0.0
  0
LINE
  5
185
330
58
100
AcDbEntity
  8
0
  6
Continuous
 62
     7
100
AcDbLine
 10
-62.24999910589568
 20
153.4750002893823
 30
0.0
 11
-62.24999910589567
 21
143.2742264322943
 31
0.0
  0
LINE
  5
186
330
58
100
AcDbEntity
  8
0
  6
Continuous
 62
     7
100
AcDbLine
 10
-64.7499991058982
 20
143.2742264323026
 30
0.0
 11
-64.7499991058982
 21
153.4750002893823
 31
0.0
  0
LINE
  5
187
330
58
100
AcDbEntity
  8
0
  6
Continuous
 62
     7
100
AcDbLine
 10
-38.7499991058982
 20
143.2742264323026
 30
0.0
 11
-38.3848100549106
 21
140.3000002893533
 31
0.0
  0
ENDBLK
  5
5A
330
58
100
AcDbEntity
  8
0
100
AcDbBlockEnd
  0
BLOCK
  5
5D
330
5B
100
AcDbEntity
  8
0
100
AcDbBlockBegin
  2
SA_Links1
 70
     0
 10
-55.69999980911517
 20
151.6375002861123
 30
0.0
  3
SA_Links1
  1

  0
INSERT
  5
5C
330
5B
100
AcDbEntity
  8
0
100
AcDbBlockReference
  2
3030213_FBS_10-5_select__4
 10
-80.99999910589756
 20
140.3000002893533
 30
0.0
  0
MTEXT
  5
188
330
5B
100
AcDbEntity
  8
1
 62
     6
100
AcDbMText
 10
-55.69999980911518
 20
135.3000001907449
 30
0.0
 40
5.0
 41
0.0
 71
     2
 72
     1
  1
 
  7
CONVERTER_11
 73
     1
 44
1.32052821128451
  0
ENDBLK
  5
5E
330
5B
100
AcDbEntity
  8
0
100
AcDbBlockEnd
  0
BLOCK
  5
60
330
5F
100
AcDbEntity
  8
0
100
AcDbBlockBegin
  2
3030213_FBS_10-5_select__5
 70
     0
 10
-191.6000008941076
 20
140.3000002893533
 30
0.0
  3
3030213_FBS_10-5_select__5
  1

  0
LINE
  5
189
330
5F
100
AcDbEntity
  8
0
  6
Continuous
 62
     7
100
AcDbLine
 10
-172.8500008941057
 20
143.2742264322944
 30
0.0
 11
-172.8500008941057
 21
153.4750002893823
 31
0.0
  0
LINE
  5
18A
330
5F
100
AcDbEntity
  8
0
  6
Continuous
 62
     7
100
AcDbLine
 10
-170.1500008941082
 20
153.4750002893823
 30
0.0
 11
-167.6500008941069
 21
153.4750002893823
 31
0.0
  0
LINE
  5
18B
330
5F
100
AcDbEntity
  8
0
  6
Continuous
 62
     7
100
AcDbLine
 10
-170.1500008941083
 20
143.2742264323026
 30
0.0
 11
-169.7848118431245
 21
140.300000289385
 31
0.0
  0
LINE
  5
18C
330
5F
100
AcDbEntity
  8
0
  6
Continuous
 62
     7
100
AcDbLine
 10
-167.6500008941069
 20
143.2742264323026
 30
0.0
 11
-168.0151899450945
 21
140.3000002893533
 31
0.0
  0
LINE
  5
18D
330
5F
100
AcDbEntity
  8
0
  6
Continuous
 62
     7
100
AcDbLine
 10
-170.1500008941082
 20
153.4750002893823
 30
0.0
 11
-170.1500008941083
 21
143.2742264323026
 31
0.0
  0
LINE
  5
18E
330
5F
100
AcDbEntity
  8
0
  6
Continuous
 62
     7
100
AcDbLine
 10
-185.7500008941095
 20
153.4750002893823
 30
0.0
 11
-185.7500008941095
 21
143.2742264322944
 31
0.0
  0
LINE
  5
18F
330
5F
100
AcDbEntity
  8
0
  6
Continuous
 62
     7
100
AcDbLine
 10
-186.4000008941076
 20
156.9750002893823
 30
0.0
 11
-187.8000008941076
 21
156.9750002893823
 31
0.0
  0
LINE
  5
190
330
5F
100
AcDbEntity
  8
0
  6
Continuous
 62
     7
100
AcDbLine
 10
-187.8000008941076
 20
156.9750002893823
 30
0.0
 11
-187.8000008941076
 21
149.3750002893823
 31
0.0
  0
LINE
  5
191
330
5F
100
AcDbEntity
  8
0
  6
Continuous
 62
     7
100
AcDbLine
 10
-191.6000008941076
 20
149.3750002893823
 30
0.0
 11
-190.95000089411
 21
149.3750002893823
 31
0.0
  0
LINE
  5
192
330
5F
100
AcDbEntity
  8
0
  6
Continuous
 62
     7
100
AcDbLine
 10
-190.95000089411
 20
149.3750002893823
 30
0.0
 11
-188.4500008941061
 21
149.3750002893823
 31
0.0
  0
LINE
  5
193
330
5F
100
AcDbEntity
  8
0
  6
Continuous
 62
     7
100
AcDbLine
 10
-191.6000008941076
 20
149.3750002893823
 30
0.0
 11
-191.6000008941076
 21
162.9750002893823
 31
0.0
  0
LINE
  5
194
330
5F
100
AcDbEntity
  8
0
  6
Continuous
 62
     7
100
AcDbLine
 10
-181.2000008941076
 20
153.4750002893823
 30
0.0
 11
-181.2000008941076
 21
156.9750002893823
 31
0.0
  0
LINE
  5
195
330
5F
100
AcDbEntity
  8
0
  6
Continuous
 62
     7
100
AcDbLine
 10
-180.5500008941082
 20
153.4750002893823
 30
0.0
 11
-180.5500008941082
 21
143.2742264323026
 31
0.0
  0
LINE
  5
196
330
5F
100
AcDbEntity
  8
0
  6
Continuous
 62
     7
100
AcDbLine
 10
-185.7500008941095
 20
153.4750002893823
 30
0.0
 11
-183.250000894107
 21
153.4750002893823
 31
0.0
  0
LINE
  5
197
330
5F
100
AcDbEntity
  8
0
  6
Continuous
 62
     7
100
AcDbLine
 10
-186.4000008941076
 20
153.4750002893823
 30
0.0
 11
-185.7500008941095
 21
153.4750002893823
 31
0.0
  0
LINE
  5
198
330
5F
100
AcDbEntity
  8
0
  6
Continuous
 62
     7
100
AcDbLine
 10
-178.050000894107
 20
153.4750002893823
 30
0.0
 11
-177.4000008941076
 21
153.4750002893823
 31
0.0
  0
LINE
  5
199
330
5F
100
AcDbEntity
  8
0
  6
Continuous
 62
     7
100
AcDbLine
 10
-181.2000008941076
 20
153.4750002893823
 30
0.0
 11
-180.5500008941082
 21
153.4750002893823
 31
0.0
  0
LINE
  5
19A
330
5F
100
AcDbEntity
  8
0
  6
Continuous
 62
     7
100
AcDbLine
 10
-170.8000008941076
 20
153.4750002893823
 30
0.0
 11
-170.1500008941082
 21
153.4750002893823
 31
0.0
  0
LINE
  5
19B
330
5F
100
AcDbEntity
  8
0
  6
Continuous
 62
     7
100
AcDbLine
 10
-183.250000894107
 20
153.4750002893823
 30
0.0
 11
-182.6000008941076
 21
153.4750002893823
 31
0.0
  0
LINE
  5
19C
330
5F
100
AcDbEntity
  8
0
  6
Continuous
 62
     7
100
AcDbLine
 10
-180.5500008941082
 20
153.4750002893823
 30
0.0
 11
-178.050000894107
 21
153.4750002893823
 31
0.0
  0
LINE
  5
19D
330
5F
100
AcDbEntity
  8
0
  6
Continuous
 62
     7
100
AcDbLine
 10
-177.4000008941076
 20
156.9750002893823
 30
0.0
 11
-176.0000008941076
 21
156.9750002893823
 31
0.0
  0
LINE
  5
19E
330
5F
100
AcDbEntity
  8
0
  6
Continuous
 62
     7
100
AcDbLine
 10
-170.8000008941076
 20
156.9750002893823
 30
0.0
 11
-172.2000008941076
 21
156.9750002893823
 31
0.0
  0
LINE
  5
19F
330
5F
100
AcDbEntity
  8
0
  6
Continuous
 62
     7
100
AcDbLine
 10
-167.0000008941076
 20
156.9750002893823
 30
0.0
 11
-165.6000008941076
 21
156.9750002893823
 31
0.0
  0
LINE
  5
1A0
330
5F
100
AcDbEntity
  8
0
  6
Continuous
 62
     7
100
AcDbLine
 10
-176.0000008941076
 20
153.4750002893823
 30
0.0
 11
-176.0000008941076
 21
156.9750002893823
 31
0.0
  0
LINE
  5
1A1
330
5F
100
AcDbEntity
  8
0
  6
Continuous
 62
     7
100
AcDbLine
 10
-175.3500008941082
 20
153.4750002893823
 30
0.0
 11
-175.3500008941082
 21
143.2742264323026
 31
0.0
  0
LINE
  5
1A2
330
5F
100
AcDbEntity
  8
0
  6
Continuous
 62
     7
100
AcDbLine
 10
-175.3500008941082
 20
153.4750002893823
 30
0.0
 11
-176.0000008941076
 21
153.4750002893823
 31
0.0
  0
LINE
  5
1A3
330
5F
100
AcDbEntity
  8
0
  6
Continuous
 62
     7
100
AcDbLine
 10
-172.2000008941076
 20
153.4750002893823
 30
0.0
 11
-172.8500008941057
 21
153.4750002893823
 31
0.0
  0
LINE
  5
1A4
330
5F
100
AcDbEntity
  8
0
  6
Continuous
 62
     7
100
AcDbLine
 10
-172.8500008941057
 20
153.4750002893823
 30
0.0
 11
-175.3500008941082
 21
153.4750002893823
 31
0.0
  0
LINE
  5
1A5
330
5F
100
AcDbEntity
  8
0
  6
Continuous
 62
     7
100
AcDbLine
 10
-172.2000008941076
 20
156.9750002893823
 30
0.0
 11
-172.2000008941076
 21
153.4750002893823
 31
0.0
  0
LINE
  5
1A6
330
5F
100
AcDbEntity
  8
0
  6
Continuous
 62
     7
100
AcDbLine
 10
-170.8000008941076
 20
153.4750002893823
 30
0.0
 11
-170.8000008941076
 21
156.9750002893823
 31
0.0
  0
LINE
  5
1A7
330
5F
100
AcDbEntity
  8
0
  6
Continuous
 62
     7
100
AcDbLine
 10
-167.0000008941076
 20
153.4750002893823
 30
0.0
 11
-167.0000008941076
 21
156.9750002893823
 31
0.0
  0
LINE
  5
1A8
330
5F
100
AcDbEntity
  8
0
  6
Continuous
 62
     7
100
AcDbLine
 10
-165.6000008941076
 20
153.4750002893823
 30
0.0
 11
-165.6000008941076
 21
156.9750002893823
 31
0.0
  0
LINE
  5
1A9
330
5F
100
AcDbEntity
  8
0
  6
Continuous
 62
     7
100
AcDbLine
 10
-177.4000008941076
 20
153.4750002893823
 30
0.0
 11
-177.4000008941076
 21
156.9750002893823
 31
0.0
  0
LINE
  5
1AA
330
5F
100
AcDbEntity
  8
0
  6
Continuous
 62
     7
100
AcDbLine
 10
-178.050000894107
 20
153.4750002893823
 30
0.0
 11
-178.050000894107
 21
143.2742264323026
 31
0.0
  0
LINE
  5
1AB
330
5F
100
AcDbEntity
  8
0
  6
Continuous
 62
     7
100
AcDbLine
 10
-181.2000008941076
 20
156.9750002893823
 30
0.0
 11
-182.6000008941076
 21
156.9750002893823
 31
0.0
  0
LINE
  5
1AC
330
5F
100
AcDbEntity
  8
0
  6
Continuous
 62
     7
100
AcDbLine
 10
-182.6000008941076
 20
153.4750002893823
 30
0.0
 11
-182.6000008941076
 21
156.9750002893823
 31
0.0
  0
LINE
  5
1AD
330
5F
100
AcDbEntity
  8
0
  6
Continuous
 62
     7
100
AcDbLine
 10
-186.4000008941076
 20
156.9750002893823
 30
0.0
 11
-186.4000008941076
 21
153.4750002893823
 31
0.0
  0
LINE
  5
1AE
330
5F
100
AcDbEntity
  8
0
  6
Continuous
 62
     7
100
AcDbLine
 10
-164.9500008941082
 20
153.4750002893823
 30
0.0
 11
-165.6000008941076
 21
153.4750002893823
 31
0.0
  0
LINE
  5
1AF
330
5F
100
AcDbEntity
  8
0
  6
Continuous
 62
     7
100
AcDbLine
 10
-167.6500008941069
 20
153.4750002893823
 30
0.0
 11
-167.0000008941076
 21
153.4750002893823
 31
0.0
  0
LINE
  5
1B0
330
5F
100
AcDbEntity
  8
0
  6
Continuous
 62
     7
100
AcDbLine
 10
-164.9500008941082
 20
153.4750002893823
 30
0.0
 11
-164.9500008941083
 21
143.2742264323026
 31
0.0
  0
LINE
  5
1B1
330
5F
100
AcDbEntity
  8
0
  6
Continuous
 62
     7
100
AcDbLine
 10
-167.6500008941069
 20
153.4750002893823
 30
0.0
 11
-167.6500008941069
 21
143.2742264323026
 31
0.0
  0
LINE
  5
1B2
330
5F
100
AcDbEntity
  8
0
  6
Continuous
 62
     7
100
AcDbLine
 10
-183.2500008941069
 20
143.2742264323026
 30
0.0
 11
-183.250000894107
 21
153.4750002893823
 31
0.0
  0
LINE
  5
1B3
330
5F
100
AcDbEntity
  8
0
  6
Continuous
 62
     7
100
AcDbLine
 10
-156.6000008941076
 20
153.4750002893823
 30
0.0
 11
-156.6000008941076
 21
156.9750002893823
 31
0.0
  0
LINE
  5
1B4
330
5F
100
AcDbEntity
  8
0
  6
Continuous
 62
     7
100
AcDbLine
 10
-151.4000008941076
 20
156.9750002893823
 30
0.0
 11
-150.0000008941076
 21
156.9750002893823
 31
0.0
  0
LINE
  5
1B5
330
5F
100
AcDbEntity
  8
0
  6
Continuous
 62
     7
100
AcDbLine
 10
-151.4000008941076
 20
153.4750002893823
 30
0.0
 11
-151.4000008941076
 21
156.9750002893823
 31
0.0
  0
LINE
  5
1B6
330
5F
100
AcDbEntity
  8
0
  6
Continuous
 62
     7
100
AcDbLine
 10
-155.2000008941076
 20
153.4750002893823
 30
0.0
 11
-155.2000008941076
 21
156.9750002893823
 31
0.0
  0
LINE
  5
1B7
330
5F
100
AcDbEntity
  8
0
  6
Continuous
 62
     7
100
AcDbLine
 10
-155.2000008941076
 20
156.9750002893823
 30
0.0
 11
-156.6000008941076
 21
156.9750002893823
 31
0.0
  0
LINE
  5
1B8
330
5F
100
AcDbEntity
  8
0
  6
Continuous
 62
     7
100
AcDbLine
 10
-157.250000894107
 20
153.4750002893823
 30
0.0
 11
-156.6000008941076
 21
153.4750002893823
 31
0.0
  0
LINE
  5
1B9
330
5F
100
AcDbEntity
  8
0
  6
Continuous
 62
     7
100
AcDbLine
 10
-154.5500008941082
 20
153.4750002893823
 30
0.0
 11
-155.2000008941076
 21
153.4750002893823
 31
0.0
  0
LINE
  5
1BA
330
5F
100
AcDbEntity
  8
0
  6
Continuous
 62
     7
100
AcDbLine
 10
-149.3500008941082
 20
153.4750002893823
 30
0.0
 11
-150.0000008941076
 21
153.4750002893823
 31
0.0
  0
LINE
  5
1BB
330
5F
100
AcDbEntity
  8
0
  6
Continuous
 62
     7
100
AcDbLine
 10
-151.4000008941076
 20
153.4750002893823
 30
0.0
 11
-152.050000894107
 21
153.4750002893823
 31
0.0
  0
LINE
  5
1BC
330
5F
100
AcDbEntity
  8
0
  6
Continuous
 62
     7
100
AcDbLine
 10
-149.3500008941082
 20
153.4750002893823
 30
0.0
 11
-149.3500008941083
 21
143.2742264323026
 31
0.0
  0
LINE
  5
1BD
330
5F
100
AcDbEntity
  8
0
  6
Continuous
 62
     7
100
AcDbLine
 10
-152.0500008941069
 20
143.2742264323026
 30
0.0
 11
-152.050000894107
 21
153.4750002893823
 31
0.0
  0
LINE
  5
1BE
330
5F
100
AcDbEntity
  8
0
  6
Continuous
 62
     7
100
AcDbLine
 10
-154.5500008941083
 20
143.2742264323026
 30
0.0
 11
-154.5500008941082
 21
153.4750002893823
 31
0.0
  0
LINE
  5
1BF
330
5F
100
AcDbEntity
  8
0
  6
Continuous
 62
     7
100
AcDbLine
 10
-152.050000894107
 20
153.4750002893823
 30
0.0
 11
-154.5500008941082
 21
153.4750002893823
 31
0.0
  0
LINE
  5
1C0
330
5F
100
AcDbEntity
  8
0
  6
Continuous
 62
     7
100
AcDbLine
 10
-150.0000008941076
 20
153.4750002893823
 30
0.0
 11
-150.0000008941076
 21
156.9750002893823
 31
0.0
  0
LINE
  5
1C1
330
5F
100
AcDbEntity
  8
0
  6
Continuous
 62
     7
100
AcDbLine
 10
-141.0000008941076
 20
162.9750002893823
 30
0.0
 11
-191.6000008941076
 21
162.9750002893823
 31
0.0
  0
LINE
  5
1C2
330
5F
100
AcDbEntity
  8
0
  6
Continuous
 62
     7
100
AcDbLine
 10
-190.9500008941099
 20
143.2742264323028
 30
0.0
 11
-190.95000089411
 21
149.3750002893823
 31
0.0
  0
LINE
  5
1C3
330
5F
100
AcDbEntity
  8
0
  6
Continuous
 62
     7
100
AcDbLine
 10
-188.8151899450933
 20
140.3000002893605
 30
0.0
 11
-190.584811843127
 21
140.3000002893922
 31
0.0
  0
LINE
  5
1C4
330
5F
100
AcDbEntity
  8
0
  6
Continuous
 62
     7
100
AcDbLine
 10
-188.4500008941061
 20
149.3750002893823
 30
0.0
 11
-187.8000008941076
 21
149.3750002893823
 31
0.0
  0
LINE
  5
1C5
330
5F
100
AcDbEntity
  8
0
  6
Continuous
 62
     7
100
AcDbLine
 10
-164.9500008941083
 20
143.2742264323026
 30
0.0
 11
-164.5848118431206
 21
140.3000002893533
 31
0.0
  0
LINE
  5
1C6
330
5F
100
AcDbEntity
  8
0
  6
Continuous
 62
     7
100
AcDbLine
 10
-188.4500008941061
 20
143.2742264323026
 30
0.0
 11
-188.4500008941061
 21
149.3750002893823
 31
0.0
  0
LINE
  5
1C7
330
5F
100
AcDbEntity
  8
0
  6
Continuous
 62
     7
100
AcDbLine
 10
-188.4500008941061
 20
143.2742264323026
 30
0.0
 11
-188.8151899450933
 21
140.3000002893605
 31
0.0
  0
LINE
  5
1C8
330
5F
100
AcDbEntity
  8
0
  6
Continuous
 62
     7
100
AcDbLine
 10
-178.050000894107
 20
143.2742264323026
 30
0.0
 11
-178.4151899450946
 21
140.3000002893533
 31
0.0
  0
LINE
  5
1C9
330
5F
100
AcDbEntity
  8
0
  6
Continuous
 62
     7
100
AcDbLine
 10
-178.4151899450946
 20
140.3000002893533
 30
0.0
 11
-180.1848118431246
 21
140.300000289385
 31
0.0
  0
LINE
  5
1CA
330
5F
100
AcDbEntity
  8
0
  6
Continuous
 62
     7
100
AcDbLine
 10
-180.5500008941082
 20
143.2742264323026
 30
0.0
 11
-180.1848118431246
 21
140.300000289385
 31
0.0
  0
LINE
  5
1CB
330
5F
100
AcDbEntity
  8
0
  6
Continuous
 62
     7
100
AcDbLine
 10
-174.9848118431207
 20
140.3000002893533
 30
0.0
 11
-173.2151899450884
 21
140.300000289385
 31
0.0
  0
LINE
  5
1CC
330
5F
100
AcDbEntity
  8
0
  6
Continuous
 62
     7
100
AcDbLine
 10
-190.584811843127
 20
140.3000002893922
 30
0.0
 11
-190.9500008941099
 21
143.2742264323028
 31
0.0
  0
LINE
  5
1CD
330
5F
100
AcDbEntity
  8
0
  6
Continuous
 62
     7
100
AcDbLine
 10
-173.2151899450884
 20
140.300000289385
 30
0.0
 11
-172.8500008941057
 21
143.2742264322944
 31
0.0
  0
LINE
  5
1CE
330
5F
100
AcDbEntity
  8
0
  6
Continuous
 62
     7
100
AcDbLine
 10
-185.7500008941095
 20
143.2742264322944
 30
0.0
 11
-185.3848118431268
 21
140.300000289385
 31
0.0
  0
LINE
  5
1CF
330
5F
100
AcDbEntity
  8
0
  6
Continuous
 62
     7
100
AcDbLine
 10
-183.6151899450946
 20
140.3000002893533
 30
0.0
 11
-185.3848118431268
 21
140.300000289385
 31
0.0
  0
LINE
  5
1D0
330
5F
100
AcDbEntity
  8
0
  6
Continuous
 62
     7
100
AcDbLine
 10
-159.7500008941095
 20
143.2742264322942
 30
0.0
 11
-159.3848118431267
 21
140.300000289385
 31
0.0
  0
LINE
  5
1D1
330
5F
100
AcDbEntity
  8
0
  6
Continuous
 62
     7
100
AcDbLine
 10
-157.250000894107
 20
143.2742264323026
 30
0.0
 11
-157.6151899450945
 21
140.3000002893533
 31
0.0
  0
LINE
  5
1D2
330
5F
100
AcDbEntity
  8
0
  6
Continuous
 62
     7
100
AcDbLine
 10
-157.6151899450945
 20
140.3000002893533
 30
0.0
 11
-159.3848118431267
 21
140.300000289385
 31
0.0
  0
LINE
  5
1D3
330
5F
100
AcDbEntity
  8
0
  6
Continuous
 62
     7
100
AcDbLine
 10
-162.4500008941057
 20
143.2742264322942
 30
0.0
 11
-162.8151899450884
 21
140.300000289385
 31
0.0
  0
LINE
  5
1D4
330
5F
100
AcDbEntity
  8
0
  6
Continuous
 62
     7
100
AcDbLine
 10
-154.1848118431206
 20
140.3000002893533
 30
0.0
 11
-154.5500008941083
 21
143.2742264323026
 31
0.0
  0
LINE
  5
1D5
330
5F
100
AcDbEntity
  8
0
  6
Continuous
 62
     7
100
AcDbLine
 10
-175.3500008941082
 20
143.2742264323026
 30
0.0
 11
-174.9848118431207
 21
140.3000002893533
 31
0.0
  0
LINE
  5
1D6
330
5F
100
AcDbEntity
  8
0
  6
Continuous
 62
     7
100
AcDbLine
 10
-162.8151899450884
 20
140.300000289385
 30
0.0
 11
-164.5848118431206
 21
140.3000002893533
 31
0.0
  0
LINE
  5
1D7
330
5F
100
AcDbEntity
  8
0
  6
Continuous
 62
     7
100
AcDbLine
 10
-168.0151899450945
 20
140.3000002893533
 30
0.0
 11
-169.7848118431245
 21
140.300000289385
 31
0.0
  0
LINE
  5
1D8
330
5F
100
AcDbEntity
  8
0
  6
Continuous
 62
     7
100
AcDbLine
 10
-142.0151899450882
 20
140.3000002893922
 30
0.0
 11
-143.7848118431219
 21
140.3000002893605
 31
0.0
  0
LINE
  5
1D9
330
5F
100
AcDbEntity
  8
0
  6
Continuous
 62
     7
100
AcDbLine
 10
-152.4151899450907
 20
140.300000289385
 30
0.0
 11
-154.1848118431206
 21
140.3000002893533
 31
0.0
  0
LINE
  5
1DA
330
5F
100
AcDbEntity
  8
0
  6
Continuous
 62
     7
100
AcDbLine
 10
-160.4000008941076
 20
156.9750002893823
 30
0.0
 11
-160.4000008941076
 21
153.4750002893823
 31
0.0
  0
LINE
  5
1DB
330
5F
100
AcDbEntity
  8
0
  6
Continuous
 62
     7
100
AcDbLine
 10
-161.8000008941076
 20
156.9750002893823
 30
0.0
 11
-160.4000008941076
 21
156.9750002893823
 31
0.0
  0
LINE
  5
1DC
330
5F
100
AcDbEntity
  8
0
  6
Continuous
 62
     7
100
AcDbLine
 10
-160.4000008941076
 20
153.4750002893823
 30
0.0
 11
-159.7500008941095
 21
153.4750002893823
 31
0.0
  0
LINE
  5
1DD
330
5F
100
AcDbEntity
  8
0
  6
Continuous
 62
     7
100
AcDbLine
 10
-159.7500008941095
 20
153.4750002893823
 30
0.0
 11
-157.250000894107
 21
153.4750002893823
 31
0.0
  0
LINE
  5
1DE
330
5F
100
AcDbEntity
  8
0
  6
Continuous
 62
     7
100
AcDbLine
 10
-161.8000008941076
 20
153.4750002893823
 30
0.0
 11
-162.4500008941057
 21
153.4750002893823
 31
0.0
  0
LINE
  5
1DF
330
5F
100
AcDbEntity
  8
0
  6
Continuous
 62
     7
100
AcDbLine
 10
-162.4500008941057
 20
143.2742264322942
 30
0.0
 11
-162.4500008941057
 21
153.4750002893823
 31
0.0
  0
LINE
  5
1E0
330
5F
100
AcDbEntity
  8
0
  6
Continuous
 62
     7
100
AcDbLine
 10
-157.250000894107
 20
143.2742264323026
 30
0.0
 11
-157.250000894107
 21
153.4750002893823
 31
0.0
  0
LINE
  5
1E1
330
5F
100
AcDbEntity
  8
0
  6
Continuous
 62
     7
100
AcDbLine
 10
-159.7500008941095
 20
153.4750002893823
 30
0.0
 11
-159.7500008941095
 21
143.2742264322942
 31
0.0
  0
LINE
  5
1E2
330
5F
100
AcDbEntity
  8
0
  6
Continuous
 62
     7
100
AcDbLine
 10
-162.4500008941057
 20
153.4750002893823
 30
0.0
 11
-164.9500008941082
 21
153.4750002893823
 31
0.0
  0
LINE
  5
1E3
330
5F
100
AcDbEntity
  8
0
  6
Continuous
 62
     7
100
AcDbLine
 10
-161.8000008941076
 20
156.9750002893823
 30
0.0
 11
-161.8000008941076
 21
153.4750002893823
 31
0.0
  0
LINE
  5
1E4
330
5F
100
AcDbEntity
  8
0
  6
Continuous
 62
     7
100
AcDbLine
 10
-146.2000008941076
 20
156.9750002893823
 30
0.0
 11
-144.8000008941076
 21
156.9750002893823
 31
0.0
  0
LINE
  5
1E5
330
5F
100
AcDbEntity
  8
0
  6
Continuous
 62
     7
100
AcDbLine
 10
-146.8500008941057
 20
143.2742264322944
 30
0.0
 11
-146.8500008941057
 21
153.4750002893823
 31
0.0
  0
LINE
  5
1E6
330
5F
100
AcDbEntity
  8
0
  6
Continuous
 62
     7
100
AcDbLine
 10
-146.2000008941076
 20
153.4750002893823
 30
0.0
 11
-146.8500008941057
 21
153.4750002893823
 31
0.0
  0
LINE
  5
1E7
330
5F
100
AcDbEntity
  8
0
  6
Continuous
 62
     7
100
AcDbLine
 10
-146.8500008941057
 20
153.4750002893823
 30
0.0
 11
-149.3500008941082
 21
153.4750002893823
 31
0.0
  0
LINE
  5
1E8
330
5F
100
AcDbEntity
  8
0
  6
Continuous
 62
     7
100
AcDbLine
 10
-146.2000008941076
 20
156.9750002893823
 30
0.0
 11
-146.2000008941076
 21
153.4750002893823
 31
0.0
  0
LINE
  5
1E9
330
5F
100
AcDbEntity
  8
0
  6
Continuous
 62
     7
100
AcDbLine
 10
-144.8000008941076
 20
156.9750002893823
 30
0.0
 11
-144.8000008941076
 21
149.3750002893823
 31
0.0
  0
LINE
  5
1EA
330
5F
100
AcDbEntity
  8
0
  6
Continuous
 62
     7
100
AcDbLine
 10
-149.3500008941083
 20
143.2742264323026
 30
0.0
 11
-148.9848118431207
 21
140.3000002893533
 31
0.0
  0
LINE
  5
1EB
330
5F
100
AcDbEntity
  8
0
  6
Continuous
 62
     7
100
AcDbLine
 10
-148.9848118431207
 20
140.3000002893533
 30
0.0
 11
-147.2151899450884
 21
140.300000289385
 31
0.0
  0
LINE
  5
1EC
330
5F
100
AcDbEntity
  8
0
  6
Continuous
 62
     7
100
AcDbLine
 10
-143.7848118431219
 20
140.3000002893605
 30
0.0
 11
-144.1500008941086
 21
143.2742264323026
 31
0.0
  0
LINE
  5
1ED
330
5F
100
AcDbEntity
  8
0
  6
Continuous
 62
     7
100
AcDbLine
 10
-152.4151899450907
 20
140.300000289385
 30
0.0
 11
-152.0500008941069
 21
143.2742264323026
 31
0.0
  0
LINE
  5
1EE
330
5F
100
AcDbEntity
  8
0
  6
Continuous
 62
     7
100
AcDbLine
 10
-141.0000008941076
 20
149.3750002893823
 30
0.0
 11
-141.6500008941052
 21
149.3750002893823
 31
0.0
  0
LINE
  5
1EF
330
5F
100
AcDbEntity
  8
0
  6
Continuous
 62
     7
100
AcDbLine
 10
-144.1500008941091
 20
149.3750002893823
 30
0.0
 11
-144.8000008941076
 21
149.3750002893823
 31
0.0
  0
LINE
  5
1F0
330
5F
100
AcDbEntity
  8
0
  6
Continuous
 62
     7
100
AcDbLine
 10
-144.1500008941091
 20
149.3750002893823
 30
0.0
 11
-144.1500008941086
 21
143.2742264323026
 31
0.0
  0
LINE
  5
1F1
330
5F
100
AcDbEntity
  8
0
  6
Continuous
 62
     7
100
AcDbLine
 10
-147.2151899450884
 20
140.300000289385
 30
0.0
 11
-146.8500008941057
 21
143.2742264322944
 31
0.0
  0
LINE
  5
1F2
330
5F
100
AcDbEntity
  8
0
  6
Continuous
 62
     7
100
AcDbLine
 10
-141.6500008941053
 20
143.2742264323039
 30
0.0
 11
-142.0151899450882
 21
140.3000002893922
 31
0.0
  0
LINE
  5
1F3
330
5F
100
AcDbEntity
  8
0
  6
Continuous
 62
     7
100
AcDbLine
 10
-141.6500008941052
 20
149.3750002893823
 30
0.0
 11
-141.6500008941053
 21
143.2742264323039
 31
0.0
  0
LINE
  5
1F4
330
5F
100
AcDbEntity
  8
0
  6
Continuous
 62
     7
100
AcDbLine
 10
-141.6500008941052
 20
149.3750002893823
 30
0.0
 11
-144.1500008941091
 21
149.3750002893823
 31
0.0
  0
LINE
  5
1F5
330
5F
100
AcDbEntity
  8
0
  6
Continuous
 62
     7
100
AcDbLine
 10
-141.0000008941076
 20
149.3750002893823
 30
0.0
 11
-141.0000008941076
 21
162.9750002893823
 31
0.0
  0
LINE
  5
1F6
330
5F
100
AcDbEntity
  8
0
  6
Continuous
 62
     7
100
AcDbLine
 10
-183.2500008941069
 20
143.2742264323026
 30
0.0
 11
-183.6151899450946
 21
140.3000002893533
 31
0.0
  0
ENDBLK
  5
61
330
5F
100
AcDbEntity
  8
0
100
AcDbBlockEnd
  0
BLOCK
  5
64
330
62
100
AcDbEntity
  8
0
100
AcDbBlockBegin
  2
SA_Rechts1
 70
     0
 10
-166.30000019089
 20
151.6375002861123
 30
0.0
  3
SA_Rechts1
  1

  0
INSERT
  5
63
330
62
100
AcDbEntity
  8
0
100
AcDbBlockReference
  2
3030213_FBS_10-5_select__5
 10
-191.6000008941076
 20
140.3000002893533
 30
0.0
  0
MTEXT
  5
1F7
330
62
100
AcDbEntity
  8
1
 62
     6
100
AcDbMText
 10
-166.3000001908899
 20
135.3000001907449
 30
0.0
 40
5.0
 41
0.0
 71
     2
 72
     1
  1
 
  7
CONVERTER_11
 73
     1
 44
1.32052821128451
  0
DIMENSION
  5
202
330
62
100
AcDbEntity
  8
1
100
AcDbDimension
  2
*D16
 10
-141.0000008941076
 20
172.9750002893823
 30
0.0
 11
-166.3000008941076
 21
176.9000002893823
 31
0.0
 70
    32
  1
<>
 71
     5
 42
-1.0
 53
0.00013888888889
  3
ME10_DIM_10
100
AcDbAlignedDimension
 13
-191.6000008941076
 23
162.9750002893823
 33
0.0
 14
-141.0000008941076
 24
162.9750002893823
 34
0.0
100
AcDbRotatedDimension
  0
DIMENSION
  5
20D
330
62
100
AcDbEntity
  8
1
100
AcDbDimension
  2
*D17
 10
-201.6000008941076
 20
162.9750002893823
 30
0.0
 11
-205.5250008941076
 21
156.254020194215
 31
0.0
 70
    32
  1
<>
 71
     5
 42
-1.0
 53
90.0
  3
ME10_DIM_11
100
AcDbAlignedDimension
 13
-190.95000089411
 23
149.3750002893823
 33
0.0
 14
-191.6000008941076
 24
162.9750002893823
 34
0.0
 50
90.0
100
AcDbRotatedDimension
  0
DIMENSION
  5
218
330
62
100
AcDbEntity
  8
1
100
AcDbDimension
  2
*D18
 10
-211.827652549565
 20
162.9750002893823
 30
0.0
 11
-215.752652549565
 21
151.751459999667
 31
0.0
 70
    32
  1
<>
 71
     5
 42
-1.0
 53
90.0
  3
ME10_DIM_12
100
AcDbAlignedDimension
 13
-188.8151899450933
 23
140.3000002893605
 33
0.0
 14
-191.6000008941076
 24
162.9750002893823
 34
0.0
 50
90.0
100
AcDbRotatedDimension
  0
ENDBLK
  5
65
330
62
100
AcDbEntity
  8
0
100
AcDbBlockEnd
  0
BLOCK
  5
67
330
66
100
AcDbEntity
  8
0
100
AcDbBlockBegin
  2
3030213_FBS_10-5_select__6
 70
     0
 10
-111.4999999999999
 20
140.300000289385
 30
0.0
  3
3030213_FBS_10-5_select__6
  1

  0
LINE
  5
219
330
66
100
AcDbEntity
  8
0
  6
Continuous
 62
     7
100
AcDbLine
 10
-108.4999999999999
 20
162.9750002893823
 30
0.0
 11
-111.4999999999999
 21
162.9750002893823
 31
0.0
  0
LINE
  5
21A
330
66
100
AcDbEntity
  8
0
  6
Continuous
 62
     7
100
AcDbLine
 10
-111.4999999999999
 20
149.3750002893823
 30
0.0
 11
-111.4999999999999
 21
162.9750002893823
 31
0.0
  0
LINE
  5
21B
330
66
100
AcDbEntity
  8
0
  6
Continuous
 62
     7
100
AcDbLine
 10
-110.7999999999902
 20
149.3750002893823
 30
0.0
 11
-111.4999999999999
 21
149.3750002893823
 31
0.0
  0
LINE
  5
21C
330
66
100
AcDbEntity
  8
0
  6
Continuous
 62
     7
100
AcDbLine
 10
-109.1999999999902
 20
149.3750002893823
 30
0.0
 11
-110.7999999999902
 21
149.3750002893823
 31
0.0
  0
LINE
  5
21D
330
66
100
AcDbEntity
  8
0
  6
Continuous
 62
     7
100
AcDbLine
 10
-109.1999999999902
 20
143.2742264322944
 30
0.0
 11
-109.1999999999902
 21
140.300000289385
 31
0.0
  0
LINE
  5
21E
330
66
100
AcDbEntity
  8
0
  6
Continuous
 62
     7
100
AcDbLine
 10
-109.1999999999902
 20
149.3750002893823
 30
0.0
 11
-109.1999999999902
 21
143.2742264322944
 31
0.0
  0
LINE
  5
21F
330
66
100
AcDbEntity
  8
0
  6
Continuous
 62
     7
100
AcDbLine
 10
-108.4999999999999
 20
149.3750002893823
 30
0.0
 11
-108.4999999999999
 21
162.9750002893823
 31
0.0
  0
LINE
  5
220
330
66
100
AcDbEntity
  8
0
  6
Continuous
 62
     7
100
AcDbLine
 10
-108.4999999999999
 20
149.3750002893823
 30
0.0
 11
-109.1999999999902
 21
149.3750002893823
 31
0.0
  0
LINE
  5
221
330
66
100
AcDbEntity
  8
0
  6
Continuous
 62
     7
100
AcDbLine
 10
-110.8
 20
143.2742264322943
 30
0.0
 11
-110.8
 21
140.300000289385
 31
0.0
  0
LINE
  5
222
330
66
100
AcDbEntity
  8
0
  6
Continuous
 62
     7
100
AcDbLine
 10
-110.8
 20
143.2742264322943
 30
0.0
 11
-109.1999999999902
 21
143.2742264322944
 31
0.0
  0
LINE
  5
223
330
66
100
AcDbEntity
  8
0
  6
Continuous
 62
     7
100
AcDbLine
 10
-110.8
 20
140.300000289385
 30
0.0
 11
-109.1999999999902
 21
140.300000289385
 31
0.0
  0
LINE
  5
224
330
66
100
AcDbEntity
  8
0
  6
Continuous
 62
     7
100
AcDbLine
 10
-110.7999999999902
 20
149.3750002893823
 30
0.0
 11
-110.8
 21
143.2742264322943
 31
0.0
  0
ENDBLK
  5
68
330
66
100
AcDbEntity
  8
0
100
AcDbBlockEnd
  0
BLOCK
  5
6B
330
69
100
AcDbEntity
  8
0
100
AcDbBlockBegin
  2
Vordans1
 70
     0
 10
-109.9999999999999
 20
151.6375002861123
 30
0.0
  3
Vordans1
  1

  0
INSERT
  5
6A
330
69
100
AcDbEntity
  8
0
100
AcDbBlockReference
  2
3030213_FBS_10-5_select__6
 10
-111.4999999999999
 20
140.300000289385
 30
0.0
  0
MTEXT
  5
225
330
69
100
AcDbEntity
  8
1
 62
     6
100
AcDbMText
 10
-110.0
 20
135.3000001907449
 30
0.0
 40
5.0
 41
0.0
 71
     2
 72
     1
  1
 
  7
CONVERTER_11
 73
     1
 44
1.32052821128451
  0
DIMENSION
  5
232
330
69
100
AcDbEntity
  8
1
100
AcDbDimension
  2
*D19
 10
-111.4999999999999
 20
172.9750002893823
 30
0.0
 11
-99.80228513167746
 21
176.7250002893823
 31
0.0
 70
    32
  1
<>
 71
     5
 42
-1.0
 53
0.00013888888889
  3
ME10_DIM_13
100
AcDbAlignedDimension
 13
-108.4999999999999
 23
162.9750002893823
 33
0.0
 14
-111.4999999999999
 24
162.9750002893823
 34
0.0
100
AcDbRotatedDimension
  0
DIMENSION
  5
23F
330
69
100
AcDbEntity
  8
1
100
AcDbDimension
  2
*D20
 10
-110.8
 20
129.025262802101
 30
0.0
 11
-99.6836171253173
 21
132.950262802101
 31
0.0
 70
    32
  1
<>
 71
     5
 42
-1.0
 53
0.00013888888889
  3
ME10_DIM_14
100
AcDbAlignedDimension
 13
-109.1999999999902
 23
140.300000289385
 33
0.0
 14
-110.8
 24
143.2742264322943
 34
0.0
100
AcDbRotatedDimension
  0
ENDBLK
  5
6C
330
69
100
AcDbEntity
  8
0
100
AcDbBlockEnd
  0
BLOCK
  5
6E
330
6D
100
AcDbEntity
  8
0
100
AcDbBlockBegin
  2
_rahmen
 70
     0
 10
47.9623302529381
 20
2.28207210725108
 30
0.0
  3
_rahmen
  1

  0
POINT
  5
240
330
6D
100
AcDbEntity
  8
1
 62
     3
 60
     1
100
AcDbPoint
 10
-15.53766974705952
 20
28.53207210725106
 30
0.0
  0
LINE
  5
241
330
6D
100
AcDbEntity
  8
1
  6
Continuous
 62
     2
100
AcDbLine
 10
19.39706693772709
 20
22.73185282821832
 30
0.0
 11
19.39706693772709
 21
20.67445686336482
 31
0.0
  0
LINE
  5
242
330
6D
100
AcDbEntity
  8
1
  6
Continuous
 62
     7
100
AcDbLine
 10
-15.53766974705952
 20
24.28207210725108
 30
0.0
 11
-13.53766974705952
 21
24.28207210725108
 31
0.0
  0
LINE
  5
243
330
6D
100
AcDbEntity
  8
1
  6
Continuous
 62
     7
100
AcDbLine
 10
-15.53766974705952
 20
28.53207210725106
 30
0.0
 11
-22.28247427381189
 21
28.53207210725102
 31
0.0
  0
LINE
  5
244
330
6D
100
AcDbEntity
  8
1
  6
Continuous
 62
     2
100
AcDbLine
 10
-73.30220513929655
 20
20.65707210725108
 30
0.0
 11
-73.30220513929655
 21
23.65707210725108
 31
0.0
  0
LINE
  5
245
330
6D
100
AcDbEntity
  8
1
  6
Continuous
 62
     2
100
AcDbLine
 10
-69.30220513929655
 20
21.15707210725108
 30
0.0
 11
-73.30220513929655
 21
20.65707210725108
 31
0.0
  0
LINE
  5
246
330
6D
100
AcDbEntity
  8
1
  6
Continuous
 62
     2
100
AcDbLine
 10
-69.30220513929655
 20
23.15707210725108
 30
0.0
 11
-69.30220513929655
 21
21.15707210725108
 31
0.0
  0
LINE
  5
247
330
6D
100
AcDbEntity
  8
1
  6
Continuous
 62
     2
100
AcDbLine
 10
-73.30220513929655
 20
23.65707210725108
 30
0.0
 11
-69.30220513929655
 21
23.15707210725108
 31
0.0
  0
LINE
  5
248
330
6D
100
AcDbEntity
  8
1
  6
Continuous
 62
     6
100
AcDbLine
 10
-204.03766974706
 20
7.28207210725119
 30
0.0
 11
-239.0376697470599
 21
7.28207210725119
 31
0.0
  0
LINE
  5
249
330
6D
100
AcDbEntity
  8
1
  6
Continuous
 62
     6
100
AcDbLine
 10
47.96233025293981
 20
37.03207210725108
 30
0.0
 11
47.9623302529389
 21
28.53207210725108
 31
0.0
  0
LINE
  5
24A
330
6D
100
AcDbEntity
  8
1
  6
Continuous
 62
     6
100
AcDbLine
 10
-204.03766974706
 20
20.03207210725108
 30
0.0
 11
-204.03766974706
 21
24.28207210725108
 31
0.0
  0
LINE
  5
24B
330
6D
100
AcDbEntity
  8
1
  6
Continuous
 62
     7
100
AcDbLine
 10
-81.58247427381181
 20
32.78207210725108
 30
0.0
 11
-72.18247427381183
 21
32.78207210725108
 31
0.0
  0
LINE
  5
24C
330
6D
100
AcDbEntity
  8
1
  6
Continuous
 62
     6
100
AcDbLine
 10
-72.18247427381183
 20
37.03207210725108
 30
0.0
 11
-81.58247427381181
 21
37.03207210725108
 31
0.0
  0
LINE
  5
24D
330
6D
100
AcDbEntity
  8
1
  6
Continuous
 62
     7
100
AcDbLine
 10
-72.18247427381183
 20
24.28207210725119
 30
0.0
 11
-81.58247427381181
 21
24.28207210725108
 31
0.0
  0
LINE
  5
24E
330
6D
100
AcDbEntity
  8
1
  6
Continuous
 62
     2
100
AcDbLine
 10
-122.0824742738118
 20
20.03207210725108
 30
0.0
 11
-184.337669747062
 21
20.03207210725108
 31
0.0
  0
LINE
  5
24F
330
6D
100
AcDbEntity
  8
1
  6
Continuous
 62
     2
100
AcDbLine
 10
-122.0824742738118
 20
20.03207210725108
 30
0.0
 11
-122.0824742738118
 21
15.78207210725108
 31
0.0
  0
LINE
  5
250
330
6D
100
AcDbEntity
  8
1
  6
Continuous
 62
     2
100
AcDbLine
 10
-122.0824742738118
 20
32.78207210725108
 30
0.0
 11
-122.0824742738118
 21
28.53207210725108
 31
0.0
  0
LINE
  5
251
330
6D
100
AcDbEntity
  8
1
  6
Continuous
 62
     2
100
AcDbLine
 10
-122.0824742738118
 20
28.53207210725108
 30
0.0
 11
-122.0824742738118
 21
24.28207210725108
 31
0.0
  0
LINE
  5
252
330
6D
100
AcDbEntity
  8
1
  6
Continuous
 62
     2
100
AcDbLine
 10
-122.0824742738118
 20
24.28207210725108
 30
0.0
 11
-184.337669747062
 21
24.28207210725108
 31
0.0
  0
LINE
  5
253
330
6D
100
AcDbEntity
  8
1
  6
Continuous
 62
     2
100
AcDbLine
 10
-122.0824742738118
 20
24.28207210725108
 30
0.0
 11
-122.0824742738118
 21
20.03207210725108
 31
0.0
  0
LINE
  5
254
330
6D
100
AcDbEntity
  8
1
  6
Continuous
 62
     7
100
AcDbLine
 10
-122.0824742738118
 20
11.53207210725119
 30
0.0
 11
-108.5824742738118
 21
11.53207210725119
 31
0.0
  0
LINE
  5
255
330
6D
100
AcDbEntity
  8
1
  6
Continuous
 62
     2
100
AcDbLine
 10
-122.0824742738118
 20
11.53207210725119
 30
0.0
 11
-122.0824742738118
 21
7.28207210725108
 31
0.0
  0
LINE
  5
256
330
6D
100
AcDbEntity
  8
1
  6
Continuous
 62
     2
100
AcDbLine
 10
-122.0824742738118
 20
15.78207210725108
 30
0.0
 11
-184.337669747062
 21
15.78207210725108
 31
0.0
  0
LINE
  5
257
330
6D
100
AcDbEntity
  8
1
  6
Continuous
 62
     2
100
AcDbLine
 10
-122.0824742738118
 20
15.78207210725108
 30
0.0
 11
-122.0824742738118
 21
11.53207210725119
 31
0.0
  0
LINE
  5
258
330
6D
100
AcDbEntity
  8
1
  6
Continuous
 62
     6
100
AcDbLine
 10
-122.0824742738118
 20
7.28207210725108
 30
0.0
 11
-108.5824742738118
 21
7.28207210725108
 31
0.0
  0
LINE
  5
259
330
6D
100
AcDbEntity
  8
1
  6
Continuous
 62
     2
100
AcDbLine
 10
-108.5824742738118
 20
20.03207210725108
 30
0.0
 11
-122.0824742738118
 21
20.03207210725108
 31
0.0
  0
LINE
  5
25A
330
6D
100
AcDbEntity
  8
1
  6
Continuous
 62
     2
100
AcDbLine
 10
-108.5824742738118
 20
20.03207210725108
 30
0.0
 11
-108.5824742738118
 21
15.78207210725108
 31
0.0
  0
LINE
  5
25B
330
6D
100
AcDbEntity
  8
1
  6
Continuous
 62
     2
100
AcDbLine
 10
-108.5824742738118
 20
32.78207210725108
 30
0.0
 11
-122.0824742738118
 21
32.78207210725108
 31
0.0
  0
LINE
  5
25C
330
6D
100
AcDbEntity
  8
1
  6
Continuous
 62
     2
100
AcDbLine
 10
-108.5824742738118
 20
32.78207210725108
 30
0.0
 11
-108.5824742738118
 21
28.53207210725108
 31
0.0
  0
LINE
  5
25D
330
6D
100
AcDbEntity
  8
1
  6
Continuous
 62
     2
100
AcDbLine
 10
-108.5824742738118
 20
28.53207210725108
 30
0.0
 11
-122.0824742738118
 21
28.53207210725108
 31
0.0
  0
LINE
  5
25E
330
6D
100
AcDbEntity
  8
1
  6
Continuous
 62
     2
100
AcDbLine
 10
-108.5824742738118
 20
28.53207210725108
 30
0.0
 11
-108.5824742738118
 21
24.28207210725108
 31
0.0
  0
LINE
  5
25F
330
6D
100
AcDbEntity
  8
1
  6
Continuous
 62
     2
100
AcDbLine
 10
-108.5824742738118
 20
24.28207210725108
 30
0.0
 11
-122.0824742738118
 21
24.28207210725108
 31
0.0
  0
LINE
  5
260
330
6D
100
AcDbEntity
  8
1
  6
Continuous
 62
     2
100
AcDbLine
 10
-108.5824742738118
 20
24.28207210725108
 30
0.0
 11
-108.5824742738118
 21
20.03207210725108
 31
0.0
  0
LINE
  5
261
330
6D
100
AcDbEntity
  8
1
  6
Continuous
 62
     7
100
AcDbLine
 10
-108.5824742738118
 20
11.53207210725119
 30
0.0
 11
-95.08247427381191
 21
11.53207210725119
 31
0.0
  0
LINE
  5
262
330
6D
100
AcDbEntity
  8
1
  6
Continuous
 62
     2
100
AcDbLine
 10
-108.5824742738118
 20
11.53207210725119
 30
0.0
 11
-108.5824742738118
 21
7.28207210725108
 31
0.0
  0
LINE
  5
263
330
6D
100
AcDbEntity
  8
1
  6
Continuous
 62
     2
100
AcDbLine
 10
-108.5824742738118
 20
15.78207210725108
 30
0.0
 11
-122.0824742738118
 21
15.78207210725108
 31
0.0
  0
LINE
  5
264
330
6D
100
AcDbEntity
  8
1
  6
Continuous
 62
     2
100
AcDbLine
 10
-108.5824742738118
 20
15.78207210725108
 30
0.0
 11
-108.5824742738118
 21
11.53207210725119
 31
0.0
  0
LINE
  5
265
330
6D
100
AcDbEntity
  8
1
  6
Continuous
 62
     6
100
AcDbLine
 10
-108.5824742738118
 20
7.28207210725108
 30
0.0
 11
-95.53766974706191
 21
7.28207210725119
 31
0.0
  0
LINE
  5
266
330
6D
100
AcDbEntity
  8
1
  6
Continuous
 62
     2
100
AcDbLine
 10
-95.08247427381191
 20
20.03207210725108
 30
0.0
 11
-108.5824742738118
 21
20.03207210725108
 31
0.0
  0
LINE
  5
267
330
6D
100
AcDbEntity
  8
1
  6
Continuous
 62
     2
100
AcDbLine
 10
-95.08247427381191
 20
20.03207210725108
 30
0.0
 11
-95.08247427381191
 21
15.78207210725108
 31
0.0
  0
LINE
  5
268
330
6D
100
AcDbEntity
  8
1
  6
Continuous
 62
     2
100
AcDbLine
 10
-95.08247427381191
 20
32.78207210725108
 30
0.0
 11
-108.5824742738118
 21
32.78207210725108
 31
0.0
  0
LINE
  5
269
330
6D
100
AcDbEntity
  8
1
  6
Continuous
 62
     2
100
AcDbLine
 10
-95.08247427381191
 20
32.78207210725108
 30
0.0
 11
-95.08247427381191
 21
28.53207210725108
 31
0.0
  0
LINE
  5
26A
330
6D
100
AcDbEntity
  8
1
  6
Continuous
 62
     2
100
AcDbLine
 10
-95.08247427381191
 20
28.53207210725108
 30
0.0
 11
-108.5824742738118
 21
28.53207210725108
 31
0.0
  0
LINE
  5
26B
330
6D
100
AcDbEntity
  8
1
  6
Continuous
 62
     2
100
AcDbLine
 10
-95.08247427381191
 20
28.53207210725108
 30
0.0
 11
-95.08247427381191
 21
24.28207210725108
 31
0.0
  0
LINE
  5
26C
330
6D
100
AcDbEntity
  8
1
  6
Continuous
 62
     2
100
AcDbLine
 10
-95.08247427381191
 20
24.28207210725108
 30
0.0
 11
-108.5824742738118
 21
24.28207210725108
 31
0.0
  0
LINE
  5
26D
330
6D
100
AcDbEntity
  8
1
  6
Continuous
 62
     2
100
AcDbLine
 10
-95.08247427381191
 20
24.28207210725108
 30
0.0
 11
-95.08247427381191
 21
20.03207210725108
 31
0.0
  0
LINE
  5
26E
330
6D
100
AcDbEntity
  8
1
  6
Continuous
 62
     7
100
AcDbLine
 10
-95.08247427381191
 20
11.53207210725119
 30
0.0
 11
-81.58247427381181
 21
11.53207210725119
 31
0.0
  0
LINE
  5
26F
330
6D
100
AcDbEntity
  8
1
  6
Continuous
 62
     2
100
AcDbLine
 10
-95.08247427381191
 20
11.53207210725119
 30
0.0
 11
-95.08247427381191
 21
7.28207210725108
 31
0.0
  0
LINE
  5
270
330
6D
100
AcDbEntity
  8
1
  6
Continuous
 62
     2
100
AcDbLine
 10
-95.08247427381191
 20
15.78207210725108
 30
0.0
 11
-108.5824742738118
 21
15.78207210725108
 31
0.0
  0
LINE
  5
271
330
6D
100
AcDbEntity
  8
1
  6
Continuous
 62
     2
100
AcDbLine
 10
-95.08247427381191
 20
15.78207210725108
 30
0.0
 11
-95.08247427381191
 21
11.53207210725119
 31
0.0
  0
LINE
  5
272
330
6D
100
AcDbEntity
  8
1
  6
Continuous
 62
     6
100
AcDbLine
 10
-95.08247427381191
 20
7.28207210725108
 30
0.0
 11
-81.58247427381181
 21
7.28207210725108
 31
0.0
  0
LINE
  5
273
330
6D
100
AcDbEntity
  8
1
  6
Continuous
 62
     6
100
AcDbLine
 10
47.96233025293989
 20
24.28207210725108
 30
0.0
 11
47.96233025293941
 21
15.78207210725108
 31
0.0
  0
LINE
  5
274
330
6D
100
AcDbEntity
  8
1
  6
Continuous
 62
     7
100
AcDbLine
 10
-22.28247427381189
 20
28.53207210725102
 30
0.0
 11
-45.18247427381191
 21
28.53207210725108
 31
0.0
  0
LINE
  5
275
330
6D
100
AcDbEntity
  8
1
  6
Continuous
 62
     7
100
AcDbLine
 10
-58.68247427381193
 20
28.53207210725108
 30
0.0
 11
-45.18247427381191
 21
28.53207210725108
 31
0.0
  0
LINE
  5
276
330
6D
100
AcDbEntity
  8
1
  6
Continuous
 62
     6
100
AcDbLine
 10
-45.18247427381191
 20
7.28207210725108
 30
0.0
 11
-45.5376697470619
 21
7.28207210725119
 31
0.0
  0
LINE
  5
277
330
6D
100
AcDbEntity
  8
1
  6
Continuous
 62
     2
100
AcDbLine
 10
-184.337669747062
 20
28.53207210725108
 30
0.0
 11
-122.0824742738118
 21
28.53207210725108
 31
0.0
  0
LINE
  5
278
330
6D
100
AcDbEntity
  8
1
  6
Continuous
 62
     2
100
AcDbLine
 10
-184.337669747062
 20
32.78207210725108
 30
0.0
 11
-122.0824742738118
 21
32.78207210725108
 31
0.0
  0
LINE
  5
279
330
6D
100
AcDbEntity
  8
1
  6
Continuous
 62
     6
100
AcDbLine
 10
-122.0824742738118
 20
37.03207210725108
 30
0.0
 11
-184.337669747062
 21
37.03207210725108
 31
0.0
  0
LINE
  5
27A
330
6D
100
AcDbEntity
  8
1
  6
Continuous
 62
     6
100
AcDbLine
 10
-204.03766974706
 20
15.78207210725108
 30
0.0
 11
-204.03766974706
 21
20.03207210725108
 31
0.0
  0
LINE
  5
27B
330
6D
100
AcDbEntity
  8
1
  6
Continuous
 62
     6
100
AcDbLine
 10
-204.03766974706
 20
24.28207210725108
 30
0.0
 11
-204.03766974706
 21
28.53207210725108
 31
0.0
  0
LINE
  5
27C
330
6D
100
AcDbEntity
  8
1
  6
Continuous
 62
     6
100
AcDbLine
 10
-204.03766974706
 20
28.53207210725108
 30
0.0
 11
-204.03766974706
 21
32.78207210725108
 31
0.0
  0
LINE
  5
27D
330
6D
100
AcDbEntity
  8
1
  6
Continuous
 62
     6
100
AcDbLine
 10
-204.03766974706
 20
32.78207210725108
 30
0.0
 11
-204.03766974706
 21
37.03207210725108
 31
0.0
  0
LINE
  5
27E
330
6D
100
AcDbEntity
  8
1
  6
Continuous
 62
     6
100
AcDbLine
 10
-197.837669747062
 20
7.28207210725108
 30
0.0
 11
-204.03766974706
 21
7.28207210725119
 31
0.0
  0
LINE
  5
27F
330
6D
100
AcDbEntity
  8
1
  6
Continuous
 62
     7
100
AcDbLine
 10
-15.53766974705952
 20
24.28207210725108
 30
0.0
 11
-15.53766974705952
 21
15.78207210725108
 31
0.0
  0
LINE
  5
280
330
6D
100
AcDbEntity
  8
1
  6
Continuous
 62
     7
100
AcDbLine
 10
-15.53766974705952
 20
24.28207210725108
 30
0.0
 11
2.9623302529401
 21
24.28207210725108
 31
0.0
  0
LINE
  5
281
330
6D
100
AcDbEntity
  8
1
  6
Continuous
 62
     7
100
AcDbLine
 10
21.16233025294011
 20
28.53207210725119
 30
0.0
 11
-15.53766974705952
 21
28.53207210725106
 31
0.0
  0
LINE
  5
282
102
{ACAD_REACTORS
330
417
330
417
102
}
330
6D
100
AcDbEntity
  8
1
  6
Continuous
 62
     2
100
AcDbLine
 10
-65.35866475000213
 20
18.4320721072452
 30
0.0
 11
-65.35866475000213
 21
17.59873877391041
 31
0.0
  0
LINE
  5
283
102
{ACAD_REACTORS
330
417
330
417
102
}
330
6D
100
AcDbEntity
  8
1
  6
Continuous
 62
     2
100
AcDbLine
 10
-65.35866475000213
 20
17.59873877391041
 30
0.0
 11
-64.61036543027464
 21
17.59873877391041
 31
0.0
  0
LINE
  5
284
102
{ACAD_REACTORS
330
417
330
417
102
}
330
6D
100
AcDbEntity
  8
1
  6
Continuous
 62
     2
100
AcDbLine
 10
-64.61036543027464
 20
17.59873877391041
 30
0.0
 11
-64.61036543027464
 21
18.4320721072452
 31
0.0
  0
LINE
  5
285
102
{ACAD_REACTORS
330
417
330
417
102
}
330
6D
100
AcDbEntity
  8
1
  6
Continuous
 62
     2
100
AcDbLine
 10
-64.61036543027464
 20
18.4320721072452
 30
0.0
 11
-63.76002529421974
 21
18.4320721072452
 31
0.0
  0
LINE
  5
286
102
{ACAD_REACTORS
330
417
330
417
102
}
330
6D
100
AcDbEntity
  8
1
  6
Continuous
 62
     2
100
AcDbLine
 10
-63.76002529421974
 20
18.4320721072452
 30
0.0
 11
-63.76002529421974
 21
16.0511197262912
 31
0.0
  0
LINE
  5
287
102
{ACAD_REACTORS
330
417
330
417
102
}
330
6D
100
AcDbEntity
  8
1
  6
Continuous
 62
     2
100
AcDbLine
 10
-63.76002529421974
 20
16.0511197262912
 30
0.0
 11
-64.61036543027464
 21
16.0511197262912
 31
0.0
  0
LINE
  5
288
102
{ACAD_REACTORS
330
417
330
417
102
}
330
6D
100
AcDbEntity
  8
1
  6
Continuous
 62
     2
100
AcDbLine
 10
-64.61036543027464
 20
16.0511197262912
 30
0.0
 11
-64.61036543027464
 21
16.93547346778982
 31
0.0
  0
LINE
  5
289
102
{ACAD_REACTORS
330
417
330
417
102
}
330
6D
100
AcDbEntity
  8
1
  6
Continuous
 62
     2
100
AcDbLine
 10
-64.61036543027464
 20
16.93547346778982
 30
0.0
 11
-65.35866475000213
 21
16.93547346778982
 31
0.0
  0
LINE
  5
28A
102
{ACAD_REACTORS
330
417
330
417
102
}
330
6D
100
AcDbEntity
  8
1
  6
Continuous
 62
     2
100
AcDbLine
 10
-65.35866475000213
 20
16.93547346778982
 30
0.0
 11
-65.35866475000213
 21
16.0511197262912
 31
0.0
  0
LINE
  5
28B
102
{ACAD_REACTORS
330
417
330
417
102
}
330
6D
100
AcDbEntity
  8
1
  6
Continuous
 62
     2
100
AcDbLine
 10
-65.35866475000213
 20
16.0511197262912
 30
0.0
 11
-66.20900488605655
 21
16.0511197262912
 31
0.0
  0
LINE
  5
28C
102
{ACAD_REACTORS
330
417
330
417
102
}
330
6D
100
AcDbEntity
  8
1
  6
Continuous
 62
     2
100
AcDbLine
 10
-66.20900488605655
 20
18.4320721072452
 30
0.0
 11
-66.20900488605655
 21
16.0511197262912
 31
0.0
  0
LINE
  5
28D
102
{ACAD_REACTORS
330
417
330
417
102
}
330
6D
100
AcDbEntity
  8
1
  6
Continuous
 62
     2
100
AcDbLine
 10
-66.20900488605655
 20
18.4320721072452
 30
0.0
 11
-65.35866475000213
 21
18.4320721072452
 31
0.0
  0
LINE
  5
28E
102
{ACAD_REACTORS
330
418
330
418
102
}
330
6D
100
AcDbEntity
  8
1
  6
Continuous
 62
     2
100
AcDbLine
 10
-56.96954910374495
 20
16.0511197262912
 30
0.0
 11
-56.96954910374495
 21
18.4320721072452
 31
0.0
  0
LINE
  5
28F
102
{ACAD_REACTORS
330
418
330
418
102
}
330
6D
100
AcDbEntity
  8
1
  6
Continuous
 62
     2
100
AcDbLine
 10
-57.81988923979854
 20
16.0511197262912
 30
0.0
 11
-56.96954910374495
 21
16.0511197262912
 31
0.0
  0
LINE
  5
290
102
{ACAD_REACTORS
330
418
330
418
102
}
330
6D
100
AcDbEntity
  8
1
  6
Continuous
 62
     2
100
AcDbLine
 10
-58.70424298129583
 20
17.07152788955861
 30
0.0
 11
-57.81988923979854
 21
16.0511197262912
 31
0.0
  0
LINE
  5
291
102
{ACAD_REACTORS
330
418
330
418
102
}
330
6D
100
AcDbEntity
  8
1
  6
Continuous
 62
     2
100
AcDbLine
 10
-58.70424298129583
 20
16.0511197262912
 30
0.0
 11
-58.70424298129583
 21
17.07152788955861
 31
0.0
  0
LINE
  5
292
102
{ACAD_REACTORS
330
418
330
418
102
}
330
6D
100
AcDbEntity
  8
1
  6
Continuous
 62
     2
100
AcDbLine
 10
-59.55458311734944
 20
16.0511197262912
 30
0.0
 11
-58.70424298129583
 21
16.0511197262912
 31
0.0
  0
LINE
  5
293
102
{ACAD_REACTORS
330
418
330
418
102
}
330
6D
100
AcDbEntity
  8
1
  6
Continuous
 62
     2
100
AcDbLine
 10
-59.55458311734944
 20
18.4320721072452
 30
0.0
 11
-59.55458311734944
 21
16.0511197262912
 31
0.0
  0
LINE
  5
294
102
{ACAD_REACTORS
330
418
330
418
102
}
330
6D
100
AcDbEntity
  8
1
  6
Continuous
 62
     2
100
AcDbLine
 10
-58.70424298129583
 20
18.4320721072452
 30
0.0
 11
-59.55458311734944
 21
18.4320721072452
 31
0.0
  0
LINE
  5
295
102
{ACAD_REACTORS
330
418
330
418
102
}
330
6D
100
AcDbEntity
  8
1
  6
Continuous
 62
     2
100
AcDbLine
 10
-57.81988923979854
 20
17.41166394397803
 30
0.0
 11
-58.70424298129583
 21
18.4320721072452
 31
0.0
  0
LINE
  5
296
102
{ACAD_REACTORS
330
418
330
418
102
}
330
6D
100
AcDbEntity
  8
1
  6
Continuous
 62
     2
100
AcDbLine
 10
-57.81988923979854
 20
18.4320721072452
 30
0.0
 11
-57.81988923979854
 21
17.41166394397803
 31
0.0
  0
LINE
  5
297
102
{ACAD_REACTORS
330
418
330
418
102
}
330
6D
100
AcDbEntity
  8
1
  6
Continuous
 62
     2
100
AcDbLine
 10
-56.96954910374495
 20
18.4320721072452
 30
0.0
 11
-57.81988923979854
 21
18.4320721072452
 31
0.0
  0
LINE
  5
298
102
{ACAD_REACTORS
330
419
330
419
102
}
330
6D
100
AcDbEntity
  8
1
  6
Continuous
 62
     2
100
AcDbLine
 10
-56.49948107653373
 20
16.0511197262912
 30
0.0
 11
-56.49948107653373
 21
18.4320721072452
 31
0.0
  0
LINE
  5
299
102
{ACAD_REACTORS
330
41A
330
41A
102
}
330
6D
100
AcDbEntity
  8
1
  6
Continuous
 62
     2
100
AcDbLine
 10
-61.86149343684075
 20
14.49261632494378
 30
0.0
 11
-62.74584717833633
 21
15.51302448821113
 31
0.0
  0
LINE
  5
29A
102
{ACAD_REACTORS
330
41A
330
41A
102
}
330
6D
100
AcDbEntity
  8
1
  6
Continuous
 62
     2
100
AcDbLine
 10
-61.86149343684075
 20
15.51302448821113
 30
0.0
 11
-61.86149343684075
 21
14.49261632494378
 31
0.0
  0
LINE
  5
29B
102
{ACAD_REACTORS
330
41A
330
41A
102
}
330
6D
100
AcDbEntity
  8
1
  6
Continuous
 62
     2
100
AcDbLine
 10
-61.01115330078665
 20
15.51302448821113
 30
0.0
 11
-61.86149343684075
 21
15.51302448821113
 31
0.0
  0
LINE
  5
29C
102
{ACAD_REACTORS
330
41A
330
41A
102
}
330
6D
100
AcDbEntity
  8
1
  6
Continuous
 62
     2
100
AcDbLine
 10
-61.01115330078665
 20
13.13207210725702
 30
0.0
 11
-61.01115330078665
 21
15.51302448821113
 31
0.0
  0
LINE
  5
29D
102
{ACAD_REACTORS
330
41A
330
41A
102
}
330
6D
100
AcDbEntity
  8
1
  6
Continuous
 62
     2
100
AcDbLine
 10
-61.86149343684075
 20
13.13207210725702
 30
0.0
 11
-61.01115330078665
 21
13.13207210725702
 31
0.0
  0
LINE
  5
29E
102
{ACAD_REACTORS
330
41A
330
41A
102
}
330
6D
100
AcDbEntity
  8
1
  6
Continuous
 62
     2
100
AcDbLine
 10
-62.74584717833633
 20
14.15248027052419
 30
0.0
 11
-61.86149343684075
 21
13.13207210725702
 31
0.0
  0
LINE
  5
29F
102
{ACAD_REACTORS
330
41A
330
41A
102
}
330
6D
100
AcDbEntity
  8
1
  6
Continuous
 62
     2
100
AcDbLine
 10
-62.74584717833633
 20
13.13207210725702
 30
0.0
 11
-62.74584717833633
 21
14.15248027052419
 31
0.0
  0
LINE
  5
2A0
102
{ACAD_REACTORS
330
41A
330
41A
102
}
330
6D
100
AcDbEntity
  8
1
  6
Continuous
 62
     2
100
AcDbLine
 10
-63.59618731439204
 20
13.13207210725702
 30
0.0
 11
-62.74584717833633
 21
13.13207210725702
 31
0.0
  0
LINE
  5
2A1
102
{ACAD_REACTORS
330
41A
330
41A
102
}
330
6D
100
AcDbEntity
  8
1
  6
Continuous
 62
     2
100
AcDbLine
 10
-63.59618731439204
 20
15.51302448821113
 30
0.0
 11
-63.59618731439204
 21
13.13207210725702
 31
0.0
  0
LINE
  5
2A2
102
{ACAD_REACTORS
330
41A
330
41A
102
}
330
6D
100
AcDbEntity
  8
1
  6
Continuous
 62
     2
100
AcDbLine
 10
-62.74584717833633
 20
15.51302448821113
 30
0.0
 11
-63.59618731439204
 21
15.51302448821113
 31
0.0
  0
LINE
  5
2A3
102
{ACAD_REACTORS
330
41B
330
41B
102
}
330
6D
100
AcDbEntity
  8
1
  6
Continuous
 62
     2
100
AcDbLine
 10
-58.60230976337203
 20
14.90077959024981
 30
0.0
 11
-58.60230976337203
 21
15.51302448821113
 31
0.0
  0
LINE
  5
2A4
102
{ACAD_REACTORS
330
41B
330
41B
102
}
330
6D
100
AcDbEntity
  8
1
  6
Continuous
 62
     2
100
AcDbLine
 10
-59.18054105588804
 20
14.90077959024981
 30
0.0
 11
-58.60230976337203
 21
14.90077959024981
 31
0.0
  0
LINE
  5
2A5
102
{ACAD_REACTORS
330
41B
330
41B
102
}
330
6D
100
AcDbEntity
  8
1
  6
Continuous
 62
     2
100
AcDbLine
 10
-59.18054105588804
 20
13.13207210725702
 30
0.0
 11
-59.18054105588804
 21
14.90077959024981
 31
0.0
  0
LINE
  5
2A6
102
{ACAD_REACTORS
330
41B
330
41B
102
}
330
6D
100
AcDbEntity
  8
1
  6
Continuous
 62
     2
100
AcDbLine
 10
-60.03088119194314
 20
13.13207210725702
 30
0.0
 11
-59.18054105588804
 21
13.13207210725702
 31
0.0
  0
LINE
  5
2A7
102
{ACAD_REACTORS
330
41B
330
41B
102
}
330
6D
100
AcDbEntity
  8
1
  6
Continuous
 62
     2
100
AcDbLine
 10
-60.03088119194314
 20
14.90077959024981
 30
0.0
 11
-60.03088119194314
 21
13.13207210725702
 31
0.0
  0
LINE
  5
2A8
102
{ACAD_REACTORS
330
41B
330
41B
102
}
330
6D
100
AcDbEntity
  8
1
  6
Continuous
 62
     2
100
AcDbLine
 10
-60.60911248445915
 20
14.90077959024981
 30
0.0
 11
-60.03088119194314
 21
14.90077959024981
 31
0.0
  0
LINE
  5
2A9
102
{ACAD_REACTORS
330
41B
330
41B
102
}
330
6D
100
AcDbEntity
  8
1
  6
Continuous
 62
     2
100
AcDbLine
 10
-60.60911248445915
 20
15.51302448821113
 30
0.0
 11
-60.60911248445915
 21
14.90077959024981
 31
0.0
  0
LINE
  5
2AA
102
{ACAD_REACTORS
330
41B
330
41B
102
}
330
6D
100
AcDbEntity
  8
1
  6
Continuous
 62
     2
100
AcDbLine
 10
-58.60230976337203
 20
15.51302448821113
 30
0.0
 11
-60.60911248445915
 21
15.51302448821113
 31
0.0
  0
LINE
  5
2AB
102
{ACAD_REACTORS
330
41C
330
41C
102
}
330
6D
100
AcDbEntity
  8
1
  6
Continuous
 62
     2
100
AcDbLine
 10
-57.71591520554904
 20
15.51302448821113
 30
0.0
 11
-56.83156146405184
 21
15.51302448821113
 31
0.0
  0
LINE
  5
2AC
102
{ACAD_REACTORS
330
41C
330
41C
102
}
330
6D
100
AcDbEntity
  8
1
  6
Continuous
 62
     2
100
AcDbLine
 10
-56.83156146405184
 20
15.51302448821113
 30
0.0
 11
-55.83496282459643
 21
13.13207210725702
 31
0.0
  0
LINE
  5
2AD
102
{ACAD_REACTORS
330
41C
330
41C
102
}
330
6D
100
AcDbEntity
  8
1
  6
Continuous
 62
     2
100
AcDbLine
 10
-55.83496282459643
 20
13.13207210725702
 30
0.0
 11
-56.71931656609282
 21
13.13207210725702
 31
0.0
  0
LINE
  5
2AE
102
{ACAD_REACTORS
330
41C
330
41C
102
}
330
6D
100
AcDbEntity
  8
1
  6
Continuous
 62
     2
100
AcDbLine
 10
-56.71931656609282
 20
13.13207210725702
 30
0.0
 11
-56.87008038039053
 21
13.55384081474031
 31
0.0
  0
LINE
  5
2AF
102
{ACAD_REACTORS
330
41C
330
41C
102
}
330
6D
100
AcDbEntity
  8
1
  6
Continuous
 62
     2
100
AcDbLine
 10
-57.67739628921075
 20
13.55384081474031
 30
0.0
 11
-56.87008038039053
 21
13.55384081474031
 31
0.0
  0
LINE
  5
2B0
102
{ACAD_REACTORS
330
41C
330
41C
102
}
330
6D
100
AcDbEntity
  8
1
  6
Continuous
 62
     2
100
AcDbLine
 10
-57.82816010350794
 20
13.13207210725702
 30
0.0
 11
-57.67739628921075
 21
13.55384081474031
 31
0.0
  0
LINE
  5
2B1
102
{ACAD_REACTORS
330
41C
330
41C
102
}
330
6D
100
AcDbEntity
  8
1
  6
Continuous
 62
     2
100
AcDbLine
 10
-58.71251384500493
 20
13.13207210725702
 30
0.0
 11
-57.82816010350794
 21
13.13207210725702
 31
0.0
  0
LINE
  5
2B2
102
{ACAD_REACTORS
330
41C
330
41C
102
}
330
6D
100
AcDbEntity
  8
1
  6
Continuous
 62
     2
100
AcDbLine
 10
-57.71591520554904
 20
15.51302448821113
 30
0.0
 11
-58.71251384500493
 21
13.13207210725702
 31
0.0
  0
LINE
  5
2B3
102
{ACAD_REACTORS
330
41C
330
41C
102
}
330
6D
100
AcDbEntity
  8
1
  6
Continuous
 62
     2
100
AcDbLine
 10
-57.48772568412545
 20
14.08445305963769
 30
0.0
 11
-57.27373833480053
 21
14.68309251542169
 31
0.0
  0
LINE
  5
2B4
102
{ACAD_REACTORS
330
41C
330
41C
102
}
330
6D
100
AcDbEntity
  8
1
  6
Continuous
 62
     2
100
AcDbLine
 10
-57.05975098547435
 20
14.08445305963769
 30
0.0
 11
-57.27373833480053
 21
14.68309251542169
 31
0.0
  0
LINE
  5
2B5
102
{ACAD_REACTORS
330
41C
330
41C
102
}
330
6D
100
AcDbEntity
  8
1
  6
Continuous
 62
     2
100
AcDbLine
 10
-57.48772568412545
 20
14.08445305963769
 30
0.0
 11
-57.05975098547435
 21
14.08445305963769
 31
0.0
  0
LINE
  5
2B6
102
{ACAD_REACTORS
330
414
330
414
102
}
330
6D
100
AcDbEntity
  8
1
  6
Continuous
 62
     2
100
AcDbLine
 10
-67.63012484532894
 20
18.4320721072452
 30
0.0
 11
-67.34643165085564
 21
18.4320721072452
 31
0.0
  0
LINE
  5
2B7
102
{ACAD_REACTORS
330
414
330
414
102
}
330
6D
100
AcDbEntity
  8
1
  6
Continuous
 62
     2
100
AcDbLine
 10
-67.48122363301854
 20
16.7864060518348
 30
0.0
 11
-67.34643165085564
 21
16.7864060518348
 31
0.0
  0
LINE
  5
2B8
102
{ACAD_REACTORS
330
414
330
414
102
}
330
6D
100
AcDbEntity
  8
1
  6
Continuous
 62
     2
100
AcDbLine
 10
-67.90356270918593
 20
16.7864060518348
 30
0.0
 11
-67.48122363301854
 21
16.7864060518348
 31
0.0
  0
LINE
  5
2B9
102
{ACAD_REACTORS
330
414
330
414
102
}
330
6D
100
AcDbEntity
  8
1
  6
Continuous
 62
     2
100
AcDbLine
 10
-67.90356270918593
 20
16.0511197262912
 30
0.0
 11
-67.90356270918593
 21
16.7864060518348
 31
0.0
  0
LINE
  5
2BA
102
{ACAD_REACTORS
330
414
330
414
102
}
330
6D
100
AcDbEntity
  8
1
  6
Continuous
 62
     2
100
AcDbLine
 10
-68.05246392149535
 20
16.0511197262912
 30
0.0
 11
-67.90356270918593
 21
16.0511197262912
 31
0.0
  0
LINE
  5
2BB
102
{ACAD_REACTORS
330
414
330
414
102
}
330
6D
100
AcDbEntity
  8
1
  6
Continuous
 62
     2
100
AcDbLine
 10
-68.78791645068173
 20
16.0511197262912
 30
0.0
 11
-68.05246392149535
 21
16.0511197262912
 31
0.0
  0
LINE
  5
2BC
102
{ACAD_REACTORS
330
414
330
414
102
}
330
6D
100
AcDbEntity
  8
1
  6
Continuous
 62
     2
100
AcDbLine
 10
-68.78791645068173
 20
18.4320721072452
 30
0.0
 11
-68.78791645068173
 21
16.0511197262912
 31
0.0
  0
LINE
  5
2BD
102
{ACAD_REACTORS
330
414
330
414
102
}
330
6D
100
AcDbEntity
  8
1
  6
Continuous
 62
     2
100
AcDbLine
 10
-68.78791645068173
 20
18.4320721072452
 30
0.0
 11
-67.63012484532894
 21
18.4320721072452
 31
0.0
  0
LINE
  5
2BE
102
{ACAD_REACTORS
330
414
330
414
102
}
330
6D
100
AcDbEntity
  8
1
  6
Continuous
 62
     2
100
AcDbLine
 10
-67.75633966659954
 20
17.3648387571865
 30
0.0
 11
-67.70115689439004
 21
17.3648387571865
 31
0.0
  0
LINE
  5
2BF
102
{ACAD_REACTORS
330
414
330
414
102
}
330
6D
100
AcDbEntity
  8
1
  6
Continuous
 62
     2
100
AcDbLine
 10
-67.75633966659954
 20
17.3648387571865
 30
0.0
 11
-67.90356270918593
 21
17.3648387571865
 31
0.0
  0
LINE
  5
2C0
102
{ACAD_REACTORS
330
414
330
414
102
}
330
6D
100
AcDbEntity
  8
1
  6
Continuous
 62
     2
100
AcDbLine
 10
-67.90356270918593
 20
17.3648387571865
 30
0.0
 11
-67.90356270918593
 21
17.91507082434859
 31
0.0
  0
LINE
  5
2C1
102
{ACAD_REACTORS
330
414
330
414
102
}
330
6D
100
AcDbEntity
  8
1
  6
Continuous
 62
     2
100
AcDbLine
 10
-67.90356270918593
 20
17.91507082434859
 30
0.0
 11
-67.75633966659954
 21
17.91507082434859
 31
0.0
  0
LINE
  5
2C2
102
{ACAD_REACTORS
330
414
330
414
102
}
330
6D
100
AcDbEntity
  8
1
  6
Continuous
 62
     2
100
AcDbLine
 10
-67.75633966659954
 20
17.91507082434859
 30
0.0
 11
-67.70115689439004
 21
17.91507082434859
 31
0.0
  0
LINE
  5
2C3
102
{ACAD_REACTORS
330
413
330
413
102
}
330
6D
100
AcDbEntity
  8
1
  6
Continuous
 62
     2
100
AcDbLine
 10
-69.32805250510384
 20
18.09873877391223
 30
0.0
 11
-69.32805250510384
 21
13.46540544058999
 31
0.0
  0
LINE
  5
2C4
102
{ACAD_REACTORS
330
413
330
413
102
}
330
6D
100
AcDbEntity
  8
1
  6
Continuous
 62
     2
100
AcDbLine
 10
-69.66138583843654
 20
13.13207210725702
 30
0.0
 11
-74.19471917176985
 21
13.13207210725702
 31
0.0
  0
LINE
  5
2C5
102
{ACAD_REACTORS
330
413
330
413
102
}
330
6D
100
AcDbEntity
  8
1
  6
Continuous
 62
     2
100
AcDbLine
 10
-74.52805250510345
 20
18.09873877391223
 30
0.0
 11
-74.52805250510345
 21
13.46540544058999
 31
0.0
  0
LINE
  5
2C6
102
{ACAD_REACTORS
330
413
330
413
102
}
330
6D
100
AcDbEntity
  8
1
  6
Continuous
 62
     2
100
AcDbLine
 10
-74.19471917176985
 20
18.4320721072452
 30
0.0
 11
-69.66138583843654
 21
18.4320721072452
 31
0.0
  0
LINE
  5
2C7
102
{ACAD_REACTORS
330
413
330
413
102
}
330
6D
100
AcDbEntity
  8
1
  6
Continuous
 62
     2
100
AcDbLine
 10
-73.79286731991894
 20
17.88392395910878
 30
0.0
 11
-72.48916361621454
 21
17.88392395910878
 31
0.0
  0
LINE
  5
2C8
102
{ACAD_REACTORS
330
413
330
413
102
}
330
6D
100
AcDbEntity
  8
1
  6
Continuous
 62
     2
100
AcDbLine
 10
-72.22434880139944
 20
17.61910914429049
 30
0.0
 11
-72.22434880139944
 21
17.1251143313265
 31
0.0
  0
LINE
  5
2C9
102
{ACAD_REACTORS
330
413
330
413
102
}
330
6D
100
AcDbEntity
  8
1
  6
Continuous
 62
     2
100
AcDbLine
 10
-72.22434880139944
 20
15.17977062392381
 30
0.0
 11
-72.22434880139944
 21
13.87096099613879
 31
0.0
  0
LINE
  5
2CA
102
{ACAD_REACTORS
330
413
330
413
102
}
330
6D
100
AcDbEntity
  8
1
  6
Continuous
 62
     2
100
AcDbLine
 10
-72.48916361621454
 20
13.6061461813342
 30
0.0
 11
-73.79286731991894
 21
13.6061461813342
 31
0.0
  0
LINE
  5
2CB
102
{ACAD_REACTORS
330
413
330
413
102
}
330
6D
100
AcDbEntity
  8
1
  6
Continuous
 62
     2
100
AcDbLine
 10
-74.05768213473294
 20
17.6191091442997
 30
0.0
 11
-74.05768213473294
 21
13.87096099613879
 31
0.0
  0
LINE
  5
2CC
102
{ACAD_REACTORS
330
413
330
413
102
}
330
6D
100
AcDbEntity
  8
1
  6
Continuous
 62
     2
100
AcDbLine
 10
-71.81694139399204
 20
14.68577581095073
 30
0.0
 11
-71.81694139399204
 21
15.17977062391489
 31
0.0
  0
LINE
  5
2CD
102
{ACAD_REACTORS
330
413
330
413
102
}
330
6D
100
AcDbEntity
  8
1
  6
Continuous
 62
     2
100
AcDbLine
 10
-71.81694139399204
 20
17.6191091442997
 30
0.0
 11
-71.81694139399204
 21
17.1251143313265
 31
0.0
  0
LINE
  5
2CE
102
{ACAD_REACTORS
330
413
330
413
102
}
330
6D
100
AcDbEntity
  8
1
  6
Continuous
 62
     2
100
AcDbLine
 10
-71.51138583843743
 20
17.88392395910878
 30
0.0
 11
-71.55212657917784
 21
17.88392395910878
 31
0.0
  0
LINE
  5
2CF
102
{ACAD_REACTORS
330
413
330
413
102
}
330
6D
100
AcDbEntity
  8
1
  6
Continuous
 62
     2
100
AcDbLine
 10
-71.51138583843743
 20
14.42096099614619
 30
0.0
 11
-71.55212657917784
 21
14.42096099614619
 31
0.0
  0
LINE
  5
2D0
102
{ACAD_REACTORS
330
415
330
415
102
}
330
6D
100
AcDbEntity
  8
1
  6
Continuous
 62
     2
100
AcDbLine
 10
-62.16755213531994
 20
18.4320721072452
 30
0.0
 11
-62.06551131899384
 21
18.4320721072452
 31
0.0
  0
LINE
  5
2D1
102
{ACAD_REACTORS
330
415
330
415
102
}
330
6D
100
AcDbEntity
  8
1
  6
Continuous
 62
     2
100
AcDbLine
 10
-60.02465114456064
 20
18.4320721072452
 30
0.0
 11
-62.06551131899384
 21
18.4320721072452
 31
0.0
  0
LINE
  5
2D2
102
{ACAD_REACTORS
330
415
330
415
102
}
330
6D
100
AcDbEntity
  8
1
  6
Continuous
 62
     2
100
AcDbLine
 10
-60.02465114456064
 20
17.88785442017061
 30
0.0
 11
-60.02465114456064
 21
18.4320721072452
 31
0.0
  0
LINE
  5
2D3
102
{ACAD_REACTORS
330
415
330
415
102
}
330
6D
100
AcDbEntity
  8
1
  6
Continuous
 62
     2
100
AcDbLine
 10
-60.97703209694194
 20
17.88785442017061
 30
0.0
 11
-60.02465114456064
 21
17.88785442017061
 31
0.0
  0
LINE
  5
2D4
102
{ACAD_REACTORS
330
415
330
415
102
}
330
6D
100
AcDbEntity
  8
1
  6
Continuous
 62
     2
100
AcDbLine
 10
-60.97703209694194
 20
17.51370476030561
 30
0.0
 11
-60.97703209694194
 21
17.88785442017061
 31
0.0
  0
LINE
  5
2D5
102
{ACAD_REACTORS
330
415
330
415
102
}
330
6D
100
AcDbEntity
  8
1
  6
Continuous
 62
     2
100
AcDbLine
 10
-60.02465114456064
 20
17.51370476030561
 30
0.0
 11
-60.97703209694194
 21
17.51370476030561
 31
0.0
  0
LINE
  5
2D6
102
{ACAD_REACTORS
330
415
330
415
102
}
330
6D
100
AcDbEntity
  8
1
  6
Continuous
 62
     2
100
AcDbLine
 10
-60.02465114456064
 20
16.96948707323079
 30
0.0
 11
-60.02465114456064
 21
17.51370476030561
 31
0.0
  0
LINE
  5
2D7
102
{ACAD_REACTORS
330
415
330
415
102
}
330
6D
100
AcDbEntity
  8
1
  6
Continuous
 62
     2
100
AcDbLine
 10
-60.97703209694194
 20
16.96948707323079
 30
0.0
 11
-60.02465114456064
 21
16.96948707323079
 31
0.0
  0
LINE
  5
2D8
102
{ACAD_REACTORS
330
415
330
415
102
}
330
6D
100
AcDbEntity
  8
1
  6
Continuous
 62
     2
100
AcDbLine
 10
-60.97703209694194
 20
16.59533741336591
 30
0.0
 11
-60.97703209694194
 21
16.96948707323079
 31
0.0
  0
LINE
  5
2D9
102
{ACAD_REACTORS
330
415
330
415
102
}
330
6D
100
AcDbEntity
  8
1
  6
Continuous
 62
     2
100
AcDbLine
 10
-60.02465114456064
 20
16.59533741336591
 30
0.0
 11
-60.97703209694194
 21
16.59533741336591
 31
0.0
  0
LINE
  5
2DA
102
{ACAD_REACTORS
330
415
330
415
102
}
330
6D
100
AcDbEntity
  8
1
  6
Continuous
 62
     2
100
AcDbLine
 10
-60.02465114456064
 20
16.0511197262912
 30
0.0
 11
-60.02465114456064
 21
16.59533741336591
 31
0.0
  0
LINE
  5
2DB
102
{ACAD_REACTORS
330
415
330
415
102
}
330
6D
100
AcDbEntity
  8
1
  6
Continuous
 62
     2
100
AcDbLine
 10
-60.02465114456064
 20
16.0511197262912
 30
0.0
 11
-62.06551131899384
 21
16.0511197262912
 31
0.0
  0
LINE
  5
2DC
102
{ACAD_REACTORS
330
415
330
415
102
}
330
6D
100
AcDbEntity
  8
1
  6
Continuous
 62
     2
100
AcDbLine
 10
-62.06551131899384
 20
16.0511197262912
 30
0.0
 11
-62.16755213531994
 21
16.0511197262912
 31
0.0
  0
LINE
  5
2DD
102
{ACAD_REACTORS
330
416
330
416
102
}
330
6D
100
AcDbEntity
  8
1
  6
Continuous
 62
     2
100
AcDbLine
 10
-65.29070344395504
 20
15.51302448821113
 30
0.0
 11
-65.18866262762774
 21
15.51302448821113
 31
0.0
  0
LINE
  5
2DE
102
{ACAD_REACTORS
330
416
330
416
102
}
330
6D
100
AcDbEntity
  8
1
  6
Continuous
 62
     2
100
AcDbLine
 10
-65.18866262762774
 20
13.13207210725702
 30
0.0
 11
-65.29070344395504
 21
13.13207210725702
 31
0.0
  0
LINE
  5
2DF
330
6D
100
AcDbEntity
  8
1
  6
Continuous
 62
     2
100
AcDbLine
 10
-66.88315454592065
 20
14.69669795759901
 30
0.0
 11
-66.88315454592065
 21
15.37697006644228
 31
0.0
  0
LINE
  5
2E0
330
6D
100
AcDbEntity
  8
1
  6
Continuous
 62
     2
100
AcDbLine
 10
-66.88315454592065
 20
13.94839863786913
 30
0.0
 11
-66.88315454592065
 21
13.26812652902569
 31
0.0
  0
LINE
  5
2E1
330
6D
100
AcDbEntity
  8
1
  6
Continuous
 62
     7
100
AcDbLine
 10
21.16233025294011
 20
28.53207210725119
 30
0.0
 11
30.080738534619
 21
28.53207210725108
 31
0.0
  0
LINE
  5
2E2
330
6D
100
AcDbEntity
  8
1
  6
Continuous
 62
     7
100
AcDbLine
 10
-45.18247427381191
 20
24.28207210725108
 30
0.0
 11
-15.53766974705952
 21
24.28207210725108
 31
0.0
  0
LINE
  5
2E3
330
6D
100
AcDbEntity
  8
1
  6
Continuous
 62
     7
100
AcDbLine
 10
-45.18247427381191
 20
15.78207210725108
 30
0.0
 11
-15.53766974705952
 21
15.78207210725108
 31
0.0
  0
LINE
  5
2E4
330
6D
100
AcDbEntity
  8
1
  6
Continuous
 62
     7
100
AcDbLine
 10
-81.58247427381181
 20
37.03207210725108
 30
0.0
 11
-81.58247427381181
 21
32.78207210725108
 31
0.0
  0
LINE
  5
2E5
330
6D
100
AcDbEntity
  8
1
  6
Continuous
 62
     7
100
AcDbLine
 10
-81.58247427381181
 20
11.53207210725119
 30
0.0
 11
-81.58247427381181
 21
7.28207210725108
 31
0.0
  0
LINE
  5
2E6
330
6D
100
AcDbEntity
  8
1
  6
Continuous
 62
     7
100
AcDbLine
 10
-45.18247427381191
 20
11.53207210725119
 30
0.0
 11
-45.18247427381191
 21
7.28207210725108
 31
0.0
  0
LINE
  5
2E7
330
6D
100
AcDbEntity
  8
1
  6
Continuous
 62
     7
100
AcDbLine
 10
-45.18247427381191
 20
24.28207210725108
 30
0.0
 11
-58.68247427381193
 21
24.28207210725108
 31
0.0
  0
LINE
  5
2E8
330
6D
100
AcDbEntity
  8
1
  6
Continuous
 62
     7
100
AcDbLine
 10
-81.58247427381181
 20
28.53207210725108
 30
0.0
 11
-72.18247427381183
 21
28.53207210725108
 31
0.0
  0
LINE
  5
2E9
330
6D
100
AcDbEntity
  8
1
  6
Continuous
 62
     7
100
AcDbLine
 10
-72.18247427381183
 20
32.78207210725108
 30
0.0
 11
-72.18247427381183
 21
28.53207210725108
 31
0.0
  0
LINE
  5
2EA
330
6D
100
AcDbEntity
  8
1
  6
Continuous
 62
     7
100
AcDbLine
 10
-58.68247427381193
 20
32.78207210725108
 30
0.0
 11
-58.68247427381193
 21
28.53207210725108
 31
0.0
  0
LINE
  5
2EB
330
6D
100
AcDbEntity
  8
1
  6
Continuous
 62
     7
100
AcDbLine
 10
-81.58247427381181
 20
15.78207210725108
 30
0.0
 11
-81.58247427381181
 21
11.53207210725119
 31
0.0
  0
LINE
  5
2EC
330
6D
100
AcDbEntity
  8
1
  6
Continuous
 62
     7
100
AcDbLine
 10
-81.58247427381181
 20
20.03207210725108
 30
0.0
 11
-81.58247427381181
 21
15.78207210725108
 31
0.0
  0
LINE
  5
2ED
330
6D
100
AcDbEntity
  8
1
  6
Continuous
 62
     7
100
AcDbLine
 10
-45.18247427381191
 20
15.78207210725108
 30
0.0
 11
-45.18247427381191
 21
11.53207210725119
 31
0.0
  0
LINE
  5
2EE
330
6D
100
AcDbEntity
  8
1
  6
Continuous
 62
     7
100
AcDbLine
 10
-204.03766974706
 20
11.53207210725119
 30
0.0
 11
-197.837669747062
 21
11.53207210725119
 31
0.0
  0
LINE
  5
2EF
330
6D
100
AcDbEntity
  8
1
  6
Continuous
 62
     2
100
AcDbLine
 10
-204.03766974706
 20
20.03207210725108
 30
0.0
 11
-197.837669747062
 21
20.03207210725108
 31
0.0
  0
LINE
  5
2F0
330
6D
100
AcDbEntity
  8
1
  6
Continuous
 62
     2
100
AcDbLine
 10
-204.03766974706
 20
15.78207210725108
 30
0.0
 11
-197.837669747062
 21
15.78207210725108
 31
0.0
  0
LINE
  5
2F1
330
6D
100
AcDbEntity
  8
1
  6
Continuous
 62
     2
100
AcDbLine
 10
-197.837669747062
 20
7.28207210725108
 30
0.0
 11
-197.837669747062
 21
11.53207210725119
 31
0.0
  0
LINE
  5
2F2
330
6D
100
AcDbEntity
  8
1
  6
Continuous
 62
     7
100
AcDbLine
 10
-72.18247427381183
 20
37.03207210725108
 30
0.0
 11
-72.18247427381183
 21
32.78207210725108
 31
0.0
  0
LINE
  5
2F3
330
6D
100
AcDbEntity
  8
1
  6
Continuous
 62
     7
100
AcDbLine
 10
-58.68247427381193
 20
37.03207210725108
 30
0.0
 11
-58.68247427381193
 21
32.78207210725108
 31
0.0
  0
LINE
  5
2F4
330
6D
100
AcDbEntity
  8
1
  6
Continuous
 62
     7
100
AcDbLine
 10
-45.18247427381191
 20
28.53207210725108
 30
0.0
 11
-45.18247427381191
 21
24.28207210725108
 31
0.0
  0
LINE
  5
2F5
330
6D
100
AcDbEntity
  8
1
  6
Continuous
 62
     7
100
AcDbLine
 10
-81.58247427381181
 20
32.78207210725108
 30
0.0
 11
-81.58247427381181
 21
28.53207210725108
 31
0.0
  0
LINE
  5
2F6
330
6D
100
AcDbEntity
  8
1
  6
Continuous
 62
     2
100
AcDbLine
 10
-204.03766974706
 20
28.53207210725108
 30
0.0
 11
-197.837669747062
 21
28.53207210725108
 31
0.0
  0
LINE
  5
2F7
330
6D
100
AcDbEntity
  8
1
  6
Continuous
 62
     7
100
AcDbLine
 10
-81.58247427381181
 20
28.53207210725108
 30
0.0
 11
-81.58247427381181
 21
24.28207210725108
 31
0.0
  0
LINE
  5
2F8
330
6D
100
AcDbEntity
  8
1
  6
Continuous
 62
     7
100
AcDbLine
 10
-81.58247427381181
 20
24.28207210725108
 30
0.0
 11
-81.58247427381181
 21
20.03207210725108
 31
0.0
  0
LINE
  5
2F9
330
6D
100
AcDbEntity
  8
1
  6
Continuous
 62
     6
100
AcDbLine
 10
-72.18247427381183
 20
37.03207210725108
 30
0.0
 11
-58.68247427381193
 21
37.03207210725108
 31
0.0
  0
LINE
  5
2FA
330
6D
100
AcDbEntity
  8
1
  6
Continuous
 62
     7
100
AcDbLine
 10
-45.18247427381191
 20
37.03207210725108
 30
0.0
 11
-45.18247427381191
 21
32.78207210725108
 31
0.0
  0
LINE
  5
2FB
330
6D
100
AcDbEntity
  8
1
  6
Continuous
 62
     6
100
AcDbLine
 10
-58.68247427381193
 20
37.03207210725108
 30
0.0
 11
-45.18247427381191
 21
37.03207210725108
 31
0.0
  0
LINE
  5
2FC
330
6D
100
AcDbEntity
  8
1
  6
Continuous
 62
     7
100
AcDbLine
 10
-45.18247427381191
 20
15.78207210725108
 30
0.0
 11
-45.18247427381191
 21
20.03207210725108
 31
0.0
  0
LINE
  5
2FD
330
6D
100
AcDbEntity
  8
1
  6
Continuous
 62
     2
100
AcDbLine
 10
-197.837669747062
 20
11.53207210725119
 30
0.0
 11
-197.837669747062
 21
15.78207210725108
 31
0.0
  0
LINE
  5
2FE
330
6D
100
AcDbEntity
  8
1
  6
Continuous
 62
     7
100
AcDbLine
 10
-197.837669747062
 20
11.53207210725119
 30
0.0
 11
-184.337669747062
 21
11.53207210725119
 31
0.0
  0
LINE
  5
2FF
330
6D
100
AcDbEntity
  8
1
  6
Continuous
 62
     2
100
AcDbLine
 10
-197.837669747062
 20
20.03207210725108
 30
0.0
 11
-197.837669747062
 21
24.28207210725108
 31
0.0
  0
LINE
  5
300
330
6D
100
AcDbEntity
  8
1
  6
Continuous
 62
     2
100
AcDbLine
 10
-197.837669747062
 20
15.78207210725108
 30
0.0
 11
-197.837669747062
 21
20.03207210725108
 31
0.0
  0
LINE
  5
301
330
6D
100
AcDbEntity
  8
1
  6
Continuous
 62
     2
100
AcDbLine
 10
-81.58247427381181
 20
20.03207210725108
 30
0.0
 11
-95.08247427381191
 21
20.03207210725108
 31
0.0
  0
LINE
  5
302
330
6D
100
AcDbEntity
  8
1
  6
Continuous
 62
     2
100
AcDbLine
 10
-81.58247427381181
 20
15.78207210725108
 30
0.0
 11
-95.08247427381191
 21
15.78207210725108
 31
0.0
  0
LINE
  5
303
330
6D
100
AcDbEntity
  8
1
  6
Continuous
 62
     6
100
AcDbLine
 10
-81.58247427381181
 20
37.03207210725108
 30
0.0
 11
-95.08247427381191
 21
37.03207210725108
 31
0.0
  0
LINE
  5
304
330
6D
100
AcDbEntity
  8
1
  6
Continuous
 62
     2
100
AcDbLine
 10
-197.837669747062
 20
32.78207210725108
 30
0.0
 11
-204.03766974706
 21
32.78207210725108
 31
0.0
  0
LINE
  5
305
330
6D
100
AcDbEntity
  8
1
  6
Continuous
 62
     2
100
AcDbLine
 10
-197.837669747062
 20
32.78207210725108
 30
0.0
 11
-197.837669747062
 21
37.03207210725108
 31
0.0
  0
LINE
  5
306
330
6D
100
AcDbEntity
  8
1
  6
Continuous
 62
     2
100
AcDbLine
 10
-81.58247427381181
 20
32.78207210725108
 30
0.0
 11
-95.08247427381191
 21
32.78207210725108
 31
0.0
  0
LINE
  5
307
330
6D
100
AcDbEntity
  8
1
  6
Continuous
 62
     2
100
AcDbLine
 10
-197.837669747062
 20
28.53207210725108
 30
0.0
 11
-197.837669747062
 21
32.78207210725108
 31
0.0
  0
LINE
  5
308
330
6D
100
AcDbEntity
  8
1
  6
Continuous
 62
     2
100
AcDbLine
 10
-81.58247427381181
 20
28.53207210725108
 30
0.0
 11
-95.08247427381191
 21
28.53207210725108
 31
0.0
  0
LINE
  5
309
330
6D
100
AcDbEntity
  8
1
  6
Continuous
 62
     2
100
AcDbLine
 10
-197.837669747062
 20
24.28207210725108
 30
0.0
 11
-204.03766974706
 21
24.28207210725108
 31
0.0
  0
LINE
  5
30A
330
6D
100
AcDbEntity
  8
1
  6
Continuous
 62
     2
100
AcDbLine
 10
-197.837669747062
 20
24.28207210725108
 30
0.0
 11
-197.837669747062
 21
28.53207210725108
 31
0.0
  0
LINE
  5
30B
330
6D
100
AcDbEntity
  8
1
  6
Continuous
 62
     2
100
AcDbLine
 10
-81.58247427381181
 20
24.28207210725108
 30
0.0
 11
-95.08247427381191
 21
24.28207210725108
 31
0.0
  0
LINE
  5
30C
330
6D
100
AcDbEntity
  8
1
  6
Continuous
 62
     7
100
AcDbLine
 10
-58.68247427381193
 20
28.53207210725108
 30
0.0
 11
-72.18247427381183
 21
28.53207210725108
 31
0.0
  0
LINE
  5
30D
330
6D
100
AcDbEntity
  8
1
  6
Continuous
 62
     7
100
AcDbLine
 10
-72.18247427381183
 20
28.53207210725108
 30
0.0
 11
-72.18247427381183
 21
24.28207210725119
 31
0.0
  0
LINE
  5
30E
330
6D
100
AcDbEntity
  8
1
  6
Continuous
 62
     7
100
AcDbLine
 10
-58.68247427381193
 20
28.53207210725108
 30
0.0
 11
-58.68247427381193
 21
24.28207210725108
 31
0.0
  0
LINE
  5
30F
330
6D
100
AcDbEntity
  8
1
  6
Continuous
 62
     6
100
AcDbLine
 10
-204.03766974706
 20
11.53207210725119
 30
0.0
 11
-204.03766974706
 21
15.78207210725108
 31
0.0
  0
LINE
  5
310
330
6D
100
AcDbEntity
  8
1
  6
Continuous
 62
     6
100
AcDbLine
 10
-204.03766974706
 20
7.28207210725119
 30
0.0
 11
-204.03766974706
 21
11.53207210725119
 31
0.0
  0
LINE
  5
311
330
6D
100
AcDbEntity
  8
1
  6
Continuous
 62
     6
100
AcDbLine
 10
-197.837669747062
 20
37.03207210725108
 30
0.0
 11
-204.03766974706
 21
37.03207210725108
 31
0.0
  0
LINE
  5
312
330
6D
100
AcDbEntity
  8
1
  6
Continuous
 62
     7
100
AcDbLine
 10
-22.28247427381189
 20
37.03207210725108
 30
0.0
 11
-22.28247427381189
 21
28.53207210725102
 31
0.0
  0
LINE
  5
313
330
6D
100
AcDbEntity
  8
1
  6
Continuous
 62
     6
100
AcDbLine
 10
21.1623302529398
 20
37.03207210725108
 30
0.0
 11
-22.28247427381189
 21
37.03207210725108
 31
0.0
  0
LINE
  5
314
330
6D
100
AcDbEntity
  8
1
  6
Continuous
 62
     6
100
AcDbLine
 10
-45.18247427381191
 20
37.03207210725108
 30
0.0
 11
-22.28247427381189
 21
37.03207210725108
 31
0.0
  0
LINE
  5
315
330
6D
100
AcDbEntity
  8
1
  6
Continuous
 62
     7
100
AcDbLine
 10
-45.18247427381191
 20
11.53207210725119
 30
0.0
 11
-63.38247427381194
 21
11.53207210725119
 31
0.0
  0
LINE
  5
316
330
6D
100
AcDbEntity
  8
1
  6
Continuous
 62
     7
100
AcDbLine
 10
-58.68247427381193
 20
24.28207210725108
 30
0.0
 11
-72.18247427381183
 21
24.28207210725119
 31
0.0
  0
LINE
  5
317
330
6D
100
AcDbEntity
  8
1
  6
Continuous
 62
     7
100
AcDbLine
 10
-63.38247427381194
 20
11.53207210725119
 30
0.0
 11
-81.58247427381181
 21
11.53207210725119
 31
0.0
  0
LINE
  5
318
330
6D
100
AcDbEntity
  8
1
  6
Continuous
 62
     7
100
AcDbLine
 10
-63.38247427381194
 20
11.53207210725119
 30
0.0
 11
-63.38247427381194
 21
7.28207210725119
 31
0.0
  0
LINE
  5
319
330
6D
100
AcDbEntity
  8
1
  6
Continuous
 62
     2
100
AcDbLine
 10
-122.0824742738118
 20
37.03207210725108
 30
0.0
 11
-122.0824742738118
 21
32.78207210725108
 31
0.0
  0
LINE
  5
31A
330
6D
100
AcDbEntity
  8
1
  6
Continuous
 62
     6
100
AcDbLine
 10
-108.5824742738118
 20
37.03207210725108
 30
0.0
 11
-122.0824742738118
 21
37.03207210725108
 31
0.0
  0
LINE
  5
31B
330
6D
100
AcDbEntity
  8
1
  6
Continuous
 62
     6
100
AcDbLine
 10
-95.08247427381191
 20
37.03207210725108
 30
0.0
 11
-108.5824742738118
 21
37.03207210725108
 31
0.0
  0
LINE
  5
31C
330
6D
100
AcDbEntity
  8
1
  6
Continuous
 62
     2
100
AcDbLine
 10
-108.5824742738118
 20
37.03207210725108
 30
0.0
 11
-108.5824742738118
 21
32.78207210725108
 31
0.0
  0
LINE
  5
31D
330
6D
100
AcDbEntity
  8
1
  6
Continuous
 62
     2
100
AcDbLine
 10
-95.08247427381191
 20
37.03207210725108
 30
0.0
 11
-95.08247427381191
 21
32.78207210725108
 31
0.0
  0
LINE
  5
31E
330
6D
100
AcDbEntity
  8
1
  6
Continuous
 62
     7
100
AcDbLine
 10
2.9623302529401
 20
24.28207210725108
 30
0.0
 11
2.9623302529401
 21
15.78207210725108
 31
0.0
  0
LINE
  5
31F
330
6D
100
AcDbEntity
  8
1
  6
Continuous
 62
     7
100
AcDbLine
 10
2.9623302529401
 20
15.78207210725108
 30
0.0
 11
-15.53766974705952
 21
15.78207210725108
 31
0.0
  0
LINE
  5
320
330
6D
100
AcDbEntity
  8
1
  6
Continuous
 62
     7
100
AcDbLine
 10
21.1623302529398
 20
37.03207210725108
 30
0.0
 11
21.16233025294011
 21
28.53207210725119
 31
0.0
  0
LINE
  5
321
330
6D
100
AcDbEntity
  8
1
  6
Continuous
 62
     6
100
AcDbLine
 10
21.1623302529398
 20
37.03207210725108
 30
0.0
 11
30.080738534619
 21
37.03207210725108
 31
0.0
  0
LINE
  5
322
330
6D
100
AcDbEntity
  8
1
  6
Continuous
 62
     7
100
AcDbLine
 10
30.080738534619
 20
28.53207210725108
 30
0.0
 11
30.080738534619
 21
37.03207210725108
 31
0.0
  0
LINE
  5
323
330
6D
100
AcDbEntity
  8
1
  6
Continuous
 62
     7
100
AcDbLine
 10
-58.68247427381193
 20
32.78207210725108
 30
0.0
 11
-72.18247427381183
 21
32.78207210725108
 31
0.0
  0
LINE
  5
324
330
6D
100
AcDbEntity
  8
1
  6
Continuous
 62
     7
100
AcDbLine
 10
-58.68247427381193
 20
32.78207210725108
 30
0.0
 11
-45.18247427381191
 21
32.78207210725108
 31
0.0
  0
LINE
  5
325
330
6D
100
AcDbEntity
  8
1
  6
Continuous
 62
     7
100
AcDbLine
 10
-45.18247427381191
 20
32.78207210725108
 30
0.0
 11
-45.18247427381191
 21
28.53207210725108
 31
0.0
  0
LINE
  5
326
102
{ACAD_REACTORS
330
419
330
419
102
}
330
6D
100
AcDbEntity
  8
1
  6
Continuous
 62
     2
100
AcDbLine
 10
-55.61512733503633
 20
18.4320721072452
 30
0.0
 11
-55.61512733503633
 21
16.0511197262912
 31
0.0
  0
LINE
  5
327
102
{ACAD_REACTORS
330
419
330
419
102
}
330
6D
100
AcDbEntity
  8
1
  6
Continuous
 62
     2
100
AcDbLine
 10
-55.61512733503633
 20
16.0511197262912
 30
0.0
 11
-56.49948107653373
 21
16.0511197262912
 31
0.0
  0
LINE
  5
328
102
{ACAD_REACTORS
330
419
330
419
102
}
330
6D
100
AcDbEntity
  8
1
  6
Continuous
 62
     2
100
AcDbLine
 10
-56.49948107653373
 20
18.4320721072452
 30
0.0
 11
-55.61512733503633
 21
18.4320721072452
 31
0.0
  0
LINE
  5
329
102
{ACAD_REACTORS
330
41D
330
41D
102
}
330
6D
100
AcDbEntity
  8
1
  6
Continuous
 62
     2
100
AcDbLine
 10
-53.30492325340435
 20
18.4320721072452
 30
0.0
 11
-52.30492325340435
 21
18.4320721072452
 31
0.0
  0
LINE
  5
32A
102
{ACAD_REACTORS
330
41D
330
41D
102
}
330
6D
100
AcDbEntity
  8
1
  6
Continuous
 62
     2
100
AcDbLine
 10
-53.23349468197583
 20
17.28366221325072
 30
0.0
 11
-52.30492325340435
 21
18.4320721072452
 31
0.0
  0
LINE
  5
32B
102
{ACAD_REACTORS
330
41D
330
41D
102
}
330
6D
100
AcDbEntity
  8
1
  6
Continuous
 62
     2
100
AcDbLine
 10
-53.23349468197583
 20
17.28366221325072
 30
0.0
 11
-52.23689604252033
 21
16.0511197262912
 31
0.0
  0
LINE
  5
32C
102
{ACAD_REACTORS
330
41D
330
41D
102
}
330
6D
100
AcDbEntity
  8
1
  6
Continuous
 62
     2
100
AcDbLine
 10
-53.23689604252033
 20
16.0511197262912
 30
0.0
 11
-52.23689604252033
 21
16.0511197262912
 31
0.0
  0
LINE
  5
32D
102
{ACAD_REACTORS
330
41D
330
41D
102
}
330
6D
100
AcDbEntity
  8
1
  6
Continuous
 62
     2
100
AcDbLine
 10
-53.73349468197503
 20
16.66528765494783
 30
0.0
 11
-53.23689604252033
 21
16.0511197262912
 31
0.0
  0
LINE
  5
32E
102
{ACAD_REACTORS
330
41D
330
41D
102
}
330
6D
100
AcDbEntity
  8
1
  6
Continuous
 62
     2
100
AcDbLine
 10
-54.23009332143175
 20
16.0511197262912
 30
0.0
 11
-53.73349468197503
 21
16.66528765494783
 31
0.0
  0
LINE
  5
32F
102
{ACAD_REACTORS
330
41D
330
41D
102
}
330
6D
100
AcDbEntity
  8
1
  6
Continuous
 62
     2
100
AcDbLine
 10
-54.23009332143175
 20
16.0511197262912
 30
0.0
 11
-55.23009332143175
 21
16.0511197262912
 31
0.0
  0
LINE
  5
330
102
{ACAD_REACTORS
330
41D
330
41D
102
}
330
6D
100
AcDbEntity
  8
1
  6
Continuous
 62
     2
100
AcDbLine
 10
-55.23009332143175
 20
16.0511197262912
 30
0.0
 11
-54.23349468197583
 21
17.28366221325072
 31
0.0
  0
LINE
  5
331
102
{ACAD_REACTORS
330
41D
330
41D
102
}
330
6D
100
AcDbEntity
  8
1
  6
Continuous
 62
     2
100
AcDbLine
 10
-55.16206611054733
 20
18.4320721072452
 30
0.0
 11
-54.23349468197583
 21
17.28366221325072
 31
0.0
  0
LINE
  5
332
102
{ACAD_REACTORS
330
41D
330
41D
102
}
330
6D
100
AcDbEntity
  8
1
  6
Continuous
 62
     2
100
AcDbLine
 10
-54.16206611054733
 20
18.4320721072452
 30
0.0
 11
-55.16206611054733
 21
18.4320721072452
 31
0.0
  0
LINE
  5
333
102
{ACAD_REACTORS
330
41D
330
41D
102
}
330
6D
100
AcDbEntity
  8
1
  6
Continuous
 62
     2
100
AcDbLine
 10
-54.16206611054733
 20
18.4320721072452
 30
0.0
 11
-53.73349468197503
 21
17.90203677155378
 31
0.0
  0
LINE
  5
334
102
{ACAD_REACTORS
330
41D
330
41D
102
}
330
6D
100
AcDbEntity
  8
1
  6
Continuous
 62
     2
100
AcDbLine
 10
-53.73349468197503
 20
17.90203677155378
 30
0.0
 11
-53.30492325340435
 21
18.4320721072452
 31
0.0
  0
LINE
  5
335
330
6D
100
AcDbEntity
  8
1
  6
Continuous
 62
     2
100
AcDbLine
 10
-54.00356270918655
 20
13.88789652258029
 30
0.0
 11
-54.00356270918655
 21
13.24182301518428
 31
0.0
  0
LINE
  5
336
330
6D
100
AcDbEntity
  8
1
  6
Continuous
 62
     2
100
AcDbLine
 10
-54.62028352114675
 20
15.51299340471539
 30
0.0
 11
-54.58384969745353
 21
15.51302448821113
 31
0.0
  0
LINE
  5
337
330
6D
100
AcDbEntity
  8
1
  6
Continuous
 62
     2
100
AcDbLine
 10
-52.23689604252073
 20
15.51302448821113
 30
0.0
 11
-54.58384969745353
 21
15.51302448821113
 31
0.0
  0
LINE
  5
338
330
6D
100
AcDbEntity
  8
1
  6
Continuous
 62
     2
100
AcDbLine
 10
-52.23689604252073
 20
14.90077959024981
 30
0.0
 11
-52.23689604252073
 21
15.51302448821113
 31
0.0
  0
LINE
  5
339
330
6D
100
AcDbEntity
  8
1
  6
Continuous
 62
     2
100
AcDbLine
 10
-52.81512733503774
 20
14.90077959024981
 30
0.0
 11
-52.23689604252073
 21
14.90077959024981
 31
0.0
  0
LINE
  5
33A
330
6D
100
AcDbEntity
  8
1
  6
Continuous
 62
     2
100
AcDbLine
 10
-52.81512733503774
 20
13.13207210725702
 30
0.0
 11
-52.81512733503774
 21
14.90077959024981
 31
0.0
  0
LINE
  5
33B
330
6D
100
AcDbEntity
  8
1
  6
Continuous
 62
     2
100
AcDbLine
 10
-53.66546747109183
 20
13.13207210725702
 30
0.0
 11
-52.81512733503774
 21
13.13207210725702
 31
0.0
  0
LINE
  5
33C
330
6D
100
AcDbEntity
  8
1
  6
Continuous
 62
     2
100
AcDbLine
 10
-53.66546747109183
 20
14.90077959024981
 30
0.0
 11
-53.66546747109183
 21
13.13207210725702
 31
0.0
  0
LINE
  5
33D
330
6D
100
AcDbEntity
  8
1
  6
Continuous
 62
     2
100
AcDbLine
 10
-53.66546747109183
 20
14.90077959024981
 30
0.0
 11
-54.45225027957565
 21
14.90077959024981
 31
0.0
  0
LINE
  5
33E
330
6D
100
AcDbEntity
  8
1
  6
Continuous
 62
     7
100
AcDbLine
 10
2.9623302529401
 20
24.28207210725108
 30
0.0
 11
47.96233025293989
 21
24.28207210725108
 31
0.0
  0
LINE
  5
33F
330
6D
100
AcDbEntity
  8
1
  6
Continuous
 62
     7
100
AcDbLine
 10
47.9623302529389
 20
28.53207210725108
 30
0.0
 11
30.080738534619
 21
28.53207210725108
 31
0.0
  0
LINE
  5
340
330
6D
100
AcDbEntity
  8
1
  6
Continuous
 62
     7
100
AcDbLine
 10
47.96233025293941
 20
15.78207210725108
 30
0.0
 11
2.9623302529401
 21
15.78207210725108
 31
0.0
  0
LINE
  5
341
330
6D
100
AcDbEntity
  8
1
  6
Continuous
 62
     6
100
AcDbLine
 10
47.96233025293981
 20
37.03207210725108
 30
0.0
 11
30.080738534619
 21
37.03207210725108
 31
0.0
  0
LINE
  5
342
330
6D
100
AcDbEntity
  8
1
  6
Continuous
 62
     6
100
AcDbLine
 10
-122.0824742738118
 20
7.28207210725108
 30
0.0
 11
-145.537669747062
 21
7.28207210725119
 31
0.0
  0
LINE
  5
343
330
6D
100
AcDbEntity
  8
1
  6
Continuous
 62
     6
100
AcDbLine
 10
-197.837669747062
 20
7.28207210725108
 30
0.0
 11
-195.5376697470619
 21
7.28207210725119
 31
0.0
  0
LINE
  5
344
330
6D
100
AcDbEntity
  8
1
  6
Continuous
 62
     6
100
AcDbLine
 10
-81.58247427381181
 20
7.28207210725108
 30
0.0
 11
-63.38247427381194
 21
7.28207210725119
 31
0.0
  0
LINE
  5
345
330
6D
100
AcDbEntity
  8
1
  6
Continuous
 62
     6
100
AcDbLine
 10
-45.18247427381191
 20
7.28207210725108
 30
0.0
 11
4.46233025293811
 21
7.28207210725119
 31
0.0
  0
LINE
  5
346
330
6D
100
AcDbEntity
  8
1
  6
Continuous
 62
     6
100
AcDbLine
 10
47.9623302529389
 20
28.53207210725108
 30
0.0
 11
47.96233025293989
 21
24.28207210725108
 31
0.0
  0
LINE
  5
347
330
6D
100
AcDbEntity
  8
1
  6
Continuous
 62
     6
100
AcDbLine
 10
47.9623302529381
 20
7.28207210725119
 30
0.0
 11
47.96233025293941
 21
15.78207210725108
 31
0.0
  0
LINE
  5
348
330
6D
100
AcDbEntity
  8
1
  6
Continuous
 62
     2
100
AcDbLine
 10
-184.337669747062
 20
37.03207210725108
 30
0.0
 11
-184.337669747062
 21
32.78207210725108
 31
0.0
  0
LINE
  5
349
330
6D
100
AcDbEntity
  8
1
  6
Continuous
 62
     6
100
AcDbLine
 10
-184.337669747062
 20
37.03207210725108
 30
0.0
 11
-197.837669747062
 21
37.03207210725108
 31
0.0
  0
LINE
  5
34A
330
6D
100
AcDbEntity
  8
1
  6
Continuous
 62
     2
100
AcDbLine
 10
-184.337669747062
 20
32.78207210725108
 30
0.0
 11
-184.337669747062
 21
28.53207210725108
 31
0.0
  0
LINE
  5
34B
330
6D
100
AcDbEntity
  8
1
  6
Continuous
 62
     2
100
AcDbLine
 10
-184.337669747062
 20
28.53207210725108
 30
0.0
 11
-184.337669747062
 21
24.28207210725108
 31
0.0
  0
LINE
  5
34C
330
6D
100
AcDbEntity
  8
1
  6
Continuous
 62
     2
100
AcDbLine
 10
-184.337669747062
 20
28.53207210725108
 30
0.0
 11
-197.837669747062
 21
28.53207210725108
 31
0.0
  0
LINE
  5
34D
330
6D
100
AcDbEntity
  8
1
  6
Continuous
 62
     2
100
AcDbLine
 10
-184.337669747062
 20
32.78207210725108
 30
0.0
 11
-197.837669747062
 21
32.78207210725108
 31
0.0
  0
LINE
  5
34E
330
6D
100
AcDbEntity
  8
1
  6
Continuous
 62
     2
100
AcDbLine
 10
-184.337669747062
 20
20.03207210725108
 30
0.0
 11
-184.337669747062
 21
15.78207210725108
 31
0.0
  0
LINE
  5
34F
330
6D
100
AcDbEntity
  8
1
  6
Continuous
 62
     2
100
AcDbLine
 10
-184.337669747062
 20
20.03207210725108
 30
0.0
 11
-197.837669747062
 21
20.03207210725108
 31
0.0
  0
LINE
  5
350
330
6D
100
AcDbEntity
  8
1
  6
Continuous
 62
     2
100
AcDbLine
 10
-184.337669747062
 20
24.28207210725108
 30
0.0
 11
-184.337669747062
 21
20.03207210725108
 31
0.0
  0
LINE
  5
351
330
6D
100
AcDbEntity
  8
1
  6
Continuous
 62
     2
100
AcDbLine
 10
-184.337669747062
 20
24.28207210725108
 30
0.0
 11
-197.837669747062
 21
24.28207210725108
 31
0.0
  0
LINE
  5
352
330
6D
100
AcDbEntity
  8
1
  6
Continuous
 62
     2
100
AcDbLine
 10
-184.337669747062
 20
15.78207210725108
 30
0.0
 11
-184.337669747062
 21
11.53207210725119
 31
0.0
  0
LINE
  5
353
330
6D
100
AcDbEntity
  8
1
  6
Continuous
 62
     2
100
AcDbLine
 10
-184.337669747062
 20
15.78207210725108
 30
0.0
 11
-197.837669747062
 21
15.78207210725108
 31
0.0
  0
LINE
  5
354
330
6D
100
AcDbEntity
  8
1
  6
Continuous
 62
     2
100
AcDbLine
 10
-184.337669747062
 20
11.53207210725119
 30
0.0
 11
-184.337669747062
 21
7.28207210725119
 31
0.0
  0
LINE
  5
355
330
6D
100
AcDbEntity
  8
1
  6
Continuous
 62
     7
100
AcDbLine
 10
-184.337669747062
 20
11.53207210725119
 30
0.0
 11
-122.0824742738118
 21
11.53207210725119
 31
0.0
  0
LINE
  5
356
330
6D
100
AcDbEntity
  8
1
  6
Continuous
 62
     2
100
AcDbLine
 10
-244.037669747061
 20
7.28207210725119
 30
0.0
 11
-244.037669747061
 21
2.28207210725108
 31
0.0
  0
LINE
  5
357
330
6D
100
AcDbEntity
  8
1
  6
Continuous
 62
     2
100
AcDbLine
 10
-239.0376697470599
 20
7.28207210725119
 30
0.0
 11
-244.037669747061
 21
7.28207210725119
 31
0.0
  0
LINE
  5
358
330
6D
100
AcDbEntity
  8
1
  6
Continuous
 62
     2
100
AcDbLine
 10
-239.0376697470599
 20
2.28207210725108
 30
0.0
 11
-195.5376697470619
 21
2.28207210725108
 31
0.0
  0
LINE
  5
359
330
6D
100
AcDbEntity
  8
1
  6
Continuous
 62
     2
100
AcDbLine
 10
-239.0376697470599
 20
7.28207210725119
 30
0.0
 11
-239.0376697470599
 21
2.28207210725108
 31
0.0
  0
LINE
  5
35A
330
6D
100
AcDbEntity
  8
1
  6
Continuous
 62
     2
100
AcDbLine
 10
4.46233025293811
 20
2.28207210725108
 30
0.0
 11
-45.5376697470619
 21
2.28207210725108
 31
0.0
  0
LINE
  5
35B
330
6D
100
AcDbEntity
  8
1
  6
Continuous
 62
     2
100
AcDbLine
 10
4.46233025293811
 20
2.28207210725108
 30
0.0
 11
4.46233025293811
 21
7.28207210725119
 31
0.0
  0
LINE
  5
35C
330
6D
100
AcDbEntity
  8
1
  6
Continuous
 62
     2
100
AcDbLine
 10
-45.5376697470619
 20
2.28207210725108
 30
0.0
 11
-45.5376697470619
 21
7.28207210725119
 31
0.0
  0
LINE
  5
35D
330
6D
100
AcDbEntity
  8
1
  6
Continuous
 62
     2
100
AcDbLine
 10
-95.53766974706191
 20
2.28207210725108
 30
0.0
 11
-45.5376697470619
 21
2.28207210725108
 31
0.0
  0
LINE
  5
35E
330
6D
100
AcDbEntity
  8
1
  6
Continuous
 62
     2
100
AcDbLine
 10
-95.53766974706191
 20
2.28207210725108
 30
0.0
 11
-95.53766974706191
 21
7.28207210725119
 31
0.0
  0
LINE
  5
35F
330
6D
100
AcDbEntity
  8
1
  6
Continuous
 62
     2
100
AcDbLine
 10
-145.537669747062
 20
2.28207210725108
 30
0.0
 11
-95.53766974706191
 21
2.28207210725108
 31
0.0
  0
LINE
  5
360
330
6D
100
AcDbEntity
  8
1
  6
Continuous
 62
     2
100
AcDbLine
 10
-145.537669747062
 20
2.28207210725108
 30
0.0
 11
-145.537669747062
 21
7.28207210725119
 31
0.0
  0
LINE
  5
361
330
6D
100
AcDbEntity
  8
1
  6
Continuous
 62
     2
100
AcDbLine
 10
-195.5376697470619
 20
2.28207210725108
 30
0.0
 11
-145.537669747062
 21
2.28207210725108
 31
0.0
  0
LINE
  5
362
330
6D
100
AcDbEntity
  8
1
  6
Continuous
 62
     2
100
AcDbLine
 10
-195.5376697470619
 20
2.28207210725108
 30
0.0
 11
-195.5376697470619
 21
7.28207210725119
 31
0.0
  0
LINE
  5
363
330
6D
100
AcDbEntity
  8
1
  6
Continuous
 62
     6
100
AcDbLine
 10
-239.0376697470601
 20
57.28207210725119
 30
0.0
 11
-239.0376697470599
 21
7.28207210725119
 31
0.0
  0
LINE
  5
364
330
6D
100
AcDbEntity
  8
1
  6
Continuous
 62
     2
100
AcDbLine
 10
-244.037669747061
 20
57.28207210725119
 30
0.0
 11
-244.037669747061
 21
7.28207210725119
 31
0.0
  0
LINE
  5
365
330
6D
100
AcDbEntity
  8
1
  6
Continuous
 62
     2
100
AcDbLine
 10
-244.037669747061
 20
57.28207210725119
 30
0.0
 11
-239.0376697470601
 21
57.28207210725119
 31
0.0
  0
LINE
  5
366
330
6D
100
AcDbEntity
  8
1
  6
Continuous
 62
     6
100
AcDbLine
 10
-239.0376697470604
 20
107.282072107251
 30
0.0
 11
-239.0376697470601
 21
57.28207210725119
 31
0.0
  0
LINE
  5
367
330
6D
100
AcDbEntity
  8
1
  6
Continuous
 62
     2
100
AcDbLine
 10
-244.037669747061
 20
107.282072107251
 30
0.0
 11
-244.037669747061
 21
57.28207210725119
 31
0.0
  0
LINE
  5
368
330
6D
100
AcDbEntity
  8
1
  6
Continuous
 62
     2
100
AcDbLine
 10
-244.037669747061
 20
107.282072107251
 30
0.0
 11
-239.0376697470604
 21
107.282072107251
 31
0.0
  0
LINE
  5
369
330
6D
100
AcDbEntity
  8
1
  6
Continuous
 62
     6
100
AcDbLine
 10
-239.0376697470608
 20
157.2820721072511
 30
0.0
 11
-239.0376697470604
 21
107.282072107251
 31
0.0
  0
LINE
  5
36A
330
6D
100
AcDbEntity
  8
1
  6
Continuous
 62
     2
100
AcDbLine
 10
-244.037669747061
 20
157.2820721072511
 30
0.0
 11
-244.037669747061
 21
107.282072107251
 31
0.0
  0
LINE
  5
36B
330
6D
100
AcDbEntity
  8
1
  6
Continuous
 62
     2
100
AcDbLine
 10
-244.037669747061
 20
157.2820721072511
 30
0.0
 11
-239.0376697470608
 21
157.2820721072511
 31
0.0
  0
LINE
  5
36C
330
6D
100
AcDbEntity
  8
1
  6
Continuous
 62
     6
100
AcDbLine
 10
-239.037669747061
 20
192.2820721072511
 30
0.0
 11
-239.0376697470608
 21
157.2820721072511
 31
0.0
  0
LINE
  5
36D
330
6D
100
AcDbEntity
  8
1
  6
Continuous
 62
     2
100
AcDbLine
 10
-244.037669747061
 20
212.2820721072511
 30
0.0
 11
-244.037669747061
 21
157.2820721072511
 31
0.0
  0
LINE
  5
36E
330
6D
100
AcDbEntity
  8
1
  6
Continuous
 62
     2
100
AcDbLine
 10
-244.037669747061
 20
2.28207210725108
 30
0.0
 11
-239.0376697470599
 21
2.28207210725108
 31
0.0
  0
LINE
  5
36F
330
6D
100
AcDbEntity
  8
1
  6
Continuous
 62
     2
100
AcDbLine
 10
-95.53766974706191
 20
212.2820721072511
 30
0.0
 11
-95.53766974706191
 21
203.0733802625498
 31
0.0
  0
LINE
  5
370
330
6D
100
AcDbEntity
  8
1
  6
Continuous
 62
     2
100
AcDbLine
 10
-95.53766974706191
 20
212.2820721072511
 30
0.0
 11
-244.037669747061
 21
212.2820721072511
 31
0.0
  0
LINE
  5
371
330
6D
100
AcDbEntity
  8
1
  6
Continuous
 62
     2
100
AcDbLine
 10
52.96233025293711
 20
7.28207210725119
 30
0.0
 11
52.96233025293711
 21
57.28207210725119
 31
0.0
  0
LINE
  5
372
330
6D
100
AcDbEntity
  8
1
  6
Continuous
 62
     2
100
AcDbLine
 10
52.96233025293711
 20
157.2820721072511
 30
0.0
 11
52.96233025293711
 21
212.2820721072511
 31
0.0
  0
LINE
  5
373
330
6D
100
AcDbEntity
  8
1
  6
Continuous
 62
     6
100
AcDbLine
 10
47.96233025293739
 20
157.2820721072511
 30
0.0
 11
47.96233025293711
 21
192.2820721072511
 31
0.0
  0
LINE
  5
374
330
6D
100
AcDbEntity
  8
1
  6
Continuous
 62
     2
100
AcDbLine
 10
47.96233025293739
 20
157.2820721072511
 30
0.0
 11
52.96233025293711
 21
157.2820721072511
 31
0.0
  0
LINE
  5
375
330
6D
100
AcDbEntity
  8
1
  6
Continuous
 62
     2
100
AcDbLine
 10
52.96233025293711
 20
107.282072107251
 30
0.0
 11
52.96233025293711
 21
157.2820721072511
 31
0.0
  0
LINE
  5
376
330
6D
100
AcDbEntity
  8
1
  6
Continuous
 62
     6
100
AcDbLine
 10
47.9623302529385
 20
107.282072107251
 30
0.0
 11
47.96233025293739
 21
157.2820721072511
 31
0.0
  0
LINE
  5
377
330
6D
100
AcDbEntity
  8
1
  6
Continuous
 62
     2
100
AcDbLine
 10
47.9623302529385
 20
107.282072107251
 30
0.0
 11
52.96233025293711
 21
107.282072107251
 31
0.0
  0
LINE
  5
378
330
6D
100
AcDbEntity
  8
1
  6
Continuous
 62
     2
100
AcDbLine
 10
52.96233025293711
 20
57.28207210725119
 30
0.0
 11
52.96233025293711
 21
107.282072107251
 31
0.0
  0
LINE
  5
379
330
6D
100
AcDbEntity
  8
1
  6
Continuous
 62
     6
100
AcDbLine
 10
47.96233025293901
 20
57.28207210725119
 30
0.0
 11
47.9623302529385
 21
107.282072107251
 31
0.0
  0
LINE
  5
37A
330
6D
100
AcDbEntity
  8
1
  6
Continuous
 62
     2
100
AcDbLine
 10
47.96233025293901
 20
57.28207210725119
 30
0.0
 11
52.96233025293711
 21
57.28207210725119
 31
0.0
  0
LINE
  5
37B
330
6D
100
AcDbEntity
  8
1
  6
Continuous
 62
     6
100
AcDbLine
 10
47.96233025293711
 20
192.2820721072511
 30
0.0
 11
-239.037669747061
 21
192.2820721072511
 31
0.0
  0
LINE
  5
37C
330
6D
100
AcDbEntity
  8
1
  6
Continuous
 62
     2
100
AcDbLine
 10
52.96233025293711
 20
212.2820721072511
 30
0.0
 11
-95.53766974706191
 21
212.2820721072511
 31
0.0
  0
LINE
  5
37D
330
6D
100
AcDbEntity
  8
1
  6
Continuous
 62
     6
100
AcDbLine
 10
47.96233025293981
 20
37.03207210725108
 30
0.0
 11
47.96233025293901
 21
57.28207210725119
 31
0.0
  0
LINE
  5
37E
330
6D
100
AcDbEntity
  8
1
  6
Continuous
 62
     2
100
AcDbLine
 10
47.9623302529381
 20
2.28207210725108
 30
0.0
 11
4.46233025293811
 21
2.28207210725108
 31
0.0
  0
LINE
  5
37F
330
6D
100
AcDbEntity
  8
1
  6
Continuous
 62
     2
100
AcDbLine
 10
52.96233025293711
 20
2.28207210725108
 30
0.0
 11
47.9623302529381
 21
2.28207210725108
 31
0.0
  0
LINE
  5
380
330
6D
100
AcDbEntity
  8
1
  6
Continuous
 62
     2
100
AcDbLine
 10
52.96233025293711
 20
2.28207210725108
 30
0.0
 11
52.96233025293711
 21
7.28207210725119
 31
0.0
  0
LINE
  5
381
330
6D
100
AcDbEntity
  8
1
  6
Continuous
 62
     7
100
AcDbLine
 10
-81.58247427381181
 20
20.03207210725108
 30
0.0
 11
-45.18247427381191
 21
20.03207210725108
 31
0.0
  0
LINE
  5
382
330
6D
100
AcDbEntity
  8
1
  6
Continuous
 62
     7
100
AcDbLine
 10
-45.18247427381191
 20
20.03207210725108
 30
0.0
 11
-45.18247427381191
 21
24.28207210725108
 31
0.0
  0
LINE
  5
383
330
6D
100
AcDbEntity
  8
1
  6
Continuous
 62
     2
100
AcDbLine
 10
47.9623302529381
 20
7.28207210725119
 30
0.0
 11
47.9623302529381
 21
2.28207210725108
 31
0.0
  0
LINE
  5
384
330
6D
100
AcDbEntity
  8
1
  6
Continuous
 62
     2
100
AcDbLine
 10
47.9623302529381
 20
7.28207210725119
 30
0.0
 11
52.96233025293711
 21
7.28207210725119
 31
0.0
  0
LINE
  5
385
330
6D
100
AcDbEntity
  8
1
  6
PHANTOM
 62
     2
100
AcDbLine
 10
-74.84021444870854
 20
22.15707210725108
 30
0.0
 11
-78.14021444870853
 21
22.15707210725108
 31
0.0
  0
LINE
  5
386
330
6D
100
AcDbEntity
  8
1
  6
PHANTOM
 62
     2
100
AcDbLine
 10
-76.49021444870854
 20
23.80707210725111
 30
0.0
 11
-76.49021444870854
 21
20.5070721072511
 31
0.0
  0
LINE
  5
387
330
6D
100
AcDbEntity
  8
1
  6
PHANTOM
 62
     2
100
AcDbLine
 10
-73.46321105901154
 20
22.15707210725108
 30
0.0
 11
-69.14761608982253
 21
22.15707210725108
 31
0.0
  0
LINE
  5
388
330
6D
100
AcDbEntity
  8
1
  6
Continuous
 62
     6
100
AcDbLine
 10
-45.5376697470619
 20
7.28207210725119
 30
0.0
 11
-63.38247427381194
 21
7.28207210725119
 31
0.0
  0
LINE
  5
389
330
6D
100
AcDbEntity
  8
1
  6
Continuous
 62
     6
100
AcDbLine
 10
4.46233025293811
 20
7.28207210725119
 30
0.0
 11
47.9623302529381
 21
7.28207210725119
 31
0.0
  0
LINE
  5
38A
330
6D
100
AcDbEntity
  8
1
  6
Continuous
 62
     6
100
AcDbLine
 10
-195.5376697470619
 20
7.28207210725119
 30
0.0
 11
-184.337669747062
 21
7.28207210725119
 31
0.0
  0
LINE
  5
38B
330
6D
100
AcDbEntity
  8
1
  6
Continuous
 62
     6
100
AcDbLine
 10
-145.537669747062
 20
7.28207210725119
 30
0.0
 11
-184.337669747062
 21
7.28207210725119
 31
0.0
  0
LINE
  5
38C
330
6D
100
AcDbEntity
  8
1
  6
Continuous
 62
     6
100
AcDbLine
 10
-95.53766974706191
 20
7.28207210725119
 30
0.0
 11
-95.08247427381191
 21
7.28207210725108
 31
0.0
  0
LINE
  5
38D
330
6D
100
AcDbEntity
  8
1
  6
Continuous
 62
     7
100
AcDbLine
 10
-15.53766974705952
 20
24.28207210725108
 30
0.0
 11
-15.53766974705952
 21
28.53207210725106
 31
0.0
  0
ARC
  5
38E
102
{ACAD_REACTORS
330
414
330
414
102
}
330
6D
100
AcDbEntity
  8
1
  6
Continuous
 62
     2
100
AcDbCircle
 10
-67.43900307007704
 20
17.60923907954
 30
0.0
 40
0.8280239484092065
100
AcDbArc
 50
276.4189726355862
 51
83.58102736441384
  0
ARC
  5
38F
102
{ACAD_REACTORS
330
414
330
414
102
}
330
6D
100
AcDbEntity
  8
1
  6
Continuous
 62
     2
100
AcDbCircle
 10
-67.70115689439004
 20
17.63995479076763
 30
0.0
 40
0.2751160335811278
100
AcDbArc
 50
270.0
 51
90.0
  0
ARC
  5
390
102
{ACAD_REACTORS
330
413
330
413
102
}
330
6D
100
AcDbEntity
  8
1
  6
Continuous
 62
     2
100
AcDbCircle
 10
-72.02064509769554
 20
16.15244247762061
 30
0.0
 40
0.8148148148137929
100
AcDbArc
 50
115.7192795022131
 51
244.2807204978133
  0
ARC
  5
391
102
{ACAD_REACTORS
330
413
330
413
102
}
330
6D
100
AcDbEntity
  8
1
  6
Continuous
 62
     2
100
AcDbCircle
 10
-72.02064509769554
 20
16.15244247762061
 30
0.0
 40
0.8148148148132894
100
AcDbArc
 50
295.7192795021669
 51
64.2807204979753
  0
ARC
  5
392
102
{ACAD_REACTORS
330
413
330
413
102
}
330
6D
100
AcDbEntity
  8
1
  6
Continuous
 62
     2
100
AcDbCircle
 10
-71.51138583843743
 20
16.15244247762061
 30
0.0
 40
1.73148148147442
100
AcDbArc
 50
270.0
 51
90.0
  0
ARC
  5
393
102
{ACAD_REACTORS
330
415
330
415
102
}
330
6D
100
AcDbEntity
  8
1
  6
Continuous
 62
     2
100
AcDbCircle
 10
-62.16755213531994
 20
17.24159591676832
 30
0.0
 40
1.190476190476883
100
AcDbArc
 50
90.0
 51
270.0
  0
ARC
  5
394
102
{ACAD_REACTORS
330
416
330
416
102
}
330
6D
100
AcDbEntity
  8
1
  6
Continuous
 62
     2
100
AcDbCircle
 10
-65.18866262762774
 20
14.32254829773402
 30
0.0
 40
1.190476190477
100
AcDbArc
 50
270.0
 51
90.0
  0
ARC
  5
395
102
{ACAD_REACTORS
330
416
330
416
102
}
330
6D
100
AcDbEntity
  8
1
  6
Continuous
 62
     2
100
AcDbCircle
 10
-65.29070344395504
 20
14.32254829773402
 30
0.0
 40
1.19047619047711
100
AcDbArc
 50
90.0
 51
270.0
  0
ARC
  5
396
330
6D
100
AcDbEntity
  8
1
  6
Continuous
 62
     2
100
AcDbCircle
 10
-54.61090523629804
 20
14.33152988236722
 30
0.0
 40
1.201398482875458
100
AcDbArc
 50
217.7663890934394
 51
250.482095160258
  0
ARC
  5
397
330
6D
100
AcDbEntity
  8
1
  6
Continuous
 62
     2
100
AcDbCircle
 10
-54.58634853104724
 20
14.30712051180032
 30
0.0
 40
1.206350288026
100
AcDbArc
 50
91.6119598515516
 51
216.1353968693291
  0
CIRCLE
  5
398
330
6D
100
AcDbEntity
  8
1
  6
Continuous
 62
     2
100
AcDbCircle
 10
-76.49021444870854
 20
22.15707210725108
 30
0.0
 40
1.5
  0
CIRCLE
  5
399
330
6D
100
AcDbEntity
  8
1
  6
Continuous
 62
     2
100
AcDbCircle
 10
-76.49021444870854
 20
22.15707210725108
 30
0.0
 40
1.0
  0
CIRCLE
  5
39A
102
{ACAD_REACTORS
330
413
330
413
102
}
330
6D
100
AcDbEntity
  8
1
  6
Continuous
 62
     2
100
AcDbCircle
 10
-72.02064509769554
 20
16.15244247762061
 30
0.0
 40
0.4074074074073053
  0
ARC
  5
39B
102
{ACAD_REACTORS
330
413
330
413
102
}
330
6D
100
AcDbEntity
  8
1
  6
Continuous
 62
     2
100
AcDbCircle
 10
-69.66138583843654
 20
18.09873877391223
 30
0.0
 40
0.3333333333327033
100
AcDbArc
 50
0.0
 51
90.0
  0
ARC
  5
39C
102
{ACAD_REACTORS
330
413
330
413
102
}
330
6D
100
AcDbEntity
  8
1
  6
Continuous
 62
     2
100
AcDbCircle
 10
-69.66138583843654
 20
13.46540544058999
 30
0.0
 40
0.3333333333329698
100
AcDbArc
 50
270.0
 51
0.0
  0
ARC
  5
39D
102
{ACAD_REACTORS
330
413
330
413
102
}
330
6D
100
AcDbEntity
  8
1
  6
Continuous
 62
     2
100
AcDbCircle
 10
-74.19471917176985
 20
13.46540544058999
 30
0.0
 40
0.3333333333335986
100
AcDbArc
 50
180.0
 51
270.0
  0
ARC
  5
39E
102
{ACAD_REACTORS
330
413
330
413
102
}
330
6D
100
AcDbEntity
  8
1
  6
Continuous
 62
     2
100
AcDbCircle
 10
-74.19471917176985
 20
18.09873877391223
 30
0.0
 40
0.3333333333329698
100
AcDbArc
 50
90.0
 51
180.0
  0
ARC
  5
39F
102
{ACAD_REACTORS
330
413
330
413
102
}
330
6D
100
AcDbEntity
  8
1
  6
Continuous
 62
     2
100
AcDbCircle
 10
-72.48916361621454
 20
17.6191091442997
 30
0.0
 40
0.2648148148150966
100
AcDbArc
 50
359.9999999980076
 51
90.0
  0
ARC
  5
3A0
102
{ACAD_REACTORS
330
413
330
413
102
}
330
6D
100
AcDbEntity
  8
1
  6
Continuous
 62
     2
100
AcDbCircle
 10
-72.48916361621454
 20
17.1251143313265
 30
0.0
 40
0.2648148148217111
100
AcDbArc
 50
295.7192795015957
 51
0.0
  0
ARC
  5
3A1
102
{ACAD_REACTORS
330
413
330
413
102
}
330
6D
100
AcDbEntity
  8
1
  6
Continuous
 62
     2
100
AcDbCircle
 10
-72.48916361621454
 20
15.17977062391489
 30
0.0
 40
0.2648148148150966
100
AcDbArc
 50
0.00000000192975
 51
64.28072049830722
  0
ARC
  5
3A2
102
{ACAD_REACTORS
330
413
330
413
102
}
330
6D
100
AcDbEntity
  8
1
  6
Continuous
 62
     2
100
AcDbCircle
 10
-72.48916361621454
 20
13.87096099613879
 30
0.0
 40
0.2648148148045895
100
AcDbArc
 50
270.0
 51
0.0
  0
ARC
  5
3A3
102
{ACAD_REACTORS
330
413
330
413
102
}
330
6D
100
AcDbEntity
  8
1
  6
Continuous
 62
     2
100
AcDbCircle
 10
-73.79286731991894
 20
13.87096099613879
 30
0.0
 40
0.2648148148140024
100
AcDbArc
 50
180.0
 51
270.0
  0
ARC
  5
3A4
102
{ACAD_REACTORS
330
413
330
413
102
}
330
6D
100
AcDbEntity
  8
1
  6
Continuous
 62
     2
100
AcDbCircle
 10
-73.79286731991894
 20
17.6191091442997
 30
0.0
 40
0.2648148148090819
100
AcDbArc
 50
90.0
 51
180.0
  0
ARC
  5
3A5
102
{ACAD_REACTORS
330
413
330
413
102
}
330
6D
100
AcDbEntity
  8
1
  6
Continuous
 62
     2
100
AcDbCircle
 10
-71.55212657917784
 20
15.17977062391489
 30
0.0
 40
0.2648148148214936
100
AcDbArc
 50
115.7192795014989
 51
180.0
  0
ARC
  5
3A6
102
{ACAD_REACTORS
330
413
330
413
102
}
330
6D
100
AcDbEntity
  8
1
  6
Continuous
 62
     2
100
AcDbCircle
 10
-71.55212657917784
 20
17.1251143313265
 30
0.0
 40
0.2648148148142013
100
AcDbArc
 50
180.0
 51
244.2807204980797
  0
ARC
  5
3A7
102
{ACAD_REACTORS
330
413
330
413
102
}
330
6D
100
AcDbEntity
  8
1
  6
Continuous
 62
     2
100
AcDbCircle
 10
-71.55212657917784
 20
17.6191091442997
 30
0.0
 40
0.2648148148090819
100
AcDbArc
 50
90.0
 51
180.0
  0
ARC
  5
3A8
102
{ACAD_REACTORS
330
413
330
413
102
}
330
6D
100
AcDbEntity
  8
1
  6
Continuous
 62
     2
100
AcDbCircle
 10
-71.55212657917784
 20
14.68577581095073
 30
0.0
 40
0.2648148148142013
100
AcDbArc
 50
180.0
 51
270.0
  0
MTEXT
  5
3AA
330
6D
100
AcDbEntity
  8
1
 62
     3
100
AcDbMText
 10
-4.3306498604515
 20
27.63207210725108
 30
0.0
 40
2.0
 41
0.0
 71
     1
 72
     1
  1
Kontaktzonenerweiterung
  7
CONVERTER_12
 73
     1
 44
1.20048019207683
  0
TEXT
  5
3AC
330
6D
100
AcDbEntity
  8
1
 62
     7
100
AcDbText
 10
-27.05256205475609
 20
29.83207210725108
 30
0.0
 40
2.5
  1
02
 41
0.81
  7
CONVERTER_13
100
AcDbText
  0
TEXT
  5
3AE
330
6D
100
AcDbEntity
  8
1
 62
     3
100
AcDbText
 10
-44.18247427381191
 20
17.08207210725108
 30
0.0
 40
2.5
  1
KUNDENZCHNG-SELECT
 41
0.45
  7
CONVERTER_14
100
AcDbText
  0
TEXT
  5
3B0
330
6D
100
AcDbEntity
  8
1
 62
     3
100
AcDbText
 10
31.080738534619
 20
29.83207210725108
 30
0.0
 40
2.5
  1
 
 41
0.54
  7
CONVERTER_15
100
AcDbText
  0
TEXT
  5
3B1
330
6D
100
AcDbEntity
  8
1
 62
     7
100
AcDbText
 10
-14.53766974705952
 20
17.08207210725108
 30
0.0
 40
2.5
  1
00357345
 41
0.81
  7
CONVERTER_13
100
AcDbText
  0
TEXT
  5
3B2
330
6D
100
AcDbEntity
  8
1
 62
     7
100
AcDbText
 10
-43.6824742738121
 20
29.83207210725108
 30
0.0
 40
2.5
  1
3030213
 41
0.81
  7
CONVERTER_13
100
AcDbText
  0
TEXT
  5
3B3
330
6D
100
AcDbEntity
  8
1
 62
     3
100
AcDbText
 10
-21.28247427381189
 20
29.83207210725108
 30
0.0
 40
2.5
  1
-
 41
0.54
  7
CONVERTER_15
100
AcDbText
  0
MTEXT
  5
3B4
330
6D
100
AcDbEntity
  8
1
 62
     3
100
AcDbMText
 10
25.62153439377951
 20
29.83207210725119
 30
0.0
 40
2.5
 41
0.0
 71
     8
 72
     1
  1
1:1
  7
CONVERTER_12
 73
     1
 44
1.32052821128451
  0
MTEXT
  5
3B5
330
6D
100
AcDbEntity
  8
1
 62
     7
100
AcDbMText
 10
1.3899279895636
 20
10.53207210725131
 30
0.0
 40
3.0
 41
0.0
 71
     5
 72
     1
  1
FBS 10-5
  7
CONVERTER_13
 73
     1
 44
1.20048019207683
  0
TEXT
  5
3B6
330
6D
100
AcDbEntity
  8
1
 62
     3
100
AcDbText
 10
3.9623302529401
 20
17.08207210725108
 30
0.0
 40
2.5
  1
 
 41
0.54
  7
CONVERTER_15
100
AcDbText
  0
TEXT
  5
3B7
330
6D
100
AcDbEntity
  8
1
 62
     7
100
AcDbText
 10
-29.2089265517981
 20
29.83207210725108
 30
0.0
 40
2.5
  1
/
 41
0.9
  7
CONVERTER_11
100
AcDbText
  0
MTEXT
  5
3B8
330
6D
100
AcDbEntity
  8
1
 62
     2
100
AcDbMText
 10
-65.43247427381189
 20
30.65707210725108
 30
0.0
 40
1.8
 41
0.0
 71
     5
 72
     1
  1
01.06.05
  7
CONVERTER_11
 73
     1
 44
1.32052821128451
  0
MTEXT
  5
3B9
330
6D
100
AcDbEntity
  8
1
 62
     2
100
AcDbMText
 10
-65.43247427381189
 20
26.40707210725108
 30
0.0
 40
1.8
 41
0.0
 71
     5
 72
     1
  1
20.11.10
  7
CONVERTER_11
 73
     1
 44
1.32052821128451
  0
MTEXT
  5
3BA
330
6D
100
AcDbEntity
  8
1
 62
     2
100
AcDbMText
 10
-51.93247427381195
 20
30.65707210725108
 30
0.0
 40
1.8
 41
0.0
 71
     5
 72
     1
  1
pbfm09
  7
CONVERTER_11
 73
     1
 44
1.32052821128451
  0
MTEXT
  5
3BB
330
6D
100
AcDbEntity
  8
1
 62
     2
100
AcDbMText
 10
-51.93247427381195
 20
26.40707210725108
 30
0.0
 40
1.8
 41
0.0
 71
     5
 72
     1
  1
pbam06
  7
CONVERTER_11
 73
     1
 44
1.32052821128451
  0
MTEXT
  5
3BC
330
6D
100
AcDbEntity
  8
1
 62
     2
100
AcDbMText
 10
-44.18247427381191
 20
23.28207210725102
 30
0.0
 40
1.8
 41
0.0
 71
     1
 72
     1
  1
document-type
  7
CONVERTER_11
 73
     1
 44
1.20048019207683
  0
MTEXT
  5
3BD
330
6D
100
AcDbEntity
  8
1
 62
     2
100
AcDbMText
 10
-76.88247427381184
 20
33.98207210725113
 30
0.0
 40
1.8
 41
0.0
 71
     8
 72
     1
  1
00
  7
CONVERTER_11
 73
     1
 44
1.20048019207683
  0
MTEXT
  5
3BE
330
6D
100
AcDbEntity
  8
1
 62
     2
100
AcDbMText
 10
-44.18247427381191
 20
14.78207210725108
 30
0.0
 40
1.8
 41
0.0
 71
     1
 72
     1
  1
description
  7
CONVERTER_11
 73
     1
 44
1.20048019207683
  0
TEXT
  5
3BF
330
6D
100
AcDbEntity
  8
1
 62
     2
100
AcDbText
 10
-57.14716546399824
 20
8.53207210725108
 30
0.0
 40
1.8
  1
1
 41
0.9
  7
CONVERTER_11
100
AcDbText
  0
TEXT
  5
3C0
330
6D
100
AcDbEntity
  8
1
 62
     2
100
AcDbText
 10
-71.93620930346974
 20
8.48282345344913
 30
0.0
 40
1.8
  1
 
 41
0.9
  7
CONVERTER_11
100
AcDbText
  0
MTEXT
  5
3C1
330
6D
100
AcDbEntity
  8
1
 62
     2
100
AcDbMText
 10
-44.0824742738119
 20
36.03207210725108
 30
0.0
 40
1.8
 41
0.0
 71
     1
 72
     1
  1
ident.-No. / RI
  7
CONVERTER_11
 73
     1
 44
1.20048019207683
  0
MTEXT
  5
3C2
330
6D
100
AcDbEntity
  8
1
 62
     3
100
AcDbMText
 10
-55.38247427381194
 20
22.15707210725119
 30
0.0
 40
2.5
 41
0.0
 71
     5
 72
     1
  1
DIN A4
  7
CONVERTER_11
 73
     1
 44
1.20048019207683
  0
MTEXT
  5
3C3
330
6D
100
AcDbEntity
  8
1
 62
     2
100
AcDbMText
 10
-76.88247427381184
 20
26.40707210725108
 30
0.0
 40
1.8
 41
0.0
 71
     5
 72
     1
  1
check.
  7
CONVERTER_11
 73
     1
 44
1.20048019207683
  0
MTEXT
  5
3C4
330
6D
100
AcDbEntity
  8
1
 62
     2
100
AcDbMText
 10
-76.88247427381184
 20
30.65707210725108
 30
0.0
 40
1.8
 41
0.0
 71
     5
 72
     1
  1
creat.
  7
CONVERTER_11
 73
     1
 44
1.20048019207683
  0
MTEXT
  5
3C5
330
6D
100
AcDbEntity
  8
1
 62
     2
100
AcDbMText
 10
22.26233025293999
 20
36.03207210725108
 30
0.0
 40
1.8
 41
0.0
 71
     1
 72
     1
  1
scale
  7
CONVERTER_11
 73
     1
 44
1.20048019207683
  0
MTEXT
  5
3C6
330
6D
100
AcDbEntity
  8
1
 62
     2
100
AcDbMText
 10
-153.2100720104369
 20
8.53207210725108
 30
0.0
 40
1.8
 41
0.0
 71
     8
 72
     1
  1
revision
  7
CONVERTER_11
 73
     1
 44
1.32052821128451
  0
MTEXT
  5
3C7
330
6D
100
AcDbEntity
  8
1
 62
     2
100
AcDbMText
 10
-51.93247427381195
 20
33.98207210725113
 30
0.0
 40
1.8
 41
0.0
 71
     8
 72
     1
  1
name
  7
CONVERTER_11
 73
     1
 44
1.32052821128451
  0
MTEXT
  5
3C8
330
6D
100
AcDbEntity
  8
1
 62
     2
100
AcDbMText
 10
-65.43247427381193
 20
33.98207210725113
 30
0.0
 40
1.8
 41
0.0
 71
     8
 72
     1
  1
date
  7
CONVERTER_11
 73
     1
 44
1.32052821128451
  0
MTEXT
  5
3C9
330
6D
100
AcDbEntity
  8
1
 62
     2
100
AcDbMText
 10
-200.937669747061
 20
8.53207210725108
 30
0.0
 40
1.8
 41
0.0
 71
     8
 72
     1
  1
RI
  7
CONVERTER_11
 73
     1
 44
1.32052821128451
  0
MTEXT
  5
3CA
330
6D
100
AcDbEntity
  8
1
 62
     2
100
AcDbMText
 10
-21.05728511622041
 20
36.03207210725091
 30
0.0
 40
1.8
 41
0.0
 71
     1
 72
     1
  1
material
  7
CONVERTER_11
 73
     1
 44
1.20048019207683
  0
MTEXT
  5
3CB
330
6D
100
AcDbEntity
  8
1
 62
     2
100
AcDbMText
 10
-191.087669747062
 20
8.53207210725108
 30
0.0
 40
1.8
 41
0.0
 71
     8
 72
     1
  1
date
  7
CONVERTER_11
 73
     1
 44
1.32052821128451
  0
MTEXT
  5
3CC
330
6D
100
AcDbEntity
  8
1
 62
     2
100
AcDbMText
 10
-115.3324742738118
 20
8.53207210725108
 30
0.0
 40
1.8
 41
0.0
 71
     8
 72
     1
  1
name
  7
CONVERTER_11
 73
     1
 44
1.32052821128451
  0
MTEXT
  5
3CD
330
6D
100
AcDbEntity
  8
1
 62
     2
100
AcDbMText
 10
-101.8324742738118
 20
8.53207210725108
 30
0.0
 40
1.8
 41
0.0
 71
     8
 72
     1
  1
check.on
  7
CONVERTER_11
 73
     1
 44
1.32052821128451
  0
MTEXT
  5
3CE
330
6D
100
AcDbEntity
  8
1
 62
     2
100
AcDbMText
 10
-88.33247427381191
 20
8.53207210725108
 30
0.0
 40
1.8
 41
0.0
 71
     8
 72
     1
  1
name
  7
CONVERTER_11
 73
     1
 44
1.32052821128451
  0
TEXT
  5
3CF
330
6D
100
AcDbEntity
  8
1
 62
     2
100
AcDbText
 10
-80.58247427381181
 20
8.52305489225941
 30
0.0
 40
1.8
  1
page
 41
0.9
  7
CONVERTER_11
100
AcDbText
  0
TEXT
  5
3D0
330
6D
100
AcDbEntity
  8
1
 62
     2
100
AcDbText
 10
-62.38247427381194
 20
8.52305489225952
 30
0.0
 40
1.8
  1
of
 41
0.9
  7
CONVERTER_11
100
AcDbText
  0
MTEXT
  5
3D2
330
6D
100
AcDbEntity
  8
1
 62
     2
100
AcDbMText
 10
-14.53766974705952
 20
23.28207210725108
 30
0.0
 40
1.8
 41
0.0
 71
     1
 72
     1
  1
document-No.
  7
CONVERTER_16
 73
     1
 44
1.32052821128451
  0
MTEXT
  5
3D3
330
6D
100
AcDbEntity
  8
1
 62
     2
100
AcDbMText
 10
31.3807385346189
 20
36.03207210725108
 30
0.0
 40
1.8
 41
0.0
 71
     1
 72
     1
  1
dim.var.
  7
CONVERTER_11
 73
     1
 44
1.20048019207683
  0
MTEXT
  5
3D4
330
6D
100
AcDbEntity
  8
1
 62
     7
100
AcDbMText
 10
-241.5376697470609
 20
29.78207210725108
 30
0.0
 40
3.5
 41
0.0
 71
     5
 72
     1
  1
D
  7
CONVERTER_11
 73
     1
 44
1.20048019207683
  0
MTEXT
  5
3D5
330
6D
100
AcDbEntity
  8
1
 62
     7
100
AcDbMText
 10
-241.5376697470609
 20
82.28207210725108
 30
0.0
 40
3.5
 41
0.0
 71
     5
 72
     1
  1
C
  7
CONVERTER_11
 73
     1
 44
1.20048019207683
  0
MTEXT
  5
3D6
330
6D
100
AcDbEntity
  8
1
 62
     7
100
AcDbMText
 10
-241.5376697470609
 20
132.2820721072511
 30
0.0
 40
3.5
 41
0.0
 71
     5
 72
     1
  1
B
  7
CONVERTER_11
 73
     1
 44
1.20048019207683
  0
MTEXT
  5
3D7
330
6D
100
AcDbEntity
  8
1
 62
     7
100
AcDbMText
 10
-241.5376697470609
 20
184.7820721072511
 30
0.0
 40
3.5
 41
0.0
 71
     5
 72
     1
  1
A
  7
CONVERTER_11
 73
     1
 44
1.20048019207683
  0
MTEXT
  5
3D8
330
6D
100
AcDbEntity
  8
1
 62
     7
100
AcDbMText
 10
28.71233025293739
 20
4.78207210725108
 30
0.0
 40
3.5
 41
0.0
 71
     5
 72
     1
  1
6
  7
CONVERTER_11
 73
     1
 44
1.20048019207683
  0
MTEXT
  5
3D9
330
6D
100
AcDbEntity
  8
1
 62
     7
100
AcDbMText
 10
-20.53766974706189
 20
4.78207210725108
 30
0.0
 40
3.5
 41
0.0
 71
     5
 72
     1
  1
5
  7
CONVERTER_11
 73
     1
 44
1.20048019207683
  0
MTEXT
  5
3DA
330
6D
100
AcDbEntity
  8
1
 62
     7
100
AcDbMText
 10
-70.53766974706194
 20
4.78207210725108
 30
0.0
 40
3.5
 41
0.0
 71
     5
 72
     1
  1
4
  7
CONVERTER_11
 73
     1
 44
1.20048019207683
  0
MTEXT
  5
3DB
330
6D
100
AcDbEntity
  8
1
 62
     7
100
AcDbMText
 10
-120.5376697470619
 20
4.78207210725108
 30
0.0
 40
3.5
 41
0.0
 71
     5
 72
     1
  1
3
  7
CONVERTER_11
 73
     1
 44
1.20048019207683
  0
MTEXT
  5
3DC
330
6D
100
AcDbEntity
  8
1
 62
     7
100
AcDbMText
 10
-170.5376697470619
 20
4.78207210725108
 30
0.0
 40
3.5
 41
0.0
 71
     5
 72
     1
  1
2
  7
CONVERTER_11
 73
     1
 44
1.20048019207683
  0
MTEXT
  5
3DD
330
6D
100
AcDbEntity
  8
1
 62
     7
100
AcDbMText
 10
-219.7876697470615
 20
4.78207210725108
 30
0.0
 40
3.5
 41
0.0
 71
     5
 72
     1
  1
1
  7
CONVERTER_11
 73
     1
 44
1.20048019207683
  0
MTEXT
  5
3DE
330
6D
100
AcDbEntity
  8
1
 62
     3
100
AcDbMText
 10
-66.17949212220194
 20
194.0733802625499
 30
0.0
 40
1.8
 41
0.0
 71
     7
 72
     1
  3
The copying, distribution and utilistion of this document as well as the communication\Pof the contents to others without expressed authorization is prohibited according to\P\U+00a718 UWG German Law. Offenders will be held liable for the payment of 
  1
damages\Paccording to (\U+00a719 UWG German Law). All rights reserved, in particular the right to\Pcarry out patent, utility model or ornamental design registrations.\PFlachsmarktstra\U+00dfe 8  D-32825 Blomberg
  7
CONVERTER_11
 73
     1
 44
0.99639855942377
  0
MTEXT
  5
3DF
330
6D
100
AcDbEntity
  8
1
 62
     3
100
AcDbMText
 10
-239.03260196099
 20
194.0733802625499
 30
0.0
 40
1.8
 41
0.0
 71
     7
 72
     1
  3
Weitergabe sowie Vervielf\U+00e4ltigung dieses Dokuments, Verwertung und\PMitteilung seines Inhalts gem\U+00e4\U+00df \U+00a718 UWG verboten, soweit nicht aus-\Pdr\U+00fccklich gestattet. Zuwiderhandlungen verpflichten zu Schadenersatz\P(\U+00a719 U
  1
WG). Alle Rechte vorbehalten, insbesondere das Recht, Patent-,\PGebrauchsmuster- oder Geschmacksmusteranmeldungen durchzuf\U+00fchren.\PPhoenix Contact GmbH & Co. KG
  7
CONVERTER_11
 73
     1
 44
0.99639855942377
  0
MTEXT
  5
3E0
330
6D
100
AcDbEntity
  8
1
 62
     7
100
AcDbMText
 10
50.46233025293719
 20
29.78207210725108
 30
0.0
 40
3.5
 41
0.0
 71
     5
 72
     1
  1
D
  7
CONVERTER_11
 73
     1
 44
1.20048019207683
  0
MTEXT
  5
3E1
330
6D
100
AcDbEntity
  8
1
 62
     7
100
AcDbMText
 10
50.46233025293719
 20
132.282072107253
 30
0.0
 40
3.5
 41
0.0
 71
     5
 72
     1
  1
B
  7
CONVERTER_11
 73
     1
 44
1.20048019207683
  0
MTEXT
  5
3E2
330
6D
100
AcDbEntity
  8
1
 62
     7
100
AcDbMText
 10
50.46233025293719
 20
184.7820721072511
 30
0.0
 40
3.5
 41
0.0
 71
     5
 72
     1
  1
A
  7
CONVERTER_11
 73
     1
 44
1.20048019207683
  0
MTEXT
  5
3E3
330
6D
100
AcDbEntity
  8
1
 62
     7
100
AcDbMText
 10
50.46233025293719
 20
82.28207210725301
 30
0.0
 40
3.5
 41
0.0
 71
     5
 72
     1
  1
C
  7
CONVERTER_11
 73
     1
 44
1.20048019207683
  0
MTEXT
  5
3E4
330
6D
100
AcDbEntity
  8
1
 62
     2
100
AcDbMText
 10
3.9623302529401
 20
23.28207210725108
 30
0.0
 40
1.8
 41
0.0
 71
     1
 72
     1
  1
surface in um
  7
CONVERTER_11
 73
     1
 44
1.32052821128451
  0
MTEXT
  5
3E5
330
6D
100
AcDbEntity
  8
1
 62
     2
100
AcDbMText
 10
-14.53766974705952
 20
27.53207210725108
 30
0.0
 40
1.8
 41
0.0
 71
     1
 72
     1
  1
part-rev.
  7
CONVERTER_12
 73
     1
 44
1.20048019207683
  0
MTEXT
  5
3E6
330
6D
100
AcDbEntity
  8
1
 62
     2
100
AcDbMText
 10
-200.937669747061
 20
34.90707210725108
 30
0.0
 40
2.0
 41
0.0
 71
     5
 72
     1
  1
 
  7
CONVERTER_11
 73
     1
 44
1.20048019207683
  0
MTEXT
  5
3E7
330
6D
100
AcDbEntity
  8
1
 62
     2
100
AcDbMText
 10
-200.937669747061
 20
30.65707210725108
 30
0.0
 40
2.0
 41
0.0
 71
     5
 72
     1
  1
 
  7
CONVERTER_11
 73
     1
 44
1.20048019207683
  0
MTEXT
  5
3E8
330
6D
100
AcDbEntity
  8
1
 62
     2
100
AcDbMText
 10
-200.937669747061
 20
26.40707210725108
 30
0.0
 40
2.0
 41
0.0
 71
     5
 72
     1
  1
 
  7
CONVERTER_11
 73
     1
 44
1.20048019207683
  0
MTEXT
  5
3E9
330
6D
100
AcDbEntity
  8
1
 62
     2
100
AcDbMText
 10
-200.937669747061
 20
22.15707210725108
 30
0.0
 40
2.0
 41
0.0
 71
     5
 72
     1
  1
 
  7
CONVERTER_11
 73
     1
 44
1.20048019207683
  0
MTEXT
  5
3EA
330
6D
100
AcDbEntity
  8
1
 62
     2
100
AcDbMText
 10
-200.937669747061
 20
17.90707210725108
 30
0.0
 40
2.0
 41
0.0
 71
     5
 72
     1
  1
 
  7
CONVERTER_11
 73
     1
 44
1.20048019207683
  0
MTEXT
  5
3EB
330
6D
100
AcDbEntity
  8
1
 62
     2
100
AcDbMText
 10
-200.937669747061
 20
13.65707210725119
 30
0.0
 40
2.0
 41
0.0
 71
     5
 72
     1
  1
01
  7
CONVERTER_11
 73
     1
 44
1.20048019207683
  0
MTEXT
  5
3EC
330
6D
100
AcDbEntity
  8
1
 62
     2
100
AcDbMText
 10
-191.087669747062
 20
13.65707210725119
 30
0.0
 40
2.0
 41
0.0
 71
     5
 72
     1
  1
06.12.10
  7
CONVERTER_11
 73
     1
 44
1.20048019207683
  0
MTEXT
  5
3ED
330
6D
100
AcDbEntity
  8
1
 62
     2
100
AcDbMText
 10
-191.087669747062
 20
17.90707210725108
 30
0.0
 40
2.0
 41
0.0
 71
     5
 72
     1
  1
 
  7
CONVERTER_11
 73
     1
 44
1.20048019207683
  0
MTEXT
  5
3EE
330
6D
100
AcDbEntity
  8
1
 62
     2
100
AcDbMText
 10
-191.087669747062
 20
22.15707210725108
 30
0.0
 40
2.0
 41
0.0
 71
     5
 72
     1
  1
 
  7
CONVERTER_11
 73
     1
 44
1.20048019207683
  0
MTEXT
  5
3EF
330
6D
100
AcDbEntity
  8
1
 62
     2
100
AcDbMText
 10
-191.087669747062
 20
26.40707210725108
 30
0.0
 40
2.0
 41
0.0
 71
     5
 72
     1
  1
 
  7
CONVERTER_11
 73
     1
 44
1.20048019207683
  0
MTEXT
  5
3F0
330
6D
100
AcDbEntity
  8
1
 62
     2
100
AcDbMText
 10
-191.087669747062
 20
30.65707210725108
 30
0.0
 40
2.0
 41
0.0
 71
     5
 72
     1
  1
 
  7
CONVERTER_11
 73
     1
 44
1.20048019207683
  0
MTEXT
  5
3F1
330
6D
100
AcDbEntity
  8
1
 62
     2
100
AcDbMText
 10
-191.087669747062
 20
34.90707210725108
 30
0.0
 40
2.0
 41
0.0
 71
     5
 72
     1
  1
 
  7
CONVERTER_11
 73
     1
 44
1.20048019207683
  0
MTEXT
  5
3F2
330
6D
100
AcDbEntity
  8
1
 62
     2
100
AcDbMText
 10
-115.3324742738118
 20
13.65707210725119
 30
0.0
 40
2.0
 41
0.0
 71
     5
 72
     1
  1
pbfm09
  7
CONVERTER_11
 73
     1
 44
1.20048019207683
  0
MTEXT
  5
3F3
330
6D
100
AcDbEntity
  8
1
 62
     2
100
AcDbMText
 10
-115.3324742738118
 20
17.90707210725108
 30
0.0
 40
2.0
 41
0.0
 71
     5
 72
     1
  1
 
  7
CONVERTER_11
 73
     1
 44
1.20048019207683
  0
MTEXT
  5
3F4
330
6D
100
AcDbEntity
  8
1
 62
     2
100
AcDbMText
 10
-115.3324742738118
 20
22.15707210725108
 30
0.0
 40
2.0
 41
0.0
 71
     5
 72
     1
  1
 
  7
CONVERTER_11
 73
     1
 44
1.20048019207683
  0
MTEXT
  5
3F5
330
6D
100
AcDbEntity
  8
1
 62
     2
100
AcDbMText
 10
-115.3324742738118
 20
26.40707210725108
 30
0.0
 40
2.0
 41
0.0
 71
     5
 72
     1
  1
 
  7
CONVERTER_11
 73
     1
 44
1.20048019207683
  0
MTEXT
  5
3F6
330
6D
100
AcDbEntity
  8
1
 62
     2
100
AcDbMText
 10
-115.3324742738118
 20
30.65707210725108
 30
0.0
 40
2.0
 41
0.0
 71
     5
 72
     1
  1
 
  7
CONVERTER_11
 73
     1
 44
1.20048019207683
  0
MTEXT
  5
3F7
330
6D
100
AcDbEntity
  8
1
 62
     2
100
AcDbMText
 10
-115.3324742738118
 20
34.90707210725108
 30
0.0
 40
2.0
 41
0.0
 71
     5
 72
     1
  1
 
  7
CONVERTER_11
 73
     1
 44
1.20048019207683
  0
MTEXT
  5
3F8
330
6D
100
AcDbEntity
  8
1
 62
     2
100
AcDbMText
 10
-101.8324742738119
 20
34.90707210725108
 30
0.0
 40
2.0
 41
0.0
 71
     5
 72
     1
  1
 
  7
CONVERTER_11
 73
     1
 44
1.20048019207683
  0
MTEXT
  5
3F9
330
6D
100
AcDbEntity
  8
1
 62
     2
100
AcDbMText
 10
-101.8324742738119
 20
30.65707210725108
 30
0.0
 40
2.0
 41
0.0
 71
     5
 72
     1
  1
 
  7
CONVERTER_11
 73
     1
 44
1.20048019207683
  0
MTEXT
  5
3FA
330
6D
100
AcDbEntity
  8
1
 62
     2
100
AcDbMText
 10
-101.8324742738119
 20
26.40707210725108
 30
0.0
 40
2.0
 41
0.0
 71
     5
 72
     1
  1
 
  7
CONVERTER_11
 73
     1
 44
1.20048019207683
  0
MTEXT
  5
3FB
330
6D
100
AcDbEntity
  8
1
 62
     2
100
AcDbMText
 10
-101.8324742738119
 20
22.15707210725108
 30
0.0
 40
2.0
 41
0.0
 71
     5
 72
     1
  1
 
  7
CONVERTER_11
 73
     1
 44
1.20048019207683
  0
MTEXT
  5
3FC
330
6D
100
AcDbEntity
  8
1
 62
     2
100
AcDbMText
 10
-101.8324742738119
 20
17.90707210725108
 30
0.0
 40
2.0
 41
0.0
 71
     5
 72
     1
  1
 
  7
CONVERTER_11
 73
     1
 44
1.20048019207683
  0
MTEXT
  5
3FD
330
6D
100
AcDbEntity
  8
1
 62
     2
100
AcDbMText
 10
-101.8324742738119
 20
13.65707210725119
 30
0.0
 40
2.0
 41
0.0
 71
     5
 72
     1
  1
07.12.10
  7
CONVERTER_11
 73
     1
 44
1.20048019207683
  0
MTEXT
  5
3FE
330
6D
100
AcDbEntity
  8
1
 62
     2
100
AcDbMText
 10
-88.33247427381188
 20
34.90707210725108
 30
0.0
 40
2.0
 41
0.0
 71
     5
 72
     1
  1
 
  7
CONVERTER_11
 73
     1
 44
1.20048019207683
  0
MTEXT
  5
3FF
330
6D
100
AcDbEntity
  8
1
 62
     2
100
AcDbMText
 10
-88.33247427381188
 20
30.65707210725108
 30
0.0
 40
2.0
 41
0.0
 71
     5
 72
     1
  1
 
  7
CONVERTER_11
 73
     1
 44
1.20048019207683
  0
MTEXT
  5
400
330
6D
100
AcDbEntity
  8
1
 62
     2
100
AcDbMText
 10
-88.33247427381188
 20
26.40707210725108
 30
0.0
 40
2.0
 41
0.0
 71
     5
 72
     1
  1
 
  7
CONVERTER_11
 73
     1
 44
1.20048019207683
  0
MTEXT
  5
401
330
6D
100
AcDbEntity
  8
1
 62
     2
100
AcDbMText
 10
-88.33247427381188
 20
22.15707210725108
 30
0.0
 40
2.0
 41
0.0
 71
     5
 72
     1
  1
 
  7
CONVERTER_11
 73
     1
 44
1.20048019207683
  0
MTEXT
  5
402
330
6D
100
AcDbEntity
  8
1
 62
     2
100
AcDbMText
 10
-88.33247427381188
 20
17.90707210725108
 30
0.0
 40
2.0
 41
0.0
 71
     5
 72
     1
  1
 
  7
CONVERTER_11
 73
     1
 44
1.20048019207683
  0
MTEXT
  5
403
330
6D
100
AcDbEntity
  8
1
 62
     2
100
AcDbMText
 10
-88.33247427381188
 20
13.65707210725119
 30
0.0
 40
2.0
 41
0.0
 71
     5
 72
     1
  1
pbam06
  7
CONVERTER_11
 73
     1
 44
1.20048019207683
  0
MTEXT
  5
405
330
6D
100
AcDbEntity
  8
1
 62
     2
100
AcDbMText
 10
-183.337669747062
 20
34.90707210725108
 30
0.0
 40
2.0
 41
0.0
 71
     4
 72
     1
  1
 
  7
CONVERTER_17
 73
     1
 44
1.20048019207683
  0
MTEXT
  5
406
330
6D
100
AcDbEntity
  8
1
 62
     2
100
AcDbMText
 10
-183.337669747062
 20
30.65707210725108
 30
0.0
 40
2.0
 41
0.0
 71
     4
 72
     1
  1
 
  7
CONVERTER_17
 73
     1
 44
1.20048019207683
  0
MTEXT
  5
407
330
6D
100
AcDbEntity
  8
1
 62
     2
100
AcDbMText
 10
-183.337669747062
 20
26.40707210725108
 30
0.0
 40
2.0
 41
0.0
 71
     4
 72
     1
  1
 
  7
CONVERTER_17
 73
     1
 44
1.20048019207683
  0
MTEXT
  5
408
330
6D
100
AcDbEntity
  8
1
 62
     2
100
AcDbMText
 10
-183.337669747062
 20
22.15707210725108
 30
0.0
 40
2.0
 41
0.0
 71
     4
 72
     1
  1
 
  7
CONVERTER_17
 73
     1
 44
1.20048019207683
  0
MTEXT
  5
409
330
6D
100
AcDbEntity
  8
1
 62
     2
100
AcDbMText
 10
-183.337669747062
 20
17.90707210725108
 30
0.0
 40
2.0
 41
0.0
 71
     4
 72
     1
  1
 
  7
CONVERTER_17
 73
     1
 44
1.20048019207683
  0
MTEXT
  5
40A
330
6D
100
AcDbEntity
  8
1
 62
     2
100
AcDbMText
 10
-183.337669747062
 20
13.65707210725119
 30
0.0
 40
2.0
 41
0.0
 71
     4
 72
     1
  1
Bemassung angepasst
  7
CONVERTER_17
 73
     1
 44
1.20048019207683
  0
TEXT
  5
40B
330
6D
100
AcDbEntity
  8
1
 62
     3
100
AcDbText
 10
-44.08247427381198
 20
46.32684368085533
 30
0.0
 40
2.5
  1
 
 41
0.72
  7
CONVERTER_12
100
AcDbText
  0
TEXT
  5
40C
330
6D
100
AcDbEntity
  8
1
 62
     3
100
AcDbText
 10
-44.08247427381198
 20
42.82684368085533
 30
0.0
 40
2.5
  1
 
 41
0.72
  7
CONVERTER_12
100
AcDbText
  0
TEXT
  5
40D
330
6D
100
AcDbEntity
  8
1
 62
     3
100
AcDbText
 10
-44.08247427381198
 20
39.32684368085533
 30
0.0
 40
2.5
  1
 
 41
0.72
  7
CONVERTER_12
100
AcDbText
  0
MTEXT
  5
40F
330
6D
100
AcDbEntity
  8
1
 62
     3
100
AcDbMText
 10
-34.85023745569701
 20
26.40707210725107
 30
0.0
 40
2.5
 41
0.0
 71
     4
 72
     1
  1
A01-10032/02
  7
CONVERTER_18
 73
     1
 44
1.20048019207683
  0
MTEXT
  5
410
330
6D
100
AcDbEntity
  8
1
 62
     2
100
AcDbMText
 10
-44.0824742738119
 20
26.60707210725107
 30
0.0
 40
1.4
 41
0.0
 71
     4
 72
     1
  1
SAP\Pchange-No.
  7
CONVERTER_18
 73
     1
 44
0.66026410564226
  0
HATCH
  5
413
330
6D
100
AcDbEntity
  8
1
  6
Continuous
 62
     2
100
AcDbHatch
 10
0.0
 20
0.0
 30
0.0
210
0.0
220
0.0
230
1.0
  2
CUSTOM2
 70
     0
 71
     1
 91
        4
 92
        1
 93
        8
 72
     1
 10
-69.32805250510384
 20
18.09873877391223
 11
-69.32805250510384
 21
13.46540544058999
 72
     2
 10
-69.66138583843654
 20
13.46540544058999
 40
0.3333333333329698
 50
0.0
 51
90.0
 73
     0
 72
     1
 10
-69.66138583843654
 20
13.13207210725702
 11
-74.19471917176985
 21
13.13207210725702
 72
     2
 10
-74.19471917176985
 20
13.46540544058999
 40
0.3333333333335986
 50
90.0
 51
180.0
 73
     0
 72
     1
 10
-74.52805250510345
 20
13.46540544058999
 11
-74.52805250510345
 21
18.09873877391223
 72
     2
 10
-74.19471917176985
 20
18.09873877391223
 40
0.3333333333329698
 50
180.0
 51
270.0
 73
     0
 72
     1
 10
-74.19471917176985
 20
18.4320721072452
 11
-69.66138583843654
 21
18.4320721072452
 72
     2
 10
-69.66138583843654
 20
18.09873877391223
 40
0.3333333333327033
 50
270.0
 51
360.0
 73
     0
 97
        8
330
2C6
330
39E
330
2C5
330
39D
330
2C4
330
39C
330
2C3
330
39B
 92
       16
 93
       10
 72
     2
 10
-71.55212657917784
 20
14.68577581095073
 40
0.2648148148142013
 50
180.0
 51
270.0
 73
     1
 72
     1
 10
-71.55212657917784
 20
14.42096099614619
 11
-71.51138583843743
 21
14.42096099614619
 72
     2
 10
-71.51138583843743
 20
16.15244247762061
 40
1.73148148147442
 50
270.0
 51
450.0
 73
     1
 72
     1
 10
-71.51138583843743
 20
17.88392395910878
 11
-71.55212657917784
 21
17.88392395910878
 72
     2
 10
-71.55212657917784
 20
17.6191091442997
 40
0.2648148148090819
 50
90.0
 51
180.0
 73
     1
 72
     1
 10
-71.81694139399204
 20
17.6191091442997
 11
-71.81694139399204
 21
17.1251143313265
 72
     2
 10
-71.55212657917784
 20
17.1251143313265
 40
0.2648148148142013
 50
180.0
 51
244.2807204980797
 73
     1
 72
     2
 10
-72.02064509769554
 20
16.15244247762061
 40
0.8148148148132894
 50
295.7192795020247
 51
424.2807204978331
 73
     0
 72
     2
 10
-71.55212657917784
 20
15.17977062391489
 40
0.2648148148214936
 50
115.7192795014989
 51
180.0
 73
     1
 72
     1
 10
-71.81694139399204
 20
15.17977062391489
 11
-71.81694139399204
 21
14.68577581095073
 97
       10
330
3A8
330
2CF
330
392
330
2CE
330
3A7
330
2CD
330
3A6
330
391
330
3A5
330
2CC
 92
       16
 93
       12
 72
     2
 10
-73.79286731991894
 20
17.6191091442997
 40
0.2648148148090819
 50
90.0
 51
180.0
 73
     1
 72
     1
 10
-74.05768213473294
 20
17.6191091442997
 11
-74.05768213473294
 21
13.87096099613879
 72
     2
 10
-73.79286731991894
 20
13.87096099613879
 40
0.2648148148140024
 50
180.0
 51
270.0
 73
     1
 72
     1
 10
-73.79286731991894
 20
13.6061461813342
 11
-72.48916361621454
 21
13.6061461813342
 72
     2
 10
-72.48916361621454
 20
13.87096099613879
 40
0.2648148148045895
 50
270.0
 51
360.0
 73
     1
 72
     1
 10
-72.22434880139944
 20
13.87096099613879
 11
-72.22434880139944
 21
15.17977062392381
 72
     2
 10
-72.48916361621454
 20
15.17977062391489
 40
0.2648148148150966
 50
0.0000000019297488
 51
64.28072049830722
 73
     1
 72
     2
 10
-72.02064509769554
 20
16.15244247762061
 40
0.8148148148137929
 50
115.7192795021867
 51
244.2807204977869
 73
     0
 72
     2
 10
-72.48916361621454
 20
17.1251143313265
 40
0.2648148148217111
 50
295.7192795015957
 51
360.0
 73
     1
 72
     1
 10
-72.22434880139944
 20
17.1251143313265
 11
-72.22434880139944
 21
17.61910914429049
 72
     2
 10
-72.48916361621454
 20
17.6191091442997
 40
0.2648148148150966
 50
359.9999999980076
 51
450.0
 73
     1
 72
     1
 10
-72.48916361621454
 20
17.88392395910878
 11
-73.79286731991894
 21
17.88392395910878
 97
       12
330
3A4
330
2CB
330
3A3
330
2CA
330
3A2
330
2C9
330
3A1
330
390
330
3A0
330
2C8
330
39F
330
2C7
 92
       16
 93
        1
 72
     2
 10
-72.02064509769554
 20
16.15244247762061
 40
0.4074074074073053
 50
0.0
 51
360.0
 73
     1
 97
        1
330
39A
 75
     1
 76
     2
 52
0.0
 41
0.05
 77
     0
 78
     1
 53
0.0
 43
-1699.81996388569
 44
12438.36661982803
 45
-0.05
 46
0.05
 79
     0
 98
        1
 10
0.0
 20
0.0
  0
HATCH
  5
414
330
6D
100
AcDbEntity
  8
1
  6
Continuous
 62
     2
100
AcDbHatch
 10
0.0
 20
0.0
 30
0.0
210
0.0
220
0.0
230
1.0
  2
CUSTOM3
 70
     0
 71
     1
 91
        2
 92
        1
 93
        9
 72
     2
 10
-67.43900307007704
 20
17.60923907954
 40
0.8280239484092065
 50
276.4189726355862
 51
443.5810273644138
 73
     0
 72
     1
 10
-67.34643165085564
 20
16.7864060518348
 11
-67.48122363301854
 21
16.7864060518348
 72
     1
 10
-67.48122363301854
 20
16.7864060518348
 11
-67.90356270918593
 21
16.7864060518348
 72
     1
 10
-67.90356270918593
 20
16.7864060518348
 11
-67.90356270918593
 21
16.0511197262912
 72
     1
 10
-67.90356270918593
 20
16.0511197262912
 11
-68.05246392149535
 21
16.0511197262912
 72
     1
 10
-68.05246392149535
 20
16.0511197262912
 11
-68.78791645068173
 21
16.0511197262912
 72
     1
 10
-68.78791645068173
 20
16.0511197262912
 11
-68.78791645068173
 21
18.4320721072452
 72
     1
 10
-68.78791645068173
 20
18.4320721072452
 11
-67.63012484532894
 21
18.4320721072452
 72
     1
 10
-67.63012484532894
 20
18.4320721072452
 11
-67.34643165085564
 21
18.4320721072452
 97
        9
330
2BD
330
2BC
330
2BB
330
2BA
330
2B9
330
2B8
330
2B7
330
38E
330
2B6
 92
       16
 93
        6
 72
     2
 10
-67.70115689439004
 20
17.63995479076763
 40
0.2751160335811278
 50
270.0
 51
450.0
 73
     1
 72
     1
 10
-67.70115689439004
 20
17.91507082434859
 11
-67.75633966659954
 21
17.91507082434859
 72
     1
 10
-67.75633966659954
 20
17.91507082434859
 11
-67.90356270918593
 21
17.91507082434859
 72
     1
 10
-67.90356270918593
 20
17.91507082434859
 11
-67.90356270918593
 21
17.3648387571865
 72
     1
 10
-67.90356270918593
 20
17.3648387571865
 11
-67.75633966659954
 21
17.3648387571865
 72
     1
 10
-67.75633966659954
 20
17.3648387571865
 11
-67.70115689439004
 21
17.3648387571865
 97
        6
330
38F
330
2C2
330
2C1
330
2C0
330
2BF
330
2BE
 75
     1
 76
     2
 52
0.02257274673786
 41
0.05
 77
     0
 78
     1
 53
0.02257274673786
 43
-1699.81996388569
 44
12438.36661982803
 45
-0.0500196945567958
 46
0.0499802976826355
 79
     0
 98
        1
 10
0.0
 20
0.0
  0
HATCH
  5
415
330
6D
100
AcDbEntity
  8
1
  6
Continuous
 62
     2
100
AcDbHatch
 10
0.0
 20
0.0
 30
0.0
210
0.0
220
0.0
230
1.0
  2
CUSTOM4
 70
     0
 71
     1
 91
        1
 92
        1
 93
       14
 72
     2
 10
-62.16755213531994
 20
17.24159591676832
 40
1.190476190476883
 50
90.0
 51
270.0
 73
     1
 72
     1
 10
-62.16755213531994
 20
16.0511197262912
 11
-62.06551131899384
 21
16.0511197262912
 72
     1
 10
-62.06551131899384
 20
16.0511197262912
 11
-60.02465114456064
 21
16.0511197262912
 72
     1
 10
-60.02465114456064
 20
16.0511197262912
 11
-60.02465114456064
 21
16.59533741336591
 72
     1
 10
-60.02465114456064
 20
16.59533741336591
 11
-60.97703209694194
 21
16.59533741336591
 72
     1
 10
-60.97703209694194
 20
16.59533741336591
 11
-60.97703209694194
 21
16.96948707323079
 72
     1
 10
-60.97703209694194
 20
16.96948707323079
 11
-60.02465114456064
 21
16.96948707323079
 72
     1
 10
-60.02465114456064
 20
16.96948707323079
 11
-60.02465114456064
 21
17.51370476030561
 72
     1
 10
-60.02465114456064
 20
17.51370476030561
 11
-60.97703209694194
 21
17.51370476030561
 72
     1
 10
-60.97703209694194
 20
17.51370476030561
 11
-60.97703209694194
 21
17.88785442017061
 72
     1
 10
-60.97703209694194
 20
17.88785442017061
 11
-60.02465114456064
 21
17.88785442017061
 72
     1
 10
-60.02465114456064
 20
17.88785442017061
 11
-60.02465114456064
 21
18.4320721072452
 72
     1
 10
-60.02465114456064
 20
18.4320721072452
 11
-62.06551131899384
 21
18.4320721072452
 72
     1
 10
-62.06551131899384
 20
18.4320721072452
 11
-62.16755213531994
 21
18.4320721072452
 97
       14
330
393
330
2DC
330
2DB
330
2DA
330
2D9
330
2D8
330
2D7
330
2D6
330
2D5
330
2D4
330
2D3
330
2D2
330
2D1
330
2D0
 75
     1
 76
     2
 52
0.02257274673786
 41
0.05
 77
     0
 78
     1
 53
0.02257274673786
 43
-1699.81996388569
 44
12438.36661982803
 45
-0.0500196945567958
 46
0.0499802976826355
 79
     0
 98
        1
 10
0.0
 20
0.0
  0
HATCH
  5
416
330
6D
100
AcDbEntity
  8
1
  6
Continuous
 62
     2
100
AcDbHatch
 10
0.0
 20
0.0
 30
0.0
210
0.0
220
0.0
230
1.0
  2
CUSTOM5
 70
     0
 71
     1
 91
        1
 92
        1
 93
        4
 72
     2
 10
-65.29070344395504
 20
14.32254829773402
 40
1.19047619047711
 50
90.0
 51
270.0
 73
     1
 72
     1
 10
-65.29070344395504
 20
13.13207210725702
 11
-65.18866262762774
 21
13.13207210725702
 72
     2
 10
-65.18866262762774
 20
14.32254829773402
 40
1.190476190477
 50
270.0
 51
450.0
 73
     1
 72
     1
 10
-65.18866262762774
 20
15.51302448821113
 11
-65.29070344395504
 21
15.51302448821113
 97
        4
330
395
330
2DE
330
394
330
2DD
 75
     1
 76
     2
 52
0.02257274673786
 41
0.05
 77
     0
 78
     1
 53
0.02257274673786
 43
-1699.81996388569
 44
12438.36661982803
 45
-0.0500196945567958
 46
0.0499802976826355
 79
     0
 98
        1
 10
0.0
 20
0.0
  0
HATCH
  5
417
330
6D
100
AcDbEntity
  8
1
  6
Continuous
 62
     2
100
AcDbHatch
 10
0.0
 20
0.0
 30
0.0
210
0.0
220
0.0
230
1.0
  2
CUSTOM6
 70
     0
 71
     1
 91
        1
 92
        1
 93
       12
 72
     1
 10
-65.35866475000213
 20
17.59873877391041
 11
-64.61036543027464
 21
17.59873877391041
 72
     1
 10
-64.61036543027464
 20
17.59873877391041
 11
-64.61036543027464
 21
18.4320721072452
 72
     1
 10
-64.61036543027464
 20
18.4320721072452
 11
-63.76002529421974
 21
18.4320721072452
 72
     1
 10
-63.76002529421974
 20
18.4320721072452
 11
-63.76002529421974
 21
16.0511197262912
 72
     1
 10
-63.76002529421974
 20
16.0511197262912
 11
-64.61036543027464
 21
16.0511197262912
 72
     1
 10
-64.61036543027464
 20
16.0511197262912
 11
-64.61036543027464
 21
16.93547346778982
 72
     1
 10
-64.61036543027464
 20
16.93547346778982
 11
-65.35866475000213
 21
16.93547346778982
 72
     1
 10
-65.35866475000213
 20
16.93547346778982
 11
-65.35866475000213
 21
16.0511197262912
 72
     1
 10
-65.35866475000213
 20
16.0511197262912
 11
-66.20900488605655
 21
16.0511197262912
 72
     1
 10
-66.20900488605655
 20
16.0511197262912
 11
-66.20900488605655
 21
18.4320721072452
 72
     1
 10
-66.20900488605655
 20
18.4320721072452
 11
-65.35866475000213
 21
18.4320721072452
 72
     1
 10
-65.35866475000213
 20
18.4320721072452
 11
-65.35866475000213
 21
17.59873877391041
 97
       12
330
28D
330
28C
330
28B
330
28A
330
289
330
288
330
287
330
286
330
285
330
284
330
283
330
282
 75
     1
 76
     2
 52
0.02257274673786
 41
0.05
 77
     0
 78
     1
 53
0.02257274673786
 43
-1699.81996388569
 44
12438.36661982803
 45
-0.0500196945567958
 46
0.0499802976826355
 79
     0
 98
        1
 10
0.0
 20
0.0
  0
HATCH
  5
418
330
6D
100
AcDbEntity
  8
1
  6
Continuous
 62
     2
100
AcDbHatch
 10
0.0
 20
0.0
 30
0.0
210
0.0
220
0.0
230
1.0
  2
CUSTOM7
 70
     0
 71
     1
 91
        1
 92
        1
 93
       10
 72
     1
 10
-56.96954910374495
 20
18.4320721072452
 11
-57.81988923979854
 21
18.4320721072452
 72
     1
 10
-57.81988923979854
 20
18.4320721072452
 11
-57.81988923979854
 21
17.41166394397803
 72
     1
 10
-57.81988923979854
 20
17.41166394397803
 11
-58.70424298129583
 21
18.4320721072452
 72
     1
 10
-58.70424298129583
 20
18.4320721072452
 11
-59.55458311734944
 21
18.4320721072452
 72
     1
 10
-59.55458311734944
 20
18.4320721072452
 11
-59.55458311734944
 21
16.0511197262912
 72
     1
 10
-59.55458311734944
 20
16.0511197262912
 11
-58.70424298129583
 21
16.0511197262912
 72
     1
 10
-58.70424298129583
 20
16.0511197262912
 11
-58.70424298129583
 21
17.07152788955861
 72
     1
 10
-58.70424298129583
 20
17.07152788955861
 11
-57.81988923979854
 21
16.0511197262912
 72
     1
 10
-57.81988923979854
 20
16.0511197262912
 11
-56.96954910374495
 21
16.0511197262912
 72
     1
 10
-56.96954910374495
 20
16.0511197262912
 11
-56.96954910374495
 21
18.4320721072452
 97
       10
330
297
330
296
330
295
330
294
330
293
330
292
330
291
330
290
330
28F
330
28E
 75
     1
 76
     2
 52
0.02257274673786
 41
0.05
 77
     0
 78
     1
 53
0.02257274673786
 43
-1699.81996388569
 44
12438.36661982803
 45
-0.0500196945567958
 46
0.0499802976826355
 79
     0
 98
        1
 10
0.0
 20
0.0
  0
HATCH
  5
419
330
6D
100
AcDbEntity
  8
1
  6
Continuous
 62
     2
100
AcDbHatch
 10
0.0
 20
0.0
 30
0.0
210
0.0
220
0.0
230
1.0
  2
_USER
 70
     0
 71
     1
 91
        1
 92
        1
 93
        4
 72
     1
 10
-55.61512733503633
 20
16.0511197262912
 11
-56.49948107653373
 21
16.0511197262912
 72
     1
 10
-56.49948107653373
 20
16.0511197262912
 11
-56.49948107653373
 21
18.4320721072452
 72
     1
 10
-56.49948107653373
 20
18.4320721072452
 11
-55.61512733503633
 21
18.4320721072452
 72
     1
 10
-55.61512733503633
 20
18.4320721072452
 11
-55.61512733503633
 21
16.0511197262912
 97
        4
330
328
330
298
330
327
330
326
 75
     1
 76
     0
 52
0.0
 41
0.05
 77
     0
 78
     1
 53
0.0
 43
0.0
 44
0.0
 45
0.0
 46
0.05
 79
     0
 98
        1
 10
0.0
 20
0.0
  0
HATCH
  5
41A
330
6D
100
AcDbEntity
  8
1
  6
Continuous
 62
     2
100
AcDbHatch
 10
0.0
 20
0.0
 30
0.0
210
0.0
220
0.0
230
1.0
  2
CUSTOM8
 70
     0
 71
     1
 91
        1
 92
        1
 93
       10
 72
     1
 10
-62.74584717833633
 20
15.51302448821113
 11
-63.59618731439204
 21
15.51302448821113
 72
     1
 10
-63.59618731439204
 20
15.51302448821113
 11
-63.59618731439204
 21
13.13207210725702
 72
     1
 10
-63.59618731439204
 20
13.13207210725702
 11
-62.74584717833633
 21
13.13207210725702
 72
     1
 10
-62.74584717833633
 20
13.13207210725702
 11
-62.74584717833633
 21
14.15248027052419
 72
     1
 10
-62.74584717833633
 20
14.15248027052419
 11
-61.86149343684075
 21
13.13207210725702
 72
     1
 10
-61.86149343684075
 20
13.13207210725702
 11
-61.01115330078665
 21
13.13207210725702
 72
     1
 10
-61.01115330078665
 20
13.13207210725702
 11
-61.01115330078665
 21
15.51302448821113
 72
     1
 10
-61.01115330078665
 20
15.51302448821113
 11
-61.86149343684075
 21
15.51302448821113
 72
     1
 10
-61.86149343684075
 20
15.51302448821113
 11
-61.86149343684075
 21
14.49261632494378
 72
     1
 10
-61.86149343684075
 20
14.49261632494378
 11
-62.74584717833633
 21
15.51302448821113
 97
       10
330
2A2
330
2A1
330
2A0
330
29F
330
29E
330
29D
330
29C
330
29B
330
29A
330
299
 75
     1
 76
     2
 52
0.02257274673786
 41
0.05
 77
     0
 78
     1
 53
0.02257274673786
 43
-1699.81996388569
 44
12438.36661982803
 45
-0.0500196945567958
 46
0.0499802976826355
 79
     0
 98
        1
 10
0.0
 20
0.0
  0
HATCH
  5
41B
330
6D
100
AcDbEntity
  8
1
  6
Continuous
 62
     2
100
AcDbHatch
 10
0.0
 20
0.0
 30
0.0
210
0.0
220
0.0
230
1.0
  2
CUSTOM9
 70
     0
 71
     1
 91
        1
 92
        1
 93
        8
 72
     1
 10
-58.60230976337203
 20
15.51302448821113
 11
-60.60911248445915
 21
15.51302448821113
 72
     1
 10
-60.60911248445915
 20
15.51302448821113
 11
-60.60911248445915
 21
14.90077959024981
 72
     1
 10
-60.60911248445915
 20
14.90077959024981
 11
-60.03088119194314
 21
14.90077959024981
 72
     1
 10
-60.03088119194314
 20
14.90077959024981
 11
-60.03088119194314
 21
13.13207210725702
 72
     1
 10
-60.03088119194314
 20
13.13207210725702
 11
-59.18054105588804
 21
13.13207210725702
 72
     1
 10
-59.18054105588804
 20
13.13207210725702
 11
-59.18054105588804
 21
14.90077959024981
 72
     1
 10
-59.18054105588804
 20
14.90077959024981
 11
-58.60230976337203
 21
14.90077959024981
 72
     1
 10
-58.60230976337203
 20
14.90077959024981
 11
-58.60230976337203
 21
15.51302448821113
 97
        8
330
2AA
330
2A9
330
2A8
330
2A7
330
2A6
330
2A5
330
2A4
330
2A3
 75
     1
 76
     2
 52
0.02257274673786
 41
0.05
 77
     0
 78
     1
 53
0.02257274673786
 43
-1699.81996388569
 44
12438.36661982803
 45
-0.0500196945567958
 46
0.0499802976826355
 79
     0
 98
        1
 10
0.0
 20
0.0
  0
HATCH
  5
41C
330
6D
100
AcDbEntity
  8
1
  6
Continuous
 62
     2
100
AcDbHatch
 10
0.0
 20
0.0
 30
0.0
210
0.0
220
0.0
230
1.0
  2
CUSTOM10
 70
     0
 71
     1
 91
        2
 92
        1
 93
        8
 72
     1
 10
-57.71591520554904
 20
15.51302448821113
 11
-58.71251384500493
 21
13.13207210725702
 72
     1
 10
-58.71251384500493
 20
13.13207210725702
 11
-57.82816010350794
 21
13.13207210725702
 72
     1
 10
-57.82816010350794
 20
13.13207210725702
 11
-57.67739628921075
 21
13.55384081474031
 72
     1
 10
-57.67739628921075
 20
13.55384081474031
 11
-56.87008038039053
 21
13.55384081474031
 72
     1
 10
-56.87008038039053
 20
13.55384081474031
 11
-56.71931656609282
 21
13.13207210725702
 72
     1
 10
-56.71931656609282
 20
13.13207210725702
 11
-55.83496282459643
 21
13.13207210725702
 72
     1
 10
-55.83496282459643
 20
13.13207210725702
 11
-56.83156146405184
 21
15.51302448821113
 72
     1
 10
-56.83156146405184
 20
15.51302448821113
 11
-57.71591520554904
 21
15.51302448821113
 97
        8
330
2B2
330
2B1
330
2B0
330
2AF
330
2AE
330
2AD
330
2AC
330
2AB
 92
       16
 93
        3
 72
     1
 10
-57.48772568412545
 20
14.08445305963769
 11
-57.05975098547435
 21
14.08445305963769
 72
     1
 10
-57.05975098547435
 20
14.08445305963769
 11
-57.27373833480053
 21
14.68309251542169
 72
     1
 10
-57.27373833480053
 20
14.68309251542169
 11
-57.48772568412545
 21
14.08445305963769
 97
        3
330
2B5
330
2B4
330
2B3
 75
     1
 76
     2
 52
0.02257274673786
 41
0.05
 77
     0
 78
     1
 53
0.02257274673786
 43
-1699.81996388569
 44
12438.36661982803
 45
-0.0500196945567958
 46
0.0499802976826355
 79
     0
 98
        1
 10
0.0
 20
0.0
  0
HATCH
  5
41D
330
6D
100
AcDbEntity
  8
1
  6
Continuous
 62
     2
100
AcDbHatch
 10
0.0
 20
0.0
 30
0.0
210
0.0
220
0.0
230
1.0
  2
CUSTOM11
 70
     0
 71
     1
 91
        1
 92
        1
 93
       12
 72
     1
 10
-52.30492325340435
 20
18.4320721072452
 11
-53.23349468197583
 21
17.28366221325072
 72
     1
 10
-53.23349468197583
 20
17.28366221325072
 11
-52.23689604252033
 21
16.0511197262912
 72
     1
 10
-52.23689604252033
 20
16.0511197262912
 11
-53.23689604252033
 21
16.0511197262912
 72
     1
 10
-53.23689604252033
 20
16.0511197262912
 11
-53.73349468197503
 21
16.66528765494783
 72
     1
 10
-53.73349468197503
 20
16.66528765494783
 11
-54.23009332143175
 21
16.0511197262912
 72
     1
 10
-54.23009332143175
 20
16.0511197262912
 11
-55.23009332143175
 21
16.0511197262912
 72
     1
 10
-55.23009332143175
 20
16.0511197262912
 11
-54.23349468197583
 21
17.28366221325072
 72
     1
 10
-54.23349468197583
 20
17.28366221325072
 11
-55.16206611054733
 21
18.4320721072452
 72
     1
 10
-55.16206611054733
 20
18.4320721072452
 11
-54.16206611054733
 21
18.4320721072452
 72
     1
 10
-54.16206611054733
 20
18.4320721072452
 11
-53.73349468197503
 21
17.90203677155378
 72
     1
 10
-53.73349468197503
 20
17.90203677155378
 11
-53.30492325340435
 21
18.4320721072452
 72
     1
 10
-53.30492325340435
 20
18.4320721072452
 11
-52.30492325340435
 21
18.4320721072452
 97
       12
330
334
330
333
330
332
330
331
330
330
330
32F
330
32E
330
32D
330
32C
330
32B
330
32A
330
329
 75
     1
 76
     2
 52
0.02257274673786
 41
0.05
 77
     0
 78
     1
 53
0.02257274673786
 43
-1699.81996388569
 44
12438.36661982803
 45
-0.0500196945567958
 46
0.0499802976826355
 79
     0
 98
        1
 10
0.0
 20
0.0
  0
ENDBLK
  5
6F
330
6D
100
AcDbEntity
  8
0
100
AcDbBlockEnd
  0
BLOCK
  5
71
330
70
100
AcDbEntity
  8
0
100
AcDbBlockBegin
  2
_punkt
 70
     0
 10
47.9623302529381
 20
7.28207210725119
 30
0.0
  3
_punkt
  1

  0
LINE
  5
41E
330
70
100
AcDbEntity
  8
1
  6
Continuous
 62
     2
100
AcDbLine
 10
47.9623302529381
 20
7.28207210725119
 30
0.0
 11
52.96233025293711
 21
7.28207210725119
 31
0.0
  0
LINE
  5
41F
330
70
100
AcDbEntity
  8
1
  6
Continuous
 62
     2
100
AcDbLine
 10
47.9623302529381
 20
7.28207210725119
 30
0.0
 11
47.9623302529381
 21
2.28207210725108
 31
0.0
  0
ENDBLK
  5
72
330
70
100
AcDbEntity
  8
0
100
AcDbBlockEnd
  0
BLOCK
  5
76
330
73
100
AcDbEntity
  8
0
100
AcDbBlockBegin
  2
A4I
 70
     0
 10
47.9623302529381
 20
2.28207210725108
 30
0.0
  3
A4I
  1

  0
INSERT
  5
74
330
73
100
AcDbEntity
  8
1
100
AcDbBlockReference
  2
_rahmen
 10
47.9623302529381
 20
2.28207210725108
 30
0.0
  0
INSERT
  5
75
330
73
100
AcDbEntity
  8
1
100
AcDbBlockReference
  2
_punkt
 10
47.9623302529381
 20
7.28207210725119
 30
0.0
  0
ENDBLK
  5
77
330
73
100
AcDbEntity
  8
0
100
AcDbBlockEnd
  0
BLOCK
  5
1FF
330
1F8
100
AcDbEntity
  8
0
100
AcDbBlockBegin
  2
*D16
 70
     1
 10
0.0
 20
0.0
 30
0.0
  3
*D16
  1

  0
LINE
  5
1F9
330
1F8
100
AcDbEntity
  8
1
  6
Continuous
 62
     2
100
AcDbLine
 10
-141.0000008941076
 20
172.9750002893823
 30
0.0
 11
-191.6000008941076
 21
172.9750002893823
 31
0.0
  0
LINE
  5
1FA
330
1F8
100
AcDbEntity
  8
1
  6
Continuous
 62
     2
100
AcDbLine
 10
-141.0000008941076
 20
162.9750002893823
 30
0.0
 11
-141.0000008941076
 21
174.9750002893823
 31
0.0
  0
LINE
  5
1FB
330
1F8
100
AcDbEntity
  8
1
  6
Continuous
 62
     2
100
AcDbLine
 10
-191.6000008941076
 20
162.9750002893823
 30
0.0
 11
-191.6000008941076
 21
174.9750002893823
 31
0.0
  0
SOLID
  5
1FC
330
1F8
100
AcDbEntity
  8
1
 62
     2
100
AcDbTrace
 10
-144.5000008941076
 20
172.5142165478264
 30
0.0
 11
-144.5000008941076
 21
173.4357840309382
 31
0.0
 12
-141.0000008941076
 22
172.9750002893823
 32
0.0
 13
-141.0000008941076
 23
172.9750002893823
 33
0.0
  0
SOLID
  5
1FD
330
1F8
100
AcDbEntity
  8
1
 62
     2
100
AcDbTrace
 10
-188.1000008941076
 20
173.4357840309382
 30
0.0
 11
-188.1000008941076
 21
172.5142165478264
 31
0.0
 12
-191.6000008941076
 22
172.9750002893823
 32
0.0
 13
-191.6000008941076
 23
172.9750002893823
 33
0.0
  0
MTEXT
  5
1FE
330
1F8
100
AcDbEntity
  8
1
 62
     3
100
AcDbMText
 10
-171.1125008941076
 20
175.3250002893823
 30
0.0
 40
3.5
 41
0.0
 71
     7
 72
     1
  1
50,6
  7
CONVERTER_11
 11
0.9999999999970619
 21
2.424068405545306E-6
 31
0.0
 73
     1
 44
0.60024009603842
  0
ENDBLK
  5
200
330
1F8
100
AcDbEntity
  8
0
100
AcDbBlockEnd
  0
BLOCK
  5
20A
330
203
100
AcDbEntity
  8
0
100
AcDbBlockBegin
  2
*D17
 70
     1
 10
0.0
 20
0.0
 30
0.0
  3
*D17
  1

  0
LINE
  5
204
330
203
100
AcDbEntity
  8
1
  6
Continuous
 62
     2
100
AcDbLine
 10
-201.6000008941076
 20
162.9750002893823
 30
0.0
 11
-201.6000008941076
 21
149.3750002893823
 31
0.0
  0
LINE
  5
205
330
203
100
AcDbEntity
  8
1
  6
Continuous
 62
     2
100
AcDbLine
 10
-191.6000008941076
 20
162.9750002893823
 30
0.0
 11
-203.6000008941076
 21
162.9750002893823
 31
0.0
  0
LINE
  5
206
330
203
100
AcDbEntity
  8
1
  6
Continuous
 62
     2
100
AcDbLine
 10
-190.95000089411
 20
149.3750002893823
 30
0.0
 11
-203.6000008941076
 21
149.3750002893823
 31
0.0
  0
SOLID
  5
207
330
203
100
AcDbEntity
  8
1
 62
     2
100
AcDbTrace
 10
-201.1392171525517
 20
159.4750002893823
 30
0.0
 11
-202.0607846356635
 21
159.4750002893823
 31
0.0
 12
-201.6000008941076
 22
162.9750002893823
 32
0.0
 13
-201.6000008941076
 23
162.9750002893823
 33
0.0
  0
SOLID
  5
208
330
203
100
AcDbEntity
  8
1
 62
     2
100
AcDbTrace
 10
-202.0607846356635
 20
152.8750002893823
 30
0.0
 11
-201.1392171525517
 21
152.8750002893823
 31
0.0
 12
-201.6000008941076
 22
149.3750002893823
 32
0.0
 13
-201.6000008941076
 23
149.3750002893823
 33
0.0
  0
MTEXT
  5
209
330
203
100
AcDbEntity
  8
1
 62
     3
100
AcDbMText
 10
-203.9500008941076
 20
151.966520194215
 30
0.0
 40
3.5
 41
0.0
 71
     7
 72
     1
  1
13,6
  7
CONVERTER_11
 11
0.0
 21
1.0
 31
0.0
 73
     1
 44
0.60024009603842
  0
ENDBLK
  5
20B
330
203
100
AcDbEntity
  8
0
100
AcDbBlockEnd
  0
BLOCK
  5
215
330
20E
100
AcDbEntity
  8
0
100
AcDbBlockBegin
  2
*D18
 70
     1
 10
0.0
 20
0.0
 30
0.0
  3
*D18
  1

  0
LINE
  5
20F
330
20E
100
AcDbEntity
  8
1
  6
Continuous
 62
     2
100
AcDbLine
 10
-211.827652549565
 20
162.9750002893823
 30
0.0
 11
-211.827652549565
 21
140.3000002893605
 31
0.0
  0
LINE
  5
210
330
20E
100
AcDbEntity
  8
1
  6
Continuous
 62
     2
100
AcDbLine
 10
-191.6000008941076
 20
162.9750002893823
 30
0.0
 11
-213.827652549565
 21
162.9750002893823
 31
0.0
  0
LINE
  5
211
330
20E
100
AcDbEntity
  8
1
  6
Continuous
 62
     2
100
AcDbLine
 10
-188.8151899450933
 20
140.3000002893605
 30
0.0
 11
-213.827652549565
 21
140.3000002893605
 31
0.0
  0
SOLID
  5
212
330
20E
100
AcDbEntity
  8
1
 62
     2
100
AcDbTrace
 10
-211.3668688080091
 20
159.4750002893823
 30
0.0
 11
-212.2884362911209
 21
159.4750002893823
 31
0.0
 12
-211.827652549565
 22
162.9750002893823
 32
0.0
 13
-211.827652549565
 23
162.9750002893823
 33
0.0
  0
SOLID
  5
213
330
20E
100
AcDbEntity
  8
1
 62
     2
100
AcDbTrace
 10
-212.2884362911209
 20
143.8000002893605
 30
0.0
 11
-211.3668688080091
 21
143.8000002893605
 31
0.0
 12
-211.827652549565
 22
140.3000002893605
 32
0.0
 13
-211.827652549565
 23
140.3000002893605
 33
0.0
  0
MTEXT
  5
214
330
20E
100
AcDbEntity
  8
1
 62
     3
100
AcDbMText
 10
-214.177652549565
 20
146.938959999667
 30
0.0
 40
3.5
 41
0.0
 71
     7
 72
     1
  1
22,7
  7
CONVERTER_11
 11
0.0
 21
1.0
 31
0.0
 73
     1
 44
0.60024009603842
  0
ENDBLK
  5
216
330
20E
100
AcDbEntity
  8
0
100
AcDbBlockEnd
  0
BLOCK
  5
22F
330
226
100
AcDbEntity
  8
0
100
AcDbBlockBegin
  2
*D19
 70
     1
 10
0.0
 20
0.0
 30
0.0
  3
*D19
  1

  0
LINE
  5
227
330
226
100
AcDbEntity
  8
1
  6
Continuous
 62
     2
100
AcDbLine
 10
-108.4999999999999
 20
172.9750002893823
 30
0.0
 11
-98.75228513167747
 21
172.9750002893823
 31
0.0
  0
LINE
  5
228
330
226
100
AcDbEntity
  8
1
  6
Continuous
 62
     2
100
AcDbLine
 10
-111.4999999999999
 20
172.9750002893823
 30
0.0
 11
-108.4999999999999
 21
172.9750002893823
 31
0.0
  0
LINE
  5
229
330
226
100
AcDbEntity
  8
1
  6
Continuous
 62
     2
100
AcDbLine
 10
-118.4999999999999
 20
172.9750002893823
 30
0.0
 11
-111.4999999999999
 21
172.9750002893823
 31
0.0
  0
LINE
  5
22A
330
226
100
AcDbEntity
  8
1
  6
Continuous
 62
     2
100
AcDbLine
 10
-108.4999999999999
 20
162.9750002893823
 30
0.0
 11
-108.4999999999999
 21
174.9750002893823
 31
0.0
  0
LINE
  5
22B
330
226
100
AcDbEntity
  8
1
  6
Continuous
 62
     2
100
AcDbLine
 10
-111.4999999999999
 20
162.9750002893823
 30
0.0
 11
-111.4999999999999
 21
174.9750002893823
 31
0.0
  0
SOLID
  5
22C
330
226
100
AcDbEntity
  8
1
 62
     2
100
AcDbTrace
 10
-114.9999999999999
 20
172.5142165478264
 30
0.0
 11
-114.9999999999999
 21
173.4357840309382
 31
0.0
 12
-111.4999999999999
 22
172.9750002893823
 32
0.0
 13
-111.4999999999999
 23
172.9750002893823
 33
0.0
  0
SOLID
  5
22D
330
226
100
AcDbEntity
  8
1
 62
     2
100
AcDbTrace
 10
-104.9999999999999
 20
173.4357840309382
 30
0.0
 11
-104.9999999999999
 21
172.5142165478264
 31
0.0
 12
-108.4999999999999
 22
172.9750002893823
 32
0.0
 13
-108.4999999999999
 23
172.9750002893823
 33
0.0
  0
MTEXT
  5
22E
330
226
100
AcDbEntity
  8
1
 62
     3
100
AcDbMText
 10
-100.8522851316775
 20
174.9750002893823
 30
0.0
 40
3.5
 41
0.0
 71
     7
 72
     1
  1
3
  7
CONVERTER_11
 11
0.9999999999970619
 21
2.424068405545306E-6
 31
0.0
 73
     1
 44
0.60024009603842
  0
ENDBLK
  5
230
330
226
100
AcDbEntity
  8
0
100
AcDbBlockEnd
  0
BLOCK
  5
23C
330
233
100
AcDbEntity
  8
0
100
AcDbBlockBegin
  2
*D20
 70
     1
 10
0.0
 20
0.0
 30
0.0
  3
*D20
  1

  0
LINE
  5
234
330
233
100
AcDbEntity
  8
1
  6
Continuous
 62
     2
100
AcDbLine
 10
-117.8
 20
129.025262802101
 30
0.0
 11
-110.8
 21
129.025262802101
 31
0.0
  0
LINE
  5
235
330
233
100
AcDbEntity
  8
1
  6
Continuous
 62
     2
100
AcDbLine
 10
-110.8
 20
129.025262802101
 30
0.0
 11
-109.1999999999902
 21
129.025262802101
 31
0.0
  0
LINE
  5
236
330
233
100
AcDbEntity
  8
1
  6
Continuous
 62
     2
100
AcDbLine
 10
-109.1999999999902
 20
129.025262802101
 30
0.0
 11
-96.9711171253173
 21
129.025262802101
 31
0.0
  0
LINE
  5
237
330
233
100
AcDbEntity
  8
1
  6
Continuous
 62
     2
100
AcDbLine
 10
-110.8
 20
143.2742264322943
 30
0.0
 11
-110.8
 21
127.025262802101
 31
0.0
  0
LINE
  5
238
330
233
100
AcDbEntity
  8
1
  6
Continuous
 62
     2
100
AcDbLine
 10
-109.1999999999902
 20
140.300000289385
 30
0.0
 11
-109.1999999999902
 21
127.025262802101
 31
0.0
  0
SOLID
  5
239
330
233
100
AcDbEntity
  8
1
 62
     2
100
AcDbTrace
 10
-114.3
 20
128.5644790605451
 30
0.0
 11
-114.3
 21
129.4860465436569
 31
0.0
 12
-110.8
 22
129.025262802101
 32
0.0
 13
-110.8
 23
129.025262802101
 33
0.0
  0
SOLID
  5
23A
330
233
100
AcDbEntity
  8
1
 62
     2
100
AcDbTrace
 10
-105.6999999999902
 20
129.4860465436569
 30
0.0
 11
-105.6999999999902
 21
128.5644790605451
 31
0.0
 12
-109.1999999999902
 22
129.025262802101
 32
0.0
 13
-109.1999999999902
 23
129.025262802101
 33
0.0
  0
MTEXT
  5
23B
330
233
100
AcDbEntity
  8
1
 62
     3
100
AcDbMText
 10
-102.3961171253173
 20
131.375262802101
 30
0.0
 40
3.5
 41
0.0
 71
     7
 72
     1
  1
1,6
  7
CONVERTER_11
 11
0.9999999999970619
 21
2.424068405545306E-6
 31
0.0
 73
     1
 44
0.60024009603842
  0
ENDBLK
  5
23D
330
233
100
AcDbEntity
  8
0
100
AcDbBlockEnd
  0
ENDSEC
  0
SECTION
  2
ENTITIES
  0
INSERT
  5
78
330
1F
100
AcDbEntity
  8
0
100
AcDbBlockReference
  2
AllgSicht1
 10
-8.40000000007697
 20
84.99999999993702
 30
0.0
  0
INSERT
  5
79
330
1F
100
AcDbEntity
  8
0
100
AcDbBlockReference
  2
Drfsicht1
 10
-110.0
 20
84.99999999984493
 30
0.0
  0
INSERT
  5
7A
330
1F
100
AcDbEntity
  8
0
100
AcDbBlockReference
  2
Rckans1
 10
-8.39999961853016
 20
151.6375002861123
 30
0.0
  0
INSERT
  5
7B
330
1F
100
AcDbEntity
  8
0
100
AcDbBlockReference
  2
SA_Links1
 10
-55.69999980911517
 20
151.6375002861123
 30
0.0
  0
INSERT
  5
7C
330
1F
100
AcDbEntity
  8
0
100
AcDbBlockReference
  2
SA_Rechts1
 10
-166.30000019089
 20
151.6375002861123
 30
0.0
  0
INSERT
  5
7D
330
1F
100
AcDbEntity
  8
0
100
AcDbBlockReference
  2
Vordans1
 10
-109.9999999999999
 20
151.6375002861123
 30
0.0
  0
INSERT
  5
7E
330
1F
100
AcDbEntity
  8
0
100
AcDbBlockReference
  2
A4I
 10
47.9623302529381
 20
2.28207210725108
 30
0.0
  0
ENDSEC
  0
SECTION
  2
OBJECTS
  0
DICTIONARY
  5
C
330
0
100
AcDbDictionary
281
     1
  3
ACAD_GROUP
350
D
  3
ACAD_LAYOUT
350
1A
  3
ACAD_MLEADERSTYLE
350
421
  3
ACAD_MLINESTYLE
350
17
  3
ACAD_PLOTSETTINGS
350
19
  3
ACAD_PLOTSTYLENAME
350
E
  3
ACAD_TABLESTYLE
350
420
  3
ACAD_VISUALSTYLE
350
2A
  0
DICTIONARY
  5
D
102
{ACAD_REACTORS
330
C
102
}
330
C
100
AcDbDictionary
281
     1
  0
DICTIONARY
  5
1A
102
{ACAD_REACTORS
330
C
102
}
330
C
100
AcDbDictionary
281
     1
  3
Layout1
350
1E
  3
Layout2
350
26
  3
Model
350
22
  0
DICTIONARY
  5
421
102
{ACAD_REACTORS
330
C
102
}
330
C
100
AcDbDictionary
281
     1
  0
DICTIONARY
  5
17
102
{ACAD_REACTORS
330
C
102
}
330
C
100
AcDbDictionary
281
     1
  3
Standard
350
18
  0
DICTIONARY
  5
19
102
{ACAD_REACTORS
330
C
102
}
330
C
100
AcDbDictionary
281
     1
  0
ACDBDICTIONARYWDFLT
  5
E
102
{ACAD_REACTORS
330
C
102
}
330
C
100
AcDbDictionary
281
     1
  3
Normal
350
F
100
AcDbDictionaryWithDefault
340
F
  0
DICTIONARY
  5
420
102
{ACAD_REACTORS
330
C
102
}
330
C
100
AcDbDictionary
281
     1
  0
DICTIONARY
  5
2A
102
{ACAD_REACTORS
330
C
102
}
330
C
100
AcDbDictionary
281
     1
  3
2dWireframe
350
2F
  3
3D Hidden
350
31
  3
3dWireframe
350
30
  3
Basic
350
32
  3
Brighten
350
36
  3
ColorChange
350
3A
  3
Conceptual
350
34
  3
Dim
350
35
  3
Facepattern
350
39
  3
Flat
350
2B
  3
FlatWithEdges
350
2C
  3
Gouraud
350
2D
  3
GouraudWithEdges
350
2E
  3
Linepattern
350
38
  3
Realistic
350
33
  3
Thicken
350
37
  0
LAYOUT
  5
1E
102
{ACAD_REACTORS
330
1A
102
}
330
1A
100
AcDbPlotSettings
  1

  2
none_device
  4

  6

 40
0.0
 41
0.0
 42
0.0
 43
0.0
 44
0.0
 45
0.0
 46
0.0
 47
0.0
 48
0.0
 49
0.0
140
0.0
141
0.0
142
1.0
143
1.0
 70
   688
 72
     0
 73
     0
 74
     5
  7

 75
    16
147
1.0
148
0.0
149
0.0
100
AcDbLayout
  1
Layout1
 70
     1
 71
     1
 10
0.0
 20
0.0
 11
12.0
 21
9.0
 12
0.0
 22
0.0
 32
0.0
 14
1.00000000000000E+20
 24
1.00000000000000E+20
 34
1.00000000000000E+20
 15
-1.00000000000000E+20
 25
-1.00000000000000E+20
 35
-1.00000000000000E+20
146
0.0
 13
0.0
 23
0.0
 33
0.0
 16
1.0
 26
0.0
 36
0.0
 17
0.0
 27
1.0
 37
0.0
 76
     0
330
1B
  0
LAYOUT
  5
26
102
{ACAD_REACTORS
330
1A
102
}
330
1A
100
AcDbPlotSettings
  1

  2
none_device
  4

  6

 40
0.0
 41
0.0
 42
0.0
 43
0.0
 44
0.0
 45
0.0
 46
0.0
 47
0.0
 48
0.0
 49
0.0
140
0.0
141
0.0
142
1.0
143
1.0
 70
   688
 72
     0
 73
     0
 74
     5
  7

 75
    16
147
1.0
148
0.0
149
0.0
100
AcDbLayout
  1
Layout2
 70
     1
 71
     2
 10
0.0
 20
0.0
 11
0.0
 21
0.0
 12
0.0
 22
0.0
 32
0.0
 14
0.0
 24
0.0
 34
0.0
 15
0.0
 25
0.0
 35
0.0
146
0.0
 13
0.0
 23
0.0
 33
0.0
 16
1.0
 26
0.0
 36
0.0
 17
0.0
 27
1.0
 37
0.0
 76
     0
330
23
  0
LAYOUT
  5
22
102
{ACAD_REACTORS
330
1A
102
}
330
1A
100
AcDbPlotSettings
  1

  2
none_device
  4

  6

 40
0.0
 41
0.0
 42
0.0
 43
0.0
 44
0.0
 45
0.0
 46
0.0
 47
0.0
 48
0.0
 49
0.0
140
0.0
141
0.0
142
1.0
143
1.0
 70
  1712
 72
     0
 73
     0
 74
     0
  7

 75
     0
147
1.0
148
0.0
149
0.0
100
AcDbLayout
  1
Model
 70
     1
 71
     0
 10
0.0
 20
0.0
 11
12.0
 21
9.0
 12
0.0
 22
0.0
 32
0.0
 14
-244.037669747061
 24
2.28207210725108
 34
0.0
 15
52.96233025293711
 25
212.2820721072511
 35
0.0
146
0.0
 13
0.0
 23
0.0
 33
0.0
 16
1.0
 26
0.0
 36
0.0
 17
0.0
 27
1.0
 37
0.0
 76
     0
330
1F
331
29
  0
MLINESTYLE
  5
18
102
{ACAD_REACTORS
330
17
102
}
330
17
100
AcDbMlineStyle
  2
Standard
 70
     0
  3

 62
   256
 51
90.0
 52
90.0
 71
     2
 49
0.5
 62
   256
  6
BYLAYER
 49
-0.5
 62
   256
  6
BYLAYER
  0
ACDBPLACEHOLDER
  5
F
102
{ACAD_REACTORS
330
E
102
}
330
E
  0
VISUALSTYLE
  5
2F
102
{ACAD_REACTORS
330
2A
102
}
330
2A
100
AcDbVisualStyle
  2
2dWireframe
 70
     4
 71
     0
 72
     2
 73
     0
 90
        0
 40
-0.6
 41
-30.0
 62
     5
 63
     7
 74
     1
 91
        4
 64
     7
 65
   257
 75
     1
175
     1
 42
1.0
 92
        0
 66
   257
 43
1.0
 76
     1
 77
     6
 78
     2
 67
     7
 79
     5
170
     0
171
     0
290
     0
174
     0
 93
        1
 44
0.0
173
     0
291
     0
 45
0.0
1001
ACAD
1000
AcDbSavedByObjectVersion
1070
     0
  0
VISUALSTYLE
  5
31
102
{ACAD_REACTORS
330
2A
102
}
330
2A
100
AcDbVisualStyle
  2
3D Hidden
 70
     6
 71
     1
 72
     2
 73
     2
 90
        0
 40
-0.6
 41
-30.0
 62
     5
 63
     7
 74
     2
 91
        2
 64
     7
 65
   257
 75
     2
175
     1
 42
40.0
 92
        0
 66
   257
 43
1.0
 76
     1
 77
     6
 78
     2
 67
     7
 79
     3
170
     0
171
     0
290
     0
174
     0
 93
        1
 44
0.0
173
     0
291
     0
 45
0.0
1001
ACAD
1000
AcDbSavedByObjectVersion
1070
     0
  0
VISUALSTYLE
  5
30
102
{ACAD_REACTORS
330
2A
102
}
330
2A
100
AcDbVisualStyle
  2
3dWireframe
 70
     5
 71
     0
 72
     2
 73
     0
 90
        0
 40
-0.6
 41
-30.0
 62
     5
 63
     7
 74
     1
 91
        4
 64
     7
 65
   257
 75
     1
175
     1
 42
1.0
 92
        0
 66
   257
 43
1.0
 76
     1
 77
     6
 78
     2
 67
     7
 79
     5
170
     0
171
     0
290
     0
174
     0
 93
        1
 44
0.0
173
     0
291
     0
 45
0.0
1001
ACAD
1000
AcDbSavedByObjectVersion
1070
     0
  0
VISUALSTYLE
  5
32
102
{ACAD_REACTORS
330
2A
102
}
330
2A
100
AcDbVisualStyle
  2
Basic
 70
     7
 71
     1
 72
     0
 73
     1
 90
        0
 40
-0.6
 41
-30.0
 62
     5
 63
     7
 74
     0
 91
        4
 64
     7
 65
   257
 75
     1
175
     1
 42
1.0
 92
        8
 66
     7
 43
1.0
 76
     1
 77
     6
 78
     2
 67
     7
 79
     5
170
     0
171
     0
290
     0
174
     0
 93
        1
 44
0.0
173
     0
291
     1
 45
0.0
1001
ACAD
1000
AcDbSavedByObjectVersion
1070
     0
  0
VISUALSTYLE
  5
36
102
{ACAD_REACTORS
330
2A
102
}
330
2A
100
AcDbVisualStyle
  2
Brighten
 70
    12
 71
     2
 72
     2
 73
     0
 90
        0
 40
-0.6
 41
-30.0
 62
     5
 63
     7
 74
     1
 91
        4
 64
     7
 65
   257
 75
     1
175
     1
 42
1.0
 92
        8
 66
     7
 43
1.0
 76
     1
 77
     6
 78
     2
 67
     7
 79
     5
170
     0
171
     0
290
     0
174
     0
 93
        1
 44
50.0
173
     0
291
     1
 45
0.0
1001
ACAD
1000
AcDbSavedByObjectVersion
1070
     0
  0
VISUALSTYLE
  5
3A
102
{ACAD_REACTORS
330
2A
102
}
330
2A
100
AcDbVisualStyle
  2
ColorChange
 70
    16
 71
     2
 72
     2
 73
     3
 90
        0
 40
-0.6
 41
-30.0
 62
     5
 63
     8
 74
     1
 91
        4
 64
     7
 65
   257
 75
     1
175
     1
 42
1.0
 92
        8
 66
     8
 43
1.0
 76
     1
 77
     6
 78
     2
 67
     7
 79
     5
170
     0
171
     0
290
     0
174
     0
 93
        1
 44
0.0
173
     0
291
     1
 45
0.0
1001
ACAD
1000
AcDbSavedByObjectVersion
1070
     0
  0
VISUALSTYLE
  5
34
102
{ACAD_REACTORS
330
2A
102
}
330
2A
100
AcDbVisualStyle
  2
Conceptual
 70
     9
 71
     3
 72
     2
 73
     0
 90
        0
 40
-0.6
 41
-30.0
 62
     5
 63
     7
 74
     2
 91
        2
 64
     7
 65
   257
 75
     1
175
     1
 42
40.0
 92
        8
 66
     7
 43
1.0
 76
     1
 77
     6
 78
     2
 67
     7
 79
     3
170
     0
171
     0
290
     0
174
     0
 93
        1
 44
0.0
173
     0
291
     0
 45
0.0
1001
ACAD
1000
AcDbSavedByObjectVersion
1070
     0
  0
VISUALSTYLE
  5
35
102
{ACAD_REACTORS
330
2A
102
}
330
2A
100
AcDbVisualStyle
  2
Dim
 70
    11
 71
     2
 72
     2
 73
     0
 90
        0
 40
-0.6
 41
-30.0
 62
     5
 63
     7
 74
     1
 91
        4
 64
     7
 65
   257
 75
     1
175
     1
 42
1.0
 92
        8
 66
     7
 43
1.0
 76
     1
 77
     6
 78
     2
 67
     7
 79
     5
170
     0
171
     0
290
     0
174
     0
 93
        1
 44
-50.0
173
     0
291
     1
 45
0.0
1001
ACAD
1000
AcDbSavedByObjectVersion
1070
     0
  0
VISUALSTYLE
  5
39
102
{ACAD_REACTORS
330
2A
102
}
330
2A
100
AcDbVisualStyle
  2
Facepattern
 70
    15
 71
     2
 72
     2
 73
     0
 90
        0
 40
-0.6
 41
-30.0
 62
     5
 63
     7
 74
     1
 91
        4
 64
     7
 65
   257
 75
     1
175
     1
 42
1.0
 92
        8
 66
     7
 43
1.0
 76
     1
 77
     6
 78
     2
 67
     7
 79
     5
170
     0
171
     0
290
     0
174
     0
 93
        1
 44
0.0
173
     0
291
     1
 45
0.0
1001
ACAD
1000
AcDbSavedByObjectVersion
1070
     0
  0
VISUALSTYLE
  5
2B
102
{ACAD_REACTORS
330
2A
102
}
330
2A
100
AcDbVisualStyle
  2
Flat
 70
     0
 71
     2
 72
     1
 73
     1
 90
        2
 40
-0.6
 41
30.0
 62
     5
 63
     7
 74
     0
 91
        4
 64
     7
 65
   257
 75
     1
175
     1
 42
1.0
 92
        8
 66
     7
 43
1.0
 76
     1
 77
     6
 78
     2
 67
     7
 79
     5
170
     0
171
     0
290
     0
174
     0
 93
       13
 44
0.0
173
     0
291
     1
 45
0.0
1001
ACAD
1000
AcDbSavedByObjectVersion
1070
     0
  0
VISUALSTYLE
  5
2C
102
{ACAD_REACTORS
330
2A
102
}
330
2A
100
AcDbVisualStyle
  2
FlatWithEdges
 70
     1
 71
     2
 72
     1
 73
     1
 90
        2
 40
-0.6
 41
30.0
 62
     5
 63
     7
 74
     1
 91
        4
 64
     7
 65
   257
 75
     1
175
     1
 42
1.0
 92
        0
 66
   257
 43
1.0
 76
     1
 77
     6
 78
     2
 67
     7
 79
     5
170
     0
171
     0
290
     0
174
     0
 93
       13
 44
0.0
173
     0
291
     1
 45
0.0
1001
ACAD
1000
AcDbSavedByObjectVersion
1070
     0
  0
VISUALSTYLE
  5
2D
102
{ACAD_REACTORS
330
2A
102
}
330
2A
100
AcDbVisualStyle
  2
Gouraud
 70
     2
 71
     2
 72
     2
 73
     1
 90
        2
 40
-0.6
 41
30.0
 62
     5
 63
     7
 74
     0
 91
        4
 64
     7
 65
   257
 75
     1
175
     1
 42
1.0
 92
        0
 66
     7
 43
1.0
 76
     1
 77
     6
 78
     2
 67
     7
 79
     5
170
     0
171
     0
290
     0
174
     0
 93
       13
 44
0.0
173
     0
291
     1
 45
0.0
1001
ACAD
1000
AcDbSavedByObjectVersion
1070
     0
  0
VISUALSTYLE
  5
2E
102
{ACAD_REACTORS
330
2A
102
}
330
2A
100
AcDbVisualStyle
  2
GouraudWithEdges
 70
     3
 71
     2
 72
     2
 73
     1
 90
        2
 40
-0.6
 41
30.0
 62
     5
 63
     7
 74
     1
 91
        4
 64
     7
 65
   257
 75
     1
175
     1
 42
1.0
 92
        0
 66
   257
 43
1.0
 76
     1
 77
     6
 78
     2
 67
     7
 79
     5
170
     0
171
     0
290
     0
174
     0
 93
       13
 44
0.0
173
     0
291
     1
 45
0.0
1001
ACAD
1000
AcDbSavedByObjectVersion
1070
     0
  0
VISUALSTYLE
  5
38
102
{ACAD_REACTORS
330
2A
102
}
330
2A
100
AcDbVisualStyle
  2
Linepattern
 70
    14
 71
     2
 72
     2
 73
     0
 90
        0
 40
-0.6
 41
-30.0
 62
     5
 63
     7
 74
     1
 91
        4
 64
     7
 65
   257
 75
     7
175
     7
 42
1.0
 92
        8
 66
     7
 43
1.0
 76
     1
 77
     6
 78
     2
 67
     7
 79
     5
170
     0
171
     0
290
     0
174
     0
 93
        1
 44
0.0
173
     0
291
     1
 45
0.0
1001
ACAD
1000
AcDbSavedByObjectVersion
1070
     0
  0
VISUALSTYLE
  5
33
102
{ACAD_REACTORS
330
2A
102
}
330
2A
100
AcDbVisualStyle
  2
Realistic
 70
     8
 71
     2
 72
     2
 73
     0
 90
        0
 40
-0.6
 41
-30.0
 62
     5
 63
     7
 74
     1
 91
        0
 64
     7
 65
   257
 75
     1
175
     1
 42
1.0
 92
        8
 66
     8
 43
1.0
 76
     1
 77
     6
 78
     2
 67
     7
 79
     5
170
     0
171
     0
290
     0
174
     0
 93
       13
 44
0.0
173
     0
291
     0
 45
0.0
1001
ACAD
1000
AcDbSavedByObjectVersion
1070
     0
  0
VISUALSTYLE
  5
37
102
{ACAD_REACTORS
330
2A
102
}
330
2A
100
AcDbVisualStyle
  2
Thicken
 70
    13
 71
     2
 72
     2
 73
     0
 90
        0
 40
-0.6
 41
-30.0
 62
     5
 63
     7
 74
     1
 91
        4
 64
     7
 65
   257
 75
     1
175
     1
 42
1.0
 92
       12
 66
     7
 43
1.0
 76
     1
 77
     6
 78
     2
 67
     7
 79
     5
170
     0
171
     0
290
     0
174
     0
 93
        1
 44
0.0
173
     0
291
     1
 45
0.0
1001
ACAD
1000
AcDbSavedByObjectVersion
1070
     0
  0
ENDSEC
  0
EOF
