  0
SECTION
  2
HEADER
  9
$ACADVER
  1
AC1018
  9
$ACADMAINTVER
 70
    39
  9
$DWGCODEPAGE
  3
ANSI_1252
  9
$AUTHOR
  1
CPT
  9
$CUSTOMPROPERTYTAG
  1
Manager
  9
$CUSTOMPROPERTY
  1

  9
$CUSTOMPROPERTYTAG
  1
Company
  9
$CUSTOMPROPERTY
  1

  9
$CUSTOMPROPERTYTAG
  1
Category
  9
$CUSTOMPROPERTY
  1

  9
$CUSTOMPROPERTYTAG
  1
Part Number
  9
$CUSTOMPROPERTY
  1
L60030M1C
  9
$CUSTOMPROPERTYTAG
  1
Description
  9
$CUSTOMPROPERTY
  1

  9
$CUSTOMPROPERTYTAG
  1
Project
  9
$CUSTOMPROPERTY
  1

  9
$CUSTOMPROPERTYTAG
  1
Designer
  9
$CUSTOMPROPERTY
  1
CPT
  9
$CUSTOMPROPERTYTAG
  1
Engineer
  9
$CUSTOMPROPERTY
  1

  9
$CUSTOMPROPERTYTAG
  1
Authority
  9
$CUSTOMPROPERTY
  1

  9
$CUSTOMPROPERTYTAG
  1
Cost Center
  9
$CUSTOMPROPERTY
  1

  9
$CUSTOMPROPERTYTAG
  1
Vendor
  9
$CUSTOMPROPERTY
  1

  9
$CUSTOMPROPERTYTAG
  1
User Status
  9
$CUSTOMPROPERTY
  1

  9
$CUSTOMPROPERTYTAG
  1
Design Status
  9
$CUSTOMPROPERTY
  1
WorkInProgress
  9
$CUSTOMPROPERTYTAG
  1
Checked by
  9
$CUSTOMPROPERTY
  1

  9
$CUSTOMPROPERTYTAG
  1
Engr Approved by
  9
$CUSTOMPROPERTY
  1

  9
$CUSTOMPROPERTYTAG
  1
Mfg Approved by
  9
$CUSTOMPROPERTY
  1

  9
$CUSTOMPROPERTYTAG
  1
qty x 1000
  9
$CUSTOMPROPERTY
  1
1000
  9
$CUSTOMPROPERTYTAG
  1
units
  9
$CUSTOMPROPERTY
  1
EA
  9
$CUSTOMPROPERTYTAG
  1
FINISH
  9
$CUSTOMPROPERTY
  1

  9
$CUSTOMPROPERTYTAG
  1
MATL SPEC
  9
$CUSTOMPROPERTY
  1

  9
$CUSTOMPROPERTYTAG
  1
WT
  9
$CUSTOMPROPERTY
  1

  9
$CUSTOMPROPERTYTAG
  1
SCALE
  9
$CUSTOMPROPERTY
  1
NTS
  9
$INSBASE
 10
0.0
 20
0.0
 30
0.0
  9
$EXTMIN
 10
0.1262207203461862
 20
0.1265004609321458
 30
-0.0015258207003583
  9
$EXTMAX
 10
7.207112647135637
 20
5.540166232121986
 30
0.0000000349246037
  9
$LIMMIN
 10
0.0
 20
0.0
  9
$LIMMAX
 10
7.333333333333332
 20
5.666666666666666
  9
$ORTHOMODE
 70
     0
  9
$REGENMODE
 70
     1
  9
$FILLMODE
 70
     1
  9
$QTEXTMODE
 70
     0
  9
$MIRRTEXT
 70
     0
  9
$LTSCALE
 40
0.3333333333333333
  9
$ATTMODE
 70
     1
  9
$TEXTSIZE
 40
0.2
  9
$TRACEWID
 40
0.05
  9
$TEXTSTYLE
  7
Standard
  9
$CLAYER
  8
0
  9
$CELTYPE
  6
ByLayer
  9
$CECOLOR
 62
   256
  9
$CELTSCALE
 40
1.0
  9
$DISPSILH
 70
     0
  9
$DIMSCALE
 40
1.0
  9
$DIMASZ
 40
0.0708661417322835
  9
$DIMEXO
 40
0.0625
  9
$DIMDLI
 40
0.38
  9
$DIMRND
 40
0.0
  9
$DIMDLE
 40
0.0
  9
$DIMEXE
 40
0.18
  9
$DIMTP
 40
0.0
  9
$DIMTM
 40
0.0
  9
$DIMTXT
 40
0.2540000081062317
  9
$DIMCEN
 40
0.09
  9
$DIMTSZ
 40
0.0
  9
$DIMTOL
 70
     0
  9
$DIMLIM
 70
     0
  9
$DIMTIH
 70
     1
  9
$DIMTOH
 70
     1
  9
$DIMSE1
 70
     0
  9
$DIMSE2
 70
     0
  9
$DIMTAD
 70
     0
  9
$DIMZIN
 70
     0
  9
$DIMBLK
  1

  9
$DIMASO
 70
     1
  9
$DIMSHO
 70
     1
  9
$DIMPOST
  1

  9
$DIMAPOST
  1

  9
$DIMALT
 70
     0
  9
$DIMALTD
 70
     2
  9
$DIMALTF
 40
25.4
  9
$DIMLFAC
 40
1.0
  9
$DIMTOFL
 70
     0
  9
$DIMTVP
 40
0.0
  9
$DIMTIX
 70
     0
  9
$DIMSOXD
 70
     0
  9
$DIMSAH
 70
     0
  9
$DIMBLK1
  1

  9
$DIMBLK2
  1

  9
$DIMSTYLE
  2
Standard
  9
$DIMCLRD
 70
     0
  9
$DIMCLRE
 70
     0
  9
$DIMCLRT
 70
     0
  9
$DIMTFAC
 40
1.0
  9
$DIMGAP
 40
0.09
  9
$DIMJUST
 70
     0
  9
$DIMSD1
 70
     0
  9
$DIMSD2
 70
     0
  9
$DIMTOLJ
 70
     1
  9
$DIMTZIN
 70
     0
  9
$DIMALTZ
 70
     0
  9
$DIMALTTZ
 70
     0
  9
$DIMUPT
 70
     0
  9
$DIMDEC
 70
     4
  9
$DIMTDEC
 70
     4
  9
$DIMALTU
 70
     2
  9
$DIMALTTD
 70
     2
  9
$DIMTXSTY
  7
Standard
  9
$DIMAUNIT
 70
     0
  9
$DIMADEC
 70
     0
  9
$DIMALTRND
 40
0.0
  9
$DIMAZIN
 70
     0
  9
$DIMDSEP
 70
    46
  9
$DIMATFIT
 70
     3
  9
$DIMFRAC
 70
     0
  9
$DIMLDRBLK
  1

  9
$DIMLUNIT
 70
     2
  9
$DIMLWD
 70
    -2
  9
$DIMLWE
 70
    -2
  9
$DIMTMOVE
 70
     0
  9
$LUNITS
 70
     2
  9
$LUPREC
 70
     4
  9
$SKETCHINC
 40
0.1
  9
$FILLETRAD
 40
0.0
  9
$AUNITS
 70
     0
  9
$AUPREC
 70
     0
  9
$MENU
  1
.
  9
$ELEVATION
 40
0.0
  9
$PELEVATION
 40
0.0
  9
$THICKNESS
 40
0.0
  9
$LIMCHECK
 70
     0
  9
$CHAMFERA
 40
0.0
  9
$CHAMFERB
 40
0.0
  9
$CHAMFERC
 40
0.0
  9
$CHAMFERD
 40
0.0
  9
$SKPOLY
 70
     0
  9
$TDCREATE
 40
2454530.464256979
  9
$TDUCREATE
 40
2454530.235090313
  9
$TDUPDATE
 40
2454530.492490984
  9
$TDUUPDATE
 40
2454530.263324317
  9
$TDINDWG
 40
0.0003437616
  9
$TDUSRTIMER
 40
0.0003437616
  9
$USRTIMER
 70
     1
  9
$ANGBASE
 50
0.0
  9
$ANGDIR
 70
     0
  9
$PDMODE
 70
     0
  9
$PDSIZE
 40
0.0
  9
$PLINEWID
 40
0.0
  9
$SPLFRAME
 70
     0
  9
$SPLINETYPE
 70
     6
  9
$SPLINESEGS
 70
     8
  9
$HANDSEED
  5
789
  9
$SURFTAB1
 70
     6
  9
$SURFTAB2
 70
     6
  9
$SURFTYPE
 70
     6
  9
$SURFU
 70
     6
  9
$SURFV
 70
     6
  9
$UCSBASE
  2

  9
$UCSNAME
  2

  9
$UCSORG
 10
0.0
 20
0.0
 30
0.0
  9
$UCSXDIR
 10
1.0
 20
0.0
 30
0.0
  9
$UCSYDIR
 10
0.0
 20
1.0
 30
0.0
  9
$UCSORTHOREF
  2

  9
$UCSORTHOVIEW
 70
     0
  9
$UCSORGTOP
 10
0.0
 20
0.0
 30
0.0
  9
$UCSORGBOTTOM
 10
0.0
 20
0.0
 30
0.0
  9
$UCSORGLEFT
 10
0.0
 20
0.0
 30
0.0
  9
$UCSORGRIGHT
 10
0.0
 20
0.0
 30
0.0
  9
$UCSORGFRONT
 10
0.0
 20
0.0
 30
0.0
  9
$UCSORGBACK
 10
0.0
 20
0.0
 30
0.0
  9
$PUCSBASE
  2

  9
$PUCSNAME
  2

  9
$PUCSORG
 10
0.0
 20
0.0
 30
0.0
  9
$PUCSXDIR
 10
1.0
 20
0.0
 30
0.0
  9
$PUCSYDIR
 10
0.0
 20
1.0
 30
0.0
  9
$PUCSORTHOREF
  2

  9
$PUCSORTHOVIEW
 70
     0
  9
$PUCSORGTOP
 10
0.0
 20
0.0
 30
0.0
  9
$PUCSORGBOTTOM
 10
0.0
 20
0.0
 30
0.0
  9
$PUCSORGLEFT
 10
0.0
 20
0.0
 30
0.0
  9
$PUCSORGRIGHT
 10
0.0
 20
0.0
 30
0.0
  9
$PUCSORGFRONT
 10
0.0
 20
0.0
 30
0.0
  9
$PUCSORGBACK
 10
0.0
 20
0.0
 30
0.0
  9
$USERI1
 70
     0
  9
$USERI2
 70
     0
  9
$USERI3
 70
     0
  9
$USERI4
 70
     0
  9
$USERI5
 70
     0
  9
$USERR1
 40
0.0
  9
$USERR2
 40
0.0
  9
$USERR3
 40
0.0
  9
$USERR4
 40
0.0
  9
$USERR5
 40
0.0
  9
$WORLDVIEW
 70
     1
  9
$SHADEDGE
 70
     3
  9
$SHADEDIF
 70
    70
  9
$TILEMODE
 70
     1
  9
$MAXACTVP
 70
    64
  9
$PINSBASE
 10
0.0
 20
0.0
 30
0.0
  9
$PLIMCHECK
 70
     0
  9
$PEXTMIN
 10
0.0
 20
0.0
 30
0.0
  9
$PEXTMAX
 10
7.333333333333332
 20
5.666666666666666
 30
0.0
  9
$PLIMMIN
 10
0.0
 20
0.0
  9
$PLIMMAX
 10
7.333333333333332
 20
5.666666666666666
  9
$UNITMODE
 70
     0
  9
$VISRETAIN
 70
     1
  9
$PLINEGEN
 70
     0
  9
$PSLTSCALE
 70
     1
  9
$TREEDEPTH
 70
  3020
  9
$CMLSTYLE
  2
Standard
  9
$CMLJUST
 70
     0
  9
$CMLSCALE
 40
1.0
  9
$PROXYGRAPHICS
 70
     1
  9
$MEASUREMENT
 70
     0
  9
$CELWEIGHT
370
    -1
  9
$ENDCAPS
280
     0
  9
$JOINSTYLE
280
     0
  9
$LWDISPLAY
290
     0
  9
$INSUNITS
 70
     0
  9
$HYPERLINKBASE
  1

  9
$STYLESHEET
  1

  9
$XEDIT
290
     1
  9
$CEPSNTYPE
380
     0
  9
$PSTYLEMODE
290
     1
  9
$FINGERPRINTGUID
  2
{4406ABB4-58A2-4357-ACDD-74AC00B02762}
  9
$VERSIONGUID
  2
{F65EF8B0-881C-41FE-A5A7-D12184661105}
  9
$EXTNAMES
290
     1
  9
$PSVPSCALE
 40
0.0
  9
$OLESTARTUP
290
     0
  9
$SORTENTS
280
   127
  9
$INDEXCTL
280
     0
  9
$HIDETEXT
280
     1
  9
$XCLIPFRAME
290
     0
  9
$HALOGAP
280
     0
  9
$OBSCOLOR
 70
   257
  9
$OBSLTYPE
280
     0
  9
$INTERSECTIONDISPLAY
280
     0
  9
$INTERSECTIONCOLOR
 70
   257
  9
$DIMASSOC
280
     1
  9
$PROJECTNAME
  1

  0
ENDSEC
  0
SECTION
  2
CLASSES
  0
CLASS
  1
ACDBDICTIONARYWDFLT
  2
AcDbDictionaryWithDefault
  3
ObjectDBX Classes
 90
        0
 91
        1
280
     0
281
     0
  0
CLASS
  1
MATERIAL
  2
AcDbMaterial
  3
ObjectDBX Classes
 90
        0
 91
        3
280
     0
281
     0
  0
CLASS
  1
VISUALSTYLE
  2
AcDbVisualStyle
  3
ObjectDBX Classes
 90
     4095
 91
       16
280
     0
281
     0
  0
CLASS
  1
TABLESTYLE
  2
AcDbTableStyle
  3
ObjectDBX Classes
 90
     2047
 91
        1
280
     0
281
     0
  0
CLASS
  1
DICTIONARYVAR
  2
AcDbDictionaryVar
  3
ObjectDBX Classes
 90
        0
 91
        1
280
     0
281
     0
  0
ENDSEC
  0
SECTION
  2
TABLES
  0
TABLE
  2
VPORT
  5
8
330
0
100
AcDbSymbolTable
 70
     2
  0
VPORT
  5
788
330
8
100
AcDbSymbolTableRecord
100
AcDbViewportTableRecord
  2
*Active
 70
     0
 10
0.0
 20
0.0
 11
1.0
 21
1.0
 12
3.666666666666666
 22
2.833333333333333
 13
0.0
 23
0.0
 14
1.0
 24
1.0
 15
0.0
 25
0.0
 16
0.0
 26
0.0
 36
1.0
 17
0.0
 27
0.0
 37
0.0
 40
5.718338399189462
 41
1.601217656012176
 42
50.0
 43
0.0
 44
0.0
 50
0.0
 51
0.0
 71
     0
 72
   100
 73
     1
 74
     1
 75
     0
 76
     0
 77
     0
 78
     0
281
     0
 65
     1
110
0.0
120
0.0
130
0.0
111
1.0
121
0.0
131
0.0
112
0.0
122
1.0
132
0.0
 79
     0
146
0.0
  0
ENDTAB
  0
TABLE
  2
LTYPE
  5
5
330
0
100
AcDbSymbolTable
 70
    59
  0
LTYPE
  5
29
330
5
100
AcDbSymbolTableRecord
100
AcDbLinetypeTableRecord
  2
ByBlock
 70
     0
  3

 72
    65
 73
     0
 40
0.0
  0
LTYPE
  5
2A
330
5
100
AcDbSymbolTableRecord
100
AcDbLinetypeTableRecord
  2
ByLayer
 70
     0
  3

 72
    65
 73
     0
 40
0.0
  0
LTYPE
  5
2B
330
5
100
AcDbSymbolTableRecord
100
AcDbLinetypeTableRecord
  2
Continuous
 70
     0
  3
Solid line
 72
    65
 73
     0
 40
0.0
  0
LTYPE
  5
40
330
5
100
AcDbSymbolTableRecord
100
AcDbLinetypeTableRecord
  2
BY_STANDARD
 70
     0
  3
By Standard ____________    ____    ____   _
 72
    65
 73
     6
 40
1.240299999999998
 49
0.6614
 74
     0
 49
-0.0827
 74
     0
 49
0.1654
 74
     0
 49
-0.0827
 74
     0
 49
0.1654
 74
     0
 49
-0.0827
 74
     0
  0
LTYPE
  5
41
330
5
100
AcDbSymbolTableRecord
100
AcDbLinetypeTableRecord
  2
CHAIN
 70
     0
  3
Chain ____ _ ____ _ ____ _ ____ _ ____ _ ____
 72
    65
 73
     4
 40
0.7087
 49
0.4724000000000001
 74
     0
 49
-0.0591
 74
     0
 49
0.1181
 74
     0
 49
-0.0591
 74
     0
  0
LTYPE
  5
42
330
5
100
AcDbSymbolTableRecord
100
AcDbLinetypeTableRecord
  2
DASH_DOT
 70
     0
  3
Dash dot __ . __ . __ . __ . __ . __ . __ . __
 72
    65
 73
     4
 40
0.37
 49
0.24
 74
     0
 49
-0.06
 74
     0
 49
0.01
 74
     0
 49
-0.06
 74
     0
  0
LTYPE
  5
43
330
5
100
AcDbSymbolTableRecord
100
AcDbLinetypeTableRecord
  2
DOUBLE_DASH_DOT
 70
     0
  3
Double-Dash Dot __ __ . __ __ . __ __ . __ _
 72
    65
 73
     6
 40
0.4398000000000001
 49
0.24
 74
     0
 49
-0.06
 74
     0
 49
0.0098
 74
     0
 49
-0.06
 74
     0
 49
0.01
 74
     0
 49
-0.06
 74
     0
  0
LTYPE
  5
44
330
5
100
AcDbSymbolTableRecord
100
AcDbLinetypeTableRecord
  2
DASH_TRIPLE_DOT
 70
     0
  3
Dash Triple-Dot _ . . . _ . . . _ . . . _
 72
    65
 73
     8
 40
0.51
 49
0.24
 74
     0
 49
-0.06
 74
     0
 49
0.01
 74
     0
 49
-0.06
 74
     0
 49
0.01
 74
     0
 49
-0.06
 74
     0
 49
0.01
 74
     0
 49
-0.06
 74
     0
  0
LTYPE
  5
45
330
5
100
AcDbSymbolTableRecord
100
AcDbLinetypeTableRecord
  2
DASHED
 70
     0
  3
Dashed __ __ __ __ __ __ __ __ __ __ __ __ __ _
 72
    65
 73
     2
 40
0.2067
 49
0.1654
 74
     0
 49
-0.0413
 74
     0
  0
LTYPE
  5
46
330
5
100
AcDbSymbolTableRecord
100
AcDbLinetypeTableRecord
  2
DASH_DOUBLE_DOT
 70
     0
  3
Dash Double-Dot __ . . __ . . __ . . __ . .
 72
    65
 73
     6
 40
0.4398000000000001
 49
0.24
 74
     0
 49
-0.06
 74
     0
 49
0.0098
 74
     0
 49
-0.06
 74
     0
 49
0.01
 74
     0
 49
-0.06
 74
     0
  0
LTYPE
  5
47
330
5
100
AcDbSymbolTableRecord
100
AcDbLinetypeTableRecord
  2
DASHED_SPACE
 70
     0
  3
Dashed Space __ __ __ __ __ __ __ __ __ __ __ _
 72
    65
 73
     2
 40
0.2067
 49
0.1654
 74
     0
 49
-0.0413
 74
     0
  0
LTYPE
  5
48
330
5
100
AcDbSymbolTableRecord
100
AcDbLinetypeTableRecord
  2
DOTTED
 70
     0
  3
Dotted . . . . . . . . . . . . . . . . . . . . 
 72
    65
 73
     2
 40
0.0482
 49
0.0069
 74
     0
 49
-0.0413
 74
     0
  0
LTYPE
  5
49
330
5
100
AcDbSymbolTableRecord
100
AcDbLinetypeTableRecord
  2
DOUBLE_DASH_CHAIN
 70
     0
  3
Double-Dash Chain ______  __  __  ______  __  _
 72
    65
 73
     6
 40
1.240299999999998
 49
0.6614
 74
     0
 49
-0.0827
 74
     0
 49
0.1654
 74
     0
 49
-0.0827
 74
     0
 49
0.1654
 74
     0
 49
-0.0827
 74
     0
  0
LTYPE
  5
4B
330
5
100
AcDbSymbolTableRecord
100
AcDbLinetypeTableRecord
  2
DOUBLE_DASH_DOUBLE_DOT
 70
     0
  3
Double-Dash Double-dot _ _ . . _ _ . . _
 72
    65
 73
     8
 40
0.7400000000000002
 49
0.24
 74
     0
 49
-0.06
 74
     0
 49
0.24
 74
     0
 49
-0.06
 74
     0
 49
0.01
 74
     0
 49
-0.06
 74
     0
 49
0.01
 74
     0
 49
-0.06
 74
     0
  0
LTYPE
  5
4C
330
5
100
AcDbSymbolTableRecord
100
AcDbLinetypeTableRecord
  2
DOUBLE_DASH_TRIPLE_DOT
 70
     0
  3
Double Dash Triple Dot __ __ . . . __ __ . .
 72
    65
 73
    10
 40
0.8100000000000001
 49
0.24
 74
     0
 49
-0.06
 74
     0
 49
0.24
 74
     0
 49
-0.06
 74
     0
 49
0.01
 74
     0
 49
-0.06
 74
     0
 49
0.01
 74
     0
 49
-0.06
 74
     0
 49
0.01
 74
     0
 49
-0.06
 74
     0
  0
LTYPE
  5
4D
330
5
100
AcDbSymbolTableRecord
100
AcDbLinetypeTableRecord
  2
LONG_DASH_DOTTED
 70
     0
  3
Long Dash Dotted ____ . ____ . ____ . ____ . _
 72
    65
 73
     4
 40
0.3543
 49
0.2362
 74
     0
 49
-0.0295
 74
     0
 49
0.0591
 74
     0
 49
-0.0295
 74
     0
  0
LTYPE
  5
4E
330
5
100
AcDbSymbolTableRecord
100
AcDbLinetypeTableRecord
  2
LONG_DASH_DOUBLE_DOT
 70
     0
  3
Long Dash Double Dot ________  .  .  ________  
 72
    65
 73
     6
 40
0.6799999999999999
 49
0.48
 74
     0
 49
-0.06
 74
     0
 49
0.01
 74
     0
 49
-0.06
 74
     0
 49
0.01
 74
     0
 49
-0.06
 74
     0
  0
LTYPE
  5
4F
330
5
100
AcDbSymbolTableRecord
100
AcDbLinetypeTableRecord
  2
LONG_DASH_TRIPLE_DOT
 70
     0
  3
Long Dash Triple Dot ____ ... ____ ... ____
 72
    65
 73
     8
 40
0.3689
 49
0.2362
 74
     0
 49
-0.0295
 74
     0
 49
0.0049
 74
     0
 49
-0.0295
 74
     0
 49
0.0049
 74
     0
 49
-0.0295
 74
     0
 49
0.0049
 74
     0
 49
-0.0295
 74
     0
  0
LTYPE
  5
50
330
5
100
AcDbSymbolTableRecord
100
AcDbLinetypeTableRecord
  2
BORDER
 70
     0
  3
Border __ __ . __ __ . __ __ . __ __ . __ __ .
 72
    65
 73
     6
 40
1.75
 49
0.5
 74
     0
 49
-0.25
 74
     0
 49
0.5
 74
     0
 49
-0.25
 74
     0
 49
0.0
 74
     0
 49
-0.25
 74
     0
  0
LTYPE
  5
51
330
5
100
AcDbSymbolTableRecord
100
AcDbLinetypeTableRecord
  2
BORDER2
 70
     0
  3
Border (.5x) __.__.__.__.__.__.__.__.__.__.__.
 72
    65
 73
     6
 40
0.875
 49
0.25
 74
     0
 49
-0.125
 74
     0
 49
0.25
 74
     0
 49
-0.125
 74
     0
 49
0.0
 74
     0
 49
-0.125
 74
     0
  0
LTYPE
  5
52
330
5
100
AcDbSymbolTableRecord
100
AcDbLinetypeTableRecord
  2
BORDERX2
 70
     0
  3
Border (2x) ____  ____  .  ____  ____  .  ___
 72
    65
 73
     6
 40
3.5
 49
1.0
 74
     0
 49
-0.5
 74
     0
 49
1.0
 74
     0
 49
-0.5
 74
     0
 49
0.0
 74
     0
 49
-0.5
 74
     0
  0
LTYPE
  5
53
330
5
100
AcDbSymbolTableRecord
100
AcDbLinetypeTableRecord
  2
CENTER
 70
     0
  3
Center ____ _ ____ _ ____ _ ____ _ ____ _ ____
 72
    65
 73
     4
 40
2.0
 49
1.25
 74
     0
 49
-0.25
 74
     0
 49
0.25
 74
     0
 49
-0.25
 74
     0
  0
LTYPE
  5
54
330
5
100
AcDbSymbolTableRecord
100
AcDbLinetypeTableRecord
  2
CENTER2
 70
     0
  3
Center (.5x) ___ _ ___ _ ___ _ ___ _ ___ _ ___
 72
    65
 73
     4
 40
1.125
 49
0.75
 74
     0
 49
-0.125
 74
     0
 49
0.125
 74
     0
 49
-0.125
 74
     0
  0
LTYPE
  5
55
330
5
100
AcDbSymbolTableRecord
100
AcDbLinetypeTableRecord
  2
CENTERX2
 70
     0
  3
Center (2x) ________  __  ________  __  _____
 72
    65
 73
     4
 40
4.0
 49
2.5
 74
     0
 49
-0.5
 74
     0
 49
0.5
 74
     0
 49
-0.5
 74
     0
  0
LTYPE
  5
56
330
5
100
AcDbSymbolTableRecord
100
AcDbLinetypeTableRecord
  2
DASHDOT2
 70
     0
  3
Dash dot (.5x) _._._._._._._._._._._._._._._.
 72
    65
 73
     4
 40
0.5
 49
0.25
 74
     0
 49
-0.125
 74
     0
 49
0.0
 74
     0
 49
-0.125
 74
     0
  0
LTYPE
  5
57
330
5
100
AcDbSymbolTableRecord
100
AcDbLinetypeTableRecord
  2
DASHDOTX2
 70
     0
  3
Dash dot (2x) ____  .  ____  .  ____  .  ___
 72
    65
 73
     4
 40
2.0
 49
1.0
 74
     0
 49
-0.5
 74
     0
 49
0.0
 74
     0
 49
-0.5
 74
     0
  0
LTYPE
  5
59
330
5
100
AcDbSymbolTableRecord
100
AcDbLinetypeTableRecord
  2
DASHED2
 70
     0
  3
Dashed (.5x) _ _ _ _ _ _ _ _ _ _ _ _ _ _ _ _ _
 72
    65
 73
     2
 40
0.375
 49
0.25
 74
     0
 49
-0.125
 74
     0
  0
LTYPE
  5
5A
330
5
100
AcDbSymbolTableRecord
100
AcDbLinetypeTableRecord
  2
DASHEDX2
 70
     0
  3
Dashed (2x) ____  ____  ____  ____  ____  ___
 72
    65
 73
     2
 40
1.5
 49
1.0
 74
     0
 49
-0.5
 74
     0
  0
LTYPE
  5
5B
330
5
100
AcDbSymbolTableRecord
100
AcDbLinetypeTableRecord
  2
DIVIDE
 70
     0
  3
Divide ____ . . ____ . . ____ . . ____ . . ____
 72
    65
 73
     6
 40
1.25
 49
0.5
 74
     0
 49
-0.25
 74
     0
 49
0.0
 74
     0
 49
-0.25
 74
     0
 49
0.0
 74
     0
 49
-0.25
 74
     0
  0
LTYPE
  5
5C
330
5
100
AcDbSymbolTableRecord
100
AcDbLinetypeTableRecord
  2
DIVIDE2
 70
     0
  3
Divide (.5x) __..__..__..__..__..__..__..__.._
 72
    65
 73
     6
 40
0.625
 49
0.25
 74
     0
 49
-0.125
 74
     0
 49
0.0
 74
     0
 49
-0.125
 74
     0
 49
0.0
 74
     0
 49
-0.125
 74
     0
  0
LTYPE
  5
5D
330
5
100
AcDbSymbolTableRecord
100
AcDbLinetypeTableRecord
  2
DIVIDEX2
 70
     0
  3
Divide (2x) ________  .  .  ________  .  .  _
 72
    65
 73
     6
 40
2.5
 49
1.0
 74
     0
 49
-0.5
 74
     0
 49
0.0
 74
     0
 49
-0.5
 74
     0
 49
0.0
 74
     0
 49
-0.5
 74
     0
  0
LTYPE
  5
5E
330
5
100
AcDbSymbolTableRecord
100
AcDbLinetypeTableRecord
  2
DOT
 70
     0
  3
Dot . . . . . . . . . . . . . . . . . . . . . .
 72
    65
 73
     2
 40
0.25
 49
0.0
 74
     0
 49
-0.25
 74
     0
  0
LTYPE
  5
5F
330
5
100
AcDbSymbolTableRecord
100
AcDbLinetypeTableRecord
  2
DOT2
 70
     0
  3
Dot (.5x) .....................................
 72
    65
 73
     2
 40
0.125
 49
0.0
 74
     0
 49
-0.125
 74
     0
  0
LTYPE
  5
60
330
5
100
AcDbSymbolTableRecord
100
AcDbLinetypeTableRecord
  2
DOTX2
 70
     0
  3
Dot (2x) .  .  .  .  .  .  .  .  .  .  .  .  . 
 72
    65
 73
     2
 40
0.5
 49
0.0
 74
     0
 49
-0.5
 74
     0
  0
LTYPE
  5
61
330
5
100
AcDbSymbolTableRecord
100
AcDbLinetypeTableRecord
  2
HIDDEN
 70
     0
  3
Hidden __ __ __ __ __ __ __ __ __ __ __ __ __ _
 72
    65
 73
     2
 40
0.375
 49
0.25
 74
     0
 49
-0.125
 74
     0
  0
LTYPE
  5
62
330
5
100
AcDbSymbolTableRecord
100
AcDbLinetypeTableRecord
  2
HIDDEN2
 70
     0
  3
Hidden (.5x) _ _ _ _ _ _ _ _ _ _ _ _ _ _ _ _ _
 72
    65
 73
     2
 40
0.1875
 49
0.125
 74
     0
 49
-0.0625
 74
     0
  0
LTYPE
  5
63
330
5
100
AcDbSymbolTableRecord
100
AcDbLinetypeTableRecord
  2
HIDDENX2
 70
     0
  3
Hidden (2x) ____ ____ ____ ____ ____ ____ ____
 72
    65
 73
     2
 40
0.75
 49
0.5
 74
     0
 49
-0.25
 74
     0
  0
LTYPE
  5
64
330
5
100
AcDbSymbolTableRecord
100
AcDbLinetypeTableRecord
  2
PHANTOM
 70
     0
  3
Phantom ______  __  __  ______  __  __  ______
 72
    65
 73
     6
 40
2.5
 49
1.25
 74
     0
 49
-0.25
 74
     0
 49
0.25
 74
     0
 49
-0.25
 74
     0
 49
0.25
 74
     0
 49
-0.25
 74
     0
  0
LTYPE
  5
65
330
5
100
AcDbSymbolTableRecord
100
AcDbLinetypeTableRecord
  2
PHANTOM2
 70
     0
  3
Phantom (.5x) ___ _ _ ___ _ _ ___ _ _ ___ _ _
 72
    65
 73
     6
 40
1.25
 49
0.625
 74
     0
 49
-0.125
 74
     0
 49
0.125
 74
     0
 49
-0.125
 74
     0
 49
0.125
 74
     0
 49
-0.125
 74
     0
  0
LTYPE
  5
66
330
5
100
AcDbSymbolTableRecord
100
AcDbLinetypeTableRecord
  2
PHANTOMX2
 70
     0
  3
Phantom (2x) ____________    ____    ____   _
 72
    65
 73
     6
 40
5.0
 49
2.5
 74
     0
 49
-0.5
 74
     0
 49
0.5
 74
     0
 49
-0.5
 74
     0
 49
0.5
 74
     0
 49
-0.5
 74
     0
  0
LTYPE
  5
67
330
5
100
AcDbSymbolTableRecord
100
AcDbLinetypeTableRecord
  2
ACAD_ISO02W100
 70
     0
  3
ISO dash __ __ __ __ __ __ __ __ __ __ __ __ __
 72
    65
 73
     2
 40
0.59
 49
0.47
 74
     0
 49
-0.12
 74
     0
  0
LTYPE
  5
68
330
5
100
AcDbSymbolTableRecord
100
AcDbLinetypeTableRecord
  2
ACAD_ISO03W100
 70
     0
  3
ISO dash space __    __    __    __    __    __
 72
    65
 73
     2
 40
1.179999999999999
 49
0.47
 74
     0
 49
-0.71
 74
     0
  0
LTYPE
  5
69
330
5
100
AcDbSymbolTableRecord
100
AcDbLinetypeTableRecord
  2
ACAD_ISO04W100
 70
     0
  3
ISO long-dash dot ____ . ____ . ____ . ____ . _
 72
    65
 73
     4
 40
1.179999999999999
 49
0.9399999999999998
 74
     0
 49
-0.12
 74
     0
 49
0.0
 74
     0
 49
-0.12
 74
     0
  0
LTYPE
  5
6A
330
5
100
AcDbSymbolTableRecord
100
AcDbLinetypeTableRecord
  2
ACAD_ISO05W100
 70
     0
  3
ISO long-dash double-dot ____ .. ____ .. ____ .
 72
    65
 73
     6
 40
1.299999999999998
 49
0.9399999999999998
 74
     0
 49
-0.12
 74
     0
 49
0.0
 74
     0
 49
-0.12
 74
     0
 49
0.0
 74
     0
 49
-0.12
 74
     0
  0
LTYPE
  5
6B
330
5
100
AcDbSymbolTableRecord
100
AcDbLinetypeTableRecord
  2
ACAD_ISO06W100
 70
     0
  3
ISO long-dash triple-dot ____ ... ____ ... ____
 72
    65
 73
     8
 40
1.419999999999999
 49
0.9399999999999998
 74
     0
 49
-0.12
 74
     0
 49
0.0
 74
     0
 49
-0.12
 74
     0
 49
0.0
 74
     0
 49
-0.12
 74
     0
 49
0.0
 74
     0
 49
-0.12
 74
     0
  0
LTYPE
  5
6C
330
5
100
AcDbSymbolTableRecord
100
AcDbLinetypeTableRecord
  2
ACAD_ISO07W100
 70
     0
  3
ISO dot . . . . . . . . . . . . . . . . . . . .
 72
    65
 73
     2
 40
0.12
 49
0.0
 74
     0
 49
-0.12
 74
     0
  0
LTYPE
  5
6D
330
5
100
AcDbSymbolTableRecord
100
AcDbLinetypeTableRecord
  2
ACAD_ISO08W100
 70
     0
  3
ISO long-dash short-dash ____ __ ____ __ ____ _
 72
    65
 73
     4
 40
0.95
 49
0.47
 74
     0
 49
-0.12
 74
     0
 49
0.24
 74
     0
 49
-0.12
 74
     0
  0
LTYPE
  5
6E
330
5
100
AcDbSymbolTableRecord
100
AcDbLinetypeTableRecord
  2
ACAD_ISO09W100
 70
     0
  3
ISO long-dash double-short-dash ____ __ __ ____
 72
    65
 73
     6
 40
1.31
 49
0.47
 74
     0
 49
-0.12
 74
     0
 49
0.24
 74
     0
 49
-0.12
 74
     0
 49
0.24
 74
     0
 49
-0.12
 74
     0
  0
LTYPE
  5
6F
330
5
100
AcDbSymbolTableRecord
100
AcDbLinetypeTableRecord
  2
ACAD_ISO10W100
 70
     0
  3
ISO dash dot __ . __ . __ . __ . __ . __ . __ .
 72
    65
 73
     4
 40
0.71
 49
0.47
 74
     0
 49
-0.12
 74
     0
 49
0.0
 74
     0
 49
-0.12
 74
     0
  0
LTYPE
  5
70
330
5
100
AcDbSymbolTableRecord
100
AcDbLinetypeTableRecord
  2
ACAD_ISO11W100
 70
     0
  3
ISO double-dash dot __ __ . __ __ . __ __ . __ 
 72
    65
 73
     6
 40
1.299999999999998
 49
0.47
 74
     0
 49
-0.12
 74
     0
 49
0.47
 74
     0
 49
-0.12
 74
     0
 49
0.0
 74
     0
 49
-0.12
 74
     0
  0
LTYPE
  5
71
330
5
100
AcDbSymbolTableRecord
100
AcDbLinetypeTableRecord
  2
ACAD_ISO12W100
 70
     0
  3
ISO dash double-dot __ . . __ . . __ . . __ . .
 72
    65
 73
     6
 40
0.8299999999999998
 49
0.47
 74
     0
 49
-0.12
 74
     0
 49
0.0
 74
     0
 49
-0.12
 74
     0
 49
0.0
 74
     0
 49
-0.12
 74
     0
  0
LTYPE
  5
72
330
5
100
AcDbSymbolTableRecord
100
AcDbLinetypeTableRecord
  2
ACAD_ISO13W100
 70
     0
  3
ISO double-dash double-dot __ __ . . __ __ . . 
 72
    65
 73
     8
 40
1.419999999999999
 49
0.47
 74
     0
 49
-0.12
 74
     0
 49
0.47
 74
     0
 49
-0.12
 74
     0
 49
0.0
 74
     0
 49
-0.12
 74
     0
 49
0.0
 74
     0
 49
-0.12
 74
     0
  0
LTYPE
  5
73
330
5
100
AcDbSymbolTableRecord
100
AcDbLinetypeTableRecord
  2
ACAD_ISO14W100
 70
     0
  3
ISO dash triple-dot __ . . . __ . . . __ . . . 
 72
    65
 73
     8
 40
0.95
 49
0.47
 74
     0
 49
-0.12
 74
     0
 49
0.0
 74
     0
 49
-0.12
 74
     0
 49
0.0
 74
     0
 49
-0.12
 74
     0
 49
0.0
 74
     0
 49
-0.12
 74
     0
  0
LTYPE
  5
74
330
5
100
AcDbSymbolTableRecord
100
AcDbLinetypeTableRecord
  2
ACAD_ISO15W100
 70
     0
  3
ISO double-dash triple-dot __ __ . . . __ __ . 
 72
    65
 73
    10
 40
1.539999999999999
 49
0.47
 74
     0
 49
-0.12
 74
     0
 49
0.47
 74
     0
 49
-0.12
 74
     0
 49
0.0
 74
     0
 49
-0.12
 74
     0
 49
0.0
 74
     0
 49
-0.12
 74
     0
 49
0.0
 74
     0
 49
-0.12
 74
     0
  0
LTYPE
  5
77
330
5
100
AcDbSymbolTableRecord
100
AcDbLinetypeTableRecord
  2
FENCELINE1
 70
     0
  3
Fenceline circle ----0-----0----0-----0----0---
 72
    65
 73
     4
 40
1.45
 49
0.25
 74
     0
 49
-0.1
 74
     4
 75
   133
340
76
 46
0.1
 50
0.0
 44
-0.1
 45
0.0
 49
-0.1
 74
     0
 49
1.0
 74
     0
  0
LTYPE
  5
78
330
5
100
AcDbSymbolTableRecord
100
AcDbLinetypeTableRecord
  2
FENCELINE2
 70
     0
  3
Fenceline square ----[]-----[]----[]-----[]----
 72
    65
 73
     4
 40
1.45
 49
0.25
 74
     0
 49
-0.1
 74
     4
 75
   132
340
76
 46
0.1
 50
0.0
 44
-0.1
 45
0.0
 49
-0.1
 74
     0
 49
1.0
 74
     0
  0
LTYPE
  5
79
330
5
100
AcDbSymbolTableRecord
100
AcDbLinetypeTableRecord
  2
TRACKS
 70
     0
  3
Tracks -|-|-|-|-|-|-|-|-|-|-|-|-|-|-|-|-|-|-|-|
 72
    65
 73
     2
 40
0.3
 49
0.15
 74
     4
 75
   130
340
76
 46
0.25
 50
0.0
 44
0.0
 45
0.0
 49
0.15
 74
     0
  0
LTYPE
  5
7A
330
5
100
AcDbSymbolTableRecord
100
AcDbLinetypeTableRecord
  2
BATTING
 70
     0
  3
Batting SSSSSSSSSSSSSSSSSSSSSSSSSSSSSSSSSSSSSSS
 72
    65
 73
     4
 40
0.4001000000000002
 49
0.0001
 74
     0
 49
-0.1
 74
     4
 75
   134
340
76
 46
0.1
 50
0.0
 44
-0.1
 45
0.0
 49
-0.2
 74
     4
 75
   134
340
76
 46
0.1
 50
180.0
 44
0.1
 45
0.0
 49
-0.1
 74
     0
  0
LTYPE
  5
7B
330
5
100
AcDbSymbolTableRecord
100
AcDbLinetypeTableRecord
  2
HOT_WATER_SUPPLY
 70
     0
  3
Hot water supply ---- HW ---- HW ---- HW ----
 72
    65
 73
     3
 40
0.9
 49
0.5
 74
     0
 49
-0.2
 74
     2
 75
     0
340
26
 46
0.1
 50
0.0
 44
-0.1
 45
-0.05
  9
HW
 49
-0.2
 74
     0
  0
LTYPE
  5
7C
330
5
100
AcDbSymbolTableRecord
100
AcDbLinetypeTableRecord
  2
GAS_LINE
 70
     0
  3
Gas line ----GAS----GAS----GAS----GAS----GAS---
 72
    65
 73
     3
 40
0.95
 49
0.5
 74
     0
 49
-0.2
 74
     2
 75
     0
340
26
 46
0.1
 50
0.0
 44
-0.1
 45
-0.05
  9
GAS
 49
-0.25
 74
     0
  0
LTYPE
  5
7D
330
5
100
AcDbSymbolTableRecord
100
AcDbLinetypeTableRecord
  2
ZIGZAG
 70
     0
  3
Zig zag /\/\/\/\/\/\/\/\/\/\/\/\/\/\/\/\/\/\/\/
 72
    65
 73
     4
 40
0.8001000000000001
 49
0.0001
 74
     0
 49
-0.2
 74
     4
 75
   131
340
76
 46
0.2
 50
0.0
 44
-0.2
 45
0.0
 49
-0.4
 74
     4
 75
   131
340
76
 46
0.2
 50
180.0
 44
0.2
 45
0.0
 49
-0.2
 74
     0
  0
ENDTAB
  0
TABLE
  2
LAYER
  5
2
330
0
100
AcDbSymbolTable
 70
    10
  0
LAYER
  5
25
330
2
100
AcDbSymbolTableRecord
100
AcDbLayerTableRecord
  2
0
 70
     0
 62
     7
  6
Continuous
370
    18
390
F
  0
LAYER
  5
81
330
2
100
AcDbSymbolTableRecord
100
AcDbLayerTableRecord
  2
Border (ANSI)
 70
     0
 62
     7
  6
Continuous
370
    70
390
F
  0
LAYER
  5
83
330
2
100
AcDbSymbolTableRecord
100
AcDbLayerTableRecord
  2
Center Mark (ANSI)
 70
     0
 62
     7
  6
Continuous
370
    25
390
F
  0
LAYER
  5
84
330
2
100
AcDbSymbolTableRecord
100
AcDbLayerTableRecord
  2
Centerline (ANSI)
 70
     0
 62
     7
  6
Continuous
370
    25
390
F
  0
LAYER
  5
86
330
2
100
AcDbSymbolTableRecord
100
AcDbLayerTableRecord
  2
Dimension (ANSI)
 70
     0
 62
     7
  6
Continuous
370
    25
390
F
  0
LAYER
  5
8E
330
2
100
AcDbSymbolTableRecord
100
AcDbLayerTableRecord
  2
Sketch Geometry (ANSI)
 70
     0
 62
     7
  6
Continuous
370
    25
390
F
  0
LAYER
  5
8F
330
2
100
AcDbSymbolTableRecord
100
AcDbLayerTableRecord
  2
Symbol (ANSI)
 70
     0
 62
     7
  6
Continuous
370
    25
390
F
  0
LAYER
  5
92
330
2
100
AcDbSymbolTableRecord
100
AcDbLayerTableRecord
  2
Visible (ANSI)
 70
     0
 62
     7
  6
Continuous
370
    50
390
F
  0
LAYER
  5
93
330
2
100
AcDbSymbolTableRecord
100
AcDbLayerTableRecord
  2
Visible Narrow (ANSI)
 70
     0
 62
     7
  6
Continuous
370
    35
390
F
  0
LAYER
  5
4DB
330
2
100
AcDbSymbolTableRecord
100
AcDbLayerTableRecord
  2
Defpoints
 70
     0
 62
     7
  6
Continuous
290
     0
370
    -3
390
F
  0
ENDTAB
  0
TABLE
  2
STYLE
  5
3
330
0
100
AcDbSymbolTable
 70
    11
  0
STYLE
  5
26
330
3
100
AcDbSymbolTableRecord
100
AcDbTextStyleTableRecord
  2
Standard
 70
     0
 40
0.0
 41
1.0
 50
0.0
 71
     0
 42
0.2
  3
monotxt.shx
  4

  0
STYLE
  5
76
330
3
100
AcDbSymbolTableRecord
100
AcDbTextStyleTableRecord
  2

 70
     1
 40
0.0
 41
1.0
 50
0.0
 71
     0
 42
0.2
  3
ltypeshp.shx
  4

  0
STYLE
  5
97
330
3
100
AcDbSymbolTableRecord
100
AcDbTextStyleTableRecord
  2
Label Text (ANSI)
 70
     0
 40
0.0
 41
1.0
 50
0.0
 71
     0
 42
0.2
  3
TAHOMA.TTF
  4

1001
ACAD
1000
Tahoma
1071
      256
  0
STYLE
  5
98
330
3
100
AcDbSymbolTableRecord
100
AcDbTextStyleTableRecord
  2
Label Text (DIN)
 70
     0
 40
0.0
 41
1.0
 50
0.0
 71
     0
 42
0.2
  3
isocpeur.ttf
  4

1001
ACAD
1000
ISOCPEUR
1071
      256
  0
STYLE
  5
99
330
3
100
AcDbSymbolTableRecord
100
AcDbTextStyleTableRecord
  2
Label Text (ISO)
 70
     0
 40
0.0
 41
1.0
 50
0.0
 71
     0
 42
0.2
  3
TAHOMA.TTF
  4

1001
ACAD
1000
Tahoma
1071
      256
  0
STYLE
  5
9A
330
3
100
AcDbSymbolTableRecord
100
AcDbTextStyleTableRecord
  2
Label Text (JIS)
 70
     0
 40
0.0
 41
1.0
 50
0.0
 71
     0
 42
0.2
  3
TAHOMA.TTF
  4

1001
ACAD
1000
Tahoma
1071
      256
  0
STYLE
  5
9B
330
3
100
AcDbSymbolTableRecord
100
AcDbTextStyleTableRecord
  2
Note Text (ANSI)
 70
     0
 40
0.0
 41
1.0
 50
0.0
 71
     0
 42
0.2
  3
TAHOMA.TTF
  4

1001
ACAD
1000
Tahoma
1071
      256
  0
STYLE
  5
9C
330
3
100
AcDbSymbolTableRecord
100
AcDbTextStyleTableRecord
  2
Note Text (DIN)
 70
     0
 40
0.0
 41
1.0
 50
0.0
 71
     0
 42
0.2
  3
isocpeur.ttf
  4

1001
ACAD
1000
ISOCPEUR
1071
      256
  0
STYLE
  5
9D
330
3
100
AcDbSymbolTableRecord
100
AcDbTextStyleTableRecord
  2
Note Text (ISO)
 70
     0
 40
0.0
 41
1.0
 50
0.0
 71
     0
 42
0.2
  3
TAHOMA.TTF
  4

1001
ACAD
1000
Tahoma
1071
      256
  0
STYLE
  5
9E
330
3
100
AcDbSymbolTableRecord
100
AcDbTextStyleTableRecord
  2
Note Text (JIS)
 70
     0
 40
0.0
 41
1.0
 50
0.0
 71
     0
 42
0.2
  3
TAHOMA.TTF
  4

1001
ACAD
1000
Tahoma
1071
      256
  0
STYLE
  5
9F
330
3
100
AcDbSymbolTableRecord
100
AcDbTextStyleTableRecord
  2
revision
 70
     0
 40
0.0
 41
1.0
 50
0.0
 71
     0
 42
0.2
  3
TAHOMA.TTF
  4

1001
ACAD
1000
Tahoma
1071
      256
  0
ENDTAB
  0
TABLE
  2
VIEW
  5
6
330
0
100
AcDbSymbolTable
 70
     0
  0
ENDTAB
  0
TABLE
  2
UCS
  5
7
330
0
100
AcDbSymbolTable
 70
     0
  0
ENDTAB
  0
TABLE
  2
APPID
  5
9
330
0
100
AcDbSymbolTable
 70
     1
  0
APPID
  5
27
330
9
100
AcDbSymbolTableRecord
100
AcDbRegAppTableRecord
  2
ACAD
 70
     0
  0
ENDTAB
  0
TABLE
  2
DIMSTYLE
  5
A
330
0
100
AcDbSymbolTable
 70
    15
100
AcDbDimStyleTable
 71
     2
340
A4
340
3F
  0
DIMSTYLE
105
3F
330
A
100
AcDbSymbolTableRecord
100
AcDbDimStyleTableRecord
  2
Standard
 70
     0
340
26
  0
DIMSTYLE
105
A0
330
A
100
AcDbSymbolTableRecord
100
AcDbDimStyleTableRecord
  2
Architectural (ANSI)
 70
     0
 40
0.3333333333333333
 41
0.0984251946210861
 43
0.2362204724409449
 44
0.125
 45
0.00000001
 46
0.3937007874015748
 78
     4
 79
     3
140
0.1000000014901161
144
0.0833333333333333
146
1.200000029802321
147
0.031496062992126
171
     1
176
   256
177
   256
178
   256
272
     2
274
     1
276
     2
277
     4
284
    12
286
    12
340
9B
371
    -1
372
    -1
  0
DIMSTYLE
105
A1
330
A
100
AcDbSymbolTableRecord
100
AcDbDimStyleTableRecord
  2
Architectural (ANSI)$7
 70
     0
 40
0.3333333333333333
 41
0.0984251946210861
 43
0.2362204724409449
 44
0.125
 45
0.00000001
 46
0.3937007874015748
 78
     4
 79
     3
140
0.1000000014901161
144
0.0833333333333333
146
1.200000029802321
147
0.031496062992126
171
     1
176
   256
177
   256
178
   256
272
     2
274
     1
276
     2
277
     4
284
    12
286
    12
340
9B
371
    -1
372
    -1
  0
DIMSTYLE
105
A2
330
A
100
AcDbSymbolTableRecord
100
AcDbDimStyleTableRecord
  2
Default - Fraction (ANSI)
 70
     0
 40
0.3333333333333333
 41
0.0984251946210861
 43
0.2362204724409449
 44
0.125
 45
0.00000001
 46
0.3937007874015748
 78
    12
 79
     3
140
0.1000000014901161
146
1.200000029802321
147
0.031496062992126
171
     1
176
   256
177
   256
178
   256
272
     2
274
     1
276
     2
277
     5
284
    12
286
    12
340
9B
371
    -1
372
    -1
  0
DIMSTYLE
105
A3
330
A
100
AcDbSymbolTableRecord
100
AcDbDimStyleTableRecord
  2
Default - Fraction (ANSI)$7
 70
     0
 40
0.3333333333333333
 41
0.0984251946210861
 43
0.2362204724409449
 44
0.125
 45
0.00000001
 46
0.3937007874015748
 78
    12
 79
     3
140
0.1000000014901161
146
1.200000029802321
147
0.031496062992126
171
     1
176
   256
177
   256
178
   256
272
     2
274
     1
276
     2
277
     5
284
    12
286
    12
340
9B
371
    -1
372
    -1
  0
DIMSTYLE
105
A4
102
{ACAD_REACTORS
330
4DA
330
5BB
330
687
102
}
330
A
100
AcDbSymbolTableRecord
100
AcDbDimStyleTableRecord
  2
Default - mm (ANSI)
 70
     0
 40
0.3333333333333333
 41
0.0984251946210861
 42
0.063
 43
0.2362204724409449
 44
0.125
 45
0.00000001
 46
0.3937007874015748
140
0.1000000014901161
143
1.0
146
1.200000029802321
147
0.031496062992126
171
     3
176
   256
177
   256
178
   256
179
     1
271
     3
272
     2
274
     3
340
9B
371
    -1
372
    -1
  0
DIMSTYLE
105
A5
330
A
100
AcDbSymbolTableRecord
100
AcDbDimStyleTableRecord
  2
Default - mm (ANSI)$7
 70
     0
 40
0.3333333333333333
 41
0.0984251946210861
 42
0.063
 43
0.2362204724409449
 44
0.125
 45
0.00000001
 46
0.3937007874015748
140
0.1000000014901161
143
1.0
146
1.200000029802321
147
0.031496062992126
171
     3
176
   256
177
   256
178
   256
179
     1
271
     3
272
     2
274
     3
340
9B
371
    -1
372
    -1
  0
DIMSTYLE
105
A6
330
A
100
AcDbSymbolTableRecord
100
AcDbDimStyleTableRecord
  2
Default - mm [in] (ANSI)
 70
     0
  4
 in
 40
0.3333333333333333
 41
0.0984251946210861
 42
0.063
 43
0.25
 44
0.125
 45
0.00000001
 46
0.3937007874015748
 78
     4
 79
     1
140
0.1000000014901161
143
0.03937
144
25.4
146
1.200000029802321
147
0.031496062992126
170
     1
171
     3
176
   256
177
   256
178
   256
179
     1
271
     2
272
     2
274
     3
284
     4
286
     4
340
9B
371
    -1
372
    -1
  0
DIMSTYLE
105
A7
330
A
100
AcDbSymbolTableRecord
100
AcDbDimStyleTableRecord
  2
Default - mm [in] (ANSI)$7
 70
     0
  4
 in
 40
0.3333333333333333
 41
0.0984251946210861
 42
0.063
 43
0.25
 44
0.125
 45
0.00000001
 46
0.3937007874015748
 78
     4
 79
     1
140
0.1000000014901161
143
0.03937
144
25.4
146
1.200000029802321
147
0.031496062992126
170
     1
171
     3
176
   256
177
   256
178
   256
179
     1
271
     2
272
     2
274
     3
284
     4
286
     4
340
9B
371
    -1
372
    -1
  0
DIMSTYLE
105
A8
330
A
100
AcDbSymbolTableRecord
100
AcDbDimStyleTableRecord
  2
Default (ANSI)
 70
     0
 40
0.3333333333333333
 41
0.0984251946210861
 43
0.2362204724409449
 44
0.125
 45
0.00000001
 46
0.3937007874015748
140
0.1000000014901161
146
1.200000029802321
147
0.031496062992126
171
     1
176
   256
177
   256
178
   256
271
     2
272
     2
274
     1
340
9B
371
    -1
372
    -1
  0
DIMSTYLE
105
A9
330
A
100
AcDbSymbolTableRecord
100
AcDbDimStyleTableRecord
  2
Default (ANSI)$7
 70
     0
 40
0.3333333333333333
 41
0.0984251946210861
 43
0.2362204724409449
 44
0.125
 45
0.00000001
 46
0.3937007874015748
140
0.1000000014901161
146
1.200000029802321
147
0.031496062992126
171
     1
176
   256
177
   256
178
   256
271
     2
272
     2
274
     1
340
9B
371
    -1
372
    -1
  0
DIMSTYLE
105
B8
330
A
100
AcDbSymbolTableRecord
100
AcDbDimStyleTableRecord
  2
Miscellaneous Object (ANSI)
 70
     0
 40
0.3333333333333333
 41
0.1968503892421722
 43
0.2362204724409449
 44
0.125
 45
0.00000001
 46
0.3937007874015748
140
0.1799999922513962
146
0.6666667218561551
147
0.031496062992126
171
     1
176
   256
177
   256
178
   256
271
     2
272
     2
274
     1
340
97
341
AA
371
    -1
372
    -1
  0
DIMSTYLE
105
B9
330
A
100
AcDbSymbolTableRecord
100
AcDbDimStyleTableRecord
  2
Miscellaneous Object (ANSI)$7
 70
     0
 40
0.3333333333333333
 41
0.1959999948740005
 43
0.2362204724409449
 44
0.125
 45
0.00000001
 46
0.3937007874015748
140
0.1799999922513962
146
0.6666667218561551
147
0.031496062992126
171
     1
176
   256
177
   256
178
   256
271
     2
272
     2
274
     1
340
97
341
AA
371
    -1
372
    -1
  0
DIMSTYLE
105
BA
330
A
100
AcDbSymbolTableRecord
100
AcDbDimStyleTableRecord
  2
Alternate (ANSI)
 70
     0
 40
0.3333333333333333
 41
0.0979999974370003
340
26
342
BB
  0
DIMSTYLE
105
CC
330
A
100
AcDbSymbolTableRecord
100
AcDbDimStyleTableRecord
  2
Datum (ANSI)
 70
     0
 40
0.3333333333333333
 41
0.0979999974370003
340
26
342
BB
  0
ENDTAB
  0
TABLE
  2
BLOCK_RECORD
  5
1
330
0
100
AcDbSymbolTable
 70
    13
  0
BLOCK_RECORD
  5
37
330
1
100
AcDbSymbolTableRecord
100
AcDbBlockTableRecord
  2
*Model_Space
340
3A
  0
BLOCK_RECORD
  5
33
330
1
100
AcDbSymbolTableRecord
100
AcDbBlockTableRecord
  2
*Paper_Space
340
36
  0
BLOCK_RECORD
  5
3B
330
1
100
AcDbSymbolTableRecord
100
AcDbBlockTableRecord
  2
*Paper_Space0
340
3E
  0
BLOCK_RECORD
  5
AA
330
1
100
AcDbSymbolTableRecord
100
AcDbBlockTableRecord
  2
Filled-1
340
0
  0
BLOCK_RECORD
  5
BB
330
1
100
AcDbSymbolTableRecord
100
AcDbBlockTableRecord
  2
_Closed
340
0
  0
BLOCK_RECORD
  5
C2
330
1
100
AcDbSymbolTableRecord
100
AcDbBlockTableRecord
  2
DatumFilled45
340
0
  0
BLOCK_RECORD
  5
CD
330
1
100
AcDbSymbolTableRecord
100
AcDbBlockTableRecord
  2
Plastic Part Notes
340
0
  0
BLOCK_RECORD
  5
DD
330
1
100
AcDbSymbolTableRecord
100
AcDbBlockTableRecord
  2
PCB Part Notes
340
0
  0
BLOCK_RECORD
  5
E1
330
1
100
AcDbSymbolTableRecord
100
AcDbBlockTableRecord
  2
Dimension Label
340
0
  0
BLOCK_RECORD
  5
EA
330
1
100
AcDbSymbolTableRecord
100
AcDbBlockTableRecord
  2
Metal Stamping Notes
340
0
  0
BLOCK_RECORD
  5
F9
330
1
100
AcDbSymbolTableRecord
100
AcDbBlockTableRecord
  2
Borders Default Border
340
0
102
{BLKREFS
331
103
102
}
  0
BLOCK_RECORD
  5
104
330
1
100
AcDbSymbolTableRecord
100
AcDbBlockTableRecord
  2
Title Blocks LF STD Border
340
0
102
{BLKREFS
331
107
102
}
  0
BLOCK_RECORD
  5
4DC
330
1
100
AcDbSymbolTableRecord
100
AcDbBlockTableRecord
  2
*D10
340
0
  0
BLOCK_RECORD
  5
5BC
330
1
100
AcDbSymbolTableRecord
100
AcDbBlockTableRecord
  2
*D11
340
0
  0
BLOCK_RECORD
  5
688
330
1
100
AcDbSymbolTableRecord
100
AcDbBlockTableRecord
  2
*D12
340
0
  0
ENDTAB
  0
ENDSEC
  0
SECTION
  2
BLOCKS
  0
BLOCK
  5
38
330
37
100
AcDbEntity
  8
0
100
AcDbBlockBegin
  2
*Model_Space
 70
     0
 10
0.0
 20
0.0
 30
0.0
  3
*Model_Space
  1

  0
ENDBLK
  5
39
330
37
100
AcDbEntity
  8
0
100
AcDbBlockEnd
  0
BLOCK
  5
34
330
33
100
AcDbEntity
 67
     1
  8
0
100
AcDbBlockBegin
  2
*Paper_Space
 70
     0
 10
0.0
 20
0.0
 30
0.0
  3
*Paper_Space
  1

  0
ENDBLK
  5
35
330
33
100
AcDbEntity
 67
     1
  8
0
100
AcDbBlockEnd
  0
BLOCK
  5
3C
330
3B
100
AcDbEntity
  8
0
100
AcDbBlockBegin
  2
*Paper_Space0
 70
     0
 10
0.0
 20
0.0
 30
0.0
  3
*Paper_Space0
  1

  0
ENDBLK
  5
3D
330
3B
100
AcDbEntity
  8
0
100
AcDbBlockEnd
  0
BLOCK
  5
AB
330
AA
100
AcDbEntity
  8
0
100
AcDbBlockBegin
  2
Filled-1
 70
     0
 10
0.0
 20
0.0
 30
0.0
  3
Filled-1
  1

  0
LINE
  5
AD
330
AA
100
AcDbEntity
  8
0
 62
     0
100
AcDbLine
 10
-0.9999999999999998
 20
0.0
 30
0.0
 11
0.0
 21
0.0
 31
0.0
  0
POLYLINE
  5
AE
330
AA
100
AcDbEntity
  8
0
 62
     0
100
AcDb2dPolyline
 66
     1
 10
0.0
 20
0.0
 30
0.0
 70
   128
  0
VERTEX
  5
AF
330
AE
100
AcDbEntity
  8
0
 62
     0
100
AcDbVertex
100
AcDb2dVertex
 10
-0.9999999999999998
 20
-0.0994897959183674
 30
0.0
  0
VERTEX
  5
B0
330
AE
100
AcDbEntity
  8
0
 62
     0
100
AcDbVertex
100
AcDb2dVertex
 10
0.0
 20
0.0
 30
0.0
  0
VERTEX
  5
B2
330
AE
100
AcDbEntity
  8
0
 62
     0
100
AcDbVertex
100
AcDb2dVertex
 10
-0.9999999999999998
 20
0.0994897959183674
 30
0.0
  0
VERTEX
  5
B3
330
AE
100
AcDbEntity
  8
0
 62
     0
100
AcDbVertex
100
AcDb2dVertex
 10
-0.9999999999999998
 20
-0.0994897959183674
 30
0.0
  0
SEQEND
  5
B1
330
AE
100
AcDbEntity
  8
0
 62
     0
  0
SOLID
  5
B4
330
AA
100
AcDbEntity
  8
0
 62
     0
100
AcDbTrace
 10
-0.9999999999999998
 20
-0.0994897959183674
 30
0.0
 11
0.0
 21
0.0
 31
0.0
 12
-0.9999999999999998
 22
0.0994897959183674
 32
0.0
 13
-0.9999999999999998
 23
-0.0994897959183674
 33
0.0
  0
LINE
  5
B5
330
AA
100
AcDbEntity
  8
0
 62
     0
100
AcDbLine
 10
-0.9999999999999998
 20
-0.0994897959183674
 30
0.0
 11
0.0
 21
0.0
 31
0.0
  0
LINE
  5
B6
330
AA
100
AcDbEntity
  8
0
 62
     0
100
AcDbLine
 10
0.0
 20
0.0
 30
0.0
 11
-0.9999999999999998
 21
0.0994897959183674
 31
0.0
  0
LINE
  5
B7
330
AA
100
AcDbEntity
  8
0
 62
     0
100
AcDbLine
 10
-0.9999999999999998
 20
0.0994897959183674
 30
0.0
 11
-0.9999999999999998
 21
-0.0994897959183674
 31
0.0
  0
ENDBLK
  5
AC
330
AA
100
AcDbEntity
  8
0
100
AcDbBlockEnd
  0
BLOCK
  5
C0
330
BB
100
AcDbEntity
  8
0
100
AcDbBlockBegin
  2
_Closed
 70
     0
 10
0.0
 20
0.0
 30
0.0
  3
_Closed
  1

  0
LINE
  5
BC
330
BB
100
AcDbEntity
  8
0
  6
ByBlock
 62
     0
370
    -2
100
AcDbLine
 10
-1.0
 20
0.1666666666666666
 30
0.0
 11
0.0
 21
0.0
 31
0.0
  0
LINE
  5
BD
330
BB
100
AcDbEntity
  8
0
  6
ByBlock
 62
     0
370
    -2
100
AcDbLine
 10
0.0
 20
0.0
 30
0.0
 11
-1.0
 21
-0.1666666666666666
 31
0.0
  0
LINE
  5
BE
330
BB
100
AcDbEntity
  8
0
  6
ByBlock
 62
     0
370
    -2
100
AcDbLine
 10
-1.0
 20
0.1666666666666666
 30
0.0
 11
-1.0
 21
-0.1666666666666666
 31
0.0
  0
LINE
  5
BF
330
BB
100
AcDbEntity
  8
0
  6
ByBlock
 62
     0
370
    -2
100
AcDbLine
 10
0.0
 20
0.0
 30
0.0
 11
-1.0
 21
0.0
 31
0.0
  0
ENDBLK
  5
C1
330
BB
100
AcDbEntity
  8
0
100
AcDbBlockEnd
  0
BLOCK
  5
C3
330
C2
100
AcDbEntity
  8
0
100
AcDbBlockBegin
  2
DatumFilled45
 70
     0
 10
0.0
 20
0.0
 30
0.0
  3
DatumFilled45
  1

  0
POLYLINE
  5
C5
330
C2
100
AcDbEntity
  8
0
 62
     0
100
AcDb2dPolyline
 66
     1
 10
0.0
 20
0.0
 30
0.0
 70
   128
  0
VERTEX
  5
C6
330
C5
100
AcDbEntity
  8
0
 62
     0
100
AcDbVertex
100
AcDb2dVertex
 10
0.0
 20
0.9999999999999998
 30
0.0
  0
VERTEX
  5
C7
330
C5
100
AcDbEntity
  8
0
 62
     0
100
AcDbVertex
100
AcDb2dVertex
 10
0.0
 20
-0.9999999999999998
 30
0.0
  0
VERTEX
  5
C9
330
C5
100
AcDbEntity
  8
0
 62
     0
100
AcDbVertex
100
AcDb2dVertex
 10
-0.9999999999999998
 20
0.0
 30
0.0
  0
VERTEX
  5
CA
330
C5
100
AcDbEntity
  8
0
 62
     0
100
AcDbVertex
100
AcDb2dVertex
 10
0.0
 20
0.9999999999999998
 30
0.0
  0
SEQEND
  5
C8
330
C5
100
AcDbEntity
  8
0
 62
     0
  0
SOLID
  5
CB
330
C2
100
AcDbEntity
  8
0
 62
     0
100
AcDbTrace
 10
0.0
 20
0.9999999999999998
 30
0.0
 11
0.0
 21
-0.9999999999999998
 31
0.0
 12
-0.9999999999999998
 22
0.0
 32
0.0
 13
0.0
 23
0.9999999999999998
 33
0.0
  0
ENDBLK
  5
C4
330
C2
100
AcDbEntity
  8
0
100
AcDbBlockEnd
  0
BLOCK
  5
CE
330
CD
100
AcDbEntity
  8
0
100
AcDbBlockBegin
  2
Plastic Part Notes
 70
     0
 10
0.0
 20
0.0
 30
0.0
  3
Plastic Part Notes
  1

  0
LINE
  5
D0
330
CD
100
AcDbEntity
  8
Sketch Geometry (ANSI)
100
AcDbLine
 10
0.7832431415892854
 20
1.417389302679714
 30
0.0
 11
-0.0317333368148981
 21
1.417389302679714
 31
0.0
  0
LINE
  5
D1
330
CD
100
AcDbEntity
  8
Sketch Geometry (ANSI)
100
AcDbLine
 10
-0.0317333368148981
 20
1.417389302679714
 30
0.0
 11
-0.0317333368148981
 21
1.250520273404783
 31
0.0
  0
LINE
  5
D2
330
CD
100
AcDbEntity
  8
Sketch Geometry (ANSI)
100
AcDbLine
 10
-0.0317333368148981
 20
1.250520273404783
 30
0.0
 11
0.7832431415892854
 21
1.250520273404783
 31
0.0
  0
LINE
  5
D3
330
CD
100
AcDbEntity
  8
Sketch Geometry (ANSI)
100
AcDbLine
 10
0.7832431415892854
 20
1.250520273404783
 30
0.0
 11
0.7832431415892854
 21
1.417389302679714
 31
0.0
  0
LINE
  5
D4
330
CD
100
AcDbEntity
  8
Sketch Geometry (ANSI)
100
AcDbLine
 10
0.6804398929423231
 20
1.417389302679714
 30
0.0
 11
0.6804398929423231
 21
1.250520273404783
 31
0.0
  0
LINE
  5
D5
330
CD
100
AcDbEntity
  8
Sketch Geometry (ANSI)
100
AcDbLine
 10
0.5701871335238412
 20
1.417389302679714
 30
0.0
 11
0.5701871335238412
 21
1.250520273404783
 31
0.0
  0
LINE
  5
D6
330
CD
100
AcDbEntity
  8
Sketch Geometry (ANSI)
100
AcDbLine
 10
0.4554646676424475
 20
1.417389302679714
 30
0.0
 11
0.4554646676424475
 21
1.250520273404783
 31
0.0
  0
LINE
  5
D7
330
CD
100
AcDbEntity
  8
Sketch Geometry (ANSI)
100
AcDbLine
 10
0.179832769096242
 20
1.417389302679714
 30
0.0
 11
0.179832769096242
 21
1.250520273404783
 31
0.0
  0
LINE
  5
D8
330
CD
100
AcDbEntity
  8
Sketch Geometry (ANSI)
100
AcDbLine
 10
-0.6885612712296703
 20
-1.25339549266121
 30
0.0
 11
-0.5938794008700539
 21
-1.417389302679711
 31
0.0
  0
LINE
  5
D9
330
CD
100
AcDbEntity
  8
Sketch Geometry (ANSI)
100
AcDbLine
 10
-0.5938794008700539
 20
-1.417389302679711
 30
0.0
 11
-0.7832431415892854
 21
-1.417389302679714
 31
0.0
  0
LINE
  5
DA
330
CD
100
AcDbEntity
  8
Sketch Geometry (ANSI)
100
AcDbLine
 10
-0.7832431415892854
 20
-1.417389302679714
 30
0.0
 11
-0.6885612712296703
 21
-1.25339549266121
 31
0.0
  0
MTEXT
  5
DB
330
CD
100
AcDbEntity
  8
Symbol (ANSI)
100
AcDbMText
 10
-1.228278371069947
 20
1.72836008729035
 30
0.0
 40
0.0885826748187148
 41
3.769932018490286
 71
     1
 72
     1
  3
\fTahoma|b0|i0;\H0.0886;Notes\P1. Tooling to be built per math data provided by Littelfuse. Geometry per math to be within \fAIGDT|b0|i0;\H0.0886;d\fTahoma|b0|i0;\H0.0886; 0.25 A B C unless otherwise specified. Dimensions shown are for inspection pur
  3
poses only.\P2. Draft angles to be per Littelfuse math data, unless other specified.\P3. Parting lines, knockout pins and gate location to be approved by Littelfuse Engineering prior to tool construction.\P4. Parting lines, knock out pines, and lifte
  3
r flash shall be 0.13 max, unless otherwise specified\P5. Corners shown sharp by have a 0.25 radius max, unless otherwise specified by Littelfuse Engineering.\P6. All cavities shall be identified. Check with Littelfuse Engineering for preferred locat
  3
ion.\P7. Parts to be clean and free of cracks, foreign matter, chips, weld or flow lines, sink, discoloration, pin holes, voids, roughness, or warpage unless accepted by Littelfuse Engineering.\P8. Dimensions to be measured at location of maximum dra
  3
ft, unless otherwise specified by Littelfuse Engineering\P9. Packaging carton contain this part to be marked with part number and current revision level.\P10. The      symbol indicates the dimension number for inspection purposes.\P11. Maximum Regrin
  1
d Allowed: 25%\P \P\fTahoma|b1|i0;\H0.0886;\LMold Finish Specification\P\l\fTahoma|b0|i0;\H0.0886;Apperance:\PGrain:\PGloss:\PColor:\P \P\fTahoma|b1|i0;\H0.0886;\LPart Performance Specification: \P\l\fTahoma|b0|i0;\H0.0886; \P
  7
Note Text (ANSI)
 73
     2
 44
1.008052706718444
  0
ENDBLK
  5
CF
330
CD
100
AcDbEntity
  8
0
100
AcDbBlockEnd
  0
BLOCK
  5
DE
330
DD
100
AcDbEntity
  8
0
100
AcDbBlockBegin
  2
PCB Part Notes
 70
     0
 10
0.0
 20
0.0
 30
0.0
  3
PCB Part Notes
  1

  0
MTEXT
  5
E0
330
DD
100
AcDbEntity
  8
Symbol (ANSI)
100
AcDbMText
 10
-1.207374400041234
 20
0.1461405416604149
 30
0.0
 40
0.1000000031914298
 41
0.0
 71
     1
 72
     1
  1
Notes\P1. This note is for standard plastic parts
  7
Note Text (ANSI)
 73
     2
 44
0.9878841638565063
  0
ENDBLK
  5
DF
330
DD
100
AcDbEntity
  8
0
100
AcDbBlockEnd
  0
BLOCK
  5
E2
330
E1
100
AcDbEntity
  8
0
100
AcDbBlockBegin
  2
Dimension Label
 70
     2
 10
0.0
 20
0.0
 30
0.0
  3
Dimension Label
  1

  0
LINE
  5
E4
330
E1
100
AcDbEntity
  8
Sketch Geometry (ANSI)
100
AcDbLine
 10
0.0
 20
0.1193342091828944
 30
0.0
 11
0.1377952755905517
 21
-0.1193342091828944
 31
0.0
  0
LINE
  5
E5
330
E1
100
AcDbEntity
  8
Sketch Geometry (ANSI)
100
AcDbLine
 10
0.1377952755905517
 20
-0.1193342091828944
 30
0.0
 11
-0.137795275590551
 21
-0.1193342091828958
 31
0.0
  0
LINE
  5
E6
330
E1
100
AcDbEntity
  8
Sketch Geometry (ANSI)
100
AcDbLine
 10
-0.137795275590551
 20
-0.1193342091828958
 30
0.0
 11
0.0
 21
0.1193342091828944
 31
0.0
  0
ATTDEF
  5
E7
330
E1
100
AcDbEntity
  8
Symbol (ANSI)
100
AcDbText
 10
-0.030072668212622
 20
-0.0540122355273388
 30
0.0
 40
0.1200000014830762
  1
 
  7
Note Text (ANSI)
 72
     1
 11
-0.0042835476789857
 21
-0.0881022292327392
 31
0.0
100
AcDbAttributeDefinition
  3
<Enter Prompt for Field>
  2
<Enter_Prompt_for_Field>
 70
     0
 74
     1
  0
ENDBLK
  5
E3
330
E1
100
AcDbEntity
  8
0
100
AcDbBlockEnd
  0
BLOCK
  5
EB
330
EA
100
AcDbEntity
  8
0
100
AcDbBlockBegin
  2
Metal Stamping Notes
 70
     0
 10
0.0
 20
0.0
 30
0.0
  3
Metal Stamping Notes
  1

  0
LINE
  5
ED
330
EA
100
AcDbEntity
  8
Sketch Geometry (ANSI)
100
AcDbLine
 10
0.823331731988498
 20
0.6136131257885588
 30
0.0
 11
0.0083552535843145
 21
0.6136131257885588
 31
0.0
  0
LINE
  5
EE
330
EA
100
AcDbEntity
  8
Sketch Geometry (ANSI)
100
AcDbLine
 10
0.0083552535843145
 20
0.6136131257885588
 30
0.0
 11
0.0083552535843145
 21
0.446744096513628
 31
0.0
  0
LINE
  5
EF
330
EA
100
AcDbEntity
  8
Sketch Geometry (ANSI)
100
AcDbLine
 10
0.0083552535843145
 20
0.446744096513628
 30
0.0
 11
0.823331731988498
 21
0.446744096513628
 31
0.0
  0
LINE
  5
F0
330
EA
100
AcDbEntity
  8
Sketch Geometry (ANSI)
100
AcDbLine
 10
0.823331731988498
 20
0.446744096513628
 30
0.0
 11
0.823331731988498
 21
0.6136131257885588
 31
0.0
  0
LINE
  5
F1
330
EA
100
AcDbEntity
  8
Sketch Geometry (ANSI)
100
AcDbLine
 10
0.7205284833415357
 20
0.6136131257885588
 30
0.0
 11
0.7205284833415357
 21
0.446744096513628
 31
0.0
  0
LINE
  5
F2
330
EA
100
AcDbEntity
  8
Sketch Geometry (ANSI)
100
AcDbLine
 10
0.6102757239230538
 20
0.6136131257885588
 30
0.0
 11
0.6102757239230538
 21
0.446744096513628
 31
0.0
  0
LINE
  5
F3
330
EA
100
AcDbEntity
  8
Sketch Geometry (ANSI)
100
AcDbLine
 10
0.4955532580416601
 20
0.6136131257885588
 30
0.0
 11
0.4955532580416601
 21
0.446744096513628
 31
0.0
  0
LINE
  5
F4
330
EA
100
AcDbEntity
  8
Sketch Geometry (ANSI)
100
AcDbLine
 10
0.2199213594954546
 20
0.6136131257885588
 30
0.0
 11
0.2199213594954546
 21
0.446744096513628
 31
0.0
  0
LINE
  5
F5
330
EA
100
AcDbEntity
  8
Sketch Geometry (ANSI)
100
AcDbLine
 10
-0.7286498616288819
 20
-0.4496193157700553
 30
0.0
 11
-0.6339679912692714
 21
-0.6136131257885588
 31
0.0
  0
LINE
  5
F6
330
EA
100
AcDbEntity
  8
Sketch Geometry (ANSI)
100
AcDbLine
 10
-0.6339679912692714
 20
-0.6136131257885588
 30
0.0
 11
-0.823331731988498
 21
-0.6136131257885531
 31
0.0
  0
LINE
  5
F7
330
EA
100
AcDbEntity
  8
Sketch Geometry (ANSI)
100
AcDbLine
 10
-0.823331731988498
 20
-0.6136131257885531
 30
0.0
 11
-0.7286498616288819
 21
-0.4496193157700553
 31
0.0
  0
MTEXT
  5
F8
330
EA
100
AcDbEntity
  8
Symbol (ANSI)
100
AcDbMText
 10
-1.188189780670735
 20
0.924583910399196
 30
0.0
 40
0.0885826748187148
 41
3.750550277589812
 71
     1
 72
     1
  3
\fTahoma|b0|i0;\H0.0886;Notes\P1. Tooling to be built per math data provided by Littelfuse. Geometry per math to be within \fAIGDT|b0|i0;\H0.0886;d\fTahoma|b0|i0;\H0.0886; 0.25 A B C unless otherwise specified. Dimensions shown are for inspection pur
  3
poses only.\P2. Surface to be free of scratches\P3. Maximum burr permissible 0.13\P4. Parts to be supplied clean and free of grease and oil\P5. Packaging carton containing this part to be marked with part number and current revision\P6. The      symb
  1
ol indicates the dimension number for inspection purposes.
  7
Note Text (ANSI)
 73
     2
 44
1.052422642707824
  0
ENDBLK
  5
EC
330
EA
100
AcDbEntity
  8
0
100
AcDbBlockEnd
  0
BLOCK
  5
FA
330
F9
100
AcDbEntity
  8
0
100
AcDbBlockBegin
  2
Borders Default Border
 70
     0
 10
0.0
 20
0.0
 30
0.0
  3
Borders Default Border
  1

  0
POLYLINE
  5
FC
330
F9
100
AcDbEntity
  8
Border (ANSI)
100
AcDb2dPolyline
 66
     1
 10
0.0
 20
0.0
 30
0.0
 70
   128
  0
VERTEX
  5
FD
330
FC
100
AcDbEntity
  8
Border (ANSI)
100
AcDbVertex
100
AcDb2dVertex
 10
0.380000002740875
 20
0.380000002740875
 30
0.0
  0
VERTEX
  5
FE
330
FC
100
AcDbEntity
  8
Border (ANSI)
100
AcDbVertex
100
AcDb2dVertex
 10
0.380000002740875
 20
16.62000070406695
 30
0.0
  0
VERTEX
  5
100
330
FC
100
AcDbEntity
  8
Border (ANSI)
100
AcDbVertex
100
AcDb2dVertex
 10
21.61999950258751
 20
16.62000070406695
 30
0.0
  0
VERTEX
  5
101
330
FC
100
AcDbEntity
  8
Border (ANSI)
100
AcDbVertex
100
AcDb2dVertex
 10
21.61999950258751
 20
0.380000002740875
 30
0.0
  0
VERTEX
  5
102
330
FC
100
AcDbEntity
  8
Border (ANSI)
100
AcDbVertex
100
AcDb2dVertex
 10
0.380000002740875
 20
0.380000002740875
 30
0.0
  0
SEQEND
  5
FF
330
FC
100
AcDbEntity
  8
Border (ANSI)
  0
ENDBLK
  5
FB
330
F9
100
AcDbEntity
  8
0
100
AcDbBlockEnd
  0
BLOCK
  5
105
330
104
100
AcDbEntity
  8
0
100
AcDbBlockBegin
  2
Title Blocks LF STD Border
 70
     0
 10
0.0
 20
0.0
 30
0.0
  3
Title Blocks LF STD Border
  1

  0
ENDBLK
  5
106
330
104
100
AcDbEntity
  8
0
100
AcDbBlockEnd
  0
BLOCK
  5
4E7
330
4DC
100
AcDbEntity
  8
0
100
AcDbBlockBegin
  2
*D10
 70
     1
 10
0.0
 20
0.0
 30
0.0
  3
*D10
  1

  0
LINE
  5
77E
330
4DC
100
AcDbEntity
  8
Dimension (ANSI)
100
AcDbLine
 10
2.593206318532798
 20
1.38265916591504
 30
0.0
 11
2.593206318532798
 21
1.710527697885981
 31
0.0
  0
LINE
  5
77F
330
4DC
100
AcDbEntity
  8
Dimension (ANSI)
100
AcDbLine
 10
5.568206318532799
 20
1.382659165914157
 30
0.0
 11
5.568206318532799
 21
1.710527697885981
 31
0.0
  0
LINE
  5
780
330
4DC
100
AcDbEntity
  8
Dimension (ANSI)
100
AcDbLine
 10
2.626014716739827
 20
1.668861031219314
 30
0.0
 11
4.004630925825602
 21
1.668861031219314
 31
0.0
  0
LINE
  5
781
330
4DC
100
AcDbEntity
  8
Dimension (ANSI)
100
AcDbLine
 10
5.53539792032577
 20
1.668861031219314
 30
0.0
 11
4.134784335912093
 21
1.668861031219314
 31
0.0
  0
SOLID
  5
782
330
4DC
100
AcDbEntity
  8
Dimension (ANSI)
100
AcDbTrace
 10
2.626014716739827
 20
1.674329097587152
 30
0.0
 11
2.626014716739827
 21
1.663392964851476
 31
0.0
 12
2.593206318532798
 22
1.668861031219314
 32
0.0
 13
2.593206318532798
 23
1.668861031219314
 33
0.0
  0
SOLID
  5
783
330
4DC
100
AcDbEntity
  8
Dimension (ANSI)
100
AcDbTrace
 10
5.53539792032577
 20
1.674329097587152
 30
0.0
 11
5.53539792032577
 21
1.663392964851476
 31
0.0
 12
5.568206318532799
 22
1.668861031219314
 32
0.0
 13
5.568206318532799
 23
1.668861031219314
 33
0.0
  0
MTEXT
  5
784
330
4DC
100
AcDbEntity
  8
Dimension (ANSI)
100
AcDbMText
 10
4.069707630868848
 20
1.668861031219314
 30
0.0
 40
0.0333333338300387
 41
0.0
 71
     5
 72
     1
  1
\A1;2.975
  7
Note Text (ANSI)
 73
     1
 44
1.0
  0
POINT
  5
785
330
4DC
100
AcDbEntity
  8
Defpoints
 62
     0
100
AcDbPoint
 10
2.593206318532798
 20
1.36165916591504
 30
0.0
  0
POINT
  5
786
330
4DC
100
AcDbEntity
  8
Defpoints
 62
     0
100
AcDbPoint
 10
5.568206318532799
 20
1.361659165914157
 30
0.0
  0
POINT
  5
787
330
4DC
100
AcDbEntity
  8
Defpoints
 62
     0
100
AcDbPoint
 10
5.568206318532799
 20
1.668861031219314
 30
0.0
  0
ENDBLK
  5
4E8
330
4DC
100
AcDbEntity
  8
0
100
AcDbBlockEnd
  0
BLOCK
  5
5C7
330
5BC
100
AcDbEntity
  8
0
100
AcDbBlockBegin
  2
*D11
 70
     1
 10
0.0
 20
0.0
 30
0.0
  3
*D11
  1

  0
LINE
  5
76A
330
5BC
100
AcDbEntity
  8
Dimension (ANSI)
100
AcDbLine
 10
5.344206318532494
 20
2.312579897072988
 30
0.0
 11
5.889807368401261
 21
2.312579897072988
 31
0.0
  0
LINE
  5
76B
330
5BC
100
AcDbEntity
  8
Dimension (ANSI)
100
AcDbLine
 10
5.335759501500924
 20
3.546590369027233
 30
0.0
 11
5.889807368401261
 21
3.546590369027233
 31
0.0
  0
LINE
  5
76C
330
5BC
100
AcDbEntity
  8
Dimension (ANSI)
100
AcDbLine
 10
5.848140701734594
 20
2.345388295280017
 30
0.0
 11
5.848140701734594
 21
2.927894645629844
 31
0.0
  0
LINE
  5
76D
330
5BC
100
AcDbEntity
  8
Dimension (ANSI)
100
AcDbLine
 10
5.848140701734594
 20
3.513781970820204
 30
0.0
 11
5.848140701734594
 21
2.983613310931326
 31
0.0
  0
SOLID
  5
76E
330
5BC
100
AcDbEntity
  8
Dimension (ANSI)
100
AcDbTrace
 10
5.842672635366756
 20
2.345388295280017
 30
0.0
 11
5.853608768102432
 21
2.345388295280017
 31
0.0
 12
5.848140701734594
 22
2.312579897072988
 32
0.0
 13
5.848140701734594
 23
2.312579897072988
 33
0.0
  0
SOLID
  5
76F
330
5BC
100
AcDbEntity
  8
Dimension (ANSI)
100
AcDbTrace
 10
5.842672635366756
 20
3.513781970820204
 30
0.0
 11
5.853608768102432
 21
3.513781970820204
 31
0.0
 12
5.848140701734594
 22
3.546590369027233
 32
0.0
 13
5.848140701734594
 23
3.546590369027233
 33
0.0
  0
MTEXT
  5
770
330
5BC
100
AcDbEntity
  8
Dimension (ANSI)
100
AcDbMText
 10
5.848140701734593
 20
2.955753978280586
 30
0.0
 40
0.0333333338300387
 41
0.0
 71
     5
 72
     1
  1
\A1;1.234
  7
Note Text (ANSI)
 73
     1
 44
1.0
  0
POINT
  5
771
330
5BC
100
AcDbEntity
  8
Defpoints
 62
     0
100
AcDbPoint
 10
5.323206318532494
 20
2.312579897072988
 30
0.0
  0
POINT
  5
772
330
5BC
100
AcDbEntity
  8
Defpoints
 62
     0
100
AcDbPoint
 10
5.314759501500924
 20
3.546590369027233
 30
0.0
  0
POINT
  5
773
330
5BC
100
AcDbEntity
  8
Defpoints
 62
     0
100
AcDbPoint
 10
5.848140701734594
 20
3.546590369027233
 30
0.0
  0
ENDBLK
  5
5C8
330
5BC
100
AcDbEntity
  8
0
100
AcDbBlockEnd
  0
BLOCK
  5
693
330
688
100
AcDbEntity
  8
0
100
AcDbBlockBegin
  2
*D12
 70
     1
 10
0.0
 20
0.0
 30
0.0
  3
*D12
  1

  0
LINE
  5
774
330
688
100
AcDbEntity
  8
Dimension (ANSI)
100
AcDbLine
 10
5.421706318532811
 20
1.397659135452496
 30
0.0
 11
5.893586926422114
 21
1.397659135452496
 31
0.0
  0
LINE
  5
775
330
688
100
AcDbEntity
  8
Dimension (ANSI)
100
AcDbLine
 10
5.584206348994293
 20
0.6276591354524493
 30
0.0
 11
5.893586926422114
 21
0.6276591354524492
 31
0.0
  0
LINE
  5
776
330
688
100
AcDbEntity
  8
Dimension (ANSI)
100
AcDbLine
 10
5.851920259755447
 20
1.364850737245468
 30
0.0
 11
5.851920259755447
 21
1.067672629487568
 31
0.0
  0
LINE
  5
777
330
688
100
AcDbEntity
  8
Dimension (ANSI)
100
AcDbLine
 10
5.851920259755447
 20
0.6604675336594779
 30
0.0
 11
5.851920259755447
 21
1.011976350575495
 31
0.0
  0
SOLID
  5
778
330
688
100
AcDbEntity
  8
Dimension (ANSI)
100
AcDbTrace
 10
5.846452193387609
 20
1.364850737245468
 30
0.0
 11
5.857388326123285
 21
1.364850737245468
 31
0.0
 12
5.851920259755447
 22
1.397659135452496
 32
0.0
 13
5.851920259755447
 23
1.397659135452496
 33
0.0
  0
SOLID
  5
779
330
688
100
AcDbEntity
  8
Dimension (ANSI)
100
AcDbTrace
 10
5.846452193387609
 20
0.6604675336594779
 30
0.0
 11
5.857388326123285
 21
0.6604675336594779
 31
0.0
 12
5.851920259755447
 22
0.6276591354524492
 32
0.0
 13
5.851920259755447
 23
0.6276591354524492
 33
0.0
  0
MTEXT
  5
77A
330
688
100
AcDbEntity
  8
Dimension (ANSI)
100
AcDbMText
 10
5.851920259755447
 20
1.039824490031532
 30
0.0
 40
0.0333333338300387
 41
0.0
 71
     5
 72
     1
  1
\A1;0.770
  7
Note Text (ANSI)
 73
     1
 44
1.0
  0
POINT
  5
77B
330
688
100
AcDbEntity
  8
Defpoints
 62
     0
100
AcDbPoint
 10
5.400706318532811
 20
1.397659135452496
 30
0.0
  0
POINT
  5
77C
330
688
100
AcDbEntity
  8
Defpoints
 62
     0
100
AcDbPoint
 10
5.563206348994293
 20
0.6276591354524493
 30
0.0
  0
POINT
  5
77D
330
688
100
AcDbEntity
  8
Defpoints
 62
     0
100
AcDbPoint
 10
5.851920259755447
 20
0.6276591354524492
 30
0.0
  0
ENDBLK
  5
694
330
688
100
AcDbEntity
  8
0
100
AcDbBlockEnd
  0
ENDSEC
  0
SECTION
  2
ENTITIES
  0
INSERT
  5
103
330
37
100
AcDbEntity
  8
0
100
AcDbBlockReference
  2
Borders Default Border
 10
0.0
 20
0.0
 30
0.0
 41
0.3333333333333333
 42
0.3333333333333333
 43
0.3333333333333333
  0
INSERT
  5
107
330
37
100
AcDbEntity
  8
0
100
AcDbBlockReference
  2
Title Blocks LF STD Border
 10
7.206666666666665
 20
0.1266666666666667
 30
0.0
 41
0.3333333333333333
 42
0.3333333333333333
 43
0.3333333333333333
  0
LINE
  5
108
330
37
100
AcDbEntity
  8
Visible (ANSI)
100
AcDbLine
 10
1.771107860274826
 20
2.312579897072986
 30
0.0
 11
1.740107860274826
 21
2.312579897072986
 31
0.0
  0
LINE
  5
109
330
37
100
AcDbEntity
  8
Visible (ANSI)
100
AcDbLine
 10
1.76700223717914
 20
3.488749498230915
 30
0.0
 11
1.771107860274826
 21
2.312579897072986
 31
0.0
  0
LINE
  5
10A
330
37
100
AcDbEntity
  8
Visible (ANSI)
100
AcDbLine
 10
1.740107860274826
 20
2.312579897072986
 30
0.0
 11
1.735107890736538
 21
2.312579897072986
 31
0.0
  0
LINE
  5
10B
330
37
100
AcDbEntity
  8
Visible (ANSI)
100
AcDbLine
 10
1.006107829813115
 20
2.312579897072986
 30
0.0
 11
1.001107860274827
 21
2.312579897072986
 31
0.0
  0
LINE
  5
10C
330
37
100
AcDbEntity
  8
Visible Narrow (ANSI)
100
AcDbLine
 10
1.006107829813115
 20
2.312579897072986
 30
0.0
 11
1.009556169930236
 21
3.300452559926792
 31
0.0
  0
ELLIPSE
  5
10D
330
37
100
AcDbEntity
  8
Visible Narrow (ANSI)
100
AcDbEllipse
 10
1.009556169930236
 20
3.300435106669718
 30
0.0
 11
-0.0049999695382887
 21
0.000017453257076
 31
0.0
210
0.0
220
0.0
230
1.0
 40
0.0034906301491772
 41
4.712401165031992
 42
6.283185307177441
  0
LINE
  5
10E
330
37
100
AcDbEntity
  8
Visible (ANSI)
100
AcDbLine
 10
1.004556200391947
 20
3.300452559926792
 30
0.0
 11
1.001107860274827
 21
2.312579897072986
 31
0.0
  0
POLYLINE
  5
10F
330
37
100
AcDbEntity
  8
Visible (ANSI)
100
AcDb2dPolyline
 66
     1
 10
0.0
 20
0.0
 30
0.0
 70
   128
  0
VERTEX
  5
110
330
10F
100
AcDbEntity
  8
Visible (ANSI)
100
AcDbVertex
100
AcDb2dVertex
 10
1.010200303057671
 20
3.488749529061031
 30
0.0
  0
VERTEX
  5
111
330
10F
100
AcDbEntity
  8
Visible (ANSI)
100
AcDbVertex
100
AcDb2dVertex
 10
1.009820757575548
 20
3.488730474347819
 30
0.0
  0
VERTEX
  5
113
330
10F
100
AcDbEntity
  8
Visible (ANSI)
100
AcDbVertex
100
AcDb2dVertex
 10
1.009446726696384
 20
3.488674061132843
 30
0.0
  0
VERTEX
  5
114
330
10F
100
AcDbEntity
  8
Visible (ANSI)
100
AcDbVertex
100
AcDb2dVertex
 10
1.009079665336708
 20
3.488581415803091
 30
0.0
  0
VERTEX
  5
115
330
10F
100
AcDbEntity
  8
Visible (ANSI)
100
AcDbVertex
100
AcDb2dVertex
 10
1.008721075345837
 20
3.488453758611131
 30
0.0
  0
VERTEX
  5
116
330
10F
100
AcDbEntity
  8
Visible (ANSI)
100
AcDbVertex
100
AcDb2dVertex
 10
1.008375321473349
 20
3.488293717793268
 30
0.0
  0
VERTEX
  5
117
330
10F
100
AcDbEntity
  8
Visible (ANSI)
100
AcDbVertex
100
AcDb2dVertex
 10
1.008045383951482
 20
3.488104484779305
 30
0.0
  0
VERTEX
  5
118
330
10F
100
AcDbEntity
  8
Visible (ANSI)
100
AcDbVertex
100
AcDb2dVertex
 10
1.007731966772104
 20
3.487888312343214
 30
0.0
  0
VERTEX
  5
119
330
10F
100
AcDbEntity
  8
Visible (ANSI)
100
AcDbVertex
100
AcDb2dVertex
 10
1.0074356800615
 20
3.487647547124554
 30
0.0
  0
VERTEX
  5
11A
330
10F
100
AcDbEntity
  8
Visible (ANSI)
100
AcDbVertex
100
AcDb2dVertex
 10
1.007157392076305
 20
3.487384911225212
 30
0.0
  0
VERTEX
  5
11B
330
10F
100
AcDbEntity
  8
Visible (ANSI)
100
AcDbVertex
100
AcDb2dVertex
 10
1.006898111871532
 20
3.487103220612661
 30
0.0
  0
VERTEX
  5
11C
330
10F
100
AcDbEntity
  8
Visible (ANSI)
100
AcDbVertex
100
AcDb2dVertex
 10
1.006657862913575
 20
3.486804540329707
 30
0.0
  0
VERTEX
  5
11D
330
10F
100
AcDbEntity
  8
Visible (ANSI)
100
AcDbVertex
100
AcDb2dVertex
 10
1.006436574803249
 20
3.486490935419165
 30
0.0
  0
VERTEX
  5
11E
330
10F
100
AcDbEntity
  8
Visible (ANSI)
100
AcDbVertex
100
AcDb2dVertex
 10
1.00623420060776
 20
3.486164377058261
 30
0.0
  0
VERTEX
  5
11F
330
10F
100
AcDbEntity
  8
Visible (ANSI)
100
AcDbVertex
100
AcDb2dVertex
 10
1.006050669927922
 20
3.485826742558643
 30
0.0
  0
VERTEX
  5
120
330
10F
100
AcDbEntity
  8
Visible (ANSI)
100
AcDbVertex
100
AcDb2dVertex
 10
1.005885677700593
 20
3.485479533769629
 30
0.0
  0
VERTEX
  5
121
330
10F
100
AcDbEntity
  8
Visible (ANSI)
100
AcDbVertex
100
AcDb2dVertex
 10
1.005738824997048
 20
3.485123877078205
 30
0.0
  0
VERTEX
  5
122
330
10F
100
AcDbEntity
  8
Visible (ANSI)
100
AcDbVertex
100
AcDb2dVertex
 10
1.005609900619725
 20
3.484760898871361
 30
0.0
  0
VERTEX
  5
123
330
10F
100
AcDbEntity
  8
Visible (ANSI)
100
AcDbVertex
100
AcDb2dVertex
 10
1.005498716837464
 20
3.484392194863995
 30
0.0
  0
VERTEX
  5
124
330
10F
100
AcDbEntity
  8
Visible (ANSI)
100
AcDbVertex
100
AcDb2dVertex
 10
1.005405015519909
 20
3.484018891443095
 30
0.0
  0
VERTEX
  5
125
330
10F
100
AcDbEntity
  8
Visible (ANSI)
100
AcDbVertex
100
AcDb2dVertex
 10
1.00532849160392
 20
3.483641551802154
 30
0.0
  0
VERTEX
  5
126
330
10F
100
AcDbEntity
  8
Visible (ANSI)
100
AcDbVertex
100
AcDb2dVertex
 10
1.00526886349275
 20
3.483260833000251
 30
0.0
  0
VERTEX
  5
127
330
10F
100
AcDbEntity
  8
Visible (ANSI)
100
AcDbVertex
100
AcDb2dVertex
 10
1.005226037320814
 20
3.482877579827623
 30
0.0
  0
VERTEX
  5
128
330
10F
100
AcDbEntity
  8
Visible (ANSI)
100
AcDbVertex
100
AcDb2dVertex
 10
1.005199895756137
 20
3.482493012536845
 30
0.0
  0
VERTEX
  5
129
330
10F
100
AcDbEntity
  8
Visible (ANSI)
100
AcDbVertex
100
AcDb2dVertex
 10
1.005190298000344
 20
3.482107975918153
 30
0.0
  0
SEQEND
  5
112
330
10F
100
AcDbEntity
  8
Visible (ANSI)
  0
LINE
  5
12A
330
37
100
AcDbEntity
  8
Visible (ANSI)
100
AcDbLine
 10
1.004556200391947
 20
3.300452559926794
 30
0.0
 11
1.005190300081334
 21
3.48210800208017
 31
0.0
  0
LINE
  5
12B
330
37
100
AcDbEntity
  8
Visible Narrow (ANSI)
100
AcDbLine
 10
1.01020030724923
 20
3.488749498230915
 30
0.0
 11
1.009556169930236
 21
3.300452559926792
 31
0.0
  0
LINE
  5
12C
330
37
100
AcDbEntity
  8
Visible Narrow (ANSI)
100
AcDbLine
 10
1.731659550619419
 20
3.300452559926792
 30
0.0
 11
1.735107890736538
 21
2.312579897072986
 31
0.0
  0
ELLIPSE
  5
12D
330
37
100
AcDbEntity
  8
Visible Narrow (ANSI)
100
AcDbEllipse
 10
1.731659550619419
 20
3.300435106669716
 30
0.0
 11
0.004999969538289
 21
0.0000174532570762
 31
0.0
210
0.0
220
0.0
230
0.9999999999999998
 40
0.0034906301492469
 41
0.0
 42
1.57078414214764
  0
LINE
  5
12E
330
37
100
AcDbEntity
  8
Visible (ANSI)
100
AcDbLine
 10
1.736025420468319
 20
3.48210800208017
 30
0.0
 11
1.736659520157707
 21
3.300452559926794
 31
0.0
  0
POLYLINE
  5
12F
330
37
100
AcDbEntity
  8
Visible (ANSI)
100
AcDb2dPolyline
 66
     1
 10
0.0
 20
0.0
 30
0.0
 70
   128
  0
VERTEX
  5
130
330
12F
100
AcDbEntity
  8
Visible (ANSI)
100
AcDbVertex
100
AcDb2dVertex
 10
1.731015417206631
 20
3.488749529061031
 30
0.0
  0
VERTEX
  5
131
330
12F
100
AcDbEntity
  8
Visible (ANSI)
100
AcDbVertex
100
AcDb2dVertex
 10
1.731394962688755
 20
3.488730474347819
 30
0.0
  0
VERTEX
  5
133
330
12F
100
AcDbEntity
  8
Visible (ANSI)
100
AcDbVertex
100
AcDb2dVertex
 10
1.731768993567918
 20
3.488674061132843
 30
0.0
  0
VERTEX
  5
134
330
12F
100
AcDbEntity
  8
Visible (ANSI)
100
AcDbVertex
100
AcDb2dVertex
 10
1.732136054927595
 20
3.488581415803091
 30
0.0
  0
VERTEX
  5
135
330
12F
100
AcDbEntity
  8
Visible (ANSI)
100
AcDbVertex
100
AcDb2dVertex
 10
1.732494644918465
 20
3.488453758611131
 30
0.0
  0
VERTEX
  5
136
330
12F
100
AcDbEntity
  8
Visible (ANSI)
100
AcDbVertex
100
AcDb2dVertex
 10
1.732840398790953
 20
3.488293717793268
 30
0.0
  0
VERTEX
  5
137
330
12F
100
AcDbEntity
  8
Visible (ANSI)
100
AcDbVertex
100
AcDb2dVertex
 10
1.73317033631282
 20
3.488104484779305
 30
0.0
  0
VERTEX
  5
138
330
12F
100
AcDbEntity
  8
Visible (ANSI)
100
AcDbVertex
100
AcDb2dVertex
 10
1.733483753492198
 20
3.487888312343214
 30
0.0
  0
VERTEX
  5
139
330
12F
100
AcDbEntity
  8
Visible (ANSI)
100
AcDbVertex
100
AcDb2dVertex
 10
1.733780040202803
 20
3.487647547124554
 30
0.0
  0
VERTEX
  5
13A
330
12F
100
AcDbEntity
  8
Visible (ANSI)
100
AcDbVertex
100
AcDb2dVertex
 10
1.734058328187996
 20
3.487384911225212
 30
0.0
  0
VERTEX
  5
13B
330
12F
100
AcDbEntity
  8
Visible (ANSI)
100
AcDbVertex
100
AcDb2dVertex
 10
1.73431760839277
 20
3.487103220612661
 30
0.0
  0
VERTEX
  5
13C
330
12F
100
AcDbEntity
  8
Visible (ANSI)
100
AcDbVertex
100
AcDb2dVertex
 10
1.734557857350725
 20
3.486804540329707
 30
0.0
  0
VERTEX
  5
13D
330
12F
100
AcDbEntity
  8
Visible (ANSI)
100
AcDbVertex
100
AcDb2dVertex
 10
1.734779145461053
 20
3.486490935419165
 30
0.0
  0
VERTEX
  5
13E
330
12F
100
AcDbEntity
  8
Visible (ANSI)
100
AcDbVertex
100
AcDb2dVertex
 10
1.734981519656543
 20
3.486164377058261
 30
0.0
  0
VERTEX
  5
13F
330
12F
100
AcDbEntity
  8
Visible (ANSI)
100
AcDbVertex
100
AcDb2dVertex
 10
1.73516505033638
 20
3.485826742558643
 30
0.0
  0
VERTEX
  5
140
330
12F
100
AcDbEntity
  8
Visible (ANSI)
100
AcDbVertex
100
AcDb2dVertex
 10
1.735330042563709
 20
3.485479533769629
 30
0.0
  0
VERTEX
  5
141
330
12F
100
AcDbEntity
  8
Visible (ANSI)
100
AcDbVertex
100
AcDb2dVertex
 10
1.735476895267255
 20
3.485123877078205
 30
0.0
  0
VERTEX
  5
142
330
12F
100
AcDbEntity
  8
Visible (ANSI)
100
AcDbVertex
100
AcDb2dVertex
 10
1.735605819644576
 20
3.484760898871361
 30
0.0
  0
VERTEX
  5
143
330
12F
100
AcDbEntity
  8
Visible (ANSI)
100
AcDbVertex
100
AcDb2dVertex
 10
1.735717003426839
 20
3.484392194863995
 30
0.0
  0
VERTEX
  5
144
330
12F
100
AcDbEntity
  8
Visible (ANSI)
100
AcDbVertex
100
AcDb2dVertex
 10
1.735810704744392
 20
3.484018891443095
 30
0.0
  0
VERTEX
  5
145
330
12F
100
AcDbEntity
  8
Visible (ANSI)
100
AcDbVertex
100
AcDb2dVertex
 10
1.735887228660381
 20
3.483641551802154
 30
0.0
  0
VERTEX
  5
146
330
12F
100
AcDbEntity
  8
Visible (ANSI)
100
AcDbVertex
100
AcDb2dVertex
 10
1.735946856771553
 20
3.483260833000251
 30
0.0
  0
VERTEX
  5
147
330
12F
100
AcDbEntity
  8
Visible (ANSI)
100
AcDbVertex
100
AcDb2dVertex
 10
1.735989682943487
 20
3.482877579827623
 30
0.0
  0
VERTEX
  5
148
330
12F
100
AcDbEntity
  8
Visible (ANSI)
100
AcDbVertex
100
AcDb2dVertex
 10
1.736015824508166
 20
3.482493012536845
 30
0.0
  0
VERTEX
  5
149
330
12F
100
AcDbEntity
  8
Visible (ANSI)
100
AcDbVertex
100
AcDb2dVertex
 10
1.736025422263958
 20
3.482107975918153
 30
0.0
  0
SEQEND
  5
132
330
12F
100
AcDbEntity
  8
Visible (ANSI)
  0
LINE
  5
14A
330
37
100
AcDbEntity
  8
Visible Narrow (ANSI)
100
AcDbLine
 10
1.731659550619419
 20
3.300452559926792
 30
0.0
 11
1.731015413300424
 21
3.488749498230915
 31
0.0
  0
LINE
  5
14B
330
37
100
AcDbEntity
  8
Visible (ANSI)
100
AcDbLine
 10
1.740107860274826
 20
2.312579897072986
 30
0.0
 11
1.736659520157707
 21
3.300452559926792
 31
0.0
  0
LINE
  5
14C
330
37
100
AcDbEntity
  8
Visible (ANSI)
100
AcDbLine
 10
1.006107829813115
 20
2.312579897072986
 30
0.0
 11
1.735107890736538
 21
2.312579897072986
 31
0.0
  0
LINE
  5
14D
330
37
100
AcDbEntity
  8
Visible Narrow (ANSI)
100
AcDbLine
 10
1.009556169930236
 20
3.300452559926792
 30
0.0
 11
1.087781938761368
 21
3.300452559926792
 31
0.0
  0
LINE
  5
14E
330
37
100
AcDbEntity
  8
Visible (ANSI)
100
AcDbLine
 10
1.085633926643043
 20
3.549579897072987
 30
0.0
 11
1.039415368641054
 21
3.549579897072987
 31
0.0
  0
LINE
  5
14F
330
37
100
AcDbEntity
  8
Visible (ANSI)
100
AcDbLine
 10
1.039205577697744
 20
3.488749498230913
 30
0.0
 11
1.01020030724923
 21
3.488749498230915
 31
0.0
  0
LINE
  5
150
330
37
100
AcDbEntity
  8
Visible Narrow (ANSI)
100
AcDbLine
 10
1.684433781788284
 20
3.300452559926792
 30
0.0
 11
1.731659550619419
 21
3.300452559926792
 31
0.0
  0
LINE
  5
151
330
37
100
AcDbEntity
  8
Visible (ANSI)
100
AcDbLine
 10
1.76700223717914
 20
3.488749498230915
 30
0.0
 11
1.731015413300424
 21
3.488749498230915
 31
0.0
  0
LINE
  5
152
330
37
100
AcDbEntity
  8
Visible (ANSI)
100
AcDbLine
 10
1.766971272647198
 20
3.497620147176569
 30
0.0
 11
1.76700223717914
 21
3.488749498230915
 31
0.0
  0
LINE
  5
153
330
37
100
AcDbEntity
  8
Visible (ANSI)
100
AcDbLine
 10
1.766971272647198
 20
3.497620147176569
 30
0.0
 11
1.73297954989435
 21
3.497620147176569
 31
0.0
  0
LINE
  5
154
330
37
100
AcDbEntity
  8
Visible (ANSI)
100
AcDbLine
 10
1.732800351908599
 20
3.549579897072987
 30
0.0
 11
1.686581793906611
 21
3.549579897072987
 31
0.0
  0
LINE
  5
155
330
37
100
AcDbEntity
  8
Visible Narrow (ANSI)
100
AcDbLine
 10
1.087781938761368
 20
3.300452559926794
 30
0.0
 11
1.085633926643043
 21
3.549579897072987
 31
0.0
  0
LINE
  5
156
330
37
100
AcDbEntity
  8
Visible Narrow (ANSI)
100
AcDbLine
 10
1.039415368641054
 20
3.549579897072987
 30
0.0
 11
1.039205577697744
 21
3.488749498230913
 31
0.0
  0
LINE
  5
157
330
37
100
AcDbEntity
  8
Visible Narrow (ANSI)
100
AcDbLine
 10
1.679626388890016
 20
2.749579897072986
 30
0.0
 11
1.684433781788284
 21
3.300452559926792
 31
0.0
  0
LINE
  5
158
330
37
100
AcDbEntity
  8
Visible Narrow (ANSI)
100
AcDbLine
 10
1.087781938761368
 20
3.300452559926792
 30
0.0
 11
1.092589331659637
 21
2.749579897072986
 31
0.0
  0
LINE
  5
159
330
37
100
AcDbEntity
  8
Visible Narrow (ANSI)
100
AcDbLine
 10
1.73297954989435
 20
3.497620147176569
 30
0.0
 11
1.732800351908599
 21
3.549579897072987
 31
0.0
  0
LINE
  5
15A
330
37
100
AcDbEntity
  8
Visible Narrow (ANSI)
100
AcDbLine
 10
1.686581793906611
 20
3.549579897072987
 30
0.0
 11
1.684433781788284
 21
3.300452559926792
 31
0.0
  0
LINE
  5
15B
330
37
100
AcDbEntity
  8
Visible (ANSI)
100
AcDbLine
 10
1.735800333631573
 20
3.546590369027232
 30
0.0
 11
1.735971272647198
 21
3.497620147176569
 31
0.0
  0
LINE
  5
15C
330
37
100
AcDbEntity
  8
Visible Narrow (ANSI)
100
AcDbLine
 10
1.005435371460446
 20
3.546925753695838
 30
0.0
 11
1.036435371460447
 21
3.546925753695838
 31
0.0
  0
LINE
  5
15D
330
37
100
AcDbEntity
  8
Visible (ANSI)
100
AcDbLine
 10
1.039415368641054
 20
3.549579897072987
 30
0.0
 11
1.008415368641055
 21
3.549579897072987
 31
0.0
  0
ARC
  5
15E
330
37
100
AcDbEntity
  8
Visible (ANSI)
100
AcDbCircle
 10
1.008415368641055
 20
3.546579897072986
 30
0.0
 40
0.003
100
AcDbArc
 50
90.0
 51
173.3799051182511
  0
ARC
  5
15F
330
37
100
AcDbEntity
  8
Visible (ANSI)
100
AcDbCircle
 10
1.008415368641055
 20
3.546579897072986
 30
0.0
 40
0.003
100
AcDbArc
 50
173.3799051182599
 51
179.8
  0
ARC
  5
160
330
37
100
AcDbEntity
  8
Visible (ANSI)
100
AcDbCircle
 10
1.039415368641054
 20
3.546579897072986
 30
0.0
 40
0.0029999999999999
100
AcDbArc
 50
89.9999999999933
 51
179.8
  0
LINE
  5
161
330
37
100
AcDbEntity
  8
Visible (ANSI)
100
AcDbLine
 10
1.036213483370512
 20
3.488749498230913
 30
0.0
 11
1.036415386918082
 21
3.546590369027232
 31
0.0
  0
ARC
  5
162
330
37
100
AcDbEntity
  8
Visible (ANSI)
100
AcDbCircle
 10
1.732800351908599
 20
3.546579897072986
 30
0.0
 40
0.0030000000000004
100
AcDbArc
 50
0.2000000000089239
 51
89.99999999999557
  0
ELLIPSE
  5
163
330
37
100
AcDbEntity
  8
Visible Narrow (ANSI)
100
AcDbEllipse
 10
1.087781938761368
 20
3.300442087972546
 30
0.0
 11
0.0029998857691924
 21
0.0000261796064952
 31
0.0
210
0.0
220
0.0
230
0.9999999999999998
 40
0.0034905185034774
 41
0.0000000000667958
 42
1.570765865523706
  0
LINE
  5
164
330
37
100
AcDbEntity
  8
Visible (ANSI)
100
AcDbLine
 10
1.095589354507433
 20
2.749579897072986
 30
0.0
 11
1.09078182453056
 21
3.300468267579042
 31
0.0
  0
ARC
  5
165
330
37
100
AcDbEntity
  8
Visible (ANSI)
100
AcDbCircle
 10
1.085633926643041
 20
3.546579897072986
 30
0.0
 40
0.0030000000000001
100
AcDbArc
 50
0.4999999999889285
 51
89.9999999999911
  0
LINE
  5
166
330
37
100
AcDbEntity
  8
Visible (ANSI)
100
AcDbLine
 10
1.088633812412235
 20
3.546606076679482
 30
0.0
 11
1.090781824530562
 21
3.300468267579041
 31
0.0
  0
ARC
  5
167
330
37
100
AcDbEntity
  8
Visible (ANSI)
100
AcDbCircle
 10
1.686581793906611
 20
3.546579897072986
 30
0.0
 40
0.0029999999999999
100
AcDbArc
 50
90.0
 51
179.5000000000023
  0
ELLIPSE
  5
168
330
37
100
AcDbEntity
  8
Visible Narrow (ANSI)
100
AcDbEllipse
 10
1.684433781788284
 20
3.300442087972546
 30
0.0
 11
-0.0029998857691924
 21
0.0000261796064952
 31
0.0
210
0.0
220
0.0
230
0.9999999999999998
 40
0.0034905185035769
 41
4.712419441655878
 42
6.283185307112788
  0
LINE
  5
169
330
37
100
AcDbEntity
  8
Visible (ANSI)
100
AcDbLine
 10
1.681433896019093
 20
3.300468267579041
 30
0.0
 11
1.683581908137418
 21
3.546606076679482
 31
0.0
  0
LINE
  5
16A
330
37
100
AcDbEntity
  8
Visible (ANSI)
100
AcDbLine
 10
1.681433896019093
 20
3.300468267579042
 30
0.0
 11
1.67662636604222
 21
2.749579897072986
 31
0.0
  0
LINE
  5
16B
330
37
100
AcDbEntity
  8
Visible (ANSI)
100
AcDbLine
 10
1.573607860274826
 20
2.749579897072986
 30
0.0
 11
1.679626388890016
 21
2.749579897072986
 31
0.0
  0
LINE
  5
16C
330
37
100
AcDbEntity
  8
Visible (ANSI)
100
AcDbLine
 10
1.092589331659637
 20
2.749579897072986
 30
0.0
 11
1.198607860274827
 21
2.749579897072986
 31
0.0
  0
LINE
  5
16D
330
37
100
AcDbEntity
  8
Visible (ANSI)
100
AcDbLine
 10
1.571042984034485
 20
2.808579897072986
 30
0.0
 11
1.571042984034485
 21
2.749579897072986
 31
0.0
  0
LINE
  5
16E
330
37
100
AcDbEntity
  8
Visible (ANSI)
100
AcDbLine
 10
1.201172736515169
 20
2.749579897072986
 30
0.0
 11
1.201172736515168
 21
2.808579897072986
 31
0.0
  0
LINE
  5
16F
330
37
100
AcDbEntity
  8
Visible (ANSI)
100
AcDbLine
 10
1.573607860274826
 20
2.749579897072986
 30
0.0
 11
1.573607860274826
 21
2.683579897072986
 31
0.0
  0
LINE
  5
170
330
37
100
AcDbEntity
  8
Visible (ANSI)
100
AcDbLine
 10
1.573607860274826
 20
2.683579897072986
 30
0.0
 11
1.198607860274827
 21
2.683579897072986
 31
0.0
  0
LINE
  5
171
330
37
100
AcDbEntity
  8
Visible (ANSI)
100
AcDbLine
 10
1.198607860274827
 20
2.683579897072986
 30
0.0
 11
1.198607860274827
 21
2.749579897072986
 31
0.0
  0
LINE
  5
172
330
37
100
AcDbEntity
  8
Visible (ANSI)
100
AcDbLine
 10
1.198607860274827
 20
2.749579897072986
 30
0.0
 11
1.213607860274827
 21
2.749579897072986
 31
0.0
  0
LINE
  5
173
330
37
100
AcDbEntity
  8
Visible (ANSI)
100
AcDbLine
 10
1.558607860274826
 20
2.749579897072986
 30
0.0
 11
1.573607860274826
 21
2.749579897072986
 31
0.0
  0
LINE
  5
174
330
37
100
AcDbEntity
  8
Visible (ANSI)
100
AcDbLine
 10
1.005190300081334
 20
3.48210800208017
 30
0.0
 11
1.005415386918082
 21
3.546590369027232
 31
0.0
  0
LINE
  5
175
330
37
100
AcDbEntity
  8
Visible (ANSI)
100
AcDbLine
 10
1.131107860274827
 20
3.508579897072987
 30
0.0
 11
1.248607860274827
 21
3.508579897072987
 31
0.0
  0
LINE
  5
176
330
37
100
AcDbEntity
  8
Visible (ANSI)
100
AcDbLine
 10
1.248607860274827
 20
3.508579897072987
 30
0.0
 11
1.248607860274827
 21
3.099579897072986
 31
0.0
  0
LINE
  5
177
330
37
100
AcDbEntity
  8
Visible (ANSI)
100
AcDbLine
 10
1.523607860274826
 20
3.099579897072986
 30
0.0
 11
1.523607860274826
 21
3.508579897072987
 31
0.0
  0
LINE
  5
178
330
37
100
AcDbEntity
  8
Visible (ANSI)
100
AcDbLine
 10
1.523607860274826
 20
3.508579897072987
 30
0.0
 11
1.641107860274826
 21
3.508579897072987
 31
0.0
  0
LINE
  5
179
330
37
100
AcDbEntity
  8
Visible (ANSI)
100
AcDbLine
 10
1.641107860274826
 20
3.508579897072987
 30
0.0
 11
1.641107860274826
 21
2.808579897072988
 31
0.0
  0
LINE
  5
17A
330
37
100
AcDbEntity
  8
Visible (ANSI)
100
AcDbLine
 10
1.641107860274826
 20
2.808579897072988
 30
0.0
 11
1.558607860274826
 21
2.808579897072988
 31
0.0
  0
LINE
  5
17B
330
37
100
AcDbEntity
  8
Visible (ANSI)
100
AcDbLine
 10
1.213607860274827
 20
2.808579897072988
 30
0.0
 11
1.131107860274827
 21
2.808579897072988
 31
0.0
  0
LINE
  5
17C
330
37
100
AcDbEntity
  8
Visible (ANSI)
100
AcDbLine
 10
1.131107860274827
 20
2.808579897072988
 30
0.0
 11
1.131107860274827
 21
3.508579897072987
 31
0.0
  0
LINE
  5
17D
330
37
100
AcDbEntity
  8
Visible (ANSI)
100
AcDbLine
 10
1.558607860274826
 20
2.683579897072986
 30
0.0
 11
1.558607860274826
 21
3.099579897072986
 31
0.0
  0
LINE
  5
17E
330
37
100
AcDbEntity
  8
Visible (ANSI)
100
AcDbLine
 10
1.558607860274826
 20
3.099579897072986
 30
0.0
 11
1.213607860274827
 21
3.099579897072986
 31
0.0
  0
LINE
  5
17F
330
37
100
AcDbEntity
  8
Visible (ANSI)
100
AcDbLine
 10
1.213607860274827
 20
2.683579897072986
 30
0.0
 11
1.213607860274827
 21
3.099579897072986
 31
0.0
  0
ARC
  5
180
330
37
100
AcDbEntity
  8
Visible (ANSI)
100
AcDbCircle
 10
1.386107860274826
 20
3.183579897072988
 30
0.0
 40
0.2975000000000012
100
AcDbArc
 50
328.997280866126
 51
351.0818800918603
  0
ARC
  5
181
330
37
100
AcDbEntity
  8
Visible (ANSI)
100
AcDbCircle
 10
1.386107860274823
 20
3.183579897072986
 30
0.0
 40
0.2974999999999968
100
AcDbArc
 50
188.9181199081395
 51
211.0027191338741
  0
LINE
  5
182
330
37
100
AcDbEntity
  8
Visible (ANSI)
100
AcDbLine
 10
5.568206318532491
 20
2.312579897072986
 30
0.0
 11
5.563206348994202
 21
2.312579897072986
 31
0.0
  0
LINE
  5
183
330
37
100
AcDbEntity
  8
Visible (ANSI)
100
AcDbLine
 10
2.59820628807078
 20
2.312579897072986
 30
0.0
 11
2.59320631853249
 21
2.312579897072986
 31
0.0
  0
LINE
  5
184
330
37
100
AcDbEntity
  8
Visible (ANSI)
100
AcDbLine
 10
5.568206318532491
 20
2.312579897072986
 30
0.0
 11
5.56475797841537
 21
3.300452559926792
 31
0.0
  0
ELLIPSE
  5
185
330
37
100
AcDbEntity
  8
Visible Narrow (ANSI)
100
AcDbEllipse
 10
5.55975800887708
 20
3.300435106669716
 30
0.0
 11
0.0049999695382887
 21
0.0000174532570762
 31
0.0
210
0.0
220
0.0
230
0.9999999999999998
 40
0.0034906301492493
 41
0.0000000486758977
 42
1.570784166486907
  0
LINE
  5
186
330
37
100
AcDbEntity
  8
Visible Narrow (ANSI)
100
AcDbLine
 10
5.559758008877081
 20
3.300452559926792
 30
0.0
 11
5.563206348994202
 21
2.312579897072986
 31
0.0
  0
ARC
  5
187
330
37
100
AcDbEntity
  8
Visible Narrow (ANSI)
100
AcDbCircle
 10
5.314759501500923
 20
3.299597350330063
 30
0.0
 40
0.245
100
AcDbArc
 50
0.1999999999998122
 51
48.15406894714777
  0
ARC
  5
188
330
37
100
AcDbEntity
  8
Visible (ANSI)
100
AcDbCircle
 10
5.314759501500923
 20
3.299579897072987
 30
0.0
 40
0.25
100
AcDbArc
 50
0.1999999999998122
 51
49.17224195621923
  0
LINE
  5
189
330
37
100
AcDbEntity
  8
Visible (ANSI)
100
AcDbLine
 10
2.596654658649608
 20
3.300452559926792
 30
0.0
 11
2.59320631853249
 21
2.312579897072986
 31
0.0
  0
ELLIPSE
  5
18A
330
37
100
AcDbEntity
  8
Visible Narrow (ANSI)
100
AcDbEllipse
 10
2.601654628187897
 20
3.300435106669716
 30
0.0
 11
-0.004999969538289
 21
0.0000174532570762
 31
0.0
210
0.0
220
0.0
230
0.9999999999999998
 40
0.0034906301492512
 41
4.712401187232297
 42
6.283185351579279
  0
ARC
  5
18B
330
37
100
AcDbEntity
  8
Visible Narrow (ANSI)
100
AcDbCircle
 10
2.846653135564057
 20
3.299597350330063
 30
0.0
 40
0.2449999999999999
100
AcDbArc
 50
131.8459310528524
 51
179.8
  0
ARC
  5
18C
330
37
100
AcDbEntity
  8
Visible (ANSI)
100
AcDbCircle
 10
2.846653135564055
 20
3.299579897072987
 30
0.0
 40
0.25
100
AcDbArc
 50
130.8277580437809
 51
179.8
  0
LINE
  5
18D
330
37
100
AcDbEntity
  8
Visible Narrow (ANSI)
100
AcDbLine
 10
2.598206288070779
 20
2.312579897072986
 30
0.0
 11
2.601654628187898
 21
3.300452559926792
 31
0.0
  0
LINE
  5
18E
330
37
100
AcDbEntity
  8
Visible (ANSI)
100
AcDbLine
 10
5.563206348994202
 20
2.312579897072986
 30
0.0
 11
5.478206318532492
 21
2.312579897072986
 31
0.0
  0
LINE
  5
18F
330
37
100
AcDbEntity
  8
Visible (ANSI)
100
AcDbLine
 10
5.323206318532491
 20
2.312579897072986
 30
0.0
 11
2.83820631853249
 21
2.312579897072986
 31
0.0
  0
LINE
  5
190
330
37
100
AcDbEntity
  8
Visible (ANSI)
100
AcDbLine
 10
2.68320631853249
 20
2.312579897072986
 30
0.0
 11
2.598206288070779
 21
2.312579897072986
 31
0.0
  0
LINE
  5
191
330
37
100
AcDbEntity
  8
Visible (ANSI)
100
AcDbLine
 10
5.478206318532501
 20
2.312579897072986
 30
0.0
 11
5.4782063185325
 21
3.488749498230915
 31
0.0
  0
LINE
  5
192
330
37
100
AcDbEntity
  8
Visible (ANSI)
100
AcDbLine
 10
2.8382063185325
 20
2.808579897072986
 30
0.0
 11
2.694075092127565
 21
3.497620147176569
 31
0.0
  0
LINE
  5
193
330
37
100
AcDbEntity
  8
Visible (ANSI)
100
AcDbLine
 10
2.683206318532499
 20
3.488749498230915
 30
0.0
 11
2.683206318532501
 21
2.312579897072986
 31
0.0
  0
LINE
  5
194
330
37
100
AcDbEntity
  8
Visible (ANSI)
100
AcDbLine
 10
2.8382063185325
 20
2.312579897072986
 30
0.0
 11
2.8382063185325
 21
2.808579897072986
 31
0.0
  0
LINE
  5
195
330
37
100
AcDbEntity
  8
Visible (ANSI)
100
AcDbLine
 10
5.3232063185325
 20
2.808579897072986
 30
0.0
 11
5.323206318532502
 21
2.312579897072986
 31
0.0
  0
LINE
  5
196
330
37
100
AcDbEntity
  8
Visible (ANSI)
100
AcDbLine
 10
5.467337544937432
 20
3.497620147176569
 30
0.0
 11
5.3232063185325
 21
2.808579897072986
 31
0.0
  0
LINE
  5
197
330
37
100
AcDbEntity
  8
Visible (ANSI)
100
AcDbLine
 10
5.478206318532501
 20
2.312579897072986
 30
0.0
 11
5.323206318532502
 21
2.312579897072986
 31
0.0
  0
LINE
  5
198
330
37
100
AcDbEntity
  8
Visible (ANSI)
100
AcDbLine
 10
2.8382063185325
 20
2.312579897072986
 30
0.0
 11
2.683206318532501
 21
2.312579897072986
 31
0.0
  0
ARC
  5
199
330
37
100
AcDbEntity
  8
Visible (ANSI)
100
AcDbCircle
 10
5.314759501500923
 20
3.299579897072987
 30
0.0
 40
0.2499999999999999
100
AcDbArc
 50
52.38792141712631
 51
89.99999999999978
  0
ARC
  5
19A
330
37
100
AcDbEntity
  8
Visible (ANSI)
100
AcDbCircle
 10
2.846653135564056
 20
3.299579897072987
 30
0.0
 40
0.2499999999999999
100
AcDbArc
 50
90.00000000000019
 51
127.6120785828739
  0
LINE
  5
19B
330
37
100
AcDbEntity
  8
Visible Narrow (ANSI)
100
AcDbLine
 10
4.405706318532491
 20
2.803597350330063
 30
0.0
 11
4.405706032190662
 21
3.499590369027233
 31
0.0
  0
LINE
  5
19C
330
37
100
AcDbEntity
  8
Visible Narrow (ANSI)
100
AcDbLine
 10
3.755706604874318
 20
3.499590369027233
 30
0.0
 11
3.755706318532491
 21
2.803597350330063
 31
0.0
  0
ARC
  5
19D
330
37
100
AcDbEntity
  8
Visible Narrow (ANSI)
100
AcDbCircle
 10
3.708706318532489
 20
3.499590369027231
 30
0.0
 40
0.0470002863418287
100
AcDbArc
 50
0.0
 51
89.99999999999944
  0
LINE
  5
19E
330
37
100
AcDbEntity
  8
Visible Narrow (ANSI)
100
AcDbLine
 10
2.846653135564056
 20
3.546590369027232
 30
0.0
 11
3.708706318532491
 21
3.546590369027232
 31
0.0
  0
ARC
  5
19F
330
37
100
AcDbEntity
  8
Visible Narrow (ANSI)
100
AcDbCircle
 10
2.846653135564057
 20
3.299590369027233
 30
0.0
 40
0.247
100
AcDbArc
 50
90.0000000000001
 51
127.9494866947258
  0
ARC
  5
1A0
330
37
100
AcDbEntity
  8
Visible Narrow (ANSI)
100
AcDbCircle
 10
5.314759501500923
 20
3.299590369027233
 30
0.0
 40
0.247
100
AcDbArc
 50
52.0505133052746
 51
90.00000000000019
  0
LINE
  5
1A1
330
37
100
AcDbEntity
  8
Visible Narrow (ANSI)
100
AcDbLine
 10
4.45270631853249
 20
3.546590369027232
 30
0.0
 11
5.314759501500923
 21
3.546590369027232
 31
0.0
  0
ARC
  5
1A2
330
37
100
AcDbEntity
  8
Visible Narrow (ANSI)
100
AcDbCircle
 10
4.45270631853249
 20
3.499590369027233
 30
0.0
 40
0.0470002863418284
100
AcDbArc
 50
90.0
 51
180.0
  0
LINE
  5
1A3
330
37
100
AcDbEntity
  8
Visible (ANSI)
100
AcDbLine
 10
5.314759501500923
 20
3.549579897072987
 30
0.0
 11
4.452706318532488
 21
3.549579897072987
 31
0.0
  0
ARC
  5
1A4
330
37
100
AcDbEntity
  8
Visible (ANSI)
100
AcDbCircle
 10
4.452706318532488
 20
3.499579897072986
 30
0.0
 40
0.05
100
AcDbArc
 50
90.0
 51
180.0
  0
LINE
  5
1A5
330
37
100
AcDbEntity
  8
Visible (ANSI)
100
AcDbLine
 10
4.402706318532488
 20
3.499579897072986
 30
0.0
 11
4.40270631853249
 21
2.808169426152154
 31
0.0
  0
LINE
  5
1A6
330
37
100
AcDbEntity
  8
Visible Narrow (ANSI)
100
AcDbLine
 10
5.314759501500923
 20
3.546590369027232
 30
0.0
 11
5.314759501500923
 21
3.549579897072987
 31
0.0
  0
LINE
  5
1A7
330
37
100
AcDbEntity
  8
Visible Narrow (ANSI)
100
AcDbLine
 10
4.45270631853249
 20
3.546590369027232
 30
0.0
 11
4.452706318532488
 21
3.549579897072987
 31
0.0
  0
ELLIPSE
  5
1A8
330
37
100
AcDbEntity
  8
Visible Narrow (ANSI)
100
AcDbEllipse
 10
4.405706318532488
 20
3.499579897072986
 30
0.0
 11
-0.0029999999999998
 21
0.0
 31
0.0
210
0.0
220
0.0
230
1.0
 40
0.0034906514152458
 41
4.712484450810603
 42
6.283185353481621
  0
LINE
  5
1A9
330
37
100
AcDbEntity
  8
Visible Narrow (ANSI)
100
AcDbLine
 10
2.846653135564056
 20
3.546590369027232
 30
0.0
 11
2.846653135564056
 21
3.549579897072987
 31
0.0
  0
LINE
  5
1AA
330
37
100
AcDbEntity
  8
Visible Narrow (ANSI)
100
AcDbLine
 10
3.708706318532489
 20
3.549579897072987
 30
0.0
 11
3.708706318532491
 21
3.546590369027232
 31
0.0
  0
LINE
  5
1AB
330
37
100
AcDbEntity
  8
Visible (ANSI)
100
AcDbLine
 10
3.708706318532489
 20
3.549579897072987
 30
0.0
 11
2.846653135564056
 21
3.549579897072987
 31
0.0
  0
ELLIPSE
  5
1AC
330
37
100
AcDbEntity
  8
Visible Narrow (ANSI)
100
AcDbEllipse
 10
3.75570631853249
 20
3.499579897072988
 30
0.0
 11
0.0030000000136653
 21
-0.0000000000000003
 31
0.0
210
0.0
220
0.0
230
1.0
 40
0.0034906514151025
 41
0.0
 42
1.570700879518778
  0
ARC
  5
1AD
330
37
100
AcDbEntity
  8
Visible (ANSI)
100
AcDbCircle
 10
3.708706318532489
 20
3.499579897072986
 30
0.0
 40
0.05
100
AcDbArc
 50
0.0
 51
89.99999999999952
  0
LINE
  5
1AE
330
37
100
AcDbEntity
  8
Visible (ANSI)
100
AcDbLine
 10
3.75870631853249
 20
2.808169426152154
 30
0.0
 11
3.75870631853249
 21
3.499579897072986
 31
0.0
  0
ARC
  5
1AF
330
37
100
AcDbEntity
  8
Visible (ANSI)
100
AcDbCircle
 10
5.314759501500933
 20
3.299579897072987
 30
0.0
 40
0.25
100
AcDbArc
 50
49.1722419562193
 51
52.38792141712631
  0
ARC
  5
1B0
330
37
100
AcDbEntity
  8
Visible (ANSI)
100
AcDbCircle
 10
2.846653135564066
 20
3.299579897072987
 30
0.0
 40
0.25
100
AcDbArc
 50
127.6120785828737
 51
130.8277580437809
  0
LINE
  5
1B1
330
37
100
AcDbEntity
  8
Visible (ANSI)
100
AcDbLine
 10
4.40270631853249
 20
2.808579897072986
 30
0.0
 11
3.75870631853249
 21
2.808579897072986
 31
0.0
  0
POLYLINE
  5
1B2
330
37
100
AcDbEntity
  8
Visible (ANSI)
100
AcDb2dPolyline
 66
     1
 10
0.0
 20
0.0
 30
0.0
 70
   128
  0
VERTEX
  5
1B3
330
1B2
100
AcDbEntity
  8
Visible (ANSI)
100
AcDbVertex
100
AcDb2dVertex
 10
3.755706314026943
 20
2.803597328797716
 30
0.0
  0
VERTEX
  5
1B4
330
1B2
100
AcDbEntity
  8
Visible (ANSI)
100
AcDbVertex
100
AcDb2dVertex
 10
3.755869428942626
 20
2.803807869298868
 30
0.0
  0
VERTEX
  5
1B6
330
1B2
100
AcDbEntity
  8
Visible (ANSI)
100
AcDbVertex
100
AcDb2dVertex
 10
3.75603561795613
 20
2.804022446020058
 30
0.0
  0
VERTEX
  5
1B7
330
1B2
100
AcDbEntity
  8
Visible (ANSI)
100
AcDbVertex
100
AcDb2dVertex
 10
3.756203918945236
 20
2.804240120305466
 30
0.0
  0
VERTEX
  5
1B8
330
1B2
100
AcDbEntity
  8
Visible (ANSI)
100
AcDbVertex
100
AcDb2dVertex
 10
3.756373346321328
 20
2.804459906566476
 30
0.0
  0
VERTEX
  5
1B9
330
1B2
100
AcDbEntity
  8
Visible (ANSI)
100
AcDbVertex
100
AcDb2dVertex
 10
3.756542937962191
 20
2.804680866147267
 30
0.0
  0
VERTEX
  5
1BA
330
1B2
100
AcDbEntity
  8
Visible (ANSI)
100
AcDbVertex
100
AcDb2dVertex
 10
3.756711708279209
 20
2.80490206039201
 30
0.0
  0
VERTEX
  5
1BB
330
1B2
100
AcDbEntity
  8
Visible (ANSI)
100
AcDbVertex
100
AcDb2dVertex
 10
3.756878671683768
 20
2.805122456779306
 30
0.0
  0
VERTEX
  5
1BC
330
1B2
100
AcDbEntity
  8
Visible (ANSI)
100
AcDbVertex
100
AcDb2dVertex
 10
3.757042983385624
 20
2.805341069720538
 30
0.0
  0
VERTEX
  5
1BD
330
1B2
100
AcDbEntity
  8
Visible (ANSI)
100
AcDbVertex
100
AcDb2dVertex
 10
3.757203798594539
 20
2.805557054425464
 30
0.0
  0
VERTEX
  5
1BE
330
1B2
100
AcDbEntity
  8
Visible (ANSI)
100
AcDbVertex
100
AcDb2dVertex
 10
3.757360272520273
 20
2.805769566103845
 30
0.0
  0
VERTEX
  5
1BF
330
1B2
100
AcDbEntity
  8
Visible (ANSI)
100
AcDbVertex
100
AcDb2dVertex
 10
3.757511536906187
 20
2.805977759965438
 30
0.0
  0
VERTEX
  5
1C0
330
1B2
100
AcDbEntity
  8
Visible (ANSI)
100
AcDbVertex
100
AcDb2dVertex
 10
3.757656700029251
 20
2.806180885085585
 30
0.0
  0
VERTEX
  5
1C1
330
1B2
100
AcDbEntity
  8
Visible (ANSI)
100
AcDbVertex
100
AcDb2dVertex
 10
3.757794917099221
 20
2.806378049741256
 30
0.0
  0
VERTEX
  5
1C2
330
1B2
100
AcDbEntity
  8
Visible (ANSI)
100
AcDbVertex
100
AcDb2dVertex
 10
3.757925272926673
 20
2.806568456075
 30
0.0
  0
VERTEX
  5
1C3
330
1B2
100
AcDbEntity
  8
Visible (ANSI)
100
AcDbVertex
100
AcDb2dVertex
 10
3.758048565369055
 20
2.806753746734507
 30
0.0
  0
VERTEX
  5
1C4
330
1B2
100
AcDbEntity
  8
Visible (ANSI)
100
AcDbVertex
100
AcDb2dVertex
 10
3.758167821591396
 20
2.806939272057968
 30
0.0
  0
VERTEX
  5
1C5
330
1B2
100
AcDbEntity
  8
Visible (ANSI)
100
AcDbVertex
100
AcDb2dVertex
 10
3.758280812286118
 20
2.807122967002575
 30
0.0
  0
VERTEX
  5
1C6
330
1B2
100
AcDbEntity
  8
Visible (ANSI)
100
AcDbVertex
100
AcDb2dVertex
 10
3.758384956149706
 20
2.807302297197604
 30
0.0
  0
VERTEX
  5
1C7
330
1B2
100
AcDbEntity
  8
Visible (ANSI)
100
AcDbVertex
100
AcDb2dVertex
 10
3.758477648412251
 20
2.807474728272333
 30
0.0
  0
VERTEX
  5
1C8
330
1B2
100
AcDbEntity
  8
Visible (ANSI)
100
AcDbVertex
100
AcDb2dVertex
 10
3.758556542434194
 20
2.807637913587202
 30
0.0
  0
VERTEX
  5
1C9
330
1B2
100
AcDbEntity
  8
Visible (ANSI)
100
AcDbVertex
100
AcDb2dVertex
 10
3.758620159832613
 20
2.807790210494522
 30
0.0
  0
VERTEX
  5
1CA
330
1B2
100
AcDbEntity
  8
Visible (ANSI)
100
AcDbVertex
100
AcDb2dVertex
 10
3.758667163022961
 20
2.807930398741721
 30
0.0
  0
VERTEX
  5
1CB
330
1B2
100
AcDbEntity
  8
Visible (ANSI)
100
AcDbVertex
100
AcDb2dVertex
 10
3.758696308286272
 20
2.808057211143441
 30
0.0
  0
VERTEX
  5
1CC
330
1B2
100
AcDbEntity
  8
Visible (ANSI)
100
AcDbVertex
100
AcDb2dVertex
 10
3.758706328437185
 20
2.808169427447108
 30
0.0
  0
SEQEND
  5
1B5
330
1B2
100
AcDbEntity
  8
Visible (ANSI)
  0
LINE
  5
1CD
330
37
100
AcDbEntity
  8
Visible Narrow (ANSI)
100
AcDbLine
 10
3.755706318532491
 20
2.803597350330063
 30
0.0
 11
4.405706318532491
 21
2.803597350330063
 31
0.0
  0
POLYLINE
  5
1CE
330
37
100
AcDbEntity
  8
Visible (ANSI)
100
AcDb2dPolyline
 66
     1
 10
0.0
 20
0.0
 30
0.0
 70
   128
  0
VERTEX
  5
1CF
330
1CE
100
AcDbEntity
  8
Visible (ANSI)
100
AcDbVertex
100
AcDb2dVertex
 10
4.402706308627793
 20
2.808169427447108
 30
0.0
  0
VERTEX
  5
1D0
330
1CE
100
AcDbEntity
  8
Visible (ANSI)
100
AcDbVertex
100
AcDb2dVertex
 10
4.402716234913125
 20
2.808057492740188
 30
0.0
  0
VERTEX
  5
1D2
330
1CE
100
AcDbEntity
  8
Visible (ANSI)
100
AcDbVertex
100
AcDb2dVertex
 10
4.40274514551248
 20
2.807931478195918
 30
0.0
  0
VERTEX
  5
1D3
330
1CE
100
AcDbEntity
  8
Visible (ANSI)
100
AcDbVertex
100
AcDb2dVertex
 10
4.402791679374916
 20
2.807792510201288
 30
0.0
  0
VERTEX
  5
1D4
330
1CE
100
AcDbEntity
  8
Visible (ANSI)
100
AcDbVertex
100
AcDb2dVertex
 10
4.402854545848677
 20
2.807641668210495
 30
0.0
  0
VERTEX
  5
1D5
330
1CE
100
AcDbEntity
  8
Visible (ANSI)
100
AcDbVertex
100
AcDb2dVertex
 10
4.402932430815612
 20
2.807480031677733
 30
0.0
  0
VERTEX
  5
1D6
330
1CE
100
AcDbEntity
  8
Visible (ANSI)
100
AcDbVertex
100
AcDb2dVertex
 10
4.403024020157563
 20
2.807308820855576
 30
0.0
  0
VERTEX
  5
1D7
330
1CE
100
AcDbEntity
  8
Visible (ANSI)
100
AcDbVertex
100
AcDb2dVertex
 10
4.403127647760449
 20
2.807129725324503
 30
0.0
  0
VERTEX
  5
1D8
330
1CE
100
AcDbEntity
  8
Visible (ANSI)
100
AcDbVertex
100
AcDb2dVertex
 10
4.403241084316686
 20
2.806944950925699
 30
0.0
  0
VERTEX
  5
1D9
330
1CE
100
AcDbEntity
  8
Visible (ANSI)
100
AcDbVertex
100
AcDb2dVertex
 10
4.403362077052301
 20
2.806756656567559
 30
0.0
  0
VERTEX
  5
1DA
330
1CE
100
AcDbEntity
  8
Visible (ANSI)
100
AcDbVertex
100
AcDb2dVertex
 10
4.403488349726923
 20
2.806566907292891
 30
0.0
  0
VERTEX
  5
1DB
330
1CE
100
AcDbEntity
  8
Visible (ANSI)
100
AcDbVertex
100
AcDb2dVertex
 10
4.403617907696924
 20
2.806377627346135
 30
0.0
  0
VERTEX
  5
1DC
330
1CE
100
AcDbEntity
  8
Visible (ANSI)
100
AcDbVertex
100
AcDb2dVertex
 10
4.403754106656876
 20
2.806183231725145
 30
0.0
  0
VERTEX
  5
1DD
330
1CE
100
AcDbEntity
  8
Visible (ANSI)
100
AcDbVertex
100
AcDb2dVertex
 10
4.403898026060972
 20
2.805981843118269
 30
0.0
  0
VERTEX
  5
1DE
330
1CE
100
AcDbEntity
  8
Visible (ANSI)
100
AcDbVertex
100
AcDb2dVertex
 10
4.404048656854206
 20
2.805774447114126
 30
0.0
  0
VERTEX
  5
1DF
330
1CE
100
AcDbEntity
  8
Visible (ANSI)
100
AcDbVertex
100
AcDb2dVertex
 10
4.404205036914356
 20
2.805562076234119
 30
0.0
  0
VERTEX
  5
1E0
330
1CE
100
AcDbEntity
  8
Visible (ANSI)
100
AcDbVertex
100
AcDb2dVertex
 10
4.404366133720019
 20
2.805345809932445
 30
0.0
  0
VERTEX
  5
1E1
330
1CE
100
AcDbEntity
  8
Visible (ANSI)
100
AcDbVertex
100
AcDb2dVertex
 10
4.404530985148976
 20
2.80512663379772
 30
0.0
  0
VERTEX
  5
1E2
330
1CE
100
AcDbEntity
  8
Visible (ANSI)
100
AcDbVertex
100
AcDb2dVertex
 10
4.404698582146213
 20
2.804905580351348
 30
0.0
  0
VERTEX
  5
1E3
330
1CE
100
AcDbEntity
  8
Visible (ANSI)
100
AcDbVertex
100
AcDb2dVertex
 10
4.404867915656726
 20
2.804683682114735
 30
0.0
  0
VERTEX
  5
1E4
330
1CE
100
AcDbEntity
  8
Visible (ANSI)
100
AcDbVertex
100
AcDb2dVertex
 10
4.405038047024686
 20
2.804461971609288
 30
0.0
  0
VERTEX
  5
1E5
330
1CE
100
AcDbEntity
  8
Visible (ANSI)
100
AcDbVertex
100
AcDb2dVertex
 10
4.405207920262296
 20
2.804241434423619
 30
0.0
  0
VERTEX
  5
1E6
330
1CE
100
AcDbEntity
  8
Visible (ANSI)
100
AcDbVertex
100
AcDb2dVertex
 10
4.405376596713733
 20
2.804023150011925
 30
0.0
  0
VERTEX
  5
1E7
330
1CE
100
AcDbEntity
  8
Visible (ANSI)
100
AcDbVertex
100
AcDb2dVertex
 10
4.405543067323983
 20
2.803808103962823
 30
0.0
  0
VERTEX
  5
1E8
330
1CE
100
AcDbEntity
  8
Visible (ANSI)
100
AcDbVertex
100
AcDb2dVertex
 10
4.405706323038039
 20
2.803597328797716
 30
0.0
  0
SEQEND
  5
1D1
330
1CE
100
AcDbEntity
  8
Visible (ANSI)
  0
LINE
  5
1E9
330
37
100
AcDbEntity
  8
Visible (ANSI)
100
AcDbLine
 10
4.323206318531902
 20
4.878557759682752
 30
0.0
 11
4.3282063185319
 21
4.883557759682756
 31
0.0
  0
LINE
  5
1EA
330
37
100
AcDbEntity
  8
Visible Narrow (ANSI)
100
AcDbLine
 10
4.323206318531902
 20
4.878557759682753
 30
0.0
 11
4.323206318532076
 21
4.288557759682753
 31
0.0
  0
LINE
  5
1EB
330
37
100
AcDbEntity
  8
Visible (ANSI)
100
AcDbLine
 10
4.323206318532076
 20
4.288557759682753
 30
0.0
 11
4.328206318532077
 21
4.283557759682756
 31
0.0
  0
LINE
  5
1EC
330
37
100
AcDbEntity
  8
Visible Narrow (ANSI)
100
AcDbLine
 10
4.323206318532076
 20
4.288557759682753
 30
0.0
 11
3.838206318532076
 21
4.28855775968261
 31
0.0
  0
LINE
  5
1ED
330
37
100
AcDbEntity
  8
Visible (ANSI)
100
AcDbLine
 10
3.838206318532076
 20
4.28855775968261
 30
0.0
 11
3.833206318532078
 21
4.28355775968261
 31
0.0
  0
LINE
  5
1EE
330
37
100
AcDbEntity
  8
Visible Narrow (ANSI)
100
AcDbLine
 10
3.838206318532076
 20
4.28855775968261
 30
0.0
 11
3.838206318531901
 21
4.87855775968261
 31
0.0
  0
LINE
  5
1EF
330
37
100
AcDbEntity
  8
Visible (ANSI)
100
AcDbLine
 10
3.838206318531901
 20
4.878557759682608
 30
0.0
 11
3.8332063185319
 21
4.883557759682608
 31
0.0
  0
LINE
  5
1F0
330
37
100
AcDbEntity
  8
Visible Narrow (ANSI)
100
AcDbLine
 10
3.838206318531901
 20
4.87855775968261
 30
0.0
 11
4.323206318531901
 21
4.878557759682753
 31
0.0
  0
LINE
  5
1F1
330
37
100
AcDbEntity
  8
Visible (ANSI)
100
AcDbLine
 10
3.8332063185319
 20
4.883557759682727
 30
0.0
 11
4.3282063185319
 21
4.883557759682873
 31
0.0
  0
LINE
  5
1F2
330
37
100
AcDbEntity
  8
Visible (ANSI)
100
AcDbLine
 10
4.3282063185319
 20
4.883557759682873
 30
0.0
 11
4.328206318532077
 21
4.283557759682874
 31
0.0
  0
LINE
  5
1F3
330
37
100
AcDbEntity
  8
Visible (ANSI)
100
AcDbLine
 10
3.833206318532078
 20
4.283557759682728
 30
0.0
 11
3.8332063185319
 21
4.883557759682727
 31
0.0
  0
LINE
  5
1F4
330
37
100
AcDbEntity
  8
Visible (ANSI)
100
AcDbLine
 10
4.328206318532077
 20
4.283557759682874
 30
0.0
 11
3.833206318532078
 21
4.283557759682728
 31
0.0
  0
ARC
  5
1F5
330
37
100
AcDbEntity
  8
Visible (ANSI)
100
AcDbCircle
 10
4.080706318531937
 20
4.753057759682681
 30
0.0
 40
0.0885
100
AcDbArc
 50
0.0
 51
180.0
  0
LINE
  5
1F6
330
37
100
AcDbEntity
  8
Visible (ANSI)
100
AcDbLine
 10
4.169206318531938
 20
4.753057759682707
 30
0.0
 11
4.169206318532038
 21
4.414057759682707
 31
0.0
  0
ARC
  5
1F7
330
37
100
AcDbEntity
  8
Visible (ANSI)
100
AcDbCircle
 10
4.08070631853204
 20
4.414057759682681
 30
0.0
 40
0.0885
100
AcDbArc
 50
180.0
 51
0.0
  0
LINE
  5
1F8
330
37
100
AcDbEntity
  8
Visible (ANSI)
100
AcDbLine
 10
3.992206318532038
 20
4.414057759682656
 30
0.0
 11
3.992206318531938
 21
4.753057759682656
 31
0.0
  0
ARC
  5
1F9
330
37
100
AcDbEntity
  8
Visible (ANSI)
100
AcDbCircle
 10
5.563206288069978
 20
4.963557729221196
 30
0.0
 40
0.0050000609236077
100
AcDbArc
 50
0.0006981284709119
 51
89.99930187115303
  0
LINE
  5
1FA
330
37
100
AcDbEntity
  8
Visible (ANSI)
100
AcDbLine
 10
5.563206348993586
 20
4.968557759683092
 30
0.0
 11
5.559758008876467
 21
4.965109419566266
 31
0.0
  0
ARC
  5
1FB
330
37
100
AcDbEntity
  8
Visible (ANSI)
100
AcDbCircle
 10
5.559758008876467
 20
4.960109450027976
 30
0.0
 40
0.0049999695390315
100
AcDbArc
 50
0.0006981284709119
 51
90.00000000001069
  0
LINE
  5
1FC
330
37
100
AcDbEntity
  8
Visible (ANSI)
100
AcDbLine
 10
5.564757978414757
 20
4.960109450027978
 30
0.0
 11
5.568206318531875
 21
4.963557790144806
 31
0.0
  0
LINE
  5
1FD
330
37
100
AcDbEntity
  8
Visible (ANSI)
100
AcDbLine
 10
5.478206300359499
 20
4.964475321957897
 30
0.0
 11
5.478206300359499
 21
4.959465316900573
 31
0.0
  0
ELLIPSE
  5
1FE
330
37
100
AcDbEntity
  8
Visible Narrow (ANSI)
100
AcDbEllipse
 10
5.314759501500311
 20
4.960112435284679
 30
0.0
 11
0.25
 21
0.0000000000000702
 31
0.0
210
0.0
220
0.0
230
1.0
 40
0.0034208592276677
 41
5.424967954604203
 42
6.279695046740942
  0
ELLIPSE
  5
1FF
330
37
100
AcDbEntity
  8
Visible (ANSI)
100
AcDbEllipse
 10
5.314759501500308
 20
4.965112404822968
 30
0.0
 11
-0.2449999999999999
 21
-0.0000000000000687
 31
0.0
210
0.0
220
0.0
230
1.0
 40
0.0034906726812996
 41
2.301145772389969
 42
3.138102377415726
  0
ARC
  5
200
330
37
100
AcDbEntity
  8
Visible (ANSI)
100
AcDbCircle
 10
5.563206288070196
 20
4.23455779014499
 30
0.0
 40
0.0050000609236077
100
AcDbArc
 50
270.0006981288897
 51
359.9993018715291
  0
ARC
  5
201
330
37
100
AcDbEntity
  8
Visible (ANSI)
100
AcDbCircle
 10
2.598206348993989
 20
4.234557790144111
 30
0.0
 40
0.0050000609236077
100
AcDbArc
 50
180.0006981284709
 51
269.9993018711477
  0
ARC
  5
202
330
37
100
AcDbEntity
  8
Visible (ANSI)
100
AcDbCircle
 10
2.598206348993772
 20
4.963557729220316
 30
0.0
 40
0.0050000609236077
100
AcDbArc
 50
90.0006981288897
 51
179.9993018715291
  0
LINE
  5
203
330
37
100
AcDbEntity
  8
Visible (ANSI)
100
AcDbLine
 10
5.568206318532092
 20
4.234557729221384
 30
0.0
 11
5.564757978414971
 21
4.238006069338796
 31
0.0
  0
ARC
  5
204
330
37
100
AcDbEntity
  8
Visible (ANSI)
100
AcDbCircle
 10
5.559758008876683
 20
4.238006069338794
 30
0.0
 40
0.004999969539031
100
AcDbArc
 50
270.0006981288906
 51
0.0
  0
LINE
  5
205
330
37
100
AcDbEntity
  8
Visible (ANSI)
100
AcDbLine
 10
5.559758008876683
 20
4.233006099800505
 30
0.0
 11
5.563206348993804
 21
4.229557759683093
 31
0.0
  0
ELLIPSE
  5
206
330
37
100
AcDbEntity
  8
Visible (ANSI)
100
AcDbEllipse
 10
5.314759501500526
 20
4.233003114543656
 30
0.0
 11
0.2449999999999999
 21
0.0000000000000767
 31
0.0
210
0.0
220
0.0
230
1.0
 40
0.0034906726818929
 41
0.0034902761735989
 42
0.8404468811997379
  0
ELLIPSE
  5
207
330
37
100
AcDbEntity
  8
Visible Narrow (ANSI)
100
AcDbEllipse
 10
5.314759501500525
 20
4.238003084081944
 30
0.0
 11
-0.25
 21
-0.0000000000000781
 31
0.0
210
0.0
220
0.0
230
1.0
 40
0.003420859228261
 41
3.145082914027756
 42
3.999810006165635
  0
LINE
  5
208
330
37
100
AcDbEntity
  8
Visible (ANSI)
100
AcDbLine
 10
2.593206318531875
 20
4.963557790143922
 30
0.0
 11
2.596654658648997
 21
4.960109450027097
 31
0.0
  0
ARC
  5
209
330
37
100
AcDbEntity
  8
Visible (ANSI)
100
AcDbCircle
 10
2.601654628187286
 20
4.960109450027098
 30
0.0
 40
0.004999969539031
100
AcDbArc
 50
90.00069812888529
 51
180.0
  0
LINE
  5
20A
330
37
100
AcDbEntity
  8
Visible (ANSI)
100
AcDbLine
 10
2.601654628187284
 20
4.965109419565388
 30
0.0
 11
2.598206288070163
 21
4.968557759682213
 31
0.0
  0
LINE
  5
20B
330
37
100
AcDbEntity
  8
Visible (ANSI)
100
AcDbLine
 10
2.683206336704254
 20
4.959465316899744
 30
0.0
 11
2.683206336704253
 21
4.964475321957068
 31
0.0
  0
ELLIPSE
  5
20C
330
37
100
AcDbEntity
  8
Visible (ANSI)
100
AcDbEllipse
 10
2.846653135563443
 20
4.965112404822237
 30
0.0
 11
-0.2449999999999999
 21
-0.0000000000000767
 31
0.0
210
0.0
220
0.0
230
1.0
 40
0.0034906726812996
 41
0.003490276240079
 42
0.8404468812291483
  0
ELLIPSE
  5
20D
330
37
100
AcDbEntity
  8
Visible Narrow (ANSI)
100
AcDbEllipse
 10
2.846653135563445
 20
4.960112435283948
 30
0.0
 11
0.25
 21
0.0000000000000781
 31
0.0
210
0.0
220
0.0
230
1.0
 40
0.0034208592276677
 41
3.145082914088123
 42
3.99981000619072
  0
LINE
  5
20E
330
37
100
AcDbEntity
  8
Visible (ANSI)
100
AcDbLine
 10
2.59665465864921
 20
4.238006069337915
 30
0.0
 11
2.593206318532093
 21
4.234557729220501
 31
0.0
  0
ARC
  5
20F
330
37
100
AcDbEntity
  8
Visible (ANSI)
100
AcDbCircle
 10
2.601654628187501
 20
4.238006069337917
 30
0.0
 40
0.0049999695390314
100
AcDbArc
 50
180.0
 51
269.9993018711468
  0
ELLIPSE
  5
210
330
37
100
AcDbEntity
  8
Visible (ANSI)
100
AcDbEllipse
 10
2.84665313556366
 20
4.233003114542923
 30
0.0
 11
0.2449999999999999
 21
0.0000000000000687
 31
0.0
210
0.0
220
0.0
230
1.0
 40
0.0034906726818929
 41
2.301145772360733
 42
3.138102377350431
  0
ELLIPSE
  5
211
330
37
100
AcDbEntity
  8
Visible Narrow (ANSI)
100
AcDbEllipse
 10
2.846653135563658
 20
4.238003084081213
 30
0.0
 11
-0.25
 21
-0.0000000000000702
 31
0.0
210
0.0
220
0.0
230
1.0
 40
0.003420859228261
 41
5.424967954578202
 42
6.279695046681786
  0
LINE
  5
212
330
37
100
AcDbEntity
  8
Visible (ANSI)
100
AcDbLine
 10
2.598206288070382
 20
4.229557759682213
 30
0.0
 11
2.601654628187501
 21
4.233006099799626
 31
0.0
  0
LINE
  5
213
330
37
100
AcDbEntity
  8
Visible (ANSI)
100
AcDbLine
 10
5.478206318531874
 20
4.968557759683068
 30
0.0
 11
5.563206348993586
 21
4.968557759683092
 31
0.0
  0
LINE
  5
214
330
37
100
AcDbEntity
  8
Visible (ANSI)
100
AcDbLine
 10
5.568206318532092
 20
4.234557729221384
 30
0.0
 11
5.568206318531875
 21
4.963557790144806
 31
0.0
  0
LINE
  5
215
330
37
100
AcDbEntity
  8
Visible (ANSI)
100
AcDbLine
 10
5.478206318532103
 20
4.198557759683069
 30
0.0
 11
5.323206318532103
 21
4.198557759683023
 31
0.0
  0
LINE
  5
216
330
37
100
AcDbEntity
  8
Visible (ANSI)
100
AcDbLine
 10
2.838206318532103
 20
4.198557759682286
 30
0.0
 11
2.683206318532103
 21
4.198557759682238
 31
0.0
  0
LINE
  5
217
330
37
100
AcDbEntity
  8
Visible (ANSI)
100
AcDbLine
 10
2.593206318531875
 20
4.963557790143922
 30
0.0
 11
2.593206318532093
 21
4.234557729220501
 31
0.0
  0
LINE
  5
218
330
37
100
AcDbEntity
  8
Visible (ANSI)
100
AcDbLine
 10
2.598206288070163
 20
4.968557759682213
 30
0.0
 11
2.683206318531873
 21
4.968557759682237
 31
0.0
  0
LINE
  5
219
330
37
100
AcDbEntity
  8
Visible (ANSI)
100
AcDbLine
 10
2.838206318531873
 20
4.968557759682284
 30
0.0
 11
4.242706318531873
 21
4.968557759682702
 31
0.0
  0
LINE
  5
21A
330
37
100
AcDbEntity
  8
Visible (ANSI)
100
AcDbLine
 10
4.402706318531873
 20
4.96855775968275
 30
0.0
 11
5.323206318531875
 21
4.968557759683021
 31
0.0
  0
LINE
  5
21B
330
37
100
AcDbEntity
  8
Visible (ANSI)
100
AcDbLine
 10
5.478206318531874
 20
4.968557759683068
 30
0.0
 11
5.478206318531876
 21
4.964475319876908
 31
0.0
  0
LINE
  5
21C
330
37
100
AcDbEntity
  8
Visible (ANSI)
100
AcDbLine
 10
2.683206318531884
 20
4.93755775968224
 30
0.0
 11
2.838206318531883
 21
4.937557759682285
 31
0.0
  0
LINE
  5
21D
330
37
100
AcDbEntity
  8
Visible (ANSI)
100
AcDbLine
 10
5.323206318531884
 20
4.937557759683021
 30
0.0
 11
5.478206318531885
 21
4.937557759683068
 31
0.0
  0
LINE
  5
21E
330
37
100
AcDbEntity
  8
Visible (ANSI)
100
AcDbLine
 10
2.838206318531873
 20
4.966826386032361
 30
0.0
 11
2.923859355762731
 21
4.964250233039422
 31
0.0
  0
LINE
  5
21F
330
37
100
AcDbEntity
  8
Visible (ANSI)
100
AcDbLine
 10
2.838206318531873
 20
4.966826386032361
 30
0.0
 11
2.838206318531883
 21
4.935826386032361
 31
0.0
  0
LINE
  5
220
330
37
100
AcDbEntity
  8
Visible (ANSI)
100
AcDbLine
 10
2.923859355762741
 20
4.933250233039422
 30
0.0
 11
2.838206318531883
 21
4.935826386032361
 31
0.0
  0
LINE
  5
221
330
37
100
AcDbEntity
  8
Visible (ANSI)
100
AcDbLine
 10
5.237553281301018
 20
4.964250233040108
 30
0.0
 11
5.323206318531876
 21
4.966826386033097
 31
0.0
  0
LINE
  5
222
330
37
100
AcDbEntity
  8
Visible (ANSI)
100
AcDbLine
 10
5.323206318531876
 20
4.966826386033097
 30
0.0
 11
5.323206318531875
 21
4.968557759683021
 31
0.0
  0
LINE
  5
223
330
37
100
AcDbEntity
  8
Visible (ANSI)
100
AcDbLine
 10
2.838206318531873
 20
4.968557759682284
 30
0.0
 11
2.838206318531873
 21
4.966826386032361
 31
0.0
  0
LINE
  5
224
330
37
100
AcDbEntity
  8
Visible (ANSI)
100
AcDbLine
 10
5.237553281301027
 20
4.933250233040109
 30
0.0
 11
5.323206318531886
 21
4.935826386033097
 31
0.0
  0
LINE
  5
225
330
37
100
AcDbEntity
  8
Visible (ANSI)
100
AcDbLine
 10
5.323206318531876
 20
4.966826386033097
 30
0.0
 11
5.323206318531886
 21
4.935826386033097
 31
0.0
  0
LINE
  5
226
330
37
100
AcDbEntity
  8
Visible (ANSI)
100
AcDbLine
 10
2.683206318531874
 20
4.964475319876078
 30
0.0
 11
2.683206318531873
 21
4.968557759682237
 31
0.0
  0
LINE
  5
227
330
37
100
AcDbEntity
  8
Visible (ANSI)
100
AcDbLine
 10
5.563206348993804
 20
4.229557759683093
 30
0.0
 11
5.478206318532095
 21
4.229557759683069
 31
0.0
  0
LINE
  5
228
330
37
100
AcDbEntity
  8
Visible (ANSI)
100
AcDbLine
 10
5.323206318532093
 20
4.229557759683022
 30
0.0
 11
2.838206318532093
 21
4.229557759682286
 31
0.0
  0
LINE
  5
229
330
37
100
AcDbEntity
  8
Visible (ANSI)
100
AcDbLine
 10
2.683206318532093
 20
4.229557759682238
 30
0.0
 11
2.598206288070382
 21
4.229557759682213
 31
0.0
  0
LINE
  5
22A
330
37
100
AcDbEntity
  8
Visible (ANSI)
100
AcDbLine
 10
2.838206318532093
 20
4.231289133332504
 30
0.0
 11
2.694756408246242
 21
4.233682977733387
 31
0.0
  0
LINE
  5
22B
330
37
100
AcDbEntity
  8
Visible (ANSI)
100
AcDbLine
 10
5.323206318532093
 20
4.231289133333241
 30
0.0
 11
5.46665622881794
 21
4.233682977734209
 31
0.0
  0
LINE
  5
22C
330
37
100
AcDbEntity
  8
Visible (ANSI)
100
AcDbLine
 10
5.478206318532103
 20
4.198557759683069
 30
0.0
 11
5.478206318532103
 21
4.202663382779102
 31
0.0
  0
LINE
  5
22D
330
37
100
AcDbEntity
  8
Visible (ANSI)
100
AcDbLine
 10
2.8382063185321
 20
4.200289133332503
 30
0.0
 11
2.694075092127168
 21
4.202694347310223
 31
0.0
  0
LINE
  5
22E
330
37
100
AcDbEntity
  8
Visible (ANSI)
100
AcDbLine
 10
2.8382063185321
 20
4.200289133332503
 30
0.0
 11
2.838206318532093
 21
4.231289133332504
 31
0.0
  0
LINE
  5
22F
330
37
100
AcDbEntity
  8
Visible (ANSI)
100
AcDbLine
 10
2.683206318532102
 20
4.202663382778275
 30
0.0
 11
2.683206318532103
 21
4.198557759682238
 31
0.0
  0
LINE
  5
230
330
37
100
AcDbEntity
  8
Visible (ANSI)
100
AcDbLine
 10
2.838206318532103
 20
4.198557759682286
 30
0.0
 11
2.8382063185321
 21
4.200289133332503
 31
0.0
  0
LINE
  5
231
330
37
100
AcDbEntity
  8
Visible (ANSI)
100
AcDbLine
 10
5.323206318532103
 20
4.200289133333241
 30
0.0
 11
5.323206318532103
 21
4.198557759683023
 31
0.0
  0
LINE
  5
232
330
37
100
AcDbEntity
  8
Visible (ANSI)
100
AcDbLine
 10
5.323206318532103
 20
4.200289133333241
 30
0.0
 11
5.323206318532093
 21
4.231289133333241
 31
0.0
  0
LINE
  5
233
330
37
100
AcDbEntity
  8
Visible (ANSI)
100
AcDbLine
 10
5.467337544937035
 20
4.202694347311045
 30
0.0
 11
5.323206318532103
 21
4.200289133333241
 31
0.0
  0
LINE
  5
234
330
37
100
AcDbEntity
  8
Visible (ANSI)
100
AcDbLine
 10
5.564757978414781
 20
4.881883681196844
 30
0.0
 11
5.564757978414757
 21
4.960109450027978
 31
0.0
  0
LINE
  5
235
330
37
100
AcDbEntity
  8
Visible (ANSI)
100
AcDbLine
 10
5.564757978414971
 20
4.238006069338796
 30
0.0
 11
5.564757978414957
 21
4.285231838169928
 31
0.0
  0
LINE
  5
236
330
37
100
AcDbEntity
  8
Visible (ANSI)
100
AcDbLine
 10
5.478206318532103
 20
4.202663382779102
 30
0.0
 11
5.478206318532091
 21
4.238650206657821
 31
0.0
  0
LINE
  5
237
330
37
100
AcDbEntity
  8
Visible Narrow (ANSI)
100
AcDbLine
 10
5.314759501500511
 20
4.283083826051601
 30
0.0
 11
5.314759501500525
 21
4.236865268049615
 31
0.0
  0
LINE
  5
238
330
37
100
AcDbEntity
  8
Visible (ANSI)
100
AcDbLine
 10
5.467337544937024
 20
4.236686070063893
 30
0.0
 11
5.467337544937035
 21
4.202694347311045
 31
0.0
  0
ELLIPSE
  5
239
330
37
100
AcDbEntity
  8
Visible (ANSI)
100
AcDbEllipse
 10
5.314759501500534
 20
4.202003053620048
 30
0.0
 11
0.25
 21
0.0000000000000766
 31
0.0
210
0.0
220
0.0
230
1.0
 40
0.0034906726818929
 41
0.8582174227727037
 42
0.9143416299052864
  0
LINE
  5
23A
330
37
100
AcDbEntity
  8
Visible (ANSI)
100
AcDbLine
 10
2.596654658648997
 20
4.960109450027097
 30
0.0
 11
2.596654658649019
 21
4.881883681195964
 31
0.0
  0
LINE
  5
23B
330
37
100
AcDbEntity
  8
Visible Narrow (ANSI)
100
AcDbLine
 10
2.846653135563466
 20
4.884031693314439
 30
0.0
 11
2.846653135563452
 21
4.930250251316427
 31
0.0
  0
LINE
  5
23C
330
37
100
AcDbEntity
  8
Visible (ANSI)
100
AcDbLine
 10
2.683206318531885
 20
4.930460042259671
 30
0.0
 11
2.683206318531877
 21
4.959465312708184
 31
0.0
  0
LINE
  5
23D
330
37
100
AcDbEntity
  8
Visible (ANSI)
100
AcDbLine
 10
2.596654658649196
 20
4.285231838169049
 30
0.0
 11
2.59665465864921
 21
4.238006069337915
 31
0.0
  0
LINE
  5
23E
330
37
100
AcDbEntity
  8
Visible (ANSI)
100
AcDbLine
 10
2.683206318532102
 20
4.202663382778275
 30
0.0
 11
2.68320631853209
 21
4.238650206656991
 31
0.0
  0
ELLIPSE
  5
23F
330
37
100
AcDbEntity
  8
Visible (ANSI)
100
AcDbEllipse
 10
2.84665313556367
 20
4.202003053619316
 30
0.0
 11
0.25
 21
0.0000000000000717
 31
0.0
210
0.0
220
0.0
230
1.0
 40
0.0034906726818929
 41
2.227251023663074
 42
2.283375230792556
  0
LINE
  5
240
330
37
100
AcDbEntity
  8
Visible (ANSI)
100
AcDbLine
 10
2.694075092127168
 20
4.202694347310223
 30
0.0
 11
2.694075092127159
 21
4.236686070063069
 31
0.0
  0
LINE
  5
241
330
37
100
AcDbEntity
  8
Visible Narrow (ANSI)
100
AcDbLine
 10
2.846653135563658
 20
4.236865268048883
 30
0.0
 11
2.846653135563644
 21
4.283083826050869
 31
0.0
  0
LINE
  5
242
330
37
100
AcDbEntity
  8
Visible Narrow (ANSI)
100
AcDbLine
 10
5.314759501500319
 20
4.930250251317159
 30
0.0
 11
5.314759501500333
 21
4.884031693315171
 31
0.0
  0
LINE
  5
243
330
37
100
AcDbEntity
  8
Visible (ANSI)
100
AcDbLine
 10
5.478206318531878
 20
4.959465312709014
 30
0.0
 11
5.478206318531886
 21
4.9304600422605
 31
0.0
  0
LINE
  5
244
330
37
100
AcDbEntity
  8
Visible (ANSI)
100
AcDbLine
 10
5.566680894570045
 20
4.877076288298415
 30
0.0
 11
5.564757978414781
 21
4.881883681196844
 31
0.0
  0
LINE
  5
245
330
37
100
AcDbEntity
  8
Visible (ANSI)
100
AcDbLine
 10
5.564757978414957
 20
4.285231838169928
 30
0.0
 11
5.566680894570218
 21
4.290039231068035
 31
0.0
  0
ELLIPSE
  5
246
330
37
100
AcDbEntity
  8
Visible Narrow (ANSI)
100
AcDbEllipse
 10
5.31475950150051
 20
4.285239362395846
 30
0.0
 11
0.2499999999999999
 21
0.000000000000075
 31
0.0
210
0.0
220
0.0
230
1.0
 40
0.0086221453769729
 41
4.712388980385089
 42
6.279694643294939
  0
ELLIPSE
  5
247
330
37
100
AcDbEntity
  8
Visible Narrow (ANSI)
100
AcDbEllipse
 10
5.314759501500525
 20
4.236003071897187
 30
0.0
 11
-0.2499999999999999
 21
-0.0000000000000773
 31
0.0
210
0.0
220
0.0
230
1.0
 40
0.0034487846097137
 41
4.055934258091911
 42
4.712388980388277
  0
ELLIPSE
  5
248
330
37
100
AcDbEntity
  8
Visible Narrow (ANSI)
100
AcDbEllipse
 10
2.846653135563468
 20
4.881876156970047
 30
0.0
 11
-0.2499999999999999
 21
-0.000000000000075
 31
0.0
210
0.0
220
0.0
230
1.0
 40
0.0086221453775662
 41
4.712388980385086
 42
6.279694643285338
  0
ELLIPSE
  5
249
330
37
100
AcDbEntity
  8
Visible Narrow (ANSI)
100
AcDbEllipse
 10
2.846653135563452
 20
4.931112447468707
 30
0.0
 11
0.2499999999999999
 21
0.0000000000000773
 31
0.0
210
0.0
220
0.0
230
1.0
 40
0.0034487846091205
 41
3.999810047235602
 42
4.712388980388282
  0
LINE
  5
24A
330
37
100
AcDbEntity
  8
Visible (ANSI)
100
AcDbLine
 10
2.594731742493934
 20
4.290039231067153
 30
0.0
 11
2.596654658649196
 21
4.285231838169049
 31
0.0
  0
LINE
  5
24B
330
37
100
AcDbEntity
  8
Visible (ANSI)
100
AcDbLine
 10
2.596654658649019
 20
4.881883681195964
 30
0.0
 11
2.594731742493759
 21
4.877076288297533
 31
0.0
  0
ELLIPSE
  5
24C
330
37
100
AcDbEntity
  8
Visible Narrow (ANSI)
100
AcDbEllipse
 10
2.846653135563658
 20
4.236003071896453
 30
0.0
 11
-0.2499999999999999
 21
-0.0000000000000711
 31
0.0
210
0.0
220
0.0
230
1.0
 40
0.0034487846097137
 41
4.712388980381098
 42
5.368843702656171
  0
ELLIPSE
  5
24D
330
37
100
AcDbEntity
  8
Visible Narrow (ANSI)
100
AcDbEllipse
 10
2.846653135563644
 20
4.285239362395112
 30
0.0
 11
0.2499999999999999
 21
0.0000000000000733
 31
0.0
210
0.0
220
0.0
230
1.0
 40
0.0086221453769729
 41
3.145083317483818
 42
4.712388980384286
  0
LINE
  5
24E
330
37
100
AcDbEntity
  8
Visible (ANSI)
100
AcDbLine
 10
4.405706318532092
 20
4.231271740893167
 30
0.0
 11
4.405706032190264
 21
4.233701224710323
 31
0.0
  0
LINE
  5
24F
330
37
100
AcDbEntity
  8
Visible (ANSI)
100
AcDbLine
 10
3.755706604873922
 20
4.233701224710128
 30
0.0
 11
3.755706318532093
 21
4.231271740892973
 31
0.0
  0
ELLIPSE
  5
250
330
37
100
AcDbEntity
  8
Visible (ANSI)
100
AcDbEllipse
 10
3.708706318532092
 20
4.233701224710116
 30
0.0
 11
0.0470002863418287
 21
0.0000000000000139
 31
0.0
210
0.0
220
0.0
230
1.0
 40
0.0034906514155204
 41
0.0
 42
1.570796326794875
  0
LINE
  5
251
330
37
100
AcDbEntity
  8
Visible (ANSI)
100
AcDbLine
 10
2.84665313556366
 20
4.233865286325908
 30
0.0
 11
3.708706318532092
 21
4.233865286326163
 31
0.0
  0
ELLIPSE
  5
252
330
37
100
AcDbEntity
  8
Visible (ANSI)
100
AcDbEllipse
 10
2.84665313556366
 20
4.233003090173482
 30
0.0
 11
0.247
 21
0.0000000000000702
 31
0.0
210
0.0
220
0.0
230
1.0
 40
0.0034906726818929
 41
1.570796326791305
 42
2.233139930522106
  0
ELLIPSE
  5
253
330
37
100
AcDbEntity
  8
Visible (ANSI)
100
AcDbEllipse
 10
5.314759501500526
 20
4.233003090174213
 30
0.0
 11
0.247
 21
0.0000000000000764
 31
0.0
210
0.0
220
0.0
230
1.0
 40
0.0034906726818929
 41
0.90845272304529
 42
1.570796326798489
  0
LINE
  5
254
330
37
100
AcDbEntity
  8
Visible (ANSI)
100
AcDbLine
 10
4.452706318532092
 20
4.233865286326384
 30
0.0
 11
5.314759501500526
 21
4.233865286326641
 31
0.0
  0
ELLIPSE
  5
255
330
37
100
AcDbEntity
  8
Visible (ANSI)
100
AcDbEllipse
 10
4.452706318532092
 20
4.233701224710336
 30
0.0
 11
-0.0470002863418284
 21
-0.0000000000000139
 31
0.0
210
0.0
220
0.0
230
1.0
 40
0.0034906514155202
 41
4.712388980384965
 42
6.283185307179856
  0
LINE
  5
256
330
37
100
AcDbEntity
  8
Visible Narrow (ANSI)
100
AcDbLine
 10
2.923898280299168
 20
4.964230248497056
 30
0.0
 11
2.923898280299178
 21
4.933230248497056
 31
0.0
  0
LINE
  5
257
330
37
100
AcDbEntity
  8
Visible (ANSI)
100
AcDbLine
 10
2.926878277479787
 20
4.930250251316452
 30
0.0
 11
2.923898280299178
 21
4.933230248497056
 31
0.0
  0
LINE
  5
258
330
37
100
AcDbEntity
  8
Visible Narrow (ANSI)
100
AcDbLine
 10
2.926878277479787
 20
4.930250251316451
 30
0.0
 11
2.926878277479778
 21
4.96125025131645
 31
0.0
  0
LINE
  5
259
330
37
100
AcDbEntity
  8
Visible (ANSI)
100
AcDbLine
 10
2.923898280299168
 20
4.964230248497056
 30
0.0
 11
2.926878277479778
 21
4.96125025131645
 31
0.0
  0
ARC
  5
25A
330
37
100
AcDbEntity
  8
Visible (ANSI)
100
AcDbCircle
 10
3.755706318531876
 20
4.961414312932716
 30
0.0
 40
0.003
100
AcDbArc
 50
0.0
 51
89.99453124063235
  0
ELLIPSE
  5
25B
330
37
100
AcDbEntity
  8
Visible (ANSI)
100
AcDbEllipse
 10
3.708706318531876
 20
4.964414294655675
 30
0.0
 11
0.0470002863418287
 21
0.0000000000000139
 31
0.0
210
0.0
220
0.0
230
1.0
 40
0.0034906514149269
 41
4.712388980995552
 42
6.283185308398598
  0
LINE
  5
25C
330
37
100
AcDbEntity
  8
Visible Narrow (ANSI)
100
AcDbLine
 10
3.708706318531876
 20
4.961250251316683
 30
0.0
 11
3.708706318531876
 21
4.964250233039654
 31
0.0
  0
ELLIPSE
  5
25D
330
37
100
AcDbEntity
  8
Visible Narrow (ANSI)
100
AcDbEllipse
 10
3.708706318531876
 20
4.961414312932703
 30
0.0
 11
0.05
 21
0.0000000000000148
 31
0.0
210
0.0
220
0.0
230
1.0
 40
0.0032812323204039
 41
4.712388980384687
 42
6.283185307423702
  0
ARC
  5
25E
330
37
100
AcDbEntity
  8
Visible (ANSI)
100
AcDbCircle
 10
3.755706318531875
 20
4.965229618173378
 30
0.0
 40
0.003000018277138
100
AcDbArc
 50
0.0
 51
90.00000000001781
  0
LINE
  5
25F
330
37
100
AcDbEntity
  8
Visible (ANSI)
100
AcDbLine
 10
3.755706318531875
 20
4.968229636450516
 30
0.0
 11
3.755706604873704
 21
4.96441429465569
 31
0.0
  0
LINE
  5
260
330
37
100
AcDbEntity
  8
Visible (ANSI)
100
AcDbLine
 10
3.758706318531876
 20
4.961414312932717
 30
0.0
 11
3.758706318531876
 21
4.965229618173379
 31
0.0
  0
LINE
  5
261
330
37
100
AcDbEntity
  8
Visible Narrow (ANSI)
100
AcDbLine
 10
2.926878277479778
 20
4.96125025131645
 30
0.0
 11
3.708706318531876
 21
4.961250251316683
 31
0.0
  0
LINE
  5
262
330
37
100
AcDbEntity
  8
Visible (ANSI)
100
AcDbLine
 10
3.708706318531876
 20
4.964250233039654
 30
0.0
 11
2.923859355762731
 21
4.964250233039422
 31
0.0
  0
ELLIPSE
  5
263
330
37
100
AcDbEntity
  8
Visible (ANSI)
100
AcDbEllipse
 10
2.923858140394223
 20
4.961250251316449
 30
0.0
 11
0.0000000000000009
 21
-0.003
 31
0.0
210
0.0
220
0.0
230
1.0
 40
0.1160593792172741
 41
3.026050201087969
 42
3.138101995064471
  0
LINE
  5
264
330
37
100
AcDbEntity
  8
Visible Narrow (ANSI)
100
AcDbLine
 10
2.846653135563452
 20
4.930250251316427
 30
0.0
 11
2.846653135563451
 21
4.933250233039398
 31
0.0
  0
LINE
  5
265
330
37
100
AcDbEntity
  8
Visible Narrow (ANSI)
100
AcDbLine
 10
2.846653135563452
 20
4.930250251316427
 30
0.0
 11
2.926878277479787
 21
4.930250251316451
 31
0.0
  0
ELLIPSE
  5
266
330
37
100
AcDbEntity
  8
Visible (ANSI)
100
AcDbEllipse
 10
2.923858140394234
 20
4.930250251316448
 30
0.0
 11
-0.0000000000000009
 21
0.003
 31
0.0
210
0.0
220
0.0
230
1.0
 40
0.1160593792172741
 41
6.16764285467724
 42
6.279694648653737
  0
LINE
  5
267
330
37
100
AcDbEntity
  8
Visible (ANSI)
100
AcDbLine
 10
2.923859355762741
 20
4.933250233039422
 30
0.0
 11
2.846653135563451
 21
4.933250233039398
 31
0.0
  0
ELLIPSE
  5
268
330
37
100
AcDbEntity
  8
Visible (ANSI)
100
AcDbEllipse
 10
2.846653135563451
 20
4.93411242919168
 30
0.0
 11
-0.247
 21
-0.0000000000000764
 31
0.0
210
0.0
220
0.0
230
1.0
 40
0.0034906726812996
 41
0.8476749820021556
 42
1.570796326798486
  0
LINE
  5
269
330
37
100
AcDbEntity
  8
Visible (ANSI)
100
AcDbLine
 10
4.405706032190046
 20
4.964414294655882
 30
0.0
 11
4.405706318531874
 21
4.967856134473809
 31
0.0
  0
ELLIPSE
  5
26A
330
37
100
AcDbEntity
  8
Visible (ANSI)
100
AcDbEllipse
 10
4.452706318531876
 20
4.964414294655896
 30
0.0
 11
-0.0470002863418284
 21
-0.0000000000000139
 31
0.0
210
0.0
220
0.0
230
1.0
 40
0.0034906514149271
 41
0.0
 42
1.570796326794894
  0
LINE
  5
26B
330
37
100
AcDbEntity
  8
Visible (ANSI)
100
AcDbLine
 10
5.237553281301018
 20
4.964250233040108
 30
0.0
 11
4.452706318531876
 21
4.964250233039877
 31
0.0
  0
LINE
  5
26C
330
37
100
AcDbEntity
  8
Visible (ANSI)
100
AcDbLine
 10
3.758706318531901
 20
4.880744782131473
 30
0.0
 11
3.7587063185319
 21
4.88362153052853
 31
0.0
  0
ELLIPSE
  5
26D
330
37
100
AcDbEntity
  8
Visible Narrow (ANSI)
100
AcDbEllipse
 10
3.7087063185319
 20
4.883621530528514
 30
0.0
 11
-0.05
 21
-0.0000000000000148
 31
0.0
210
0.0
220
0.0
230
1.0
 40
0.0082032557236094
 41
3.141592653551033
 42
4.712388980384695
  0
LINE
  5
26E
330
37
100
AcDbEntity
  8
Visible Narrow (ANSI)
100
AcDbLine
 10
4.452706318531876
 20
4.961250251316903
 30
0.0
 11
4.452706318531876
 21
4.964250233039877
 31
0.0
  0
LINE
  5
26F
330
37
100
AcDbEntity
  8
Visible Narrow (ANSI)
100
AcDbLine
 10
4.452706318531876
 20
4.961250251316903
 30
0.0
 11
5.234534359583974
 21
4.961250251317134
 31
0.0
  0
LINE
  5
270
330
37
100
AcDbEntity
  8
Visible (ANSI)
100
AcDbLine
 10
5.237514356764583
 20
4.964230248497742
 30
0.0
 11
5.234534359583974
 21
4.961250251317134
 31
0.0
  0
ELLIPSE
  5
271
330
37
100
AcDbEntity
  8
Visible (ANSI)
100
AcDbEllipse
 10
5.237554496669528
 20
4.961250251317134
 30
0.0
 11
-0.0000000000000009
 21
0.003
 31
0.0
210
0.0
220
0.0
230
1.0
 40
0.1160593792172741
 41
0.0034906585269043
 42
0.115542452503429
  0
LINE
  5
272
330
37
100
AcDbEntity
  8
Visible Narrow (ANSI)
100
AcDbLine
 10
5.237514356764592
 20
4.933230248497743
 30
0.0
 11
5.237514356764583
 21
4.964230248497742
 31
0.0
  0
LINE
  5
273
330
37
100
AcDbEntity
  8
Visible Narrow (ANSI)
100
AcDbLine
 10
5.234534359583974
 20
4.961250251317134
 30
0.0
 11
5.234534359583984
 21
4.930250251317136
 31
0.0
  0
LINE
  5
274
330
37
100
AcDbEntity
  8
Visible (ANSI)
100
AcDbLine
 10
5.237514356764592
 20
4.933230248497744
 30
0.0
 11
5.234534359583984
 21
4.930250251317136
 31
0.0
  0
LINE
  5
275
330
37
100
AcDbEntity
  8
Visible Narrow (ANSI)
100
AcDbLine
 10
5.314759501500319
 20
4.933250233040132
 30
0.0
 11
5.314759501500319
 21
4.930250251317159
 31
0.0
  0
LINE
  5
276
330
37
100
AcDbEntity
  8
Visible (ANSI)
100
AcDbLine
 10
5.314759501500319
 20
4.933250233040132
 30
0.0
 11
5.237553281301027
 21
4.933250233040109
 31
0.0
  0
ELLIPSE
  5
277
330
37
100
AcDbEntity
  8
Visible (ANSI)
100
AcDbEllipse
 10
5.237554496669539
 20
4.930250251317136
 30
0.0
 11
0.0000000000000009
 21
-0.003
 31
0.0
210
0.0
220
0.0
230
1.0
 40
0.1160593792172741
 41
3.145083312117225
 42
3.257135106093743
  0
LINE
  5
278
330
37
100
AcDbEntity
  8
Visible Narrow (ANSI)
100
AcDbLine
 10
5.234534359583984
 20
4.930250251317136
 30
0.0
 11
5.314759501500319
 21
4.930250251317159
 31
0.0
  0
ELLIPSE
  5
279
330
37
100
AcDbEntity
  8
Visible (ANSI)
100
AcDbEllipse
 10
5.314759501500319
 20
4.934112429192412
 30
0.0
 11
-0.247
 21
-0.0000000000000702
 31
0.0
210
0.0
220
0.0
230
1.0
 40
0.0034906726812996
 41
1.570796326791304
 42
2.293917671613076
  0
ELLIPSE
  5
27A
330
37
100
AcDbEntity
  8
Visible Narrow (ANSI)
100
AcDbEllipse
 10
5.314759501500319
 20
4.931112447469438
 30
0.0
 11
0.2499999999999999
 21
0.0000000000000711
 31
0.0
210
0.0
220
0.0
230
1.0
 40
0.0034487846091205
 41
4.712388980381096
 42
5.424967913558909
  0
ARC
  5
27B
330
37
100
AcDbEntity
  8
Visible (ANSI)
100
AcDbCircle
 10
4.405706318531875
 20
4.96141431293291
 30
0.0
 40
0.003000000013665
100
AcDbArc
 50
90.00546882601964
 51
180.0
  0
ELLIPSE
  5
27C
330
37
100
AcDbEntity
  8
Visible Narrow (ANSI)
100
AcDbEllipse
 10
4.452706318531876
 20
4.961414312932924
 30
0.0
 11
0.05
 21
0.0000000000000148
 31
0.0
210
0.0
220
0.0
230
1.0
 40
0.0032812323204039
 41
3.14159265326554
 42
4.712388980384688
  0
ARC
  5
27D
330
37
100
AcDbEntity
  8
Visible (ANSI)
100
AcDbCircle
 10
4.405706318531874
 20
4.964856116196671
 30
0.0
 40
0.003000018277138
100
AcDbArc
 50
90.00000000001781
 51
180.0
  0
LINE
  5
27E
330
37
100
AcDbEntity
  8
Visible (ANSI)
100
AcDbLine
 10
4.402706318531874
 20
4.964856116196671
 30
0.0
 11
4.402706318531875
 21
4.961414312932909
 31
0.0
  0
ARC
  5
27F
330
37
100
AcDbEntity
  8
Visible (ANSI)
100
AcDbCircle
 10
5.561757996691808
 20
4.881883681196844
 30
0.0
 40
0.0029999817229733
100
AcDbArc
 50
270.0017453593955
 51
0.0
  0
LINE
  5
280
330
37
100
AcDbEntity
  8
Visible (ANSI)
100
AcDbLine
 10
5.561757996691808
 20
4.878883795427652
 30
0.0
 11
5.563680967677345
 21
4.874076265450616
 31
0.0
  0
ARC
  5
281
330
37
100
AcDbEntity
  8
Visible (ANSI)
100
AcDbCircle
 10
5.563680876292907
 20
4.877076379685773
 30
0.0
 40
0.0030001325115993
100
AcDbArc
 50
270.001745247746
 51
359.9982546406605
  0
LINE
  5
282
330
37
100
AcDbEntity
  8
Visible Narrow (ANSI)
100
AcDbLine
 10
5.314759501500334
 20
4.881031807545978
 30
0.0
 11
5.314759501500333
 21
4.884031693315171
 31
0.0
  0
ELLIPSE
  5
283
330
37
100
AcDbEntity
  8
Visible (ANSI)
100
AcDbEllipse
 10
5.314759501500335
 20
4.878876271201588
 30
0.0
 11
0.2469999999999999
 21
0.0000000000000724
 31
0.0
210
0.0
220
0.0
230
1.0
 40
0.0087268677910553
 41
0.0034906637551613
 42
1.570796326794496
  0
ELLIPSE
  5
284
330
37
100
AcDbEntity
  8
Visible Narrow (ANSI)
100
AcDbEllipse
 10
5.314759501500333
 20
4.881876156970781
 30
0.0
 11
-0.2499999999999999
 21
-0.0000000000000733
 31
0.0
210
0.0
220
0.0
230
1.0
 40
0.0086221453775662
 41
3.145083317474603
 42
4.712388980384284
  0
LINE
  5
285
330
37
100
AcDbEntity
  8
Visible Narrow (ANSI)
100
AcDbLine
 10
4.452706318531901
 20
4.881031807545722
 30
0.0
 11
4.4527063185319
 21
4.884031693314915
 31
0.0
  0
LINE
  5
286
330
37
100
AcDbEntity
  8
Visible (ANSI)
100
AcDbLine
 10
4.452706318531901
 20
4.881031807545722
 30
0.0
 11
5.314759501500334
 21
4.881031807545978
 31
0.0
  0
LINE
  5
287
330
37
100
AcDbEntity
  8
Visible Narrow (ANSI)
100
AcDbLine
 10
5.314759501500333
 20
4.884031693315171
 30
0.0
 11
4.4527063185319
 21
4.884031693314915
 31
0.0
  0
ARC
  5
288
330
37
100
AcDbEntity
  8
Visible (ANSI)
100
AcDbCircle
 10
4.4057063185319
 20
4.883621530528722
 30
0.0
 40
0.0029999999999999
100
AcDbArc
 50
180.0
 51
270.0000000000178
  0
ELLIPSE
  5
289
330
37
100
AcDbEntity
  8
Visible (ANSI)
100
AcDbEllipse
 10
4.452706318531901
 20
4.880621644759544
 30
0.0
 11
0.047
 21
0.0000000000000139
 31
0.0
210
0.0
220
0.0
230
1.0
 40
0.0087268677910553
 41
1.570796326794894
 42
3.141592653634166
  0
ELLIPSE
  5
28A
330
37
100
AcDbEntity
  8
Visible Narrow (ANSI)
100
AcDbEllipse
 10
4.4527063185319
 20
4.883621530528736
 30
0.0
 11
-0.05
 21
-0.0000000000000148
 31
0.0
210
0.0
220
0.0
230
1.0
 40
0.0082032557236094
 41
4.712388980384687
 42
6.283185307231761
  0
POLYLINE
  5
28B
330
37
100
AcDbEntity
  8
Visible (ANSI)
100
AcDb2dPolyline
 66
     1
 10
0.0
 20
0.0
 30
0.0
 70
   128
  0
VERTEX
  5
28C
330
28B
100
AcDbEntity
  8
Visible (ANSI)
100
AcDbVertex
100
AcDb2dVertex
 10
4.40570632303745
 20
4.877461246618167
 30
0.0
  0
VERTEX
  5
28D
330
28B
100
AcDbEntity
  8
Visible (ANSI)
100
AcDbVertex
100
AcDb2dVertex
 10
4.40481251149617
 20
4.877605189488661
 30
0.0
  0
VERTEX
  5
28F
330
28B
100
AcDbEntity
  8
Visible (ANSI)
100
AcDbVertex
100
AcDb2dVertex
 10
4.404360102855766
 20
4.87779285025412
 30
0.0
  0
VERTEX
  5
290
330
28B
100
AcDbEntity
  8
Visible (ANSI)
100
AcDbVertex
100
AcDb2dVertex
 10
4.40405018216933
 20
4.877989733313043
 30
0.0
  0
VERTEX
  5
291
330
28B
100
AcDbEntity
  8
Visible (ANSI)
100
AcDbVertex
100
AcDb2dVertex
 10
4.403802377031996
 20
4.878185091056256
 30
0.0
  0
VERTEX
  5
292
330
28B
100
AcDbEntity
  8
Visible (ANSI)
100
AcDbVertex
100
AcDb2dVertex
 10
4.403607699814257
 20
4.878371625434728
 30
0.0
  0
VERTEX
  5
293
330
28B
100
AcDbEntity
  8
Visible (ANSI)
100
AcDbVertex
100
AcDb2dVertex
 10
4.403454675448674
 20
4.878544079975853
 30
0.0
  0
VERTEX
  5
294
330
28B
100
AcDbEntity
  8
Visible (ANSI)
100
AcDbVertex
100
AcDb2dVertex
 10
4.403323803360519
 20
4.878710503653311
 30
0.0
  0
VERTEX
  5
295
330
28B
100
AcDbEntity
  8
Visible (ANSI)
100
AcDbVertex
100
AcDb2dVertex
 10
4.403210437203468
 20
4.878873243106665
 30
0.0
  0
VERTEX
  5
296
330
28B
100
AcDbEntity
  8
Visible (ANSI)
100
AcDbVertex
100
AcDb2dVertex
 10
4.403113168993787
 20
4.879031993272771
 30
0.0
  0
VERTEX
  5
297
330
28B
100
AcDbEntity
  8
Visible (ANSI)
100
AcDbVertex
100
AcDb2dVertex
 10
4.403030637680528
 20
4.879186449088483
 30
0.0
  0
VERTEX
  5
298
330
28B
100
AcDbEntity
  8
Visible (ANSI)
100
AcDbVertex
100
AcDb2dVertex
 10
4.402961529145541
 20
4.879336305490664
 30
0.0
  0
VERTEX
  5
299
330
28B
100
AcDbEntity
  8
Visible (ANSI)
100
AcDbVertex
100
AcDb2dVertex
 10
4.402904411938698
 20
4.879481327815353
 30
0.0
  0
VERTEX
  5
29A
330
28B
100
AcDbEntity
  8
Visible (ANSI)
100
AcDbVertex
100
AcDb2dVertex
 10
4.402857971941843
 20
4.87962116406662
 30
0.0
  0
VERTEX
  5
29B
330
28B
100
AcDbEntity
  8
Visible (ANSI)
100
AcDbVertex
100
AcDb2dVertex
 10
4.402820824637639
 20
4.879755532647717
 30
0.0
  0
VERTEX
  5
29C
330
28B
100
AcDbEntity
  8
Visible (ANSI)
100
AcDbVertex
100
AcDb2dVertex
 10
4.402791585508746
 20
4.879884151961896
 30
0.0
  0
VERTEX
  5
29D
330
28B
100
AcDbEntity
  8
Visible (ANSI)
100
AcDbVertex
100
AcDb2dVertex
 10
4.402768893504218
 20
4.880006740412412
 30
0.0
  0
VERTEX
  5
29E
330
28B
100
AcDbEntity
  8
Visible (ANSI)
100
AcDbVertex
100
AcDb2dVertex
 10
4.402751411039511
 20
4.880122969469724
 30
0.0
  0
VERTEX
  5
29F
330
28B
100
AcDbEntity
  8
Visible (ANSI)
100
AcDbVertex
100
AcDb2dVertex
 10
4.402737730130886
 20
4.880232581003481
 30
0.0
  0
VERTEX
  5
2A0
330
28B
100
AcDbEntity
  8
Visible (ANSI)
100
AcDbVertex
100
AcDb2dVertex
 10
4.402726536660195
 20
4.880335269950545
 30
0.0
  0
VERTEX
  5
2A1
330
28B
100
AcDbEntity
  8
Visible (ANSI)
100
AcDbVertex
100
AcDb2dVertex
 10
4.402717595963478
 20
4.880430825113349
 30
0.0
  0
VERTEX
  5
2A2
330
28B
100
AcDbEntity
  8
Visible (ANSI)
100
AcDbVertex
100
AcDb2dVertex
 10
4.402711001906321
 20
4.880519269958294
 30
0.0
  0
VERTEX
  5
2A3
330
28B
100
AcDbEntity
  8
Visible (ANSI)
100
AcDbVertex
100
AcDb2dVertex
 10
4.402706519824763
 20
4.880600721817356
 30
0.0
  0
VERTEX
  5
2A4
330
28B
100
AcDbEntity
  8
Visible (ANSI)
100
AcDbVertex
100
AcDb2dVertex
 10
4.402703821189273
 20
4.880675204156931
 30
0.0
  0
VERTEX
  5
2A5
330
28B
100
AcDbEntity
  8
Visible (ANSI)
100
AcDbVertex
100
AcDb2dVertex
 10
4.402702647869493
 20
4.880742834308994
 30
0.0
  0
SEQEND
  5
28E
330
28B
100
AcDbEntity
  8
Visible (ANSI)
  0
LINE
  5
2A6
330
37
100
AcDbEntity
  8
Visible (ANSI)
100
AcDbLine
 10
4.405706318531902
 20
4.877461249126785
 30
0.0
 11
4.4057063185319
 21
4.880621644759528
 31
0.0
  0
LINE
  5
2A7
330
37
100
AcDbEntity
  8
Visible (ANSI)
100
AcDbLine
 10
4.4027063185319
 20
4.883621530528722
 30
0.0
 11
4.402706318531901
 21
4.880744782131665
 31
0.0
  0
ARC
  5
2A8
330
37
100
AcDbEntity
  8
Visible (ANSI)
100
AcDbCircle
 10
4.405706318532077
 20
4.283493988837483
 30
0.0
 40
0.0029999999999999
100
AcDbArc
 50
90.00000000001781
 51
180.0
  0
LINE
  5
2A9
330
37
100
AcDbEntity
  8
Visible (ANSI)
100
AcDbLine
 10
4.405706318532077
 20
4.286493874606676
 30
0.0
 11
4.405706318532075
 21
4.289654270239205
 31
0.0
  0
POLYLINE
  5
2AA
330
37
100
AcDbEntity
  8
Visible (ANSI)
100
AcDb2dPolyline
 66
     1
 10
0.0
 20
0.0
 30
0.0
 70
   128
  0
VERTEX
  5
2AB
330
2AA
100
AcDbEntity
  8
Visible (ANSI)
100
AcDbVertex
100
AcDb2dVertex
 10
4.402702647869669
 20
4.286372685057012
 30
0.0
  0
VERTEX
  5
2AC
330
2AA
100
AcDbEntity
  8
Visible (ANSI)
100
AcDbVertex
100
AcDb2dVertex
 10
4.402703821189449
 20
4.286440315209076
 30
0.0
  0
VERTEX
  5
2AE
330
2AA
100
AcDbEntity
  8
Visible (ANSI)
100
AcDbVertex
100
AcDb2dVertex
 10
4.402706519824941
 20
4.286514797548648
 30
0.0
  0
VERTEX
  5
2AF
330
2AA
100
AcDbEntity
  8
Visible (ANSI)
100
AcDbVertex
100
AcDb2dVertex
 10
4.402711001906497
 20
4.286596249407709
 30
0.0
  0
VERTEX
  5
2B0
330
2AA
100
AcDbEntity
  8
Visible (ANSI)
100
AcDbVertex
100
AcDb2dVertex
 10
4.402717595963655
 20
4.286684694252652
 30
0.0
  0
VERTEX
  5
2B1
330
2AA
100
AcDbEntity
  8
Visible (ANSI)
100
AcDbVertex
100
AcDb2dVertex
 10
4.40272653666037
 20
4.286780249415459
 30
0.0
  0
VERTEX
  5
2B2
330
2AA
100
AcDbEntity
  8
Visible (ANSI)
100
AcDbVertex
100
AcDb2dVertex
 10
4.402737730131063
 20
4.286882938362519
 30
0.0
  0
VERTEX
  5
2B3
330
2AA
100
AcDbEntity
  8
Visible (ANSI)
100
AcDbVertex
100
AcDb2dVertex
 10
4.402751411039687
 20
4.286992549896278
 30
0.0
  0
VERTEX
  5
2B4
330
2AA
100
AcDbEntity
  8
Visible (ANSI)
100
AcDbVertex
100
AcDb2dVertex
 10
4.402768893504394
 20
4.287108778953589
 30
0.0
  0
VERTEX
  5
2B5
330
2AA
100
AcDbEntity
  8
Visible (ANSI)
100
AcDbVertex
100
AcDb2dVertex
 10
4.402791585508921
 20
4.287231367404102
 30
0.0
  0
VERTEX
  5
2B6
330
2AA
100
AcDbEntity
  8
Visible (ANSI)
100
AcDbVertex
100
AcDb2dVertex
 10
4.402820824637815
 20
4.287359986718281
 30
0.0
  0
VERTEX
  5
2B7
330
2AA
100
AcDbEntity
  8
Visible (ANSI)
100
AcDbVertex
100
AcDb2dVertex
 10
4.402857971942019
 20
4.287494355299378
 30
0.0
  0
VERTEX
  5
2B8
330
2AA
100
AcDbEntity
  8
Visible (ANSI)
100
AcDbVertex
100
AcDb2dVertex
 10
4.402904411938874
 20
4.287634191550643
 30
0.0
  0
VERTEX
  5
2B9
330
2AA
100
AcDbEntity
  8
Visible (ANSI)
100
AcDbVertex
100
AcDb2dVertex
 10
4.402961529145717
 20
4.287779213875333
 30
0.0
  0
VERTEX
  5
2BA
330
2AA
100
AcDbEntity
  8
Visible (ANSI)
100
AcDbVertex
100
AcDb2dVertex
 10
4.403030637680704
 20
4.287929070277511
 30
0.0
  0
VERTEX
  5
2BB
330
2AA
100
AcDbEntity
  8
Visible (ANSI)
100
AcDbVertex
100
AcDb2dVertex
 10
4.403113168993962
 20
4.288083526093225
 30
0.0
  0
VERTEX
  5
2BC
330
2AA
100
AcDbEntity
  8
Visible (ANSI)
100
AcDbVertex
100
AcDb2dVertex
 10
4.403210437203643
 20
4.288242276259328
 30
0.0
  0
VERTEX
  5
2BD
330
2AA
100
AcDbEntity
  8
Visible (ANSI)
100
AcDbVertex
100
AcDb2dVertex
 10
4.403323803360693
 20
4.288405015712681
 30
0.0
  0
VERTEX
  5
2BE
330
2AA
100
AcDbEntity
  8
Visible (ANSI)
100
AcDbVertex
100
AcDb2dVertex
 10
4.403454675448848
 20
4.288571439390142
 30
0.0
  0
VERTEX
  5
2BF
330
2AA
100
AcDbEntity
  8
Visible (ANSI)
100
AcDbVertex
100
AcDb2dVertex
 10
4.403607699814431
 20
4.288743893931263
 30
0.0
  0
VERTEX
  5
2C0
330
2AA
100
AcDbEntity
  8
Visible (ANSI)
100
AcDbVertex
100
AcDb2dVertex
 10
4.40380237703217
 20
4.288930428309735
 30
0.0
  0
VERTEX
  5
2C1
330
2AA
100
AcDbEntity
  8
Visible (ANSI)
100
AcDbVertex
100
AcDb2dVertex
 10
4.404050182169505
 20
4.289125786052946
 30
0.0
  0
VERTEX
  5
2C2
330
2AA
100
AcDbEntity
  8
Visible (ANSI)
100
AcDbVertex
100
AcDb2dVertex
 10
4.404360102855942
 20
4.28932266911187
 30
0.0
  0
VERTEX
  5
2C3
330
2AA
100
AcDbEntity
  8
Visible (ANSI)
100
AcDbVertex
100
AcDb2dVertex
 10
4.404812511496344
 20
4.289510329877329
 30
0.0
  0
VERTEX
  5
2C4
330
2AA
100
AcDbEntity
  8
Visible (ANSI)
100
AcDbVertex
100
AcDb2dVertex
 10
4.405706323037623
 20
4.289654272747823
 30
0.0
  0
SEQEND
  5
2AD
330
2AA
100
AcDbEntity
  8
Visible (ANSI)
  0
LINE
  5
2C5
330
37
100
AcDbEntity
  8
Visible (ANSI)
100
AcDbLine
 10
4.402706318532077
 20
4.286370737234343
 30
0.0
 11
4.402706318532078
 21
4.283493988837483
 31
0.0
  0
LINE
  5
2C6
330
37
100
AcDbEntity
  8
Visible Narrow (ANSI)
100
AcDbLine
 10
4.452706318532077
 20
4.286083711820539
 30
0.0
 11
4.452706318532078
 21
4.283083826051345
 31
0.0
  0
ELLIPSE
  5
2C7
330
37
100
AcDbEntity
  8
Visible (ANSI)
100
AcDbEllipse
 10
4.452706318532077
 20
4.286493874606689
 30
0.0
 11
-0.047
 21
-0.0000000000000139
 31
0.0
210
0.0
220
0.0
230
1.0
 40
0.008726867790462
 41
0.0
 42
1.570796326794893
  0
ELLIPSE
  5
2C8
330
37
100
AcDbEntity
  8
Visible Narrow (ANSI)
100
AcDbEllipse
 10
4.452706318532078
 20
4.283493988837497
 30
0.0
 11
0.05
 21
0.0000000000000148
 31
0.0
210
0.0
220
0.0
230
1.0
 40
0.0082032557230161
 41
3.141592653538041
 42
4.712388980384687
  0
LINE
  5
2C9
330
37
100
AcDbEntity
  8
Visible Narrow (ANSI)
100
AcDbLine
 10
5.31475950150051
 20
4.286083711820793
 30
0.0
 11
5.314759501500511
 21
4.283083826051601
 31
0.0
  0
LINE
  5
2CA
330
37
100
AcDbEntity
  8
Visible (ANSI)
100
AcDbLine
 10
5.31475950150051
 20
4.286083711820793
 30
0.0
 11
4.452706318532077
 21
4.286083711820539
 31
0.0
  0
LINE
  5
2CB
330
37
100
AcDbEntity
  8
Visible Narrow (ANSI)
100
AcDbLine
 10
4.452706318532078
 20
4.283083826051345
 30
0.0
 11
5.314759501500511
 21
4.283083826051601
 31
0.0
  0
ARC
  5
2CC
330
37
100
AcDbEntity
  8
Visible (ANSI)
100
AcDbCircle
 10
5.561757996691985
 20
4.285231838169928
 30
0.0
 40
0.0029999817229733
100
AcDbArc
 50
0.0
 51
89.99825464064011
  0
ELLIPSE
  5
2CD
330
37
100
AcDbEntity
  8
Visible (ANSI)
100
AcDbEllipse
 10
5.31475950150051
 20
4.288239248165038
 30
0.0
 11
-0.2469999999999998
 21
-0.0000000000000741
 31
0.0
210
0.0
220
0.0
230
1.0
 40
0.008726867790462
 41
1.570796326795298
 42
3.138101989835191
  0
ARC
  5
2CE
330
37
100
AcDbEntity
  8
Visible (ANSI)
100
AcDbCircle
 10
5.563680876293081
 20
4.290039139680674
 30
0.0
 40
0.0030001325115993
100
AcDbArc
 50
0.001745359339481
 51
89.99825475227185
  0
LINE
  5
2CF
330
37
100
AcDbEntity
  8
Visible (ANSI)
100
AcDbLine
 10
5.563680967677516
 20
4.293039253915829
 30
0.0
 11
5.561757996691984
 21
4.288231723939119
 31
0.0
  0
LINE
  5
2D0
330
37
100
AcDbEntity
  8
Visible Narrow (ANSI)
100
AcDbLine
 10
5.314759501500525
 20
4.236865268049615
 30
0.0
 11
4.452706318532092
 21
4.236865268049358
 31
0.0
  0
ELLIPSE
  5
2D1
330
37
100
AcDbEntity
  8
Visible Narrow (ANSI)
100
AcDbEllipse
 10
4.45270631853209
 20
4.236701206433309
 30
0.0
 11
-0.05
 21
-0.0000000000000148
 31
0.0
210
0.0
220
0.0
230
1.0
 40
0.0032812323209971
 41
4.712388980384687
 42
6.283185307504896
  0
LINE
  5
2D2
330
37
100
AcDbEntity
  8
Visible (ANSI)
100
AcDbLine
 10
4.402706318532091
 20
4.236701206433295
 30
0.0
 11
4.402706318532091
 21
4.234287718790477
 31
0.0
  0
LINE
  5
2D3
330
37
100
AcDbEntity
  8
Visible Narrow (ANSI)
100
AcDbLine
 10
5.314759501500526
 20
4.23386528632664
 30
0.0
 11
5.314759501500523
 21
4.236865268049615
 31
0.0
  0
POLYLINE
  5
2D4
330
37
100
AcDbEntity
  8
Visible (ANSI)
100
AcDb2dPolyline
 66
     1
 10
0.0
 20
0.0
 30
0.0
 70
   128
  0
VERTEX
  5
2D5
330
2D4
100
AcDbEntity
  8
Visible (ANSI)
100
AcDbVertex
100
AcDb2dVertex
 10
5.4673375107169
 20
4.236686065441495
 30
0.0
  0
VERTEX
  5
2D6
330
2D4
100
AcDbEntity
  8
Visible (ANSI)
100
AcDbVertex
100
AcDb2dVertex
 10
5.467335915002001
 20
4.236479467294801
 30
0.0
  0
VERTEX
  5
2D8
330
2D4
100
AcDbEntity
  8
Visible (ANSI)
100
AcDbVertex
100
AcDb2dVertex
 10
5.467331127857302
 20
4.236274722993357
 30
0.0
  0
VERTEX
  5
2D9
330
2D4
100
AcDbEntity
  8
Visible (ANSI)
100
AcDbVertex
100
AcDb2dVertex
 10
5.467323149282805
 20
4.236072559995428
 30
0.0
  0
VERTEX
  5
2DA
330
2D4
100
AcDbEntity
  8
Visible (ANSI)
100
AcDbVertex
100
AcDb2dVertex
 10
5.467312073144091
 20
4.235873658826486
 30
0.0
  0
VERTEX
  5
2DB
330
2D4
100
AcDbEntity
  8
Visible (ANSI)
100
AcDbVertex
100
AcDb2dVertex
 10
5.46729789944116
 20
4.235678723478394
 30
0.0
  0
VERTEX
  5
2DC
330
2D4
100
AcDbEntity
  8
Visible (ANSI)
100
AcDbVertex
100
AcDb2dVertex
 10
5.467280909770759
 20
4.235489115002102
 30
0.0
  0
VERTEX
  5
2DD
330
2D4
100
AcDbEntity
  8
Visible (ANSI)
100
AcDbVertex
100
AcDb2dVertex
 10
5.467261197998471
 20
4.235306476045296
 30
0.0
  0
VERTEX
  5
2DE
330
2D4
100
AcDbEntity
  8
Visible (ANSI)
100
AcDbVertex
100
AcDb2dVertex
 10
5.467238857989878
 20
4.235131299402285
 30
0.0
  0
VERTEX
  5
2DF
330
2D4
100
AcDbEntity
  8
Visible (ANSI)
100
AcDbVertex
100
AcDb2dVertex
 10
5.467213983610561
 20
4.234964030934584
 30
0.0
  0
VERTEX
  5
2E0
330
2D4
100
AcDbEntity
  8
Visible (ANSI)
100
AcDbVertex
100
AcDb2dVertex
 10
5.467186856457271
 20
4.234805093037316
 30
0.0
  0
VERTEX
  5
2E1
330
2D4
100
AcDbEntity
  8
Visible (ANSI)
100
AcDbVertex
100
AcDb2dVertex
 10
5.467157570395586
 20
4.234655048903971
 30
0.0
  0
VERTEX
  5
2E2
330
2D4
100
AcDbEntity
  8
Visible (ANSI)
100
AcDbVertex
100
AcDb2dVertex
 10
5.467126219291089
 20
4.234514931055958
 30
0.0
  0
VERTEX
  5
2E3
330
2D4
100
AcDbEntity
  8
Visible (ANSI)
100
AcDbVertex
100
AcDb2dVertex
 10
5.467093272471695
 20
4.234385044556417
 30
0.0
  0
VERTEX
  5
2E4
330
2D4
100
AcDbEntity
  8
Visible (ANSI)
100
AcDbVertex
100
AcDb2dVertex
 10
5.467058636071818
 20
4.234265577136516
 30
0.0
  0
VERTEX
  5
2E5
330
2D4
100
AcDbEntity
  8
Visible (ANSI)
100
AcDbVertex
100
AcDb2dVertex
 10
5.467022497822624
 20
4.234156716527416
 30
0.0
  0
VERTEX
  5
2E6
330
2D4
100
AcDbEntity
  8
Visible (ANSI)
100
AcDbVertex
100
AcDb2dVertex
 10
5.466985045455277
 20
4.234058673926679
 30
0.0
  0
VERTEX
  5
2E7
330
2D4
100
AcDbEntity
  8
Visible (ANSI)
100
AcDbVertex
100
AcDb2dVertex
 10
5.46694637283536
 20
4.233971637065469
 30
0.0
  0
VERTEX
  5
2E8
330
2D4
100
AcDbEntity
  8
Visible (ANSI)
100
AcDbVertex
100
AcDb2dVertex
 10
5.466906761559618
 20
4.233895911006928
 30
0.0
  0
VERTEX
  5
2E9
330
2D4
100
AcDbEntity
  8
Visible (ANSI)
100
AcDbVertex
100
AcDb2dVertex
 10
5.466866211628054
 20
4.233831589616642
 30
0.0
  0
VERTEX
  5
2EA
330
2D4
100
AcDbEntity
  8
Visible (ANSI)
100
AcDbVertex
100
AcDb2dVertex
 10
5.466825098502996
 20
4.233778719827398
 30
0.0
  0
VERTEX
  5
2EB
330
2D4
100
AcDbEntity
  8
Visible (ANSI)
100
AcDbVertex
100
AcDb2dVertex
 10
5.466783328318863
 20
4.23373739550478
 30
0.0
  0
VERTEX
  5
2EC
330
2D4
100
AcDbEntity
  8
Visible (ANSI)
100
AcDbVertex
100
AcDb2dVertex
 10
5.4667411826724
 20
4.233707640115183
 30
0.0
  0
VERTEX
  5
2ED
330
2D4
100
AcDbEntity
  8
Visible (ANSI)
100
AcDbVertex
100
AcDb2dVertex
 10
5.46669875542919
 20
4.233689500591401
 30
0.0
  0
VERTEX
  5
2EE
330
2D4
100
AcDbEntity
  8
Visible (ANSI)
100
AcDbVertex
100
AcDb2dVertex
 10
5.466656234320398
 20
4.233682976933428
 30
0.0
  0
SEQEND
  5
2D7
330
2D4
100
AcDbEntity
  8
Visible (ANSI)
  0
LINE
  5
2EF
330
37
100
AcDbEntity
  8
Visible Narrow (ANSI)
100
AcDbLine
 10
4.452706318532092
 20
4.233865286326383
 30
0.0
 11
4.45270631853209
 21
4.236865268049358
 31
0.0
  0
ARC
  5
2F0
330
37
100
AcDbEntity
  8
Visible (ANSI)
100
AcDbCircle
 10
4.40570631853209
 20
4.236701206433296
 30
0.0
 40
0.0029999999999998
100
AcDbArc
 50
180.0
 51
269.9945312406323
  0
LINE
  5
2F1
330
37
100
AcDbEntity
  8
Visible Narrow (ANSI)
100
AcDbLine
 10
2.84665313556366
 20
4.233865286325908
 30
0.0
 11
2.846653135563658
 21
4.236865268048883
 31
0.0
  0
LINE
  5
2F2
330
37
100
AcDbEntity
  8
Visible Narrow (ANSI)
100
AcDbLine
 10
3.708706318532092
 20
4.236865268049139
 30
0.0
 11
3.708706318532092
 21
4.233865286326163
 31
0.0
  0
LINE
  5
2F3
330
37
100
AcDbEntity
  8
Visible Narrow (ANSI)
100
AcDbLine
 10
3.708706318532092
 20
4.236865268049139
 30
0.0
 11
2.846653135563658
 21
4.236865268048883
 31
0.0
  0
POLYLINE
  5
2F4
330
37
100
AcDbEntity
  8
Visible (ANSI)
100
AcDb2dPolyline
 66
     1
 10
0.0
 20
0.0
 30
0.0
 70
   128
  0
VERTEX
  5
2F5
330
2F4
100
AcDbEntity
  8
Visible (ANSI)
100
AcDbVertex
100
AcDb2dVertex
 10
2.694756402743788
 20
4.233682976932606
 30
0.0
  0
VERTEX
  5
2F6
330
2F4
100
AcDbEntity
  8
Visible (ANSI)
100
AcDbVertex
100
AcDb2dVertex
 10
2.694713787769412
 20
4.233689500590577
 30
0.0
  0
VERTEX
  5
2F8
330
2F4
100
AcDbEntity
  8
Visible (ANSI)
100
AcDbVertex
100
AcDb2dVertex
 10
2.694671360526202
 20
4.233707663580758
 30
0.0
  0
VERTEX
  5
2F9
330
2F4
100
AcDbEntity
  8
Visible (ANSI)
100
AcDbVertex
100
AcDb2dVertex
 10
2.69462921487974
 20
4.233737418970353
 30
0.0
  0
VERTEX
  5
2FA
330
2F4
100
AcDbEntity
  8
Visible (ANSI)
100
AcDbVertex
100
AcDb2dVertex
 10
2.694587538561187
 20
4.233778719826577
 30
0.0
  0
VERTEX
  5
2FB
330
2F4
100
AcDbEntity
  8
Visible (ANSI)
100
AcDbVertex
100
AcDb2dVertex
 10
2.69454642543613
 20
4.233831542683028
 30
0.0
  0
VERTEX
  5
2FC
330
2F4
100
AcDbEntity
  8
Visible (ANSI)
100
AcDbVertex
100
AcDb2dVertex
 10
2.694505969370148
 20
4.23389584060692
 30
0.0
  0
VERTEX
  5
2FD
330
2F4
100
AcDbEntity
  8
Visible (ANSI)
100
AcDbVertex
100
AcDb2dVertex
 10
2.694466264228826
 20
4.233971613598251
 30
0.0
  0
VERTEX
  5
2FE
330
2F4
100
AcDbEntity
  8
Visible (ANSI)
100
AcDbVertex
100
AcDb2dVertex
 10
2.69442768547449
 20
4.234058626993064
 30
0.0
  0
VERTEX
  5
2FF
330
2F4
100
AcDbEntity
  8
Visible (ANSI)
100
AcDbVertex
100
AcDb2dVertex
 10
2.694390233107144
 20
4.234156622661011
 30
0.0
  0
VERTEX
  5
300
330
2F4
100
AcDbEntity
  8
Visible (ANSI)
100
AcDbVertex
100
AcDb2dVertex
 10
2.694354094857949
 20
4.234265436337319
 30
0.0
  0
VERTEX
  5
301
330
2F4
100
AcDbEntity
  8
Visible (ANSI)
100
AcDbVertex
100
AcDb2dVertex
 10
2.694319458458072
 20
4.234384880290826
 30
0.0
  0
VERTEX
  5
302
330
2F4
100
AcDbEntity
  8
Visible (ANSI)
100
AcDbVertex
100
AcDb2dVertex
 10
2.694286417773094
 20
4.234514790256763
 30
0.0
  0
VERTEX
  5
303
330
2F4
100
AcDbEntity
  8
Visible (ANSI)
100
AcDbVertex
100
AcDb2dVertex
 10
2.694255160534181
 20
4.234655001970358
 30
0.0
  0
VERTEX
  5
304
330
2F4
100
AcDbEntity
  8
Visible (ANSI)
100
AcDbVertex
100
AcDb2dVertex
 10
2.694225780606912
 20
4.234805046103701
 30
0.0
  0
VERTEX
  5
305
330
2F4
100
AcDbEntity
  8
Visible (ANSI)
100
AcDbVertex
100
AcDb2dVertex
 10
2.694198653453621
 20
4.234963937068179
 30
0.0
  0
VERTEX
  5
306
330
2F4
100
AcDbEntity
  8
Visible (ANSI)
100
AcDbVertex
100
AcDb2dVertex
 10
2.694173872939888
 20
4.235131229002276
 30
0.0
  0
VERTEX
  5
307
330
2F4
100
AcDbEntity
  8
Visible (ANSI)
100
AcDbVertex
100
AcDb2dVertex
 10
2.694151439065711
 20
4.235306476044473
 30
0.0
  0
VERTEX
  5
308
330
2F4
100
AcDbEntity
  8
Visible (ANSI)
100
AcDbVertex
100
AcDb2dVertex
 10
2.694131727293424
 20
4.235489208866861
 30
0.0
  0
VERTEX
  5
309
330
2F4
100
AcDbEntity
  8
Visible (ANSI)
100
AcDbVertex
100
AcDb2dVertex
 10
2.694114643757441
 20
4.235678934675132
 30
0.0
  0
VERTEX
  5
30A
330
2F4
100
AcDbEntity
  8
Visible (ANSI)
100
AcDbVertex
100
AcDb2dVertex
 10
2.694100563920093
 20
4.235873776157641
 30
0.0
  0
VERTEX
  5
30B
330
2F4
100
AcDbEntity
  8
Visible (ANSI)
100
AcDbVertex
100
AcDb2dVertex
 10
2.694089487781378
 20
4.236072606927398
 30
0.0
  0
VERTEX
  5
30C
330
2F4
100
AcDbEntity
  8
Visible (ANSI)
100
AcDbVertex
100
AcDb2dVertex
 10
2.694081509206882
 20
4.236274722992535
 30
0.0
  0
VERTEX
  5
30D
330
2F4
100
AcDbEntity
  8
Visible (ANSI)
100
AcDbVertex
100
AcDb2dVertex
 10
2.694076722062182
 20
4.236479443827582
 30
0.0
  0
VERTEX
  5
30E
330
2F4
100
AcDbEntity
  8
Visible (ANSI)
100
AcDbVertex
100
AcDb2dVertex
 10
2.694075126347283
 20
4.236686065440673
 30
0.0
  0
SEQEND
  5
2F7
330
2F4
100
AcDbEntity
  8
Visible (ANSI)
  0
ARC
  5
30F
330
37
100
AcDbEntity
  8
Visible (ANSI)
100
AcDbCircle
 10
3.755706318532091
 20
4.236701206433101
 30
0.0
 40
0.0030000000136652
100
AcDbArc
 50
270.0054688260374
 51
0.0
  0
ELLIPSE
  5
310
330
37
100
AcDbEntity
  8
Visible Narrow (ANSI)
100
AcDbEllipse
 10
3.708706318532092
 20
4.236701206433088
 30
0.0
 11
-0.05
 21
-0.0000000000000148
 31
0.0
210
0.0
220
0.0
230
1.0
 40
0.0032812323209971
 41
3.141592653346734
 42
4.712388980384688
  0
LINE
  5
311
330
37
100
AcDbEntity
  8
Visible (ANSI)
100
AcDbLine
 10
3.758706318532091
 20
4.234287718790285
 30
0.0
 11
3.758706318532091
 21
4.236701206433103
 31
0.0
  0
LINE
  5
312
330
37
100
AcDbEntity
  8
Visible (ANSI)
100
AcDbLine
 10
3.758706318532078
 20
4.283493988837292
 30
0.0
 11
3.758706318532076
 21
4.286370737234151
 31
0.0
  0
ARC
  5
313
330
37
100
AcDbEntity
  8
Visible (ANSI)
100
AcDbCircle
 10
2.599654640371993
 20
4.881883681195964
 30
0.0
 40
0.0029999817257568
100
AcDbArc
 50
180.0017452476175
 51
270.0000000000178
  0
ARC
  5
314
330
37
100
AcDbEntity
  8
Visible (ANSI)
100
AcDbCircle
 10
2.597731760770896
 20
4.877076379684893
 30
0.0
 40
0.0030001325115993
100
AcDbArc
 50
180.0017453593395
 51
269.9982547522897
  0
LINE
  5
315
330
37
100
AcDbEntity
  8
Visible (ANSI)
100
AcDbLine
 10
2.59773166938646
 20
4.874076265449737
 30
0.0
 11
2.599654640371994
 21
4.878883795426773
 31
0.0
  0
LINE
  5
316
330
37
100
AcDbEntity
  8
Visible Narrow (ANSI)
100
AcDbLine
 10
2.846653135563466
 20
4.884031693314439
 30
0.0
 11
2.846653135563468
 21
4.881031807545245
 31
0.0
  0
ELLIPSE
  5
317
330
37
100
AcDbEntity
  8
Visible (ANSI)
100
AcDbEllipse
 10
2.846653135563468
 20
4.878876271200855
 30
0.0
 11
0.2469999999999999
 21
0.0000000000000741
 31
0.0
210
0.0
220
0.0
230
1.0
 40
0.0087268677910553
 41
1.570796326795298
 42
3.138101989825701
  0
LINE
  5
318
330
37
100
AcDbEntity
  8
Visible Narrow (ANSI)
100
AcDbLine
 10
3.7087063185319
 20
4.884031693314695
 30
0.0
 11
3.708706318531901
 21
4.881031807545502
 31
0.0
  0
LINE
  5
319
330
37
100
AcDbEntity
  8
Visible Narrow (ANSI)
100
AcDbLine
 10
3.7087063185319
 20
4.884031693314695
 30
0.0
 11
2.846653135563466
 21
4.884031693314439
 31
0.0
  0
LINE
  5
31A
330
37
100
AcDbEntity
  8
Visible (ANSI)
100
AcDbLine
 10
2.846653135563468
 20
4.881031807545245
 30
0.0
 11
3.708706318531901
 21
4.881031807545502
 31
0.0
  0
ARC
  5
31B
330
37
100
AcDbEntity
  8
Visible (ANSI)
100
AcDbCircle
 10
3.755706318531899
 20
4.883621530528528
 30
0.0
 40
0.003
100
AcDbArc
 50
270.0000000000178
 51
0.0
  0
ELLIPSE
  5
31C
330
37
100
AcDbEntity
  8
Visible (ANSI)
100
AcDbEllipse
 10
3.708706318531901
 20
4.880621644759322
 30
0.0
 11
0.047
 21
0.0000000000000139
 31
0.0
210
0.0
220
0.0
230
1.0
 40
0.0087268677910553
 41
0.0
 42
1.570796326794902
  0
POLYLINE
  5
31D
330
37
100
AcDbEntity
  8
Visible (ANSI)
100
AcDb2dPolyline
 66
     1
 10
0.0
 20
0.0
 30
0.0
 70
   128
  0
VERTEX
  5
31E
330
31D
100
AcDbEntity
  8
Visible (ANSI)
100
AcDbVertex
100
AcDb2dVertex
 10
3.758709989194307
 20
4.880742834308802
 30
0.0
  0
VERTEX
  5
31F
330
31D
100
AcDbEntity
  8
Visible (ANSI)
100
AcDbVertex
100
AcDb2dVertex
 10
3.758708815874528
 20
4.88067520415674
 30
0.0
  0
VERTEX
  5
321
330
31D
100
AcDbEntity
  8
Visible (ANSI)
100
AcDbVertex
100
AcDb2dVertex
 10
3.758706117239037
 20
4.880600721817165
 30
0.0
  0
VERTEX
  5
322
330
31D
100
AcDbEntity
  8
Visible (ANSI)
100
AcDbVertex
100
AcDb2dVertex
 10
3.758701635157481
 20
4.880519269958103
 30
0.0
  0
VERTEX
  5
323
330
31D
100
AcDbEntity
  8
Visible (ANSI)
100
AcDbVertex
100
AcDb2dVertex
 10
3.758695041100323
 20
4.880430825113159
 30
0.0
  0
VERTEX
  5
324
330
31D
100
AcDbEntity
  8
Visible (ANSI)
100
AcDbVertex
100
AcDb2dVertex
 10
3.758686100403606
 20
4.880335269950353
 30
0.0
  0
VERTEX
  5
325
330
31D
100
AcDbEntity
  8
Visible (ANSI)
100
AcDbVertex
100
AcDb2dVertex
 10
3.758674906932915
 20
4.880232581003292
 30
0.0
  0
VERTEX
  5
326
330
31D
100
AcDbEntity
  8
Visible (ANSI)
100
AcDbVertex
100
AcDb2dVertex
 10
3.75866122602429
 20
4.880122969469533
 30
0.0
  0
VERTEX
  5
327
330
31D
100
AcDbEntity
  8
Visible (ANSI)
100
AcDbVertex
100
AcDb2dVertex
 10
3.758643743559582
 20
4.880006740412221
 30
0.0
  0
VERTEX
  5
328
330
31D
100
AcDbEntity
  8
Visible (ANSI)
100
AcDbVertex
100
AcDb2dVertex
 10
3.758621051555055
 20
4.879884151961705
 30
0.0
  0
VERTEX
  5
329
330
31D
100
AcDbEntity
  8
Visible (ANSI)
100
AcDbVertex
100
AcDb2dVertex
 10
3.758591812426162
 20
4.879755532647527
 30
0.0
  0
VERTEX
  5
32A
330
31D
100
AcDbEntity
  8
Visible (ANSI)
100
AcDbVertex
100
AcDb2dVertex
 10
3.758554665121959
 20
4.879621164066428
 30
0.0
  0
VERTEX
  5
32B
330
31D
100
AcDbEntity
  8
Visible (ANSI)
100
AcDbVertex
100
AcDb2dVertex
 10
3.758508225125103
 20
4.879481327815162
 30
0.0
  0
VERTEX
  5
32C
330
31D
100
AcDbEntity
  8
Visible (ANSI)
100
AcDbVertex
100
AcDb2dVertex
 10
3.758451107918259
 20
4.879336305490473
 30
0.0
  0
VERTEX
  5
32D
330
31D
100
AcDbEntity
  8
Visible (ANSI)
100
AcDbVertex
100
AcDb2dVertex
 10
3.758381999383273
 20
4.879186449088292
 30
0.0
  0
VERTEX
  5
32E
330
31D
100
AcDbEntity
  8
Visible (ANSI)
100
AcDbVertex
100
AcDb2dVertex
 10
3.758299468070017
 20
4.87903199327258
 30
0.0
  0
VERTEX
  5
32F
330
31D
100
AcDbEntity
  8
Visible (ANSI)
100
AcDbVertex
100
AcDb2dVertex
 10
3.758202199860333
 20
4.878873243106474
 30
0.0
  0
VERTEX
  5
330
330
31D
100
AcDbEntity
  8
Visible (ANSI)
100
AcDbVertex
100
AcDb2dVertex
 10
3.758088833703283
 20
4.87871050365312
 30
0.0
  0
VERTEX
  5
331
330
31D
100
AcDbEntity
  8
Visible (ANSI)
100
AcDbVertex
100
AcDb2dVertex
 10
3.757957961615127
 20
4.878544079975661
 30
0.0
  0
VERTEX
  5
332
330
31D
100
AcDbEntity
  8
Visible (ANSI)
100
AcDbVertex
100
AcDb2dVertex
 10
3.757804937249546
 20
4.878371625434536
 30
0.0
  0
VERTEX
  5
333
330
31D
100
AcDbEntity
  8
Visible (ANSI)
100
AcDbVertex
100
AcDb2dVertex
 10
3.757610260031806
 20
4.878185091056063
 30
0.0
  0
VERTEX
  5
334
330
31D
100
AcDbEntity
  8
Visible (ANSI)
100
AcDbVertex
100
AcDb2dVertex
 10
3.757362454894472
 20
4.877989733312853
 30
0.0
  0
VERTEX
  5
335
330
31D
100
AcDbEntity
  8
Visible (ANSI)
100
AcDbVertex
100
AcDb2dVertex
 10
3.757052534208037
 20
4.877792850253928
 30
0.0
  0
VERTEX
  5
336
330
31D
100
AcDbEntity
  8
Visible (ANSI)
100
AcDbVertex
100
AcDb2dVertex
 10
3.756600125567633
 20
4.877605189488468
 30
0.0
  0
VERTEX
  5
337
330
31D
100
AcDbEntity
  8
Visible (ANSI)
100
AcDbVertex
100
AcDb2dVertex
 10
3.755706314026353
 20
4.877461246617974
 30
0.0
  0
SEQEND
  5
320
330
31D
100
AcDbEntity
  8
Visible (ANSI)
  0
LINE
  5
338
330
37
100
AcDbEntity
  8
Visible (ANSI)
100
AcDbLine
 10
3.755706318531901
 20
4.880621644759337
 30
0.0
 11
3.755706318531901
 21
4.87746124912659
 31
0.0
  0
LINE
  5
339
330
37
100
AcDbEntity
  8
Visible Narrow (ANSI)
100
AcDbLine
 10
3.708706318532076
 20
4.286083711820316
 30
0.0
 11
3.708706318532078
 21
4.283083826051124
 31
0.0
  0
LINE
  5
33A
330
37
100
AcDbEntity
  8
Visible (ANSI)
100
AcDbLine
 10
3.708706318532076
 20
4.286083711820316
 30
0.0
 11
2.846653135563644
 21
4.286083711820062
 31
0.0
  0
LINE
  5
33B
330
37
100
AcDbEntity
  8
Visible Narrow (ANSI)
100
AcDbLine
 10
2.846653135563644
 20
4.283083826050869
 30
0.0
 11
2.846653135563643
 21
4.286083711820062
 31
0.0
  0
LINE
  5
33C
330
37
100
AcDbEntity
  8
Visible Narrow (ANSI)
100
AcDbLine
 10
2.846653135563644
 20
4.283083826050869
 30
0.0
 11
3.708706318532078
 21
4.283083826051124
 31
0.0
  0
ARC
  5
33D
330
37
100
AcDbEntity
  8
Visible (ANSI)
100
AcDbCircle
 10
3.755706318532078
 20
4.283493988837291
 30
0.0
 40
0.003
100
AcDbArc
 50
0.0
 51
90.00000000001781
  0
ELLIPSE
  5
33E
330
37
100
AcDbEntity
  8
Visible (ANSI)
100
AcDbEllipse
 10
3.708706318532076
 20
4.28649387460647
 30
0.0
 11
-0.047
 21
-0.0000000000000139
 31
0.0
210
0.0
220
0.0
230
1.0
 40
0.008726867790462
 41
1.570796326794894
 42
3.141592653623483
  0
ELLIPSE
  5
33F
330
37
100
AcDbEntity
  8
Visible Narrow (ANSI)
100
AcDbEllipse
 10
3.708706318532078
 20
4.283493988837276
 30
0.0
 11
0.05
 21
0.0000000000000148
 31
0.0
210
0.0
220
0.0
230
1.0
 40
0.0082032557230161
 41
4.712388980384687
 42
6.283185307218769
  0
ARC
  5
340
330
37
100
AcDbEntity
  8
Visible (ANSI)
100
AcDbCircle
 10
2.59965464037217
 20
4.285231838169049
 30
0.0
 40
0.0029999817257568
100
AcDbArc
 50
90.00000000001781
 51
179.9982547523824
  0
ELLIPSE
  5
341
330
37
100
AcDbEntity
  8
Visible (ANSI)
100
AcDbEllipse
 10
2.846653135563643
 20
4.288239248164305
 30
0.0
 11
-0.2469999999999998
 21
-0.0000000000000724
 31
0.0
210
0.0
220
0.0
230
1.0
 40
0.008726867790462
 41
0.0034906637642598
 42
1.570796326794494
  0
POLYLINE
  5
342
330
37
100
AcDbEntity
  8
Visible (ANSI)
100
AcDb2dPolyline
 66
     1
 10
0.0
 20
0.0
 30
0.0
 70
   128
  0
VERTEX
  5
343
330
342
100
AcDbEntity
  8
Visible (ANSI)
100
AcDbVertex
100
AcDb2dVertex
 10
3.755706314026528
 20
4.289654272747629
 30
0.0
  0
VERTEX
  5
344
330
342
100
AcDbEntity
  8
Visible (ANSI)
100
AcDbVertex
100
AcDb2dVertex
 10
3.756600125567808
 20
4.289510329877137
 30
0.0
  0
VERTEX
  5
346
330
342
100
AcDbEntity
  8
Visible (ANSI)
100
AcDbVertex
100
AcDb2dVertex
 10
3.757052534208211
 20
4.289322669111678
 30
0.0
  0
VERTEX
  5
347
330
342
100
AcDbEntity
  8
Visible (ANSI)
100
AcDbVertex
100
AcDb2dVertex
 10
3.757362454894648
 20
4.289125786052754
 30
0.0
  0
VERTEX
  5
348
330
342
100
AcDbEntity
  8
Visible (ANSI)
100
AcDbVertex
100
AcDb2dVertex
 10
3.757610260031981
 20
4.288930428309543
 30
0.0
  0
VERTEX
  5
349
330
342
100
AcDbEntity
  8
Visible (ANSI)
100
AcDbVertex
100
AcDb2dVertex
 10
3.757804937249721
 20
4.288743893931073
 30
0.0
  0
VERTEX
  5
34A
330
342
100
AcDbEntity
  8
Visible (ANSI)
100
AcDbVertex
100
AcDb2dVertex
 10
3.757957961615303
 20
4.288571439389948
 30
0.0
  0
VERTEX
  5
34B
330
342
100
AcDbEntity
  8
Visible (ANSI)
100
AcDbVertex
100
AcDb2dVertex
 10
3.758088833703457
 20
4.288405015712489
 30
0.0
  0
VERTEX
  5
34C
330
342
100
AcDbEntity
  8
Visible (ANSI)
100
AcDbVertex
100
AcDb2dVertex
 10
3.758202199860508
 20
4.288242276259136
 30
0.0
  0
VERTEX
  5
34D
330
342
100
AcDbEntity
  8
Visible (ANSI)
100
AcDbVertex
100
AcDb2dVertex
 10
3.758299468070191
 20
4.288083526093033
 30
0.0
  0
VERTEX
  5
34E
330
342
100
AcDbEntity
  8
Visible (ANSI)
100
AcDbVertex
100
AcDb2dVertex
 10
3.75838199938345
 20
4.287929070277319
 30
0.0
  0
VERTEX
  5
34F
330
342
100
AcDbEntity
  8
Visible (ANSI)
100
AcDbVertex
100
AcDb2dVertex
 10
3.758451107918435
 20
4.287779213875142
 30
0.0
  0
VERTEX
  5
350
330
342
100
AcDbEntity
  8
Visible (ANSI)
100
AcDbVertex
100
AcDb2dVertex
 10
3.758508225125278
 20
4.287634191550451
 30
0.0
  0
VERTEX
  5
351
330
342
100
AcDbEntity
  8
Visible (ANSI)
100
AcDbVertex
100
AcDb2dVertex
 10
3.758554665122133
 20
4.287494355299186
 30
0.0
  0
VERTEX
  5
352
330
342
100
AcDbEntity
  8
Visible (ANSI)
100
AcDbVertex
100
AcDb2dVertex
 10
3.758591812426338
 20
4.287359986718091
 30
0.0
  0
VERTEX
  5
353
330
342
100
AcDbEntity
  8
Visible (ANSI)
100
AcDbVertex
100
AcDb2dVertex
 10
3.758621051555233
 20
4.287231367403911
 30
0.0
  0
VERTEX
  5
354
330
342
100
AcDbEntity
  8
Visible (ANSI)
100
AcDbVertex
100
AcDb2dVertex
 10
3.758643743559758
 20
4.287108778953399
 30
0.0
  0
VERTEX
  5
355
330
342
100
AcDbEntity
  8
Visible (ANSI)
100
AcDbVertex
100
AcDb2dVertex
 10
3.758661226024466
 20
4.286992549896087
 30
0.0
  0
VERTEX
  5
356
330
342
100
AcDbEntity
  8
Visible (ANSI)
100
AcDbVertex
100
AcDb2dVertex
 10
3.75867490693309
 20
4.28688293836233
 30
0.0
  0
VERTEX
  5
357
330
342
100
AcDbEntity
  8
Visible (ANSI)
100
AcDbVertex
100
AcDb2dVertex
 10
3.758686100403783
 20
4.286780249415268
 30
0.0
  0
VERTEX
  5
358
330
342
100
AcDbEntity
  8
Visible (ANSI)
100
AcDbVertex
100
AcDb2dVertex
 10
3.758695041100498
 20
4.286684694252461
 30
0.0
  0
VERTEX
  5
359
330
342
100
AcDbEntity
  8
Visible (ANSI)
100
AcDbVertex
100
AcDb2dVertex
 10
3.758701635157656
 20
4.286596249407518
 30
0.0
  0
VERTEX
  5
35A
330
342
100
AcDbEntity
  8
Visible (ANSI)
100
AcDbVertex
100
AcDb2dVertex
 10
3.758706117239213
 20
4.286514797548457
 30
0.0
  0
VERTEX
  5
35B
330
342
100
AcDbEntity
  8
Visible (ANSI)
100
AcDbVertex
100
AcDb2dVertex
 10
3.758708815874705
 20
4.286440315208884
 30
0.0
  0
VERTEX
  5
35C
330
342
100
AcDbEntity
  8
Visible (ANSI)
100
AcDbVertex
100
AcDb2dVertex
 10
3.758709989194483
 20
4.286372685056822
 30
0.0
  0
SEQEND
  5
345
330
342
100
AcDbEntity
  8
Visible (ANSI)
  0
LINE
  5
35D
330
37
100
AcDbEntity
  8
Visible (ANSI)
100
AcDbLine
 10
3.755706318532076
 20
4.289654270239013
 30
0.0
 11
3.755706318532078
 21
4.286493874606484
 31
0.0
  0
ARC
  5
35E
330
37
100
AcDbEntity
  8
Visible (ANSI)
100
AcDbCircle
 10
2.597731760771071
 20
4.290039139679794
 30
0.0
 40
0.0030001325115993
100
AcDbArc
 50
90.00174524774596
 51
179.9982546406605
  0
LINE
  5
35F
330
37
100
AcDbEntity
  8
Visible (ANSI)
100
AcDbLine
 10
2.59965464037217
 20
4.288231723938241
 30
0.0
 11
2.597731669386634
 21
4.29303925391495
 31
0.0
  0
LINE
  5
360
330
37
100
AcDbEntity
  8
Visible (ANSI)
100
AcDbLine
 10
5.566680894570075
 20
4.771057759683224
 30
0.0
 11
5.566680894570045
 21
4.877076288298415
 31
0.0
  0
LINE
  5
361
330
37
100
AcDbEntity
  8
Visible (ANSI)
100
AcDbLine
 10
5.566680894570075
 20
4.771057759683224
 30
0.0
 11
5.566911278967061
 21
4.771057759683206
 31
0.0
  0
LINE
  5
362
330
37
100
AcDbEntity
  8
Visible (ANSI)
100
AcDbLine
 10
5.566911278967061
 20
4.771057759683206
 30
0.0
 11
5.566911278967173
 21
4.396057759683205
 31
0.0
  0
LINE
  5
363
330
37
100
AcDbEntity
  8
Visible (ANSI)
100
AcDbLine
 10
5.566911278967173
 20
4.396057759683205
 30
0.0
 11
5.566680894570185
 21
4.396057759683223
 31
0.0
  0
LINE
  5
364
330
37
100
AcDbEntity
  8
Visible (ANSI)
100
AcDbLine
 10
5.566680894570218
 20
4.290039231068035
 30
0.0
 11
5.566680894570185
 21
4.396057759683223
 31
0.0
  0
ARC
  5
365
330
37
100
AcDbEntity
  8
Visible (ANSI)
100
AcDbCircle
 10
4.599581318531988
 20
4.583557759682955
 30
0.0
 40
0.231874999999999
100
AcDbArc
 50
148.1092081981713
 51
211.8907918018627
  0
LINE
  5
366
330
37
100
AcDbEntity
  8
Visible (ANSI)
100
AcDbLine
 10
4.402706318531901
 20
4.880744782131665
 30
0.0
 11
4.402706318531952
 21
4.706057759682926
 31
0.0
  0
LINE
  5
367
330
37
100
AcDbEntity
  8
Visible (ANSI)
100
AcDbLine
 10
4.402706318532075
 20
4.286370737234341
 30
0.0
 11
4.402706318532023
 21
4.461057759682926
 31
0.0
  0
LINE
  5
368
330
37
100
AcDbEntity
  8
Visible (ANSI)
100
AcDbLine
 10
5.563680967677516
 20
4.293039253915829
 30
0.0
 11
4.459706318532075
 21
4.293039253915504
 31
0.0
  0
LINE
  5
369
330
37
100
AcDbEntity
  8
Visible (ANSI)
100
AcDbLine
 10
4.405706318532075
 20
4.289654270239205
 30
0.0
 11
4.459706318532075
 21
4.289654270239221
 31
0.0
  0
LINE
  5
36A
330
37
100
AcDbEntity
  8
Visible (ANSI)
100
AcDbLine
 10
4.459706318532063
 20
4.328557759682978
 30
0.0
 11
4.459706318532075
 21
4.289654270239223
 31
0.0
  0
LINE
  5
36B
330
37
100
AcDbEntity
  8
Visible (ANSI)
100
AcDbLine
 10
4.459706318531901
 20
4.877461249126801
 30
0.0
 11
4.459706318531913
 21
4.83855775968298
 31
0.0
  0
LINE
  5
36C
330
37
100
AcDbEntity
  8
Visible (ANSI)
100
AcDbLine
 10
5.372206318531934
 20
4.771057759683146
 30
0.0
 11
5.372206318531938
 21
4.756057759683146
 31
0.0
  0
LINE
  5
36D
330
37
100
AcDbEntity
  8
Visible (ANSI)
100
AcDbLine
 10
5.372206318532041
 20
4.411057759683146
 30
0.0
 11
5.372206318532044
 21
4.396057759683147
 31
0.0
  0
LINE
  5
36E
330
37
100
AcDbEntity
  8
Visible (ANSI)
100
AcDbLine
 10
5.566680894570185
 20
4.396057759683223
 30
0.0
 11
4.997206318532043
 21
4.396057759683055
 31
0.0
  0
LINE
  5
36F
330
37
100
AcDbEntity
  8
Visible (ANSI)
100
AcDbLine
 10
4.997206318532043
 20
4.396057759683055
 30
0.0
 11
4.997206318531933
 21
4.771057759683056
 31
0.0
  0
LINE
  5
370
330
37
100
AcDbEntity
  8
Visible (ANSI)
100
AcDbLine
 10
4.997206318531933
 20
4.771057759683056
 30
0.0
 11
5.566680894570075
 21
4.771057759683224
 31
0.0
  0
POLYLINE
  5
371
330
37
100
AcDbEntity
  8
Visible (ANSI)
100
AcDb2dPolyline
 66
     1
 10
0.0
 20
0.0
 30
0.0
 70
   128
  0
VERTEX
  5
372
330
371
100
AcDbEntity
  8
Visible (ANSI)
100
AcDbVertex
100
AcDb2dVertex
 10
4.402706308627256
 20
4.706057765352408
 30
0.0
  0
VERTEX
  5
373
330
371
100
AcDbEntity
  8
Visible (ANSI)
100
AcDbVertex
100
AcDb2dVertex
 10
4.404686684683116
 20
4.709183712174538
 30
0.0
  0
VERTEX
  5
375
330
371
100
AcDbEntity
  8
Visible (ANSI)
100
AcDbVertex
100
AcDb2dVertex
 10
4.406709206385438
 20
4.712265248843031
 30
0.0
  0
VERTEX
  5
376
330
371
100
AcDbEntity
  8
Visible (ANSI)
100
AcDbVertex
100
AcDb2dVertex
 10
4.40877213722095
 20
4.71530162443323
 30
0.0
  0
VERTEX
  5
377
330
371
100
AcDbEntity
  8
Visible (ANSI)
100
AcDbVertex
100
AcDb2dVertex
 10
4.410873717209986
 20
4.718292064554077
 30
0.0
  0
VERTEX
  5
378
330
371
100
AcDbEntity
  8
Visible (ANSI)
100
AcDbVertex
100
AcDb2dVertex
 10
4.413012256772058
 20
4.721235841747313
 30
0.0
  0
VERTEX
  5
379
330
371
100
AcDbEntity
  8
Visible (ANSI)
100
AcDbVertex
100
AcDb2dVertex
 10
4.415185972461108
 20
4.724132193355079
 30
0.0
  0
VERTEX
  5
37A
330
371
100
AcDbEntity
  8
Visible (ANSI)
100
AcDbVertex
100
AcDb2dVertex
 10
4.417393127763863
 20
4.726980368452719
 30
0.0
  0
VERTEX
  5
37B
330
371
100
AcDbEntity
  8
Visible (ANSI)
100
AcDbVertex
100
AcDb2dVertex
 10
4.419631962700647
 20
4.729779604382374
 30
0.0
  0
VERTEX
  5
37C
330
371
100
AcDbEntity
  8
Visible (ANSI)
100
AcDbVertex
100
AcDb2dVertex
 10
4.421900764224591
 20
4.732529161952585
 30
0.0
  0
VERTEX
  5
37D
330
371
100
AcDbEntity
  8
Visible (ANSI)
100
AcDbVertex
100
AcDb2dVertex
 10
4.424197795822419
 20
4.735228290238693
 30
0.0
  0
VERTEX
  5
37E
330
371
100
AcDbEntity
  8
Visible (ANSI)
100
AcDbVertex
100
AcDb2dVertex
 10
4.426521274048066
 20
4.73787622658284
 30
0.0
  0
VERTEX
  5
37F
330
371
100
AcDbEntity
  8
Visible (ANSI)
100
AcDbVertex
100
AcDb2dVertex
 10
4.428869462388261
 20
4.740472231793567
 30
0.0
  0
VERTEX
  5
380
330
371
100
AcDbEntity
  8
Visible (ANSI)
100
AcDbVertex
100
AcDb2dVertex
 10
4.431240647796125
 20
4.743015543213019
 30
0.0
  0
VERTEX
  5
381
330
371
100
AcDbEntity
  8
Visible (ANSI)
100
AcDbVertex
100
AcDb2dVertex
 10
4.433633070291988
 20
4.745505398183336
 30
0.0
  0
VERTEX
  5
382
330
371
100
AcDbEntity
  8
Visible (ANSI)
100
AcDbVertex
100
AcDb2dVertex
 10
4.436045439224096
 20
4.74794153857417
 30
0.0
  0
VERTEX
  5
383
330
371
100
AcDbEntity
  8
Visible (ANSI)
100
AcDbVertex
100
AcDb2dVertex
 10
4.438495143191572
 20
4.750342573237213
 30
0.0
  0
VERTEX
  5
384
330
371
100
AcDbEntity
  8
Visible (ANSI)
100
AcDbVertex
100
AcDb2dVertex
 10
4.440991357555089
 20
4.752717478068778
 30
0.0
  0
VERTEX
  5
385
330
371
100
AcDbEntity
  8
Visible (ANSI)
100
AcDbVertex
100
AcDb2dVertex
 10
4.443533331389991
 20
4.755064868551523
 30
0.0
  0
VERTEX
  5
386
330
371
100
AcDbEntity
  8
Visible (ANSI)
100
AcDbVertex
100
AcDb2dVertex
 10
4.446120360704407
 20
4.757383336701717
 30
0.0
  0
VERTEX
  5
387
330
371
100
AcDbEntity
  8
Visible (ANSI)
100
AcDbVertex
100
AcDb2dVertex
 10
4.448751741506471
 20
4.759671474535622
 30
0.0
  0
VERTEX
  5
388
330
371
100
AcDbEntity
  8
Visible (ANSI)
100
AcDbVertex
100
AcDb2dVertex
 10
4.45142674633792
 20
4.761927909269096
 30
0.0
  0
VERTEX
  5
389
330
371
100
AcDbEntity
  8
Visible (ANSI)
100
AcDbVertex
100
AcDb2dVertex
 10
4.454144671206885
 20
4.764151209452011
 30
0.0
  0
VERTEX
  5
38A
330
371
100
AcDbEntity
  8
Visible (ANSI)
100
AcDbVertex
100
AcDb2dVertex
 10
4.45690476518871
 20
4.766340002300222
 30
0.0
  0
VERTEX
  5
38B
330
371
100
AcDbEntity
  8
Visible (ANSI)
100
AcDbVertex
100
AcDb2dVertex
 10
4.459706324291525
 20
4.768492879830001
 30
0.0
  0
SEQEND
  5
374
330
371
100
AcDbEntity
  8
Visible (ANSI)
  0
POLYLINE
  5
38C
330
37
100
AcDbEntity
  8
Visible (ANSI)
100
AcDb2dPolyline
 66
     1
 10
0.0
 20
0.0
 30
0.0
 70
   128
  0
VERTEX
  5
38D
330
38C
100
AcDbEntity
  8
Visible (ANSI)
100
AcDbVertex
100
AcDb2dVertex
 10
4.459706324291634
 20
4.398622639535912
 30
0.0
  0
VERTEX
  5
38E
330
38C
100
AcDbEntity
  8
Visible (ANSI)
100
AcDbVertex
100
AcDb2dVertex
 10
4.456904765188818
 20
4.400775517065684
 30
0.0
  0
VERTEX
  5
390
330
38C
100
AcDbEntity
  8
Visible (ANSI)
100
AcDbVertex
100
AcDb2dVertex
 10
4.454144671206992
 20
4.402964309913896
 30
0.0
  0
VERTEX
  5
391
330
38C
100
AcDbEntity
  8
Visible (ANSI)
100
AcDbVertex
100
AcDb2dVertex
 10
4.451426746338023
 20
4.405187610096806
 30
0.0
  0
VERTEX
  5
392
330
38C
100
AcDbEntity
  8
Visible (ANSI)
100
AcDbVertex
100
AcDb2dVertex
 10
4.448751741506574
 20
4.407444044830278
 30
0.0
  0
VERTEX
  5
393
330
38C
100
AcDbEntity
  8
Visible (ANSI)
100
AcDbVertex
100
AcDb2dVertex
 10
4.446120360704509
 20
4.409732182664181
 30
0.0
  0
VERTEX
  5
394
330
38C
100
AcDbEntity
  8
Visible (ANSI)
100
AcDbVertex
100
AcDb2dVertex
 10
4.443533331390091
 20
4.412050650814371
 30
0.0
  0
VERTEX
  5
395
330
38C
100
AcDbEntity
  8
Visible (ANSI)
100
AcDbVertex
100
AcDb2dVertex
 10
4.440991357555191
 20
4.414398041297115
 30
0.0
  0
VERTEX
  5
396
330
38C
100
AcDbEntity
  8
Visible (ANSI)
100
AcDbVertex
100
AcDb2dVertex
 10
4.438495143191672
 20
4.416772946128677
 30
0.0
  0
VERTEX
  5
397
330
38C
100
AcDbEntity
  8
Visible (ANSI)
100
AcDbVertex
100
AcDb2dVertex
 10
4.436045439224193
 20
4.419173980791717
 30
0.0
  0
VERTEX
  5
398
330
38C
100
AcDbEntity
  8
Visible (ANSI)
100
AcDbVertex
100
AcDb2dVertex
 10
4.433633070292084
 20
4.421610121182548
 30
0.0
  0
VERTEX
  5
399
330
38C
100
AcDbEntity
  8
Visible (ANSI)
100
AcDbVertex
100
AcDb2dVertex
 10
4.431240647796219
 20
4.424099976152865
 30
0.0
  0
VERTEX
  5
39A
330
38C
100
AcDbEntity
  8
Visible (ANSI)
100
AcDbVertex
100
AcDb2dVertex
 10
4.428869462388353
 20
4.426643287572312
 30
0.0
  0
VERTEX
  5
39B
330
38C
100
AcDbEntity
  8
Visible (ANSI)
100
AcDbVertex
100
AcDb2dVertex
 10
4.426521274048159
 20
4.429239292783036
 30
0.0
  0
VERTEX
  5
39C
330
38C
100
AcDbEntity
  8
Visible (ANSI)
100
AcDbVertex
100
AcDb2dVertex
 10
4.424197795822512
 20
4.431887229127183
 30
0.0
  0
VERTEX
  5
39D
330
38C
100
AcDbEntity
  8
Visible (ANSI)
100
AcDbVertex
100
AcDb2dVertex
 10
4.421900764224681
 20
4.434586357413288
 30
0.0
  0
VERTEX
  5
39E
330
38C
100
AcDbEntity
  8
Visible (ANSI)
100
AcDbVertex
100
AcDb2dVertex
 10
4.419631962700734
 20
4.437335914983496
 30
0.0
  0
VERTEX
  5
39F
330
38C
100
AcDbEntity
  8
Visible (ANSI)
100
AcDbVertex
100
AcDb2dVertex
 10
4.417393127763947
 20
4.44013515091315
 30
0.0
  0
VERTEX
  5
3A0
330
38C
100
AcDbEntity
  8
Visible (ANSI)
100
AcDbVertex
100
AcDb2dVertex
 10
4.415185972461193
 20
4.442983326010788
 30
0.0
  0
VERTEX
  5
3A1
330
38C
100
AcDbEntity
  8
Visible (ANSI)
100
AcDbVertex
100
AcDb2dVertex
 10
4.413012256772141
 20
4.445879677618552
 30
0.0
  0
VERTEX
  5
3A2
330
38C
100
AcDbEntity
  8
Visible (ANSI)
100
AcDbVertex
100
AcDb2dVertex
 10
4.410873717210066
 20
4.448823454811786
 30
0.0
  0
VERTEX
  5
3A3
330
38C
100
AcDbEntity
  8
Visible (ANSI)
100
AcDbVertex
100
AcDb2dVertex
 10
4.408772137221028
 20
4.451813894932631
 30
0.0
  0
VERTEX
  5
3A4
330
38C
100
AcDbEntity
  8
Visible (ANSI)
100
AcDbVertex
100
AcDb2dVertex
 10
4.406709206385513
 20
4.454850270522826
 30
0.0
  0
VERTEX
  5
3A5
330
38C
100
AcDbEntity
  8
Visible (ANSI)
100
AcDbVertex
100
AcDb2dVertex
 10
4.40468668468319
 20
4.457931807191318
 30
0.0
  0
VERTEX
  5
3A6
330
38C
100
AcDbEntity
  8
Visible (ANSI)
100
AcDbVertex
100
AcDb2dVertex
 10
4.402706308627329
 20
4.461057754013446
 30
0.0
  0
SEQEND
  5
38F
330
38C
100
AcDbEntity
  8
Visible (ANSI)
  0
LINE
  5
3A7
330
37
100
AcDbEntity
  8
Visible (ANSI)
100
AcDbLine
 10
4.459706318531902
 20
4.874076265450288
 30
0.0
 11
5.563680967677345
 21
4.874076265450616
 31
0.0
  0
LINE
  5
3A8
330
37
100
AcDbEntity
  8
Visible (ANSI)
100
AcDbLine
 10
4.405706318531902
 20
4.877461249126785
 30
0.0
 11
4.459706318531901
 21
4.877461249126801
 31
0.0
  0
LINE
  5
3A9
330
37
100
AcDbEntity
  8
Visible (ANSI)
100
AcDbLine
 10
2.594731742493903
 20
4.396057759682341
 30
0.0
 11
2.594731742493934
 21
4.290039231067153
 31
0.0
  0
LINE
  5
3AA
330
37
100
AcDbEntity
  8
Visible (ANSI)
100
AcDbLine
 10
2.594731742493759
 20
4.877076288297533
 30
0.0
 11
2.59473174249379
 21
4.771057759682341
 31
0.0
  0
ARC
  5
3AB
330
37
100
AcDbEntity
  8
Visible (ANSI)
100
AcDbCircle
 10
3.561831318531988
 20
4.583557759682648
 30
0.0
 40
0.2318749999999996
100
AcDbArc
 50
328.1092081981713
 51
31.89079180186285
  0
LINE
  5
3AC
330
37
100
AcDbEntity
  8
Visible (ANSI)
100
AcDbLine
 10
3.701706318531903
 20
4.874076265450063
 30
0.0
 11
2.59773166938646
 21
4.874076265449737
 31
0.0
  0
LINE
  5
3AD
330
37
100
AcDbEntity
  8
Visible (ANSI)
100
AcDbLine
 10
2.597731669386634
 20
4.29303925391495
 30
0.0
 11
3.701706318532075
 21
4.293039253915279
 31
0.0
  0
POLYLINE
  5
3AE
330
37
100
AcDbEntity
  8
Visible (ANSI)
100
AcDb2dPolyline
 66
     1
 10
0.0
 20
0.0
 30
0.0
 70
   128
  0
VERTEX
  5
3AF
330
3AE
100
AcDbEntity
  8
Visible (ANSI)
100
AcDbVertex
100
AcDb2dVertex
 10
3.758706328436721
 20
4.461057754013254
 30
0.0
  0
VERTEX
  5
3B0
330
3AE
100
AcDbEntity
  8
Visible (ANSI)
100
AcDbVertex
100
AcDb2dVertex
 10
3.756725952380861
 20
4.457931807191125
 30
0.0
  0
VERTEX
  5
3B2
330
3AE
100
AcDbEntity
  8
Visible (ANSI)
100
AcDbVertex
100
AcDb2dVertex
 10
3.75470343067854
 20
4.454850270522634
 30
0.0
  0
VERTEX
  5
3B3
330
3AE
100
AcDbEntity
  8
Visible (ANSI)
100
AcDbVertex
100
AcDb2dVertex
 10
3.752640499843026
 20
4.451813894932436
 30
0.0
  0
VERTEX
  5
3B4
330
3AE
100
AcDbEntity
  8
Visible (ANSI)
100
AcDbVertex
100
AcDb2dVertex
 10
3.750538919853993
 20
4.44882345481159
 30
0.0
  0
VERTEX
  5
3B5
330
3AE
100
AcDbEntity
  8
Visible (ANSI)
100
AcDbVertex
100
AcDb2dVertex
 10
3.748400380291919
 20
4.445879677618353
 30
0.0
  0
VERTEX
  5
3B6
330
3AE
100
AcDbEntity
  8
Visible (ANSI)
100
AcDbVertex
100
AcDb2dVertex
 10
3.746226664602867
 20
4.442983326010589
 30
0.0
  0
VERTEX
  5
3B7
330
3AE
100
AcDbEntity
  8
Visible (ANSI)
100
AcDbVertex
100
AcDb2dVertex
 10
3.744019509300116
 20
4.440135150912951
 30
0.0
  0
VERTEX
  5
3B8
330
3AE
100
AcDbEntity
  8
Visible (ANSI)
100
AcDbVertex
100
AcDb2dVertex
 10
3.741780674363328
 20
4.437335914983295
 30
0.0
  0
VERTEX
  5
3B9
330
3AE
100
AcDbEntity
  8
Visible (ANSI)
100
AcDbVertex
100
AcDb2dVertex
 10
3.739511872839384
 20
4.434586357413087
 30
0.0
  0
VERTEX
  5
3BA
330
3AE
100
AcDbEntity
  8
Visible (ANSI)
100
AcDbVertex
100
AcDb2dVertex
 10
3.737214841241558
 20
4.431887229126978
 30
0.0
  0
VERTEX
  5
3BB
330
3AE
100
AcDbEntity
  8
Visible (ANSI)
100
AcDbVertex
100
AcDb2dVertex
 10
3.73489136301591
 20
4.429239292782831
 30
0.0
  0
VERTEX
  5
3BC
330
3AE
100
AcDbEntity
  8
Visible (ANSI)
100
AcDbVertex
100
AcDb2dVertex
 10
3.732543174675716
 20
4.426643287572106
 30
0.0
  0
VERTEX
  5
3BD
330
3AE
100
AcDbEntity
  8
Visible (ANSI)
100
AcDbVertex
100
AcDb2dVertex
 10
3.730171989267852
 20
4.424099976152657
 30
0.0
  0
VERTEX
  5
3BE
330
3AE
100
AcDbEntity
  8
Visible (ANSI)
100
AcDbVertex
100
AcDb2dVertex
 10
3.72777956677199
 20
4.421610121182338
 30
0.0
  0
VERTEX
  5
3BF
330
3AE
100
AcDbEntity
  8
Visible (ANSI)
100
AcDbVertex
100
AcDb2dVertex
 10
3.725367197839883
 20
4.419173980791508
 30
0.0
  0
VERTEX
  5
3C0
330
3AE
100
AcDbEntity
  8
Visible (ANSI)
100
AcDbVertex
100
AcDb2dVertex
 10
3.722917493872404
 20
4.416772946128465
 30
0.0
  0
VERTEX
  5
3C1
330
3AE
100
AcDbEntity
  8
Visible (ANSI)
100
AcDbVertex
100
AcDb2dVertex
 10
3.720421279508888
 20
4.414398041296902
 30
0.0
  0
VERTEX
  5
3C2
330
3AE
100
AcDbEntity
  8
Visible (ANSI)
100
AcDbVertex
100
AcDb2dVertex
 10
3.717879305673986
 20
4.412050650814156
 30
0.0
  0
VERTEX
  5
3C3
330
3AE
100
AcDbEntity
  8
Visible (ANSI)
100
AcDbVertex
100
AcDb2dVertex
 10
3.715292276359571
 20
4.409732182663963
 30
0.0
  0
VERTEX
  5
3C4
330
3AE
100
AcDbEntity
  8
Visible (ANSI)
100
AcDbVertex
100
AcDb2dVertex
 10
3.712660895557506
 20
4.407444044830061
 30
0.0
  0
VERTEX
  5
3C5
330
3AE
100
AcDbEntity
  8
Visible (ANSI)
100
AcDbVertex
100
AcDb2dVertex
 10
3.709985890726058
 20
4.405187610096587
 30
0.0
  0
VERTEX
  5
3C6
330
3AE
100
AcDbEntity
  8
Visible (ANSI)
100
AcDbVertex
100
AcDb2dVertex
 10
3.707267965857093
 20
4.402964309913674
 30
0.0
  0
VERTEX
  5
3C7
330
3AE
100
AcDbEntity
  8
Visible (ANSI)
100
AcDbVertex
100
AcDb2dVertex
 10
3.704507871875268
 20
4.400775517065461
 30
0.0
  0
VERTEX
  5
3C8
330
3AE
100
AcDbEntity
  8
Visible (ANSI)
100
AcDbVertex
100
AcDb2dVertex
 10
3.701706312772451
 20
4.398622639535686
 30
0.0
  0
SEQEND
  5
3B1
330
3AE
100
AcDbEntity
  8
Visible (ANSI)
  0
POLYLINE
  5
3C9
330
37
100
AcDbEntity
  8
Visible (ANSI)
100
AcDb2dPolyline
 66
     1
 10
0.0
 20
0.0
 30
0.0
 70
   128
  0
VERTEX
  5
3CA
330
3C9
100
AcDbEntity
  8
Visible (ANSI)
100
AcDbVertex
100
AcDb2dVertex
 10
3.701706312772341
 20
4.768492879829775
 30
0.0
  0
VERTEX
  5
3CB
330
3C9
100
AcDbEntity
  8
Visible (ANSI)
100
AcDbVertex
100
AcDb2dVertex
 10
3.70450787187516
 20
4.766340002299999
 30
0.0
  0
VERTEX
  5
3CD
330
3C9
100
AcDbEntity
  8
Visible (ANSI)
100
AcDbVertex
100
AcDb2dVertex
 10
3.707267965856986
 20
4.764151209451789
 30
0.0
  0
VERTEX
  5
3CE
330
3C9
100
AcDbEntity
  8
Visible (ANSI)
100
AcDbVertex
100
AcDb2dVertex
 10
3.709985890725953
 20
4.761927909268875
 30
0.0
  0
VERTEX
  5
3CF
330
3C9
100
AcDbEntity
  8
Visible (ANSI)
100
AcDbVertex
100
AcDb2dVertex
 10
3.712660895557403
 20
4.759671474535402
 30
0.0
  0
VERTEX
  5
3D0
330
3C9
100
AcDbEntity
  8
Visible (ANSI)
100
AcDbVertex
100
AcDb2dVertex
 10
3.715292276359468
 20
4.757383336701499
 30
0.0
  0
VERTEX
  5
3D1
330
3C9
100
AcDbEntity
  8
Visible (ANSI)
100
AcDbVertex
100
AcDb2dVertex
 10
3.717879305673884
 20
4.755064868551308
 30
0.0
  0
VERTEX
  5
3D2
330
3C9
100
AcDbEntity
  8
Visible (ANSI)
100
AcDbVertex
100
AcDb2dVertex
 10
3.720421279508787
 20
4.752717478068565
 30
0.0
  0
VERTEX
  5
3D3
330
3C9
100
AcDbEntity
  8
Visible (ANSI)
100
AcDbVertex
100
AcDb2dVertex
 10
3.722917493872306
 20
4.750342573237
 30
0.0
  0
VERTEX
  5
3D4
330
3C9
100
AcDbEntity
  8
Visible (ANSI)
100
AcDbVertex
100
AcDb2dVertex
 10
3.725367197839783
 20
4.747941538573958
 30
0.0
  0
VERTEX
  5
3D5
330
3C9
100
AcDbEntity
  8
Visible (ANSI)
100
AcDbVertex
100
AcDb2dVertex
 10
3.727779566771893
 20
4.745505398183126
 30
0.0
  0
VERTEX
  5
3D6
330
3C9
100
AcDbEntity
  8
Visible (ANSI)
100
AcDbVertex
100
AcDb2dVertex
 10
3.730171989267758
 20
4.743015543212811
 30
0.0
  0
VERTEX
  5
3D7
330
3C9
100
AcDbEntity
  8
Visible (ANSI)
100
AcDbVertex
100
AcDb2dVertex
 10
3.732543174675623
 20
4.740472231793362
 30
0.0
  0
VERTEX
  5
3D8
330
3C9
100
AcDbEntity
  8
Visible (ANSI)
100
AcDbVertex
100
AcDb2dVertex
 10
3.734891363015818
 20
4.737876226582637
 30
0.0
  0
VERTEX
  5
3D9
330
3C9
100
AcDbEntity
  8
Visible (ANSI)
100
AcDbVertex
100
AcDb2dVertex
 10
3.737214841241466
 20
4.735228290238488
 30
0.0
  0
VERTEX
  5
3DA
330
3C9
100
AcDbEntity
  8
Visible (ANSI)
100
AcDbVertex
100
AcDb2dVertex
 10
3.739511872839297
 20
4.732529161952383
 30
0.0
  0
VERTEX
  5
3DB
330
3C9
100
AcDbEntity
  8
Visible (ANSI)
100
AcDbVertex
100
AcDb2dVertex
 10
3.741780674363241
 20
4.729779604382174
 30
0.0
  0
VERTEX
  5
3DC
330
3C9
100
AcDbEntity
  8
Visible (ANSI)
100
AcDbVertex
100
AcDb2dVertex
 10
3.744019509300031
 20
4.726980368452519
 30
0.0
  0
VERTEX
  5
3DD
330
3C9
100
AcDbEntity
  8
Visible (ANSI)
100
AcDbVertex
100
AcDb2dVertex
 10
3.746226664602785
 20
4.724132193354882
 30
0.0
  0
VERTEX
  5
3DE
330
3C9
100
AcDbEntity
  8
Visible (ANSI)
100
AcDbVertex
100
AcDb2dVertex
 10
3.748400380291836
 20
4.721235841747116
 30
0.0
  0
VERTEX
  5
3DF
330
3C9
100
AcDbEntity
  8
Visible (ANSI)
100
AcDbVertex
100
AcDb2dVertex
 10
3.750538919853913
 20
4.718292064553883
 30
0.0
  0
VERTEX
  5
3E0
330
3C9
100
AcDbEntity
  8
Visible (ANSI)
100
AcDbVertex
100
AcDb2dVertex
 10
3.752640499842948
 20
4.715301624433035
 30
0.0
  0
VERTEX
  5
3E1
330
3C9
100
AcDbEntity
  8
Visible (ANSI)
100
AcDbVertex
100
AcDb2dVertex
 10
3.754703430678463
 20
4.712265248842837
 30
0.0
  0
VERTEX
  5
3E2
330
3C9
100
AcDbEntity
  8
Visible (ANSI)
100
AcDbVertex
100
AcDb2dVertex
 10
3.756725952380788
 20
4.709183712174346
 30
0.0
  0
VERTEX
  5
3E3
330
3C9
100
AcDbEntity
  8
Visible (ANSI)
100
AcDbVertex
100
AcDb2dVertex
 10
3.758706328436648
 20
4.706057765352216
 30
0.0
  0
SEQEND
  5
3CC
330
3C9
100
AcDbEntity
  8
Visible (ANSI)
  0
LINE
  5
3E4
330
37
100
AcDbEntity
  8
Visible (ANSI)
100
AcDbLine
 10
2.594731742493903
 20
4.396057759682341
 30
0.0
 11
2.594501358096917
 21
4.396057759682323
 31
0.0
  0
LINE
  5
3E5
330
37
100
AcDbEntity
  8
Visible (ANSI)
100
AcDbLine
 10
2.594501358096917
 20
4.396057759682323
 30
0.0
 11
2.594501358096806
 21
4.771057759682323
 31
0.0
  0
LINE
  5
3E6
330
37
100
AcDbEntity
  8
Visible (ANSI)
100
AcDbLine
 10
2.594501358096806
 20
4.771057759682323
 30
0.0
 11
2.59473174249379
 21
4.771057759682341
 31
0.0
  0
LINE
  5
3E7
330
37
100
AcDbEntity
  8
Visible (ANSI)
100
AcDbLine
 10
2.59473174249379
 20
4.771057759682341
 30
0.0
 11
3.164206318531932
 21
4.771057759682511
 31
0.0
  0
LINE
  5
3E8
330
37
100
AcDbEntity
  8
Visible (ANSI)
100
AcDbLine
 10
3.164206318532043
 20
4.396057759682511
 30
0.0
 11
2.594731742493903
 21
4.396057759682341
 31
0.0
  0
LINE
  5
3E9
330
37
100
AcDbEntity
  8
Visible (ANSI)
100
AcDbLine
 10
3.164206318531932
 20
4.771057759682511
 30
0.0
 11
3.164206318532043
 21
4.396057759682511
 31
0.0
  0
LINE
  5
3EA
330
37
100
AcDbEntity
  8
Visible Narrow (ANSI)
100
AcDbLine
 10
4.402706318532091
 20
4.236271710431458
 30
0.0
 11
3.758706318532091
 21
4.236271710431267
 31
0.0
  0
POLYLINE
  5
3EB
330
37
100
AcDbEntity
  8
Visible (ANSI)
100
AcDb2dPolyline
 66
     1
 10
0.0
 20
0.0
 30
0.0
 70
   128
  0
VERTEX
  5
3EC
330
3EB
100
AcDbEntity
  8
Visible (ANSI)
100
AcDbVertex
100
AcDb2dVertex
 10
3.755706314026546
 20
4.231271734387596
 30
0.0
  0
VERTEX
  5
3ED
330
3EB
100
AcDbEntity
  8
Visible (ANSI)
100
AcDbVertex
100
AcDb2dVertex
 10
3.755869428942228
 20
4.231277061259393
 30
0.0
  0
VERTEX
  5
3EF
330
3EB
100
AcDbEntity
  8
Visible (ANSI)
100
AcDbVertex
100
AcDb2dVertex
 10
3.756035617955731
 20
4.231291751223027
 30
0.0
  0
VERTEX
  5
3F0
330
3EB
100
AcDbEntity
  8
Visible (ANSI)
100
AcDbVertex
100
AcDb2dVertex
 10
3.756203918944838
 20
4.231316085875243
 30
0.0
  0
VERTEX
  5
3F1
330
3EB
100
AcDbEntity
  8
Visible (ANSI)
100
AcDbVertex
100
AcDb2dVertex
 10
3.756373346320931
 20
4.231350370279186
 30
0.0
  0
VERTEX
  5
3F2
330
3EB
100
AcDbEntity
  8
Visible (ANSI)
100
AcDbVertex
100
AcDb2dVertex
 10
3.756542937961794
 20
4.231394862565209
 30
0.0
  0
VERTEX
  5
3F3
330
3EB
100
AcDbEntity
  8
Visible (ANSI)
100
AcDbVertex
100
AcDb2dVertex
 10
3.756711708278812
 20
4.231449844330056
 30
0.0
  0
VERTEX
  5
3F4
330
3EB
100
AcDbEntity
  8
Visible (ANSI)
100
AcDbVertex
100
AcDb2dVertex
 10
3.756878671683369
 20
4.231515597170472
 30
0.0
  0
VERTEX
  5
3F5
330
3EB
100
AcDbEntity
  8
Visible (ANSI)
100
AcDbVertex
100
AcDb2dVertex
 10
3.757042983385227
 20
4.231592308817626
 30
0.0
  0
VERTEX
  5
3F6
330
3EB
100
AcDbEntity
  8
Visible (ANSI)
100
AcDbVertex
100
AcDb2dVertex
 10
3.757203798594142
 20
4.231679721141166
 30
0.0
  0
VERTEX
  5
3F7
330
3EB
100
AcDbEntity
  8
Visible (ANSI)
100
AcDbVertex
100
AcDb2dVertex
 10
3.757360272519876
 20
4.231777411745968
 30
0.0
  0
VERTEX
  5
3F8
330
3EB
100
AcDbEntity
  8
Visible (ANSI)
100
AcDbVertex
100
AcDb2dVertex
 10
3.75751153690579
 20
4.231885005169706
 30
0.0
  0
VERTEX
  5
3F9
330
3EB
100
AcDbEntity
  8
Visible (ANSI)
100
AcDbVertex
100
AcDb2dVertex
 10
3.757656700028852
 20
4.232002102483656
 30
0.0
  0
VERTEX
  5
3FA
330
3EB
100
AcDbEntity
  8
Visible (ANSI)
100
AcDbVertex
100
AcDb2dVertex
 10
3.757794917098823
 20
4.232128281292693
 30
0.0
  0
VERTEX
  5
3FB
330
3EB
100
AcDbEntity
  8
Visible (ANSI)
100
AcDbVertex
100
AcDb2dVertex
 10
3.757925272926276
 20
4.232263189600888
 30
0.0
  0
VERTEX
  5
3FC
330
3EB
100
AcDbEntity
  8
Visible (ANSI)
100
AcDbVertex
100
AcDb2dVertex
 10
3.758048565368658
 20
4.232408352723951
 30
0.0
  0
VERTEX
  5
3FD
330
3EB
100
AcDbEntity
  8
Visible (ANSI)
100
AcDbVertex
100
AcDb2dVertex
 10
3.758167821590998
 20
4.232568909802517
 30
0.0
  0
VERTEX
  5
3FE
330
3EB
100
AcDbEntity
  8
Visible (ANSI)
100
AcDbVertex
100
AcDb2dVertex
 10
3.758280812285721
 20
4.232744321109484
 30
0.0
  0
VERTEX
  5
3FF
330
3EB
100
AcDbEntity
  8
Visible (ANSI)
100
AcDbVertex
100
AcDb2dVertex
 10
3.758384956149308
 20
4.232933788787403
 30
0.0
  0
VERTEX
  5
400
330
3EB
100
AcDbEntity
  8
Visible (ANSI)
100
AcDbVertex
100
AcDb2dVertex
 10
3.758477648411853
 20
4.233136397646848
 30
0.0
  0
VERTEX
  5
401
330
3EB
100
AcDbEntity
  8
Visible (ANSI)
100
AcDbVertex
100
AcDb2dVertex
 10
3.758556542433796
 20
4.233351162099205
 30
0.0
  0
VERTEX
  5
402
330
3EB
100
AcDbEntity
  8
Visible (ANSI)
100
AcDbVertex
100
AcDb2dVertex
 10
3.758620159832216
 20
4.233576064034451
 30
0.0
  0
VERTEX
  5
403
330
3EB
100
AcDbEntity
  8
Visible (ANSI)
100
AcDbVertex
100
AcDb2dVertex
 10
3.758667163022564
 20
4.233808709880241
 30
0.0
  0
VERTEX
  5
404
330
3EB
100
AcDbEntity
  8
Visible (ANSI)
100
AcDbVertex
100
AcDb2dVertex
 10
3.758696308285876
 20
4.234046706064221
 30
0.0
  0
VERTEX
  5
405
330
3EB
100
AcDbEntity
  8
Visible (ANSI)
100
AcDbVertex
100
AcDb2dVertex
 10
3.758706328436788
 20
4.234287729413233
 30
0.0
  0
SEQEND
  5
3EE
330
3EB
100
AcDbEntity
  8
Visible (ANSI)
  0
LINE
  5
406
330
37
100
AcDbEntity
  8
Visible (ANSI)
100
AcDbLine
 10
3.755706318532093
 20
4.231271740892973
 30
0.0
 11
4.405706318532092
 21
4.231271740893167
 31
0.0
  0
POLYLINE
  5
407
330
37
100
AcDbEntity
  8
Visible (ANSI)
100
AcDb2dPolyline
 66
     1
 10
0.0
 20
0.0
 30
0.0
 70
   128
  0
VERTEX
  5
408
330
407
100
AcDbEntity
  8
Visible (ANSI)
100
AcDbVertex
100
AcDb2dVertex
 10
4.402706308627395
 20
4.234287729413423
 30
0.0
  0
VERTEX
  5
409
330
407
100
AcDbEntity
  8
Visible (ANSI)
100
AcDbVertex
100
AcDb2dVertex
 10
4.402716234912726
 20
4.234047245791511
 30
0.0
  0
VERTEX
  5
40B
330
407
100
AcDbEntity
  8
Visible (ANSI)
100
AcDbVertex
100
AcDb2dVertex
 10
4.402745145512082
 20
4.233810681057661
 30
0.0
  0
VERTEX
  5
40C
330
407
100
AcDbEntity
  8
Visible (ANSI)
100
AcDbVertex
100
AcDb2dVertex
 10
4.402791679374518
 20
4.233579912523517
 30
0.0
  0
VERTEX
  5
40D
330
407
100
AcDbEntity
  8
Visible (ANSI)
100
AcDbVertex
100
AcDb2dVertex
 10
4.402854545848281
 20
4.233356770567939
 30
0.0
  0
VERTEX
  5
40E
330
407
100
AcDbEntity
  8
Visible (ANSI)
100
AcDbVertex
100
AcDb2dVertex
 10
4.402932430815213
 20
4.233143155968966
 30
0.0
  0
VERTEX
  5
40F
330
407
100
AcDbEntity
  8
Visible (ANSI)
100
AcDbVertex
100
AcDb2dVertex
 10
4.403024020157165
 20
4.232940852172665
 30
0.0
  0
VERTEX
  5
410
330
407
100
AcDbEntity
  8
Visible (ANSI)
100
AcDbVertex
100
AcDb2dVertex
 10
4.40312764776005
 20
4.232751032498812
 30
0.0
  0
VERTEX
  5
411
330
407
100
AcDbEntity
  8
Visible (ANSI)
100
AcDbVertex
100
AcDb2dVertex
 10
4.403241084316288
 20
4.232574260140901
 30
0.0
  0
VERTEX
  5
412
330
407
100
AcDbEntity
  8
Visible (ANSI)
100
AcDbVertex
100
AcDb2dVertex
 10
4.403362077051903
 20
4.232411121758821
 30
0.0
  0
VERTEX
  5
413
330
407
100
AcDbEntity
  8
Visible (ANSI)
100
AcDbVertex
100
AcDb2dVertex
 10
4.403488349726523
 20
4.23226218054607
 30
0.0
  0
VERTEX
  5
414
330
407
100
AcDbEntity
  8
Visible (ANSI)
100
AcDbVertex
100
AcDb2dVertex
 10
4.403617907696526
 20
4.232127788498578
 30
0.0
  0
VERTEX
  5
415
330
407
100
AcDbEntity
  8
Visible (ANSI)
100
AcDbVertex
100
AcDb2dVertex
 10
4.403754106656478
 20
4.23200421445945
 30
0.0
  0
VERTEX
  5
416
330
407
100
AcDbEntity
  8
Visible (ANSI)
100
AcDbVertex
100
AcDb2dVertex
 10
4.403898026060574
 20
4.231889909646575
 30
0.0
  0
VERTEX
  5
417
330
407
100
AcDbEntity
  8
Visible (ANSI)
100
AcDbVertex
100
AcDb2dVertex
 10
4.404048656853809
 20
4.231784944459143
 30
0.0
  0
VERTEX
  5
418
330
407
100
AcDbEntity
  8
Visible (ANSI)
100
AcDbVertex
100
AcDb2dVertex
 10
4.40420503691396
 20
4.231689436229127
 30
0.0
  0
VERTEX
  5
419
330
407
100
AcDbEntity
  8
Visible (ANSI)
100
AcDbVertex
100
AcDb2dVertex
 10
4.404366133719623
 20
4.231603478822115
 30
0.0
  0
VERTEX
  5
41A
330
407
100
AcDbEntity
  8
Visible (ANSI)
100
AcDbVertex
100
AcDb2dVertex
 10
4.404530985148578
 20
4.231527189570083
 30
0.0
  0
VERTEX
  5
41B
330
407
100
AcDbEntity
  8
Visible (ANSI)
100
AcDbVertex
100
AcDb2dVertex
 10
4.404698582145816
 20
4.231460638872214
 30
0.0
  0
VERTEX
  5
41C
330
407
100
AcDbEntity
  8
Visible (ANSI)
100
AcDbVertex
100
AcDb2dVertex
 10
4.404867915656327
 20
4.231403944060492
 30
0.0
  0
VERTEX
  5
41D
330
407
100
AcDbEntity
  8
Visible (ANSI)
100
AcDbVertex
100
AcDb2dVertex
 10
4.405038047024289
 20
4.231357199000495
 30
0.0
  0
VERTEX
  5
41E
330
407
100
AcDbEntity
  8
Visible (ANSI)
100
AcDbVertex
100
AcDb2dVertex
 10
4.4052079202619
 20
4.231320497557806
 30
0.0
  0
VERTEX
  5
41F
330
407
100
AcDbEntity
  8
Visible (ANSI)
100
AcDbVertex
100
AcDb2dVertex
 10
4.405376596713335
 20
4.231293957064403
 30
0.0
  0
VERTEX
  5
420
330
407
100
AcDbEntity
  8
Visible (ANSI)
100
AcDbVertex
100
AcDb2dVertex
 10
4.405543067323585
 20
4.23127767138587
 30
0.0
  0
VERTEX
  5
421
330
407
100
AcDbEntity
  8
Visible (ANSI)
100
AcDbVertex
100
AcDb2dVertex
 10
4.405706323037641
 20
4.231271734387788
 30
0.0
  0
SEQEND
  5
40A
330
407
100
AcDbEntity
  8
Visible (ANSI)
  0
LINE
  5
422
330
37
100
AcDbEntity
  8
Visible (ANSI)
100
AcDbLine
 10
4.242706318531888
 20
4.92528913333292
 30
0.0
 11
4.242706318531873
 21
4.966843839396183
 31
0.0
  0
LINE
  5
423
330
37
100
AcDbEntity
  8
Visible (ANSI)
100
AcDbLine
 10
4.237706318531876
 20
4.961843808934286
 30
0.0
 11
4.242706288070165
 21
4.966843778472576
 31
0.0
  0
LINE
  5
424
330
37
100
AcDbEntity
  8
Visible Narrow (ANSI)
100
AcDbLine
 10
4.237706318531876
 20
4.961843808934286
 30
0.0
 11
4.237706318531889
 21
4.92028913333292
 31
0.0
  0
LINE
  5
425
330
37
100
AcDbEntity
  8
Visible (ANSI)
100
AcDbLine
 10
4.242706318531887
 20
4.92528913333292
 30
0.0
 11
4.237706318531889
 21
4.920289133332921
 31
0.0
  0
LINE
  5
426
330
37
100
AcDbEntity
  8
Visible (ANSI)
100
AcDbLine
 10
4.402706318531887
 20
4.925289133332966
 30
0.0
 11
4.242706318531888
 21
4.92528913333292
 31
0.0
  0
LINE
  5
427
330
37
100
AcDbEntity
  8
Visible Narrow (ANSI)
100
AcDbLine
 10
4.237706318531889
 20
4.92028913333292
 30
0.0
 11
4.402706318531889
 21
4.920289133332969
 31
0.0
  0
LINE
  5
428
330
37
100
AcDbEntity
  8
Visible Narrow (ANSI)
100
AcDbLine
 10
3.923706318531877
 20
4.961843808934193
 30
0.0
 11
4.237706318531876
 21
4.961843808934286
 31
0.0
  0
LINE
  5
429
330
37
100
AcDbEntity
  8
Visible (ANSI)
100
AcDbLine
 10
4.242706318531873
 20
4.966843778472576
 30
0.0
 11
3.918706348993586
 21
4.96684377847248
 31
0.0
  0
LINE
  5
42A
330
37
100
AcDbEntity
  8
Visible (ANSI)
100
AcDbLine
 10
3.923706318531877
 20
4.961843808934195
 30
0.0
 11
3.918706348993586
 21
4.966843778472481
 31
0.0
  0
LINE
  5
42B
330
37
100
AcDbEntity
  8
Visible Narrow (ANSI)
100
AcDbLine
 10
3.923706318531889
 20
4.918557759682754
 30
0.0
 11
3.923706318531877
 21
4.961843808934193
 31
0.0
  0
LINE
  5
42C
330
37
100
AcDbEntity
  8
Visible (ANSI)
100
AcDbLine
 10
3.918706318531874
 20
4.966843839396088
 30
0.0
 11
3.918706318531888
 21
4.923557759682751
 31
0.0
  0
LINE
  5
42D
330
37
100
AcDbEntity
  8
Visible (ANSI)
100
AcDbLine
 10
3.923706318531889
 20
4.918557759682754
 30
0.0
 11
3.918706318531888
 21
4.923557759682751
 31
0.0
  0
LINE
  5
42E
330
37
100
AcDbEntity
  8
Visible (ANSI)
100
AcDbLine
 10
3.918706318531888
 20
4.923557759682751
 30
0.0
 11
3.758706318531888
 21
4.923557759682704
 31
0.0
  0
LINE
  5
42F
330
37
100
AcDbEntity
  8
Visible Narrow (ANSI)
100
AcDbLine
 10
3.758706318531889
 20
4.918557759682705
 30
0.0
 11
3.923706318531889
 21
4.918557759682754
 31
0.0
  0
LINE
  5
430
330
37
100
AcDbEntity
  8
Visible (ANSI)
100
AcDbLine
 10
4.242706318531873
 20
4.966843839396183
 30
0.0
 11
4.242706318531873
 21
4.967856134473762
 31
0.0
  0
LINE
  5
431
330
37
100
AcDbEntity
  8
Visible (ANSI)
100
AcDbLine
 10
4.405706318531874
 20
4.967856134473809
 30
0.0
 11
4.242706318531873
 21
4.967856134473762
 31
0.0
  0
LINE
  5
432
330
37
100
AcDbEntity
  8
Visible (ANSI)
100
AcDbLine
 10
4.402706318531873
 20
4.96855775968275
 30
0.0
 11
4.402706318531873
 21
4.968236617796068
 31
0.0
  0
LINE
  5
433
330
37
100
AcDbEntity
  8
Visible (ANSI)
100
AcDbLine
 10
4.402706318531873
 20
4.968236617796068
 30
0.0
 11
4.242706318531873
 21
4.968236617796023
 31
0.0
  0
LINE
  5
434
330
37
100
AcDbEntity
  8
Visible (ANSI)
100
AcDbLine
 10
4.242706318531873
 20
4.968236617796023
 30
0.0
 11
4.242706318531873
 21
4.968557759682702
 31
0.0
  0
LINE
  5
435
330
37
100
AcDbEntity
  8
Visible (ANSI)
100
AcDbLine
 10
3.918706318531874
 20
4.968229636450563
 30
0.0
 11
3.755706318531875
 21
4.968229636450516
 31
0.0
  0
LINE
  5
436
330
37
100
AcDbEntity
  8
Visible (ANSI)
100
AcDbLine
 10
3.918706318531874
 20
4.968229636450563
 30
0.0
 11
3.918706318531874
 21
4.966843839396088
 31
0.0
  0
LINE
  5
437
330
37
100
AcDbEntity
  8
Visible (ANSI)
100
AcDbLine
 10
3.7587063185319
 20
4.88362153052853
 30
0.0
 11
3.758706318531876
 21
4.961414312932717
 31
0.0
  0
LINE
  5
438
330
37
100
AcDbEntity
  8
Visible Narrow (ANSI)
100
AcDbLine
 10
3.708706318531876
 20
4.961250251316683
 30
0.0
 11
3.7087063185319
 21
4.884031693314695
 31
0.0
  0
LINE
  5
439
330
37
100
AcDbEntity
  8
Visible (ANSI)
100
AcDbLine
 10
4.402706318531875
 20
4.961414312932909
 30
0.0
 11
4.4027063185319
 21
4.883621530528722
 31
0.0
  0
LINE
  5
43A
330
37
100
AcDbEntity
  8
Visible Narrow (ANSI)
100
AcDbLine
 10
4.4527063185319
 20
4.884031693314915
 30
0.0
 11
4.452706318531876
 21
4.961250251316903
 31
0.0
  0
LINE
  5
43B
330
37
100
AcDbEntity
  8
Visible Narrow (ANSI)
100
AcDbLine
 10
4.45270631853209
 20
4.236865268049358
 30
0.0
 11
4.452706318532078
 21
4.283083826051345
 31
0.0
  0
LINE
  5
43C
330
37
100
AcDbEntity
  8
Visible (ANSI)
100
AcDbLine
 10
4.402706318532078
 20
4.283493988837483
 30
0.0
 11
4.402706318532091
 21
4.236701206433295
 31
0.0
  0
LINE
  5
43D
330
37
100
AcDbEntity
  8
Visible (ANSI)
100
AcDbLine
 10
3.758706318532091
 20
4.236701206433103
 30
0.0
 11
3.758706318532078
 21
4.283493988837292
 31
0.0
  0
LINE
  5
43E
330
37
100
AcDbEntity
  8
Visible Narrow (ANSI)
100
AcDbLine
 10
3.708706318532078
 20
4.283083826051124
 30
0.0
 11
3.708706318532092
 21
4.236865268049139
 31
0.0
  0
LINE
  5
43F
330
37
100
AcDbEntity
  8
Visible (ANSI)
100
AcDbLine
 10
3.758706318531952
 20
4.706057759682736
 30
0.0
 11
3.758706318531901
 21
4.880744782131473
 31
0.0
  0
LINE
  5
440
330
37
100
AcDbEntity
  8
Visible (ANSI)
100
AcDbLine
 10
3.758706318532076
 20
4.286370737234151
 30
0.0
 11
3.758706318532024
 21
4.461057759682737
 31
0.0
  0
LINE
  5
441
330
37
100
AcDbEntity
  8
Visible (ANSI)
100
AcDbLine
 10
3.701706318531901
 20
4.877461249126576
 30
0.0
 11
3.755706318531901
 21
4.87746124912659
 31
0.0
  0
LINE
  5
442
330
37
100
AcDbEntity
  8
Visible (ANSI)
100
AcDbLine
 10
3.701706318532075
 20
4.289654270238997
 30
0.0
 11
3.755706318532076
 21
4.289654270239013
 31
0.0
  0
LINE
  5
443
330
37
100
AcDbEntity
  8
Visible (ANSI)
100
AcDbLine
 10
3.701706318532065
 20
4.328557759682754
 30
0.0
 11
3.701706318532076
 21
4.289654270238997
 31
0.0
  0
LINE
  5
444
330
37
100
AcDbEntity
  8
Visible (ANSI)
100
AcDbLine
 10
3.701706318531901
 20
4.877461249126576
 30
0.0
 11
3.701706318531913
 21
4.838557759682754
 31
0.0
  0
LINE
  5
445
330
37
100
AcDbEntity
  8
Visible (ANSI)
100
AcDbLine
 10
5.00520631853204
 20
4.411057759683162
 30
0.0
 11
5.372206318532041
 21
4.411057759683269
 31
0.0
  0
LINE
  5
446
330
37
100
AcDbEntity
  8
Visible (ANSI)
100
AcDbLine
 10
5.372206318532041
 20
4.411057759683269
 30
0.0
 11
5.372206318531938
 21
4.756057759683272
 31
0.0
  0
LINE
  5
447
330
37
100
AcDbEntity
  8
Visible (ANSI)
100
AcDbLine
 10
5.372206318531938
 20
4.756057759683272
 30
0.0
 11
5.005206318531936
 21
4.756057759683161
 31
0.0
  0
LINE
  5
448
330
37
100
AcDbEntity
  8
Visible (ANSI)
100
AcDbLine
 10
5.005206318531936
 20
4.756057759683161
 30
0.0
 11
5.00520631853204
 21
4.411057759683162
 31
0.0
  0
LINE
  5
449
330
37
100
AcDbEntity
  8
Visible (ANSI)
100
AcDbLine
 10
4.459706318532028
 20
4.44605775968312
 30
0.0
 11
4.459706318532063
 21
4.32855775968312
 31
0.0
  0
LINE
  5
44A
330
37
100
AcDbEntity
  8
Visible (ANSI)
100
AcDbLine
 10
4.459706318531948
 20
4.721057759682921
 30
0.0
 11
4.459706318532028
 21
4.446057759682919
 31
0.0
  0
LINE
  5
44B
330
37
100
AcDbEntity
  8
Visible (ANSI)
100
AcDbLine
 10
4.459706318531913
 20
4.83855775968312
 30
0.0
 11
4.459706318531948
 21
4.72105775968312
 31
0.0
  0
LINE
  5
44C
330
37
100
AcDbEntity
  8
Visible (ANSI)
100
AcDbLine
 10
4.900706318531913
 20
4.838557759683252
 30
0.0
 11
4.900706318531947
 21
4.721057759683252
 31
0.0
  0
LINE
  5
44D
330
37
100
AcDbEntity
  8
Visible (ANSI)
100
AcDbLine
 10
4.459706318531913
 20
4.83855775968312
 30
0.0
 11
4.900706318531913
 21
4.838557759683252
 31
0.0
  0
LINE
  5
44E
330
37
100
AcDbEntity
  8
Visible (ANSI)
100
AcDbLine
 10
4.459706318531948
 20
4.72105775968312
 30
0.0
 11
4.900706318531947
 21
4.721057759683252
 31
0.0
  0
LINE
  5
44F
330
37
100
AcDbEntity
  8
Visible (ANSI)
100
AcDbLine
 10
4.900706318531947
 20
4.721057759683051
 30
0.0
 11
4.900706318532029
 21
4.446057759683051
 31
0.0
  0
LINE
  5
450
330
37
100
AcDbEntity
  8
Visible (ANSI)
100
AcDbLine
 10
4.459706318532028
 20
4.44605775968312
 30
0.0
 11
4.900706318532027
 21
4.446057759683252
 31
0.0
  0
LINE
  5
451
330
37
100
AcDbEntity
  8
Visible (ANSI)
100
AcDbLine
 10
4.900706318532027
 20
4.446057759683252
 30
0.0
 11
4.900706318532065
 21
4.328557759683253
 31
0.0
  0
LINE
  5
452
330
37
100
AcDbEntity
  8
Visible (ANSI)
100
AcDbLine
 10
4.459706318532063
 20
4.32855775968312
 30
0.0
 11
4.900706318532065
 21
4.328557759683253
 31
0.0
  0
LINE
  5
453
330
37
100
AcDbEntity
  8
Visible (ANSI)
100
AcDbLine
 10
3.260706318531913
 20
4.838557759682767
 30
0.0
 11
3.260706318531949
 21
4.721057759682766
 31
0.0
  0
LINE
  5
454
330
37
100
AcDbEntity
  8
Visible (ANSI)
100
AcDbLine
 10
3.701706318531948
 20
4.721057759682897
 30
0.0
 11
3.260706318531949
 21
4.721057759682766
 31
0.0
  0
LINE
  5
455
330
37
100
AcDbEntity
  8
Visible (ANSI)
100
AcDbLine
 10
3.701706318531913
 20
4.838557759682896
 30
0.0
 11
3.701706318531948
 21
4.721057759682897
 31
0.0
  0
LINE
  5
456
330
37
100
AcDbEntity
  8
Visible (ANSI)
100
AcDbLine
 10
3.701706318531913
 20
4.838557759682896
 30
0.0
 11
3.260706318531913
 21
4.838557759682767
 31
0.0
  0
LINE
  5
457
330
37
100
AcDbEntity
  8
Visible (ANSI)
100
AcDbLine
 10
3.260706318531949
 20
4.721057759682564
 30
0.0
 11
3.260706318532029
 21
4.446057759682565
 31
0.0
  0
LINE
  5
458
330
37
100
AcDbEntity
  8
Visible (ANSI)
100
AcDbLine
 10
3.701706318531948
 20
4.721057759682696
 30
0.0
 11
3.701706318532029
 21
4.446057759682696
 31
0.0
  0
LINE
  5
459
330
37
100
AcDbEntity
  8
Visible (ANSI)
100
AcDbLine
 10
3.701706318532029
 20
4.446057759682896
 30
0.0
 11
3.260706318532029
 21
4.446057759682767
 31
0.0
  0
LINE
  5
45A
330
37
100
AcDbEntity
  8
Visible (ANSI)
100
AcDbLine
 10
3.260706318532029
 20
4.446057759682767
 30
0.0
 11
3.260706318532065
 21
4.328557759682766
 31
0.0
  0
LINE
  5
45B
330
37
100
AcDbEntity
  8
Visible (ANSI)
100
AcDbLine
 10
3.701706318532065
 20
4.328557759682897
 30
0.0
 11
3.260706318532065
 21
4.328557759682766
 31
0.0
  0
LINE
  5
45C
330
37
100
AcDbEntity
  8
Visible (ANSI)
100
AcDbLine
 10
3.701706318532029
 20
4.446057759682896
 30
0.0
 11
3.701706318532065
 21
4.328557759682897
 31
0.0
  0
LINE
  5
45D
330
37
100
AcDbEntity
  8
Visible (ANSI)
100
AcDbLine
 10
3.156206318532039
 20
4.411057759682613
 30
0.0
 11
2.789206318532039
 21
4.411057759682504
 31
0.0
  0
LINE
  5
45E
330
37
100
AcDbEntity
  8
Visible (ANSI)
100
AcDbLine
 10
2.789206318532039
 20
4.411057759682504
 30
0.0
 11
2.789206318531938
 21
4.756057759682503
 31
0.0
  0
LINE
  5
45F
330
37
100
AcDbEntity
  8
Visible (ANSI)
100
AcDbLine
 10
2.789206318531938
 20
4.756057759682503
 30
0.0
 11
3.156206318531938
 21
4.756057759682613
 31
0.0
  0
LINE
  5
460
330
37
100
AcDbEntity
  8
Visible (ANSI)
100
AcDbLine
 10
3.156206318531938
 20
4.756057759682613
 30
0.0
 11
3.156206318532039
 21
4.411057759682613
 31
0.0
  0
LINE
  5
461
330
37
100
AcDbEntity
  8
Visible (ANSI)
100
AcDbLine
 10
2.789206318531938
 20
4.756057759682381
 30
0.0
 11
2.789206318531932
 21
4.771057759682379
 31
0.0
  0
LINE
  5
462
330
37
100
AcDbEntity
  8
Visible (ANSI)
100
AcDbLine
 10
2.789206318532043
 20
4.396057759682379
 30
0.0
 11
2.789206318532039
 21
4.411057759682381
 31
0.0
  0
ARC
  5
463
330
37
100
AcDbEntity
  8
Visible (ANSI)
100
AcDbCircle
 10
5.563206288070684
 20
0.6326591659143458
 30
0.0
 40
0.0050000609236077
100
AcDbArc
 50
270.0006981288471
 51
359.9993018715291
  0
ARC
  5
464
330
37
100
AcDbEntity
  8
Visible (ANSI)
100
AcDbCircle
 10
5.563206288070903
 20
1.361659104990551
 30
0.0
 40
0.0050000609236077
100
AcDbArc
 50
0.0006981284709119
 51
89.99930187111031
  0
ARC
  5
465
330
37
100
AcDbEntity
  8
Visible (ANSI)
100
AcDbCircle
 10
2.598206348994695
 20
1.36165910499143
 30
0.0
 40
0.0050000609236077
100
AcDbArc
 50
90.00069812884694
 51
179.9993018715291
  0
ARC
  5
466
330
37
100
AcDbEntity
  8
Visible (ANSI)
100
AcDbCircle
 10
2.598206348994478
 20
0.6326591659152255
 30
0.0
 40
0.0050000609236077
100
AcDbArc
 50
180.0006981284709
 51
269.9993018711103
  0
LINE
  5
467
330
37
100
AcDbEntity
  8
Visible (ANSI)
100
AcDbLine
 10
5.47820631853258
 20
0.6276591354524746
 30
0.0
 11
5.563206348994292
 21
0.6276591354524493
 31
0.0
  0
LINE
  5
468
330
37
100
AcDbEntity
  8
Visible (ANSI)
100
AcDbLine
 10
5.568206318532798
 20
1.361659165914157
 30
0.0
 11
5.568206318532582
 21
0.6326591049907366
 31
0.0
  0
LINE
  5
469
330
37
100
AcDbEntity
  8
Visible (ANSI)
100
AcDbLine
 10
5.478206318532809
 20
1.397659135452474
 30
0.0
 11
5.323206318532808
 21
1.397659135452519
 31
0.0
  0
LINE
  5
46A
330
37
100
AcDbEntity
  8
Visible (ANSI)
100
AcDbLine
 10
2.838206318532807
 20
1.397659135453257
 30
0.0
 11
2.683206318532809
 21
1.397659135453302
 31
0.0
  0
LINE
  5
46B
330
37
100
AcDbEntity
  8
Visible (ANSI)
100
AcDbLine
 10
2.593206318532581
 20
0.6326591049916193
 30
0.0
 11
2.593206318532798
 21
1.36165916591504
 31
0.0
  0
LINE
  5
46C
330
37
100
AcDbEntity
  8
Visible (ANSI)
100
AcDbLine
 10
2.598206288070869
 20
0.6276591354533286
 30
0.0
 11
2.68320631853258
 21
0.6276591354533033
 31
0.0
  0
LINE
  5
46D
330
37
100
AcDbEntity
  8
Visible (ANSI)
100
AcDbLine
 10
2.83820631853258
 20
0.6276591354532575
 30
0.0
 11
4.242706318532579
 21
0.6276591354528409
 31
0.0
  0
LINE
  5
46E
330
37
100
AcDbEntity
  8
Visible (ANSI)
100
AcDbLine
 10
4.40270631853258
 20
0.6276591354527933
 30
0.0
 11
5.323206318532581
 21
0.6276591354525203
 31
0.0
  0
LINE
  5
46F
330
37
100
AcDbEntity
  8
Visible (ANSI)
100
AcDbLine
 10
3.57670631853274
 20
1.167078208109235
 30
0.0
 11
3.576706318532779
 21
1.302659135453038
 31
0.0
  0
LINE
  5
470
330
37
100
AcDbEntity
  8
Visible (ANSI)
100
AcDbLine
 10
3.190001152419491
 20
1.043659135453153
 30
0.0
 11
3.453287245876506
 21
1.043659135453074
 31
0.0
  0
LINE
  5
471
330
37
100
AcDbEntity
  8
Visible (ANSI)
100
AcDbLine
 10
3.00420631853278
 20
1.302659135453207
 30
0.0
 11
3.004206318532759
 21
1.229453969339995
 31
0.0
  0
LINE
  5
472
330
37
100
AcDbEntity
  8
Visible (ANSI)
100
AcDbLine
 10
2.942206318532758
 20
1.229453969340014
 30
0.0
 11
2.942206318532781
 21
1.302659135453225
 31
0.0
  0
LINE
  5
473
330
37
100
AcDbEntity
  8
Visible (ANSI)
100
AcDbLine
 10
2.657206318532704
 20
1.04365913545331
 30
0.0
 11
2.756411484645916
 21
1.04365913545328
 31
0.0
  0
LINE
  5
474
330
37
100
AcDbEntity
  8
Visible (ANSI)
100
AcDbLine
 10
2.756411484645897
 20
0.9816591354532814
 30
0.0
 11
2.657206318532685
 21
0.9816591354533111
 31
0.0
  0
LINE
  5
475
330
37
100
AcDbEntity
  8
Visible (ANSI)
100
AcDbLine
 10
2.942206318532608
 20
0.7226591354532265
 30
0.0
 11
2.942206318532631
 21
0.7958643015664385
 31
0.0
  0
LINE
  5
476
330
37
100
AcDbEntity
  8
Visible (ANSI)
100
AcDbLine
 10
3.762125391188901
 20
1.043659135452982
 30
0.0
 11
3.791206318532703
 21
1.043659135452974
 31
0.0
  0
LINE
  5
477
330
37
100
AcDbEntity
  8
Visible (ANSI)
100
AcDbLine
 10
3.638706318532781
 20
1.302659135453019
 30
0.0
 11
3.638706318532741
 21
1.167078208109217
 31
0.0
  0
LINE
  5
478
330
37
100
AcDbEntity
  8
Visible (ANSI)
100
AcDbLine
 10
3.004206318532631
 20
0.7958643015664201
 30
0.0
 11
3.004206318532608
 21
0.7226591354532081
 31
0.0
  0
LINE
  5
479
330
37
100
AcDbEntity
  8
Visible (ANSI)
100
AcDbLine
 10
3.453287245876488
 20
0.981659135453075
 30
0.0
 11
3.190001152419473
 21
0.981659135453153
 31
0.0
  0
LINE
  5
47A
330
37
100
AcDbEntity
  8
Visible (ANSI)
100
AcDbLine
 10
3.576706318532608
 20
0.7226591354530381
 30
0.0
 11
3.576706318532648
 21
0.8582400627968407
 31
0.0
  0
LINE
  5
47B
330
37
100
AcDbEntity
  8
Visible (ANSI)
100
AcDbLine
 10
3.638706318532648
 20
0.8582400627968224
 30
0.0
 11
3.638706318532608
 21
0.7226591354530198
 31
0.0
  0
LINE
  5
47C
330
37
100
AcDbEntity
  8
Visible (ANSI)
100
AcDbLine
 10
3.791206318532684
 20
0.981659135452975
 30
0.0
 11
3.762125391188883
 21
0.9816591354529835
 31
0.0
  0
ARC
  5
47D
330
37
100
AcDbEntity
  8
Visible (ANSI)
100
AcDbCircle
 10
3.607706318532694
 20
1.012659135453027
 30
0.0
 40
0.1575
100
AcDbArc
 50
101.3513779619492
 51
168.648622038017
  0
ARC
  5
47E
330
37
100
AcDbEntity
  8
Visible (ANSI)
100
AcDbCircle
 10
3.607706318532694
 20
1.012659135453029
 30
0.0
 40
0.1574999999999999
100
AcDbArc
 50
11.35137796194894
 51
78.64862203801701
  0
ARC
  5
47F
330
37
100
AcDbEntity
  8
Visible (ANSI)
100
AcDbCircle
 10
3.607706318532694
 20
1.012659135453029
 30
0.0
 40
0.1575000000000002
100
AcDbArc
 50
191.351377961949
 51
258.6486220380169
  0
ARC
  5
480
330
37
100
AcDbEntity
  8
Visible (ANSI)
100
AcDbCircle
 10
3.607706318532694
 20
1.012659135453029
 30
0.0
 40
0.1575
100
AcDbArc
 50
281.3513779619491
 51
348.6486220380171
  0
ARC
  5
481
330
37
100
AcDbEntity
  8
Visible (ANSI)
100
AcDbCircle
 10
2.973206318532694
 20
1.012659135453217
 30
0.0
 40
0.2189999999999998
100
AcDbArc
 50
8.137693356870013
 51
81.86230664309603
  0
ARC
  5
482
330
37
100
AcDbEntity
  8
Visible (ANSI)
100
AcDbCircle
 10
2.973206318532694
 20
1.012659135453217
 30
0.0
 40
0.2189999999999999
100
AcDbArc
 50
98.13769335686995
 51
171.862306643096
  0
ARC
  5
483
330
37
100
AcDbEntity
  8
Visible (ANSI)
100
AcDbCircle
 10
2.973206318532694
 20
1.012659135453217
 30
0.0
 40
0.2189999999999999
100
AcDbArc
 50
188.1376933568698
 51
261.8623066430961
  0
ARC
  5
484
330
37
100
AcDbEntity
  8
Visible (ANSI)
100
AcDbCircle
 10
2.973206318532694
 20
1.012659135453217
 30
0.0
 40
0.2189999999999999
100
AcDbArc
 50
278.13769335687
 51
351.8623066430961
  0
LINE
  5
485
330
37
100
AcDbEntity
  8
Visible (ANSI)
100
AcDbLine
 10
3.00420631853278
 20
1.302659135453207
 30
0.0
 11
3.576706318532779
 21
1.302659135453038
 31
0.0
  0
LINE
  5
486
330
37
100
AcDbEntity
  8
Visible (ANSI)
100
AcDbLine
 10
2.657206318532704
 20
1.04365913545331
 30
0.0
 11
2.65720631853278
 21
1.302659135453311
 31
0.0
  0
LINE
  5
487
330
37
100
AcDbEntity
  8
Visible (ANSI)
100
AcDbLine
 10
2.65720631853278
 20
1.302659135453311
 30
0.0
 11
2.942206318532781
 21
1.302659135453225
 31
0.0
  0
LINE
  5
488
330
37
100
AcDbEntity
  8
Visible (ANSI)
100
AcDbLine
 10
4.584706318532781
 20
1.302659135452739
 30
0.0
 11
5.15720631853278
 21
1.302659135452569
 31
0.0
  0
LINE
  5
489
330
37
100
AcDbEntity
  8
Visible (ANSI)
100
AcDbLine
 10
2.942206318532608
 20
0.7226591354532265
 30
0.0
 11
2.657206318532608
 21
0.7226591354533111
 31
0.0
  0
LINE
  5
48A
330
37
100
AcDbEntity
  8
Visible (ANSI)
100
AcDbLine
 10
2.657206318532608
 20
0.7226591354533111
 30
0.0
 11
2.657206318532685
 21
0.9816591354533111
 31
0.0
  0
LINE
  5
48B
330
37
100
AcDbEntity
  8
Visible (ANSI)
100
AcDbLine
 10
3.638706318532781
 20
1.302659135453019
 30
0.0
 11
3.79120631853278
 21
1.302659135452974
 31
0.0
  0
LINE
  5
48C
330
37
100
AcDbEntity
  8
Visible (ANSI)
100
AcDbLine
 10
3.576706318532608
 20
0.7226591354530381
 30
0.0
 11
3.004206318532608
 21
0.7226591354532081
 31
0.0
  0
LINE
  5
48D
330
37
100
AcDbEntity
  8
Visible (ANSI)
100
AcDbLine
 10
3.791206318532608
 20
0.7226591354529745
 30
0.0
 11
3.638706318532608
 21
0.7226591354530198
 31
0.0
  0
LINE
  5
48E
330
37
100
AcDbEntity
  8
Visible (ANSI)
100
AcDbLine
 10
4.370206318532781
 20
1.302659135452802
 30
0.0
 11
4.52270631853278
 21
1.302659135452757
 31
0.0
  0
LINE
  5
48F
330
37
100
AcDbEntity
  8
Visible (ANSI)
100
AcDbLine
 10
4.52270631853261
 20
0.7226591354527577
 30
0.0
 11
4.370206318532607
 21
0.722659135452803
 31
0.0
  0
LINE
  5
490
330
37
100
AcDbEntity
  8
Visible (ANSI)
100
AcDbLine
 10
5.219206318532781
 20
1.302659135452551
 30
0.0
 11
5.504206318532781
 21
1.302659135452465
 31
0.0
  0
LINE
  5
491
330
37
100
AcDbEntity
  8
Visible (ANSI)
100
AcDbLine
 10
5.504206318532781
 20
1.302659135452465
 30
0.0
 11
5.504206318532704
 21
1.043659135452466
 31
0.0
  0
LINE
  5
492
330
37
100
AcDbEntity
  8
Visible (ANSI)
100
AcDbLine
 10
5.157206318532607
 20
0.7226591354525695
 30
0.0
 11
4.584706318532608
 21
0.7226591354527391
 31
0.0
  0
LINE
  5
493
330
37
100
AcDbEntity
  8
Visible (ANSI)
100
AcDbLine
 10
5.504206318532686
 20
0.9816591354524664
 30
0.0
 11
5.504206318532609
 21
0.7226591354524662
 31
0.0
  0
LINE
  5
494
330
37
100
AcDbEntity
  8
Visible (ANSI)
100
AcDbLine
 10
5.504206318532609
 20
0.7226591354524662
 30
0.0
 11
5.219206318532608
 21
0.7226591354525512
 31
0.0
  0
LINE
  5
495
330
37
100
AcDbEntity
  8
Visible (ANSI)
100
AcDbLine
 10
5.15720631853278
 20
1.302659135452569
 30
0.0
 11
5.157206318532757
 21
1.229453969339356
 31
0.0
  0
ARC
  5
496
330
37
100
AcDbEntity
  8
Visible (ANSI)
100
AcDbCircle
 10
5.188206318532695
 20
1.01265913545256
 30
0.0
 40
0.2189999999999998
100
AcDbArc
 50
98.13769335687007
 51
171.862306643096
  0
LINE
  5
497
330
37
100
AcDbEntity
  8
Visible (ANSI)
100
AcDbLine
 10
4.971411484645916
 20
1.043659135452623
 30
0.0
 11
4.708125391188901
 21
1.043659135452702
 31
0.0
  0
ARC
  5
498
330
37
100
AcDbEntity
  8
Visible (ANSI)
100
AcDbCircle
 10
4.553706318532695
 20
1.012659135452747
 30
0.0
 40
0.1575
100
AcDbArc
 50
11.351377961949
 51
78.64862203801717
  0
LINE
  5
499
330
37
100
AcDbEntity
  8
Visible (ANSI)
100
AcDbLine
 10
4.584706318532741
 20
1.167078208108936
 30
0.0
 11
4.584706318532781
 21
1.302659135452739
 31
0.0
  0
LINE
  5
49A
330
37
100
AcDbEntity
  8
Visible (ANSI)
100
AcDbLine
 10
4.52270631853278
 20
1.302659135452757
 30
0.0
 11
4.52270631853274
 21
1.167078208108955
 31
0.0
  0
ARC
  5
49B
330
37
100
AcDbEntity
  8
Visible (ANSI)
100
AcDbCircle
 10
4.553706318532695
 20
1.012659135452747
 30
0.0
 40
0.1574999999999999
100
AcDbArc
 50
101.3513779619489
 51
168.648622038017
  0
LINE
  5
49C
330
37
100
AcDbEntity
  8
Visible (ANSI)
100
AcDbLine
 10
4.399287245876505
 20
1.043659135452792
 30
0.0
 11
4.370206318532702
 21
1.043659135452801
 31
0.0
  0
LINE
  5
49D
330
37
100
AcDbEntity
  8
Visible (ANSI)
100
AcDbLine
 10
4.370206318532686
 20
0.9816591354528029
 30
0.0
 11
4.399287245876488
 21
0.9816591354527943
 31
0.0
  0
ARC
  5
49E
330
37
100
AcDbEntity
  8
Visible (ANSI)
100
AcDbCircle
 10
4.553706318532695
 20
1.012659135452747
 30
0.0
 40
0.1575
100
AcDbArc
 50
191.3513779619489
 51
258.6486220380168
  0
LINE
  5
49F
330
37
100
AcDbEntity
  8
Visible (ANSI)
100
AcDbLine
 10
4.52270631853265
 20
0.8582400627965601
 30
0.0
 11
4.52270631853261
 21
0.7226591354527577
 31
0.0
  0
LINE
  5
4A0
330
37
100
AcDbEntity
  8
Visible (ANSI)
100
AcDbLine
 10
5.504206318532704
 20
1.043659135452466
 30
0.0
 11
5.40500115241949
 21
1.043659135452496
 31
0.0
  0
ARC
  5
4A1
330
37
100
AcDbEntity
  8
Visible (ANSI)
100
AcDbCircle
 10
5.188206318532695
 20
1.01265913545256
 30
0.0
 40
0.2189999999999999
100
AcDbArc
 50
8.137693356869968
 51
81.86230664309617
  0
LINE
  5
4A2
330
37
100
AcDbEntity
  8
Visible (ANSI)
100
AcDbLine
 10
5.219206318532759
 20
1.229453969339338
 30
0.0
 11
5.219206318532781
 21
1.302659135452551
 31
0.0
  0
LINE
  5
4A3
330
37
100
AcDbEntity
  8
Visible (ANSI)
100
AcDbLine
 10
4.584706318532608
 20
0.7226591354527391
 30
0.0
 11
4.584706318532648
 21
0.8582400627965418
 31
0.0
  0
ARC
  5
4A4
330
37
100
AcDbEntity
  8
Visible (ANSI)
100
AcDbCircle
 10
4.553706318532695
 20
1.012659135452747
 30
0.0
 40
0.1575000000000002
100
AcDbArc
 50
281.3513779619492
 51
348.6486220380171
  0
LINE
  5
4A5
330
37
100
AcDbEntity
  8
Visible (ANSI)
100
AcDbLine
 10
4.708125391188882
 20
0.9816591354527027
 30
0.0
 11
4.971411484645898
 21
0.9816591354526243
 31
0.0
  0
ARC
  5
4A6
330
37
100
AcDbEntity
  8
Visible (ANSI)
100
AcDbCircle
 10
5.188206318532695
 20
1.01265913545256
 30
0.0
 40
0.2189999999999999
100
AcDbArc
 50
188.13769335687
 51
261.8623066430958
  0
LINE
  5
4A7
330
37
100
AcDbEntity
  8
Visible (ANSI)
100
AcDbLine
 10
5.15720631853263
 20
0.7958643015657815
 30
0.0
 11
5.157206318532607
 21
0.7226591354525695
 31
0.0
  0
LINE
  5
4A8
330
37
100
AcDbEntity
  8
Visible (ANSI)
100
AcDbLine
 10
5.219206318532608
 20
0.7226591354525512
 30
0.0
 11
5.219206318532631
 21
0.7958643015657632
 31
0.0
  0
ARC
  5
4A9
330
37
100
AcDbEntity
  8
Visible (ANSI)
100
AcDbCircle
 10
5.188206318532695
 20
1.01265913545256
 30
0.0
 40
0.2189999999999999
100
AcDbArc
 50
278.13769335687
 51
351.8623066430961
  0
LINE
  5
4AA
330
37
100
AcDbEntity
  8
Visible (ANSI)
100
AcDbLine
 10
5.405001152419472
 20
0.9816591354524955
 30
0.0
 11
5.504206318532686
 21
0.9816591354524664
 31
0.0
  0
LINE
  5
4AB
330
37
100
AcDbEntity
  8
Visible (ANSI)
100
AcDbLine
 10
5.563206348994509
 20
1.366659135452448
 30
0.0
 11
5.4782063185328
 21
1.366659135452473
 31
0.0
  0
LINE
  5
4AC
330
37
100
AcDbEntity
  8
Visible (ANSI)
100
AcDbLine
 10
5.4782063185328
 20
1.366659135452473
 30
0.0
 11
5.478206318532809
 21
1.397659135452474
 31
0.0
  0
LINE
  5
4AD
330
37
100
AcDbEntity
  8
Visible (ANSI)
100
AcDbLine
 10
5.323206318532808
 20
1.397659135452519
 30
0.0
 11
5.3232063185328
 21
1.366659135452519
 31
0.0
  0
LINE
  5
4AE
330
37
100
AcDbEntity
  8
Visible (ANSI)
100
AcDbLine
 10
5.3232063185328
 20
1.366659135452519
 30
0.0
 11
2.838206318532798
 21
1.366659135453256
 31
0.0
  0
LINE
  5
4AF
330
37
100
AcDbEntity
  8
Visible (ANSI)
100
AcDbLine
 10
2.838206318532798
 20
1.366659135453256
 30
0.0
 11
2.838206318532807
 21
1.397659135453257
 31
0.0
  0
LINE
  5
4B0
330
37
100
AcDbEntity
  8
Visible (ANSI)
100
AcDbLine
 10
2.683206318532809
 20
1.397659135453302
 30
0.0
 11
2.683206318532799
 21
1.366659135453302
 31
0.0
  0
LINE
  5
4B1
330
37
100
AcDbEntity
  8
Visible (ANSI)
100
AcDbLine
 10
2.683206318532799
 20
1.366659135453302
 30
0.0
 11
2.598206288071088
 21
1.366659135453327
 31
0.0
  0
LINE
  5
4B2
330
37
100
AcDbEntity
  8
Visible (ANSI)
100
AcDbLine
 10
2.68320631853258
 20
0.6276591354533033
 30
0.0
 11
2.683206318532588
 21
0.6586591354533035
 31
0.0
  0
LINE
  5
4B3
330
37
100
AcDbEntity
  8
Visible (ANSI)
100
AcDbLine
 10
2.683206318532588
 20
0.6586591354533035
 30
0.0
 11
2.838206318532589
 21
0.6586591354532576
 31
0.0
  0
LINE
  5
4B4
330
37
100
AcDbEntity
  8
Visible (ANSI)
100
AcDbLine
 10
2.838206318532589
 20
0.6586591354532576
 30
0.0
 11
2.83820631853258
 21
0.6276591354532575
 31
0.0
  0
LINE
  5
4B5
330
37
100
AcDbEntity
  8
Visible (ANSI)
100
AcDbLine
 10
5.323206318532581
 20
0.6276591354525203
 30
0.0
 11
5.323206318532592
 21
0.6586591354525204
 31
0.0
  0
LINE
  5
4B6
330
37
100
AcDbEntity
  8
Visible (ANSI)
100
AcDbLine
 10
5.323206318532592
 20
0.6586591354525204
 30
0.0
 11
5.478206318532589
 21
0.6586591354524744
 31
0.0
  0
LINE
  5
4B7
330
37
100
AcDbEntity
  8
Visible (ANSI)
100
AcDbLine
 10
5.478206318532589
 20
0.6586591354524744
 30
0.0
 11
5.47820631853258
 21
0.6276591354524746
 31
0.0
  0
LINE
  5
4B8
330
37
100
AcDbEntity
  8
Visible (ANSI)
100
AcDbLine
 10
4.242706318532579
 20
0.6276591354528409
 30
0.0
 11
4.242706318532594
 21
0.6709277618027691
 31
0.0
  0
LINE
  5
4B9
330
37
100
AcDbEntity
  8
Visible (ANSI)
100
AcDbLine
 10
4.242706318532594
 20
0.6709277618027691
 30
0.0
 11
4.402706318532593
 21
0.6709277618027218
 31
0.0
  0
LINE
  5
4BA
330
37
100
AcDbEntity
  8
Visible (ANSI)
100
AcDbLine
 10
4.402706318532593
 20
0.6709277618027218
 30
0.0
 11
4.40270631853258
 21
0.6276591354527933
 31
0.0
  0
LINE
  5
4BB
330
37
100
AcDbEntity
  8
Visible (ANSI)
100
AcDbLine
 10
4.40270631853258
 20
0.6279802773395275
 30
0.0
 11
4.242706318532579
 21
0.627980277339575
 31
0.0
  0
LINE
  5
4BC
330
37
100
AcDbEntity
  8
Visible (ANSI)
100
AcDbLine
 10
3.791206318532703
 20
1.043659135452974
 30
0.0
 11
3.79120631853278
 21
1.302659135452974
 31
0.0
  0
LINE
  5
4BD
330
37
100
AcDbEntity
  8
Visible (ANSI)
100
AcDbLine
 10
3.791206318532608
 20
0.7226591354529745
 30
0.0
 11
3.791206318532684
 21
0.981659135452975
 31
0.0
  0
LINE
  5
4BE
330
37
100
AcDbEntity
  8
Visible (ANSI)
100
AcDbLine
 10
4.370206318532781
 20
1.302659135452802
 30
0.0
 11
4.370206318532702
 21
1.043659135452801
 31
0.0
  0
LINE
  5
4BF
330
37
100
AcDbEntity
  8
Visible (ANSI)
100
AcDbLine
 10
4.370206318532686
 20
0.9816591354528029
 30
0.0
 11
4.370206318532607
 21
0.722659135452803
 31
0.0
  0
ARC
  5
4C0
330
37
100
AcDbEntity
  8
Visible (ANSI)
100
AcDbCircle
 10
4.080706318532643
 20
0.8431591354528887
 30
0.0
 40
0.0885
100
AcDbArc
 50
180.0
 51
0.0
  0
LINE
  5
4C1
330
37
100
AcDbEntity
  8
Visible (ANSI)
100
AcDbLine
 10
3.992206318532645
 20
0.843159135452915
 30
0.0
 11
3.992206318532745
 21
1.182159135452915
 31
0.0
  0
ARC
  5
4C2
330
37
100
AcDbEntity
  8
Visible (ANSI)
100
AcDbCircle
 10
4.080706318532745
 20
1.182159135452887
 30
0.0
 40
0.0885
100
AcDbArc
 50
0.0
 51
180.0
  0
LINE
  5
4C3
330
37
100
AcDbEntity
  8
Visible (ANSI)
100
AcDbLine
 10
4.169206318532745
 20
1.182159135452861
 30
0.0
 11
4.169206318532642
 21
0.8431591354528626
 31
0.0
  0
LINE
  5
4C4
330
37
100
AcDbEntity
  8
Visible (ANSI)
100
AcDbLine
 10
5.503391187022367
 20
1.043659135452519
 30
0.0
 11
5.503391187022428
 21
1.24865913545252
 31
0.0
  0
LINE
  5
4C5
330
37
100
AcDbEntity
  8
Visible (ANSI)
100
AcDbLine
 10
5.503391187022288
 20
0.7766591354525204
 30
0.0
 11
5.503391187022348
 21
0.9816591354525204
 31
0.0
  0
LINE
  5
4C6
330
37
100
AcDbEntity
  8
Visible (ANSI)
100
AcDbLine
 10
4.917206318532624
 20
0.7766591354526944
 30
0.0
 11
5.157206318532624
 21
0.7766591354526231
 31
0.0
  0
LINE
  5
4C7
330
37
100
AcDbEntity
  8
Visible (ANSI)
100
AcDbLine
 10
5.219206318532624
 20
0.7766591354526048
 30
0.0
 11
5.503391187022288
 21
0.7766591354525204
 31
0.0
  0
LINE
  5
4C8
330
37
100
AcDbEntity
  8
Visible (ANSI)
100
AcDbLine
 10
5.157206318532765
 20
1.248659135452623
 30
0.0
 11
4.917206318532764
 21
1.248659135452694
 31
0.0
  0
LINE
  5
4C9
330
37
100
AcDbEntity
  8
Visible (ANSI)
100
AcDbLine
 10
4.917206318532764
 20
1.248659135452694
 30
0.0
 11
4.917206318532705
 21
1.043659135452694
 31
0.0
  0
LINE
  5
4CA
330
37
100
AcDbEntity
  8
Visible (ANSI)
100
AcDbLine
 10
4.917206318532686
 20
0.9816591354526945
 30
0.0
 11
4.917206318532624
 21
0.7766591354526944
 31
0.0
  0
LINE
  5
4CB
330
37
100
AcDbEntity
  8
Visible (ANSI)
100
AcDbLine
 10
5.503391187022428
 20
1.24865913545252
 30
0.0
 11
5.219206318532765
 21
1.248659135452603
 31
0.0
  0
LINE
  5
4CC
330
37
100
AcDbEntity
  8
Visible (ANSI)
100
AcDbLine
 10
2.942206318532623
 20
0.7766591354532803
 30
0.0
 11
2.658021450042961
 21
0.7766591354533646
 31
0.0
  0
LINE
  5
4CD
330
37
100
AcDbEntity
  8
Visible (ANSI)
100
AcDbLine
 10
3.244206318532763
 20
1.248659135453189
 30
0.0
 11
3.244206318532703
 21
1.043659135453189
 31
0.0
  0
LINE
  5
4CE
330
37
100
AcDbEntity
  8
Visible (ANSI)
100
AcDbLine
 10
3.244206318532685
 20
0.9816591354531903
 30
0.0
 11
3.244206318532623
 21
0.7766591354531906
 31
0.0
  0
LINE
  5
4CF
330
37
100
AcDbEntity
  8
Visible (ANSI)
100
AcDbLine
 10
2.658021450043041
 20
1.043659135453363
 30
0.0
 11
2.658021450043102
 21
1.248659135453364
 31
0.0
  0
LINE
  5
4D0
330
37
100
AcDbEntity
  8
Visible (ANSI)
100
AcDbLine
 10
2.658021450043102
 20
1.248659135453364
 30
0.0
 11
2.942206318532764
 21
1.24865913545328
 31
0.0
  0
LINE
  5
4D1
330
37
100
AcDbEntity
  8
Visible (ANSI)
100
AcDbLine
 10
2.658021450042961
 20
0.7766591354533646
 30
0.0
 11
2.658021450043023
 21
0.9816591354533644
 31
0.0
  0
LINE
  5
4D2
330
37
100
AcDbEntity
  8
Visible (ANSI)
100
AcDbLine
 10
3.004206318532764
 20
1.248659135453261
 30
0.0
 11
3.244206318532763
 21
1.248659135453189
 31
0.0
  0
LINE
  5
4D3
330
37
100
AcDbEntity
  8
Visible (ANSI)
100
AcDbLine
 10
3.244206318532623
 20
0.7766591354531906
 30
0.0
 11
3.004206318532624
 21
0.776659135453262
 31
0.0
  0
LINE
  5
4D4
330
37
100
AcDbEntity
  8
Center Mark (ANSI)
  6
Continuous
100
AcDbLine
 10
4.210872985198606
 20
4.753057759682681
 30
0.0
 11
3.950539651865272
 21
4.753057759682681
 31
0.0
  0
LINE
  5
4D5
330
37
100
AcDbEntity
  8
Center Mark (ANSI)
  6
Continuous
100
AcDbLine
 10
4.080706318531937
 20
4.883224426349348
 30
0.0
 11
4.080706318531937
 21
4.753057759682681
 31
0.0
  0
LINE
  5
4D6
330
37
100
AcDbEntity
  8
Center Mark (ANSI)
  6
Continuous
100
AcDbLine
 10
4.210872985199411
 20
1.182159135452887
 30
0.0
 11
3.950539651866078
 21
1.182159135452887
 31
0.0
  0
LINE
  5
4D7
330
37
100
AcDbEntity
  8
Center Mark (ANSI)
  6
Continuous
100
AcDbLine
 10
4.080706318532745
 20
1.312325802119554
 30
0.0
 11
4.080706318532745
 21
1.182159135452887
 31
0.0
  0
LINE
  5
4D8
330
37
100
AcDbEntity
  8
Center Mark (ANSI)
  6
Continuous
100
AcDbLine
 10
4.21087298519931
 20
0.8431591354528887
 30
0.0
 11
3.950539651865978
 21
0.8431591354528887
 31
0.0
  0
LINE
  5
4D9
330
37
100
AcDbEntity
  8
Center Mark (ANSI)
  6
Continuous
100
AcDbLine
 10
4.080706318532643
 20
0.8431591354528887
 30
0.0
 11
4.080706318532643
 21
0.7129924687862223
 31
0.0
  0
DIMENSION
  5
4DA
330
37
100
AcDbEntity
  8
Dimension (ANSI)
100
AcDbDimension
  2
*D10
 10
5.568206318532799
 20
1.668861031219314
 30
0.0
 11
4.069707630868848
 21
1.668861031219314
 31
0.0
 70
   160
  1
<>
 71
     5
 42
2.975
  3
Default - mm (ANSI)
100
AcDbAlignedDimension
 13
2.593206318532798
 23
1.36165916591504
 33
0.0
 14
5.568206318532799
 24
1.361659165914157
 34
0.0
 50
359.9999999999831
100
AcDbRotatedDimension
1001
ACAD
1000
DSTYLE
1002
{
1070
    73
1070
     0
1070
    74
1070
     0
1070
   271
1070
     3
1070
   272
1070
     2
1070
    48
1040
0.0
1070
    47
1040
0.0
1002
}
  0
DIMENSION
  5
5BB
330
37
100
AcDbEntity
  8
Dimension (ANSI)
100
AcDbDimension
  2
*D11
 10
5.848140701734594
 20
3.546590369027233
 30
0.0
 11
5.848140701734593
 21
2.955753978280586
 31
0.0
 70
   160
  1
<>
 71
     5
 42
1.234010471954245
  3
Default - mm (ANSI)
100
AcDbAlignedDimension
 13
5.323206318532494
 23
2.312579897072988
 33
0.0
 14
5.314759501500924
 24
3.546590369027233
 34
0.0
 50
90.0
100
AcDbRotatedDimension
1001
ACAD
1000
DSTYLE
1002
{
1070
   271
1070
     3
1070
   272
1070
     2
1070
    48
1040
0.0
1070
    47
1040
0.0
1002
}
  0
DIMENSION
  5
687
330
37
100
AcDbEntity
  8
Dimension (ANSI)
100
AcDbDimension
  2
*D12
 10
5.851920259755447
 20
0.6276591354524492
 30
0.0
 11
5.851920259755447
 21
1.039824490031532
 31
0.0
 70
   160
  1
<>
 71
     5
 42
0.7700000000000477
  3
Default - mm (ANSI)
100
AcDbAlignedDimension
 13
5.400706318532811
 23
1.397659135452496
 33
0.0
 14
5.563206348994293
 24
0.6276591354524493
 34
0.0
 50
90.0
100
AcDbRotatedDimension
1001
ACAD
1000
DSTYLE
1002
{
1070
   271
1070
     3
1070
   272
1070
     2
1070
    48
1040
0.0
1070
    47
1040
0.0
1002
}
  0
LINE
  5
753
330
37
100
AcDbEntity
  8
Centerline (ANSI)
  6
Continuous
100
AcDbLine
 10
1.388607845043971
 20
2.27091323040632
 30
0.0
 11
1.388607845043971
 21
3.436349394217408
 31
0.0
  0
LINE
  5
754
330
37
100
AcDbEntity
  8
Centerline (ANSI)
  6
Continuous
100
AcDbLine
 10
4.080706318532492
 20
2.27091323040632
 30
0.0
 11
4.080706318532491
 21
3.342119226593459
 31
0.0
  0
LINE
  5
755
330
37
100
AcDbEntity
  8
Centerline (ANSI)
  6
Continuous
100
AcDbLine
 10
4.08070631853257
 20
0.5909924383245114
 30
0.0
 11
4.08070631853281
 21
1.403325832581265
 31
0.0
  0
LINE
  5
756
330
37
100
AcDbEntity
  8
Centerline (ANSI)
  6
Continuous
100
AcDbLine
 10
4.080706318531865
 20
5.005224456811032
 30
0.0
 11
4.080706318532103
 21
4.192891062554276
 31
0.0
  0
LINE
  5
757
330
37
100
AcDbEntity
  8
Center Mark (ANSI)
  6
Continuous
100
AcDbLine
 10
4.210872985198705
 20
4.414057759682681
 30
0.0
 11
3.950539651865373
 21
4.414057759682681
 31
0.0
  0
LINE
  5
758
330
37
100
AcDbEntity
  8
Center Mark (ANSI)
  6
Continuous
100
AcDbLine
 10
4.08070631853204
 20
4.414057759682681
 30
0.0
 11
4.08070631853204
 21
4.283891093016015
 31
0.0
  0
ENDSEC
  0
SECTION
  2
OBJECTS
  0
DICTIONARY
  5
C
330
0
100
AcDbDictionary
281
     1
  3
ACAD_COLOR
350
30
  3
ACAD_GROUP
350
D
  3
ACAD_LAYOUT
350
2F
  3
ACAD_MATERIAL
350
10
  3
ACAD_MLINESTYLE
350
2C
  3
ACAD_PLOTSETTINGS
350
2E
  3
ACAD_PLOTSTYLENAME
350
E
  3
ACAD_TABLESTYLE
350
31
  3
ACAD_VISUALSTYLE
350
14
  3
AcDbVariableDictionary
350
759
  0
DICTIONARY
  5
30
102
{ACAD_REACTORS
330
C
102
}
330
C
100
AcDbDictionary
281
     1
  0
DICTIONARY
  5
D
102
{ACAD_REACTORS
330
C
102
}
330
C
100
AcDbDictionary
281
     1
  0
DICTIONARY
  5
2F
102
{ACAD_REACTORS
330
C
102
}
330
C
100
AcDbDictionary
281
     1
  3
Layout1
350
36
  3
Layout2
350
3E
  3
Model
350
3A
  0
DICTIONARY
  5
10
102
{ACAD_REACTORS
330
C
102
}
330
C
100
AcDbDictionary
281
     1
  3
ByBlock
350
12
  3
ByLayer
350
11
  3
Global
350
13
  0
DICTIONARY
  5
2C
102
{ACAD_REACTORS
330
C
102
}
330
C
100
AcDbDictionary
281
     1
  3
Standard
350
2D
  0
DICTIONARY
  5
2E
102
{ACAD_REACTORS
330
C
102
}
330
C
100
AcDbDictionary
281
     1
  0
ACDBDICTIONARYWDFLT
  5
E
102
{ACAD_REACTORS
330
C
102
}
330
C
100
AcDbDictionary
281
     1
  3
Normal
350
F
100
AcDbDictionaryWithDefault
340
F
  0
DICTIONARY
  5
31
102
{ACAD_REACTORS
330
C
102
}
330
C
100
AcDbDictionary
281
     1
  3
Standard
350
32
  0
DICTIONARY
  5
14
102
{ACAD_REACTORS
330
C
102
}
330
C
100
AcDbDictionary
281
     1
  3
2dWireframe
350
1A
  3
3D Hidden
350
1C
  3
3dWireframe
350
1B
  3
Basic
350
19
  3
Brighten
350
20
  3
ColorChange
350
24
  3
Conceptual
350
1D
  3
Dim
350
1F
  3
Facepattern
350
23
  3
Flat
350
15
  3
FlatWithEdges
350
16
  3
Gouraud
350
17
  3
GouraudWithEdges
350
18
  3
Linepattern
350
22
  3
Realistic
350
1E
  3
Thicken
350
21
  0
DICTIONARY
  5
759
102
{ACAD_REACTORS
330
C
102
}
330
C
100
AcDbDictionary
281
     1
  3
CTABLESTYLE
350
75A
  0
LAYOUT
  5
36
102
{ACAD_REACTORS
330
2F
102
}
330
2F
100
AcDbPlotSettings
  1

  2

  4

  6

 40
0.0
 41
0.0
 42
0.0
 43
0.0
 44
0.0
 45
0.0
 46
0.0
 47
0.0
 48
0.0
 49
0.0
140
0.0
141
0.0
142
1.0
143
1.0
 70
   688
 72
     0
 73
     0
 74
     5
  7

 75
    16
147
1.0
 76
     0
 77
     2
 78
   300
148
0.0
149
0.0
100
AcDbLayout
  1
Layout1
 70
     1
 71
     1
 10
0.0
 20
0.0
 11
7.333333333333332
 21
5.666666666666666
 12
0.0
 22
0.0
 32
0.0
 14
0.0
 24
0.0
 34
0.0
 15
7.333333333333332
 25
5.666666666666666
 35
0.0
146
0.0
 13
0.0
 23
0.0
 33
0.0
 16
1.0
 26
0.0
 36
0.0
 17
0.0
 27
1.0
 37
0.0
 76
     0
330
33
  0
LAYOUT
  5
3E
102
{ACAD_REACTORS
330
2F
102
}
330
2F
100
AcDbPlotSettings
  1

  2

  4

  6

 40
0.0
 41
0.0
 42
0.0
 43
0.0
 44
0.0
 45
0.0
 46
0.0
 47
0.0
 48
0.0
 49
0.0
140
0.0
141
0.0
142
1.0
143
1.0
 70
   688
 72
     0
 73
     0
 74
     5
  7

 75
    16
147
1.0
 76
     0
 77
     2
 78
   300
148
0.0
149
0.0
100
AcDbLayout
  1
Layout2
 70
     1
 71
     2
 10
0.0
 20
0.0
 11
12.0
 21
9.0
 12
0.0
 22
0.0
 32
0.0
 14
0.0
 24
0.0
 34
0.0
 15
0.0
 25
0.0
 35
0.0
146
0.0
 13
0.0
 23
0.0
 33
0.0
 16
1.0
 26
0.0
 36
0.0
 17
0.0
 27
1.0
 37
0.0
 76
     0
330
3B
  0
LAYOUT
  5
3A
102
{ACAD_REACTORS
330
2F
102
}
330
2F
100
AcDbPlotSettings
  1

  2

  4

  6

 40
0.0
 41
0.0
 42
0.0
 43
0.0
 44
0.0
 45
0.0
 46
0.0
 47
0.0
 48
0.0
 49
0.0
140
0.0
141
0.0
142
1.0
143
1.0
 70
  1712
 72
     0
 73
     0
 74
     0
  7

 75
     0
147
1.0
 76
     0
 77
     2
 78
   300
148
0.0
149
0.0
100
AcDbLayout
  1
Model
 70
     1
 71
     0
 10
0.0
 20
0.0
 11
12.0
 21
9.0
 12
0.0
 22
0.0
 32
0.0
 14
0.0
 24
0.0
 34
0.0
 15
0.0
 25
0.0
 35
0.0
146
0.0
 13
0.0
 23
0.0
 33
0.0
 16
1.0
 26
0.0
 36
0.0
 17
0.0
 27
1.0
 37
0.0
 76
     0
330
37
  0
MATERIAL
  5
12
102
{ACAD_XDICTIONARY
360
75D
102
}
102
{ACAD_REACTORS
330
10
102
}
330
10
100
AcDbMaterial
  1
ByBlock
  0
MATERIAL
  5
11
102
{ACAD_XDICTIONARY
360
75B
102
}
102
{ACAD_REACTORS
330
10
102
}
330
10
100
AcDbMaterial
  1
ByLayer
  0
MATERIAL
  5
13
102
{ACAD_XDICTIONARY
360
75F
102
}
102
{ACAD_REACTORS
330
10
102
}
330
10
100
AcDbMaterial
  1
Global
  0
MLINESTYLE
  5
2D
102
{ACAD_REACTORS
330
2C
102
}
330
2C
100
AcDbMlineStyle
  2
STANDARD
 70
     0
  3

 62
   256
 51
90.0
 52
90.0
 71
     2
 49
0.5
 62
   256
  6
BYLAYER
 49
-0.5
 62
   256
  6
BYLAYER
  0
ACDBPLACEHOLDER
  5
F
102
{ACAD_REACTORS
330
E
102
}
330
E
  0
TABLESTYLE
  5
32
102
{ACAD_XDICTIONARY
360
761
102
}
102
{ACAD_REACTORS
330
31
102
}
330
31
100
AcDbTableStyle
  3
Standard
 70
     0
 71
     0
 40
0.06
 41
0.06
280
     0
281
     0
  7
Standard
140
0.18
170
     2
 62
     0
 63
     7
283
     0
274
    -2
284
     1
 64
     0
275
    -2
285
     1
 65
     0
276
    -2
286
     1
 66
     0
277
    -2
287
     1
 67
     0
278
    -2
288
     1
 68
     0
279
    -2
289
     1
 69
     0
  7
Standard
140
0.25
170
     5
 62
     0
 63
     7
283
     0
274
    -2
284
     1
 64
     0
275
    -2
285
     1
 65
     0
276
    -2
286
     1
 66
     0
277
    -2
287
     1
 67
     0
278
    -2
288
     1
 68
     0
279
    -2
289
     1
 69
     0
  7
Standard
140
0.18
170
     5
 62
     0
 63
     7
283
     0
274
    -2
284
     1
 64
     0
275
    -2
285
     1
 65
     0
276
    -2
286
     1
 66
     0
277
    -2
287
     1
 67
     0
278
    -2
288
     1
 68
     0
279
    -2
289
     1
 69
     0
  0
VISUALSTYLE
  5
1A
102
{ACAD_REACTORS
330
14
102
}
330
14
100
AcDbVisualStyle
  2
2dWireframe
 70
     4
 71
     0
 72
     2
 73
     0
 90
        0
 40
-0.6
 41
-30.0
 62
     5
 63
     7
421
 16777215
 74
     1
 91
        4
 64
     7
 65
   257
 75
     1
175
     1
 42
1.0
 92
        0
 66
   257
 43
1.0
 76
     1
 77
     6
 78
     2
 67
     7
 79
     5
170
     0
171
     0
290
     0
174
     0
 93
        1
 44
0.0
173
     0
291
     0
 45
0.0
1001
ACAD
1000
AcDbSavedByObjectVersion
1070
     0
  0
VISUALSTYLE
  5
1C
102
{ACAD_REACTORS
330
14
102
}
330
14
100
AcDbVisualStyle
  2
3D Hidden
 70
     6
 71
     1
 72
     2
 73
     2
 90
        0
 40
-0.6
 41
-30.0
 62
     5
 63
     7
421
 16777215
 74
     2
 91
        2
 64
     7
 65
   257
 75
     2
175
     1
 42
40.0
 92
        0
 66
   257
 43
1.0
 76
     1
 77
     6
 78
     2
 67
     7
 79
     3
170
     0
171
     0
290
     0
174
     0
 93
        1
 44
0.0
173
     0
291
     0
 45
0.0
1001
ACAD
1000
AcDbSavedByObjectVersion
1070
     0
  0
VISUALSTYLE
  5
1B
102
{ACAD_REACTORS
330
14
102
}
330
14
100
AcDbVisualStyle
  2
3dWireframe
 70
     5
 71
     0
 72
     2
 73
     0
 90
        0
 40
-0.6
 41
-30.0
 62
     5
 63
     7
421
 16777215
 74
     1
 91
        4
 64
     7
 65
   257
 75
     1
175
     1
 42
1.0
 92
        0
 66
   257
 43
1.0
 76
     1
 77
     6
 78
     2
 67
     7
 79
     5
170
     0
171
     0
290
     0
174
     0
 93
        1
 44
0.0
173
     0
291
     0
 45
0.0
1001
ACAD
1000
AcDbSavedByObjectVersion
1070
     0
  0
VISUALSTYLE
  5
19
102
{ACAD_REACTORS
330
14
102
}
330
14
100
AcDbVisualStyle
  2
Basic
 70
     7
 71
     1
 72
     0
 73
     1
 90
        0
 40
-0.6
 41
-30.0
 62
     5
 63
     7
421
 16777215
 74
     0
 91
        4
 64
     7
 65
   257
 75
     1
175
     1
 42
1.0
 92
        8
 66
     7
 43
1.0
 76
     1
 77
     6
 78
     2
 67
     7
 79
     5
170
     0
171
     0
290
     0
174
     0
 93
        1
 44
0.0
173
     0
291
     1
 45
0.0
1001
ACAD
1000
AcDbSavedByObjectVersion
1070
     0
  0
VISUALSTYLE
  5
20
102
{ACAD_REACTORS
330
14
102
}
330
14
100
AcDbVisualStyle
  2
Brighten
 70
    12
 71
     2
 72
     2
 73
     0
 90
        0
 40
-0.6
 41
-30.0
 62
     5
 63
     7
421
 16777215
 74
     1
 91
        4
 64
     7
 65
   257
 75
     1
175
     1
 42
1.0
 92
        8
 66
     7
 43
1.0
 76
     1
 77
     6
 78
     2
 67
     7
 79
     5
170
     0
171
     0
290
     0
174
     0
 93
        1
 44
50.0
173
     0
291
     1
 45
0.0
1001
ACAD
1000
AcDbSavedByObjectVersion
1070
     0
  0
VISUALSTYLE
  5
24
102
{ACAD_REACTORS
330
14
102
}
330
14
100
AcDbVisualStyle
  2
ColorChange
 70
    16
 71
     2
 72
     2
 73
     3
 90
        0
 40
-0.6
 41
-30.0
 62
     5
 63
     8
421
  8421504
 74
     1
 91
        4
 64
     7
 65
   257
 75
     1
175
     1
 42
1.0
 92
        8
 66
     8
424
  8421504
 43
1.0
 76
     1
 77
     6
 78
     2
 67
     7
 79
     5
170
     0
171
     0
290
     0
174
     0
 93
        1
 44
0.0
173
     0
291
     1
 45
0.0
1001
ACAD
1000
AcDbSavedByObjectVersion
1070
     0
  0
VISUALSTYLE
  5
1D
102
{ACAD_REACTORS
330
14
102
}
330
14
100
AcDbVisualStyle
  2
Conceptual
 70
     9
 71
     3
 72
     2
 73
     0
 90
        0
 40
-0.6
 41
-30.0
 62
     5
 63
     7
421
 16777215
 74
     2
 91
        2
 64
     7
 65
   257
 75
     1
175
     1
 42
40.0
 92
        8
 66
     7
 43
1.0
 76
     1
 77
     6
 78
     2
 67
     7
 79
     3
170
     0
171
     0
290
     0
174
     0
 93
        1
 44
0.0
173
     0
291
     0
 45
0.0
1001
ACAD
1000
AcDbSavedByObjectVersion
1070
     0
  0
VISUALSTYLE
  5
1F
102
{ACAD_REACTORS
330
14
102
}
330
14
100
AcDbVisualStyle
  2
Dim
 70
    11
 71
     2
 72
     2
 73
     0
 90
        0
 40
-0.6
 41
-30.0
 62
     5
 63
     7
421
 16777215
 74
     1
 91
        4
 64
     7
 65
   257
 75
     1
175
     1
 42
1.0
 92
        8
 66
     7
 43
1.0
 76
     1
 77
     6
 78
     2
 67
     7
 79
     5
170
     0
171
     0
290
     0
174
     0
 93
        1
 44
-50.0
173
     0
291
     1
 45
0.0
1001
ACAD
1000
AcDbSavedByObjectVersion
1070
     0
  0
VISUALSTYLE
  5
23
102
{ACAD_REACTORS
330
14
102
}
330
14
100
AcDbVisualStyle
  2
Facepattern
 70
    15
 71
     2
 72
     2
 73
     0
 90
        0
 40
-0.6
 41
-30.0
 62
     5
 63
     7
421
 16777215
 74
     1
 91
        4
 64
     7
 65
   257
 75
     1
175
     1
 42
1.0
 92
        8
 66
     7
 43
1.0
 76
     1
 77
     6
 78
     2
 67
     7
 79
     5
170
     0
171
     0
290
     0
174
     0
 93
        1
 44
0.0
173
     0
291
     1
 45
0.0
1001
ACAD
1000
AcDbSavedByObjectVersion
1070
     0
  0
VISUALSTYLE
  5
15
102
{ACAD_REACTORS
330
14
102
}
330
14
100
AcDbVisualStyle
  2
Flat
 70
     0
 71
     2
 72
     1
 73
     1
 90
        2
 40
-0.6
 41
30.0
 62
     5
 63
     7
421
 16777215
 74
     0
 91
        4
 64
     7
 65
   257
 75
     1
175
     1
 42
1.0
 92
        8
 66
     7
 43
1.0
 76
     1
 77
     6
 78
     2
 67
     7
 79
     5
170
     0
171
     0
290
     0
174
     0
 93
       13
 44
0.0
173
     0
291
     1
 45
0.0
1001
ACAD
1000
AcDbSavedByObjectVersion
1070
     0
  0
VISUALSTYLE
  5
16
102
{ACAD_REACTORS
330
14
102
}
330
14
100
AcDbVisualStyle
  2
FlatWithEdges
 70
     1
 71
     2
 72
     1
 73
     1
 90
        2
 40
-0.6
 41
30.0
 62
     5
 63
     7
421
 16777215
 74
     1
 91
        4
 64
     7
 65
   257
 75
     1
175
     1
 42
1.0
 92
        0
 66
   257
 43
1.0
 76
     1
 77
     6
 78
     2
 67
     7
 79
     5
170
     0
171
     0
290
     0
174
     0
 93
       13
 44
0.0
173
     0
291
     1
 45
0.0
1001
ACAD
1000
AcDbSavedByObjectVersion
1070
     0
  0
VISUALSTYLE
  5
17
102
{ACAD_REACTORS
330
14
102
}
330
14
100
AcDbVisualStyle
  2
Gouraud
 70
     2
 71
     2
 72
     2
 73
     1
 90
        2
 40
-0.6
 41
30.0
 62
     5
 63
     7
421
 16777215
 74
     0
 91
        4
 64
     7
 65
   257
 75
     1
175
     1
 42
1.0
 92
        0
 66
     7
 43
1.0
 76
     1
 77
     6
 78
     2
 67
     7
 79
     5
170
     0
171
     0
290
     0
174
     0
 93
       13
 44
0.0
173
     0
291
     1
 45
0.0
1001
ACAD
1000
AcDbSavedByObjectVersion
1070
     0
  0
VISUALSTYLE
  5
18
102
{ACAD_REACTORS
330
14
102
}
330
14
100
AcDbVisualStyle
  2
GouraudWithEdges
 70
     3
 71
     2
 72
     2
 73
     1
 90
        2
 40
-0.6
 41
30.0
 62
     5
 63
     7
421
 16777215
 74
     1
 91
        4
 64
     7
 65
   257
 75
     1
175
     1
 42
1.0
 92
        0
 66
   257
 43
1.0
 76
     1
 77
     6
 78
     2
 67
     7
 79
     5
170
     0
171
     0
290
     0
174
     0
 93
       13
 44
0.0
173
     0
291
     1
 45
0.0
1001
ACAD
1000
AcDbSavedByObjectVersion
1070
     0
  0
VISUALSTYLE
  5
22
102
{ACAD_REACTORS
330
14
102
}
330
14
100
AcDbVisualStyle
  2
Linepattern
 70
    14
 71
     2
 72
     2
 73
     0
 90
        0
 40
-0.6
 41
-30.0
 62
     5
 63
     7
421
 16777215
 74
     1
 91
        4
 64
     7
 65
   257
 75
     7
175
     7
 42
1.0
 92
        8
 66
     7
 43
1.0
 76
     1
 77
     6
 78
     2
 67
     7
 79
     5
170
     0
171
     0
290
     0
174
     0
 93
        1
 44
0.0
173
     0
291
     1
 45
0.0
1001
ACAD
1000
AcDbSavedByObjectVersion
1070
     0
  0
VISUALSTYLE
  5
1E
102
{ACAD_REACTORS
330
14
102
}
330
14
100
AcDbVisualStyle
  2
Realistic
 70
     8
 71
     2
 72
     2
 73
     0
 90
        0
 40
-0.6
 41
-30.0
 62
     5
 63
     7
421
 16777215
 74
     1
 91
        0
 64
     7
 65
   257
 75
     1
175
     1
 42
1.0
 92
        8
 66
     8
424
  7895160
 43
1.0
 76
     1
 77
     6
 78
     2
 67
     7
 79
     5
170
     0
171
     0
290
     0
174
     0
 93
       13
 44
0.0
173
     0
291
     0
 45
0.0
1001
ACAD
1000
AcDbSavedByObjectVersion
1070
     0
  0
VISUALSTYLE
  5
21
102
{ACAD_REACTORS
330
14
102
}
330
14
100
AcDbVisualStyle
  2
Thicken
 70
    13
 71
     2
 72
     2
 73
     0
 90
        0
 40
-0.6
 41
-30.0
 62
     5
 63
     7
421
 16777215
 74
     1
 91
        4
 64
     7
 65
   257
 75
     1
175
     1
 42
1.0
 92
       12
 66
     7
 43
1.0
 76
     1
 77
     6
 78
     2
 67
     7
 79
     5
170
     0
171
     0
290
     0
174
     0
 93
        1
 44
0.0
173
     0
291
     1
 45
0.0
1001
ACAD
1000
AcDbSavedByObjectVersion
1070
     0
  0
DICTIONARYVAR
  5
75A
102
{ACAD_REACTORS
330
759
102
}
330
759
100
DictionaryVariables
280
     0
  1
STANDARD
  0
DICTIONARY
  5
75D
330
12
100
AcDbDictionary
280
     1
281
     1
  3
ACAD_XREC_ROUNDTRIP
360
75E
  0
DICTIONARY
  5
75B
330
11
100
AcDbDictionary
280
     1
281
     1
  3
ACAD_XREC_ROUNDTRIP
360
75C
  0
DICTIONARY
  5
75F
330
13
100
AcDbDictionary
280
     1
281
     1
  3
ACAD_XREC_ROUNDTRIP
360
760
  0
DICTIONARY
  5
761
330
32
100
AcDbDictionary
280
     1
281
     1
  3
ACAD_XREC_ROUNDTRIP
360
762
  0
XRECORD
  5
75E
102
{ACAD_REACTORS
330
75D
102
}
330
75D
100
AcDbXrecord
280
     1
102
MATERIAL
148
0.0
149
0.0
149
0.0
 93
        0
 94
       63
282
     0
 72
     1
 77
     1
171
     1
175
     1
179
     1
273
     0
  0
XRECORD
  5
75C
102
{ACAD_REACTORS
330
75B
102
}
330
75B
100
AcDbXrecord
280
     1
102
MATERIAL
148
0.0
149
0.0
149
0.0
 93
        0
 94
       63
282
     0
 72
     1
 77
     1
171
     1
175
     1
179
     1
273
     0
  0
XRECORD
  5
760
102
{ACAD_REACTORS
330
75F
102
}
330
75F
100
AcDbXrecord
280
     1
102
MATERIAL
148
0.0
149
0.0
149
0.0
 93
        0
 94
       63
282
     0
 72
     1
 77
     1
171
     1
175
     1
179
     1
273
     0
  0
XRECORD
  5
762
102
{ACAD_REACTORS
330
761
102
}
330
761
100
AcDbXrecord
280
     1
102
ACAD_ROUNDTRIP_PRE2007_TABLESTYLE
 90
      512
 91
        0
  1

 92
      512
 93
        0
  2

 94
      512
 95
        0
  3

  0
ENDSEC
  0
EOF
