0
SECTION
2
HEADER
9
$EXTMAX
10
420.0000000000
20
297.0000000000
9
$EXTMIN
10
0.0000000000
20
-0.0000000000
9
$LIMMIN
10
0.0000000000
20
-0.0000000000
9
$LIMMAX
10
420.0000000000
20
297.0000000000
9
$VIEWCTR
10
210.0000000000
20
148.5000000000
9
$VIEWSIZE
40
297.0000000000
9
$CLAYER
8
0
9
$LTSCALE
40
23.1000000000
9
$CELTYPE
6
BYLAYER
9
$DIMSCALE
40
1
9
$DIMASZ
40
3.5000000000
9
$DIMEXO
40
2.6250000000
9
$DIMDLI
40
15.9600000000
9
$DIMEXE
40
7.5600000000
9
$DIMCEN
40
3.7800000000
9
$DIMLFAC
40
1.0000000000
0
ENDSEC
0
SECTION
2
TABLES
0
TABLE
2
LTYPE
70
6
0
LTYPE
2
BYBLOCK
70
0
3

72
65
73
0
40
0.0
0
LTYPE
2
BYLAYER
70
0
3

72
65
73
0
40
0.0
0
LTYPE
2
CONTINUOUS
70
64
3
Solid line
72
65
73
0
40
0
0
LTYPE
2
CENTER
70
64
3
____ _ ____ _ ____ _ ____ _ ____ _ ____ _ ____
72
65
73
4
40
0.6
49
0.375
49
-0.075
49
0.075
49
-0.075
0
LTYPE
2
HIDDEN
70
64
3
- - - - - - - - - - - - - - - - - - - -
72
65
73
2
40
0.2
49
0.1
49
-0.1
0
LTYPE
2
PHANTOM
70
64
3
_____ _ _ _____ _ _ _____ _ _ _____
72
65
73
6
40
0.8
49
0.45
49
-0.05
49
0.1
49
-0.05
49
0.1
49
-0.05
0
LTYPE
2
DOT
70
64
3
. . . . . . . . . . . . . . . . . . . .
72
65
73
2
40
0.2
49
0.1
49
-0.1
0
LTYPE
2
DASHED
70
64
3
- - - - - - - - - - - - - - - - - - - -
72
65
73
2
40
0.2
49
0.1
49
-0.1
0
ENDTAB
0
TABLE
2
LAYER
70
36
0
LAYER
2
0
70
0
62
7
6
CONTINUOUS
0
LAYER
2
DEFAULT_1
70
0
62
7
6
CENTER
0
LAYER
2
DEFAULT_2
70
0
62
8
6
HIDDEN
0
LAYER
2
DEFAULT_3
70
0
62
7
6
PHANTOM
0
LAYER
2
10000_FRONT
70
0
62
7
6
CONTINUOUS
0
LAYER
2
10100_DIM_FRONT
70
0
62
7
6
CONTINUOUS
0
LAYER
2
10300_FRONT_GERMAN_ENGLISH
70
0
62
7
6
CONTINUOUS
0
LAYER
2
11000_LEFT
70
0
62
7
6
CONTINUOUS
0
LAYER
2
11100_DIM_LEFT
70
0
62
7
6
CONTINUOUS
0
LAYER
2
11300_LEFT_GERMAN_ENGLISH
70
0
62
7
6
CONTINUOUS
0
LAYER
2
12000_RIGHT
70
0
62
7
6
CONTINUOUS
0
LAYER
2
12100_DIM_RIGHT
70
0
62
7
6
CONTINUOUS
0
LAYER
2
12300_RIGHT_GERMAN_ENGLISH
70
0
62
7
6
CONTINUOUS
0
LAYER
2
13000_TOP
70
0
62
7
6
CONTINUOUS
0
LAYER
2
13100_DIM_TOP
70
0
62
7
6
CONTINUOUS
0
LAYER
2
13300_TOP_GERMAN_ENGLISH
70
0
62
7
6
CONTINUOUS
0
LAYER
2
14000_BOTTOM
70
0
62
7
6
CONTINUOUS
0
LAYER
2
14100_DIM_BOTTOM
70
0
62
7
6
CONTINUOUS
0
LAYER
2
14300_BOTTOM_GERMAN_ENGLISH
70
0
62
7
6
CONTINUOUS
0
LAYER
2
15000_BACK
70
0
62
7
6
CONTINUOUS
0
LAYER
2
15100_DIM_BACK
70
0
62
7
6
CONTINUOUS
0
LAYER
2
15300_BACK_GERMAN_ENGLISH
70
0
62
7
6
CONTINUOUS
0
LAYER
2
20000_FRONT_O
70
0
62
7
6
CONTINUOUS
0
LAYER
2
20100_DIM_FRONT_O
70
0
62
7
6
CONTINUOUS
0
LAYER
2
20300_FRONT_O_GERMAN_ENGLISH
70
0
62
7
6
CONTINUOUS
0
LAYER
2
40000_ISO
70
0
62
7
6
CONTINUOUS
0
LAYER
2
40300_ISO_GERMAN_ENGLISH
70
0
62
7
6
CONTINUOUS
0
LAYER
2
50000_WIRING
70
0
62
7
6
CONTINUOUS
0
LAYER
2
50300_WIRING_GERMAN_ENGLISH
70
0
62
7
6
CONTINUOUS
0
LAYER
2
90000_FRAME
70
0
62
7
6
CONTINUOUS
0
LAYER
2
91000_TIP
70
0
62
7
6
CONTINUOUS
0
ENDTAB
0
ENDSEC
0
SECTION
2
BLOCKS
0
BLOCK
8
10100_DIM_FRONT
62
7
6
CONTINUOUS
2
*D0
70
65
10
0.0000000000
20
0.0000000000
0
TEXT
8
10100_DIM_FRONT
62
7
6
CONTINUOUS
10
148.6402777520
20
245.8374143143
40
3.5000000000
1
21.6
72
5
11
158.1402777520
21
245.8374143143
0
LINE
8
10100_DIM_FRONT
62
7
6
CONTINUOUS
10
142.4905176269
20
235.7104761601
11
142.4905176269
21
246.9624143143
0
LINE
8
10100_DIM_FRONT
62
7
6
CONTINUOUS
10
164.0905176269
20
235.7104761601
11
164.0905176269
21
246.9624143143
0
LINE
8
10100_DIM_FRONT
62
7
6
CONTINUOUS
10
142.4905176269
20
244.9624143143
11
153.2905176269
21
244.9624143143
0
LINE
8
10100_DIM_FRONT
62
7
6
CONTINUOUS
10
164.0905176269
20
244.9624143143
11
153.2905176269
21
244.9624143143
0
SOLID
8
10100_DIM_FRONT
62
7
6
CONTINUOUS
10
145.9905176269
20
245.4624143143
11
142.4905176269
21
244.9624143143
12
145.9905176269
22
244.4624143143
13
145.9905176269
23
244.4624143143
0
SOLID
8
10100_DIM_FRONT
62
7
6
CONTINUOUS
10
160.5905176269
20
244.4624143143
11
164.0905176269
21
244.9624143143
12
160.5905176269
22
245.4624143143
13
160.5905176269
23
245.4624143143
0
ENDBLK
8
0
0
BLOCK
8
10100_DIM_FRONT
62
7
6
CONTINUOUS
2
*D1
70
65
10
0.0000000000
20
0.0000000000
0
TEXT
8
10100_DIM_FRONT
62
7
6
CONTINUOUS
10
170.9336112916
20
173.9075830504
40
3.5000000000
1
125
50
90.0000000000
72
5
11
170.9336112916
21
181.1575830504
0
LINE
8
10100_DIM_FRONT
62
7
6
CONTINUOUS
10
161.2905176269
20
240.1104761601
11
173.8086112916
21
240.1104761601
0
LINE
8
10100_DIM_FRONT
62
7
6
CONTINUOUS
10
161.2905176269
20
115.1104761601
11
173.8086112916
21
115.1104761601
0
LINE
8
10100_DIM_FRONT
62
7
6
CONTINUOUS
10
171.8086112916
20
240.1104761601
11
171.8086112916
21
177.6104761601
0
LINE
8
10100_DIM_FRONT
62
7
6
CONTINUOUS
10
171.8086112916
20
115.1104761601
11
171.8086112916
21
177.6104761601
0
SOLID
8
10100_DIM_FRONT
62
7
6
CONTINUOUS
10
172.3086112916
20
236.6104761601
11
171.8086112916
21
240.1104761601
12
171.3086112916
22
236.6104761601
13
171.3086112916
23
236.6104761601
0
SOLID
8
10100_DIM_FRONT
62
7
6
CONTINUOUS
10
171.3086112916
20
118.6104761601
11
171.8086112916
21
115.1104761601
12
172.3086112916
22
118.6104761601
13
172.3086112916
23
118.6104761601
0
ENDBLK
8
0
0
BLOCK
8
11100_DIM_LEFT
62
7
6
CONTINUOUS
2
*D2
70
65
10
0.0000000000
20
0.0000000000
0
TEXT
8
11100_DIM_LEFT
62
7
6
CONTINUOUS
10
254.8420021083
20
244.4326261630
40
3.5000000000
1
43.7
72
5
11
264.8420021083
21
244.4326261630
0
LINE
8
11100_DIM_LEFT
62
7
6
CONTINUOUS
10
283.3905176269
20
180.4078402583
11
283.3905176269
21
245.5576261630
0
LINE
8
11100_DIM_LEFT
62
7
6
CONTINUOUS
10
239.6780176269
20
178.3015902583
11
239.6780176269
21
245.5576261630
0
LINE
8
11100_DIM_LEFT
62
7
6
CONTINUOUS
10
283.3905176269
20
243.5576261630
11
261.5342676269
21
243.5576261630
0
LINE
8
11100_DIM_LEFT
62
7
6
CONTINUOUS
10
239.6780176269
20
243.5576261630
11
261.5342676269
21
243.5576261630
0
SOLID
8
11100_DIM_LEFT
62
7
6
CONTINUOUS
10
279.8905176269
20
243.0576261630
11
283.3905176269
21
243.5576261630
12
279.8905176269
22
244.0576261630
13
279.8905176269
23
244.0576261630
0
SOLID
8
11100_DIM_LEFT
62
7
6
CONTINUOUS
10
243.1780176269
20
244.0576261630
11
239.6780176269
21
243.5576261630
12
243.1780176269
22
243.0576261630
13
243.1780176269
23
243.0576261630
0
ENDBLK
8
0
0
ENDSEC
0
SECTION
2
ENTITIES
0
DIMENSION
8
10100_DIM_FRONT
62
7
6
CONTINUOUS
2
*D0
10
164.0905176269
20
244.9624143143
11
153.3902777520
21
247.5874143143
70
128
13
142.4905176269
23
235.7104761601
14
164.0905176269
24
235.7104761601
0
DIMENSION
8
10100_DIM_FRONT
62
7
6
CONTINUOUS
2
*D1
10
171.8086112916
20
115.1104761601
11
169.1836112916
21
177.5325830504
70
128
13
161.2905176269
23
240.1104761601
14
161.2905176269
24
115.1104761601
50
270.000000
0
DIMENSION
8
11100_DIM_LEFT
62
7
6
CONTINUOUS
2
*D2
10
239.6780176269
20
243.5576261630
11
259.8420021083
21
246.1826261630
70
128
13
283.3905176269
23
180.4078402583
14
239.6780176269
24
178.3015902583
50
180.000000
0
TEXT
8
90000_FRAME
62
7
6
CONTINUOUS
10
326.3719262865
20
12.4711926287
40
2.2000000000
1
Format / Size: DIN A3
72
5
11
359.7909739055
21
12.4711926287
0
TEXT
8
90000_FRAME
62
7
6
CONTINUOUS
10
368.8719262865
20
12.4711926287
40
2.2000000000
1
Massstab / Scale: 1:1
72
5
11
399.7766881913
21
12.4711926287
0
TEXT
8
90000_FRAME
62
7
6
CONTINUOUS
10
343.8369272163
20
20.8211926954
40
3.5000000000
1
6ES73921AM000AA0_001
72
5
11
397.8369272163
21
20.8211926954
0
TEXT
8
10000_FRONT
62
7
6
CONTINUOUS
10
143.4577585326
20
231.2799020859
40
1.7500000000
1
1
72
5
11
144.4577585326
21
231.2799020859
0
TEXT
8
10000_FRONT
62
7
6
CONTINUOUS
10
143.4577585326
20
226.0799020859
40
1.7500000000
1
2
72
5
11
144.8327585326
21
226.0799020859
0
TEXT
8
10000_FRONT
62
7
6
CONTINUOUS
10
143.4577585326
20
220.8799020859
40
1.7500000000
1
3
72
5
11
144.7077585326
21
220.8799020859
0
TEXT
8
10000_FRONT
62
7
6
CONTINUOUS
10
143.4577585326
20
215.6799020859
40
1.7500000000
1
4
72
5
11
144.8327585326
21
215.6799020859
0
TEXT
8
10000_FRONT
62
7
6
CONTINUOUS
10
143.4577585326
20
210.4799020859
40
1.7500000000
1
5
72
5
11
144.7077585326
21
210.4799020859
0
TEXT
8
10000_FRONT
62
7
6
CONTINUOUS
10
143.4577585326
20
205.2799020859
40
1.7500000000
1
6
72
5
11
144.8327585326
21
205.2799020859
0
TEXT
8
10000_FRONT
62
7
6
CONTINUOUS
10
143.4577585326
20
200.0799020859
40
1.7500000000
1
7
72
5
11
144.8327585326
21
200.0799020859
0
TEXT
8
10000_FRONT
62
7
6
CONTINUOUS
10
143.5077585326
20
194.8799020859
40
1.7500000000
1
8
72
5
11
144.8827585326
21
194.8799020859
0
TEXT
8
10000_FRONT
62
7
6
CONTINUOUS
10
143.5077585326
20
189.6799020859
40
1.7500000000
1
9
72
5
11
144.8827585326
21
189.6799020859
0
TEXT
8
10000_FRONT
62
7
6
CONTINUOUS
10
142.3432703124
20
184.4956186386
40
1.7500000000
1
10
72
5
11
144.7182703124
21
184.4956186386
0
TEXT
8
10000_FRONT
62
7
6
CONTINUOUS
10
144.0199060546
20
176.3520648066
40
2.5000000000
1
X1
72
5
11
147.5913346260
21
176.3520648066
0
TEXT
8
10000_FRONT
62
7
6
CONTINUOUS
10
142.3432703124
20
168.8956186772
40
1.7500000000
1
11
72
5
11
144.3432703124
21
168.8956186772
0
TEXT
8
10000_FRONT
62
7
6
CONTINUOUS
10
142.3432703124
20
163.6956186772
40
1.7500000000
1
12
72
5
11
144.7182703124
21
163.6956186772
0
TEXT
8
10000_FRONT
62
7
6
CONTINUOUS
10
142.3432703124
20
158.4956186772
40
1.7500000000
1
13
72
5
11
144.5932703124
21
158.4956186772
0
TEXT
8
10000_FRONT
62
7
6
CONTINUOUS
10
142.3432703124
20
153.2956186772
40
1.7500000000
1
14
72
5
11
144.7182703124
21
153.2956186772
0
TEXT
8
10000_FRONT
62
7
6
CONTINUOUS
10
142.3432703124
20
148.0956186772
40
1.7500000000
1
15
72
5
11
144.5932703124
21
148.0956186772
0
TEXT
8
10000_FRONT
62
7
6
CONTINUOUS
10
142.3432703124
20
142.8956186772
40
1.7500000000
1
16
72
5
11
144.7182703124
21
142.8956186772
0
TEXT
8
10000_FRONT
62
7
6
CONTINUOUS
10
142.3432703124
20
137.6956186772
40
1.7500000000
1
17
72
5
11
144.7182703124
21
137.6956186772
0
TEXT
8
10000_FRONT
62
7
6
CONTINUOUS
10
142.3432703124
20
132.4956186772
40
1.7500000000
1
18
72
5
11
144.7182703124
21
132.4956186772
0
TEXT
8
10000_FRONT
62
7
6
CONTINUOUS
10
142.3432703124
20
127.2956186772
40
1.7500000000
1
19
72
5
11
144.7182703124
21
127.2956186772
0
TEXT
8
10000_FRONT
62
7
6
CONTINUOUS
10
142.3432703124
20
122.0956186772
40
1.7500000000
1
20
72
5
11
145.0932703124
21
122.0956186772
0
TEXT
8
10000_FRONT
62
7
6
CONTINUOUS
10
161.4638300048
20
231.3381723881
40
1.7500000000
1
21
72
5
11
163.8388300048
21
231.3381723881
0
TEXT
8
10000_FRONT
62
7
6
CONTINUOUS
10
161.4638300048
20
226.1381723881
40
1.7500000000
1
22
72
5
11
164.2138300048
21
226.1381723881
0
TEXT
8
10000_FRONT
62
7
6
CONTINUOUS
10
161.4638300048
20
220.9381723881
40
1.7500000000
1
23
72
5
11
164.0888300048
21
220.9381723881
0
TEXT
8
10000_FRONT
62
7
6
CONTINUOUS
10
161.4638300048
20
215.7381723881
40
1.7500000000
1
24
72
5
11
164.2138300048
21
215.7381723881
0
TEXT
8
10000_FRONT
62
7
6
CONTINUOUS
10
161.4638300048
20
210.5381723881
40
1.7500000000
1
25
72
5
11
164.0888300048
21
210.5381723881
0
TEXT
8
10000_FRONT
62
7
6
CONTINUOUS
10
161.4638300048
20
205.3381723881
40
1.7500000000
1
26
72
5
11
164.2138300048
21
205.3381723881
0
TEXT
8
10000_FRONT
62
7
6
CONTINUOUS
10
161.4638300048
20
200.1381723881
40
1.7500000000
1
27
72
5
11
164.2138300048
21
200.1381723881
0
TEXT
8
10000_FRONT
62
7
6
CONTINUOUS
10
161.4638300048
20
194.9381723881
40
1.7500000000
1
28
72
5
11
164.2138300048
21
194.9381723881
0
TEXT
8
10000_FRONT
62
7
6
CONTINUOUS
10
161.4638300048
20
189.7381723881
40
1.7500000000
1
29
72
5
11
164.2138300048
21
189.7381723881
0
TEXT
8
10000_FRONT
62
7
6
CONTINUOUS
10
161.4638300048
20
184.5381723881
40
1.7500000000
1
30
72
5
11
164.0888300048
21
184.5381723881
0
TEXT
8
10000_FRONT
62
7
6
CONTINUOUS
10
161.4638300048
20
168.9381723881
40
1.7500000000
1
31
72
5
11
163.7138300048
21
168.9381723881
0
TEXT
8
10000_FRONT
62
7
6
CONTINUOUS
10
161.4638300048
20
163.7381723881
40
1.7500000000
1
32
72
5
11
164.0888300048
21
163.7381723881
0
TEXT
8
10000_FRONT
62
7
6
CONTINUOUS
10
161.4638300048
20
158.5381723881
40
1.7500000000
1
33
72
5
11
163.9638300048
21
158.5381723881
0
TEXT
8
10000_FRONT
62
7
6
CONTINUOUS
10
161.4638300048
20
153.3381723881
40
1.7500000000
1
34
72
5
11
164.0888300048
21
153.3381723881
0
TEXT
8
10000_FRONT
62
7
6
CONTINUOUS
10
161.4638300048
20
148.1381723881
40
1.7500000000
1
35
72
5
11
163.9638300048
21
148.1381723881
0
TEXT
8
10000_FRONT
62
7
6
CONTINUOUS
10
161.4638300048
20
142.9381723881
40
1.7500000000
1
36
72
5
11
164.0888300048
21
142.9381723881
0
TEXT
8
10000_FRONT
62
7
6
CONTINUOUS
10
161.4638300048
20
137.7381723881
40
1.7500000000
1
37
72
5
11
164.0888300048
21
137.7381723881
0
TEXT
8
10000_FRONT
62
7
6
CONTINUOUS
10
161.4638300048
20
132.5381723881
40
1.7500000000
1
38
72
5
11
164.0888300048
21
132.5381723881
0
TEXT
8
10000_FRONT
62
7
6
CONTINUOUS
10
161.4638300048
20
127.3381723881
40
1.7500000000
1
39
72
5
11
164.0888300048
21
127.3381723881
0
TEXT
8
10000_FRONT
62
7
6
CONTINUOUS
10
161.4638300048
20
122.1381723881
40
1.7500000000
1
40
72
5
11
164.2138300048
21
122.1381723881
0
TEXT
8
11300_LEFT_GERMAN_ENGLISH
62
7
6
CONTINUOUS
10
241.4115168539
20
258.0175561798
40
3.5000000000
1
Links / Left
72
5
11
269.9115168539
21
258.0175561798
0
TEXT
8
13300_TOP_GERMAN_ENGLISH
62
7
6
CONTINUOUS
10
143.1952247191
20
82.8209269663
40
3.5000000000
1
Oben / Top
72
5
11
169.6118913858
21
82.8209269663
0
TEXT
8
10300_FRONT_GERMAN_ENGLISH
62
7
6
CONTINUOUS
10
144.0800561798
20
255.3630617978
40
3.5000000000
1
Vorne / Front
72
5
11
176.6633895131
21
255.3630617978
0
TEXT
8
91000_TIP
62
7
6
CONTINUOUS
10
11.2756234532
20
15.1898617471
40
3.5000000000
1
Alle Bemassungswerte sind in Millimeter (mm) angegeben.
72
5
11
145.8589567865
21
15.1898617471
0
TEXT
8
91000_TIP
62
7
6
CONTINUOUS
10
11.2756234532
20
9.9398617471
40
3.5000000000
1
All dimensions are in millimeters (mm).
72
5
11
104.4422901199
21
9.9398617471
0
LINE
8
90000_FRAME
62
7
6
CONTINUOUS
10
0.0000000000
20
297.0000000000
11
0.0000000000
21
0.0000000000
0
LINE
8
90000_FRAME
62
7
6
CONTINUOUS
10
5.0000000000
20
292.0000000000
11
5.0000000000
21
5.0000000000
0
LINE
8
90000_FRAME
62
7
6
CONTINUOUS
10
0.0000000000
20
0.0000000000
11
420.0000000000
21
0.0000000000
0
LINE
8
91000_TIP
62
7
6
CONTINUOUS
10
248.5082295492
20
20.1286973174
11
258.5082293450
21
22.6286972664
0
LINE
8
90000_FRAME
62
7
6
CONTINUOUS
10
5.0000000000
20
5.0000000000
11
415.0000000000
21
5.0000000000
0
LINE
8
90000_FRAME
62
7
6
CONTINUOUS
10
275.7119262865
20
10.5711926287
11
410.7119262865
21
10.5711926287
0
LINE
8
90000_FRAME
62
7
6
CONTINUOUS
10
325.7119262865
20
16.5711926287
11
410.7119262865
21
16.5711926287
0
LINE
8
90000_FRAME
62
7
6
CONTINUOUS
10
298.2973434565
20
16.6961097434
11
299.1529318914
21
16.6961097434
0
LINE
8
90000_FRAME
62
7
6
CONTINUOUS
10
311.4876651625
20
16.7436424342
11
309.9666190559
21
16.7436424342
0
LINE
8
90000_FRAME
62
7
6
CONTINUOUS
10
301.8622952689
20
16.7436424342
11
300.4838472348
21
16.7436424342
0
LINE
8
90000_FRAME
62
7
6
CONTINUOUS
10
289.1235341257
20
16.7436424342
11
290.5495148507
21
16.7436424342
0
LINE
8
90000_FRAME
62
7
6
CONTINUOUS
10
291.6427667399
20
16.7436424342
11
295.2077185523
21
16.7436424342
0
LINE
8
90000_FRAME
62
7
6
CONTINUOUS
10
296.0157742965
20
16.7436424342
11
296.9664281131
21
16.7436424342
0
LINE
8
90000_FRAME
62
7
6
CONTINUOUS
10
302.9555471581
20
16.7436424342
11
306.5204989705
21
16.7436424342
0
LINE
8
90000_FRAME
62
7
6
CONTINUOUS
10
307.3047883693
20
16.7436424342
11
308.2554421859
21
16.7436424342
0
LINE
8
91000_TIP
62
7
6
CENTER
10
247.2287190772
20
17.6286973685
11
270.8307083413
21
17.6286973685
0
LINE
8
90000_FRAME
62
7
6
CONTINUOUS
10
306.5204989705
20
17.6467635600
11
304.3339951922
21
17.6467635600
0
LINE
8
90000_FRAME
62
7
6
CONTINUOUS
10
295.2077185523
20
17.6467635600
11
293.0212147740
21
17.6467635600
0
LINE
8
90000_FRAME
62
7
6
CONTINUOUS
10
306.1877701347
20
18.7637817946
11
304.3339951922
21
18.7637817946
0
LINE
8
90000_FRAME
62
7
6
CONTINUOUS
10
294.8749897165
20
18.7637817946
11
293.0212147740
21
18.7637817946
0
LINE
8
90000_FRAME
62
7
6
CONTINUOUS
10
306.1877701347
20
19.5480711933
11
304.3339951922
21
19.5480711933
0
LINE
8
90000_FRAME
62
7
6
CONTINUOUS
10
294.8749897165
20
19.5480711933
11
293.0212147740
21
19.5480711933
0
LINE
8
90000_FRAME
62
7
6
CONTINUOUS
10
306.4729662797
20
20.6175567371
11
304.3339951922
21
20.6175567371
0
LINE
8
90000_FRAME
62
7
6
CONTINUOUS
10
295.1601858615
20
20.6175567371
11
293.0212147740
21
20.6175567371
0
LINE
8
90000_FRAME
62
7
6
CONTINUOUS
10
311.4876651625
20
21.4969115175
11
310.5370113459
21
21.4969115175
0
LINE
8
90000_FRAME
62
7
6
CONTINUOUS
10
308.8496008213
20
21.4969115175
11
307.3047883693
21
21.4969115175
0
LINE
8
90000_FRAME
62
7
6
CONTINUOUS
10
306.4729662797
20
21.4969115175
11
302.9555471581
21
21.4969115175
0
LINE
8
90000_FRAME
62
7
6
CONTINUOUS
10
301.8622952689
20
21.4969115175
11
300.1511183989
21
21.4969115175
0
LINE
8
90000_FRAME
62
7
6
CONTINUOUS
10
297.7269511665
20
21.4969115175
11
296.0157742965
21
21.4969115175
0
LINE
8
90000_FRAME
62
7
6
CONTINUOUS
10
295.1601858615
20
21.4969115175
11
291.6427667399
21
21.4969115175
0
LINE
8
90000_FRAME
62
7
6
CONTINUOUS
10
289.1235341257
20
21.4969115175
11
290.5495148507
21
21.4969115175
0
LINE
8
90000_FRAME
62
7
6
CONTINUOUS
10
275.7119262865
20
28.5711926287
11
410.7119262865
21
28.5711926287
0
LINE
8
13000_TOP
62
7
6
CONTINUOUS
10
156.0898631940
20
32.3891424450
11
150.4898631940
21
32.3891424450
0
LINE
8
91000_TIP
62
7
6
CONTINUOUS
10
248.5082295492
20
15.1286974196
11
258.5082293450
21
12.6286974706
0
LINE
8
13000_TOP
62
7
6
CONTINUOUS
10
150.5921790020
20
42.2891424450
11
142.4905176269
21
42.2891424450
0
LINE
8
13000_TOP
62
7
6
CONTINUOUS
10
155.9875473861
20
42.2891424450
11
164.0905176269
21
42.2891424450
0
LINE
8
13000_TOP
62
7
6
CONTINUOUS
10
153.7707081159
20
43.2891424450
11
152.8103271379
21
43.2891424450
0
LINE
8
13000_TOP
62
7
6
CONTINUOUS
10
150.0905176269
20
63.1343424450
11
151.9031332010
21
62.2891059215
0
LINE
8
13000_TOP
62
7
6
CONTINUOUS
10
153.9971510183
20
48.8891424450
11
159.3291486853
21
45.9663293037
0
LINE
8
10000_FRONT
62
7
6
CONTINUOUS
10
152.7405176269
20
229.3104761601
11
152.3905216647
21
228.6104761601
0
LINE
8
10000_FRONT
62
7
6
CONTINUOUS
10
154.1905135890
20
230.6104761601
11
153.8405176269
21
229.9104761601
0
LINE
8
10000_FRONT
62
7
6
CONTINUOUS
10
152.5838870641
20
234.1204365471
11
152.3772468062
21
233.8104761601
0
LINE
8
10000_FRONT
62
7
6
CONTINUOUS
10
158.1142623102
20
231.3413276246
11
160.5596661623
21
233.7867314768
0
LINE
8
10000_FRONT
62
7
6
CONTINUOUS
10
158.8213690914
20
230.6342208435
11
161.2667729435
21
233.0796246956
0
LINE
8
10000_FRONT
62
7
6
CONTINUOUS
10
158.1142623102
20
226.1413276246
11
160.5596661623
21
228.5867314768
0
LINE
8
10000_FRONT
62
7
6
CONTINUOUS
10
158.8213690914
20
225.4342208435
11
161.2667729435
21
227.8796246956
0
LINE
8
10000_FRONT
62
7
6
CONTINUOUS
10
158.1142623102
20
220.9413276246
11
160.5596661623
21
223.3867314768
0
LINE
8
10000_FRONT
62
7
6
CONTINUOUS
10
158.8213690914
20
220.2342208435
11
161.2667729435
21
222.6796246956
0
LINE
8
10000_FRONT
62
7
6
CONTINUOUS
10
153.8405176269
20
229.9104761601
11
152.7405176269
21
229.3104761601
0
LINE
8
10000_FRONT
62
7
6
CONTINUOUS
10
153.8405176269
20
224.7104761601
11
152.7405176269
21
224.1104761601
0
LINE
8
10000_FRONT
62
7
6
CONTINUOUS
10
153.8405176269
20
219.5104761601
11
152.7405176269
21
218.9104761601
0
LINE
8
13000_TOP
62
7
6
CONTINUOUS
10
145.2905221303
20
48.8891424450
11
161.2905176269
21
48.8891424450
0
LINE
8
13000_TOP
62
7
6
CONTINUOUS
10
145.2905211600
20
49.9190434051
11
161.2905211600
21
49.9190434051
0
LINE
8
13000_TOP
62
7
6
CONTINUOUS
10
164.0905246931
20
50.6891424450
11
162.2905211600
21
50.6891424450
0
LINE
8
13000_TOP
62
7
6
CONTINUOUS
10
144.2905211600
20
50.6891424450
11
142.4905176269
21
50.6891424450
0
LINE
8
13000_TOP
62
7
6
CONTINUOUS
10
145.2905211600
20
51.2690434051
11
161.2905211600
21
51.2690434051
0
LINE
8
13000_TOP
62
7
6
CONTINUOUS
10
145.2905211600
20
52.6190434051
11
161.2905211600
21
52.6190434051
0
LINE
8
13000_TOP
62
7
6
CONTINUOUS
10
145.2905211600
20
53.9690434051
11
161.2905211600
21
53.9690434051
0
LINE
8
13000_TOP
62
7
6
CONTINUOUS
10
146.0815616556
20
55.3190434051
11
160.4994806644
21
55.3190434051
0
LINE
8
13000_TOP
62
7
6
CONTINUOUS
10
148.2905176269
20
56.6690434051
11
158.2905176269
21
56.6690434051
0
LINE
8
13000_TOP
62
7
6
CONTINUOUS
10
158.2905211600
20
57.2891424450
11
148.2905211600
21
57.2891424450
0
LINE
8
13000_TOP
62
7
6
CONTINUOUS
10
148.5905176269
20
60.5891424450
11
142.4905176269
21
60.5891424450
0
LINE
8
13000_TOP
62
7
6
CONTINUOUS
10
157.9905176269
20
60.5891424450
11
164.0905176269
21
60.5891424450
0
LINE
8
13000_TOP
62
7
6
CONTINUOUS
10
148.5905176269
20
61.1891424450
11
142.4905176269
21
61.1891424450
0
LINE
8
13000_TOP
62
7
6
CONTINUOUS
10
157.9905176269
20
61.1891424450
11
164.0905176269
21
61.1891424450
0
LINE
8
13000_TOP
62
7
6
CONTINUOUS
10
151.9031332010
20
62.2891059215
11
154.6779020528
21
62.2891059215
0
LINE
8
13000_TOP
62
7
6
CONTINUOUS
10
144.0905176269
20
62.2891424450
11
142.7905176269
21
62.2891424450
0
LINE
8
13000_TOP
62
7
6
CONTINUOUS
10
162.4905176269
20
62.2891424450
11
164.0905176269
21
62.2891424450
0
LINE
8
10000_FRONT
62
7
6
CONTINUOUS
10
152.7405176269
20
224.1104761601
11
152.3905216647
21
223.4104761601
0
LINE
8
10000_FRONT
62
7
6
CONTINUOUS
10
154.1905135890
20
225.4104761601
11
153.8405176269
21
224.7104761601
0
LINE
8
10000_FRONT
62
7
6
CONTINUOUS
10
152.7405176269
20
218.9104761601
11
152.3905216647
21
218.2104761601
0
LINE
8
10000_FRONT
62
7
6
CONTINUOUS
10
154.1905135890
20
220.2104761601
11
153.8405176269
21
219.5104761601
0
LINE
8
10000_FRONT
62
7
6
CONTINUOUS
10
152.7405176269
20
213.7104761601
11
152.3905216647
21
213.0104761601
0
LINE
8
10000_FRONT
62
7
6
CONTINUOUS
10
154.1905135890
20
215.0104761601
11
153.8405176269
21
214.3104761601
0
LINE
8
10000_FRONT
62
7
6
CONTINUOUS
10
152.7405176269
20
208.5104761601
11
152.3905216647
21
207.8104761601
0
LINE
8
10000_FRONT
62
7
6
CONTINUOUS
10
154.1905135890
20
209.8104761601
11
153.8405176269
21
209.1104761601
0
LINE
8
10000_FRONT
62
7
6
CONTINUOUS
10
152.7405176269
20
203.3104761601
11
152.3905216647
21
202.6104761601
0
LINE
8
10000_FRONT
62
7
6
CONTINUOUS
10
154.1905135890
20
204.6104761601
11
153.8405176269
21
203.9104761601
0
LINE
8
10000_FRONT
62
7
6
CONTINUOUS
10
152.7405176269
20
198.1104761601
11
152.3905216647
21
197.4104761601
0
LINE
8
10000_FRONT
62
7
6
CONTINUOUS
10
154.1905135890
20
199.4104761601
11
153.8405176269
21
198.7104761601
0
LINE
8
10000_FRONT
62
7
6
CONTINUOUS
10
158.1142623102
20
215.7413276246
11
160.5596661623
21
218.1867314768
0
LINE
8
10000_FRONT
62
7
6
CONTINUOUS
10
158.8213690914
20
215.0342208435
11
161.2667729435
21
217.4796246956
0
LINE
8
10000_FRONT
62
7
6
CONTINUOUS
10
158.1142623102
20
210.5413276246
11
160.5596661623
21
212.9867314768
0
LINE
8
10000_FRONT
62
7
6
CONTINUOUS
10
158.8213690914
20
209.8342208435
11
161.2667729435
21
212.2796246956
0
LINE
8
10000_FRONT
62
7
6
CONTINUOUS
10
158.1142623102
20
205.3413276246
11
160.5596661623
21
207.7867314768
0
LINE
8
10000_FRONT
62
7
6
CONTINUOUS
10
158.8213690914
20
204.6342208435
11
161.2667729435
21
207.0796246956
0
LINE
8
10000_FRONT
62
7
6
CONTINUOUS
10
158.1142623102
20
200.1413276246
11
160.5596661623
21
202.5867314768
0
LINE
8
10000_FRONT
62
7
6
CONTINUOUS
10
158.8213690914
20
199.4342208435
11
161.2667729435
21
201.8796246956
0
LINE
8
10000_FRONT
62
7
6
CONTINUOUS
10
153.8405176269
20
214.3104761601
11
152.7405176269
21
213.7104761601
0
LINE
8
10000_FRONT
62
7
6
CONTINUOUS
10
153.8405176269
20
209.1104761601
11
152.7405176269
21
208.5104761601
0
LINE
8
10000_FRONT
62
7
6
CONTINUOUS
10
153.8405176269
20
203.9104761601
11
152.7405176269
21
203.3104761601
0
LINE
8
13000_TOP
62
7
6
CONTINUOUS
10
150.7905135891
20
63.2891424450
11
155.7905135891
21
63.2891424450
0
LINE
8
13000_TOP
62
7
6
CONTINUOUS
10
148.5905176269
20
67.4891424450
11
144.0905176269
21
67.4891424450
0
LINE
8
13000_TOP
62
7
6
CONTINUOUS
10
157.9905176269
20
67.4891424450
11
162.4905176269
21
67.4891424450
0
LINE
8
13000_TOP
62
7
6
CONTINUOUS
10
148.5905176269
20
68.2070883068
11
144.0905176269
21
68.2070883068
0
LINE
8
13000_TOP
62
7
6
CONTINUOUS
10
157.9905176269
20
68.2070883068
11
162.4905176269
21
68.2070883068
0
LINE
8
13000_TOP
62
7
6
CONTINUOUS
10
162.4905176269
20
71.2891424450
11
155.7905135891
21
71.2891424450
0
LINE
8
13000_TOP
62
7
6
CONTINUOUS
10
144.0905176269
20
71.2891424450
11
150.7905135891
21
71.2891424450
0
LINE
8
13000_TOP
62
7
6
CONTINUOUS
10
163.5546273177
20
73.2891424450
11
155.7905135891
21
73.2891424450
0
LINE
8
13000_TOP
62
7
6
CONTINUOUS
10
143.0264160118
20
73.2891424450
11
150.7905135891
21
73.2891424450
0
LINE
8
13000_TOP
62
7
6
CONTINUOUS
10
151.8030176269
20
74.7891424450
11
154.7780176269
21
74.7891424450
0
LINE
8
13000_TOP
62
7
6
CONTINUOUS
10
152.6342676269
20
76.1016424450
11
153.9467676269
21
76.1016424450
0
LINE
8
13000_TOP
62
7
6
CONTINUOUS
10
152.5838842355
20
48.8891424450
11
152.8103271379
21
43.2891424450
0
LINE
8
10000_FRONT
62
7
6
CONTINUOUS
10
142.4905176269
20
176.3604761601
11
142.4905176269
21
119.5104761601
0
LINE
8
13000_TOP
62
7
6
CONTINUOUS
10
142.4905176269
20
42.2891424450
11
142.4905176269
21
71.2891424450
0
LINE
8
10000_FRONT
62
7
6
CONTINUOUS
10
142.4905176269
20
179.3604761601
11
142.4905176269
21
235.7104761601
0
LINE
8
10000_FRONT
62
7
6
CONTINUOUS
10
143.4905176269
20
175.5104761601
11
143.4905176269
21
172.7104761601
0
LINE
8
10000_FRONT
62
7
6
CONTINUOUS
10
143.9905176269
20
175.5104761601
11
143.9905176269
21
179.3604761601
0
LINE
8
13000_TOP
62
7
6
CONTINUOUS
10
144.0905176269
20
71.2891424450
11
144.0905176269
21
62.2891424450
0
LINE
8
10000_FRONT
62
7
6
CONTINUOUS
10
144.2905176269
20
239.3104761601
11
144.2905176269
21
238.8104761601
0
LINE
8
13000_TOP
62
7
6
CONTINUOUS
10
144.2905211600
20
53.2891424450
11
144.2905211600
21
47.7201185018
0
LINE
8
10000_FRONT
62
7
6
CONTINUOUS
10
144.2905176269
20
115.9104761601
11
144.2905176269
21
116.4104761601
0
LINE
8
10000_FRONT
62
7
6
CONTINUOUS
10
144.8905176269
20
175.5104761601
11
144.8905176269
21
172.7104761601
0
LINE
8
13000_TOP
62
7
6
CONTINUOUS
10
145.2905176269
20
53.6690434051
11
145.2905221303
21
48.8891424450
0
LINE
8
10000_FRONT
62
7
6
CONTINUOUS
10
145.2905176269
20
240.1104761601
11
145.2905176269
21
239.8104761601
0
LINE
8
10000_FRONT
62
7
6
CONTINUOUS
10
145.2905176269
20
115.1104761601
11
145.2905176269
21
115.4104761601
0
LINE
8
10000_FRONT
62
7
6
CONTINUOUS
10
147.7884454833
20
119.5104761601
11
147.7884454833
21
116.9104761601
0
LINE
8
10000_FRONT
62
7
6
CONTINUOUS
10
147.7884454833
20
235.7104761601
11
147.7884454833
21
238.3104761601
0
LINE
8
13000_TOP
62
7
6
CONTINUOUS
10
148.5905176269
20
68.2070883068
11
148.5905176269
21
60.5891424450
0
LINE
8
10000_FRONT
62
7
6
CONTINUOUS
10
149.3405176269
20
176.8604761601
11
149.3405176269
21
116.9104761601
0
LINE
8
13000_TOP
62
7
6
CONTINUOUS
10
149.3405176269
20
47.1112432151
11
149.3405176269
21
42.4891424450
0
LINE
8
10000_FRONT
62
7
6
CONTINUOUS
10
149.3405176269
20
178.3604761601
11
149.3405176269
21
238.3104761601
0
LINE
8
10000_FRONT
62
7
6
CONTINUOUS
10
149.9405176269
20
182.2104761601
11
149.9405176269
21
180.4104761601
0
LINE
8
10000_FRONT
62
7
6
CONTINUOUS
10
149.9405176269
20
173.0104761601
11
149.9405176269
21
174.8104761601
0
LINE
8
13000_TOP
62
7
6
CONTINUOUS
10
150.4898631940
20
32.3891424450
11
150.4898631940
21
42.2891424450
0
LINE
8
13000_TOP
62
7
6
CONTINUOUS
10
150.5921790020
20
42.2891424450
11
150.5921790020
21
47.7973598536
0
LINE
8
13000_TOP
62
7
6
CONTINUOUS
10
150.7905135891
20
73.2891424450
11
150.7905135891
21
62.8079289672
0
LINE
8
13000_TOP
62
7
6
CONTINUOUS
10
151.5405176269
20
63.2891424450
11
151.5405176269
21
74.5266424450
0
LINE
8
10000_FRONT
62
7
6
CONTINUOUS
10
151.8905176269
20
171.4104761601
11
151.8905176269
21
168.2104761601
0
LINE
8
10000_FRONT
62
7
6
CONTINUOUS
10
151.8905176269
20
166.2104761601
11
151.8905176269
21
163.0104761601
0
LINE
8
10000_FRONT
62
7
6
CONTINUOUS
10
151.8905176269
20
161.0104761601
11
151.8905176269
21
157.8104761601
0
LINE
8
10000_FRONT
62
7
6
CONTINUOUS
10
151.8905176269
20
155.8104761601
11
151.8905176269
21
152.6104761601
0
LINE
8
10000_FRONT
62
7
6
CONTINUOUS
10
151.8905176269
20
150.6104761601
11
151.8905176269
21
147.4104761601
0
LINE
8
10000_FRONT
62
7
6
CONTINUOUS
10
151.8905176269
20
145.4104761601
11
151.8905176269
21
142.2104761601
0
LINE
8
10000_FRONT
62
7
6
CONTINUOUS
10
151.8905176269
20
140.2104761601
11
151.8905176269
21
137.0104761601
0
LINE
8
10000_FRONT
62
7
6
CONTINUOUS
10
151.8905176269
20
135.0104761601
11
151.8905176269
21
131.8104761601
0
LINE
8
10000_FRONT
62
7
6
CONTINUOUS
10
151.8905176269
20
129.8104761601
11
151.8905176269
21
126.6104761601
0
LINE
8
10000_FRONT
62
7
6
CONTINUOUS
10
151.8905176269
20
124.6104761601
11
151.8905176269
21
121.4104761601
0
LINE
8
13000_TOP
62
7
6
CONTINUOUS
10
151.8905176269
20
63.2891424450
11
151.8905176269
21
74.7891424450
0
LINE
8
10000_FRONT
62
7
6
CONTINUOUS
10
151.8905176269
20
183.8104761601
11
151.8905176269
21
187.0104761601
0
LINE
8
10000_FRONT
62
7
6
CONTINUOUS
10
151.8905176269
20
189.0104761601
11
151.8905176269
21
192.2104761601
0
LINE
8
10000_FRONT
62
7
6
CONTINUOUS
10
151.8905176269
20
194.2104761601
11
151.8905176269
21
197.4104761601
0
LINE
8
10000_FRONT
62
7
6
CONTINUOUS
10
151.8905176269
20
199.4104761601
11
151.8905176269
21
202.6104761601
0
LINE
8
10000_FRONT
62
7
6
CONTINUOUS
10
151.8905176269
20
204.6104761601
11
151.8905176269
21
207.8104761601
0
LINE
8
10000_FRONT
62
7
6
CONTINUOUS
10
151.8905176269
20
209.8104761601
11
151.8905176269
21
213.0104761601
0
LINE
8
10000_FRONT
62
7
6
CONTINUOUS
10
151.8905176269
20
215.0104761601
11
151.8905176269
21
218.2104761601
0
LINE
8
10000_FRONT
62
7
6
CONTINUOUS
10
151.8905176269
20
220.2104761601
11
151.8905176269
21
223.4104761601
0
LINE
8
10000_FRONT
62
7
6
CONTINUOUS
10
151.8905176269
20
225.4104761601
11
151.8905176269
21
228.6104761601
0
LINE
8
10000_FRONT
62
7
6
CONTINUOUS
10
151.8905176269
20
230.6104761601
11
151.8905176269
21
233.8104761601
0
LINE
8
13000_TOP
62
7
6
CONTINUOUS
10
152.1967676269
20
75.0516424450
11
152.1967676269
21
75.6641424450
0
LINE
8
10000_FRONT
62
7
6
CONTINUOUS
10
152.3838870641
20
171.4104761601
11
152.3838870641
21
168.2104761601
0
LINE
8
10000_FRONT
62
7
6
CONTINUOUS
10
152.3838870641
20
166.2104761601
11
152.3838870641
21
163.0104761601
0
LINE
8
10000_FRONT
62
7
6
CONTINUOUS
10
152.3838870641
20
161.0104761601
11
152.3838870641
21
157.8104761601
0
LINE
8
10000_FRONT
62
7
6
CONTINUOUS
10
152.3838870641
20
155.8104761601
11
152.3838870641
21
152.6104761601
0
LINE
8
10000_FRONT
62
7
6
CONTINUOUS
10
152.3838870641
20
150.6104761601
11
152.3838870641
21
147.4104761601
0
LINE
8
10000_FRONT
62
7
6
CONTINUOUS
10
152.3838870641
20
145.4104761601
11
152.3838870641
21
142.2104761601
0
LINE
8
10000_FRONT
62
7
6
CONTINUOUS
10
152.3838870641
20
140.2104761601
11
152.3838870641
21
137.0104761601
0
LINE
8
10000_FRONT
62
7
6
CONTINUOUS
10
152.3838870641
20
135.0104761601
11
152.3838870641
21
131.8104761601
0
LINE
8
10000_FRONT
62
7
6
CONTINUOUS
10
152.3838870641
20
129.8104761601
11
152.3838870641
21
126.6104761601
0
LINE
8
10000_FRONT
62
7
6
CONTINUOUS
10
152.3838870641
20
124.6104761601
11
152.3838870641
21
121.4104761601
0
LINE
8
10000_FRONT
62
7
6
CONTINUOUS
10
152.3838870641
20
183.8104761601
11
152.3838870641
21
187.0104761601
0
LINE
8
10000_FRONT
62
7
6
CONTINUOUS
10
152.3838870641
20
189.0104761601
11
152.3838870641
21
192.2104761601
0
LINE
8
10000_FRONT
62
7
6
CONTINUOUS
10
152.3838870641
20
194.2104761601
11
152.3838870641
21
197.4104761601
0
LINE
8
10000_FRONT
62
7
6
CONTINUOUS
10
152.3838870641
20
199.4104761601
11
152.3838870641
21
202.6104761601
0
LINE
8
10000_FRONT
62
7
6
CONTINUOUS
10
152.3838870641
20
204.6104761601
11
152.3838870641
21
207.8104761601
0
LINE
8
10000_FRONT
62
7
6
CONTINUOUS
10
152.3838870641
20
209.8104761601
11
152.3838870641
21
213.0104761601
0
LINE
8
10000_FRONT
62
7
6
CONTINUOUS
10
152.3838870641
20
215.0104761601
11
152.3838870641
21
218.2104761601
0
LINE
8
10000_FRONT
62
7
6
CONTINUOUS
10
152.3838870641
20
220.2104761601
11
152.3838870641
21
223.4104761601
0
LINE
8
10000_FRONT
62
7
6
CONTINUOUS
10
152.3838870641
20
225.4104761601
11
152.3838870641
21
228.6104761601
0
LINE
8
10000_FRONT
62
7
6
CONTINUOUS
10
152.3838870641
20
230.6104761601
11
152.3838870641
21
233.8104761601
0
LINE
8
10000_FRONT
62
7
6
CONTINUOUS
10
152.5838870641
20
121.1005157732
11
152.5838870641
21
115.1104761601
0
LINE
8
10000_FRONT
62
7
6
CONTINUOUS
10
152.5838870641
20
234.1204365471
11
152.5838870641
21
240.1104761601
0
LINE
8
10000_FRONT
62
7
6
CONTINUOUS
10
152.7405176269
20
192.9104761601
11
152.3905216647
21
192.2104761601
0
LINE
8
10000_FRONT
62
7
6
CONTINUOUS
10
154.1905135890
20
194.2104761601
11
153.8405176269
21
193.5104761601
0
LINE
8
10000_FRONT
62
7
6
CONTINUOUS
10
152.7405176269
20
187.7104761601
11
152.3905216647
21
187.0104761601
0
LINE
8
10000_FRONT
62
7
6
CONTINUOUS
10
154.1905135890
20
189.0104761601
11
153.8405176269
21
188.3104761601
0
LINE
8
10000_FRONT
62
7
6
CONTINUOUS
10
154.1905135890
20
183.8104761601
11
153.8405176269
21
183.1104761601
0
LINE
8
10000_FRONT
62
7
6
CONTINUOUS
10
152.7405176269
20
172.1104761601
11
152.3905216647
21
171.4104761601
0
LINE
8
10000_FRONT
62
7
6
CONTINUOUS
10
152.7405176269
20
166.9104761601
11
152.3905216647
21
166.2104761601
0
LINE
8
10000_FRONT
62
7
6
CONTINUOUS
10
154.1905135890
20
168.2104761601
11
153.8405176269
21
167.5104761601
0
LINE
8
10000_FRONT
62
7
6
CONTINUOUS
10
152.7405176269
20
161.7104761601
11
152.3905216647
21
161.0104761601
0
LINE
8
10000_FRONT
62
7
6
CONTINUOUS
10
158.1142623102
20
194.9413276246
11
160.5596661623
21
197.3867314768
0
LINE
8
10000_FRONT
62
7
6
CONTINUOUS
10
158.8213690914
20
194.2342208435
11
161.2667729435
21
196.6796246956
0
LINE
8
10000_FRONT
62
7
6
CONTINUOUS
10
158.1142623102
20
189.7413276246
11
160.5596661623
21
192.1867314768
0
LINE
8
10000_FRONT
62
7
6
CONTINUOUS
10
158.8213690914
20
189.0342208435
11
161.2667729435
21
191.4796246956
0
LINE
8
10000_FRONT
62
7
6
CONTINUOUS
10
158.1142623102
20
184.5413276246
11
160.5596661623
21
186.9867314768
0
LINE
8
10000_FRONT
62
7
6
CONTINUOUS
10
158.8213690914
20
183.8342208435
11
161.2667729435
21
186.2796246956
0
LINE
8
10000_FRONT
62
7
6
CONTINUOUS
10
147.7596661623
20
171.3867314768
11
145.3142623102
21
168.9413276246
0
LINE
8
10000_FRONT
62
7
6
CONTINUOUS
10
148.4667729435
20
170.6796246956
11
146.0213690914
21
168.2342208435
0
LINE
8
10000_FRONT
62
7
6
CONTINUOUS
10
153.8405176269
20
198.7104761601
11
152.7405176269
21
198.1104761601
0
LINE
8
10000_FRONT
62
7
6
CONTINUOUS
10
153.8405176269
20
193.5104761601
11
152.7405176269
21
192.9104761601
0
LINE
8
10000_FRONT
62
7
6
CONTINUOUS
10
153.8405176269
20
188.3104761601
11
152.7405176269
21
187.7104761601
0
LINE
8
10000_FRONT
62
7
6
CONTINUOUS
10
153.8405176269
20
183.1104761601
11
153.2905176269
21
182.8104761601
0
LINE
8
10000_FRONT
62
7
6
CONTINUOUS
10
152.5772468062
20
121.1104761601
11
152.3772468062
21
121.4104761601
0
LINE
8
10000_FRONT
62
7
6
CONTINUOUS
10
152.7405176269
20
125.9104761601
11
152.3905216647
21
126.6104761601
0
LINE
8
10000_FRONT
62
7
6
CONTINUOUS
10
154.1905135890
20
124.6104761601
11
153.8405176269
21
125.3104761601
0
LINE
8
10000_FRONT
62
7
6
CONTINUOUS
10
152.7405176269
20
131.1104761601
11
152.3905216647
21
131.8104761601
0
LINE
8
10000_FRONT
62
7
6
CONTINUOUS
10
154.1905135890
20
129.8104761601
11
153.8405176269
21
130.5104761601
0
LINE
8
10000_FRONT
62
7
6
CONTINUOUS
10
152.7405176269
20
136.3104761601
11
152.3905216647
21
137.0104761601
0
LINE
8
13000_TOP
62
7
6
CONTINUOUS
10
161.9546192420
20
73.2891424450
11
162.4905176269
21
71.2891424450
0
LINE
8
13000_TOP
62
7
6
CONTINUOUS
10
163.5546273177
20
73.2891424450
11
164.0905176269
21
71.2891725839
0
LINE
8
10000_FRONT
62
7
6
CONTINUOUS
10
153.9971538470
20
121.1204365471
11
153.9971538470
21
115.1104761601
0
LINE
8
10000_FRONT
62
7
6
CONTINUOUS
10
153.9971538470
20
234.1005157732
11
153.9971538470
21
240.1104761601
0
LINE
8
10000_FRONT
62
7
6
CONTINUOUS
10
154.1971538470
20
171.4104761601
11
154.1971538470
21
168.2104761601
0
LINE
8
10000_FRONT
62
7
6
CONTINUOUS
10
154.1971538470
20
166.2104761601
11
154.1971538470
21
163.0104761601
0
LINE
8
10000_FRONT
62
7
6
CONTINUOUS
10
154.1971538470
20
161.0104761601
11
154.1971538470
21
157.8104761601
0
LINE
8
10000_FRONT
62
7
6
CONTINUOUS
10
154.1971538470
20
155.8104761601
11
154.1971538470
21
152.6104761601
0
LINE
8
10000_FRONT
62
7
6
CONTINUOUS
10
154.1971538470
20
150.6104761601
11
154.1971538470
21
147.4104761601
0
LINE
8
10000_FRONT
62
7
6
CONTINUOUS
10
154.1971538470
20
145.4104761601
11
154.1971538470
21
142.2104761601
0
LINE
8
10000_FRONT
62
7
6
CONTINUOUS
10
154.1971538470
20
140.2104761601
11
154.1971538470
21
137.0104761601
0
LINE
8
10000_FRONT
62
7
6
CONTINUOUS
10
154.1971538470
20
135.0104761601
11
154.1971538470
21
131.8104761601
0
LINE
8
10000_FRONT
62
7
6
CONTINUOUS
10
154.1971538470
20
129.8104761601
11
154.1971538470
21
126.6104761601
0
LINE
8
10000_FRONT
62
7
6
CONTINUOUS
10
154.1971538470
20
124.6104761601
11
154.1971538470
21
121.4104761601
0
LINE
8
10000_FRONT
62
7
6
CONTINUOUS
10
154.1971538470
20
183.8104761601
11
154.1971538470
21
187.0104761601
0
LINE
8
10000_FRONT
62
7
6
CONTINUOUS
10
154.1971538470
20
189.0104761601
11
154.1971538470
21
192.2104761601
0
LINE
8
10000_FRONT
62
7
6
CONTINUOUS
10
154.1971538470
20
194.2104761601
11
154.1971538470
21
197.4104761601
0
LINE
8
10000_FRONT
62
7
6
CONTINUOUS
10
154.1971538470
20
199.4104761601
11
154.1971538470
21
202.6104761601
0
LINE
8
10000_FRONT
62
7
6
CONTINUOUS
10
154.1971538470
20
204.6104761601
11
154.1971538470
21
207.8104761601
0
LINE
8
10000_FRONT
62
7
6
CONTINUOUS
10
154.1971538470
20
209.8104761601
11
154.1971538470
21
213.0104761601
0
LINE
8
10000_FRONT
62
7
6
CONTINUOUS
10
154.1971538470
20
215.0104761601
11
154.1971538470
21
218.2104761601
0
LINE
8
10000_FRONT
62
7
6
CONTINUOUS
10
154.1971538470
20
220.2104761601
11
154.1971538470
21
223.4104761601
0
LINE
8
10000_FRONT
62
7
6
CONTINUOUS
10
154.1971538470
20
225.4104761601
11
154.1971538470
21
228.6104761601
0
LINE
8
10000_FRONT
62
7
6
CONTINUOUS
10
154.1971538470
20
230.6104761601
11
154.1971538470
21
233.8104761601
0
LINE
8
13000_TOP
62
7
6
CONTINUOUS
10
154.3842676269
20
75.0516424450
11
154.3842676269
21
75.6641424450
0
LINE
8
13000_TOP
62
7
6
CONTINUOUS
10
154.6905176269
20
63.2891424450
11
154.6905176269
21
74.7891424450
0
LINE
8
10000_FRONT
62
7
6
CONTINUOUS
10
154.6971578848
20
171.4104761601
11
154.6971578848
21
168.2104761601
0
LINE
8
10000_FRONT
62
7
6
CONTINUOUS
10
154.6971578848
20
166.2104761601
11
154.6971578848
21
163.0104761601
0
LINE
8
10000_FRONT
62
7
6
CONTINUOUS
10
154.6971578848
20
161.0104761601
11
154.6971578848
21
157.8104761601
0
LINE
8
10000_FRONT
62
7
6
CONTINUOUS
10
154.6971578848
20
155.8104761601
11
154.6971578848
21
152.6104761601
0
LINE
8
10000_FRONT
62
7
6
CONTINUOUS
10
154.6971578848
20
150.6104761601
11
154.6971578848
21
147.4104761601
0
LINE
8
10000_FRONT
62
7
6
CONTINUOUS
10
154.6971578848
20
145.4104761601
11
154.6971578848
21
142.2104761601
0
LINE
8
10000_FRONT
62
7
6
CONTINUOUS
10
154.6971578848
20
140.2104761601
11
154.6971578848
21
137.0104761601
0
LINE
8
10000_FRONT
62
7
6
CONTINUOUS
10
154.6971578848
20
135.0104761601
11
154.6971578848
21
131.8104761601
0
LINE
8
10000_FRONT
62
7
6
CONTINUOUS
10
154.6971578848
20
129.8104761601
11
154.6971578848
21
126.6104761601
0
LINE
8
10000_FRONT
62
7
6
CONTINUOUS
10
154.6971578848
20
124.6104761601
11
154.6971578848
21
121.4104761601
0
LINE
8
10000_FRONT
62
7
6
CONTINUOUS
10
154.6971578848
20
183.8104761601
11
154.6971578848
21
187.0104761601
0
LINE
8
10000_FRONT
62
7
6
CONTINUOUS
10
154.6971578848
20
189.0104761601
11
154.6971578848
21
192.2104761601
0
LINE
8
10000_FRONT
62
7
6
CONTINUOUS
10
154.6971578848
20
194.2104761601
11
154.6971578848
21
197.4104761601
0
LINE
8
10000_FRONT
62
7
6
CONTINUOUS
10
154.6971578848
20
199.4104761601
11
154.6971578848
21
202.6104761601
0
LINE
8
10000_FRONT
62
7
6
CONTINUOUS
10
154.6971578848
20
204.6104761601
11
154.6971578848
21
207.8104761601
0
LINE
8
10000_FRONT
62
7
6
CONTINUOUS
10
154.6971578848
20
209.8104761601
11
154.6971578848
21
213.0104761601
0
LINE
8
10000_FRONT
62
7
6
CONTINUOUS
10
154.6971578848
20
215.0104761601
11
154.6971578848
21
218.2104761601
0
LINE
8
10000_FRONT
62
7
6
CONTINUOUS
10
154.6971578848
20
220.2104761601
11
154.6971578848
21
223.4104761601
0
LINE
8
10000_FRONT
62
7
6
CONTINUOUS
10
154.6971578848
20
225.4104761601
11
154.6971578848
21
228.6104761601
0
LINE
8
10000_FRONT
62
7
6
CONTINUOUS
10
154.6971578848
20
230.6104761601
11
154.6971578848
21
233.8104761601
0
LINE
8
13000_TOP
62
7
6
CONTINUOUS
10
155.0405176269
20
63.2891424450
11
155.0405176269
21
74.5266424450
0
LINE
8
13000_TOP
62
7
6
CONTINUOUS
10
155.7905135891
20
73.2891424450
11
155.7905135891
21
62.8079252014
0
LINE
8
13000_TOP
62
7
6
CONTINUOUS
10
155.9875473861
20
42.2891424450
11
155.9875473861
21
47.7980773277
0
LINE
8
13000_TOP
62
7
6
CONTINUOUS
10
156.0898631940
20
32.3891424450
11
156.0898631940
21
42.2891424450
0
LINE
8
10000_FRONT
62
7
6
CONTINUOUS
10
156.6405176269
20
174.8104761601
11
156.6405176269
21
173.0104761601
0
LINE
8
10000_FRONT
62
7
6
CONTINUOUS
10
156.6405176269
20
180.4104761601
11
156.6405176269
21
182.2104761601
0
LINE
8
10000_FRONT
62
7
6
CONTINUOUS
10
157.2405176269
20
176.8604761601
11
157.2405176269
21
116.9104761601
0
LINE
8
13000_TOP
62
7
6
CONTINUOUS
10
157.2405176269
20
47.1112432151
11
157.2405176269
21
42.4891424450
0
LINE
8
10000_FRONT
62
7
6
CONTINUOUS
10
157.2405176269
20
178.3604761601
11
157.2405176269
21
238.3104761601
0
LINE
8
13000_TOP
62
7
6
CONTINUOUS
10
157.9905176269
20
68.2070883068
11
157.9905176269
21
60.5891424450
0
LINE
8
10000_FRONT
62
7
6
CONTINUOUS
10
158.7925897704
20
119.5104761601
11
158.7925897704
21
116.9104761601
0
LINE
8
10000_FRONT
62
7
6
CONTINUOUS
10
158.7925897704
20
235.7104761601
11
158.7925897704
21
238.3104761601
0
LINE
8
10000_FRONT
62
7
6
CONTINUOUS
10
161.2905176269
20
240.1104761601
11
161.2905176269
21
239.8104761601
0
LINE
8
13000_TOP
62
7
6
CONTINUOUS
10
161.2905176269
20
53.6690434051
11
161.2905176269
21
48.8891424450
0
LINE
8
10000_FRONT
62
7
6
CONTINUOUS
10
161.2905176269
20
115.1104761601
11
161.2905176269
21
115.4104761601
0
LINE
8
10000_FRONT
62
7
6
CONTINUOUS
10
161.6905176269
20
175.5104761601
11
161.6905176269
21
172.7104761601
0
LINE
8
10000_FRONT
62
7
6
CONTINUOUS
10
162.2905176269
20
239.3104761601
11
162.2905176269
21
238.8104761601
0
LINE
8
10000_FRONT
62
7
6
CONTINUOUS
10
162.2905176269
20
115.9104761601
11
162.2905176269
21
116.4104761601
0
LINE
8
13000_TOP
62
7
6
CONTINUOUS
10
162.2905211600
20
47.7201146283
11
162.2905211600
21
53.2891424450
0
LINE
8
13000_TOP
62
7
6
CONTINUOUS
10
162.4905176269
20
71.2891424450
11
162.4905176269
21
62.2891424450
0
LINE
8
10000_FRONT
62
7
6
CONTINUOUS
10
162.5905176269
20
178.8604761601
11
162.5905176269
21
175.5104761601
0
LINE
8
10000_FRONT
62
7
6
CONTINUOUS
10
163.0905176269
20
175.5104761601
11
163.0905176269
21
172.7104761601
0
LINE
8
10000_FRONT
62
7
6
CONTINUOUS
10
164.0905176269
20
176.3604761601
11
164.0905176269
21
119.5104761601
0
LINE
8
13000_TOP
62
7
6
CONTINUOUS
10
164.0905176269
20
42.2891424450
11
164.0905176269
21
71.2891725839
0
LINE
8
10000_FRONT
62
7
6
CONTINUOUS
10
164.0905176269
20
178.8604761601
11
164.0905176269
21
235.7104761601
0
LINE
8
13000_TOP
62
7
6
CONTINUOUS
10
153.9971510183
20
48.8891424450
11
153.7707081159
21
43.2891424450
0
LINE
8
13000_TOP
62
7
6
CONTINUOUS
10
143.0264160118
20
73.2891424450
11
142.4905176269
21
71.2891424450
0
LINE
8
13000_TOP
62
7
6
CONTINUOUS
10
144.6264160118
20
73.2891424450
11
144.0905176269
21
71.2891424450
0
LINE
8
10000_FRONT
62
7
6
CONTINUOUS
10
154.1905135890
20
163.0104761601
11
153.8405176269
21
162.3104761601
0
LINE
8
10000_FRONT
62
7
6
CONTINUOUS
10
152.7405176269
20
156.5104761601
11
152.3905216647
21
155.8104761601
0
LINE
8
10000_FRONT
62
7
6
CONTINUOUS
10
154.1905135890
20
157.8104761601
11
153.8405176269
21
157.1104761601
0
LINE
8
10000_FRONT
62
7
6
CONTINUOUS
10
152.7405176269
20
151.3104761601
11
152.3905216647
21
150.6104761601
0
LINE
8
10000_FRONT
62
7
6
CONTINUOUS
10
154.1905135890
20
152.6104761601
11
153.8405176269
21
151.9104761601
0
LINE
8
10000_FRONT
62
7
6
CONTINUOUS
10
152.7405176269
20
146.1104761601
11
152.3905216647
21
145.4104761601
0
LINE
8
10000_FRONT
62
7
6
CONTINUOUS
10
154.1905135890
20
147.4104761601
11
153.8405176269
21
146.7104761601
0
LINE
8
10000_FRONT
62
7
6
CONTINUOUS
10
152.7405176269
20
140.9104761601
11
152.3905216647
21
140.2104761601
0
LINE
8
10000_FRONT
62
7
6
CONTINUOUS
10
154.1905135890
20
142.2104761601
11
153.8405176269
21
141.5104761601
0
LINE
8
10000_FRONT
62
7
6
CONTINUOUS
10
152.7405176269
20
135.7104761601
11
152.3905216647
21
135.0104761601
0
LINE
8
10000_FRONT
62
7
6
CONTINUOUS
10
154.1905135890
20
137.0104761601
11
153.8405176269
21
136.3104761601
0
LINE
8
10000_FRONT
62
7
6
CONTINUOUS
10
152.7405176269
20
130.5104761601
11
152.3905216647
21
129.8104761601
0
LINE
8
10000_FRONT
62
7
6
CONTINUOUS
10
154.1905135890
20
131.8104761601
11
153.8405176269
21
131.1104761601
0
LINE
8
10000_FRONT
62
7
6
CONTINUOUS
10
147.7596661623
20
166.1867314768
11
145.3142623102
21
163.7413276246
0
LINE
8
10000_FRONT
62
7
6
CONTINUOUS
10
148.4667729435
20
165.4796246956
11
146.0213690914
21
163.0342208435
0
LINE
8
10000_FRONT
62
7
6
CONTINUOUS
10
147.7596661623
20
160.9867314768
11
145.3142623102
21
158.5413276246
0
LINE
8
10000_FRONT
62
7
6
CONTINUOUS
10
148.4667729435
20
160.2796246956
11
146.0213690914
21
157.8342208435
0
LINE
8
10000_FRONT
62
7
6
CONTINUOUS
10
147.7596661623
20
155.7867314768
11
145.3142623102
21
153.3413276246
0
LINE
8
10000_FRONT
62
7
6
CONTINUOUS
10
148.4667729435
20
155.0796246956
11
146.0213690914
21
152.6342208435
0
LINE
8
10000_FRONT
62
7
6
CONTINUOUS
10
147.7596661623
20
150.5867314768
11
145.3142623102
21
148.1413276246
0
LINE
8
10000_FRONT
62
7
6
CONTINUOUS
10
148.4667729435
20
149.8796246956
11
146.0213690914
21
147.4342208435
0
LINE
8
11000_LEFT
62
7
6
CONTINUOUS
10
242.4905136642
20
230.7104760895
11
243.9905137348
21
231.7104761601
0
LINE
8
11000_LEFT
62
7
6
CONTINUOUS
10
242.4905136642
20
225.5104760895
11
243.9905137348
21
226.5104761601
0
LINE
8
10000_FRONT
62
7
6
CONTINUOUS
10
153.2905176269
20
172.4104761601
11
152.7405176269
21
172.1104761601
0
LINE
8
10000_FRONT
62
7
6
CONTINUOUS
10
153.8405176269
20
167.5104761601
11
152.7405176269
21
166.9104761601
0
LINE
8
11000_LEFT
62
7
6
CONTINUOUS
10
265.8606166668
20
115.4052043565
11
264.5106166668
21
115.1052043565
0
LINE
8
11000_LEFT
62
7
6
CONTINUOUS
10
264.5106166668
20
115.4052043565
11
263.1606166668
21
115.1052043565
0
LINE
8
11000_LEFT
62
7
6
CONTINUOUS
10
263.1606166668
20
115.4052043565
11
261.8106166668
21
115.1052043565
0
LINE
8
11000_LEFT
62
7
6
CONTINUOUS
10
261.8106166668
20
115.4052043565
11
260.4606166668
21
115.1052043565
0
LINE
8
11000_LEFT
62
7
6
CONTINUOUS
10
260.4606166668
20
115.4052043565
11
259.1106166668
21
115.1052043565
0
LINE
8
10000_FRONT
62
7
6
CONTINUOUS
10
153.8405176269
20
125.3104761601
11
152.7405176269
21
125.9104761601
0
LINE
8
10000_FRONT
62
7
6
CONTINUOUS
10
153.8405176269
20
130.5104761601
11
152.7405176269
21
131.1104761601
0
LINE
8
10000_FRONT
62
7
6
CONTINUOUS
10
158.1142623102
20
123.8796246956
11
160.5596661623
21
121.4342208435
0
LINE
8
10000_FRONT
62
7
6
CONTINUOUS
10
158.8213690914
20
124.5867314768
11
161.2667729435
21
122.1413276246
0
LINE
8
10000_FRONT
62
7
6
CONTINUOUS
10
158.1142623102
20
129.0796246956
11
160.5596661623
21
126.6342208435
0
LINE
8
10000_FRONT
62
7
6
CONTINUOUS
10
158.8213690914
20
129.7867314768
11
161.2667729435
21
127.3413276246
0
LINE
8
10000_FRONT
62
7
6
CONTINUOUS
10
158.1142623102
20
134.2796246956
11
160.5596661623
21
131.8342208435
0
LINE
8
10000_FRONT
62
7
6
CONTINUOUS
10
158.8213690914
20
134.9867314768
11
161.2667729435
21
132.5413276246
0
LINE
8
10000_FRONT
62
7
6
CONTINUOUS
10
158.1142623102
20
139.4796246956
11
160.5596661623
21
137.0342208435
0
LINE
8
10000_FRONT
62
7
6
CONTINUOUS
10
158.8213690914
20
140.1867314768
11
161.2667729435
21
137.7413276246
0
LINE
8
10000_FRONT
62
7
6
CONTINUOUS
10
154.1905135890
20
135.0104761601
11
153.8405176269
21
135.7104761601
0
LINE
8
10000_FRONT
62
7
6
CONTINUOUS
10
152.7405176269
20
141.5104761601
11
152.3905216647
21
142.2104761601
0
LINE
8
10000_FRONT
62
7
6
CONTINUOUS
10
154.1905135890
20
140.2104761601
11
153.8405176269
21
140.9104761601
0
LINE
8
10000_FRONT
62
7
6
CONTINUOUS
10
152.7405176269
20
146.7104761601
11
152.3905216647
21
147.4104761601
0
LINE
8
10000_FRONT
62
7
6
CONTINUOUS
10
154.1905135890
20
145.4104761601
11
153.8405176269
21
146.1104761601
0
LINE
8
10000_FRONT
62
7
6
CONTINUOUS
10
152.7405176269
20
151.9104761601
11
152.3905216647
21
152.6104761601
0
LINE
8
10000_FRONT
62
7
6
CONTINUOUS
10
154.1905135890
20
150.6104761601
11
153.8405176269
21
151.3104761601
0
LINE
8
10000_FRONT
62
7
6
CONTINUOUS
10
152.7405176269
20
157.1104761601
11
152.3905216647
21
157.8104761601
0
LINE
8
10000_FRONT
62
7
6
CONTINUOUS
10
154.1905135890
20
155.8104761601
11
153.8405176269
21
156.5104761601
0
LINE
8
10000_FRONT
62
7
6
CONTINUOUS
10
152.7405176269
20
162.3104761601
11
152.3905216647
21
163.0104761601
0
LINE
8
10000_FRONT
62
7
6
CONTINUOUS
10
154.1905135890
20
161.0104761601
11
153.8405176269
21
161.7104761601
0
LINE
8
10000_FRONT
62
7
6
CONTINUOUS
10
152.7405176269
20
167.5104761601
11
152.3905216647
21
168.2104761601
0
LINE
8
10000_FRONT
62
7
6
CONTINUOUS
10
154.1905135890
20
166.2104761601
11
153.8405176269
21
166.9104761601
0
LINE
8
10000_FRONT
62
7
6
CONTINUOUS
10
152.7405176269
20
125.3104761601
11
152.3905216647
21
124.6104761601
0
LINE
8
10000_FRONT
62
7
6
CONTINUOUS
10
154.1905135890
20
126.6104761601
11
153.8405176269
21
125.9104761601
0
LINE
8
10000_FRONT
62
7
6
CONTINUOUS
10
153.9905135890
20
121.1104761601
11
154.1905135890
21
121.4104761601
0
LINE
8
10000_FRONT
62
7
6
CONTINUOUS
10
147.7596661623
20
145.3867314768
11
145.3142623102
21
142.9413276246
0
LINE
8
10000_FRONT
62
7
6
CONTINUOUS
10
148.4667729435
20
144.6796246956
11
146.0213690914
21
142.2342208435
0
LINE
8
10000_FRONT
62
7
6
CONTINUOUS
10
147.7596661623
20
140.1867314768
11
145.3142623102
21
137.7413276246
0
LINE
8
10000_FRONT
62
7
6
CONTINUOUS
10
148.4667729435
20
139.4796246956
11
146.0213690914
21
137.0342208435
0
LINE
8
10000_FRONT
62
7
6
CONTINUOUS
10
147.7596661623
20
134.9867314768
11
145.3142623102
21
132.5413276246
0
LINE
8
10000_FRONT
62
7
6
CONTINUOUS
10
148.4667729435
20
134.2796246956
11
146.0213690914
21
131.8342208435
0
LINE
8
10000_FRONT
62
7
6
CONTINUOUS
10
147.7596661623
20
129.7867314768
11
145.3142623102
21
127.3413276246
0
LINE
8
10000_FRONT
62
7
6
CONTINUOUS
10
148.4667729435
20
129.0796246956
11
146.0213690914
21
126.6342208435
0
LINE
8
11000_LEFT
62
7
6
CONTINUOUS
10
254.6490962706
20
235.1690548039
11
255.1319389831
21
235.6518975164
0
LINE
8
11000_LEFT
62
7
6
CONTINUOUS
10
242.4905136642
20
220.3104760895
11
243.9905137348
21
221.3104761601
0
LINE
8
11000_LEFT
62
7
6
CONTINUOUS
10
242.4905136642
20
215.1104760895
11
243.9905137348
21
216.1104761601
0
LINE
8
11000_LEFT
62
7
6
CONTINUOUS
10
242.4905136642
20
209.9104760895
11
243.9905137348
21
210.9104761601
0
LINE
8
11000_LEFT
62
7
6
CONTINUOUS
10
242.4905136642
20
204.7104760895
11
243.9905137348
21
205.7104761601
0
LINE
8
10000_FRONT
62
7
6
CONTINUOUS
10
153.8405176269
20
162.3104761601
11
152.7405176269
21
161.7104761601
0
LINE
8
10000_FRONT
62
7
6
CONTINUOUS
10
153.8405176269
20
157.1104761601
11
152.7405176269
21
156.5104761601
0
LINE
8
10000_FRONT
62
7
6
CONTINUOUS
10
153.8405176269
20
151.9104761601
11
152.7405176269
21
151.3104761601
0
LINE
8
11000_LEFT
62
7
6
CONTINUOUS
10
271.5776733696
20
117.4152773481
11
268.8002896492
21
117.1722877583
0
LINE
8
10000_FRONT
62
7
6
CONTINUOUS
10
161.2905176269
20
115.1104761601
11
145.2905176269
21
115.1104761601
0
LINE
8
11000_LEFT
62
7
6
CONTINUOUS
10
269.5595415701
20
115.4052043565
11
258.9905176269
21
115.4052043565
0
LINE
8
10000_FRONT
62
7
6
CONTINUOUS
10
161.7905176269
20
115.4104761601
11
144.7905176269
21
115.4104761601
0
LINE
8
11000_LEFT
62
7
6
CONTINUOUS
10
258.9905176269
20
116.9052043565
11
269.5595415701
21
116.9052043565
0
LINE
8
10000_FRONT
62
7
6
CONTINUOUS
10
161.7905176269
20
116.9104761601
11
157.2405176269
21
116.9104761601
0
LINE
8
10000_FRONT
62
7
6
CONTINUOUS
10
144.7905176269
20
116.9104761601
11
149.3405176269
21
116.9104761601
0
LINE
8
10000_FRONT
62
7
6
CONTINUOUS
10
153.9971538470
20
117.0107703007
11
152.5838870641
21
117.0107703007
0
LINE
8
11000_LEFT
62
7
6
CONTINUOUS
10
273.4905176269
20
119.5104761601
11
244.4905176269
21
119.5104761601
0
LINE
8
10000_FRONT
62
7
6
CONTINUOUS
10
164.0905176269
20
119.5104761601
11
157.2405176269
21
119.5104761601
0
LINE
8
10000_FRONT
62
7
6
CONTINUOUS
10
142.4905176269
20
119.5104761601
11
149.3405176269
21
119.5104761601
0
LINE
8
11000_LEFT
62
7
6
CONTINUOUS
10
248.3633116737
20
120.1052043565
11
254.5905176269
21
120.1052043565
0
LINE
8
10000_FRONT
62
7
6
CONTINUOUS
10
153.8405176269
20
135.7104761601
11
152.7405176269
21
136.3104761601
0
LINE
8
10000_FRONT
62
7
6
CONTINUOUS
10
153.8405176269
20
140.9104761601
11
152.7405176269
21
141.5104761601
0
LINE
8
10000_FRONT
62
7
6
CONTINUOUS
10
153.8405176269
20
146.1104761601
11
152.7405176269
21
146.7104761601
0
LINE
8
10000_FRONT
62
7
6
CONTINUOUS
10
158.1142623102
20
144.6796246956
11
160.5596661623
21
142.2342208435
0
LINE
8
10000_FRONT
62
7
6
CONTINUOUS
10
158.8213690914
20
145.3867314768
11
161.2667729435
21
142.9413276246
0
LINE
8
10000_FRONT
62
7
6
CONTINUOUS
10
158.1142623102
20
149.8796246956
11
160.5596661623
21
147.4342208435
0
LINE
8
10000_FRONT
62
7
6
CONTINUOUS
10
158.8213690914
20
150.5867314768
11
161.2667729435
21
148.1413276246
0
LINE
8
10000_FRONT
62
7
6
CONTINUOUS
10
158.1142623102
20
155.0796246956
11
160.5596661623
21
152.6342208435
0
LINE
8
10000_FRONT
62
7
6
CONTINUOUS
10
158.8213690914
20
155.7867314768
11
161.2667729435
21
153.3413276246
0
LINE
8
10000_FRONT
62
7
6
CONTINUOUS
10
158.1142623102
20
160.2796246956
11
160.5596661623
21
157.8342208435
0
LINE
8
10000_FRONT
62
7
6
CONTINUOUS
10
158.8213690914
20
160.9867314768
11
161.2667729435
21
158.5413276246
0
LINE
8
10000_FRONT
62
7
6
CONTINUOUS
10
154.1905135890
20
171.4104761601
11
153.8405176269
21
172.1104761601
0
LINE
8
10000_FRONT
62
7
6
CONTINUOUS
10
152.7405176269
20
183.1104761601
11
152.3905216647
21
183.8104761601
0
LINE
8
10000_FRONT
62
7
6
CONTINUOUS
10
152.7405176269
20
188.3104761601
11
152.3905216647
21
189.0104761601
0
LINE
8
10000_FRONT
62
7
6
CONTINUOUS
10
154.1905135890
20
187.0104761601
11
153.8405176269
21
187.7104761601
0
LINE
8
10000_FRONT
62
7
6
CONTINUOUS
10
152.7405176269
20
193.5104761601
11
152.3905216647
21
194.2104761601
0
LINE
8
10000_FRONT
62
7
6
CONTINUOUS
10
154.1905135890
20
192.2104761601
11
153.8405176269
21
192.9104761601
0
LINE
8
10000_FRONT
62
7
6
CONTINUOUS
10
152.7405176269
20
198.7104761601
11
152.3905216647
21
199.4104761601
0
LINE
8
10000_FRONT
62
7
6
CONTINUOUS
10
154.1905135890
20
197.4104761601
11
153.8405176269
21
198.1104761601
0
LINE
8
10000_FRONT
62
7
6
CONTINUOUS
10
147.7596661623
20
124.5867314768
11
145.3142623102
21
122.1413276246
0
LINE
8
10000_FRONT
62
7
6
CONTINUOUS
10
148.4667729435
20
123.8796246956
11
146.0213690914
21
121.4342208435
0
LINE
8
11000_LEFT
62
7
6
CONTINUOUS
10
242.4905136642
20
199.5104760895
11
243.9905137348
21
200.5104761601
0
LINE
8
11000_LEFT
62
7
6
CONTINUOUS
10
242.4905136642
20
194.3104760895
11
243.9905137348
21
195.3104761601
0
LINE
8
11000_LEFT
62
7
6
CONTINUOUS
10
242.4905136642
20
189.1104760895
11
243.9905137348
21
190.1104761601
0
LINE
8
10000_FRONT
62
7
6
CONTINUOUS
10
153.8405176269
20
146.7104761601
11
152.7405176269
21
146.1104761601
0
LINE
8
10000_FRONT
62
7
6
CONTINUOUS
10
153.8405176269
20
141.5104761601
11
152.7405176269
21
140.9104761601
0
LINE
8
10000_FRONT
62
7
6
CONTINUOUS
10
153.8405176269
20
136.3104761601
11
152.7405176269
21
135.7104761601
0
LINE
8
10000_FRONT
62
7
6
CONTINUOUS
10
157.2405176269
20
121.4104761601
11
154.1905135890
21
121.4104761601
0
LINE
8
10000_FRONT
62
7
6
CONTINUOUS
10
149.3405176269
20
121.4104761601
11
152.3905216647
21
121.4104761601
0
LINE
8
11000_LEFT
62
7
6
CONTINUOUS
10
271.7905176269
20
123.5078402583
11
265.0905176269
21
123.5078402583
0
LINE
8
10000_FRONT
62
7
6
CONTINUOUS
10
157.2405176269
20
124.6104761601
11
154.1905135890
21
124.6104761601
0
LINE
8
10000_FRONT
62
7
6
CONTINUOUS
10
149.3405176269
20
124.6104761601
11
152.3905216647
21
124.6104761601
0
LINE
8
10000_FRONT
62
7
6
CONTINUOUS
10
157.2471578848
20
125.3104761601
11
153.8405176269
21
125.3104761601
0
LINE
8
10000_FRONT
62
7
6
CONTINUOUS
10
149.3338830263
20
125.3104761601
11
152.7405176269
21
125.3104761601
0
LINE
8
10000_FRONT
62
7
6
CONTINUOUS
10
157.2471578848
20
125.9104761601
11
153.8405176269
21
125.9104761601
0
LINE
8
10000_FRONT
62
7
6
CONTINUOUS
10
149.3338830263
20
125.9104761601
11
152.7405176269
21
125.9104761601
0
LINE
8
10000_FRONT
62
7
6
CONTINUOUS
10
157.2405176269
20
126.6104761601
11
154.1905135890
21
126.6104761601
0
LINE
8
10000_FRONT
62
7
6
CONTINUOUS
10
149.3405176269
20
126.6104761601
11
152.3905216647
21
126.6104761601
0
LINE
8
11000_LEFT
62
7
6
CONTINUOUS
10
269.7905176269
20
126.7078402583
11
267.7905176269
21
126.7078402583
0
LINE
8
11000_LEFT
62
7
6
CONTINUOUS
10
267.7905176269
20
129.7078402583
11
269.7905176269
21
129.7078402583
0
LINE
8
10000_FRONT
62
7
6
CONTINUOUS
10
157.2405176269
20
129.8104761601
11
154.1905135890
21
129.8104761601
0
LINE
8
10000_FRONT
62
7
6
CONTINUOUS
10
149.3405176269
20
129.8104761601
11
152.3905216647
21
129.8104761601
0
LINE
8
10000_FRONT
62
7
6
CONTINUOUS
10
157.2471578848
20
130.5104761601
11
153.8405176269
21
130.5104761601
0
LINE
8
10000_FRONT
62
7
6
CONTINUOUS
10
149.3338830263
20
130.5104761601
11
152.7405176269
21
130.5104761601
0
LINE
8
10000_FRONT
62
7
6
CONTINUOUS
10
157.2471578848
20
131.1104761601
11
153.8405176269
21
131.1104761601
0
LINE
8
10000_FRONT
62
7
6
CONTINUOUS
10
149.3338830263
20
131.1104761601
11
152.7405176269
21
131.1104761601
0
LINE
8
10000_FRONT
62
7
6
CONTINUOUS
10
157.2405176269
20
131.8104761601
11
154.1905135890
21
131.8104761601
0
LINE
8
10000_FRONT
62
7
6
CONTINUOUS
10
149.3405176269
20
131.8104761601
11
152.3905216647
21
131.8104761601
0
LINE
8
10000_FRONT
62
7
6
CONTINUOUS
10
157.2405176269
20
135.0104761601
11
154.1905135890
21
135.0104761601
0
LINE
8
10000_FRONT
62
7
6
CONTINUOUS
10
149.3405176269
20
135.0104761601
11
152.3905216647
21
135.0104761601
0
LINE
8
10000_FRONT
62
7
6
CONTINUOUS
10
157.2471578848
20
135.7104761601
11
153.8405176269
21
135.7104761601
0
LINE
8
10000_FRONT
62
7
6
CONTINUOUS
10
149.3338830263
20
135.7104761601
11
152.7405176269
21
135.7104761601
0
LINE
8
11000_LEFT
62
7
6
CONTINUOUS
10
244.4905176269
20
119.5104761601
11
242.4905176269
21
120.0463745450
0
LINE
8
10000_FRONT
62
7
6
CONTINUOUS
10
153.8405176269
20
151.3104761601
11
152.7405176269
21
151.9104761601
0
LINE
8
10000_FRONT
62
7
6
CONTINUOUS
10
153.8405176269
20
156.5104761601
11
152.7405176269
21
157.1104761601
0
LINE
8
10000_FRONT
62
7
6
CONTINUOUS
10
153.8405176269
20
161.7104761601
11
152.7405176269
21
162.3104761601
0
LINE
8
10000_FRONT
62
7
6
CONTINUOUS
10
158.1142623102
20
165.4796246956
11
160.5596661623
21
163.0342208435
0
LINE
8
10000_FRONT
62
7
6
CONTINUOUS
10
158.8213690914
20
166.1867314768
11
161.2667729435
21
163.7413276246
0
LINE
8
10000_FRONT
62
7
6
CONTINUOUS
10
158.1142623102
20
170.6796246956
11
160.5596661623
21
168.2342208435
0
LINE
8
10000_FRONT
62
7
6
CONTINUOUS
10
158.8213690914
20
171.3867314768
11
161.2667729435
21
168.9413276246
0
LINE
8
10000_FRONT
62
7
6
CONTINUOUS
10
151.8305946881
20
178.5754243520
11
154.2554658187
21
176.1505532214
0
LINE
8
10000_FRONT
62
7
6
CONTINUOUS
10
152.3255694350
20
179.0703990988
11
154.7504405656
21
176.6455279682
0
LINE
8
10000_FRONT
62
7
6
CONTINUOUS
10
147.7596661623
20
183.8342208435
11
145.3142623102
21
186.2796246956
0
LINE
8
10000_FRONT
62
7
6
CONTINUOUS
10
148.4667729435
20
184.5413276246
11
146.0213690914
21
186.9867314768
0
LINE
8
10000_FRONT
62
7
6
CONTINUOUS
10
147.7596661623
20
189.0342208435
11
145.3142623102
21
191.4796246956
0
LINE
8
10000_FRONT
62
7
6
CONTINUOUS
10
148.4667729435
20
189.7413276246
11
146.0213690914
21
192.1867314768
0
LINE
8
10000_FRONT
62
7
6
CONTINUOUS
10
152.7405176269
20
203.9104761601
11
152.3905216647
21
204.6104761601
0
LINE
8
10000_FRONT
62
7
6
CONTINUOUS
10
154.1905135890
20
202.6104761601
11
153.8405176269
21
203.3104761601
0
LINE
8
10000_FRONT
62
7
6
CONTINUOUS
10
152.7405176269
20
209.1104761601
11
152.3905216647
21
209.8104761601
0
LINE
8
10000_FRONT
62
7
6
CONTINUOUS
10
154.1905135890
20
207.8104761601
11
153.8405176269
21
208.5104761601
0
LINE
8
10000_FRONT
62
7
6
CONTINUOUS
10
152.7405176269
20
214.3104761601
11
152.3905216647
21
215.0104761601
0
LINE
8
10000_FRONT
62
7
6
CONTINUOUS
10
154.1905135890
20
213.0104761601
11
153.8405176269
21
213.7104761601
0
LINE
8
10000_FRONT
62
7
6
CONTINUOUS
10
152.7405176269
20
219.5104761601
11
152.3905216647
21
220.2104761601
0
LINE
8
10000_FRONT
62
7
6
CONTINUOUS
10
154.1905135890
20
218.2104761601
11
153.8405176269
21
218.9104761601
0
LINE
8
10000_FRONT
62
7
6
CONTINUOUS
10
152.7405176269
20
224.7104761601
11
152.3905216647
21
225.4104761601
0
LINE
8
10000_FRONT
62
7
6
CONTINUOUS
10
154.1905135890
20
223.4104761601
11
153.8405176269
21
224.1104761601
0
LINE
8
10000_FRONT
62
7
6
CONTINUOUS
10
152.7405176269
20
229.9104761601
11
152.3905216647
21
230.6104761601
0
LINE
8
10000_FRONT
62
7
6
CONTINUOUS
10
154.1905135890
20
228.6104761601
11
153.8405176269
21
229.3104761601
0
LINE
8
11000_LEFT
62
7
6
CONTINUOUS
10
242.4905136642
20
183.9104760895
11
243.9905137348
21
184.9104761601
0
LINE
8
11000_LEFT
62
7
6
CONTINUOUS
10
242.4905136642
20
168.3104760895
11
243.9905137348
21
169.3104761601
0
LINE
8
10000_FRONT
62
7
6
CONTINUOUS
10
153.8405176269
20
131.1104761601
11
152.7405176269
21
130.5104761601
0
LINE
8
10000_FRONT
62
7
6
CONTINUOUS
10
153.8405176269
20
125.9104761601
11
152.7405176269
21
125.3104761601
0
LINE
8
10000_FRONT
62
7
6
CONTINUOUS
10
157.2471578848
20
136.3104761601
11
153.8405176269
21
136.3104761601
0
LINE
8
10000_FRONT
62
7
6
CONTINUOUS
10
149.3338830263
20
136.3104761601
11
152.7405176269
21
136.3104761601
0
LINE
8
10000_FRONT
62
7
6
CONTINUOUS
10
157.2405176269
20
137.0104761601
11
154.1905135890
21
137.0104761601
0
LINE
8
10000_FRONT
62
7
6
CONTINUOUS
10
149.3405176269
20
137.0104761601
11
152.3905216647
21
137.0104761601
0
LINE
8
11000_LEFT
62
7
6
CONTINUOUS
10
269.7905176269
20
137.1078402583
11
267.7905176269
21
137.1078402583
0
LINE
8
11000_LEFT
62
7
6
CONTINUOUS
10
267.7905176269
20
140.1078402583
11
269.7905176269
21
140.1078402583
0
LINE
8
10000_FRONT
62
7
6
CONTINUOUS
10
157.2405176269
20
140.2104761601
11
154.1905135890
21
140.2104761601
0
LINE
8
10000_FRONT
62
7
6
CONTINUOUS
10
149.3405176269
20
140.2104761601
11
152.3905216647
21
140.2104761601
0
LINE
8
10000_FRONT
62
7
6
CONTINUOUS
10
157.2471578848
20
140.9104761601
11
153.8405176269
21
140.9104761601
0
LINE
8
10000_FRONT
62
7
6
CONTINUOUS
10
149.3338830263
20
140.9104761601
11
152.7405176269
21
140.9104761601
0
LINE
8
10000_FRONT
62
7
6
CONTINUOUS
10
157.2471578848
20
141.5104761601
11
153.8405176269
21
141.5104761601
0
LINE
8
10000_FRONT
62
7
6
CONTINUOUS
10
149.3338830263
20
141.5104761601
11
152.7405176269
21
141.5104761601
0
LINE
8
10000_FRONT
62
7
6
CONTINUOUS
10
157.2405176269
20
142.2104761601
11
154.1905135890
21
142.2104761601
0
LINE
8
10000_FRONT
62
7
6
CONTINUOUS
10
149.3405176269
20
142.2104761601
11
152.3905216647
21
142.2104761601
0
LINE
8
10000_FRONT
62
7
6
CONTINUOUS
10
157.2405176269
20
145.4104761601
11
154.1905135890
21
145.4104761601
0
LINE
8
10000_FRONT
62
7
6
CONTINUOUS
10
149.3405176269
20
145.4104761601
11
152.3905216647
21
145.4104761601
0
LINE
8
10000_FRONT
62
7
6
CONTINUOUS
10
157.2471578848
20
146.1104761601
11
153.8405176269
21
146.1104761601
0
LINE
8
10000_FRONT
62
7
6
CONTINUOUS
10
149.3338830263
20
146.1104761601
11
152.7405176269
21
146.1104761601
0
LINE
8
10000_FRONT
62
7
6
CONTINUOUS
10
157.2471578848
20
146.7104761601
11
153.8405176269
21
146.7104761601
0
LINE
8
10000_FRONT
62
7
6
CONTINUOUS
10
149.3338830263
20
146.7104761601
11
152.7405176269
21
146.7104761601
0
LINE
8
10000_FRONT
62
7
6
CONTINUOUS
10
157.2405176269
20
147.4104761601
11
154.1905135890
21
147.4104761601
0
LINE
8
10000_FRONT
62
7
6
CONTINUOUS
10
149.3405176269
20
147.4104761601
11
152.3905216647
21
147.4104761601
0
LINE
8
10000_FRONT
62
7
6
CONTINUOUS
10
153.8405176269
20
166.9104761601
11
152.7405176269
21
167.5104761601
0
LINE
8
10000_FRONT
62
7
6
CONTINUOUS
10
153.8405176269
20
172.1104761601
11
153.2905176269
21
172.4104761601
0
LINE
8
11000_LEFT
62
7
6
CONTINUOUS
10
242.4905136642
20
124.5104762308
11
243.9905137348
21
123.5104761601
0
LINE
8
10000_FRONT
62
7
6
CONTINUOUS
10
147.7596661623
20
194.2342208435
11
145.3142623102
21
196.6796246956
0
LINE
8
10000_FRONT
62
7
6
CONTINUOUS
10
148.4667729435
20
194.9413276246
11
146.0213690914
21
197.3867314768
0
LINE
8
10000_FRONT
62
7
6
CONTINUOUS
10
147.7596661623
20
199.4342208435
11
145.3142623102
21
201.8796246956
0
LINE
8
10000_FRONT
62
7
6
CONTINUOUS
10
148.4667729435
20
200.1413276246
11
146.0213690914
21
202.5867314768
0
LINE
8
10000_FRONT
62
7
6
CONTINUOUS
10
147.7596661623
20
204.6342208435
11
145.3142623102
21
207.0796246956
0
LINE
8
10000_FRONT
62
7
6
CONTINUOUS
10
148.4667729435
20
205.3413276246
11
146.0213690914
21
207.7867314768
0
LINE
8
10000_FRONT
62
7
6
CONTINUOUS
10
147.7596661623
20
209.8342208435
11
145.3142623102
21
212.2796246956
0
LINE
8
10000_FRONT
62
7
6
CONTINUOUS
10
148.4667729435
20
210.5413276246
11
146.0213690914
21
212.9867314768
0
LINE
8
10000_FRONT
62
7
6
CONTINUOUS
10
153.9905135890
20
234.1104761601
11
154.1905135890
21
233.8104761601
0
LINE
8
11000_LEFT
62
7
6
CONTINUOUS
10
243.3565430306
20
175.3604761601
11
242.4905176269
21
173.8604761601
0
LINE
8
11000_LEFT
62
7
6
CONTINUOUS
10
242.4905136642
20
163.1104760895
11
243.9905137348
21
164.1104761601
0
LINE
8
11000_LEFT
62
7
6
CONTINUOUS
10
242.4905136642
20
157.9104760895
11
243.9905137348
21
158.9104761601
0
LINE
8
11000_LEFT
62
7
6
CONTINUOUS
10
242.4905136642
20
152.7104760895
11
243.9905137348
21
153.7104761601
0
LINE
8
10000_FRONT
62
7
6
CONTINUOUS
10
157.2405176269
20
150.6104761601
11
154.1905135890
21
150.6104761601
0
LINE
8
10000_FRONT
62
7
6
CONTINUOUS
10
149.3405176269
20
150.6104761601
11
152.3905216647
21
150.6104761601
0
LINE
8
10000_FRONT
62
7
6
CONTINUOUS
10
157.2471578848
20
151.3104761601
11
153.8405176269
21
151.3104761601
0
LINE
8
10000_FRONT
62
7
6
CONTINUOUS
10
149.3338830263
20
151.3104761601
11
152.7405176269
21
151.3104761601
0
LINE
8
10000_FRONT
62
7
6
CONTINUOUS
10
157.2471578848
20
151.9104761601
11
153.8405176269
21
151.9104761601
0
LINE
8
10000_FRONT
62
7
6
CONTINUOUS
10
149.3338830263
20
151.9104761601
11
152.7405176269
21
151.9104761601
0
LINE
8
10000_FRONT
62
7
6
CONTINUOUS
10
157.2405176269
20
152.6104761601
11
154.1905135890
21
152.6104761601
0
LINE
8
10000_FRONT
62
7
6
CONTINUOUS
10
149.3405176269
20
152.6104761601
11
152.3905216647
21
152.6104761601
0
LINE
8
11000_LEFT
62
7
6
CONTINUOUS
10
269.7905176269
20
152.7078402583
11
267.7905176269
21
152.7078402583
0
LINE
8
11000_LEFT
62
7
6
CONTINUOUS
10
267.7905176269
20
155.7078402583
11
269.7905176269
21
155.7078402583
0
LINE
8
10000_FRONT
62
7
6
CONTINUOUS
10
157.2405176269
20
155.8104761601
11
154.1905135890
21
155.8104761601
0
LINE
8
10000_FRONT
62
7
6
CONTINUOUS
10
149.3405176269
20
155.8104761601
11
152.3905216647
21
155.8104761601
0
LINE
8
10000_FRONT
62
7
6
CONTINUOUS
10
157.2471578848
20
156.5104761601
11
153.8405176269
21
156.5104761601
0
LINE
8
10000_FRONT
62
7
6
CONTINUOUS
10
149.3338830263
20
156.5104761601
11
152.7405176269
21
156.5104761601
0
LINE
8
10000_FRONT
62
7
6
CONTINUOUS
10
157.2471578848
20
157.1104761601
11
153.8405176269
21
157.1104761601
0
LINE
8
10000_FRONT
62
7
6
CONTINUOUS
10
149.3338830263
20
157.1104761601
11
152.7405176269
21
157.1104761601
0
LINE
8
10000_FRONT
62
7
6
CONTINUOUS
10
157.2405176269
20
157.8104761601
11
154.1905135890
21
157.8104761601
0
LINE
8
10000_FRONT
62
7
6
CONTINUOUS
10
149.3405176269
20
157.8104761601
11
152.3905216647
21
157.8104761601
0
LINE
8
10000_FRONT
62
7
6
CONTINUOUS
10
157.2405176269
20
161.0104761601
11
154.1905135890
21
161.0104761601
0
LINE
8
10000_FRONT
62
7
6
CONTINUOUS
10
149.3405176269
20
161.0104761601
11
152.3905216647
21
161.0104761601
0
LINE
8
10000_FRONT
62
7
6
CONTINUOUS
10
157.2471578848
20
161.7104761601
11
153.8405176269
21
161.7104761601
0
LINE
8
10000_FRONT
62
7
6
CONTINUOUS
10
149.3338830263
20
161.7104761601
11
152.7405176269
21
161.7104761601
0
LINE
8
10000_FRONT
62
7
6
CONTINUOUS
10
157.2471578848
20
162.3104761601
11
153.8405176269
21
162.3104761601
0
LINE
8
10000_FRONT
62
7
6
CONTINUOUS
10
149.3338830263
20
162.3104761601
11
152.7405176269
21
162.3104761601
0
LINE
8
10000_FRONT
62
7
6
CONTINUOUS
10
157.2405176269
20
163.0104761601
11
154.1905135890
21
163.0104761601
0
LINE
8
10000_FRONT
62
7
6
CONTINUOUS
10
149.3405176269
20
163.0104761601
11
152.3905216647
21
163.0104761601
0
LINE
8
10000_FRONT
62
7
6
CONTINUOUS
10
153.2905176269
20
182.8104761601
11
152.7405176269
21
183.1104761601
0
LINE
8
10000_FRONT
62
7
6
CONTINUOUS
10
153.8405176269
20
187.7104761601
11
152.7405176269
21
188.3104761601
0
LINE
8
10000_FRONT
62
7
6
CONTINUOUS
10
153.8405176269
20
192.9104761601
11
152.7405176269
21
193.5104761601
0
LINE
8
11000_LEFT
62
7
6
CONTINUOUS
10
242.4905136642
20
129.7104762308
11
243.9905137348
21
128.7104761601
0
LINE
8
11000_LEFT
62
7
6
CONTINUOUS
10
242.4905136642
20
134.9104762308
11
243.9905137348
21
133.9104761601
0
LINE
8
11000_LEFT
62
7
6
CONTINUOUS
10
242.4905136642
20
140.1104762308
11
243.9905137348
21
139.1104761601
0
LINE
8
11000_LEFT
62
7
6
CONTINUOUS
10
242.4905136642
20
145.3104762308
11
243.9905137348
21
144.3104761601
0
LINE
8
10000_FRONT
62
7
6
CONTINUOUS
10
147.7596661623
20
215.0342208435
11
145.3142623102
21
217.4796246956
0
LINE
8
10000_FRONT
62
7
6
CONTINUOUS
10
148.4667729435
20
215.7413276246
11
146.0213690914
21
218.1867314768
0
LINE
8
10000_FRONT
62
7
6
CONTINUOUS
10
147.7596661623
20
220.2342208435
11
145.3142623102
21
222.6796246956
0
LINE
8
10000_FRONT
62
7
6
CONTINUOUS
10
148.4667729435
20
220.9413276246
11
146.0213690914
21
223.3867314768
0
LINE
8
10000_FRONT
62
7
6
CONTINUOUS
10
147.7596661623
20
225.4342208435
11
145.3142623102
21
227.8796246956
0
LINE
8
10000_FRONT
62
7
6
CONTINUOUS
10
148.4667729435
20
226.1413276246
11
146.0213690914
21
228.5867314768
0
LINE
8
11000_LEFT
62
7
6
CONTINUOUS
10
254.6490962706
20
120.0466257127
11
255.1319389831
21
119.5637830002
0
LINE
8
10000_FRONT
62
7
6
CONTINUOUS
10
147.7596661623
20
230.6342208435
11
145.3142623102
21
233.0796246956
0
LINE
8
10000_FRONT
62
7
6
CONTINUOUS
10
148.4667729435
20
231.3413276246
11
146.0213690914
21
233.7867314768
0
LINE
8
11000_LEFT
62
7
6
CONTINUOUS
10
239.6780176269
20
178.3015902583
11
239.6780176269
21
176.9140902583
0
LINE
8
11000_LEFT
62
7
6
CONTINUOUS
10
240.9905176269
20
176.1078402583
11
240.9905176269
21
179.1078402583
0
LINE
8
11000_LEFT
62
7
6
CONTINUOUS
10
242.4905136642
20
147.5104760895
11
243.9905137348
21
148.5104761601
0
LINE
8
11000_LEFT
62
7
6
CONTINUOUS
10
242.4905136642
20
142.3104760895
11
243.9905137348
21
143.3104761601
0
LINE
8
11000_LEFT
62
7
6
CONTINUOUS
10
242.4905136642
20
137.1104760895
11
243.9905137348
21
138.1104761601
0
LINE
8
10000_FRONT
62
7
6
CONTINUOUS
10
157.2405176269
20
166.2104761601
11
154.1905135890
21
166.2104761601
0
LINE
8
10000_FRONT
62
7
6
CONTINUOUS
10
149.3405176269
20
166.2104761601
11
152.3905216647
21
166.2104761601
0
LINE
8
10000_FRONT
62
7
6
CONTINUOUS
10
157.2471578848
20
166.9104761601
11
153.8405176269
21
166.9104761601
0
LINE
8
10000_FRONT
62
7
6
CONTINUOUS
10
149.3338830263
20
166.9104761601
11
152.7405176269
21
166.9104761601
0
LINE
8
10000_FRONT
62
7
6
CONTINUOUS
10
157.2471578848
20
167.5104761601
11
153.8405176269
21
167.5104761601
0
LINE
8
10000_FRONT
62
7
6
CONTINUOUS
10
149.3338830263
20
167.5104761601
11
152.7405176269
21
167.5104761601
0
LINE
8
10000_FRONT
62
7
6
CONTINUOUS
10
157.2405176269
20
168.2104761601
11
154.1905135890
21
168.2104761601
0
LINE
8
10000_FRONT
62
7
6
CONTINUOUS
10
149.3405176269
20
168.2104761601
11
152.3905216647
21
168.2104761601
0
LINE
8
11000_LEFT
62
7
6
CONTINUOUS
10
269.7905176269
20
168.3078402583
11
267.7905176269
21
168.3078402583
0
LINE
8
11000_LEFT
62
7
6
CONTINUOUS
10
267.7905176269
20
171.3078402583
11
269.7905176269
21
171.3078402583
0
LINE
8
10000_FRONT
62
7
6
CONTINUOUS
10
157.2405176269
20
171.4104761601
11
154.1905135890
21
171.4104761601
0
LINE
8
10000_FRONT
62
7
6
CONTINUOUS
10
149.3405176269
20
171.4104761601
11
152.3905216647
21
171.4104761601
0
LINE
8
10000_FRONT
62
7
6
CONTINUOUS
10
157.2471578848
20
172.1104761601
11
153.8405176269
21
172.1104761601
0
LINE
8
10000_FRONT
62
7
6
CONTINUOUS
10
149.3338830263
20
172.1104761601
11
152.7405176269
21
172.1104761601
0
LINE
8
11000_LEFT
62
7
6
CONTINUOUS
10
273.4905176269
20
172.7104761601
11
270.3405176269
21
172.7104761601
0
LINE
8
10000_FRONT
62
7
6
CONTINUOUS
10
164.0905176269
20
172.7104761601
11
161.6905176269
21
172.7104761601
0
LINE
8
10000_FRONT
62
7
6
CONTINUOUS
10
142.4905176269
20
172.7104761601
11
144.8905176269
21
172.7104761601
0
LINE
8
10000_FRONT
62
7
6
CONTINUOUS
10
156.6405176269
20
173.0104761601
11
149.9405176269
21
173.0104761601
0
LINE
8
11000_LEFT
62
7
6
CONTINUOUS
10
253.4604794941
20
173.3578402583
11
242.4905176269
21
173.3578402583
0
LINE
8
10000_FRONT
62
7
6
CONTINUOUS
10
156.6405176269
20
173.5104761601
11
149.9405176269
21
173.5104761601
0
LINE
8
11000_LEFT
62
7
6
CONTINUOUS
10
283.3905176269
20
174.8078402583
11
273.4905176269
21
174.8078402583
0
LINE
8
10000_FRONT
62
7
6
CONTINUOUS
10
149.9405176269
20
174.8104761601
11
156.6405176269
21
174.8104761601
0
LINE
8
11000_LEFT
62
7
6
CONTINUOUS
10
273.4905176269
20
175.5104761601
11
270.3405176269
21
175.5104761601
0
LINE
8
10000_FRONT
62
7
6
CONTINUOUS
10
164.0905176269
20
175.5104761601
11
161.6905176269
21
175.5104761601
0
LINE
8
10000_FRONT
62
7
6
CONTINUOUS
10
142.4905176269
20
175.5104761601
11
144.8905176269
21
175.5104761601
0
LINE
8
11000_LEFT
62
7
6
CONTINUOUS
10
242.4905176269
20
175.8578402583
11
241.2405176269
21
175.8578402583
0
LINE
8
11000_LEFT
62
7
6
CONTINUOUS
10
244.2225684344
20
175.8604761601
11
271.7905176269
21
175.8604761601
0
LINE
8
11000_LEFT
62
7
6
CONTINUOUS
10
269.7905176269
20
176.1078402583
11
267.7905176269
21
176.1078402583
0
LINE
8
11000_LEFT
62
7
6
CONTINUOUS
10
242.4905176269
20
176.2078402583
11
240.9905176269
21
176.2078402583
0
LINE
8
10000_FRONT
62
7
6
CONTINUOUS
10
143.9905176269
20
176.3604761601
11
142.4905176269
21
176.3604761601
0
LINE
8
10000_FRONT
62
7
6
CONTINUOUS
10
162.5905176269
20
176.3604761601
11
164.0905176269
21
176.3604761601
0
LINE
8
11000_LEFT
62
7
6
CONTINUOUS
10
240.7405176269
20
176.5140902583
11
240.0780176269
21
176.5140902583
0
LINE
8
10000_FRONT
62
7
6
CONTINUOUS
10
148.8347523487
20
176.8604761601
11
150.5870681566
21
176.8604761601
0
LINE
8
10000_FRONT
62
7
6
CONTINUOUS
10
155.9882018189
20
176.8604761601
11
157.7331033812
21
176.8604761601
0
LINE
8
10000_FRONT
62
7
6
CONTINUOUS
10
157.7405176269
20
178.3604761601
11
155.9882018189
21
178.3604761601
0
LINE
8
10000_FRONT
62
7
6
CONTINUOUS
10
148.8347523487
20
178.3604761601
11
150.5870681566
21
178.3604761601
0
LINE
8
11000_LEFT
62
7
6
CONTINUOUS
10
240.7405176269
20
178.7015902583
11
240.0780176269
21
178.7015902583
0
LINE
8
10000_FRONT
62
7
6
CONTINUOUS
10
162.5905176269
20
178.8604761601
11
164.0905176269
21
178.8604761601
0
LINE
8
11000_LEFT
62
7
6
CONTINUOUS
10
242.4905176269
20
179.0078402583
11
240.9905176269
21
179.0078402583
0
LINE
8
11000_LEFT
62
7
6
CONTINUOUS
10
267.7905176269
20
179.1078402583
11
269.7905176269
21
179.1078402583
0
LINE
8
11000_LEFT
62
7
6
CONTINUOUS
10
242.4905176269
20
179.3578402583
11
241.2405176269
21
179.3578402583
0
LINE
8
10000_FRONT
62
7
6
CONTINUOUS
10
143.9905176269
20
179.3604761601
11
142.4905176269
21
179.3604761601
0
LINE
8
11000_LEFT
62
7
6
CONTINUOUS
10
244.2195247572
20
179.3604761601
11
273.4905176269
21
179.3604761601
0
LINE
8
10000_FRONT
62
7
6
CONTINUOUS
10
153.8405176269
20
198.1104761601
11
152.7405176269
21
198.7104761601
0
LINE
8
10000_FRONT
62
7
6
CONTINUOUS
10
153.8405176269
20
203.3104761601
11
152.7405176269
21
203.9104761601
0
LINE
8
10000_FRONT
62
7
6
CONTINUOUS
10
153.8405176269
20
208.5104761601
11
152.7405176269
21
209.1104761601
0
LINE
8
10000_FRONT
62
7
6
CONTINUOUS
10
153.8405176269
20
213.7104761601
11
152.7405176269
21
214.3104761601
0
LINE
8
11000_LEFT
62
7
6
CONTINUOUS
10
242.4905136642
20
150.5104762308
11
243.9905137348
21
149.5104761601
0
LINE
8
11000_LEFT
62
7
6
CONTINUOUS
10
242.4905136642
20
155.7104762308
11
243.9905137348
21
154.7104761601
0
LINE
8
11000_LEFT
62
7
6
CONTINUOUS
10
242.4905136642
20
160.9104762308
11
243.9905137348
21
159.9104761601
0
LINE
8
90000_FRAME
62
7
6
CONTINUOUS
10
308.8496008213
20
21.4969115175
11
310.5370113459
21
18.5498846858
0
LINE
8
90000_FRAME
62
7
6
CONTINUOUS
10
309.9666190559
20
16.7436424342
11
308.2554421859
21
19.7857346475
0
LINE
8
90000_FRAME
62
7
6
CONTINUOUS
10
298.2973434565
20
16.6961097434
11
296.9664281131
21
19.7857346475
0
LINE
8
90000_FRAME
62
7
6
CONTINUOUS
10
297.7269511665
20
21.4969115175
11
298.9628011281
21
18.5974173767
0
LINE
8
11000_LEFT
62
7
6
CONTINUOUS
10
242.4905176269
20
120.0463745450
11
242.4905176269
21
235.1745777753
0
LINE
8
11000_LEFT
62
7
6
CONTINUOUS
10
243.9905137348
20
221.3104761601
11
243.9905138054
21
222.3104761601
0
LINE
8
11000_LEFT
62
7
6
CONTINUOUS
10
243.9905137348
20
226.5104761601
11
243.9905138054
21
227.5104761601
0
LINE
8
11000_LEFT
62
7
6
CONTINUOUS
10
243.9905137348
20
231.7104761601
11
243.9905138054
21
232.7104761601
0
LINE
8
11000_LEFT
62
7
6
CONTINUOUS
10
243.9905137348
20
123.5104761601
11
243.9905138054
21
122.5104761601
0
LINE
8
11000_LEFT
62
7
6
CONTINUOUS
10
243.9905137348
20
184.9104761601
11
243.9905138054
21
185.9104761601
0
LINE
8
11000_LEFT
62
7
6
CONTINUOUS
10
243.9905137348
20
190.1104761601
11
243.9905138054
21
191.1104761601
0
LINE
8
11000_LEFT
62
7
6
CONTINUOUS
10
243.9905137348
20
195.3104761601
11
243.9905138054
21
196.3104761601
0
LINE
8
11000_LEFT
62
7
6
CONTINUOUS
10
243.9905137348
20
200.5104761601
11
243.9905138054
21
201.5104761601
0
LINE
8
11000_LEFT
62
7
6
CONTINUOUS
10
243.9905137348
20
205.7104761601
11
243.9905138054
21
206.7104761601
0
LINE
8
11000_LEFT
62
7
6
CONTINUOUS
10
243.9905137348
20
210.9104761601
11
243.9905138054
21
211.9104761601
0
LINE
8
11000_LEFT
62
7
6
CONTINUOUS
10
243.9905137348
20
216.1104761601
11
243.9905138054
21
217.1104761601
0
LINE
8
11000_LEFT
62
7
6
CONTINUOUS
10
243.9905137348
20
165.1104761601
11
243.9905138054
21
164.1104761601
0
LINE
8
11000_LEFT
62
7
6
CONTINUOUS
10
243.9905137348
20
159.9104761601
11
243.9905138054
21
158.9104761601
0
LINE
8
11000_LEFT
62
7
6
CONTINUOUS
10
243.9905137348
20
154.7104761601
11
243.9905138054
21
153.7104761601
0
LINE
8
11000_LEFT
62
7
6
CONTINUOUS
10
243.9905137348
20
149.5104761601
11
243.9905138054
21
148.5104761601
0
LINE
8
11000_LEFT
62
7
6
CONTINUOUS
10
243.9905137348
20
144.3104761601
11
243.9905138054
21
143.3104761601
0
LINE
8
11000_LEFT
62
7
6
CONTINUOUS
10
243.9905137348
20
139.1104761601
11
243.9905138054
21
138.1104761601
0
LINE
8
11000_LEFT
62
7
6
CONTINUOUS
10
243.9905137348
20
133.9104761601
11
243.9905138054
21
132.9104761601
0
LINE
8
11000_LEFT
62
7
6
CONTINUOUS
10
243.9905137348
20
128.7104761601
11
243.9905138054
21
127.7104761601
0
LINE
8
11000_LEFT
62
7
6
CONTINUOUS
10
243.9905137348
20
170.3104761601
11
243.9905138054
21
169.3104761601
0
LINE
8
11000_LEFT
62
7
6
CONTINUOUS
10
244.4905176269
20
235.7104761601
11
244.4905176269
21
179.3604761601
0
LINE
8
11000_LEFT
62
7
6
CONTINUOUS
10
244.4905176269
20
119.5104761601
11
244.4905176269
21
175.8604761601
0
LINE
8
91000_TIP
62
7
6
CONTINUOUS
10
248.5082295492
20
20.1286973174
11
248.5082295492
21
15.1286974196
0
LINE
8
11000_LEFT
62
7
6
CONTINUOUS
10
253.4604794941
20
235.1104761601
11
253.4604794941
21
181.8578402583
0
LINE
8
11000_LEFT
62
7
6
CONTINUOUS
10
253.4905176269
20
120.1052043565
11
253.4905176269
21
173.3578402583
0
LINE
8
11000_LEFT
62
7
6
CONTINUOUS
10
242.4905136642
20
131.9104760895
11
243.9905137348
21
132.9104761601
0
LINE
8
11000_LEFT
62
7
6
CONTINUOUS
10
242.4905136642
20
126.7104760895
11
243.9905137348
21
127.7104761601
0
LINE
8
11000_LEFT
62
7
6
CONTINUOUS
10
242.4905136642
20
121.5104760895
11
243.9905137348
21
122.5104761601
0
LINE
8
11000_LEFT
62
7
6
CONTINUOUS
10
283.3905176269
20
180.4078402583
11
273.4905176269
21
180.4078402583
0
LINE
8
10000_FRONT
62
7
6
CONTINUOUS
10
149.9405176269
20
180.4104761601
11
156.6405176269
21
180.4104761601
0
LINE
8
10000_FRONT
62
7
6
CONTINUOUS
10
156.6405176269
20
181.7104761601
11
149.9405176269
21
181.7104761601
0
LINE
8
11000_LEFT
62
7
6
CONTINUOUS
10
253.4604794941
20
181.8578402583
11
242.4905176269
21
181.8578402583
0
LINE
8
10000_FRONT
62
7
6
CONTINUOUS
10
156.6405176269
20
182.2104761601
11
149.9405176269
21
182.2104761601
0
LINE
8
10000_FRONT
62
7
6
CONTINUOUS
10
157.2471578848
20
183.1104761601
11
153.8405176269
21
183.1104761601
0
LINE
8
10000_FRONT
62
7
6
CONTINUOUS
10
149.3338830263
20
183.1104761601
11
152.7405176269
21
183.1104761601
0
LINE
8
10000_FRONT
62
7
6
CONTINUOUS
10
157.2405176269
20
183.8104761601
11
154.1905135890
21
183.8104761601
0
LINE
8
10000_FRONT
62
7
6
CONTINUOUS
10
149.3405176269
20
183.8104761601
11
152.3905216647
21
183.8104761601
0
LINE
8
11000_LEFT
62
7
6
CONTINUOUS
10
269.7905176269
20
183.9078402583
11
267.7905176269
21
183.9078402583
0
LINE
8
11000_LEFT
62
7
6
CONTINUOUS
10
267.7905176269
20
186.9078402583
11
269.7905176269
21
186.9078402583
0
LINE
8
10000_FRONT
62
7
6
CONTINUOUS
10
157.2405176269
20
187.0104761601
11
154.1905135890
21
187.0104761601
0
LINE
8
10000_FRONT
62
7
6
CONTINUOUS
10
149.3405176269
20
187.0104761601
11
152.3905216647
21
187.0104761601
0
LINE
8
10000_FRONT
62
7
6
CONTINUOUS
10
157.2471578848
20
187.7104761601
11
153.8405176269
21
187.7104761601
0
LINE
8
10000_FRONT
62
7
6
CONTINUOUS
10
149.3338830263
20
187.7104761601
11
152.7405176269
21
187.7104761601
0
LINE
8
10000_FRONT
62
7
6
CONTINUOUS
10
157.2471578848
20
188.3104761601
11
153.8405176269
21
188.3104761601
0
LINE
8
10000_FRONT
62
7
6
CONTINUOUS
10
149.3338830263
20
188.3104761601
11
152.7405176269
21
188.3104761601
0
LINE
8
10000_FRONT
62
7
6
CONTINUOUS
10
157.2405176269
20
189.0104761601
11
154.1905135890
21
189.0104761601
0
LINE
8
10000_FRONT
62
7
6
CONTINUOUS
10
149.3405176269
20
189.0104761601
11
152.3905216647
21
189.0104761601
0
LINE
8
10000_FRONT
62
7
6
CONTINUOUS
10
157.2405176269
20
192.2104761601
11
154.1905135890
21
192.2104761601
0
LINE
8
10000_FRONT
62
7
6
CONTINUOUS
10
149.3405176269
20
192.2104761601
11
152.3905216647
21
192.2104761601
0
LINE
8
10000_FRONT
62
7
6
CONTINUOUS
10
157.2471578848
20
192.9104761601
11
153.8405176269
21
192.9104761601
0
LINE
8
10000_FRONT
62
7
6
CONTINUOUS
10
149.3338830263
20
192.9104761601
11
152.7405176269
21
192.9104761601
0
LINE
8
10000_FRONT
62
7
6
CONTINUOUS
10
157.2471578848
20
193.5104761601
11
153.8405176269
21
193.5104761601
0
LINE
8
10000_FRONT
62
7
6
CONTINUOUS
10
149.3338830263
20
193.5104761601
11
152.7405176269
21
193.5104761601
0
LINE
8
10000_FRONT
62
7
6
CONTINUOUS
10
157.2405176269
20
194.2104761601
11
154.1905135890
21
194.2104761601
0
LINE
8
10000_FRONT
62
7
6
CONTINUOUS
10
149.3405176269
20
194.2104761601
11
152.3905216647
21
194.2104761601
0
LINE
8
10000_FRONT
62
7
6
CONTINUOUS
10
153.8405176269
20
218.9104761601
11
152.7405176269
21
219.5104761601
0
LINE
8
10000_FRONT
62
7
6
CONTINUOUS
10
153.8405176269
20
224.1104761601
11
152.7405176269
21
224.7104761601
0
LINE
8
10000_FRONT
62
7
6
CONTINUOUS
10
153.8405176269
20
229.3104761601
11
152.7405176269
21
229.9104761601
0
LINE
8
11000_LEFT
62
7
6
CONTINUOUS
10
242.4905136642
20
166.1104762308
11
243.9905137348
21
165.1104761601
0
LINE
8
11000_LEFT
62
7
6
CONTINUOUS
10
242.4905136642
20
171.3104762308
11
243.9905137348
21
170.3104761601
0
LINE
8
11000_LEFT
62
7
6
CONTINUOUS
10
243.3534993534
20
179.8604761601
11
242.4905176269
21
181.3552043565
0
LINE
8
11000_LEFT
62
7
6
CONTINUOUS
10
258.4905176269
20
116.4052043565
11
258.4905176269
21
115.9052043565
0
LINE
8
11000_LEFT
62
7
6
CONTINUOUS
10
258.4905176269
20
238.8104761601
11
258.4905176269
21
239.3104761601
0
LINE
8
91000_TIP
62
7
6
CONTINUOUS
10
258.5082293450
20
22.6286972664
11
258.5082293450
21
12.6286974706
0
LINE
8
11000_LEFT
62
7
6
CONTINUOUS
10
259.1106166668
20
240.1104761601
11
259.1106166668
21
239.8104761601
0
LINE
8
11000_LEFT
62
7
6
CONTINUOUS
10
259.1106166668
20
115.1052043565
11
259.1106166668
21
115.4052043565
0
LINE
8
11000_LEFT
62
7
6
CONTINUOUS
10
260.4606166668
20
240.1104761601
11
260.4606166668
21
239.8104761601
0
LINE
8
11000_LEFT
62
7
6
CONTINUOUS
10
260.4606166668
20
115.1052043565
11
260.4606166668
21
115.4052043565
0
LINE
8
11000_LEFT
62
7
6
CONTINUOUS
10
261.3661662474
20
238.3104761601
11
261.3661662474
21
235.7104761601
0
LINE
8
11000_LEFT
62
7
6
CONTINUOUS
10
261.3661662474
20
116.9104761601
11
261.3661662474
21
119.5104761601
0
LINE
8
11000_LEFT
62
7
6
CONTINUOUS
10
261.8106166668
20
240.1104761601
11
261.8106166668
21
239.8104761601
0
LINE
8
11000_LEFT
62
7
6
CONTINUOUS
10
261.8106166668
20
115.1052043565
11
261.8106166668
21
115.4052043565
0
LINE
8
11000_LEFT
62
7
6
CONTINUOUS
10
263.1606166668
20
240.1104761601
11
263.1606166668
21
239.8104761601
0
LINE
8
11000_LEFT
62
7
6
CONTINUOUS
10
263.1606166668
20
115.1052043565
11
263.1606166668
21
115.4052043565
0
LINE
8
11000_LEFT
62
7
6
CONTINUOUS
10
264.5106166668
20
240.1104761601
11
264.5106166668
21
239.8104761601
0
LINE
8
11000_LEFT
62
7
6
CONTINUOUS
10
264.5106166668
20
115.1052043565
11
264.5106166668
21
115.4052043565
0
LINE
8
91000_TIP
62
7
6
CENTER
10
265.0082292122
20
11.9072161621
11
265.0082292122
21
23.1906021621
0
LINE
8
11000_LEFT
62
7
6
CONTINUOUS
10
265.0905176269
20
235.7104761601
11
265.0905176269
21
231.7078402583
0
LINE
8
11000_LEFT
62
7
6
CONTINUOUS
10
265.0905176269
20
123.5078402583
11
265.0905176269
21
119.5104761601
0
LINE
8
11000_LEFT
62
7
6
CONTINUOUS
10
265.8606166668
20
240.1104761601
11
265.8606166668
21
239.8104761601
0
LINE
8
11000_LEFT
62
7
6
CONTINUOUS
10
265.8606166668
20
115.1052043565
11
265.8606166668
21
115.4052043565
0
LINE
8
11000_LEFT
62
7
6
CONTINUOUS
10
267.7905176269
20
126.7078402583
11
267.7905176269
21
129.7078402583
0
LINE
8
11000_LEFT
62
7
6
CONTINUOUS
10
267.7905176269
20
137.1078402583
11
267.7905176269
21
140.1078402583
0
LINE
8
11000_LEFT
62
7
6
CONTINUOUS
10
267.7905176269
20
152.7078402583
11
267.7905176269
21
155.7078402583
0
LINE
8
11000_LEFT
62
7
6
CONTINUOUS
10
267.7905176269
20
168.3078402583
11
267.7905176269
21
171.3078402583
0
LINE
8
11000_LEFT
62
7
6
CONTINUOUS
10
267.7905176269
20
176.1078402583
11
267.7905176269
21
179.1078402583
0
LINE
8
11000_LEFT
62
7
6
CONTINUOUS
10
267.7905176269
20
183.9078402583
11
267.7905176269
21
186.9078402583
0
LINE
8
11000_LEFT
62
7
6
CONTINUOUS
10
267.7905176269
20
199.5078402583
11
267.7905176269
21
202.5078402583
0
LINE
8
11000_LEFT
62
7
6
CONTINUOUS
10
267.7905176269
20
215.1078402583
11
267.7905176269
21
218.1078402583
0
LINE
8
11000_LEFT
62
7
6
CONTINUOUS
10
267.7905176269
20
225.5078402583
11
267.7905176269
21
228.5078402583
0
LINE
8
11000_LEFT
62
7
6
CONTINUOUS
10
268.2905176269
20
228.5078402583
11
268.2905176269
21
225.5078402583
0
LINE
8
11000_LEFT
62
7
6
CONTINUOUS
10
268.2905176269
20
218.1078402583
11
268.2905176269
21
215.1078402583
0
LINE
8
11000_LEFT
62
7
6
CONTINUOUS
10
268.2905176269
20
202.5078402583
11
268.2905176269
21
199.5078402583
0
LINE
8
11000_LEFT
62
7
6
CONTINUOUS
10
268.2905176269
20
186.9078402583
11
268.2905176269
21
183.9078402583
0
LINE
8
11000_LEFT
62
7
6
CONTINUOUS
10
268.2905176269
20
179.1078402583
11
268.2905176269
21
176.1078402583
0
LINE
8
11000_LEFT
62
7
6
CONTINUOUS
10
268.2905176269
20
171.3078402583
11
268.2905176269
21
168.3078402583
0
LINE
8
11000_LEFT
62
7
6
CONTINUOUS
10
268.2905176269
20
155.7078402583
11
268.2905176269
21
152.7078402583
0
LINE
8
11000_LEFT
62
7
6
CONTINUOUS
10
268.2905176269
20
140.1078402583
11
268.2905176269
21
137.1078402583
0
LINE
8
11000_LEFT
62
7
6
CONTINUOUS
10
268.2905176269
20
129.7078402583
11
268.2905176269
21
126.7078402583
0
LINE
8
11000_LEFT
62
7
6
CONTINUOUS
10
268.8002896492
20
238.3104761601
11
268.8002896492
21
235.7104761601
0
LINE
8
11000_LEFT
62
7
6
CONTINUOUS
10
268.8002896492
20
116.9104761601
11
268.8002896492
21
119.5104761601
0
LINE
8
11000_LEFT
62
7
6
CONTINUOUS
10
269.7905176269
20
228.5078402583
11
269.7905176269
21
225.5078402583
0
LINE
8
11000_LEFT
62
7
6
CONTINUOUS
10
269.7905176269
20
218.1078402583
11
269.7905176269
21
215.1078402583
0
LINE
8
11000_LEFT
62
7
6
CONTINUOUS
10
269.7905176269
20
202.5078402583
11
269.7905176269
21
199.5078402583
0
LINE
8
11000_LEFT
62
7
6
CONTINUOUS
10
269.7905176269
20
186.9078402583
11
269.7905176269
21
183.9078402583
0
LINE
8
11000_LEFT
62
7
6
CONTINUOUS
10
269.7905176269
20
179.1078402583
11
269.7905176269
21
176.1078402583
0
LINE
8
11000_LEFT
62
7
6
CONTINUOUS
10
269.7905176269
20
171.3078402583
11
269.7905176269
21
168.3078402583
0
LINE
8
11000_LEFT
62
7
6
CONTINUOUS
10
269.7905176269
20
155.7078402583
11
269.7905176269
21
152.7078402583
0
LINE
8
11000_LEFT
62
7
6
CONTINUOUS
10
269.7905176269
20
140.1078402583
11
269.7905176269
21
137.1078402583
0
LINE
8
11000_LEFT
62
7
6
CONTINUOUS
10
269.7905176269
20
129.7078402583
11
269.7905176269
21
126.7078402583
0
LINE
8
11000_LEFT
62
7
6
CONTINUOUS
10
270.0595415701
20
239.3104761601
11
270.0595415701
21
238.8104761601
0
LINE
8
11000_LEFT
62
7
6
CONTINUOUS
10
270.0595415701
20
115.9052043565
11
270.0595415701
21
116.4052043565
0
LINE
8
11000_LEFT
62
7
6
CONTINUOUS
10
270.3405176269
20
175.8604761601
11
270.3405176269
21
172.7104761601
0
LINE
8
11000_LEFT
62
7
6
CONTINUOUS
10
248.2347541518
20
120.0584132451
11
247.6312289464
21
119.5519954678
0
LINE
8
13000_TOP
62
7
6
CONTINUOUS
10
152.5838842355
20
48.8891424450
11
147.2518865685
21
45.9663293037
0
LINE
8
13000_TOP
62
7
6
CONTINUOUS
10
156.4905176269
20
63.1343424450
11
154.6779020528
21
62.2891059215
0
LINE
8
11000_LEFT
62
7
6
CONTINUOUS
10
265.8606166668
20
115.1052043565
11
266.8905176269
21
115.4052043565
0
LINE
8
10000_FRONT
62
7
6
CONTINUOUS
10
157.2405176269
20
197.4104761601
11
154.1905135890
21
197.4104761601
0
LINE
8
10000_FRONT
62
7
6
CONTINUOUS
10
149.3405176269
20
197.4104761601
11
152.3905216647
21
197.4104761601
0
LINE
8
10000_FRONT
62
7
6
CONTINUOUS
10
157.2471578848
20
198.1104761601
11
153.8405176269
21
198.1104761601
0
LINE
8
10000_FRONT
62
7
6
CONTINUOUS
10
149.3338830263
20
198.1104761601
11
152.7405176269
21
198.1104761601
0
LINE
8
10000_FRONT
62
7
6
CONTINUOUS
10
157.2471578848
20
198.7104761601
11
153.8405176269
21
198.7104761601
0
LINE
8
10000_FRONT
62
7
6
CONTINUOUS
10
149.3338830263
20
198.7104761601
11
152.7405176269
21
198.7104761601
0
LINE
8
10000_FRONT
62
7
6
CONTINUOUS
10
157.2405176269
20
199.4104761601
11
154.1905135890
21
199.4104761601
0
LINE
8
10000_FRONT
62
7
6
CONTINUOUS
10
149.3405176269
20
199.4104761601
11
152.3905216647
21
199.4104761601
0
LINE
8
11000_LEFT
62
7
6
CONTINUOUS
10
269.7905176269
20
199.5078402583
11
267.7905176269
21
199.5078402583
0
LINE
8
11000_LEFT
62
7
6
CONTINUOUS
10
267.7905176269
20
202.5078402583
11
269.7905176269
21
202.5078402583
0
LINE
8
10000_FRONT
62
7
6
CONTINUOUS
10
157.2405176269
20
202.6104761601
11
154.1905135890
21
202.6104761601
0
LINE
8
10000_FRONT
62
7
6
CONTINUOUS
10
149.3405176269
20
202.6104761601
11
152.3905216647
21
202.6104761601
0
LINE
8
10000_FRONT
62
7
6
CONTINUOUS
10
157.2471578848
20
203.3104761601
11
153.8405176269
21
203.3104761601
0
LINE
8
10000_FRONT
62
7
6
CONTINUOUS
10
149.3338830263
20
203.3104761601
11
152.7405176269
21
203.3104761601
0
LINE
8
10000_FRONT
62
7
6
CONTINUOUS
10
157.2471578848
20
203.9104761601
11
153.8405176269
21
203.9104761601
0
LINE
8
10000_FRONT
62
7
6
CONTINUOUS
10
149.3338830263
20
203.9104761601
11
152.7405176269
21
203.9104761601
0
LINE
8
10000_FRONT
62
7
6
CONTINUOUS
10
157.2405176269
20
204.6104761601
11
154.1905135890
21
204.6104761601
0
LINE
8
10000_FRONT
62
7
6
CONTINUOUS
10
149.3405176269
20
204.6104761601
11
152.3905216647
21
204.6104761601
0
LINE
8
10000_FRONT
62
7
6
CONTINUOUS
10
157.2405176269
20
207.8104761601
11
154.1905135890
21
207.8104761601
0
LINE
8
10000_FRONT
62
7
6
CONTINUOUS
10
149.3405176269
20
207.8104761601
11
152.3905216647
21
207.8104761601
0
LINE
8
10000_FRONT
62
7
6
CONTINUOUS
10
157.2471578848
20
208.5104761601
11
153.8405176269
21
208.5104761601
0
LINE
8
10000_FRONT
62
7
6
CONTINUOUS
10
149.3338830263
20
208.5104761601
11
152.7405176269
21
208.5104761601
0
LINE
8
11000_LEFT
62
7
6
CONTINUOUS
10
242.4905136642
20
186.9104762308
11
243.9905137348
21
185.9104761601
0
LINE
8
11000_LEFT
62
7
6
CONTINUOUS
10
242.4905136642
20
192.1104762308
11
243.9905137348
21
191.1104761601
0
LINE
8
11000_LEFT
62
7
6
CONTINUOUS
10
242.4905136642
20
197.3104762308
11
243.9905137348
21
196.3104761601
0
LINE
8
11000_LEFT
62
7
6
CONTINUOUS
10
271.7905176269
20
231.7078402583
11
271.7905176269
21
175.5104761601
0
LINE
8
11000_LEFT
62
7
6
CONTINUOUS
10
271.7905176269
20
172.7104761601
11
271.7905176269
21
123.5078402583
0
LINE
8
11000_LEFT
62
7
6
CONTINUOUS
10
271.8405176269
20
175.5104761601
11
271.8405176269
21
172.7104761601
0
LINE
8
11000_LEFT
62
7
6
CONTINUOUS
10
272.4905176269
20
236.8042084704
11
272.4905176269
21
235.7104761601
0
LINE
8
11000_LEFT
62
7
6
CONTINUOUS
10
272.4905176269
20
118.4114720462
11
272.4905176269
21
119.5052043565
0
LINE
8
11000_LEFT
62
7
6
CONTINUOUS
10
273.4905176269
20
119.5104761601
11
273.4905176269
21
235.7104761601
0
LINE
8
90000_FRAME
62
7
6
CONTINUOUS
10
275.7119262865
20
10.5711926287
11
275.7119262865
21
28.5711926287
0
LINE
8
11000_LEFT
62
7
6
CONTINUOUS
10
283.3905176269
20
174.8078402583
11
283.3905176269
21
180.4078402583
0
LINE
8
90000_FRAME
62
7
6
CONTINUOUS
10
284.7029938783
20
16.8387078159
11
284.7029938783
21
17.7893616325
0
LINE
8
10000_FRONT
62
7
6
CONTINUOUS
10
157.2471578848
20
209.1104761601
11
153.8405176269
21
209.1104761601
0
LINE
8
10000_FRONT
62
7
6
CONTINUOUS
10
149.3338830263
20
209.1104761601
11
152.7405176269
21
209.1104761601
0
LINE
8
10000_FRONT
62
7
6
CONTINUOUS
10
157.2405176269
20
209.8104761601
11
154.1905135890
21
209.8104761601
0
LINE
8
10000_FRONT
62
7
6
CONTINUOUS
10
149.3405176269
20
209.8104761601
11
152.3905216647
21
209.8104761601
0
LINE
8
10000_FRONT
62
7
6
CONTINUOUS
10
157.2405176269
20
213.0104761601
11
154.1905135890
21
213.0104761601
0
LINE
8
10000_FRONT
62
7
6
CONTINUOUS
10
149.3405176269
20
213.0104761601
11
152.3905216647
21
213.0104761601
0
LINE
8
10000_FRONT
62
7
6
CONTINUOUS
10
157.2471578848
20
213.7104761601
11
153.8405176269
21
213.7104761601
0
LINE
8
10000_FRONT
62
7
6
CONTINUOUS
10
149.3338830263
20
213.7104761601
11
152.7405176269
21
213.7104761601
0
LINE
8
10000_FRONT
62
7
6
CONTINUOUS
10
157.2471578848
20
214.3104761601
11
153.8405176269
21
214.3104761601
0
LINE
8
10000_FRONT
62
7
6
CONTINUOUS
10
149.3338830263
20
214.3104761601
11
152.7405176269
21
214.3104761601
0
LINE
8
10000_FRONT
62
7
6
CONTINUOUS
10
157.2405176269
20
215.0104761601
11
154.1905135890
21
215.0104761601
0
LINE
8
10000_FRONT
62
7
6
CONTINUOUS
10
149.3405176269
20
215.0104761601
11
152.3905216647
21
215.0104761601
0
LINE
8
11000_LEFT
62
7
6
CONTINUOUS
10
269.7905176269
20
215.1078402583
11
267.7905176269
21
215.1078402583
0
LINE
8
11000_LEFT
62
7
6
CONTINUOUS
10
267.7905176269
20
218.1078402583
11
269.7905176269
21
218.1078402583
0
LINE
8
10000_FRONT
62
7
6
CONTINUOUS
10
157.2405176269
20
218.2104761601
11
154.1905135890
21
218.2104761601
0
LINE
8
10000_FRONT
62
7
6
CONTINUOUS
10
149.3405176269
20
218.2104761601
11
152.3905216647
21
218.2104761601
0
LINE
8
10000_FRONT
62
7
6
CONTINUOUS
10
157.2471578848
20
218.9104761601
11
153.8405176269
21
218.9104761601
0
LINE
8
10000_FRONT
62
7
6
CONTINUOUS
10
149.3338830263
20
218.9104761601
11
152.7405176269
21
218.9104761601
0
LINE
8
10000_FRONT
62
7
6
CONTINUOUS
10
157.2471578848
20
219.5104761601
11
153.8405176269
21
219.5104761601
0
LINE
8
10000_FRONT
62
7
6
CONTINUOUS
10
149.3338830263
20
219.5104761601
11
152.7405176269
21
219.5104761601
0
LINE
8
10000_FRONT
62
7
6
CONTINUOUS
10
157.2405176269
20
220.2104761601
11
154.1905135890
21
220.2104761601
0
LINE
8
10000_FRONT
62
7
6
CONTINUOUS
10
149.3405176269
20
220.2104761601
11
152.3905216647
21
220.2104761601
0
LINE
8
10000_FRONT
62
7
6
CONTINUOUS
10
157.2405176269
20
223.4104761601
11
154.1905135890
21
223.4104761601
0
LINE
8
10000_FRONT
62
7
6
CONTINUOUS
10
149.3405176269
20
223.4104761601
11
152.3905216647
21
223.4104761601
0
LINE
8
11000_LEFT
62
7
6
CONTINUOUS
10
242.4905136642
20
202.5104762308
11
243.9905137348
21
201.5104761601
0
LINE
8
11000_LEFT
62
7
6
CONTINUOUS
10
242.4905136642
20
207.7104762308
11
243.9905137348
21
206.7104761601
0
LINE
8
11000_LEFT
62
7
6
CONTINUOUS
10
242.4905136642
20
212.9104762308
11
243.9905137348
21
211.9104761601
0
LINE
8
90000_FRAME
62
7
6
CONTINUOUS
10
288.0302822366
20
20.4987250100
11
288.0302822366
21
21.4493788266
0
LINE
8
90000_FRAME
62
7
6
CONTINUOUS
10
289.1235341257
20
21.4969115175
11
289.1235341257
21
16.7436424342
0
LINE
8
90000_FRAME
62
7
6
CONTINUOUS
10
290.5495148507
20
21.4969115175
11
290.5495148507
21
16.7436424342
0
LINE
8
90000_FRAME
62
7
6
CONTINUOUS
10
291.6427667399
20
21.4969115175
11
291.6427667399
21
16.7436424342
0
LINE
8
90000_FRAME
62
7
6
CONTINUOUS
10
293.0212147740
20
20.6175567371
11
293.0212147740
21
19.5480711933
0
LINE
8
90000_FRAME
62
7
6
CONTINUOUS
10
293.0212147740
20
18.7637817946
11
293.0212147740
21
17.6467635600
0
LINE
8
90000_FRAME
62
7
6
CONTINUOUS
10
294.8749897165
20
19.5480711933
11
294.8749897165
21
18.7637817946
0
LINE
8
90000_FRAME
62
7
6
CONTINUOUS
10
295.1601858615
20
21.4969115175
11
295.1601858615
21
20.6175567371
0
LINE
8
90000_FRAME
62
7
6
CONTINUOUS
10
295.2077185523
20
17.6467635600
11
295.2077185523
21
16.7436424342
0
LINE
8
90000_FRAME
62
7
6
CONTINUOUS
10
296.0157742965
20
16.7436424342
11
296.0157742965
21
21.4969115175
0
LINE
8
90000_FRAME
62
7
6
CONTINUOUS
10
296.9664281131
20
16.7436424342
11
296.9664281131
21
19.7857346475
0
LINE
8
11000_LEFT
62
7
6
CONTINUOUS
10
244.4905176269
20
235.7104761601
11
242.4905176269
21
235.1745777753
0
LINE
8
10000_FRONT
62
7
6
CONTINUOUS
10
157.2471578848
20
224.1104761601
11
153.8405176269
21
224.1104761601
0
LINE
8
10000_FRONT
62
7
6
CONTINUOUS
10
149.3338830263
20
224.1104761601
11
152.7405176269
21
224.1104761601
0
LINE
8
10000_FRONT
62
7
6
CONTINUOUS
10
157.2471578848
20
224.7104761601
11
153.8405176269
21
224.7104761601
0
LINE
8
10000_FRONT
62
7
6
CONTINUOUS
10
149.3338830263
20
224.7104761601
11
152.7405176269
21
224.7104761601
0
LINE
8
10000_FRONT
62
7
6
CONTINUOUS
10
157.2405176269
20
225.4104761601
11
154.1905135890
21
225.4104761601
0
LINE
8
10000_FRONT
62
7
6
CONTINUOUS
10
149.3405176269
20
225.4104761601
11
152.3905216647
21
225.4104761601
0
LINE
8
11000_LEFT
62
7
6
CONTINUOUS
10
269.7905176269
20
225.5078402583
11
267.7905176269
21
225.5078402583
0
LINE
8
11000_LEFT
62
7
6
CONTINUOUS
10
267.7905176269
20
228.5078402583
11
269.7905176269
21
228.5078402583
0
LINE
8
10000_FRONT
62
7
6
CONTINUOUS
10
157.2405176269
20
228.6104761601
11
154.1905135890
21
228.6104761601
0
LINE
8
10000_FRONT
62
7
6
CONTINUOUS
10
149.3405176269
20
228.6104761601
11
152.3905216647
21
228.6104761601
0
LINE
8
10000_FRONT
62
7
6
CONTINUOUS
10
157.2471578848
20
229.3104761601
11
153.8405176269
21
229.3104761601
0
LINE
8
10000_FRONT
62
7
6
CONTINUOUS
10
149.3338830263
20
229.3104761601
11
152.7405176269
21
229.3104761601
0
LINE
8
10000_FRONT
62
7
6
CONTINUOUS
10
153.9971538470
20
229.6104761601
11
152.5838870641
21
229.6104761601
0
LINE
8
10000_FRONT
62
7
6
CONTINUOUS
10
157.2471578848
20
229.9104761601
11
153.8405176269
21
229.9104761601
0
LINE
8
10000_FRONT
62
7
6
CONTINUOUS
10
149.3338830263
20
229.9104761601
11
152.7405176269
21
229.9104761601
0
LINE
8
10000_FRONT
62
7
6
CONTINUOUS
10
157.2405176269
20
230.6104761601
11
154.1905135890
21
230.6104761601
0
LINE
8
10000_FRONT
62
7
6
CONTINUOUS
10
149.3405176269
20
230.6104761601
11
152.3905216647
21
230.6104761601
0
LINE
8
11000_LEFT
62
7
6
CONTINUOUS
10
265.0905176269
20
231.7078402583
11
271.7905176269
21
231.7078402583
0
LINE
8
10000_FRONT
62
7
6
CONTINUOUS
10
157.2405176269
20
233.8104761601
11
154.1905135890
21
233.8104761601
0
LINE
8
10000_FRONT
62
7
6
CONTINUOUS
10
149.3405176269
20
233.8104761601
11
152.3905216647
21
233.8104761601
0
LINE
8
11000_LEFT
62
7
6
CONTINUOUS
10
248.3633116737
20
235.1104761601
11
254.5905176269
21
235.1104761601
0
LINE
8
11000_LEFT
62
7
6
CONTINUOUS
10
273.4905176269
20
235.7104761601
11
244.4905176269
21
235.7104761601
0
LINE
8
10000_FRONT
62
7
6
CONTINUOUS
10
164.0905176269
20
235.7104761601
11
157.2405176269
21
235.7104761601
0
LINE
8
10000_FRONT
62
7
6
CONTINUOUS
10
142.4905176269
20
235.7104761601
11
149.3405176269
21
235.7104761601
0
LINE
8
10000_FRONT
62
7
6
CONTINUOUS
10
153.9971538470
20
238.2101820196
11
152.5838870641
21
238.2101820196
0
LINE
8
10000_FRONT
62
7
6
CONTINUOUS
10
161.7905176269
20
238.3104761601
11
157.2405176269
21
238.3104761601
0
LINE
8
10000_FRONT
62
7
6
CONTINUOUS
10
144.7905176269
20
238.3104761601
11
149.3405176269
21
238.3104761601
0
LINE
8
11000_LEFT
62
7
6
CONTINUOUS
10
258.9905176269
20
238.3104761601
11
269.5595415701
21
238.3104761601
0
LINE
8
11000_LEFT
62
7
6
CONTINUOUS
10
242.4905136642
20
218.1104762308
11
243.9905137348
21
217.1104761601
0
LINE
8
11000_LEFT
62
7
6
CONTINUOUS
10
242.4905136642
20
223.3104762308
11
243.9905137348
21
222.3104761601
0
LINE
8
11000_LEFT
62
7
6
CONTINUOUS
10
242.4905136642
20
228.5104762308
11
243.9905137348
21
227.5104761601
0
LINE
8
11000_LEFT
62
7
6
CONTINUOUS
10
242.4905136642
20
233.7104762308
11
243.9905137348
21
232.7104761601
0
LINE
8
90000_FRAME
62
7
6
CONTINUOUS
10
300.4838472348
20
19.8332673383
11
300.4838472348
21
16.7436424342
0
LINE
8
90000_FRAME
62
7
6
CONTINUOUS
10
301.8622952689
20
21.4969115175
11
301.8622952689
21
16.7436424342
0
LINE
8
90000_FRAME
62
7
6
CONTINUOUS
10
302.9555471581
20
21.4969115175
11
302.9555471581
21
16.7436424342
0
LINE
8
90000_FRAME
62
7
6
CONTINUOUS
10
304.3339951922
20
20.6175567371
11
304.3339951922
21
19.5480711933
0
LINE
8
90000_FRAME
62
7
6
CONTINUOUS
10
304.3339951922
20
18.7637817946
11
304.3339951922
21
17.6467635600
0
LINE
8
90000_FRAME
62
7
6
CONTINUOUS
10
306.1877701347
20
19.5480711933
11
306.1877701347
21
18.7637817946
0
LINE
8
90000_FRAME
62
7
6
CONTINUOUS
10
306.4729662797
20
21.4969115175
11
306.4729662797
21
20.6175567371
0
LINE
8
90000_FRAME
62
7
6
CONTINUOUS
10
306.5204989705
20
17.6467635600
11
306.5204989705
21
16.7436424342
0
LINE
8
90000_FRAME
62
7
6
CONTINUOUS
10
307.3047883693
20
16.7436424342
11
307.3047883693
21
21.4969115175
0
LINE
8
90000_FRAME
62
7
6
CONTINUOUS
10
308.2554421859
20
16.7436424342
11
308.2554421859
21
19.7857346475
0
LINE
8
90000_FRAME
62
7
6
CONTINUOUS
10
310.5370113459
20
21.4969115175
11
310.5370113459
21
18.5498846858
0
LINE
8
90000_FRAME
62
7
6
CONTINUOUS
10
311.4876651625
20
21.4969115175
11
311.4876651625
21
16.7436424342
0
LINE
8
90000_FRAME
62
7
6
CONTINUOUS
10
312.2957209067
20
16.8387078159
11
312.2957209067
21
17.7893616325
0
LINE
8
11000_LEFT
62
7
6
CONTINUOUS
10
269.5595415701
20
239.8104761601
11
258.9905176269
21
239.8104761601
0
LINE
8
10000_FRONT
62
7
6
CONTINUOUS
10
161.7905176269
20
239.8104761601
11
144.7905176269
21
239.8104761601
0
LINE
8
10000_FRONT
62
7
6
CONTINUOUS
10
161.2905176269
20
240.1104761601
11
145.2905176269
21
240.1104761601
0
LINE
8
11000_LEFT
62
7
6
CONTINUOUS
10
271.5776733696
20
237.8004031684
11
268.8002896492
21
238.0433927582
0
LINE
8
11000_LEFT
62
7
6
CONTINUOUS
10
260.4606166668
20
239.8104761601
11
259.1106166668
21
240.1104761601
0
LINE
8
11000_LEFT
62
7
6
CONTINUOUS
10
261.8106166668
20
239.8104761601
11
260.4606166668
21
240.1104761601
0
LINE
8
11000_LEFT
62
7
6
CONTINUOUS
10
263.1606166668
20
239.8104761601
11
261.8106166668
21
240.1104761601
0
LINE
8
11000_LEFT
62
7
6
CONTINUOUS
10
264.5106166668
20
239.8104761601
11
263.1606166668
21
240.1104761601
0
LINE
8
11000_LEFT
62
7
6
CONTINUOUS
10
265.8606166668
20
239.8104761601
11
264.5106166668
21
240.1104761601
0
LINE
8
11000_LEFT
62
7
6
CONTINUOUS
10
265.8606166668
20
240.1104761601
11
266.8905176269
21
239.8104761601
0
LINE
8
11000_LEFT
62
7
6
CONTINUOUS
10
248.2347541518
20
235.1572672715
11
247.6312289464
21
235.6636850487
0
LINE
8
90000_FRAME
62
7
6
CONTINUOUS
10
315.6230092650
20
20.4987250100
11
315.6230092650
21
21.4493788266
0
LINE
8
90000_FRAME
62
7
6
CONTINUOUS
10
325.7119262865
20
10.5711926287
11
325.7119262865
21
28.5711926287
0
LINE
8
90000_FRAME
62
7
6
CONTINUOUS
10
300.1511183989
20
21.4969115175
11
298.9628011281
21
18.5974173767
0
LINE
8
90000_FRAME
62
7
6
CONTINUOUS
10
300.4838472348
20
19.8332673383
11
299.1529318914
21
16.6961097434
0
LINE
8
90000_FRAME
62
7
6
CONTINUOUS
10
284.8948224676
20
20.9161059766
11
285.1688882922
21
21.1901790542
0
LINE
8
90000_FRAME
62
7
6
CONTINUOUS
10
415.0000000000
20
292.0000000000
11
5.0000000000
21
292.0000000000
0
LINE
8
90000_FRAME
62
7
6
CONTINUOUS
10
420.0000000000
20
297.0000000000
11
0.0000000000
21
297.0000000000
0
LINE
8
90000_FRAME
62
7
6
CONTINUOUS
10
368.2119262865
20
10.5711926287
11
368.2119262865
21
16.5711926287
0
LINE
8
90000_FRAME
62
7
6
CONTINUOUS
10
410.7119262865
20
10.5711926287
11
410.7119262865
21
28.5711926287
0
LINE
8
90000_FRAME
62
7
6
CONTINUOUS
10
415.0000000000
20
5.0000000000
11
415.0000000000
21
292.0000000000
0
LINE
8
90000_FRAME
62
7
6
CONTINUOUS
10
420.0000000000
20
0.0000000000
11
420.0000000000
21
297.0000000000
0
ARC
8
90000_FRAME
62
7
6
CONTINUOUS
10
314.0003620317
20
18.7008009792
40
1.1116193606
50
277.7099956934
51
295.6884927746
0
ARC
8
90000_FRAME
62
7
6
CONTINUOUS
10
314.2846720145
20
17.9759752156
40
0.3401689265
50
305.5032212550
51
72.4652898523
0
ARC
8
90000_FRAME
62
7
6
CONTINUOUS
10
313.7186782063
20
21.3776821252
40
4.7567946411
50
252.5939200548
51
280.9816604256
0
ARC
8
90000_FRAME
62
7
6
CONTINUOUS
10
314.1735135694
20
18.7596683887
40
2.1007265953
50
282.4058358520
51
311.8644433928
0
ARC
8
90000_FRAME
62
7
6
CONTINUOUS
10
313.8999492223
20
20.3680101102
40
0.3029626476
50
154.4400348282
51
221.8201698801
0
ARC
8
90000_FRAME
62
7
6
CONTINUOUS
10
313.9791703737
20
20.2887889588
40
0.4103089737
50
102.8287828681
51
149.2259639003
0
ARC
8
90000_FRAME
62
7
6
CONTINUOUS
10
314.3961972093
20
18.5464536290
40
2.2018365570
50
84.0400061857
51
103.3427657871
0
ARC
8
90000_FRAME
62
7
6
CONTINUOUS
10
314.0552333846
20
16.1290897051
40
4.6423737365
50
70.2625858546
51
82.9524186380
0
ARC
8
90000_FRAME
62
7
6
CONTINUOUS
10
313.5412151824
20
20.8007125947
40
3.2587559909
50
247.5300206145
51
280.7579522143
0
ARC
8
90000_FRAME
62
7
6
CONTINUOUS
10
307.1562487104
20
2.5491926343
40
17.3316084133
50
65.3414674650
51
67.3997770736
0
ARC
8
90000_FRAME
62
7
6
CONTINUOUS
10
317.9521111158
20
28.3416189974
40
10.6291642039
50
242.8620101252
51
247.1042029186
0
ARC
8
90000_FRAME
62
7
6
CONTINUOUS
10
314.0972098893
20
20.8076875004
40
2.1662916292
50
227.3119280794
51
242.7040315235
0
ARC
8
90000_FRAME
62
7
6
CONTINUOUS
10
313.4931790796
20
20.1020098596
40
1.2385217340
50
194.7952194236
51
225.7176549047
0
ARC
8
90000_FRAME
62
7
6
CONTINUOUS
10
313.5553372138
20
20.1422298287
40
1.3090920729
50
164.1974860461
51
195.8025139539
0
ARC
8
90000_FRAME
62
7
6
CONTINUOUS
10
314.1123609345
20
19.2539626688
40
2.3669248153
50
86.2218022928
51
120.4272602309
0
ARC
8
90000_FRAME
62
7
6
CONTINUOUS
10
313.8435041519
20
12.5577948477
40
9.0679051661
50
78.6827049226
51
87.3147599624
0
ARC
8
90000_FRAME
62
7
6
CONTINUOUS
10
313.3874349735
20
20.2497375912
40
1.1197474440
50
142.8139179030
51
167.1522951417
0
ARC
8
90000_FRAME
62
7
6
CONTINUOUS
10
313.7327443151
20
19.9431558946
40
1.5805466845
50
121.2140948535
51
141.5254768286
0
ARC
8
90000_FRAME
62
7
6
CONTINUOUS
10
314.3099186807
20
20.7542132232
40
0.8661276052
50
222.7760387596
51
239.0362434679
0
ARC
8
90000_FRAME
62
7
6
CONTINUOUS
10
311.8032091024
20
13.4239410246
40
6.8587735763
50
59.9020272560
51
68.2036481279
0
ARC
8
90000_FRAME
62
7
6
CONTINUOUS
10
315.2117035963
20
22.3498275319
40
2.6987410171
50
240.0481997804
51
251.3779673737
0
ARC
8
90000_FRAME
62
7
6
CONTINUOUS
10
314.5462464295
20
18.1929289165
40
1.4334474881
50
315.8904553224
51
333.5229264373
0
ARC
8
90000_FRAME
62
7
6
CONTINUOUS
10
314.5508846732
20
18.1395217664
40
1.4062287119
50
335.3867972702
51
24.3915119402
0
ARC
8
90000_FRAME
62
7
6
CONTINUOUS
10
314.4786797697
20
18.0616650746
40
1.5047025148
50
25.9562916605
51
59.4834829668
0
ARC
8
90000_FRAME
62
7
6
CONTINUOUS
10
286.4076350033
20
18.7008009792
40
1.1116193606
50
277.7099956934
51
295.6884927746
0
ARC
8
90000_FRAME
62
7
6
CONTINUOUS
10
286.6919449860
20
17.9759752156
40
0.3401689265
50
305.5032212556
51
72.4652898515
0
ARC
8
90000_FRAME
62
7
6
CONTINUOUS
10
286.1259511779
20
21.3776821252
40
4.7567946411
50
252.5939200545
51
280.9816604253
0
ARC
8
90000_FRAME
62
7
6
CONTINUOUS
10
286.5807865410
20
18.7596683887
40
2.1007265953
50
282.4058358513
51
311.8644433923
0
ARC
8
90000_FRAME
62
7
6
CONTINUOUS
10
286.3072221939
20
20.3680101102
40
0.3029626476
50
154.4400348282
51
221.8201698801
0
ARC
8
90000_FRAME
62
7
6
CONTINUOUS
10
286.3864433453
20
20.2887889588
40
0.4103089737
50
102.8287828727
51
149.2259639027
0
ARC
8
90000_FRAME
62
7
6
CONTINUOUS
10
286.8034701809
20
18.5464536290
40
2.2018365570
50
84.0400061859
51
103.3427657872
0
ARC
8
90000_FRAME
62
7
6
CONTINUOUS
10
286.4625063562
20
16.1290897051
40
4.6423737365
50
70.2625858546
51
82.9524186379
0
ARC
8
90000_FRAME
62
7
6
CONTINUOUS
10
285.9484881540
20
20.8007125947
40
3.2587559909
50
247.5300206148
51
280.7579522145
0
ARC
8
90000_FRAME
62
7
6
CONTINUOUS
10
279.5635216820
20
2.5491926343
40
17.3316084133
50
65.3414674650
51
67.3997770736
0
ARC
8
90000_FRAME
62
7
6
CONTINUOUS
10
290.3593840874
20
28.3416189974
40
10.6291642039
50
242.8620101252
51
247.1042029185
0
ARC
8
90000_FRAME
62
7
6
CONTINUOUS
10
286.5044828608
20
20.8076875004
40
2.1662916292
50
227.3119280794
51
242.7040315235
0
ARC
8
90000_FRAME
62
7
6
CONTINUOUS
10
285.9004520512
20
20.1020098596
40
1.2385217340
50
194.7952194234
51
225.7176549042
0
ARC
8
90000_FRAME
62
7
6
CONTINUOUS
10
286.5196339060
20
19.2539626688
40
2.3669248153
50
86.2218022928
51
120.4272602309
0
ARC
8
90000_FRAME
62
7
6
CONTINUOUS
10
286.2507771235
20
12.5577948477
40
9.0679051661
50
78.6827049226
51
87.3147599624
0
ARC
8
90000_FRAME
62
7
6
CONTINUOUS
10
286.1400172867
20
19.9431558946
40
1.5805466846
50
121.2140948541
51
141.5254768290
0
ARC
8
90000_FRAME
62
7
6
CONTINUOUS
10
286.7171916523
20
20.7542132232
40
0.8661276052
50
222.7760387596
51
239.0362434679
0
ARC
8
90000_FRAME
62
7
6
CONTINUOUS
10
284.2104820740
20
13.4239410246
40
6.8587735763
50
59.9020272562
51
68.2036481282
0
ARC
8
90000_FRAME
62
7
6
CONTINUOUS
10
287.6189765678
20
22.3498275319
40
2.6987410171
50
240.0481997804
51
251.3779673734
0
ARC
8
90000_FRAME
62
7
6
CONTINUOUS
10
286.9535194010
20
18.1929289165
40
1.4334474881
50
315.8904553226
51
333.5229264375
0
ARC
8
90000_FRAME
62
7
6
CONTINUOUS
10
286.9581576447
20
18.1395217664
40
1.4062287119
50
335.3867972703
51
24.3915119403
0
ARC
8
90000_FRAME
62
7
6
CONTINUOUS
10
286.8859527412
20
18.0616650746
40
1.5047025147
50
25.9562916611
51
59.4834829676
0
ARC
8
90000_FRAME
62
7
6
CONTINUOUS
10
285.9626101853
20
20.1422298287
40
1.3090920729
50
164.1974860461
51
195.8025139539
0
ARC
8
90000_FRAME
62
7
6
CONTINUOUS
10
285.7947079451
20
20.2497375912
40
1.1197474440
50
142.8139179030
51
167.1522951417
0
CIRCLE
8
10000_FRONT
62
7
6
CONTINUOUS
10
146.8905176269
20
232.2104761601
40
1.8000000000
0
ARC
8
11000_LEFT
62
7
6
CONTINUOUS
10
244.2195247572
20
180.3604761601
40
1.0000000000
50
209.9999999996
51
270.0000000000
0
ARC
8
13000_TOP
62
7
6
CONTINUOUS
10
158.2905211600
20
53.2891424450
40
4.0000000000
50
0.0000000000
51
90.0000000000
0
ARC
8
13000_TOP
62
7
6
CONTINUOUS
10
142.7905176269
20
61.9891424450
40
0.3000000000
50
90.0000000000
51
180.0000000000
0
ARC
8
13000_TOP
62
7
6
CONTINUOUS
10
149.1405176269
20
42.4891424450
40
0.2000000000
50
270.0000000000
51
360.0000000000
0
CIRCLE
8
10000_FRONT
62
7
6
CONTINUOUS
10
159.6905176269
20
123.0104761601
40
1.8000000000
0
CIRCLE
8
10000_FRONT
62
7
6
CONTINUOUS
10
159.6905176269
20
128.2104761601
40
1.8000000000
0
CIRCLE
8
10000_FRONT
62
7
6
CONTINUOUS
10
159.6905176269
20
133.4104761601
40
1.8000000000
0
CIRCLE
8
10000_FRONT
62
7
6
CONTINUOUS
10
159.6905176269
20
138.6104761601
40
1.8000000000
0
CIRCLE
8
10000_FRONT
62
7
6
CONTINUOUS
10
159.6905176269
20
143.8104761601
40
1.8000000000
0
CIRCLE
8
10000_FRONT
62
7
6
CONTINUOUS
10
159.6905176269
20
149.0104761601
40
1.8000000000
0
CIRCLE
8
10000_FRONT
62
7
6
CONTINUOUS
10
159.6905176269
20
154.2104761601
40
1.8000000000
0
CIRCLE
8
10000_FRONT
62
7
6
CONTINUOUS
10
159.6905176269
20
159.4104761601
40
1.8000000000
0
CIRCLE
8
10000_FRONT
62
7
6
CONTINUOUS
10
159.6905176269
20
164.6104761601
40
1.8000000000
0
CIRCLE
8
10000_FRONT
62
7
6
CONTINUOUS
10
159.6905176269
20
169.8104761601
40
1.8000000000
0
CIRCLE
8
10000_FRONT
62
7
6
CONTINUOUS
10
153.2905176269
20
177.6104761601
40
1.7500000000
0
CIRCLE
8
10000_FRONT
62
7
6
CONTINUOUS
10
153.2905176269
20
177.6104761601
40
2.8000000000
0
CIRCLE
8
10000_FRONT
62
7
6
CONTINUOUS
10
153.2905176269
20
177.6104761601
40
2.0000000000
0
CIRCLE
8
10000_FRONT
62
7
6
CONTINUOUS
10
146.8905176269
20
123.0104761601
40
1.8000000000
0
CIRCLE
8
10000_FRONT
62
7
6
CONTINUOUS
10
146.8905176269
20
128.2104761601
40
1.8000000000
0
CIRCLE
8
10000_FRONT
62
7
6
CONTINUOUS
10
146.8905176269
20
133.4104761601
40
1.8000000000
0
CIRCLE
8
10000_FRONT
62
7
6
CONTINUOUS
10
146.8905176269
20
138.6104761601
40
1.8000000000
0
CIRCLE
8
10000_FRONT
62
7
6
CONTINUOUS
10
146.8905176269
20
143.8104761601
40
1.8000000000
0
CIRCLE
8
10000_FRONT
62
7
6
CONTINUOUS
10
146.8905176269
20
149.0104761601
40
1.8000000000
0
CIRCLE
8
10000_FRONT
62
7
6
CONTINUOUS
10
146.8905176269
20
154.2104761601
40
1.8000000000
0
CIRCLE
8
10000_FRONT
62
7
6
CONTINUOUS
10
146.8905176269
20
159.4104761601
40
1.8000000000
0
CIRCLE
8
10000_FRONT
62
7
6
CONTINUOUS
10
146.8905176269
20
164.6104761601
40
1.8000000000
0
CIRCLE
8
10000_FRONT
62
7
6
CONTINUOUS
10
146.8905176269
20
169.8104761601
40
1.8000000000
0
CIRCLE
8
10000_FRONT
62
7
6
CONTINUOUS
10
159.6905176269
20
232.2104761601
40
1.8000000000
0
CIRCLE
8
10000_FRONT
62
7
6
CONTINUOUS
10
159.6905176269
20
227.0104761601
40
1.8000000000
0
CIRCLE
8
10000_FRONT
62
7
6
CONTINUOUS
10
159.6905176269
20
221.8104761601
40
1.8000000000
0
CIRCLE
8
10000_FRONT
62
7
6
CONTINUOUS
10
159.6905176269
20
216.6104761601
40
1.8000000000
0
CIRCLE
8
10000_FRONT
62
7
6
CONTINUOUS
10
159.6905176269
20
211.4104761601
40
1.8000000000
0
CIRCLE
8
10000_FRONT
62
7
6
CONTINUOUS
10
159.6905176269
20
206.2104761601
40
1.8000000000
0
CIRCLE
8
10000_FRONT
62
7
6
CONTINUOUS
10
159.6905176269
20
201.0104761601
40
1.8000000000
0
CIRCLE
8
10000_FRONT
62
7
6
CONTINUOUS
10
159.6905176269
20
195.8104761601
40
1.8000000000
0
CIRCLE
8
10000_FRONT
62
7
6
CONTINUOUS
10
159.6905176269
20
190.6104761601
40
1.8000000000
0
CIRCLE
8
10000_FRONT
62
7
6
CONTINUOUS
10
159.6905176269
20
185.4104761601
40
1.8000000000
0
CIRCLE
8
10000_FRONT
62
7
6
CONTINUOUS
10
146.8905176269
20
227.0104761601
40
1.8000000000
0
CIRCLE
8
10000_FRONT
62
7
6
CONTINUOUS
10
146.8905176269
20
221.8104761601
40
1.8000000000
0
CIRCLE
8
10000_FRONT
62
7
6
CONTINUOUS
10
146.8905176269
20
216.6104761601
40
1.8000000000
0
CIRCLE
8
10000_FRONT
62
7
6
CONTINUOUS
10
146.8905176269
20
211.4104761601
40
1.8000000000
0
CIRCLE
8
10000_FRONT
62
7
6
CONTINUOUS
10
146.8905176269
20
206.2104761601
40
1.8000000000
0
CIRCLE
8
10000_FRONT
62
7
6
CONTINUOUS
10
146.8905176269
20
201.0104761601
40
1.8000000000
0
CIRCLE
8
10000_FRONT
62
7
6
CONTINUOUS
10
146.8905176269
20
195.8104761601
40
1.8000000000
0
CIRCLE
8
10000_FRONT
62
7
6
CONTINUOUS
10
146.8905176269
20
190.6104761601
40
1.8000000000
0
CIRCLE
8
10000_FRONT
62
7
6
CONTINUOUS
10
146.8905176269
20
185.4104761601
40
1.8000000000
0
ARC
8
10000_FRONT
62
7
6
CONTINUOUS
10
161.7905176269
20
115.9104761601
40
0.5000000000
50
270.0000000000
51
360.0000000000
0
ARC
8
10000_FRONT
62
7
6
CONTINUOUS
10
161.7905176269
20
116.4104761601
40
0.5000000000
50
0.0000000000
51
90.0000000000
0
ARC
8
10000_FRONT
62
7
6
CONTINUOUS
10
144.7905176269
20
115.9104761601
40
0.5000000000
50
180.0000000000
51
270.0000000000
0
ARC
8
10000_FRONT
62
7
6
CONTINUOUS
10
144.7905176269
20
116.4104761601
40
0.5000000000
50
90.0000000000
51
180.0000000000
0
ARC
8
13000_TOP
62
7
6
CONTINUOUS
10
152.6342676269
20
75.6641424450
40
0.4375000000
50
90.0000000000
51
180.0000000000
0
ARC
8
13000_TOP
62
7
6
CONTINUOUS
10
151.8030176269
20
74.5266424450
40
0.2625000000
50
90.0000000000
51
180.0000000000
0
ARC
8
13000_TOP
62
7
6
CONTINUOUS
10
151.9342676269
20
75.0516424450
40
0.2625000000
50
270.0000000000
51
360.0000000000
0
ARC
8
13000_TOP
62
7
6
CONTINUOUS
10
153.9467676269
20
75.6641424450
40
0.4375000000
50
0.0000000000
51
90.0000000000
0
ARC
8
13000_TOP
62
7
6
CONTINUOUS
10
154.7780176269
20
74.5266424450
40
0.2625000000
50
0.0000000000
51
90.0000000000
0
ARC
8
13000_TOP
62
7
6
CONTINUOUS
10
154.6467676269
20
75.0516424450
40
0.2625000000
50
180.0000000000
51
270.0000000000
0
ARC
8
11000_LEFT
62
7
6
CONTINUOUS
10
258.9905176269
20
239.3104761601
40
0.5000000000
50
90.0000000000
51
180.0000000000
0
ARC
8
11000_LEFT
62
7
6
CONTINUOUS
10
258.9905176269
20
238.8104761601
40
0.5000000000
50
180.0000000000
51
270.0000000000
0
ARC
8
11000_LEFT
62
7
6
CONTINUOUS
10
269.5595415701
20
239.3104761601
40
0.5000000000
50
0.0000000000
51
90.0000000000
0
ARC
8
11000_LEFT
62
7
6
CONTINUOUS
10
269.5595415701
20
238.8104761601
40
0.5000000000
50
270.0000000000
51
360.0000000000
0
ARC
8
11000_LEFT
62
7
6
CONTINUOUS
10
241.2405176269
20
179.1078402583
40
0.2500000000
50
90.0000000000
51
180.0000000000
0
ARC
8
11000_LEFT
62
7
6
CONTINUOUS
10
240.7405176269
20
178.9515902583
40
0.2500000000
50
270.0000000000
51
360.0000000000
0
ARC
8
11000_LEFT
62
7
6
CONTINUOUS
10
241.2405176269
20
176.1078402583
40
0.2500000000
50
180.0000000000
51
270.0000000000
0
ARC
8
11000_LEFT
62
7
6
CONTINUOUS
10
240.7405176269
20
176.2640902583
40
0.2500000000
50
0.0000000000
51
90.0000000000
0
ARC
8
11000_LEFT
62
7
6
CONTINUOUS
10
240.0780176269
20
178.3015902583
40
0.4000000000
50
90.0000000000
51
180.0000000000
0
ARC
8
11000_LEFT
62
7
6
CONTINUOUS
10
240.0780176269
20
176.9140902583
40
0.4000000000
50
180.0000000000
51
270.0000000000
0
ARC
8
11000_LEFT
62
7
6
CONTINUOUS
10
244.2225684344
20
174.8604761601
40
1.0000000000
50
90.0000000000
51
150.0000000004
0
ARC
8
13000_TOP
62
7
6
CONTINUOUS
10
148.2905211600
20
53.2891424450
40
4.0000000000
50
90.0000000000
51
180.0000000000
0
ARC
8
13000_TOP
62
7
6
CONTINUOUS
10
163.7905176269
20
61.9891424450
40
0.3000000000
50
0.0000000000
51
90.0000000000
0
ARC
8
11000_LEFT
62
7
6
CONTINUOUS
10
254.5076749144
20
235.3104761601
40
0.2000000000
50
270.0000000000
51
315.0000000000
0
ARC
8
11000_LEFT
62
7
6
CONTINUOUS
10
248.3633116737
20
235.3104761601
40
0.2000000000
50
230.0000000020
51
270.0000000000
0
ARC
8
11000_LEFT
62
7
6
CONTINUOUS
10
255.2733603393
20
235.5104761601
40
0.2000000000
50
90.0000000000
51
135.0000000000
0
ARC
8
11000_LEFT
62
7
6
CONTINUOUS
10
247.5026714244
20
235.5104761601
40
0.2000000000
50
49.9999999928
51
90.0000000000
0
ARC
8
11000_LEFT
62
7
6
CONTINUOUS
10
254.5076749144
20
119.9052043565
40
0.2000000000
50
44.9999999899
51
90.0000000000
0
ARC
8
11000_LEFT
62
7
6
CONTINUOUS
10
248.3633116737
20
119.9052043565
40
0.2000000000
50
90.0000000000
51
130.0000000072
0
ARC
8
11000_LEFT
62
7
6
CONTINUOUS
10
255.2733603393
20
119.7052043565
40
0.2000000000
50
225.0000000000
51
270.0000000000
0
ARC
8
11000_LEFT
62
7
6
CONTINUOUS
10
247.5026714244
20
119.7052043565
40
0.2000000000
50
270.0000000000
51
309.9999999980
0
ARC
8
13000_TOP
62
7
6
CONTINUOUS
10
158.2905176269
20
53.6690434051
40
3.0000000000
50
0.0000000000
51
90.0000000000
0
ARC
8
13000_TOP
62
7
6
CONTINUOUS
10
148.2905176269
20
53.6690434051
40
3.0000000000
50
90.0000000000
51
180.0000000000
0
ARC
8
11000_LEFT
62
7
6
CONTINUOUS
10
258.9905176269
20
115.9052043565
40
0.5000000000
50
180.0000000000
51
270.0000000000
0
ARC
8
11000_LEFT
62
7
6
CONTINUOUS
10
258.9905176269
20
116.4052043565
40
0.5000000000
50
90.0000000000
51
180.0000000000
0
ARC
8
11000_LEFT
62
7
6
CONTINUOUS
10
269.5595415701
20
115.9052043565
40
0.5000000000
50
270.0000000000
51
360.0000000000
0
ARC
8
11000_LEFT
62
7
6
CONTINUOUS
10
269.5595415701
20
116.4052043565
40
0.5000000000
50
0.0000000000
51
90.0000000000
0
ARC
8
10000_FRONT
62
7
6
CONTINUOUS
10
161.7905176269
20
239.3104761601
40
0.5000000000
50
0.0000000000
51
90.0000000000
0
ARC
8
10000_FRONT
62
7
6
CONTINUOUS
10
161.7905176269
20
238.8104761601
40
0.5000000000
50
270.0000000000
51
360.0000000000
0
ARC
8
10000_FRONT
62
7
6
CONTINUOUS
10
144.7905176269
20
239.3104761601
40
0.5000000000
50
90.0000000000
51
180.0000000000
0
ARC
8
10000_FRONT
62
7
6
CONTINUOUS
10
144.7905176269
20
238.8104761601
40
0.5000000000
50
180.0000000000
51
270.0000000000
0
ARC
8
11000_LEFT
62
7
6
CONTINUOUS
10
271.4905176269
20
236.8042084704
40
1.0000000000
50
0.0000000000
51
85.0000000025
0
ARC
8
11000_LEFT
62
7
6
CONTINUOUS
10
271.4905176269
20
118.4114720462
40
1.0000000000
50
274.9999999972
51
360.0000000000
0
ARC
8
13000_TOP
62
7
6
CONTINUOUS
10
146.2905211600
20
47.7201185018
40
2.0000000000
50
180.0000000000
51
298.7299999998
0
ARC
8
13000_TOP
62
7
6
CONTINUOUS
10
160.2905211600
20
47.7201146283
40
2.0000000000
50
241.2697691482
51
360.0000000000
0
ARC
8
13000_TOP
62
7
6
CONTINUOUS
10
157.4405176269
20
42.4891424450
40
0.2000000000
50
180.0000000000
51
270.0000000000
0
CIRCLE
8
91000_TIP
62
7
6
CONTINUOUS
10
265.0082292122
20
17.6286973685
40
4.9999998979
0
CIRCLE
8
91000_TIP
62
7
6
CONTINUOUS
10
265.0082292122
20
17.6286973685
40
2.4999999489
0
ENDSEC
0
EOF
