0
SECTION
2
HEADER
9
$EXTMAX
10
420.0000000000
20
297.0000000000
9
$EXTMIN
10
0.0000000000
20
-0.0000000000
9
$LIMMIN
10
0.0000000000
20
-0.0000000000
9
$LIMMAX
10
420.0000000000
20
297.0000000000
9
$VIEWCTR
10
210.0000000000
20
148.5000000000
9
$VIEWSIZE
40
297.0000000000
9
$CLAYER
8
0
9
$LTSCALE
40
23.1000000000
9
$CELTYPE
6
BYLAYER
9
$DIMSCALE
40
1
9
$DIMASZ
40
3.5000000000
9
$DIMEXO
40
2.6250000000
9
$DIMDLI
40
15.9600000000
9
$DIMEXE
40
7.5600000000
9
$DIMCEN
40
3.7800000000
9
$DIMLFAC
40
1.0000000000
0
ENDSEC
0
SECTION
2
TABLES
0
TABLE
2
LTYPE
70
6
0
LTYPE
2
BYBLOCK
70
0
3

72
65
73
0
40
0.0
0
LTYPE
2
BYLAYER
70
0
3

72
65
73
0
40
0.0
0
LTYPE
2
CONTINUOUS
70
64
3
Solid line
72
65
73
0
40
0
0
LTYPE
2
CENTER
70
64
3
____ _ ____ _ ____ _ ____ _ ____ _ ____ _ ____
72
65
73
4
40
0.6
49
0.375
49
-0.075
49
0.075
49
-0.075
0
LTYPE
2
HIDDEN
70
64
3
- - - - - - - - - - - - - - - - - - - -
72
65
73
2
40
0.2
49
0.1
49
-0.1
0
LTYPE
2
PHANTOM
70
64
3
_____ _ _ _____ _ _ _____ _ _ _____
72
65
73
6
40
0.8
49
0.45
49
-0.05
49
0.1
49
-0.05
49
0.1
49
-0.05
0
LTYPE
2
DOT
70
64
3
. . . . . . . . . . . . . . . . . . . .
72
65
73
2
40
0.2
49
0.1
49
-0.1
0
LTYPE
2
DASHED
70
64
3
- - - - - - - - - - - - - - - - - - - -
72
65
73
2
40
0.2
49
0.1
49
-0.1
0
ENDTAB
0
TABLE
2
LAYER
70
36
0
LAYER
2
0
70
0
62
7
6
CONTINUOUS
0
LAYER
2
DEFAULT_1
70
0
62
7
6
CENTER
0
LAYER
2
DEFAULT_2
70
0
62
8
6
HIDDEN
0
LAYER
2
DEFAULT_3
70
0
62
7
6
PHANTOM
0
LAYER
2
10000_FRONT
70
0
62
7
6
CONTINUOUS
0
LAYER
2
10100_DIM_FRONT
70
0
62
7
6
CONTINUOUS
0
LAYER
2
10300_FRONT_GERMAN_ENGLISH
70
0
62
7
6
CONTINUOUS
0
LAYER
2
11000_LEFT
70
0
62
7
6
CONTINUOUS
0
LAYER
2
11100_DIM_LEFT
70
0
62
7
6
CONTINUOUS
0
LAYER
2
11300_LEFT_GERMAN_ENGLISH
70
0
62
7
6
CONTINUOUS
0
LAYER
2
12000_RIGHT
70
0
62
7
6
CONTINUOUS
0
LAYER
2
12100_DIM_RIGHT
70
0
62
7
6
CONTINUOUS
0
LAYER
2
12300_RIGHT_GERMAN_ENGLISH
70
0
62
7
6
CONTINUOUS
0
LAYER
2
13000_TOP
70
0
62
7
6
CONTINUOUS
0
LAYER
2
13100_DIM_TOP
70
0
62
7
6
CONTINUOUS
0
LAYER
2
13300_TOP_GERMAN_ENGLISH
70
0
62
7
6
CONTINUOUS
0
LAYER
2
14000_BOTTOM
70
0
62
7
6
CONTINUOUS
0
LAYER
2
14100_DIM_BOTTOM
70
0
62
7
6
CONTINUOUS
0
LAYER
2
14300_BOTTOM_GERMAN_ENGLISH
70
0
62
7
6
CONTINUOUS
0
LAYER
2
15000_BACK
70
0
62
7
6
CONTINUOUS
0
LAYER
2
15100_DIM_BACK
70
0
62
7
6
CONTINUOUS
0
LAYER
2
15300_BACK_GERMAN_ENGLISH
70
0
62
7
6
CONTINUOUS
0
LAYER
2
20000_FRONT_O
70
0
62
7
6
CONTINUOUS
0
LAYER
2
20100_DIM_FRONT_O
70
0
62
7
6
CONTINUOUS
0
LAYER
2
20300_FRONT_O_GERMAN_ENGLISH
70
0
62
7
6
CONTINUOUS
0
LAYER
2
40000_ISO
70
0
62
7
6
CONTINUOUS
0
LAYER
2
40300_ISO_GERMAN_ENGLISH
70
0
62
7
6
CONTINUOUS
0
LAYER
2
50000_WIRING
70
0
62
7
6
CONTINUOUS
0
LAYER
2
50300_WIRING_GERMAN_ENGLISH
70
0
62
7
6
CONTINUOUS
0
LAYER
2
90000_FRAME
70
0
62
7
6
CONTINUOUS
0
LAYER
2
91000_TIP
70
0
62
7
6
CONTINUOUS
0
ENDTAB
0
ENDSEC
0
SECTION
2
BLOCKS
0
BLOCK
8
10100_DIM_FRONT
62
7
6
CONTINUOUS
2
*D0
70
65
10
0.0000000000
20
0.0000000000
0
TEXT
8
10100_DIM_FRONT
62
7
6
CONTINUOUS
10
147.5368983839
20
246.4942185274
40
3.5000000000
1
23.1
72
5
11
156.7868983839
21
246.4942185274
0
LINE
8
10100_DIM_FRONT
62
7
6
CONTINUOUS
10
140.6027881959
20
238.3017242843
11
140.6027881959
21
247.6192185274
0
LINE
8
10100_DIM_FRONT
62
7
6
CONTINUOUS
10
163.7027881959
20
234.3017242843
11
163.7027881959
21
247.6192185274
0
LINE
8
10100_DIM_FRONT
62
7
6
CONTINUOUS
10
140.6027881959
20
245.6192185274
11
152.1527881959
21
245.6192185274
0
LINE
8
10100_DIM_FRONT
62
7
6
CONTINUOUS
10
163.7027881959
20
245.6192185274
11
152.1527881959
21
245.6192185274
0
SOLID
8
10100_DIM_FRONT
62
7
6
CONTINUOUS
10
144.1027881959
20
246.1192185274
11
140.6027881959
21
245.6192185274
12
144.1027881959
22
245.1192185274
13
144.1027881959
23
245.1192185274
0
SOLID
8
10100_DIM_FRONT
62
7
6
CONTINUOUS
10
160.2027881959
20
245.1192185274
11
163.7027881959
21
245.6192185274
12
160.2027881959
22
246.1192185274
13
160.2027881959
23
246.1192185274
0
ENDBLK
8
0
0
BLOCK
8
10100_DIM_FRONT
62
7
6
CONTINUOUS
2
*D1
70
65
10
0.0000000000
20
0.0000000000
0
TEXT
8
10100_DIM_FRONT
62
7
6
CONTINUOUS
10
174.7757945375
20
165.4030729693
40
3.5000000000
1
130.5
50
90.0000000000
72
5
11
174.7757945375
21
177.1530729693
0
LINE
8
10100_DIM_FRONT
62
7
6
CONTINUOUS
10
163.1027881959
20
238.8017242843
11
177.6507945375
21
238.8017242843
0
LINE
8
10100_DIM_FRONT
62
7
6
CONTINUOUS
10
163.7027881959
20
108.3017242843
11
177.6507945375
21
108.3017242843
0
LINE
8
10100_DIM_FRONT
62
7
6
CONTINUOUS
10
175.6507945375
20
238.8017242843
11
175.6507945375
21
173.5517242843
0
LINE
8
10100_DIM_FRONT
62
7
6
CONTINUOUS
10
175.6507945375
20
108.3017242843
11
175.6507945375
21
173.5517242843
0
SOLID
8
10100_DIM_FRONT
62
7
6
CONTINUOUS
10
176.1507945375
20
235.3017242843
11
175.6507945375
21
238.8017242843
12
175.1507945375
22
235.3017242843
13
175.1507945375
23
235.3017242843
0
SOLID
8
10100_DIM_FRONT
62
7
6
CONTINUOUS
10
175.1507945375
20
111.8017242843
11
175.6507945375
21
108.3017242843
12
176.1507945375
22
111.8017242843
13
176.1507945375
23
111.8017242843
0
ENDBLK
8
0
0
BLOCK
8
11100_DIM_LEFT
62
7
6
CONTINUOUS
2
*D2
70
65
10
0.0000000000
20
0.0000000000
0
TEXT
8
11100_DIM_LEFT
62
7
6
CONTINUOUS
10
241.0003294296
20
246.9785256646
40
3.5000000000
1
35.9
72
5
11
250.7503294296
21
246.9785256646
0
LINE
8
11100_DIM_LEFT
62
7
6
CONTINUOUS
10
228.8460771923
20
210.2959277451
11
228.8460771923
21
248.1035256646
0
LINE
8
11100_DIM_LEFT
62
7
6
CONTINUOUS
10
264.7460771923
20
229.0017242843
11
264.7460771923
21
248.1035256646
0
LINE
8
11100_DIM_LEFT
62
7
6
CONTINUOUS
10
228.8460771923
20
246.1035256646
11
246.7960771923
21
246.1035256646
0
LINE
8
11100_DIM_LEFT
62
7
6
CONTINUOUS
10
264.7460771923
20
246.1035256646
11
246.7960771923
21
246.1035256646
0
SOLID
8
11100_DIM_LEFT
62
7
6
CONTINUOUS
10
232.3460771923
20
246.6035256646
11
228.8460771923
21
246.1035256646
12
232.3460771923
22
245.6035256646
13
232.3460771923
23
245.6035256646
0
SOLID
8
11100_DIM_LEFT
62
7
6
CONTINUOUS
10
261.2460771923
20
245.6035256646
11
264.7460771923
21
246.1035256646
12
261.2460771923
22
246.6035256646
13
261.2460771923
23
246.6035256646
0
ENDBLK
8
0
0
ENDSEC
0
SECTION
2
ENTITIES
0
DIMENSION
8
10100_DIM_FRONT
62
7
6
CONTINUOUS
2
*D0
10
163.7027881959
20
245.6192185274
11
152.1618983839
21
248.2442185274
70
128
13
140.6027881959
23
238.3017242843
14
163.7027881959
24
234.3017242843
0
DIMENSION
8
10100_DIM_FRONT
62
7
6
CONTINUOUS
2
*D1
10
175.6507945375
20
108.3017242843
11
173.0257945375
21
171.2780729693
70
128
13
163.1027881959
23
238.8017242843
14
163.7027881959
24
108.3017242843
50
270.000000
0
DIMENSION
8
11100_DIM_LEFT
62
7
6
CONTINUOUS
2
*D2
10
264.7460771923
20
246.1035256646
11
245.8753294296
21
248.7285256646
70
128
13
228.8460771923
23
210.2959277451
14
264.7460771923
24
229.0017242843
0
TEXT
8
11300_LEFT_GERMAN_ENGLISH
62
7
6
CONTINUOUS
10
229.9087078652
20
261.1144662921
40
3.5000000000
1
Links / Left
72
5
11
258.4087078652
21
261.1144662921
0
TEXT
8
13300_TOP_GERMAN_ENGLISH
62
7
6
CONTINUOUS
10
141.4255617978
20
84.1481741573
40
3.5000000000
1
Oben / Top
72
5
11
167.8422284644
21
84.1481741573
0
TEXT
8
10300_FRONT_GERMAN_ENGLISH
62
7
6
CONTINUOUS
10
141.4255617978
20
259.7872191011
40
3.5000000000
1
Vorne / Front
72
5
11
174.0088951311
21
259.7872191011
0
TEXT
8
90000_FRAME
62
7
6
CONTINUOUS
10
325.6600000000
20
11.9000000000
40
2.2000000000
1
Format / Size: DIN A3
72
5
11
359.0790476190
21
11.9000000000
0
TEXT
8
90000_FRAME
62
7
6
CONTINUOUS
10
368.1600000000
20
11.9000000000
40
2.2000000000
1
Massstab / Scale: 1:1
72
5
11
399.0647619048
21
11.9000000000
0
TEXT
8
90000_FRAME
62
7
6
CONTINUOUS
10
340.7598684211
20
20.1875000000
40
3.5000000000
1
6ES73921AJ000AA0_001
72
5
11
394.0098684211
21
20.1875000000
0
TEXT
8
91000_TIP
62
7
6
CONTINUOUS
10
11.2756234532
20
15.1898618139
40
3.5000000000
1
Alle Bemassungswerte sind in Millimeter (mm) angegeben.
72
5
11
145.8589567865
21
15.1898618139
0
TEXT
8
91000_TIP
62
7
6
CONTINUOUS
10
11.2756234532
20
9.9398618139
40
3.5000000000
1
All dimensions are in millimeters (mm).
72
5
11
104.4422901199
21
9.9398618139
0
LINE
8
90000_FRAME
62
7
6
CONTINUOUS
10
0.0000000000
20
297.0000000000
11
0.0000000000
21
0.0000000000
0
LINE
8
90000_FRAME
62
7
6
CONTINUOUS
10
5.0000000000
20
292.0000000000
11
5.0000000000
21
5.0000000000
0
LINE
8
90000_FRAME
62
7
6
CONTINUOUS
10
0.0000000000
20
0.0000000000
11
420.0000000000
21
0.0000000000
0
LINE
8
91000_TIP
62
7
6
CONTINUOUS
10
249.8659881699
20
20.5812835243
11
259.8659879657
21
23.0812834733
0
LINE
8
90000_FRAME
62
7
6
CONTINUOUS
10
5.0000000000
20
5.0000000000
11
415.0000000000
21
5.0000000000
0
LINE
8
90000_FRAME
62
7
6
CONTINUOUS
10
275.0000000000
20
10.0000000000
11
410.0000000000
21
10.0000000000
0
LINE
8
90000_FRAME
62
7
6
CONTINUOUS
10
325.0000000000
20
16.0000000000
11
410.0000000000
21
16.0000000000
0
LINE
8
90000_FRAME
62
7
6
CONTINUOUS
10
298.2973434565
20
16.6961097434
11
299.1529318914
21
16.6961097434
0
LINE
8
90000_FRAME
62
7
6
CONTINUOUS
10
311.4876651625
20
16.7436424342
11
309.9666190559
21
16.7436424342
0
LINE
8
90000_FRAME
62
7
6
CONTINUOUS
10
301.8622952689
20
16.7436424342
11
300.4838472348
21
16.7436424342
0
LINE
8
90000_FRAME
62
7
6
CONTINUOUS
10
289.1235341257
20
16.7436424342
11
290.5495148507
21
16.7436424342
0
LINE
8
90000_FRAME
62
7
6
CONTINUOUS
10
291.6427667399
20
16.7436424342
11
295.2077185523
21
16.7436424342
0
LINE
8
90000_FRAME
62
7
6
CONTINUOUS
10
296.0157742965
20
16.7436424342
11
296.9664281131
21
16.7436424342
0
LINE
8
90000_FRAME
62
7
6
CONTINUOUS
10
302.9555471581
20
16.7436424342
11
306.5204989705
21
16.7436424342
0
LINE
8
90000_FRAME
62
7
6
CONTINUOUS
10
307.3047883693
20
16.7436424342
11
308.2554421859
21
16.7436424342
0
LINE
8
90000_FRAME
62
7
6
CONTINUOUS
10
306.5204989705
20
17.6467635600
11
304.3339951922
21
17.6467635600
0
LINE
8
90000_FRAME
62
7
6
CONTINUOUS
10
295.2077185523
20
17.6467635600
11
293.0212147740
21
17.6467635600
0
LINE
8
91000_TIP
62
7
6
CENTER
10
248.5864776979
20
18.0812835754
11
272.1884669620
21
18.0812835754
0
LINE
8
90000_FRAME
62
7
6
CONTINUOUS
10
306.1877701347
20
18.7637817946
11
304.3339951922
21
18.7637817946
0
LINE
8
90000_FRAME
62
7
6
CONTINUOUS
10
294.8749897165
20
18.7637817946
11
293.0212147740
21
18.7637817946
0
LINE
8
90000_FRAME
62
7
6
CONTINUOUS
10
306.1877701347
20
19.5480711933
11
304.3339951922
21
19.5480711933
0
LINE
8
90000_FRAME
62
7
6
CONTINUOUS
10
294.8749897165
20
19.5480711933
11
293.0212147740
21
19.5480711933
0
LINE
8
90000_FRAME
62
7
6
CONTINUOUS
10
306.4729662797
20
20.6175567371
11
304.3339951922
21
20.6175567371
0
LINE
8
90000_FRAME
62
7
6
CONTINUOUS
10
295.1601858615
20
20.6175567371
11
293.0212147740
21
20.6175567371
0
LINE
8
90000_FRAME
62
7
6
CONTINUOUS
10
311.4876651625
20
21.4969115175
11
310.5370113459
21
21.4969115175
0
LINE
8
90000_FRAME
62
7
6
CONTINUOUS
10
308.8496008213
20
21.4969115175
11
307.3047883693
21
21.4969115175
0
LINE
8
90000_FRAME
62
7
6
CONTINUOUS
10
306.4729662797
20
21.4969115175
11
302.9555471581
21
21.4969115175
0
LINE
8
90000_FRAME
62
7
6
CONTINUOUS
10
301.8622952689
20
21.4969115175
11
300.1511183989
21
21.4969115175
0
LINE
8
90000_FRAME
62
7
6
CONTINUOUS
10
297.7269511665
20
21.4969115175
11
296.0157742965
21
21.4969115175
0
LINE
8
90000_FRAME
62
7
6
CONTINUOUS
10
295.1601858615
20
21.4969115175
11
291.6427667399
21
21.4969115175
0
LINE
8
90000_FRAME
62
7
6
CONTINUOUS
10
289.1235341257
20
21.4969115175
11
290.5495148507
21
21.4969115175
0
LINE
8
90000_FRAME
62
7
6
CONTINUOUS
10
275.0000000000
20
28.0000000000
11
410.0000000000
21
28.0000000000
0
LINE
8
91000_TIP
62
7
6
CONTINUOUS
10
249.8659881699
20
15.5812836265
11
259.8659879657
21
13.0812836775
0
LINE
8
13000_TOP
62
7
6
CONTINUOUS
10
155.0065824098
20
41.3429576580
11
163.7027881959
21
41.3429576580
0
LINE
8
13000_TOP
62
7
6
CONTINUOUS
10
162.8027881959
20
42.6429576580
11
163.7027881959
21
42.6429576580
0
LINE
8
13000_TOP
62
7
6
CONTINUOUS
10
153.9530459347
20
43.8429576580
11
162.2027881959
21
43.8429576580
0
LINE
8
13000_TOP
62
7
6
CONTINUOUS
10
162.2027881959
20
45.2429576580
11
153.5779170653
21
45.2429576580
0
LINE
8
13000_TOP
62
7
6
CONTINUOUS
10
162.8027881959
20
46.5429576580
11
162.2027881959
21
46.5429576580
0
LINE
8
13000_TOP
62
7
6
CONTINUOUS
10
162.2027881959
20
46.6429576580
11
153.2027881959
21
46.6429576580
0
LINE
8
13000_TOP
62
7
6
CONTINUOUS
10
162.8027881959
20
46.7429576580
11
162.2027881959
21
46.7429576580
0
LINE
8
10000_FRONT
62
7
6
CONTINUOUS
10
162.1487341447
20
227.0165874010
11
162.2163017316
21
227.0841533190
0
LINE
8
10000_FRONT
62
7
6
CONTINUOUS
10
161.8784639163
20
226.8138896471
11
162.1487341447
21
227.0165874010
0
LINE
8
10000_FRONT
62
7
6
CONTINUOUS
10
162.2163017316
20
226.6787501818
11
161.9460313840
21
226.4760447985
0
LINE
8
10000_FRONT
62
7
6
CONTINUOUS
10
161.6757611556
20
226.6787501818
11
161.8784639163
21
226.8138896471
0
LINE
8
10000_FRONT
62
7
6
CONTINUOUS
10
161.6757611574
20
221.6814539629
11
161.8784639181
21
221.8165857988
0
LINE
8
10000_FRONT
62
7
6
CONTINUOUS
10
161.9460313840
20
226.4760447985
11
161.6757611556
21
226.3409129625
0
LINE
8
10000_FRONT
62
7
6
CONTINUOUS
10
162.1487341465
20
221.6138880449
11
162.0135989727
21
221.5463221269
0
LINE
8
13000_TOP
62
7
6
CONTINUOUS
10
162.2027881959
20
48.0429576580
11
153.2027881959
21
48.0429576580
0
LINE
8
13000_TOP
62
7
6
CONTINUOUS
10
162.2027881959
20
49.4429576580
11
153.2027881959
21
49.4429576580
0
LINE
8
13000_TOP
62
7
6
CONTINUOUS
10
162.2027881959
20
50.8429576580
11
153.2027881959
21
50.8429576580
0
LINE
8
13000_TOP
62
7
6
CONTINUOUS
10
162.2027881959
20
52.2429576580
11
153.2027881959
21
52.2429576580
0
LINE
8
13000_TOP
62
7
6
CONTINUOUS
10
153.2027881959
20
52.6929576580
11
152.7027881959
21
52.6929576580
0
LINE
8
13000_TOP
62
7
6
CONTINUOUS
10
152.7027881959
20
52.9929576580
11
150.2027881959
21
52.9929576580
0
LINE
8
13000_TOP
62
7
6
CONTINUOUS
10
162.2027881959
20
53.6429576580
11
153.2027881959
21
53.6429576580
0
LINE
8
13000_TOP
62
7
6
CONTINUOUS
10
162.2027881959
20
55.0429576580
11
153.2027881959
21
55.0429576580
0
LINE
8
13000_TOP
62
7
6
CONTINUOUS
10
162.2027881959
20
56.4429576580
11
153.2027881959
21
56.4429576580
0
LINE
8
13000_TOP
62
7
6
CONTINUOUS
10
162.2027881959
20
57.8429576580
11
153.2027881959
21
57.8429576580
0
LINE
8
13000_TOP
62
7
6
CONTINUOUS
10
152.7027881959
20
57.9929576580
11
150.2027881959
21
57.9929576580
0
LINE
8
13000_TOP
62
7
6
CONTINUOUS
10
153.2027881959
20
58.2929576580
11
152.7027881959
21
58.2929576580
0
LINE
8
13000_TOP
62
7
6
CONTINUOUS
10
153.2027881959
20
59.2429576580
11
162.2027881959
21
59.2429576580
0
LINE
8
13000_TOP
62
7
6
CONTINUOUS
10
153.1759932767
20
60.8429576580
11
161.5256638515
21
60.8429576580
0
LINE
8
13000_TOP
62
7
6
CONTINUOUS
10
153.0420186805
20
61.3429576580
11
160.2027881959
21
61.3429576580
0
LINE
8
13000_TOP
62
7
6
CONTINUOUS
10
140.6027881959
20
62.2429576580
11
152.8008644073
21
62.2429576580
0
LINE
8
13000_TOP
62
7
6
CONTINUOUS
10
150.0027881959
20
74.8789707387
11
149.9178738645
21
74.9214036176
0
LINE
8
13000_TOP
62
7
6
CONTINUOUS
10
149.9178738645
20
74.9214036176
11
149.8352463410
21
74.9759383946
0
LINE
8
13000_TOP
62
7
6
CONTINUOUS
10
149.8352463410
20
74.9759383946
11
149.7557082132
21
75.0425501324
0
LINE
8
13000_TOP
62
7
6
CONTINUOUS
10
149.7557082132
20
75.0425501324
11
149.6808077864
21
75.1214740476
0
LINE
8
13000_TOP
62
7
6
CONTINUOUS
10
149.6808077864
20
75.1214740476
11
149.6126112736
21
75.2136099193
0
LINE
8
13000_TOP
62
7
6
CONTINUOUS
10
149.6126112736
20
75.2136099193
11
149.5560045472
21
75.3174733559
0
LINE
8
10000_FRONT
62
7
6
CONTINUOUS
10
153.1759932767
20
234.3017242843
11
153.0420186805
21
233.8017242843
0
LINE
8
10000_FRONT
62
7
6
CONTINUOUS
10
161.9460313858
20
221.4787485796
11
161.8784639181
21
221.3436167436
0
LINE
8
10000_FRONT
62
7
6
CONTINUOUS
10
161.6081935705
20
216.4814561645
11
161.4730585159
21
216.2111848632
0
LINE
8
10000_FRONT
62
7
6
CONTINUOUS
10
162.6217071356
20
215.8733476440
11
162.5541395487
21
215.7382081787
0
LINE
8
10000_FRONT
62
7
6
CONTINUOUS
10
163.0024034382
20
237.9017242843
11
162.4827881959
21
237.0017242843
0
LINE
8
10000_FRONT
62
7
6
CONTINUOUS
10
161.5406259836
20
221.4787485796
11
161.6757611574
21
221.6814539629
0
LINE
8
10000_FRONT
62
7
6
CONTINUOUS
10
162.4190044345
20
220.7355082231
11
162.5541395487
21
220.9382136064
0
LINE
8
10000_FRONT
62
7
6
CONTINUOUS
10
162.8244098069
20
220.7355082231
11
162.6892746629
21
220.5328028398
0
LINE
8
10000_FRONT
62
7
6
CONTINUOUS
10
162.6892746629
20
214.7922624389
11
162.5541395487
21
214.5895646850
0
LINE
8
10000_FRONT
62
7
6
CONTINUOUS
10
162.4865719636
20
211.1463151114
11
161.6081935723
21
209.8625321524
0
LINE
8
10000_FRONT
62
7
6
CONTINUOUS
10
161.3379233439
20
209.9301056998
11
162.4190044363
21
211.4841599600
0
LINE
8
10000_FRONT
62
7
6
CONTINUOUS
10
162.0135989727
20
221.5463221269
11
161.9460313858
21
221.4787485796
0
LINE
8
10000_FRONT
62
7
6
CONTINUOUS
10
161.4730585159
20
219.7895624834
11
162.4190044345
21
220.7355082231
0
LINE
8
10000_FRONT
62
7
6
CONTINUOUS
10
162.6892746629
20
220.5328028398
11
161.8784639181
21
219.7219965654
0
LINE
8
10000_FRONT
62
7
6
CONTINUOUS
10
161.8784639181
20
216.2787507812
11
161.9460313858
21
216.3463166992
0
LINE
8
10000_FRONT
62
7
6
CONTINUOUS
10
162.6892746629
20
215.5355104248
11
162.8919773938
21
215.7382081787
0
LINE
8
10000_FRONT
62
7
6
CONTINUOUS
10
162.6892746629
20
214.3192933838
11
162.9595449509
21
214.5895646850
0
LINE
8
10000_FRONT
62
7
6
CONTINUOUS
10
161.8108961975
20
205.2030746216
11
161.8784637844
21
205.2706405396
0
LINE
8
10000_FRONT
62
7
6
CONTINUOUS
10
162.0135989582
20
205.0679427857
11
161.8784637844
21
204.9328033204
0
LINE
8
10000_FRONT
62
7
6
CONTINUOUS
10
162.8244097626
20
204.0544234986
11
162.5541395342
21
203.8517257447
0
LINE
8
10000_FRONT
62
7
6
CONTINUOUS
10
161.8108963312
20
216.6165880005
11
161.6081935705
21
216.4814561645
0
LINE
8
10000_FRONT
62
7
6
CONTINUOUS
10
162.5541395487
20
214.5895646850
11
162.3514368476
21
214.4544252197
0
LINE
8
10000_FRONT
62
7
6
CONTINUOUS
10
162.3514368927
20
204.0544234986
11
162.5541395342
21
204.1895629639
0
LINE
8
10000_FRONT
62
7
6
CONTINUOUS
10
161.9460313858
20
216.3463166992
11
162.0811665596
21
216.4138902465
0
LINE
8
10000_FRONT
62
7
6
CONTINUOUS
10
162.5541395487
20
215.7382081787
11
162.4190044345
21
215.6706422607
0
LINE
8
10000_FRONT
62
7
6
CONTINUOUS
10
162.2838692607
20
215.3328050415
11
162.6892746629
21
215.5355104248
0
LINE
8
10000_FRONT
62
7
6
CONTINUOUS
10
161.8784637844
20
205.2706405396
11
162.0135989582
21
205.3382140870
0
LINE
8
10000_FRONT
62
7
6
CONTINUOUS
10
162.1487341320
20
205.1355087037
11
162.0135989582
21
205.0679427857
0
LINE
8
10000_FRONT
62
7
6
CONTINUOUS
10
162.3514368476
20
214.1841539184
11
162.6892746629
21
214.3192933838
0
LINE
8
10000_FRONT
62
7
6
CONTINUOUS
10
162.4190044345
20
215.6706422607
11
162.2163017334
21
215.6030763427
0
LINE
8
13000_TOP
62
7
6
CONTINUOUS
10
140.6027881959
20
62.8429576580
11
163.7027881959
21
62.8429576580
0
LINE
8
13000_TOP
62
7
6
CONTINUOUS
10
163.1027881959
20
63.4429576580
11
140.6027881959
21
63.4429576580
0
LINE
8
13000_TOP
62
7
6
CONTINUOUS
10
163.7027881959
20
70.3429576580
11
163.6027881959
21
70.3429576580
0
LINE
8
13000_TOP
62
7
6
CONTINUOUS
10
141.4776748303
20
72.3429576580
11
163.1027881959
21
72.3429576580
0
LINE
8
13000_TOP
62
7
6
CONTINUOUS
10
153.8527881959
20
74.7929576580
11
150.0027881959
21
74.7929576580
0
LINE
8
13000_TOP
62
7
6
CONTINUOUS
10
146.7027881959
20
74.7929576580
11
142.8527881959
21
74.7929576580
0
LINE
8
13000_TOP
62
7
6
CONTINUOUS
10
149.5560045472
20
75.3174733559
11
149.5168652838
21
75.4306772960
0
LINE
8
13000_TOP
62
7
6
CONTINUOUS
10
149.6848270665
20
72.3429576580
11
149.5557619074
21
72.7816769309
0
LINE
8
13000_TOP
62
7
6
CONTINUOUS
10
154.5236194967
20
41.7135481354
11
153.2027881959
21
46.6429576580
0
LINE
8
13000_TOP
62
7
6
CONTINUOUS
10
153.2027881959
20
60.7429576580
11
152.8008644073
21
62.2429576580
0
LINE
8
13000_TOP
62
7
6
CONTINUOUS
10
153.8527881959
20
76.2429576580
11
153.5848390035
21
77.2429576580
0
LINE
8
13000_TOP
62
7
6
CONTINUOUS
10
149.5557619074
20
72.7816769309
11
149.5027881959
21
73.3429576580
0
LINE
8
13000_TOP
62
7
6
CONTINUOUS
10
140.6027881959
20
70.8271478612
11
140.6027881959
21
62.2429576580
0
LINE
8
10000_FRONT
62
7
6
CONTINUOUS
10
140.6027881959
20
108.3017242843
11
140.6027881959
21
238.3017242843
0
LINE
8
10000_FRONT
62
7
6
CONTINUOUS
10
141.0027881959
20
234.3017242843
11
141.0027881959
21
237.9017242843
0
LINE
8
10000_FRONT
62
7
6
CONTINUOUS
10
141.5224034382
20
237.0017242843
11
141.5224034382
21
234.3017242843
0
LINE
8
13000_TOP
62
7
6
CONTINUOUS
10
142.8527881959
20
72.3429576580
11
142.8527881959
21
76.2429576580
0
LINE
8
13000_TOP
62
7
6
CONTINUOUS
10
146.7027881959
20
72.3429576580
11
146.7027881959
21
74.8789707387
0
LINE
8
10000_FRONT
62
7
6
CONTINUOUS
10
147.2027881959
20
149.3017242843
11
147.2027881959
21
145.3017242843
0
LINE
8
13000_TOP
62
7
6
CONTINUOUS
10
147.2027881959
20
73.3429576580
11
147.2027881959
21
75.5433976021
0
LINE
8
10000_FRONT
62
7
6
CONTINUOUS
10
149.4027881959
20
145.3017242843
11
149.4027881959
21
149.3017242843
0
LINE
8
13000_TOP
62
7
6
CONTINUOUS
10
149.5027881959
20
73.3429576580
11
149.5027881959
21
75.5433976021
0
LINE
8
13000_TOP
62
7
6
CONTINUOUS
10
150.0027881959
20
72.3429576580
11
150.0027881959
21
74.8789707387
0
LINE
8
13000_TOP
62
7
6
CONTINUOUS
10
150.2027881959
20
52.9929576580
11
150.2027881959
21
57.9929576580
0
LINE
8
10000_FRONT
62
7
6
CONTINUOUS
10
150.2027881959
20
167.8017242843
11
150.2027881959
21
174.8017242843
0
LINE
8
10000_FRONT
62
7
6
CONTINUOUS
10
151.5295831152
20
173.3517242843
11
151.5295831152
21
169.2517242843
0
LINE
8
13000_TOP
62
7
6
CONTINUOUS
10
152.7027881959
20
52.6929576580
11
152.7027881959
21
58.2929576580
0
LINE
8
10000_FRONT
62
7
6
CONTINUOUS
10
152.7027881959
20
114.1517242843
11
152.7027881959
21
166.0517242843
0
LINE
8
10000_FRONT
62
7
6
CONTINUOUS
10
152.7027881959
20
176.5517242843
11
152.7027881959
21
228.4517242843
0
LINE
8
10000_FRONT
62
7
6
CONTINUOUS
10
152.8008644073
20
113.2017242843
11
152.8008644073
21
114.1517242843
0
LINE
8
10000_FRONT
62
7
6
CONTINUOUS
10
152.8008644073
20
166.0517242843
11
152.8008644073
21
167.8017242843
0
LINE
8
10000_FRONT
62
7
6
CONTINUOUS
10
152.8008644073
20
174.8017242843
11
152.8008644073
21
176.5517242843
0
LINE
8
10000_FRONT
62
7
6
CONTINUOUS
10
152.8008644073
20
228.4517242843
11
152.8008644073
21
229.4017242843
0
LINE
8
10000_FRONT
62
7
6
CONTINUOUS
10
153.0420186805
20
233.8017242843
11
153.0420186805
21
229.4017242843
0
LINE
8
10000_FRONT
62
7
6
CONTINUOUS
10
153.0420186805
20
108.8017242843
11
153.0420186805
21
113.2017242843
0
LINE
8
13000_TOP
62
7
6
CONTINUOUS
10
153.2027881959
20
46.6429576580
11
153.2027881959
21
60.7429576580
0
LINE
8
10000_FRONT
62
7
6
CONTINUOUS
10
153.2027881959
20
108.3017242843
11
153.2027881959
21
234.3017242843
0
LINE
8
10000_FRONT
62
7
6
CONTINUOUS
10
161.4730585159
20
221.2084772783
11
161.5406259836
21
221.4787485796
0
LINE
8
10000_FRONT
62
7
6
CONTINUOUS
10
162.5541395487
20
220.9382136064
11
162.6217071356
21
221.1409113603
0
LINE
8
10000_FRONT
62
7
6
CONTINUOUS
10
161.8108963312
20
216.0760453979
11
161.8784639181
21
216.2787507812
0
LINE
8
10000_FRONT
62
7
6
CONTINUOUS
10
162.8919773938
20
215.7382081787
11
162.9595449509
21
215.9409135620
0
LINE
8
10000_FRONT
62
7
6
CONTINUOUS
10
162.9595449509
20
214.5895646850
11
163.0271125229
21
214.7922624389
0
LINE
8
10000_FRONT
62
7
6
CONTINUOUS
10
163.0271125233
20
204.4598342652
11
162.9595449364
21
204.2571288819
0
LINE
8
10000_FRONT
62
7
6
CONTINUOUS
10
161.8108962990
20
200.4084827911
11
161.8784638859
21
200.6111805450
0
LINE
8
10000_FRONT
62
7
6
CONTINUOUS
10
162.9595449186
20
199.0571262847
11
163.0271125055
21
199.2598316680
0
LINE
8
10000_FRONT
62
7
6
CONTINUOUS
10
161.4054909297
20
190.1436167375
11
161.4730585166
21
190.3463221208
0
LINE
8
10000_FRONT
62
7
6
CONTINUOUS
10
161.4730585166
20
189.2652369157
11
161.4054909297
21
189.0625315324
0
LINE
8
10000_FRONT
62
7
6
CONTINUOUS
10
163.0271125087
20
190.0084772722
11
162.9595449516
21
189.8057795183
0
LINE
8
10000_FRONT
62
7
6
CONTINUOUS
10
161.4054908790
20
184.8084847393
11
161.4730584659
21
185.0111824932
0
LINE
8
10000_FRONT
62
7
6
CONTINUOUS
10
162.9595449516
20
188.5219965593
11
163.0271125087
21
188.7246943132
0
LINE
8
10000_FRONT
62
7
6
CONTINUOUS
10
162.9595449509
20
221.0733454424
11
162.8244098069
21
220.7355082231
0
LINE
8
10000_FRONT
62
7
6
CONTINUOUS
10
161.6081935383
20
200.6787540924
11
161.4730583645
21
200.3409168731
0
LINE
8
10000_FRONT
62
7
6
CONTINUOUS
10
162.9595449605
20
183.6598336163
11
162.8244098463
21
183.3219963970
0
LINE
8
10000_FRONT
62
7
6
CONTINUOUS
10
161.7433287628
20
193.4517229853
11
162.6217071540
21
195.5463198481
0
LINE
8
10000_FRONT
62
7
6
CONTINUOUS
10
162.9595449693
20
195.5463198481
11
162.0811665781
21
193.4517229853
0
LINE
8
10000_FRONT
62
7
6
CONTINUOUS
10
161.8784637844
20
204.9328033204
11
161.8108961975
21
204.7976714844
0
LINE
8
10000_FRONT
62
7
6
CONTINUOUS
10
162.5541395342
20
204.1895629639
11
162.6892747080
21
204.4598342652
0
LINE
8
10000_FRONT
62
7
6
CONTINUOUS
10
161.8108962990
20
199.5976688873
11
161.8784638859
21
199.7328083526
0
LINE
8
10000_FRONT
62
7
6
CONTINUOUS
10
162.6892746902
20
199.2598316680
11
162.5541395164
21
198.9895603668
0
LINE
8
10000_FRONT
62
7
6
CONTINUOUS
10
161.8108963319
20
190.2787485734
11
161.7433287450
21
190.1436167375
0
LINE
8
10000_FRONT
62
7
6
CONTINUOUS
10
161.7433287450
20
189.0625315324
11
161.8108963319
21
189.1976709977
0
LINE
8
10000_FRONT
62
7
6
CONTINUOUS
10
162.6217071363
20
189.8057795183
11
162.6892746636
21
189.9409113542
0
LINE
8
10000_FRONT
62
7
6
CONTINUOUS
10
162.6892746636
20
188.7246943132
11
162.6217071363
21
188.5895624772
0
LINE
8
10000_FRONT
62
7
6
CONTINUOUS
10
161.8784638681
20
185.0787484112
11
161.7433286943
21
184.8084847393
0
LINE
8
10000_FRONT
62
7
6
CONTINUOUS
10
162.5541395583
20
184.4030739727
11
162.6217070856
21
184.5382134381
0
LINE
8
10000_FRONT
62
7
6
CONTINUOUS
10
161.4730584304
20
179.6084818175
11
161.6757611911
21
180.0138849547
0
LINE
8
10000_FRONT
62
7
6
CONTINUOUS
10
161.8784638922
20
179.8111872008
11
161.8108963053
21
179.6760477355
0
LINE
8
10000_FRONT
62
7
6
CONTINUOUS
10
162.9595449364
20
204.2571288819
11
162.8244097626
21
204.0544234986
0
LINE
8
10000_FRONT
62
7
6
CONTINUOUS
10
161.7433287121
20
200.8814518463
11
161.6081935383
21
200.6787540924
0
LINE
8
10000_FRONT
62
7
6
CONTINUOUS
10
162.8244098640
20
198.8544285308
11
162.9595449186
21
199.0571262847
0
LINE
8
10000_FRONT
62
7
6
CONTINUOUS
10
161.4730584659
20
185.0111824932
11
161.6081936397
21
185.2138878765
0
LINE
8
10000_FRONT
62
7
6
CONTINUOUS
10
162.6892746725
20
184.2679421368
11
162.5541395583
21
184.0652367535
0
LINE
8
10000_FRONT
62
7
6
CONTINUOUS
10
161.8784638859
20
200.6111805450
11
162.0135990597
21
200.7463200103
0
LINE
8
10000_FRONT
62
7
6
CONTINUOUS
10
161.8784638859
20
200.0706455719
11
161.7433287121
21
199.9355061065
0
LINE
8
10000_FRONT
62
7
6
CONTINUOUS
10
161.8784638859
20
199.7328083526
11
162.0135990597
21
199.8679401886
0
LINE
8
10000_FRONT
62
7
6
CONTINUOUS
10
161.4730585166
20
190.3463221208
11
161.6757611581
21
190.5490198747
0
LINE
8
10000_FRONT
62
7
6
CONTINUOUS
10
161.8784639188
20
190.3463221208
11
161.8108963319
21
190.2787485734
0
LINE
8
10000_FRONT
62
7
6
CONTINUOUS
10
161.6081935712
20
189.4003763810
11
161.4730585166
21
189.2652369157
0
LINE
8
10000_FRONT
62
7
6
CONTINUOUS
10
161.8108963319
20
189.1976709977
11
161.8784639188
21
189.2652369157
0
LINE
8
10000_FRONT
62
7
6
CONTINUOUS
10
162.5541395494
20
189.7382136003
11
162.6217071363
21
189.8057795183
0
LINE
8
10000_FRONT
62
7
6
CONTINUOUS
10
162.5541395494
20
189.5355082170
11
162.3514368483
21
189.3328028337
0
LINE
8
10000_FRONT
62
7
6
CONTINUOUS
10
162.9595449516
20
189.8057795183
11
162.7568422505
21
189.6030741350
0
LINE
8
10000_FRONT
62
7
6
CONTINUOUS
10
162.6217071363
20
188.5895624772
11
162.5541395494
21
188.5219965593
0
LINE
8
10000_FRONT
62
7
6
CONTINUOUS
10
162.8244098076
20
188.3868570939
11
162.9595449516
21
188.5219965593
0
LINE
8
10000_FRONT
62
7
6
CONTINUOUS
10
155.9487343143
20
180.2165926365
11
156.0163016627
21
180.2841585544
0
LINE
8
10000_FRONT
62
7
6
CONTINUOUS
10
162.4190044441
20
184.2679421368
11
162.5541395583
21
184.4030739727
0
LINE
8
10000_FRONT
62
7
6
CONTINUOUS
10
162.4190044441
20
183.3219963970
11
162.5541395583
21
183.4571282330
0
LINE
8
10000_FRONT
62
7
6
CONTINUOUS
10
162.8244098463
20
183.3219963970
11
162.6892746725
21
183.1868569317
0
LINE
8
10000_FRONT
62
7
6
CONTINUOUS
10
162.5541395164
20
198.6517231475
11
162.8244098640
21
198.8544285308
0
LINE
8
10000_FRONT
62
7
6
CONTINUOUS
10
161.6081936397
20
185.2138878765
11
161.8784638681
21
185.4165856304
0
LINE
8
10000_FRONT
62
7
6
CONTINUOUS
10
155.6784639667
20
180.0138872532
11
155.9487343143
21
180.2165926365
0
LINE
8
10000_FRONT
62
7
6
CONTINUOUS
10
156.0163016627
20
179.8787477878
11
155.7460313151
21
179.6760500339
0
LINE
8
11000_LEFT
62
7
6
CONTINUOUS
10
235.3958643189
20
238.8017242843
11
235.3457132794
21
238.7653516281
0
LINE
8
10000_FRONT
62
7
6
CONTINUOUS
10
161.9460314728
20
201.0165913116
11
161.7433287121
21
200.8814518463
0
LINE
8
10000_FRONT
62
7
6
CONTINUOUS
10
162.5541395164
20
198.9895603668
11
162.3514368749
21
198.8544285308
0
LINE
8
10000_FRONT
62
7
6
CONTINUOUS
10
162.0811665603
20
189.6706400529
11
161.8784639188
21
189.5355082170
0
LINE
8
10000_FRONT
62
7
6
CONTINUOUS
10
162.6217071363
20
188.2517252580
11
162.8244098076
21
188.3868570939
0
LINE
8
10000_FRONT
62
7
6
CONTINUOUS
10
162.0811666288
20
185.2138878765
11
161.8784638681
21
185.0787484112
0
LINE
8
10000_FRONT
62
7
6
CONTINUOUS
10
162.0135990597
20
200.1382114898
11
161.8784638859
21
200.0706455719
0
LINE
8
10000_FRONT
62
7
6
CONTINUOUS
10
162.0135990597
20
199.8679401886
11
162.1487341142
21
199.9355061065
0
LINE
8
10000_FRONT
62
7
6
CONTINUOUS
10
161.6757611581
20
190.5490198747
11
161.8108963319
21
190.6165857927
0
LINE
8
10000_FRONT
62
7
6
CONTINUOUS
10
161.8784639188
20
189.5355082170
11
161.6081935712
21
189.4003763810
0
LINE
8
10000_FRONT
62
7
6
CONTINUOUS
10
162.0135989582
20
205.3382140870
11
162.2163017189
21
205.4057800049
0
LINE
8
10000_FRONT
62
7
6
CONTINUOUS
10
162.5541395342
20
203.8517257447
11
162.3514368927
21
203.7841598267
0
LINE
8
10000_FRONT
62
7
6
CONTINUOUS
10
162.1487341142
20
201.0841572296
11
161.9460314728
21
201.0165913116
0
LINE
8
10000_FRONT
62
7
6
CONTINUOUS
10
162.0135990597
20
200.7463200103
11
162.2163017011
21
200.8138859283
0
LINE
8
10000_FRONT
62
7
6
CONTINUOUS
10
162.2163017011
20
200.2057774078
11
162.0135990597
21
200.1382114898
0
LINE
8
10000_FRONT
62
7
6
CONTINUOUS
10
162.3514368749
20
198.5841572296
11
162.5541395164
21
198.6517231475
0
LINE
8
13000_TOP
62
7
6
CONTINUOUS
10
153.5848390035
20
77.2429576580
11
143.1207373884
21
77.2429576580
0
LINE
8
10000_FRONT
62
7
6
CONTINUOUS
10
161.8784638922
20
115.4517221740
11
161.6757611911
21
115.6544275573
0
LINE
8
10000_FRONT
62
7
6
CONTINUOUS
10
161.8784638922
20
115.8571329406
11
162.0135990064
21
115.7219934752
0
LINE
8
10000_FRONT
62
7
6
CONTINUOUS
10
156.3217073474
20
117.3436157463
11
156.1865721736
21
117.5463192222
0
LINE
8
10000_FRONT
62
7
6
CONTINUOUS
10
156.5244098697
20
117.6814539192
11
156.6595450435
21
117.4111835716
0
LINE
8
10000_FRONT
62
7
6
CONTINUOUS
10
161.6757611911
20
115.6544275573
11
161.4730584304
21
116.0598306945
0
LINE
8
10000_FRONT
62
7
6
CONTINUOUS
10
161.8108963053
20
115.9922647765
11
161.8784638922
21
115.8571329406
0
LINE
8
10000_FRONT
62
7
6
CONTINUOUS
10
153.1759932767
20
108.3017242843
11
153.0420186805
21
108.8017242843
0
LINE
8
13000_TOP
62
7
6
CONTINUOUS
10
149.5168652838
20
75.4306772960
11
149.5027881959
21
75.5433976021
0
LINE
8
10000_FRONT
62
7
6
CONTINUOUS
10
153.5779170653
20
110.2017242843
11
153.5779170653
21
113.2017242843
0
LINE
8
10000_FRONT
62
7
6
CONTINUOUS
10
153.5779170653
20
229.4017242843
11
153.5779170653
21
232.4017242843
0
LINE
8
13000_TOP
62
7
6
CONTINUOUS
10
153.8527881959
20
72.3429576580
11
153.8527881959
21
76.2429576580
0
LINE
8
10000_FRONT
62
7
6
CONTINUOUS
10
155.0065824098
20
166.5517242843
11
155.0065824098
21
176.0517242843
0
LINE
8
10000_FRONT
62
7
6
CONTINUOUS
10
155.1730581317
20
115.4517242668
11
155.1730581317
21
115.7895619629
0
LINE
8
10000_FRONT
62
7
6
CONTINUOUS
10
155.4757612565
20
122.3409149581
11
155.4757612565
21
122.6787521774
0
LINE
8
10000_FRONT
62
7
6
CONTINUOUS
10
155.4757612565
20
127.5409149581
11
155.4757612565
21
127.8787521774
0
LINE
8
10000_FRONT
62
7
6
CONTINUOUS
10
155.4757612565
20
132.7409149581
11
155.4757612565
21
133.0787521774
0
LINE
8
10000_FRONT
62
7
6
CONTINUOUS
10
155.4757612565
20
137.9409149581
11
155.4757612565
21
138.2787521774
0
LINE
8
10000_FRONT
62
7
6
CONTINUOUS
10
155.4757612565
20
143.1409149581
11
155.4757612565
21
143.4787521774
0
LINE
8
10000_FRONT
62
7
6
CONTINUOUS
10
155.4757612565
20
148.3409149581
11
155.4757612565
21
148.6787521774
0
LINE
8
10000_FRONT
62
7
6
CONTINUOUS
10
155.4757612565
20
153.5409149581
11
155.4757612565
21
153.8787521774
0
LINE
8
10000_FRONT
62
7
6
CONTINUOUS
10
155.4757612565
20
158.7409149581
11
155.4757612565
21
159.0787521774
0
LINE
8
10000_FRONT
62
7
6
CONTINUOUS
10
155.4757612565
20
163.9409149581
11
155.4757612565
21
164.2787521774
0
LINE
8
10000_FRONT
62
7
6
CONTINUOUS
10
155.4757609675
20
179.5409105686
11
155.4757609675
21
179.8787477878
0
LINE
8
10000_FRONT
62
7
6
CONTINUOUS
10
155.5784641299
20
117.3436157463
11
155.5784641299
21
117.2084810493
0
LINE
8
10000_FRONT
62
7
6
CONTINUOUS
10
156.0163014749
20
120.6517250473
11
156.0163014749
21
122.6787521774
0
LINE
8
10000_FRONT
62
7
6
CONTINUOUS
10
156.0163014749
20
125.8517250473
11
156.0163014749
21
127.8787521774
0
LINE
8
10000_FRONT
62
7
6
CONTINUOUS
10
156.0163014749
20
131.0517250473
11
156.0163014749
21
133.0787521774
0
LINE
8
10000_FRONT
62
7
6
CONTINUOUS
10
156.0163014749
20
136.2517250473
11
156.0163014749
21
138.2787521774
0
LINE
8
10000_FRONT
62
7
6
CONTINUOUS
10
156.0163014749
20
141.4517250473
11
156.0163014749
21
143.4787521774
0
LINE
8
10000_FRONT
62
7
6
CONTINUOUS
10
156.0163014749
20
146.6517250473
11
156.0163014749
21
148.6787521774
0
LINE
8
10000_FRONT
62
7
6
CONTINUOUS
10
156.0163014749
20
151.8517250473
11
156.0163014749
21
153.8787521774
0
LINE
8
10000_FRONT
62
7
6
CONTINUOUS
10
156.0163014749
20
157.0517250473
11
156.0163014749
21
159.0787521774
0
LINE
8
10000_FRONT
62
7
6
CONTINUOUS
10
156.0163014749
20
162.2517250473
11
156.0163014749
21
164.2787521774
0
LINE
8
10000_FRONT
62
7
6
CONTINUOUS
10
156.0163016627
20
177.8517244724
11
156.0163016627
21
179.8787477878
0
LINE
8
10000_FRONT
62
7
6
CONTINUOUS
10
156.3217073474
20
117.1409132240
11
156.3217073474
21
117.3436157463
0
LINE
8
10000_FRONT
62
7
6
CONTINUOUS
10
156.3541393588
20
180.2841585544
11
156.3541393588
21
177.8517244724
0
LINE
8
10000_FRONT
62
7
6
CONTINUOUS
10
156.3541396478
20
164.6841553146
11
156.3541396478
21
162.2517250473
0
LINE
8
10000_FRONT
62
7
6
CONTINUOUS
10
156.3541396478
20
159.4841553146
11
156.3541396478
21
157.0517250473
0
LINE
8
10000_FRONT
62
7
6
CONTINUOUS
10
156.3541396478
20
154.2841553146
11
156.3541396478
21
151.8517250473
0
LINE
8
10000_FRONT
62
7
6
CONTINUOUS
10
156.3541396478
20
149.0841553146
11
156.3541396478
21
146.6517250473
0
LINE
8
10000_FRONT
62
7
6
CONTINUOUS
10
156.3541396478
20
143.8841553146
11
156.3541396478
21
141.4517250473
0
LINE
8
10000_FRONT
62
7
6
CONTINUOUS
10
156.3541396478
20
138.6841553146
11
156.3541396478
21
136.2517250473
0
LINE
8
10000_FRONT
62
7
6
CONTINUOUS
10
156.3541396478
20
133.4841553146
11
156.3541396478
21
131.0517250473
0
LINE
8
10000_FRONT
62
7
6
CONTINUOUS
10
156.3541396478
20
128.2841553146
11
156.3541396478
21
125.8517250473
0
LINE
8
10000_FRONT
62
7
6
CONTINUOUS
10
156.3541396478
20
123.0841553146
11
156.3541396478
21
120.6517250473
0
LINE
8
10000_FRONT
62
7
6
CONTINUOUS
10
156.6595450435
20
117.4111835716
11
156.6595450435
21
117.0733463524
0
LINE
8
10000_FRONT
62
7
6
CONTINUOUS
10
156.7271123920
20
115.7219946144
11
156.7271123920
21
115.4517242668
0
LINE
8
10000_FRONT
62
7
6
CONTINUOUS
10
161.3379233439
20
147.1922684806
11
161.3379233439
21
147.5301056998
0
LINE
8
10000_FRONT
62
7
6
CONTINUOUS
10
161.3379233439
20
209.5922684806
11
161.3379233439
21
209.9301056998
0
LINE
8
10000_FRONT
62
7
6
CONTINUOUS
10
161.4054909290
20
214.8598359863
11
161.4054909290
21
214.7246965210
0
LINE
8
10000_FRONT
62
7
6
CONTINUOUS
10
161.4054910160
20
199.9355061065
11
161.4054910160
21
199.5976688873
0
LINE
8
10000_FRONT
62
7
6
CONTINUOUS
10
161.4054909297
20
189.0625315324
11
161.4054909297
21
188.7246943132
0
LINE
8
10000_FRONT
62
7
6
CONTINUOUS
10
161.4054909290
20
152.4598359863
11
161.4054909290
21
152.3246965210
0
LINE
8
10000_FRONT
62
7
6
CONTINUOUS
10
161.4054910160
20
137.5355061065
11
161.4054910160
21
137.1976688873
0
LINE
8
10000_FRONT
62
7
6
CONTINUOUS
10
161.4054909297
20
126.6625315324
11
161.4054909297
21
126.3246943132
0
LINE
8
10000_FRONT
62
7
6
CONTINUOUS
10
161.4054908435
20
116.4652414611
11
161.4054908435
21
116.8030786803
0
LINE
8
10000_FRONT
62
7
6
CONTINUOUS
10
161.4054908790
20
122.1382134381
11
161.4054908790
21
122.4084847393
0
LINE
8
10000_FRONT
62
7
6
CONTINUOUS
10
161.4054909297
20
127.6084772722
11
161.4054909297
21
127.7436167375
0
LINE
8
10000_FRONT
62
7
6
CONTINUOUS
10
161.4054908283
20
133.1463198481
11
161.4054908283
21
133.4841570673
0
LINE
8
10000_FRONT
62
7
6
CONTINUOUS
10
161.4054908435
20
178.8652414611
11
161.4054908435
21
179.2030786803
0
LINE
8
10000_FRONT
62
7
6
CONTINUOUS
10
161.4054908790
20
184.5382134381
11
161.4054908790
21
184.8084847393
0
LINE
8
10000_FRONT
62
7
6
CONTINUOUS
10
161.4054909297
20
190.0084772722
11
161.4054909297
21
190.1436167375
0
LINE
8
10000_FRONT
62
7
6
CONTINUOUS
10
161.4054908283
20
195.5463198481
11
161.4054908283
21
195.8841570673
0
LINE
8
10000_FRONT
62
7
6
CONTINUOUS
10
161.4730585159
20
216.2111848632
11
161.4730585159
21
216.0760453979
0
LINE
8
10000_FRONT
62
7
6
CONTINUOUS
10
161.4730585159
20
153.8111848632
11
161.4730585159
21
153.6760453979
0
LINE
8
10000_FRONT
62
7
6
CONTINUOUS
10
161.4730584659
20
121.0571282330
11
161.4730584659
21
121.1922676983
0
LINE
8
10000_FRONT
62
7
6
CONTINUOUS
10
161.4730585014
20
141.8571288819
11
161.4730585014
21
141.9922683472
0
LINE
8
10000_FRONT
62
7
6
CONTINUOUS
10
161.4730585159
20
157.0517252641
11
161.4730585159
21
157.3895624834
0
LINE
8
10000_FRONT
62
7
6
CONTINUOUS
10
161.4730584659
20
183.4571282330
11
161.4730584659
21
183.5922676983
0
LINE
8
10000_FRONT
62
7
6
CONTINUOUS
10
161.4730585014
20
204.2571288819
11
161.4730585014
21
204.3922683472
0
LINE
8
10000_FRONT
62
7
6
CONTINUOUS
10
161.4730585159
20
219.4517252641
11
161.4730585159
21
219.7895624834
0
LINE
8
10000_FRONT
62
7
6
CONTINUOUS
10
161.6757611556
20
163.9409129625
11
161.6757611556
21
164.2787501818
0
LINE
8
10000_FRONT
62
7
6
CONTINUOUS
10
161.6757611556
20
226.3409129625
11
161.6757611556
21
226.6787501818
0
LINE
8
10000_FRONT
62
7
6
CONTINUOUS
10
161.7433287450
20
190.1436167375
11
161.7433287450
21
189.9409113542
0
LINE
8
10000_FRONT
62
7
6
CONTINUOUS
10
161.7433286943
20
184.8084847393
11
161.7433286943
21
184.6057793560
0
LINE
8
10000_FRONT
62
7
6
CONTINUOUS
10
161.7433287184
20
179.2706445983
11
161.7433287184
21
178.7976679137
0
LINE
8
10000_FRONT
62
7
6
CONTINUOUS
10
161.7433287450
20
127.7436167375
11
161.7433287450
21
127.5409113542
0
LINE
8
10000_FRONT
62
7
6
CONTINUOUS
10
161.7433286943
20
122.4084847393
11
161.7433286943
21
122.2057793560
0
LINE
8
10000_FRONT
62
7
6
CONTINUOUS
10
161.7433287184
20
116.8706445983
11
161.7433287184
21
116.3976679137
0
LINE
8
10000_FRONT
62
7
6
CONTINUOUS
10
161.7433287450
20
126.3246943132
11
161.7433287450
21
126.6625315324
0
LINE
8
10000_FRONT
62
7
6
CONTINUOUS
10
161.7433287443
20
152.3246965210
11
161.7433287443
21
152.4598359863
0
LINE
8
10000_FRONT
62
7
6
CONTINUOUS
10
161.7433287450
20
188.7246943132
11
161.7433287450
21
189.0625315324
0
LINE
8
10000_FRONT
62
7
6
CONTINUOUS
10
161.7433287443
20
214.7246965210
11
161.7433287443
21
214.8598359863
0
LINE
8
10000_FRONT
62
7
6
CONTINUOUS
10
161.8108961975
20
204.3922683472
11
161.8108961975
21
204.3246947999
0
LINE
8
10000_FRONT
62
7
6
CONTINUOUS
10
161.8108962812
20
183.5922676983
11
161.8108962812
21
183.5246941509
0
LINE
8
10000_FRONT
62
7
6
CONTINUOUS
10
161.8108961975
20
141.9922683472
11
161.8108961975
21
141.9246947999
0
LINE
8
10000_FRONT
62
7
6
CONTINUOUS
10
161.8108962812
20
121.1922676983
11
161.8108962812
21
121.1246941509
0
LINE
8
10000_FRONT
62
7
6
CONTINUOUS
10
161.8108962990
20
136.8598316680
11
161.8108962990
21
137.1976688873
0
LINE
8
10000_FRONT
62
7
6
CONTINUOUS
10
161.8108962990
20
199.2598316680
11
161.8108962990
21
199.5976688873
0
LINE
8
10000_FRONT
62
7
6
CONTINUOUS
10
161.8784639181
20
221.3436167436
11
161.8784639181
21
221.2084772783
0
LINE
8
10000_FRONT
62
7
6
CONTINUOUS
10
161.8784639181
20
158.9436167436
11
161.8784639181
21
158.8084772783
0
LINE
8
10000_FRONT
62
7
6
CONTINUOUS
10
162.0135989727
20
215.6030763427
11
162.0135989727
21
215.3328050415
0
LINE
8
10000_FRONT
62
7
6
CONTINUOUS
10
162.0135989727
20
153.2030763427
11
162.0135989727
21
152.9328050415
0
LINE
8
13000_TOP
62
7
6
CONTINUOUS
10
162.2027881959
20
42.3429576580
11
162.2027881959
21
59.3429576580
0
LINE
8
10000_FRONT
62
7
6
CONTINUOUS
10
162.2027881959
20
108.3017242843
11
162.2027881959
21
113.2017242843
0
LINE
8
10000_FRONT
62
7
6
CONTINUOUS
10
162.2027881959
20
229.4017242843
11
162.2027881959
21
234.3017242843
0
LINE
8
10000_FRONT
62
7
6
CONTINUOUS
10
162.2163017316
20
162.2517268664
11
162.2163017316
21
164.2787501818
0
LINE
8
10000_FRONT
62
7
6
CONTINUOUS
10
162.2163017316
20
224.6517268664
11
162.2163017316
21
226.6787501818
0
LINE
8
10000_FRONT
62
7
6
CONTINUOUS
10
162.4827881959
20
237.0017242843
11
162.4827881959
21
234.3017242843
0
LINE
8
10000_FRONT
62
7
6
CONTINUOUS
10
162.4865719636
20
146.6517258780
11
162.4865719636
21
148.7463151114
0
LINE
8
10000_FRONT
62
7
6
CONTINUOUS
10
162.4865719636
20
209.0517258780
11
162.4865719636
21
211.1463151114
0
LINE
8
10000_FRONT
62
7
6
CONTINUOUS
10
162.5541395469
20
227.0841533190
11
162.5541395469
21
224.6517268664
0
LINE
8
10000_FRONT
62
7
6
CONTINUOUS
10
162.5541395469
20
164.6841533190
11
162.5541395469
21
162.2517268664
0
LINE
8
10000_FRONT
62
7
6
CONTINUOUS
10
162.6217071356
20
216.1436189453
11
162.6217071356
21
215.8733476440
0
LINE
8
10000_FRONT
62
7
6
CONTINUOUS
10
162.6217071356
20
153.7436189453
11
162.6217071356
21
153.4733476440
0
LINE
8
10000_FRONT
62
7
6
CONTINUOUS
10
162.6217070856
20
122.1382134381
11
162.6217070856
21
122.4760506573
0
LINE
8
10000_FRONT
62
7
6
CONTINUOUS
10
162.6217071356
20
158.7409113603
11
162.6217071356
21
158.9436167436
0
LINE
8
10000_FRONT
62
7
6
CONTINUOUS
10
162.6217070856
20
184.5382134381
11
162.6217070856
21
184.8760506573
0
LINE
8
10000_FRONT
62
7
6
CONTINUOUS
10
162.6217071356
20
221.1409113603
11
162.6217071356
21
221.3436167436
0
LINE
8
10000_FRONT
62
7
6
CONTINUOUS
10
162.6892746629
20
214.9949678222
11
162.6892746629
21
214.7922624389
0
LINE
8
10000_FRONT
62
7
6
CONTINUOUS
10
162.6892746902
20
200.5436146270
11
162.6892746902
21
200.4760487091
0
LINE
8
10000_FRONT
62
7
6
CONTINUOUS
10
162.6892746902
20
199.5301029693
11
162.6892746902
21
199.2598316680
0
LINE
8
10000_FRONT
62
7
6
CONTINUOUS
10
162.6892746636
20
189.0625315324
11
162.6892746636
21
188.7246943132
0
LINE
8
10000_FRONT
62
7
6
CONTINUOUS
10
162.6892746629
20
152.5949678222
11
162.6892746629
21
152.3922624389
0
LINE
8
10000_FRONT
62
7
6
CONTINUOUS
10
162.6892746902
20
138.1436146270
11
162.6892746902
21
138.0760487091
0
LINE
8
10000_FRONT
62
7
6
CONTINUOUS
10
162.6892746902
20
137.1301029693
11
162.6892746902
21
136.8598316680
0
LINE
8
10000_FRONT
62
7
6
CONTINUOUS
10
162.6892746636
20
126.6625315324
11
162.6892746636
21
126.3246943132
0
LINE
8
10000_FRONT
62
7
6
CONTINUOUS
10
162.6892746816
20
116.3976679137
11
162.6892746816
21
116.8706445983
0
LINE
8
10000_FRONT
62
7
6
CONTINUOUS
10
162.6892746725
20
121.5976708355
11
162.6892746725
21
121.8679421368
0
LINE
8
10000_FRONT
62
7
6
CONTINUOUS
10
162.6892746636
20
127.5409113542
11
162.6892746636
21
127.7436167375
0
LINE
8
10000_FRONT
62
7
6
CONTINUOUS
10
162.6892747080
20
142.0598342652
11
162.6892747080
21
142.3301055665
0
LINE
8
10000_FRONT
62
7
6
CONTINUOUS
10
162.6892746816
20
178.7976679137
11
162.6892746816
21
179.2706445983
0
LINE
8
10000_FRONT
62
7
6
CONTINUOUS
10
162.6892746725
20
183.9976708355
11
162.6892746725
21
184.2679421368
0
LINE
8
10000_FRONT
62
7
6
CONTINUOUS
10
162.6892746636
20
189.9409113542
11
162.6892746636
21
190.1436167375
0
LINE
8
10000_FRONT
62
7
6
CONTINUOUS
10
162.6892747080
20
204.4598342652
11
162.6892747080
21
204.7301055665
0
LINE
8
10000_FRONT
62
7
6
CONTINUOUS
10
162.7568422516
20
211.4841599600
11
162.7568422516
21
209.0517258780
0
LINE
8
10000_FRONT
62
7
6
CONTINUOUS
10
162.7568422516
20
149.0841599600
11
162.7568422516
21
146.6517258780
0
LINE
8
13000_TOP
62
7
6
CONTINUOUS
10
162.8027881959
20
46.7429576580
11
162.8027881959
21
42.6429576580
0
LINE
8
10000_FRONT
62
7
6
CONTINUOUS
10
162.8919773495
20
206.2841598267
11
162.8919773495
21
206.0138885254
0
LINE
8
10000_FRONT
62
7
6
CONTINUOUS
10
162.8919773495
20
143.8841598267
11
162.8919773495
21
143.6138885254
0
LINE
8
10000_FRONT
62
7
6
CONTINUOUS
10
162.9595449509
20
221.4111826616
11
162.9595449509
21
221.0733454424
0
LINE
8
10000_FRONT
62
7
6
CONTINUOUS
10
162.9595449693
20
195.8841570673
11
162.9595449693
21
195.5463198481
0
LINE
8
10000_FRONT
62
7
6
CONTINUOUS
10
162.9595449509
20
159.0111826616
11
162.9595449509
21
158.6733454424
0
LINE
8
10000_FRONT
62
7
6
CONTINUOUS
10
162.9595449693
20
133.4841570673
11
162.9595449693
21
133.1463198481
0
LINE
8
10000_FRONT
62
7
6
CONTINUOUS
10
162.9595449509
20
153.5409135620
11
162.9595449509
21
153.8111848632
0
LINE
8
10000_FRONT
62
7
6
CONTINUOUS
10
162.9595449509
20
215.9409135620
11
162.9595449509
21
216.2111848632
0
LINE
8
10000_FRONT
62
7
6
CONTINUOUS
10
163.0024034382
20
237.9017242843
11
163.0024034382
21
234.3017242843
0
LINE
8
10000_FRONT
62
7
6
CONTINUOUS
10
163.0271125229
20
219.7219965654
11
163.0271125229
21
219.4517252641
0
LINE
8
10000_FRONT
62
7
6
CONTINUOUS
10
163.0271125233
20
204.7976714844
11
163.0271125233
21
204.4598342652
0
LINE
8
10000_FRONT
62
7
6
CONTINUOUS
10
163.0271125087
20
190.1436167375
11
163.0271125087
21
190.0084772722
0
LINE
8
10000_FRONT
62
7
6
CONTINUOUS
10
163.0271125474
20
184.4706398907
11
163.0271125474
21
184.0652367535
0
LINE
8
10000_FRONT
62
7
6
CONTINUOUS
10
163.0271125118
20
179.2030786803
11
163.0271125118
21
178.8652414611
0
LINE
8
10000_FRONT
62
7
6
CONTINUOUS
10
163.0271125229
20
157.3219965654
11
163.0271125229
21
157.0517252641
0
LINE
8
10000_FRONT
62
7
6
CONTINUOUS
10
163.0271125233
20
142.3976714844
11
163.0271125233
21
142.0598342652
0
LINE
8
10000_FRONT
62
7
6
CONTINUOUS
10
163.0271125087
20
127.7436167375
11
163.0271125087
21
127.6084772722
0
LINE
8
10000_FRONT
62
7
6
CONTINUOUS
10
163.0271125474
20
122.0706398907
11
163.0271125474
21
121.6652367535
0
LINE
8
10000_FRONT
62
7
6
CONTINUOUS
10
163.0271125118
20
116.8030786803
11
163.0271125118
21
116.4652414611
0
LINE
8
10000_FRONT
62
7
6
CONTINUOUS
10
163.0271125087
20
126.3246943132
11
163.0271125087
21
126.6625315324
0
LINE
8
10000_FRONT
62
7
6
CONTINUOUS
10
163.0271125055
20
136.8598316680
11
163.0271125055
21
137.1976688873
0
LINE
8
10000_FRONT
62
7
6
CONTINUOUS
10
163.0271125055
20
138.0760487091
11
163.0271125055
21
138.2111805450
0
LINE
8
10000_FRONT
62
7
6
CONTINUOUS
10
163.0271125229
20
152.3922624389
11
163.0271125229
21
152.6625337402
0
LINE
8
10000_FRONT
62
7
6
CONTINUOUS
10
163.0271125087
20
188.7246943132
11
163.0271125087
21
189.0625315324
0
LINE
8
10000_FRONT
62
7
6
CONTINUOUS
10
163.0271125055
20
199.2598316680
11
163.0271125055
21
199.5976688873
0
LINE
8
10000_FRONT
62
7
6
CONTINUOUS
10
163.0271125055
20
200.4760487091
11
163.0271125055
21
200.6111805450
0
LINE
8
10000_FRONT
62
7
6
CONTINUOUS
10
163.0271125229
20
214.7922624389
11
163.0271125229
21
215.0625337402
0
LINE
8
10000_FRONT
62
7
6
CONTINUOUS
10
163.1622476538
20
209.8625321524
11
163.1622476538
21
209.5922684806
0
LINE
8
10000_FRONT
62
7
6
CONTINUOUS
10
163.1622476538
20
147.4625321524
11
163.1622476538
21
147.1922684806
0
LINE
8
10000_FRONT
62
7
6
CONTINUOUS
10
163.6027881959
20
238.3017242843
11
163.6027881959
21
234.3017242843
0
LINE
8
13000_TOP
62
7
6
CONTINUOUS
10
163.6027881959
20
71.8429576580
11
163.6027881959
21
63.9429576580
0
LINE
8
13000_TOP
62
7
6
CONTINUOUS
10
163.7027881959
20
41.3429576580
11
163.7027881959
21
70.3429576580
0
LINE
8
10000_FRONT
62
7
6
CONTINUOUS
10
163.7027881959
20
108.3017242843
11
163.7027881959
21
234.3017242843
0
LINE
8
10000_FRONT
62
7
6
CONTINUOUS
10
161.4730585014
20
204.7976714844
11
161.5406260883
21
206.2841598267
0
LINE
8
10000_FRONT
62
7
6
CONTINUOUS
10
161.4730585014
20
142.3976714844
11
161.5406260883
21
143.8841598267
0
LINE
8
10000_FRONT
62
7
6
CONTINUOUS
10
161.8784637844
20
206.0138885254
11
161.8108961975
21
205.2030746216
0
LINE
8
10000_FRONT
62
7
6
CONTINUOUS
10
161.8784637844
20
143.6138885254
11
161.8108961975
21
142.8030746216
0
LINE
8
13000_TOP
62
7
6
CONTINUOUS
10
147.1498144845
20
72.7816769309
11
147.2027881959
21
73.3429576580
0
LINE
8
13000_TOP
62
7
6
CONTINUOUS
10
147.1887111081
20
75.4306772960
11
147.2027881959
21
75.5433976021
0
LINE
8
10000_FRONT
62
7
6
CONTINUOUS
10
161.7433287121
20
199.9355061065
11
161.8108962990
21
200.4084827911
0
LINE
8
10000_FRONT
62
7
6
CONTINUOUS
10
161.7433287121
20
137.5355061065
11
161.8108962990
21
138.0084827911
0
LINE
8
10000_FRONT
62
7
6
CONTINUOUS
10
161.4730583645
20
200.3409168731
11
161.4054910160
21
199.9355061065
0
LINE
8
10000_FRONT
62
7
6
CONTINUOUS
10
161.4054908435
20
179.2030786803
11
161.4730584304
21
179.6084818175
0
LINE
8
10000_FRONT
62
7
6
CONTINUOUS
10
161.8108963053
20
179.6760477355
11
161.7433287184
21
179.2706445983
0
LINE
8
10000_FRONT
62
7
6
CONTINUOUS
10
163.0271125474
20
184.0652367535
11
162.9595449605
21
183.6598336163
0
LINE
8
10000_FRONT
62
7
6
CONTINUOUS
10
162.6217071152
20
178.3922647765
11
162.6892746816
21
178.7976679137
0
LINE
8
10000_FRONT
62
7
6
CONTINUOUS
10
163.0271125118
20
178.8652414611
11
162.9595449547
21
178.4598306945
0
LINE
8
10000_FRONT
62
7
6
CONTINUOUS
10
161.4730583645
20
137.9409168731
11
161.4054910160
21
137.5355061065
0
LINE
8
10000_FRONT
62
7
6
CONTINUOUS
10
161.4054908435
20
116.8030786803
11
161.4730584304
21
117.2084818175
0
LINE
8
10000_FRONT
62
7
6
CONTINUOUS
10
161.8108963053
20
117.2760477355
11
161.7433287184
21
116.8706445983
0
LINE
8
10000_FRONT
62
7
6
CONTINUOUS
10
162.6217070856
20
183.6598336163
11
162.6892746725
21
183.9976708355
0
LINE
8
10000_FRONT
62
7
6
CONTINUOUS
10
161.4730585159
20
158.8084772783
11
161.5406259836
21
159.0787485796
0
LINE
8
10000_FRONT
62
7
6
CONTINUOUS
10
155.1730581317
20
117.2084810493
11
155.2406259570
21
117.4787513969
0
LINE
8
13000_TOP
62
7
6
CONTINUOUS
10
142.8527881959
20
76.2429576580
11
143.1207373884
21
77.2429576580
0
LINE
8
10000_FRONT
62
7
6
CONTINUOUS
10
162.5541395583
20
183.4571282330
11
162.6217070856
21
183.6598336163
0
LINE
8
10000_FRONT
62
7
6
CONTINUOUS
10
162.5541395487
20
158.5382136064
11
162.6217071356
21
158.7409113603
0
LINE
8
10000_FRONT
62
7
6
CONTINUOUS
10
161.8108963312
20
153.6760453979
11
161.8784639181
21
153.8787507812
0
LINE
8
10000_FRONT
62
7
6
CONTINUOUS
10
162.8919773938
20
153.3382081787
11
162.9595449509
21
153.5409135620
0
LINE
8
10000_FRONT
62
7
6
CONTINUOUS
10
162.9595449509
20
152.1895646850
11
163.0271125229
21
152.3922624389
0
LINE
8
10000_FRONT
62
7
6
CONTINUOUS
10
163.0271125233
20
142.0598342652
11
162.9595449364
21
141.8571288819
0
LINE
8
10000_FRONT
62
7
6
CONTINUOUS
10
161.8108962990
20
138.0084827911
11
161.8784638859
21
138.2111805450
0
LINE
8
10000_FRONT
62
7
6
CONTINUOUS
10
162.9595449509
20
158.6733454424
11
162.8244098069
21
158.3355082231
0
LINE
8
10000_FRONT
62
7
6
CONTINUOUS
10
162.5541395488
20
178.2571329406
11
162.6217071152
21
178.3922647765
0
LINE
8
10000_FRONT
62
7
6
CONTINUOUS
10
162.9595449547
20
178.4598306945
11
162.7568422536
21
178.0544275573
0
LINE
8
10000_FRONT
62
7
6
CONTINUOUS
10
161.9460313858
20
159.0787485796
11
161.8784639181
21
158.9436167436
0
LINE
8
10000_FRONT
62
7
6
CONTINUOUS
10
161.6081935705
20
154.0814561645
11
161.4730585159
21
153.8111848632
0
LINE
8
10000_FRONT
62
7
6
CONTINUOUS
10
162.6217071356
20
153.4733476440
11
162.5541395487
21
153.3382081787
0
LINE
8
10000_FRONT
62
7
6
CONTINUOUS
10
161.5406259836
20
159.0787485796
11
161.6757611574
21
159.2814539629
0
LINE
8
10000_FRONT
62
7
6
CONTINUOUS
10
162.4190044345
20
158.3355082231
11
162.5541395487
21
158.5382136064
0
LINE
8
10000_FRONT
62
7
6
CONTINUOUS
10
162.8244098069
20
158.3355082231
11
162.6892746629
21
158.1328028398
0
LINE
8
10000_FRONT
62
7
6
CONTINUOUS
10
161.6757611911
20
180.0138849547
11
161.8784638922
21
180.2165903380
0
LINE
8
10000_FRONT
62
7
6
CONTINUOUS
10
162.0135990064
20
179.9463190368
11
161.8784638922
21
179.8111872008
0
LINE
8
10000_FRONT
62
7
6
CONTINUOUS
10
162.4190044085
20
178.1219934752
11
162.5541395488
21
178.2571329406
0
LINE
8
10000_FRONT
62
7
6
CONTINUOUS
10
162.7568422536
20
178.0544275573
11
162.5541395488
21
177.8517221740
0
LINE
8
10000_FRONT
62
7
6
CONTINUOUS
10
155.9487341264
20
164.6165893966
11
156.0163014749
21
164.6841553146
0
LINE
8
10000_FRONT
62
7
6
CONTINUOUS
10
155.9487341264
20
159.4165893966
11
156.0163014749
21
159.4841553146
0
LINE
8
10000_FRONT
62
7
6
CONTINUOUS
10
162.1487341447
20
164.6165874010
11
162.2163017316
21
164.6841533190
0
LINE
8
10000_FRONT
62
7
6
CONTINUOUS
10
155.9487341264
20
154.2165893966
11
156.0163014749
21
154.2841553146
0
LINE
8
10000_FRONT
62
7
6
CONTINUOUS
10
155.6784637788
20
164.4138878280
11
155.9487341264
21
164.6165893966
0
LINE
8
10000_FRONT
62
7
6
CONTINUOUS
10
156.0163014749
20
164.2787521774
11
155.7460316041
21
164.0760467941
0
LINE
8
10000_FRONT
62
7
6
CONTINUOUS
10
155.4757609675
20
179.8787477878
11
155.6784639667
21
180.0138872532
0
LINE
8
10000_FRONT
62
7
6
CONTINUOUS
10
162.6892746725
20
183.1868569317
11
162.4865720310
21
183.0517250958
0
LINE
8
10000_FRONT
62
7
6
CONTINUOUS
10
155.4757612565
20
164.2787521774
11
155.6784637788
21
164.4138878280
0
LINE
8
10000_FRONT
62
7
6
CONTINUOUS
10
162.2838692703
20
184.2003762188
11
162.4190044441
21
184.2679421368
0
LINE
8
10000_FRONT
62
7
6
CONTINUOUS
10
162.5541395583
20
184.0652367535
11
162.4190044441
21
183.9976708355
0
LINE
8
10000_FRONT
62
7
6
CONTINUOUS
10
155.7460313151
20
179.6760500339
11
155.4757609675
21
179.5409105686
0
LINE
8
10000_FRONT
62
7
6
CONTINUOUS
10
162.1487341504
20
180.0138849547
11
162.0135990064
21
179.9463190368
0
LINE
8
10000_FRONT
62
7
6
CONTINUOUS
10
162.2838692646
20
178.0544275573
11
162.4190044085
21
178.1219934752
0
LINE
8
11000_LEFT
62
7
6
CONTINUOUS
10
228.8460771923
20
210.2959277451
11
231.1170037238
21
211.3548781778
0
LINE
8
11000_LEFT
62
7
6
CONTINUOUS
10
231.2100641115
20
210.8465839898
11
231.3283128547
21
210.9017242843
0
LINE
8
10000_FRONT
62
7
6
CONTINUOUS
10
161.8108963319
20
190.6165857927
11
162.0135989734
21
190.6841593400
0
LINE
8
10000_FRONT
62
7
6
CONTINUOUS
10
162.0811665603
20
190.4138880388
11
161.8784639188
21
190.3463221208
0
LINE
8
10000_FRONT
62
7
6
CONTINUOUS
10
162.3514368483
20
189.6706400529
11
162.5541395494
21
189.7382136003
0
LINE
8
10000_FRONT
62
7
6
CONTINUOUS
10
162.7568422505
20
189.6030741350
11
162.5541395494
21
189.5355082170
0
LINE
8
10000_FRONT
62
7
6
CONTINUOUS
10
161.8784639188
20
189.2652369157
11
162.0811665603
21
189.3328028337
0
LINE
8
10000_FRONT
62
7
6
CONTINUOUS
10
162.5541395494
20
188.5219965593
11
162.3514368483
21
188.4544306413
0
LINE
8
10000_FRONT
62
7
6
CONTINUOUS
10
161.8784638681
20
185.4165856304
11
162.0811666288
21
185.4841591778
0
LINE
8
10000_FRONT
62
7
6
CONTINUOUS
10
162.4190044441
20
183.9976708355
11
162.2163016834
21
183.9301049176
0
LINE
8
10000_FRONT
62
7
6
CONTINUOUS
10
162.2163016834
20
183.2544304791
11
162.4190044441
21
183.3219963970
0
LINE
8
10000_FRONT
62
7
6
CONTINUOUS
10
162.4865720310
20
183.0517250958
11
162.2838692703
21
182.9841591778
0
LINE
8
10000_FRONT
62
7
6
CONTINUOUS
10
161.8784638922
20
180.2165903380
11
162.0811665933
21
180.2841562560
0
LINE
8
10000_FRONT
62
7
6
CONTINUOUS
10
162.5541395488
20
177.8517221740
11
162.3514368515
21
177.7841562560
0
LINE
8
11000_LEFT
62
7
6
CONTINUOUS
10
262.2460771923
20
108.6017242843
11
260.8460771923
21
108.3017242843
0
LINE
8
11000_LEFT
62
7
6
CONTINUOUS
10
259.4460771923
20
108.3017242843
11
260.8460771923
21
108.6017242843
0
LINE
8
11000_LEFT
62
7
6
CONTINUOUS
10
259.4460771923
20
108.6017242843
11
258.0460771923
21
108.3017242843
0
LINE
8
11000_LEFT
62
7
6
CONTINUOUS
10
258.0460771923
20
108.6017242843
11
256.6460771923
21
108.3017242843
0
LINE
8
11000_LEFT
62
7
6
CONTINUOUS
10
256.6460771923
20
108.6017242843
11
255.2460771923
21
108.3017242843
0
LINE
8
11000_LEFT
62
7
6
CONTINUOUS
10
255.2460771923
20
108.6017242843
11
253.8460771923
21
108.3017242843
0
LINE
8
11000_LEFT
62
7
6
CONTINUOUS
10
253.8460771923
20
108.6017242843
11
252.4460771923
21
108.3017242843
0
LINE
8
11000_LEFT
62
7
6
CONTINUOUS
10
252.4460771923
20
108.6017242843
11
251.0460771923
21
108.3017242843
0
LINE
8
11000_LEFT
62
7
6
CONTINUOUS
10
251.0460771923
20
108.6017242843
11
249.6460771923
21
108.3017242843
0
LINE
8
11000_LEFT
62
7
6
CONTINUOUS
10
249.6460771923
20
108.6017242843
11
248.2460771923
21
108.3017242843
0
LINE
8
11000_LEFT
62
7
6
CONTINUOUS
10
248.2460771923
20
108.6017242843
11
246.8460771923
21
108.3017242843
0
LINE
8
10000_FRONT
62
7
6
CONTINUOUS
10
156.0514369998
20
117.8841564415
11
156.3217073474
21
117.8165895698
0
LINE
8
10000_FRONT
62
7
6
CONTINUOUS
10
162.0811665933
20
115.3841562560
11
161.8784638922
21
115.4517221740
0
LINE
8
10000_FRONT
62
7
6
CONTINUOUS
10
162.3514368515
20
117.8841562560
11
162.5541395488
21
117.8165903380
0
LINE
8
10000_FRONT
62
7
6
CONTINUOUS
10
156.1865721736
20
117.5463192222
11
156.0514369998
21
117.6138860939
0
LINE
8
10000_FRONT
62
7
6
CONTINUOUS
10
162.0135990064
20
115.7219934752
11
162.1487341504
21
115.6544275573
0
LINE
8
10000_FRONT
62
7
6
CONTINUOUS
10
162.4190044085
20
117.5463190368
11
162.2838692646
21
117.6138849547
0
LINE
8
10000_FRONT
62
7
6
CONTINUOUS
10
161.9460314550
20
120.9219963970
11
162.0811666288
21
120.8544304791
0
LINE
8
10000_FRONT
62
7
6
CONTINUOUS
10
161.9460314550
20
121.8679421368
11
162.0811666288
21
121.8003762188
0
LINE
8
10000_FRONT
62
7
6
CONTINUOUS
10
161.6081936397
20
122.8138878765
11
161.8784638681
21
122.6787484112
0
LINE
8
10000_FRONT
62
7
6
CONTINUOUS
10
156.3217073474
20
117.8165895698
11
156.5244098697
21
117.6814539192
0
LINE
8
10000_FRONT
62
7
6
CONTINUOUS
10
161.8108962812
20
120.6517250958
11
161.6081936397
21
120.7868569317
0
LINE
8
10000_FRONT
62
7
6
CONTINUOUS
10
161.8108962812
20
121.5976708355
11
161.6081936397
21
121.7328026715
0
LINE
8
10000_FRONT
62
7
6
CONTINUOUS
10
162.5541395583
20
123.0165856304
11
162.7568422594
21
122.8814537945
0
LINE
8
10000_FRONT
62
7
6
CONTINUOUS
10
161.6081935712
20
125.9868570939
11
161.8108963319
21
125.8517252580
0
LINE
8
10000_FRONT
62
7
6
CONTINUOUS
10
162.5541395494
20
127.1355082170
11
162.3514368483
21
127.2706400529
0
LINE
8
10000_FRONT
62
7
6
CONTINUOUS
10
162.5541395488
20
117.4111872008
11
162.4190044085
21
117.5463190368
0
LINE
8
10000_FRONT
62
7
6
CONTINUOUS
10
162.5541395488
20
117.8165903380
11
162.7568422536
21
117.6138849547
0
LINE
8
10000_FRONT
62
7
6
CONTINUOUS
10
161.8784638681
20
120.9895623150
11
161.9460314550
21
120.9219963970
0
LINE
8
10000_FRONT
62
7
6
CONTINUOUS
10
161.8108962812
20
122.0030739727
11
161.9460314550
21
121.8679421368
0
LINE
8
10000_FRONT
62
7
6
CONTINUOUS
10
161.4730585166
20
126.1219965593
11
161.6081935712
21
125.9868570939
0
LINE
8
10000_FRONT
62
7
6
CONTINUOUS
10
161.8784639188
20
126.1219965593
11
161.8108963319
21
126.1895624772
0
LINE
8
10000_FRONT
62
7
6
CONTINUOUS
10
161.6757611581
20
127.2030741350
11
161.4730585166
21
127.4057795183
0
LINE
8
10000_FRONT
62
7
6
CONTINUOUS
10
161.8784639188
20
127.1355082170
11
162.0811665603
21
126.9328028337
0
LINE
8
10000_FRONT
62
7
6
CONTINUOUS
10
161.8108963319
20
127.4057795183
11
161.8784639188
21
127.3382136003
0
LINE
8
10000_FRONT
62
7
6
CONTINUOUS
10
162.5541395494
20
126.8652369157
11
162.6217071363
21
126.7976709977
0
LINE
8
10000_FRONT
62
7
6
CONTINUOUS
10
162.9595449516
20
126.8652369157
11
162.8244098076
21
127.0003763810
0
LINE
8
10000_FRONT
62
7
6
CONTINUOUS
10
162.6217071363
20
127.8787485734
11
162.5541395494
21
127.9463221208
0
LINE
8
10000_FRONT
62
7
6
CONTINUOUS
10
162.7568422505
20
128.1490198747
11
162.9595449516
21
127.9463221208
0
LINE
8
10000_FRONT
62
7
6
CONTINUOUS
10
161.6081936397
20
121.7328026715
11
161.4730584659
21
121.9355080548
0
LINE
8
10000_FRONT
62
7
6
CONTINUOUS
10
162.7568422594
20
122.8814537945
11
162.8919773736
21
122.6787484112
0
LINE
8
10000_FRONT
62
7
6
CONTINUOUS
10
161.5406259514
20
136.5895603668
11
161.6757611252
21
136.3868626129
0
LINE
8
10000_FRONT
62
7
6
CONTINUOUS
10
162.9595449186
20
137.4003742706
11
162.8244098640
21
137.6030720245
0
LINE
8
10000_FRONT
62
7
6
CONTINUOUS
10
162.8244097626
20
142.8030746216
11
162.9595449364
21
142.6003692383
0
LINE
8
10000_FRONT
62
7
6
CONTINUOUS
10
162.6217071152
20
117.2760477355
11
162.5541395488
21
117.4111872008
0
LINE
8
10000_FRONT
62
7
6
CONTINUOUS
10
162.7568422536
20
117.6138849547
11
162.9595449547
21
117.2084818175
0
LINE
8
10000_FRONT
62
7
6
CONTINUOUS
10
161.6081936397
20
120.7868569317
11
161.4730584659
21
121.0571282330
0
LINE
8
10000_FRONT
62
7
6
CONTINUOUS
10
161.8108962812
20
121.1246941509
11
161.8784638681
21
120.9895623150
0
LINE
8
10000_FRONT
62
7
6
CONTINUOUS
10
162.6217070856
20
122.4760506573
11
162.4865720310
21
122.7463219586
0
LINE
8
10000_FRONT
62
7
6
CONTINUOUS
10
161.8108963319
20
126.1895624772
11
161.7433287450
21
126.3246943132
0
LINE
8
10000_FRONT
62
7
6
CONTINUOUS
10
161.7433287450
20
127.5409113542
11
161.8108963319
21
127.4057795183
0
LINE
8
10000_FRONT
62
7
6
CONTINUOUS
10
162.6217071363
20
126.7976709977
11
162.6892746636
21
126.6625315324
0
LINE
8
10000_FRONT
62
7
6
CONTINUOUS
10
162.6892746636
20
127.7436167375
11
162.6217071363
21
127.8787485734
0
LINE
8
10000_FRONT
62
7
6
CONTINUOUS
10
161.9460314728
20
136.5895603668
11
161.8108962990
21
136.8598316680
0
LINE
8
10000_FRONT
62
7
6
CONTINUOUS
10
162.6217071033
20
138.2787540924
11
162.6892746902
21
138.1436146270
0
LINE
8
10000_FRONT
62
7
6
CONTINUOUS
10
163.0271125055
20
138.2111805450
11
162.8919773317
21
138.4814518463
0
LINE
8
10000_FRONT
62
7
6
CONTINUOUS
10
161.6081936752
20
141.5868575806
11
161.4730585014
21
141.8571288819
0
LINE
8
10000_FRONT
62
7
6
CONTINUOUS
10
161.8108961975
20
141.9246947999
11
161.8784637844
21
141.7895629639
0
LINE
8
10000_FRONT
62
7
6
CONTINUOUS
10
161.4730584659
20
121.9355080548
11
161.4054908790
21
122.1382134381
0
LINE
8
10000_FRONT
62
7
6
CONTINUOUS
10
161.7433286943
20
122.2057793560
11
161.8108962812
21
122.0030739727
0
LINE
8
10000_FRONT
62
7
6
CONTINUOUS
10
161.4054909297
20
126.3246943132
11
161.4730585166
21
126.1219965593
0
LINE
8
10000_FRONT
62
7
6
CONTINUOUS
10
162.8919773736
20
122.6787484112
11
162.9595449605
21
122.4760506573
0
LINE
8
10000_FRONT
62
7
6
CONTINUOUS
10
161.4730585166
20
127.4057795183
11
161.4054909297
21
127.6084772722
0
LINE
8
10000_FRONT
62
7
6
CONTINUOUS
10
163.0271125087
20
126.6625315324
11
162.9595449516
21
126.8652369157
0
LINE
8
10000_FRONT
62
7
6
CONTINUOUS
10
162.9595449516
20
127.9463221208
11
163.0271125087
21
127.7436167375
0
LINE
8
10000_FRONT
62
7
6
CONTINUOUS
10
161.4730583645
20
136.7922657501
11
161.5406259514
21
136.5895603668
0
LINE
8
10000_FRONT
62
7
6
CONTINUOUS
10
162.6217071033
20
137.3328083526
11
162.6892746902
21
137.1301029693
0
LINE
8
10000_FRONT
62
7
6
CONTINUOUS
10
163.0271125055
20
137.1976688873
11
162.9595449186
21
137.4003742706
0
LINE
8
10000_FRONT
62
7
6
CONTINUOUS
10
162.6892747080
20
142.3301055665
11
162.6217071211
21
142.5328033204
0
LINE
8
10000_FRONT
62
7
6
CONTINUOUS
10
162.9595449364
20
142.6003692383
11
163.0271125233
21
142.3976714844
0
LINE
8
10000_FRONT
62
7
6
CONTINUOUS
10
161.4054909290
20
152.3246965210
11
161.4730585159
21
152.1219911377
0
LINE
8
10000_FRONT
62
7
6
CONTINUOUS
10
162.6217070856
20
122.1382134381
11
162.6892746725
21
121.8679421368
0
LINE
8
10000_FRONT
62
7
6
CONTINUOUS
10
161.7433287121
20
137.5355061065
11
161.8108962990
21
137.1976688873
0
LINE
8
10000_FRONT
62
7
6
CONTINUOUS
10
161.4730584304
20
116.0598306945
11
161.4054908435
21
116.4652414611
0
LINE
8
10000_FRONT
62
7
6
CONTINUOUS
10
161.7433287184
20
116.3976679137
11
161.8108963053
21
115.9922647765
0
LINE
8
10000_FRONT
62
7
6
CONTINUOUS
10
162.6892746816
20
116.8706445983
11
162.6217071152
21
117.2760477355
0
LINE
8
10000_FRONT
62
7
6
CONTINUOUS
10
162.9595449547
20
117.2084818175
11
163.0271125118
21
116.8030786803
0
LINE
8
10000_FRONT
62
7
6
CONTINUOUS
10
162.9595449605
20
122.4760506573
11
163.0271125474
21
122.0706398907
0
LINE
8
10000_FRONT
62
7
6
CONTINUOUS
10
161.4054910160
20
137.1976688873
11
161.4730583645
21
136.7922657501
0
LINE
8
10000_FRONT
62
7
6
CONTINUOUS
10
161.4730584304
20
178.4598306945
11
161.4054908435
21
178.8652414611
0
LINE
8
10000_FRONT
62
7
6
CONTINUOUS
10
161.7433287184
20
178.7976679137
11
161.8108963053
21
178.3922647765
0
LINE
8
10000_FRONT
62
7
6
CONTINUOUS
10
163.0271125474
20
121.6652367535
11
162.9595449605
21
121.2598336163
0
LINE
8
10000_FRONT
62
7
6
CONTINUOUS
10
162.6217071152
20
115.9922647765
11
162.6892746816
21
116.3976679137
0
LINE
8
10000_FRONT
62
7
6
CONTINUOUS
10
163.0271125118
20
116.4652414611
11
162.9595449547
21
116.0598306945
0
LINE
8
10000_FRONT
62
7
6
CONTINUOUS
10
162.6217070856
20
121.2598336163
11
162.6892746725
21
121.5976708355
0
LINE
8
13000_TOP
62
7
6
CONTINUOUS
10
147.0207493254
20
72.3429576580
11
147.1498144845
21
72.7816769309
0
LINE
8
10000_FRONT
62
7
6
CONTINUOUS
10
156.2541395221
20
116.9382107017
11
156.3217073474
21
117.1409132240
0
LINE
8
10000_FRONT
62
7
6
CONTINUOUS
10
162.9595449186
20
136.6571262847
11
163.0271125055
21
136.8598316680
0
LINE
8
10000_FRONT
62
7
6
CONTINUOUS
10
161.4054909297
20
127.7436167375
11
161.4730585166
21
127.9463221208
0
LINE
8
10000_FRONT
62
7
6
CONTINUOUS
10
161.4730585166
20
126.8652369157
11
161.4054909297
21
126.6625315324
0
LINE
8
10000_FRONT
62
7
6
CONTINUOUS
10
163.0271125087
20
127.6084772722
11
162.9595449516
21
127.4057795183
0
LINE
8
10000_FRONT
62
7
6
CONTINUOUS
10
161.4054908790
20
122.4084847393
11
161.4730584659
21
122.6111824932
0
LINE
8
10000_FRONT
62
7
6
CONTINUOUS
10
162.9595449516
20
126.1219965593
11
163.0271125087
21
126.3246943132
0
LINE
8
10000_FRONT
62
7
6
CONTINUOUS
10
162.5541395583
20
121.0571282330
11
162.6217070856
21
121.2598336163
0
LINE
8
13000_TOP
62
7
6
CONTINUOUS
10
147.1495718447
20
75.3174733559
11
147.1887111081
21
75.4306772960
0
LINE
8
10000_FRONT
62
7
6
CONTINUOUS
10
161.6081935383
20
138.2787540924
11
161.4730583645
21
137.9409168731
0
LINE
8
10000_FRONT
62
7
6
CONTINUOUS
10
156.6595450435
20
117.0733463524
11
156.5244098697
21
116.7355081795
0
LINE
8
10000_FRONT
62
7
6
CONTINUOUS
10
162.9595449605
20
121.2598336163
11
162.8244098463
21
120.9219963970
0
LINE
8
10000_FRONT
62
7
6
CONTINUOUS
10
161.7433287628
20
131.0517229853
11
162.6217071540
21
133.1463198481
0
LINE
8
10000_FRONT
62
7
6
CONTINUOUS
10
162.9595449693
20
133.1463198481
11
162.0811665781
21
131.0517229853
0
LINE
8
10000_FRONT
62
7
6
CONTINUOUS
10
161.8784637844
20
142.5328033204
11
161.8108961975
21
142.3976714844
0
LINE
8
10000_FRONT
62
7
6
CONTINUOUS
10
162.5541395342
20
141.7895629639
11
162.6892747080
21
142.0598342652
0
LINE
8
10000_FRONT
62
7
6
CONTINUOUS
10
161.8108962990
20
137.1976688873
11
161.8784638859
21
137.3328083526
0
LINE
8
10000_FRONT
62
7
6
CONTINUOUS
10
162.6892746902
20
136.8598316680
11
162.5541395164
21
136.5895603668
0
LINE
8
10000_FRONT
62
7
6
CONTINUOUS
10
155.6460310016
20
117.4787513969
11
155.5784641299
21
117.3436157463
0
LINE
8
10000_FRONT
62
7
6
CONTINUOUS
10
161.8108963319
20
127.8787485734
11
161.7433287450
21
127.7436167375
0
LINE
8
10000_FRONT
62
7
6
CONTINUOUS
10
161.7433287450
20
126.6625315324
11
161.8108963319
21
126.7976709977
0
LINE
8
10000_FRONT
62
7
6
CONTINUOUS
10
162.6217071363
20
127.4057795183
11
162.6892746636
21
127.5409113542
0
LINE
8
10000_FRONT
62
7
6
CONTINUOUS
10
162.6892746636
20
126.3246943132
11
162.6217071363
21
126.1895624772
0
LINE
8
10000_FRONT
62
7
6
CONTINUOUS
10
161.8784638681
20
122.6787484112
11
161.7433286943
21
122.4084847393
0
LINE
8
10000_FRONT
62
7
6
CONTINUOUS
10
162.5541395583
20
122.0030739727
11
162.6217070856
21
122.1382134381
0
LINE
8
10000_FRONT
62
7
6
CONTINUOUS
10
161.4730584304
20
117.2084818175
11
161.6757611911
21
117.6138849547
0
LINE
8
10000_FRONT
62
7
6
CONTINUOUS
10
161.8784638922
20
117.4111872008
11
161.8108963053
21
117.2760477355
0
LINE
8
10000_FRONT
62
7
6
CONTINUOUS
10
162.5541395488
20
115.8571329406
11
162.6217071152
21
115.9922647765
0
LINE
8
10000_FRONT
62
7
6
CONTINUOUS
10
162.9595449547
20
116.0598306945
11
162.7568422536
21
115.6544275573
0
LINE
8
10000_FRONT
62
7
6
CONTINUOUS
10
162.6892746629
20
152.3922624389
11
162.5541395487
21
152.1895646850
0
LINE
8
10000_FRONT
62
7
6
CONTINUOUS
10
162.9595449364
20
141.8571288819
11
162.8244097626
21
141.6544234986
0
LINE
8
10000_FRONT
62
7
6
CONTINUOUS
10
161.7433287121
20
138.4814518463
11
161.6081935383
21
138.2787540924
0
LINE
8
10000_FRONT
62
7
6
CONTINUOUS
10
162.8244098640
20
136.4544285308
11
162.9595449186
21
136.6571262847
0
LINE
8
10000_FRONT
62
7
6
CONTINUOUS
10
155.2406259570
20
117.4787513969
11
155.3757616077
21
117.6814539192
0
LINE
8
10000_FRONT
62
7
6
CONTINUOUS
10
162.4865719636
20
148.7463151114
11
161.6081935723
21
147.4625321524
0
LINE
8
10000_FRONT
62
7
6
CONTINUOUS
10
161.3379233439
20
147.5301056998
11
162.4190044363
21
149.0841599600
0
LINE
8
10000_FRONT
62
7
6
CONTINUOUS
10
162.0135989727
20
159.1463221269
11
161.9460313858
21
159.0787485796
0
LINE
8
10000_FRONT
62
7
6
CONTINUOUS
10
161.4730585159
20
157.3895624834
11
162.4190044345
21
158.3355082231
0
LINE
8
10000_FRONT
62
7
6
CONTINUOUS
10
162.6892746629
20
158.1328028398
11
161.8784639181
21
157.3219965654
0
LINE
8
10000_FRONT
62
7
6
CONTINUOUS
10
155.9487341264
20
149.0165893966
11
156.0163014749
21
149.0841553146
0
LINE
8
10000_FRONT
62
7
6
CONTINUOUS
10
161.8784639181
20
153.8787507812
11
161.9460313858
21
153.9463166992
0
LINE
8
10000_FRONT
62
7
6
CONTINUOUS
10
162.6892746629
20
153.1355104248
11
162.8919773938
21
153.3382081787
0
LINE
8
10000_FRONT
62
7
6
CONTINUOUS
10
162.6892746629
20
151.9192933838
11
162.9595449509
21
152.1895646850
0
LINE
8
11000_LEFT
62
7
6
CONTINUOUS
10
245.2460771923
20
234.3017242843
11
244.7460771923
21
233.8017242843
0
LINE
8
10000_FRONT
62
7
6
CONTINUOUS
10
155.9487341264
20
143.8165893966
11
156.0163014749
21
143.8841553146
0
LINE
8
10000_FRONT
62
7
6
CONTINUOUS
10
155.9487341264
20
138.6165893966
11
156.0163014749
21
138.6841553146
0
LINE
8
10000_FRONT
62
7
6
CONTINUOUS
10
161.8108961975
20
142.8030746216
11
161.8784637844
21
142.8706405396
0
LINE
8
10000_FRONT
62
7
6
CONTINUOUS
10
162.0135989582
20
142.6679427857
11
161.8784637844
21
142.5328033204
0
LINE
8
10000_FRONT
62
7
6
CONTINUOUS
10
155.9487341264
20
133.4165893966
11
156.0163014749
21
133.4841553146
0
LINE
8
10000_FRONT
62
7
6
CONTINUOUS
10
161.8784639163
20
164.4138896471
11
162.1487341447
21
164.6165874010
0
LINE
8
10000_FRONT
62
7
6
CONTINUOUS
10
162.2163017316
20
164.2787501818
11
161.9460313840
21
164.0760447985
0
LINE
8
10000_FRONT
62
7
6
CONTINUOUS
10
155.6784637788
20
159.2138878280
11
155.9487341264
21
159.4165893966
0
LINE
8
10000_FRONT
62
7
6
CONTINUOUS
10
156.0163014749
20
159.0787521774
11
155.7460316041
21
158.8760467941
0
LINE
8
10000_FRONT
62
7
6
CONTINUOUS
10
155.6784637788
20
154.0138878280
11
155.9487341264
21
154.2165893966
0
LINE
8
10000_FRONT
62
7
6
CONTINUOUS
10
156.0163014749
20
153.8787521774
11
155.7460316041
21
153.6760467941
0
LINE
8
10000_FRONT
62
7
6
CONTINUOUS
10
155.6784637788
20
148.8138878280
11
155.9487341264
21
149.0165893966
0
LINE
8
10000_FRONT
62
7
6
CONTINUOUS
10
156.0163014749
20
148.6787521774
11
155.7460316041
21
148.4760467941
0
LINE
8
10000_FRONT
62
7
6
CONTINUOUS
10
155.6784637788
20
143.6138878280
11
155.9487341264
21
143.8165893966
0
LINE
8
10000_FRONT
62
7
6
CONTINUOUS
10
156.0163014749
20
143.4787521774
11
155.7460316041
21
143.2760467941
0
LINE
8
10000_FRONT
62
7
6
CONTINUOUS
10
161.6757611556
20
164.2787501818
11
161.8784639163
21
164.4138896471
0
LINE
8
10000_FRONT
62
7
6
CONTINUOUS
10
155.4757612565
20
159.0787521774
11
155.6784637788
21
159.2138878280
0
LINE
8
10000_FRONT
62
7
6
CONTINUOUS
10
161.6757611574
20
159.2814539629
11
161.8784639181
21
159.4165857988
0
LINE
8
10000_FRONT
62
7
6
CONTINUOUS
10
155.4757612565
20
153.8787521774
11
155.6784637788
21
154.0138878280
0
LINE
8
10000_FRONT
62
7
6
CONTINUOUS
10
161.8108963312
20
154.2165880005
11
161.6081935705
21
154.0814561645
0
LINE
8
10000_FRONT
62
7
6
CONTINUOUS
10
155.4757612565
20
148.6787521774
11
155.6784637788
21
148.8138878280
0
LINE
8
10000_FRONT
62
7
6
CONTINUOUS
10
162.5541395487
20
152.1895646850
11
162.3514368476
21
152.0544252197
0
LINE
8
10000_FRONT
62
7
6
CONTINUOUS
10
155.7460316041
20
164.0760467941
11
155.4757612565
21
163.9409149581
0
LINE
8
10000_FRONT
62
7
6
CONTINUOUS
10
161.9460313840
20
164.0760447985
11
161.6757611556
21
163.9409129625
0
LINE
8
10000_FRONT
62
7
6
CONTINUOUS
10
155.7460316041
20
158.8760467941
11
155.4757612565
21
158.7409149581
0
LINE
8
10000_FRONT
62
7
6
CONTINUOUS
10
162.1487341465
20
159.2138880449
11
162.0135989727
21
159.1463221269
0
LINE
8
10000_FRONT
62
7
6
CONTINUOUS
10
155.7460316041
20
153.6760467941
11
155.4757612565
21
153.5409149581
0
LINE
8
10000_FRONT
62
7
6
CONTINUOUS
10
140.6027881959
20
108.3017242843
11
153.1759932767
21
108.3017242843
0
LINE
8
10000_FRONT
62
7
6
CONTINUOUS
10
153.2027881959
20
108.3017242843
11
163.7027881959
21
108.3017242843
0
LINE
8
11000_LEFT
62
7
6
CONTINUOUS
10
235.7460771923
20
108.3017242843
11
243.2460771923
21
108.3017242843
0
LINE
8
11000_LEFT
62
7
6
CONTINUOUS
10
245.2460771923
20
108.3017242843
11
246.8460771923
21
108.3017242843
0
LINE
8
11000_LEFT
62
7
6
CONTINUOUS
10
262.2460771923
20
108.3017242843
11
262.7460771923
21
108.3017242843
0
LINE
8
10000_FRONT
62
7
6
CONTINUOUS
10
153.2027881959
20
110.2017242843
11
153.5779170653
21
110.2017242843
0
LINE
8
11000_LEFT
62
7
6
CONTINUOUS
10
259.3460771923
20
110.2017242843
11
260.8460771923
21
110.2017242843
0
LINE
8
11000_LEFT
62
7
6
CONTINUOUS
10
235.7460771923
20
110.3017242843
11
242.8460771923
21
110.3017242843
0
LINE
8
11000_LEFT
62
7
6
CONTINUOUS
10
233.7460771923
20
112.8017242843
11
235.7460771923
21
112.8017242843
0
LINE
8
10000_FRONT
62
7
6
CONTINUOUS
10
140.6027881959
20
113.2017242843
11
153.0420186805
21
113.2017242843
0
LINE
8
10000_FRONT
62
7
6
CONTINUOUS
10
153.5779170653
20
113.2017242843
11
163.7027881959
21
113.2017242843
0
LINE
8
11000_LEFT
62
7
6
CONTINUOUS
10
243.2460771923
20
113.2017242843
11
244.7460771923
21
113.2017242843
0
LINE
8
11000_LEFT
62
7
6
CONTINUOUS
10
259.3460771923
20
113.2017242843
11
264.7460771923
21
113.2017242843
0
LINE
8
10000_FRONT
62
7
6
CONTINUOUS
10
153.2295831152
20
113.6017242843
11
163.7027881959
21
113.6017242843
0
LINE
8
11000_LEFT
62
7
6
CONTINUOUS
10
259.3460771923
20
113.6017242843
11
264.7460771923
21
113.6017242843
0
LINE
8
10000_FRONT
62
7
6
CONTINUOUS
10
153.2027881959
20
114.1517242843
11
152.7027881959
21
114.1517242843
0
LINE
8
11000_LEFT
62
7
6
CONTINUOUS
10
247.7960771923
20
114.1517242843
11
253.3960771923
21
114.1517242843
0
LINE
8
11000_LEFT
62
7
6
CONTINUOUS
10
248.2960771923
20
114.6517242843
11
252.8960771923
21
114.6517242843
0
LINE
8
11000_LEFT
62
7
6
CONTINUOUS
10
242.6460771923
20
114.9017242843
11
235.7460771923
21
114.9017242843
0
LINE
8
10000_FRONT
62
7
6
CONTINUOUS
10
162.3514368515
20
115.3841562560
11
162.0811665933
21
115.3841562560
0
LINE
8
10000_FRONT
62
7
6
CONTINUOUS
10
156.7271123920
20
115.4517242668
11
155.1730581317
21
115.4517242668
0
LINE
8
11000_LEFT
62
7
6
CONTINUOUS
10
249.0960771923
20
115.4517242843
11
252.0960771923
21
115.4517242843
0
LINE
8
10000_FRONT
62
7
6
CONTINUOUS
10
162.1487341504
20
115.6544275573
11
162.2838692646
21
115.6544275573
0
LINE
8
10000_FRONT
62
7
6
CONTINUOUS
10
155.5784641299
20
115.7219946144
11
156.7271123920
21
115.7219946144
0
LINE
8
10000_FRONT
62
7
6
CONTINUOUS
10
155.5784641299
20
117.2084810493
11
155.1730581317
21
117.2084810493
0
LINE
8
10000_FRONT
62
7
6
CONTINUOUS
10
162.2838692646
20
117.6138849547
11
162.1487341504
21
117.6138849547
0
LINE
8
10000_FRONT
62
7
6
CONTINUOUS
10
156.0514369998
20
117.6138860939
11
155.8487344775
21
117.6138860939
0
LINE
8
10000_FRONT
62
7
6
CONTINUOUS
10
155.8487344775
20
117.8841564415
11
156.0514369998
21
117.8841564415
0
LINE
8
10000_FRONT
62
7
6
CONTINUOUS
10
162.0811665933
20
117.8841562560
11
162.3514368515
21
117.8841562560
0
LINE
8
11000_LEFT
62
7
6
CONTINUOUS
10
252.0960771923
20
117.9517242843
11
249.0960771923
21
117.9517242843
0
LINE
8
11000_LEFT
62
7
6
CONTINUOUS
10
252.8960771923
20
118.7517242843
11
248.2960771923
21
118.7517242843
0
LINE
8
11000_LEFT
62
7
6
CONTINUOUS
10
248.2960771923
20
119.8517242843
11
252.8960771923
21
119.8517242843
0
LINE
8
10000_FRONT
62
7
6
CONTINUOUS
10
162.2838692703
20
120.5841591778
11
162.0811666288
21
120.5841591778
0
LINE
8
10000_FRONT
62
7
6
CONTINUOUS
10
156.3541396478
20
120.6517250473
11
156.0163014749
21
120.6517250473
0
LINE
8
11000_LEFT
62
7
6
CONTINUOUS
10
249.0960771923
20
120.6517242843
11
252.0960771923
21
120.6517242843
0
LINE
8
10000_FRONT
62
7
6
CONTINUOUS
10
162.0811666288
20
120.8544304791
11
162.2163016834
21
120.8544304791
0
LINE
8
11000_LEFT
62
7
6
CONTINUOUS
10
256.4460771923
20
120.9017242843
11
258.0460771923
21
120.9017242843
0
LINE
8
10000_FRONT
62
7
6
CONTINUOUS
10
163.0271125118
20
116.8030786803
11
162.6892746816
21
116.8706445983
0
LINE
8
10000_FRONT
62
7
6
CONTINUOUS
10
162.0811666288
20
120.5841591778
11
161.8108962812
21
120.6517250958
0
LINE
8
10000_FRONT
62
7
6
CONTINUOUS
10
161.8108963319
20
125.8517252580
11
162.0811665603
21
125.7841593400
0
LINE
8
10000_FRONT
62
7
6
CONTINUOUS
10
162.0135990419
20
121.5301049176
11
161.8108962812
21
121.5976708355
0
LINE
8
10000_FRONT
62
7
6
CONTINUOUS
10
162.4865720310
20
122.7463219586
11
162.2838692703
21
122.8138878765
0
LINE
8
10000_FRONT
62
7
6
CONTINUOUS
10
162.3514368572
20
123.0841591778
11
162.5541395583
21
123.0165856304
0
LINE
8
10000_FRONT
62
7
6
CONTINUOUS
10
162.0811665603
20
126.0544306413
11
161.8784639188
21
126.1219965593
0
LINE
8
10000_FRONT
62
7
6
CONTINUOUS
10
162.3514368483
20
126.9328028337
11
162.5541395494
21
126.8652369157
0
LINE
8
10000_FRONT
62
7
6
CONTINUOUS
10
161.8784639188
20
127.1355082170
11
161.6757611581
21
127.2030741350
0
LINE
8
10000_FRONT
62
7
6
CONTINUOUS
10
161.8784639188
20
127.3382136003
11
162.0811665603
21
127.2706400529
0
LINE
8
10000_FRONT
62
7
6
CONTINUOUS
10
162.5541395494
20
127.9463221208
11
162.3514368483
21
128.0138880388
0
LINE
8
10000_FRONT
62
7
6
CONTINUOUS
10
162.4190044352
20
128.2841593400
11
162.6217071363
21
128.2165857927
0
LINE
8
10000_FRONT
62
7
6
CONTINUOUS
10
162.8244098076
20
127.0003763810
11
162.5541395494
21
127.1355082170
0
LINE
8
10000_FRONT
62
7
6
CONTINUOUS
10
162.6217071363
20
128.2165857927
11
162.7568422505
21
128.1490198747
0
LINE
8
10000_FRONT
62
7
6
CONTINUOUS
10
162.3514368749
20
137.5355061065
11
162.4865719295
21
137.4679401886
0
LINE
8
10000_FRONT
62
7
6
CONTINUOUS
10
162.4190044618
20
138.4138859283
11
162.5541395164
21
138.3463200103
0
LINE
8
10000_FRONT
62
7
6
CONTINUOUS
10
161.6757611252
20
136.3868626129
11
161.8784638859
21
136.2517231475
0
LINE
8
10000_FRONT
62
7
6
CONTINUOUS
10
162.1487341142
20
136.4544285308
11
161.9460314728
21
136.5895603668
0
LINE
8
10000_FRONT
62
7
6
CONTINUOUS
10
162.8244098640
20
137.6030720245
11
162.6217071033
21
137.7382114898
0
LINE
8
10000_FRONT
62
7
6
CONTINUOUS
10
162.8919773317
20
138.4814518463
11
162.6892746902
21
138.6165913116
0
LINE
8
10000_FRONT
62
7
6
CONTINUOUS
10
161.8108961975
20
141.4517257447
11
161.6081936752
21
141.5868575806
0
LINE
8
10000_FRONT
62
7
6
CONTINUOUS
10
161.8784637844
20
141.7895629639
11
162.0811665451
21
141.6544234986
0
LINE
8
10000_FRONT
62
7
6
CONTINUOUS
10
162.6217071211
20
142.9382140870
11
162.8244097626
21
142.8030746216
0
LINE
8
10000_FRONT
62
7
6
CONTINUOUS
10
162.4865719295
20
137.4679401886
11
162.6217071033
21
137.3328083526
0
LINE
8
10000_FRONT
62
7
6
CONTINUOUS
10
162.5541395164
20
138.3463200103
11
162.6217071033
21
138.2787540924
0
LINE
8
10000_FRONT
62
7
6
CONTINUOUS
10
162.6217071211
20
142.5328033204
11
162.4865719473
21
142.6679427857
0
LINE
8
10000_FRONT
62
7
6
CONTINUOUS
10
161.4730585159
20
152.1219911377
11
161.6081935705
21
151.9868593017
0
LINE
8
10000_FRONT
62
7
6
CONTINUOUS
10
162.4865719618
20
152.8652391235
11
162.6217071356
21
152.7300996582
0
LINE
8
10000_FRONT
62
7
6
CONTINUOUS
10
161.8784639181
20
152.1219911377
11
161.7433287443
21
152.3246965210
0
LINE
8
10000_FRONT
62
7
6
CONTINUOUS
10
162.4865719618
20
153.9463166992
11
162.6217071356
21
153.7436189453
0
LINE
8
10000_FRONT
62
7
6
CONTINUOUS
10
162.6217071356
20
158.9436167436
11
162.4865719618
21
159.1463221269
0
LINE
8
10000_FRONT
62
7
6
CONTINUOUS
10
162.6217071356
20
152.7300996582
11
162.6892746629
21
152.5949678222
0
LINE
8
10000_FRONT
62
7
6
CONTINUOUS
10
163.0271125229
20
152.6625337402
11
162.8919773938
21
152.9328050415
0
LINE
8
10000_FRONT
62
7
6
CONTINUOUS
10
162.9595449509
20
153.8111848632
11
162.8244098069
21
154.0814561645
0
LINE
8
10000_FRONT
62
7
6
CONTINUOUS
10
162.8244098069
20
159.2814539629
11
162.9595449509
21
159.0111826616
0
LINE
8
10000_FRONT
62
7
6
CONTINUOUS
10
161.6757611911
20
178.0544275573
11
161.4730584304
21
178.4598306945
0
LINE
8
10000_FRONT
62
7
6
CONTINUOUS
10
161.8108963053
20
178.3922647765
11
161.8784638922
21
178.2571329406
0
LINE
8
10000_FRONT
62
7
6
CONTINUOUS
10
162.6217071152
20
179.6760477355
11
162.5541395488
21
179.8111872008
0
LINE
8
10000_FRONT
62
7
6
CONTINUOUS
10
162.7568422536
20
180.0138849547
11
162.9595449547
21
179.6084818175
0
LINE
8
10000_FRONT
62
7
6
CONTINUOUS
10
161.6081936397
20
183.1868569317
11
161.4730584659
21
183.4571282330
0
LINE
8
10000_FRONT
62
7
6
CONTINUOUS
10
161.8108962812
20
183.5246941509
11
161.8784638681
21
183.3895623150
0
LINE
8
10000_FRONT
62
7
6
CONTINUOUS
10
161.4730584659
20
184.3355080548
11
161.4054908790
21
184.5382134381
0
LINE
8
10000_FRONT
62
7
6
CONTINUOUS
10
161.7433286943
20
184.6057793560
11
161.8108962812
21
184.4030739727
0
LINE
8
10000_FRONT
62
7
6
CONTINUOUS
10
161.4054909297
20
188.7246943132
11
161.4730585166
21
188.5219965593
0
LINE
8
10000_FRONT
62
7
6
CONTINUOUS
10
162.8919773736
20
185.0787484112
11
162.9595449605
21
184.8760506573
0
LINE
8
10000_FRONT
62
7
6
CONTINUOUS
10
161.4730585166
20
189.8057795183
11
161.4054909297
21
190.0084772722
0
LINE
8
10000_FRONT
62
7
6
CONTINUOUS
10
163.0271125087
20
189.0625315324
11
162.9595449516
21
189.2652369157
0
LINE
8
10000_FRONT
62
7
6
CONTINUOUS
10
162.9595449516
20
190.3463221208
11
163.0271125087
21
190.1436167375
0
LINE
8
10000_FRONT
62
7
6
CONTINUOUS
10
161.4730583645
20
199.1922657501
11
161.5406259514
21
198.9895603668
0
LINE
8
10000_FRONT
62
7
6
CONTINUOUS
10
162.6217071033
20
199.7328083526
11
162.6892746902
21
199.5301029693
0
LINE
8
10000_FRONT
62
7
6
CONTINUOUS
10
163.0271125055
20
199.5976688873
11
162.9595449186
21
199.8003742706
0
LINE
8
10000_FRONT
62
7
6
CONTINUOUS
10
162.6217070856
20
184.5382134381
11
162.6892746725
21
184.2679421368
0
LINE
8
10000_FRONT
62
7
6
CONTINUOUS
10
161.7433287121
20
199.9355061065
11
161.8108962990
21
199.5976688873
0
LINE
8
10000_FRONT
62
7
6
CONTINUOUS
10
162.6892746816
20
179.2706445983
11
162.6217071152
21
179.6760477355
0
LINE
8
10000_FRONT
62
7
6
CONTINUOUS
10
162.9595449547
20
179.6084818175
11
163.0271125118
21
179.2030786803
0
LINE
8
10000_FRONT
62
7
6
CONTINUOUS
10
162.9595449605
20
184.8760506573
11
163.0271125474
21
184.4706398907
0
LINE
8
10000_FRONT
62
7
6
CONTINUOUS
10
161.4054910160
20
199.5976688873
11
161.4730583645
21
199.1922657501
0
LINE
8
13000_TOP
62
7
6
CONTINUOUS
10
147.0929651183
20
75.2136099193
11
147.1495718447
21
75.3174733559
0
LINE
8
13000_TOP
62
7
6
CONTINUOUS
10
141.4777187819
20
72.3429576580
11
140.6027881959
21
70.8270717117
0
LINE
8
13000_TOP
62
7
6
CONTINUOUS
10
141.4688135997
20
72.3429576580
11
140.6027881959
21
70.8429576580
0
LINE
8
10000_FRONT
62
7
6
CONTINUOUS
10
156.1190043483
20
116.7355081795
11
156.2541395221
21
116.9382107017
0
LINE
8
10000_FRONT
62
7
6
CONTINUOUS
10
156.5244098697
20
116.7355081795
11
156.3892746959
21
116.5328056572
0
LINE
8
10000_FRONT
62
7
6
CONTINUOUS
10
161.4730584659
20
122.6111824932
11
161.6081936397
21
122.8138878765
0
LINE
8
10000_FRONT
62
7
6
CONTINUOUS
10
162.6892746725
20
121.8679421368
11
162.5541395583
21
121.6652367535
0
LINE
8
10000_FRONT
62
7
6
CONTINUOUS
10
161.8784638859
20
138.2111805450
11
162.0135990597
21
138.3463200103
0
LINE
8
10000_FRONT
62
7
6
CONTINUOUS
10
161.8784638859
20
137.6706455719
11
161.7433287121
21
137.5355061065
0
LINE
8
10000_FRONT
62
7
6
CONTINUOUS
10
161.8784638859
20
137.3328083526
11
162.0135990597
21
137.4679401886
0
LINE
8
10000_FRONT
62
7
6
CONTINUOUS
10
155.9487341264
20
128.2165893966
11
156.0163014749
21
128.2841553146
0
LINE
8
10000_FRONT
62
7
6
CONTINUOUS
10
155.9487341264
20
123.0165893966
11
156.0163014749
21
123.0841553146
0
LINE
8
10000_FRONT
62
7
6
CONTINUOUS
10
161.4730585166
20
127.9463221208
11
161.6757611581
21
128.1490198747
0
LINE
8
10000_FRONT
62
7
6
CONTINUOUS
10
161.8784639188
20
127.9463221208
11
161.8108963319
21
127.8787485734
0
LINE
8
10000_FRONT
62
7
6
CONTINUOUS
10
161.6081935712
20
127.0003763810
11
161.4730585166
21
126.8652369157
0
LINE
8
10000_FRONT
62
7
6
CONTINUOUS
10
161.8108963319
20
126.7976709977
11
161.8784639188
21
126.8652369157
0
LINE
8
10000_FRONT
62
7
6
CONTINUOUS
10
162.5541395494
20
127.3382136003
11
162.6217071363
21
127.4057795183
0
LINE
8
10000_FRONT
62
7
6
CONTINUOUS
10
162.5541395494
20
127.1355082170
11
162.3514368483
21
126.9328028337
0
LINE
8
10000_FRONT
62
7
6
CONTINUOUS
10
162.9595449516
20
127.4057795183
11
162.7568422505
21
127.2030741350
0
LINE
8
10000_FRONT
62
7
6
CONTINUOUS
10
162.6217071363
20
126.1895624772
11
162.5541395494
21
126.1219965593
0
LINE
8
10000_FRONT
62
7
6
CONTINUOUS
10
162.8244098076
20
125.9868570939
11
162.9595449516
21
126.1219965593
0
LINE
8
10000_FRONT
62
7
6
CONTINUOUS
10
155.7135988269
20
117.5463192222
11
155.6460310016
21
117.4787513969
0
LINE
8
10000_FRONT
62
7
6
CONTINUOUS
10
155.1730581317
20
115.7895619629
11
156.1190043483
21
116.7355081795
0
LINE
8
10000_FRONT
62
7
6
CONTINUOUS
10
156.3892746959
20
116.5328056572
11
155.5784641299
21
115.7219946144
0
LINE
8
10000_FRONT
62
7
6
CONTINUOUS
10
162.4190044441
20
121.8679421368
11
162.5541395583
21
122.0030739727
0
LINE
8
10000_FRONT
62
7
6
CONTINUOUS
10
162.4190044441
20
120.9219963970
11
162.5541395583
21
121.0571282330
0
LINE
8
10000_FRONT
62
7
6
CONTINUOUS
10
162.8244098463
20
120.9219963970
11
162.6892746725
21
120.7868569317
0
LINE
8
10000_FRONT
62
7
6
CONTINUOUS
10
155.6784637788
20
138.4138878280
11
155.9487341264
21
138.6165893966
0
LINE
8
10000_FRONT
62
7
6
CONTINUOUS
10
156.0163014749
20
138.2787521774
11
155.7460316041
21
138.0760467941
0
LINE
8
10000_FRONT
62
7
6
CONTINUOUS
10
162.8244097626
20
141.6544234986
11
162.5541395342
21
141.4517257447
0
LINE
8
10000_FRONT
62
7
6
CONTINUOUS
10
155.6784637788
20
133.2138878280
11
155.9487341264
21
133.4165893966
0
LINE
8
10000_FRONT
62
7
6
CONTINUOUS
10
156.0163014749
20
133.0787521774
11
155.7460316041
21
132.8760467941
0
LINE
8
10000_FRONT
62
7
6
CONTINUOUS
10
162.5541395164
20
136.2517231475
11
162.8244098640
21
136.4544285308
0
LINE
8
10000_FRONT
62
7
6
CONTINUOUS
10
155.6784637788
20
128.0138878280
11
155.9487341264
21
128.2165893966
0
LINE
8
10000_FRONT
62
7
6
CONTINUOUS
10
156.0163014749
20
127.8787521774
11
155.7460316041
21
127.6760467941
0
LINE
8
10000_FRONT
62
7
6
CONTINUOUS
10
155.4757612565
20
143.4787521774
11
155.6784637788
21
143.6138878280
0
LINE
8
10000_FRONT
62
7
6
CONTINUOUS
10
155.4757612565
20
138.2787521774
11
155.6784637788
21
138.4138878280
0
LINE
8
10000_FRONT
62
7
6
CONTINUOUS
10
162.3514368927
20
141.6544234986
11
162.5541395342
21
141.7895629639
0
LINE
8
10000_FRONT
62
7
6
CONTINUOUS
10
161.9460314728
20
138.6165913116
11
161.7433287121
21
138.4814518463
0
LINE
8
10000_FRONT
62
7
6
CONTINUOUS
10
155.4757612565
20
133.0787521774
11
155.6784637788
21
133.2138878280
0
LINE
8
10000_FRONT
62
7
6
CONTINUOUS
10
162.5541395164
20
136.5895603668
11
162.3514368749
21
136.4544285308
0
LINE
8
10000_FRONT
62
7
6
CONTINUOUS
10
155.4757612565
20
127.8787521774
11
155.6784637788
21
128.0138878280
0
LINE
8
10000_FRONT
62
7
6
CONTINUOUS
10
161.9460313858
20
153.9463166992
11
162.0811665596
21
154.0138902465
0
LINE
8
10000_FRONT
62
7
6
CONTINUOUS
10
162.5541395487
20
153.3382081787
11
162.4190044345
21
153.2706422607
0
LINE
8
10000_FRONT
62
7
6
CONTINUOUS
10
162.2838692607
20
152.9328050415
11
162.6892746629
21
153.1355104248
0
LINE
8
10000_FRONT
62
7
6
CONTINUOUS
10
155.7460316041
20
148.4760467941
11
155.4757612565
21
148.3409149581
0
LINE
8
10000_FRONT
62
7
6
CONTINUOUS
10
155.7460316041
20
143.2760467941
11
155.4757612565
21
143.1409149581
0
LINE
8
10000_FRONT
62
7
6
CONTINUOUS
10
161.8784637844
20
142.8706405396
11
162.0135989582
21
142.9382140870
0
LINE
8
10000_FRONT
62
7
6
CONTINUOUS
10
162.1487341320
20
142.7355087037
11
162.0135989582
21
142.6679427857
0
LINE
8
10000_FRONT
62
7
6
CONTINUOUS
10
155.7460316041
20
138.0760467941
11
155.4757612565
21
137.9409149581
0
LINE
8
10000_FRONT
62
7
6
CONTINUOUS
10
162.3514368476
20
151.7841539184
11
162.6892746629
21
151.9192933838
0
LINE
8
10000_FRONT
62
7
6
CONTINUOUS
10
162.4190044345
20
153.2706422607
11
162.2163017334
21
153.2030763427
0
LINE
8
10000_FRONT
62
7
6
CONTINUOUS
10
155.5784641299
20
117.8165895698
11
155.8487344775
21
117.8841564415
0
LINE
8
10000_FRONT
62
7
6
CONTINUOUS
10
161.4730584659
20
121.1922676983
11
161.8108962812
21
121.1922676983
0
LINE
8
10000_FRONT
62
7
6
CONTINUOUS
10
162.2163016834
20
121.5301049176
11
162.0135990419
21
121.5301049176
0
LINE
8
10000_FRONT
62
7
6
CONTINUOUS
10
162.0811666288
20
121.8003762188
11
162.2838692703
21
121.8003762188
0
LINE
8
10000_FRONT
62
7
6
CONTINUOUS
10
162.2838692703
20
122.8138878765
11
162.0811666288
21
122.8138878765
0
LINE
8
11000_LEFT
62
7
6
CONTINUOUS
10
258.0460771923
20
122.9017242843
11
256.4460771923
21
122.9017242843
0
LINE
8
10000_FRONT
62
7
6
CONTINUOUS
10
156.0163014749
20
123.0841553146
11
156.3541396478
21
123.0841553146
0
LINE
8
10000_FRONT
62
7
6
CONTINUOUS
10
162.0811666288
20
123.0841591778
11
162.3514368572
21
123.0841591778
0
LINE
8
11000_LEFT
62
7
6
CONTINUOUS
10
252.0960771923
20
123.1517242843
11
249.0960771923
21
123.1517242843
0
LINE
8
11000_LEFT
62
7
6
CONTINUOUS
10
229.8460771923
20
123.8017242843
11
233.5460771923
21
123.8017242843
0
LINE
8
11000_LEFT
62
7
6
CONTINUOUS
10
252.8960771923
20
123.9517242843
11
248.2960771923
21
123.9517242843
0
LINE
8
11000_LEFT
62
7
6
CONTINUOUS
10
248.2960771923
20
125.0517242843
11
252.8960771923
21
125.0517242843
0
LINE
8
11000_LEFT
62
7
6
CONTINUOUS
10
233.7460771923
20
125.4017242843
11
231.2960771923
21
125.4017242843
0
LINE
8
10000_FRONT
62
7
6
CONTINUOUS
10
162.0811665603
20
125.7841593400
11
162.3514368483
21
125.7841593400
0
LINE
8
10000_FRONT
62
7
6
CONTINUOUS
10
156.3541396478
20
125.8517250473
11
156.0163014749
21
125.8517250473
0
LINE
8
11000_LEFT
62
7
6
CONTINUOUS
10
249.0960771923
20
125.8517242843
11
252.0960771923
21
125.8517242843
0
LINE
8
10000_FRONT
62
7
6
CONTINUOUS
10
162.3514368483
20
126.0544306413
11
162.0811665603
21
126.0544306413
0
LINE
8
10000_FRONT
62
7
6
CONTINUOUS
10
162.0811665603
20
126.9328028337
11
162.3514368483
21
126.9328028337
0
LINE
8
10000_FRONT
62
7
6
CONTINUOUS
10
162.3514368483
20
127.2706400529
11
162.0811665603
21
127.2706400529
0
LINE
8
10000_FRONT
62
7
6
CONTINUOUS
10
162.3514368483
20
128.0138880388
11
162.0811665603
21
128.0138880388
0
LINE
8
10000_FRONT
62
7
6
CONTINUOUS
10
156.0163014749
20
128.2841553146
11
156.3541396478
21
128.2841553146
0
LINE
8
10000_FRONT
62
7
6
CONTINUOUS
10
162.0135989734
20
128.2841593400
11
162.4190044352
21
128.2841593400
0
LINE
8
11000_LEFT
62
7
6
CONTINUOUS
10
252.0960771923
20
128.3517242843
11
249.0960771923
21
128.3517242843
0
LINE
8
11000_LEFT
62
7
6
CONTINUOUS
10
233.7460771923
20
128.9017242843
11
231.3283128547
21
128.9017242843
0
LINE
8
11000_LEFT
62
7
6
CONTINUOUS
10
252.8960771923
20
129.1517242843
11
248.2960771923
21
129.1517242843
0
LINE
8
11000_LEFT
62
7
6
CONTINUOUS
10
233.7460771923
20
129.4017242843
11
231.3283128547
21
129.4017242843
0
LINE
8
11000_LEFT
62
7
6
CONTINUOUS
10
248.2960771923
20
130.2517242843
11
252.8960771923
21
130.2517242843
0
LINE
8
10000_FRONT
62
7
6
CONTINUOUS
10
162.0811665781
20
131.0517229853
11
161.7433287628
21
131.0517229853
0
LINE
8
11000_LEFT
62
7
6
CONTINUOUS
10
249.0960771923
20
131.0517242843
11
252.0960771923
21
131.0517242843
0
LINE
8
10000_FRONT
62
7
6
CONTINUOUS
10
156.3541396478
20
131.0517250473
11
156.0163014749
21
131.0517250473
0
LINE
8
10000_FRONT
62
7
6
CONTINUOUS
10
162.6217071540
20
133.1463198481
11
161.4054908283
21
133.1463198481
0
LINE
8
10000_FRONT
62
7
6
CONTINUOUS
10
156.0163014749
20
133.4841553146
11
156.3541396478
21
133.4841553146
0
LINE
8
10000_FRONT
62
7
6
CONTINUOUS
10
161.4054908283
20
133.4841570673
11
162.9595449693
21
133.4841570673
0
LINE
8
11000_LEFT
62
7
6
CONTINUOUS
10
252.0960771923
20
133.5517242843
11
249.0960771923
21
133.5517242843
0
LINE
8
11000_LEFT
62
7
6
CONTINUOUS
10
252.8960771923
20
134.3517242843
11
248.2960771923
21
134.3517242843
0
LINE
8
11000_LEFT
62
7
6
CONTINUOUS
10
248.2960771923
20
135.4517242843
11
252.8960771923
21
135.4517242843
0
LINE
8
10000_FRONT
62
7
6
CONTINUOUS
10
162.6892746902
20
138.6165913116
11
162.4190044618
21
138.6841572296
0
LINE
8
10000_FRONT
62
7
6
CONTINUOUS
10
162.0811665451
20
141.3841598267
11
161.8108961975
21
141.4517257447
0
LINE
8
10000_FRONT
62
7
6
CONTINUOUS
10
161.6081935723
20
147.4625321524
11
161.3379233439
21
147.5301056998
0
LINE
8
10000_FRONT
62
7
6
CONTINUOUS
10
161.8784638859
20
136.2517231475
11
162.0811665273
21
136.1841572296
0
LINE
8
10000_FRONT
62
7
6
CONTINUOUS
10
162.6217071033
20
137.7382114898
11
162.4190044618
21
137.8057774078
0
LINE
8
10000_FRONT
62
7
6
CONTINUOUS
10
162.4190044796
20
143.0057800049
11
162.6217071211
21
142.9382140870
0
LINE
8
10000_FRONT
62
7
6
CONTINUOUS
10
162.4865719473
20
142.6679427857
11
162.3514368927
21
142.7355087037
0
LINE
8
10000_FRONT
62
7
6
CONTINUOUS
10
162.8919773938
20
152.9328050415
11
162.7568422498
21
153.0003709594
0
LINE
8
10000_FRONT
62
7
6
CONTINUOUS
10
162.3514368476
20
154.0138902465
11
162.4865719618
21
153.9463166992
0
LINE
8
10000_FRONT
62
7
6
CONTINUOUS
10
161.6081935705
20
151.9868593017
11
161.8108963312
21
151.8517274658
0
LINE
8
10000_FRONT
62
7
6
CONTINUOUS
10
162.8244098069
20
154.0814561645
11
162.6217071356
21
154.2165880005
0
LINE
8
10000_FRONT
62
7
6
CONTINUOUS
10
162.6217071356
20
159.4165857988
11
162.8244098069
21
159.2814539629
0
LINE
8
10000_FRONT
62
7
6
CONTINUOUS
10
161.8784638922
20
177.8517221740
11
161.6757611911
21
178.0544275573
0
LINE
8
10000_FRONT
62
7
6
CONTINUOUS
10
161.8784638922
20
178.2571329406
11
162.0135990064
21
178.1219934752
0
LINE
8
10000_FRONT
62
7
6
CONTINUOUS
10
161.6081936397
20
184.1328026715
11
161.4730584659
21
184.3355080548
0
LINE
8
10000_FRONT
62
7
6
CONTINUOUS
10
162.7568422594
20
185.2814537945
11
162.8919773736
21
185.0787484112
0
LINE
8
10000_FRONT
62
7
6
CONTINUOUS
10
141.0027881959
20
237.9017242843
11
141.5224034382
21
237.0017242843
0
LINE
8
10000_FRONT
62
7
6
CONTINUOUS
10
162.6217070856
20
184.8760506573
11
162.4865720310
21
185.1463219586
0
LINE
8
10000_FRONT
62
7
6
CONTINUOUS
10
161.8108963319
20
188.5895624772
11
161.7433287450
21
188.7246943132
0
LINE
8
10000_FRONT
62
7
6
CONTINUOUS
10
161.7433287450
20
189.9409113542
11
161.8108963319
21
189.8057795183
0
LINE
8
10000_FRONT
62
7
6
CONTINUOUS
10
162.6217071363
20
189.1976709977
11
162.6892746636
21
189.0625315324
0
LINE
8
10000_FRONT
62
7
6
CONTINUOUS
10
162.6892746636
20
190.1436167375
11
162.6217071363
21
190.2787485734
0
LINE
8
10000_FRONT
62
7
6
CONTINUOUS
10
161.9460314728
20
198.9895603668
11
161.8108962990
21
199.2598316680
0
LINE
8
10000_FRONT
62
7
6
CONTINUOUS
10
162.6217071033
20
200.6787540924
11
162.6892746902
21
200.5436146270
0
LINE
8
10000_FRONT
62
7
6
CONTINUOUS
10
163.0271125055
20
200.6111805450
11
162.8919773317
21
200.8814518463
0
LINE
8
10000_FRONT
62
7
6
CONTINUOUS
10
161.6081936752
20
203.9868575806
11
161.4730585014
21
204.2571288819
0
LINE
8
10000_FRONT
62
7
6
CONTINUOUS
10
161.8108961975
20
204.3246947999
11
161.8784637844
21
204.1895629639
0
LINE
8
10000_FRONT
62
7
6
CONTINUOUS
10
162.6892747080
20
204.7301055665
11
162.6217071211
21
204.9328033204
0
LINE
8
10000_FRONT
62
7
6
CONTINUOUS
10
162.9595449364
20
205.0003692383
11
163.0271125233
21
204.7976714844
0
LINE
8
10000_FRONT
62
7
6
CONTINUOUS
10
161.4054909290
20
214.7246965210
11
161.4730585159
21
214.5219911377
0
LINE
8
11000_LEFT
62
7
6
CONTINUOUS
10
235.3457132794
20
238.7653516281
11
235.3022693447
21
238.6593893157
0
LINE
8
13000_TOP
62
7
6
CONTINUOUS
10
147.0247686055
20
75.1214740476
11
147.0929651183
21
75.2136099193
0
LINE
8
10000_FRONT
62
7
6
CONTINUOUS
10
161.6757611911
20
117.6138849547
11
161.8784638922
21
117.8165903380
0
LINE
8
10000_FRONT
62
7
6
CONTINUOUS
10
162.0135990064
20
117.5463190368
11
161.8784638922
21
117.4111872008
0
LINE
8
10000_FRONT
62
7
6
CONTINUOUS
10
162.4190044085
20
115.7219934752
11
162.5541395488
21
115.8571329406
0
LINE
8
10000_FRONT
62
7
6
CONTINUOUS
10
162.7568422536
20
115.6544275573
11
162.5541395488
21
115.4517221740
0
LINE
8
10000_FRONT
62
7
6
CONTINUOUS
10
155.6784637788
20
122.8138878280
11
155.9487341264
21
123.0165893966
0
LINE
8
10000_FRONT
62
7
6
CONTINUOUS
10
156.0163014749
20
122.6787521774
11
155.7460316041
21
122.4760467941
0
LINE
8
10000_FRONT
62
7
6
CONTINUOUS
10
161.6081936397
20
122.8138878765
11
161.8784638681
21
123.0165856304
0
LINE
8
10000_FRONT
62
7
6
CONTINUOUS
10
162.0811665603
20
127.2706400529
11
161.8784639188
21
127.1355082170
0
LINE
8
10000_FRONT
62
7
6
CONTINUOUS
10
155.4757612565
20
122.6787521774
11
155.6784637788
21
122.8138878280
0
LINE
8
10000_FRONT
62
7
6
CONTINUOUS
10
162.6217071363
20
125.8517252580
11
162.8244098076
21
125.9868570939
0
LINE
8
10000_FRONT
62
7
6
CONTINUOUS
10
162.0811666288
20
122.8138878765
11
161.8784638681
21
122.6787484112
0
LINE
8
10000_FRONT
62
7
6
CONTINUOUS
10
155.3757616077
20
117.6814539192
11
155.5784641299
21
117.8165895698
0
LINE
8
10000_FRONT
62
7
6
CONTINUOUS
10
162.6892746725
20
120.7868569317
11
162.4865720310
21
120.6517250958
0
LINE
8
10000_FRONT
62
7
6
CONTINUOUS
10
162.0135990597
20
137.7382114898
11
161.8784638859
21
137.6706455719
0
LINE
8
10000_FRONT
62
7
6
CONTINUOUS
10
162.0135990597
20
137.4679401886
11
162.1487341142
21
137.5355061065
0
LINE
8
10000_FRONT
62
7
6
CONTINUOUS
10
155.7460316041
20
132.8760467941
11
155.4757612565
21
132.7409149581
0
LINE
8
10000_FRONT
62
7
6
CONTINUOUS
10
155.7460316041
20
127.6760467941
11
155.4757612565
21
127.5409149581
0
LINE
8
10000_FRONT
62
7
6
CONTINUOUS
10
161.6757611581
20
128.1490198747
11
161.8108963319
21
128.2165857927
0
LINE
8
10000_FRONT
62
7
6
CONTINUOUS
10
161.8784639188
20
127.1355082170
11
161.6081935712
21
127.0003763810
0
LINE
8
10000_FRONT
62
7
6
CONTINUOUS
10
155.7460316041
20
122.4760467941
11
155.4757612565
21
122.3409149581
0
LINE
8
10000_FRONT
62
7
6
CONTINUOUS
10
162.0135989582
20
142.9382140870
11
162.2163017189
21
143.0057800049
0
LINE
8
10000_FRONT
62
7
6
CONTINUOUS
10
162.5541395342
20
141.4517257447
11
162.3514368927
21
141.3841598267
0
LINE
8
10000_FRONT
62
7
6
CONTINUOUS
10
162.1487341142
20
138.6841572296
11
161.9460314728
21
138.6165913116
0
LINE
8
10000_FRONT
62
7
6
CONTINUOUS
10
162.0135990597
20
138.3463200103
11
162.2163017011
21
138.4138859283
0
LINE
8
10000_FRONT
62
7
6
CONTINUOUS
10
162.2163017011
20
137.8057774078
11
162.0135990597
21
137.7382114898
0
LINE
8
10000_FRONT
62
7
6
CONTINUOUS
10
162.3514368749
20
136.1841572296
11
162.5541395164
21
136.2517231475
0
LINE
8
10000_FRONT
62
7
6
CONTINUOUS
10
162.3514368483
20
125.7841593400
11
162.6217071363
21
125.8517252580
0
LINE
8
10000_FRONT
62
7
6
CONTINUOUS
10
162.0811665273
20
136.1841572296
11
162.3514368749
21
136.1841572296
0
LINE
8
11000_LEFT
62
7
6
CONTINUOUS
10
249.0960771923
20
136.2517242843
11
252.0960771923
21
136.2517242843
0
LINE
8
10000_FRONT
62
7
6
CONTINUOUS
10
156.3541396478
20
136.2517250473
11
156.0163014749
21
136.2517250473
0
LINE
8
10000_FRONT
62
7
6
CONTINUOUS
10
162.3514368749
20
136.4544285308
11
162.1487341142
21
136.4544285308
0
LINE
8
10000_FRONT
62
7
6
CONTINUOUS
10
163.0271125055
20
136.8598316680
11
162.6892746902
21
136.8598316680
0
LINE
8
10000_FRONT
62
7
6
CONTINUOUS
10
162.1487341142
20
137.5355061065
11
162.3514368749
21
137.5355061065
0
LINE
8
10000_FRONT
62
7
6
CONTINUOUS
10
162.4190044618
20
137.8057774078
11
162.2163017011
21
137.8057774078
0
LINE
8
10000_FRONT
62
7
6
CONTINUOUS
10
162.6892746902
20
138.0760487091
11
163.0271125055
21
138.0760487091
0
LINE
8
10000_FRONT
62
7
6
CONTINUOUS
10
162.2163017011
20
138.4138859283
11
162.4190044618
21
138.4138859283
0
LINE
8
10000_FRONT
62
7
6
CONTINUOUS
10
156.0163014749
20
138.6841553146
11
156.3541396478
21
138.6841553146
0
LINE
8
10000_FRONT
62
7
6
CONTINUOUS
10
162.4190044618
20
138.6841572296
11
162.1487341142
21
138.6841572296
0
LINE
8
11000_LEFT
62
7
6
CONTINUOUS
10
252.0960771923
20
138.7517242843
11
249.0960771923
21
138.7517242843
0
LINE
8
11000_LEFT
62
7
6
CONTINUOUS
10
252.8960771923
20
139.5517242843
11
248.2960771923
21
139.5517242843
0
LINE
8
11000_LEFT
62
7
6
CONTINUOUS
10
248.2960771923
20
140.6517242843
11
252.8960771923
21
140.6517242843
0
LINE
8
10000_FRONT
62
7
6
CONTINUOUS
10
162.3514368927
20
141.3841598267
11
162.0811665451
21
141.3841598267
0
LINE
8
11000_LEFT
62
7
6
CONTINUOUS
10
249.0960771923
20
141.4517242843
11
252.0960771923
21
141.4517242843
0
LINE
8
10000_FRONT
62
7
6
CONTINUOUS
10
156.3541396478
20
141.4517250473
11
156.0163014749
21
141.4517250473
0
LINE
8
10000_FRONT
62
7
6
CONTINUOUS
10
162.0811665451
20
141.6544234986
11
162.3514368927
21
141.6544234986
0
LINE
8
11000_LEFT
62
7
6
CONTINUOUS
10
256.4460771923
20
141.7017242843
11
258.0460771923
21
141.7017242843
0
LINE
8
10000_FRONT
62
7
6
CONTINUOUS
10
161.4730585014
20
141.9922683472
11
161.8108961975
21
141.9922683472
0
LINE
8
10000_FRONT
62
7
6
CONTINUOUS
10
161.8108961975
20
142.3976714844
11
161.4730585014
21
142.3976714844
0
LINE
8
10000_FRONT
62
7
6
CONTINUOUS
10
162.3514368927
20
142.7355087037
11
162.1487341320
21
142.7355087037
0
LINE
8
10000_FRONT
62
7
6
CONTINUOUS
10
162.2163017189
20
143.0057800049
11
162.4190044796
21
143.0057800049
0
LINE
8
10000_FRONT
62
7
6
CONTINUOUS
10
162.8919773495
20
143.6138885254
11
161.8784637844
21
143.6138885254
0
LINE
8
11000_LEFT
62
7
6
CONTINUOUS
10
258.0460771923
20
143.7017242843
11
256.4460771923
21
143.7017242843
0
LINE
8
10000_FRONT
62
7
6
CONTINUOUS
10
156.0163014749
20
143.8841553146
11
156.3541396478
21
143.8841553146
0
LINE
8
10000_FRONT
62
7
6
CONTINUOUS
10
161.5406260883
20
143.8841598267
11
162.8919773495
21
143.8841598267
0
LINE
8
11000_LEFT
62
7
6
CONTINUOUS
10
252.0960771923
20
143.9517242843
11
249.0960771923
21
143.9517242843
0
LINE
8
11000_LEFT
62
7
6
CONTINUOUS
10
252.8960771923
20
144.7517242843
11
248.2960771923
21
144.7517242843
0
LINE
8
10000_FRONT
62
7
6
CONTINUOUS
10
147.2027881959
20
145.3017242843
11
149.4027881959
21
145.3017242843
0
LINE
8
11000_LEFT
62
7
6
CONTINUOUS
10
248.2960771923
20
145.8517242843
11
252.8960771923
21
145.8517242843
0
LINE
8
11000_LEFT
62
7
6
CONTINUOUS
10
249.0960771923
20
146.6517242843
11
252.0960771923
21
146.6517242843
0
LINE
8
10000_FRONT
62
7
6
CONTINUOUS
10
156.3541396478
20
146.6517250473
11
156.0163014749
21
146.6517250473
0
LINE
8
10000_FRONT
62
7
6
CONTINUOUS
10
162.7568422516
20
146.6517258780
11
162.4865719636
21
146.6517258780
0
LINE
8
10000_FRONT
62
7
6
CONTINUOUS
10
163.1622476538
20
147.1922684806
11
161.3379233439
21
147.1922684806
0
LINE
8
10000_FRONT
62
7
6
CONTINUOUS
10
161.6081935723
20
147.4625321524
11
163.1622476538
21
147.4625321524
0
LINE
8
10000_FRONT
62
7
6
CONTINUOUS
10
156.0163014749
20
149.0841553146
11
156.3541396478
21
149.0841553146
0
LINE
8
10000_FRONT
62
7
6
CONTINUOUS
10
162.4190044363
20
149.0841599600
11
162.7568422516
21
149.0841599600
0
LINE
8
11000_LEFT
62
7
6
CONTINUOUS
10
252.0960771923
20
149.1517242843
11
249.0960771923
21
149.1517242843
0
LINE
8
10000_FRONT
62
7
6
CONTINUOUS
10
149.4027881959
20
149.3017242843
11
147.2027881959
21
149.3017242843
0
LINE
8
11000_LEFT
62
7
6
CONTINUOUS
10
252.8960771923
20
149.9517242843
11
248.2960771923
21
149.9517242843
0
LINE
8
10000_FRONT
62
7
6
CONTINUOUS
10
161.8108963312
20
151.8517274658
11
162.0811665596
21
151.7841539184
0
LINE
8
10000_FRONT
62
7
6
CONTINUOUS
10
162.3514368476
20
159.4841593462
11
162.6217071356
21
159.4165857988
0
LINE
8
10000_FRONT
62
7
6
CONTINUOUS
10
162.0811665596
20
152.0544252197
11
161.8784639181
21
152.1219911377
0
LINE
8
10000_FRONT
62
7
6
CONTINUOUS
10
162.2838692607
20
152.9328050415
11
162.4865719618
21
152.8652391235
0
LINE
8
10000_FRONT
62
7
6
CONTINUOUS
10
162.7568422498
20
153.0003709594
11
162.5541395487
21
153.0679368774
0
LINE
8
10000_FRONT
62
7
6
CONTINUOUS
10
162.6217071356
20
154.2165880005
11
162.4190044345
21
154.2841539184
0
LINE
8
10000_FRONT
62
7
6
CONTINUOUS
10
162.4865719618
20
159.1463221269
11
162.3514368476
21
159.2138880449
0
LINE
8
11000_LEFT
62
7
6
CONTINUOUS
10
229.8460771923
20
123.8017242843
11
228.8460771923
21
124.3790745535
0
LINE
8
10000_FRONT
62
7
6
CONTINUOUS
10
162.5541395488
20
179.8111872008
11
162.4190044085
21
179.9463190368
0
LINE
8
10000_FRONT
62
7
6
CONTINUOUS
10
162.5541395488
20
180.2165903380
11
162.7568422536
21
180.0138849547
0
LINE
8
10000_FRONT
62
7
6
CONTINUOUS
10
161.8784638681
20
183.3895623150
11
161.9460314550
21
183.3219963970
0
LINE
8
10000_FRONT
62
7
6
CONTINUOUS
10
161.8108962812
20
184.4030739727
11
161.9460314550
21
184.2679421368
0
LINE
8
10000_FRONT
62
7
6
CONTINUOUS
10
161.4730585166
20
188.5219965593
11
161.6081935712
21
188.3868570939
0
LINE
8
10000_FRONT
62
7
6
CONTINUOUS
10
161.8784639188
20
188.5219965593
11
161.8108963319
21
188.5895624772
0
LINE
8
10000_FRONT
62
7
6
CONTINUOUS
10
161.6757611581
20
189.6030741350
11
161.4730585166
21
189.8057795183
0
LINE
8
10000_FRONT
62
7
6
CONTINUOUS
10
161.8784639188
20
189.5355082170
11
162.0811665603
21
189.3328028337
0
LINE
8
10000_FRONT
62
7
6
CONTINUOUS
10
161.8108963319
20
189.8057795183
11
161.8784639188
21
189.7382136003
0
LINE
8
10000_FRONT
62
7
6
CONTINUOUS
10
162.5541395494
20
189.2652369157
11
162.6217071363
21
189.1976709977
0
LINE
8
10000_FRONT
62
7
6
CONTINUOUS
10
162.9595449516
20
189.2652369157
11
162.8244098076
21
189.4003763810
0
LINE
8
10000_FRONT
62
7
6
CONTINUOUS
10
162.6217071363
20
190.2787485734
11
162.5541395494
21
190.3463221208
0
LINE
8
10000_FRONT
62
7
6
CONTINUOUS
10
162.7568422505
20
190.5490198747
11
162.9595449516
21
190.3463221208
0
LINE
8
11000_LEFT
62
7
6
CONTINUOUS
10
245.2460771923
20
108.3017242843
11
244.7460771923
21
108.8017242843
0
LINE
8
10000_FRONT
62
7
6
CONTINUOUS
10
161.5406259514
20
198.9895603668
11
161.6757611252
21
198.7868626129
0
LINE
8
10000_FRONT
62
7
6
CONTINUOUS
10
162.9595449186
20
199.8003742706
11
162.8244098640
21
200.0030720245
0
LINE
8
10000_FRONT
62
7
6
CONTINUOUS
10
162.8244097626
20
205.2030746216
11
162.9595449364
21
205.0003692383
0
LINE
8
10000_FRONT
62
7
6
CONTINUOUS
10
161.8784639181
20
214.5219911377
11
161.7433287443
21
214.7246965210
0
LINE
8
10000_FRONT
62
7
6
CONTINUOUS
10
162.4865719618
20
216.3463166992
11
162.6217071356
21
216.1436189453
0
LINE
8
10000_FRONT
62
7
6
CONTINUOUS
10
162.6217071356
20
221.3436167436
11
162.4865719618
21
221.5463221269
0
LINE
8
10000_FRONT
62
7
6
CONTINUOUS
10
162.6217071356
20
215.1300996582
11
162.6892746629
21
214.9949678222
0
LINE
8
10000_FRONT
62
7
6
CONTINUOUS
10
163.0271125229
20
215.0625337402
11
162.8919773938
21
215.3328050415
0
LINE
8
10000_FRONT
62
7
6
CONTINUOUS
10
162.9595449509
20
216.2111848632
11
162.8244098069
21
216.4814561645
0
LINE
8
10000_FRONT
62
7
6
CONTINUOUS
10
162.8244098069
20
221.6814539629
11
162.9595449509
21
221.4111826616
0
LINE
8
11000_LEFT
62
7
6
CONTINUOUS
10
235.3022693447
20
238.6593893157
11
235.2726157272
21
238.4974688256
0
LINE
8
13000_TOP
62
7
6
CONTINUOUS
10
146.9498681787
20
75.0425501324
11
147.0247686055
21
75.1214740476
0
LINE
8
13000_TOP
62
7
6
CONTINUOUS
10
146.8703300508
20
74.9759383946
11
146.9498681787
21
75.0425501324
0
LINE
8
10000_FRONT
62
7
6
CONTINUOUS
10
162.2838692703
20
121.8003762188
11
162.4190044441
21
121.8679421368
0
LINE
8
10000_FRONT
62
7
6
CONTINUOUS
10
162.5541395583
20
121.6652367535
11
162.4190044441
21
121.5976708355
0
LINE
8
10000_FRONT
62
7
6
CONTINUOUS
10
155.8487344775
20
117.6138860939
11
155.7135988269
21
117.5463192222
0
LINE
8
10000_FRONT
62
7
6
CONTINUOUS
10
162.1487341504
20
117.6138849547
11
162.0135990064
21
117.5463190368
0
LINE
8
10000_FRONT
62
7
6
CONTINUOUS
10
162.2838692646
20
115.6544275573
11
162.4190044085
21
115.7219934752
0
LINE
8
10000_FRONT
62
7
6
CONTINUOUS
10
161.8108963319
20
128.2165857927
11
162.0135989734
21
128.2841593400
0
LINE
8
10000_FRONT
62
7
6
CONTINUOUS
10
162.0811665603
20
128.0138880388
11
161.8784639188
21
127.9463221208
0
LINE
8
10000_FRONT
62
7
6
CONTINUOUS
10
162.3514368483
20
127.2706400529
11
162.5541395494
21
127.3382136003
0
LINE
8
10000_FRONT
62
7
6
CONTINUOUS
10
162.7568422505
20
127.2030741350
11
162.5541395494
21
127.1355082170
0
LINE
8
10000_FRONT
62
7
6
CONTINUOUS
10
161.8784639188
20
126.8652369157
11
162.0811665603
21
126.9328028337
0
LINE
8
10000_FRONT
62
7
6
CONTINUOUS
10
162.5541395494
20
126.1219965593
11
162.3514368483
21
126.0544306413
0
LINE
8
10000_FRONT
62
7
6
CONTINUOUS
10
161.8784638681
20
123.0165856304
11
162.0811666288
21
123.0841591778
0
LINE
8
10000_FRONT
62
7
6
CONTINUOUS
10
162.4190044441
20
121.5976708355
11
162.2163016834
21
121.5301049176
0
LINE
8
10000_FRONT
62
7
6
CONTINUOUS
10
162.2163016834
20
120.8544304791
11
162.4190044441
21
120.9219963970
0
LINE
8
10000_FRONT
62
7
6
CONTINUOUS
10
162.4865720310
20
120.6517250958
11
162.2838692703
21
120.5841591778
0
LINE
8
10000_FRONT
62
7
6
CONTINUOUS
10
161.8784638922
20
117.8165903380
11
162.0811665933
21
117.8841562560
0
LINE
8
10000_FRONT
62
7
6
CONTINUOUS
10
162.5541395488
20
115.4517221740
11
162.3514368515
21
115.3841562560
0
LINE
8
11000_LEFT
62
7
6
CONTINUOUS
10
248.2960771923
20
151.0517242843
11
252.8960771923
21
151.0517242843
0
LINE
8
10000_FRONT
62
7
6
CONTINUOUS
10
162.0811665596
20
151.7841539184
11
162.3514368476
21
151.7841539184
0
LINE
8
11000_LEFT
62
7
6
CONTINUOUS
10
249.0960771923
20
151.8517242843
11
252.0960771923
21
151.8517242843
0
LINE
8
10000_FRONT
62
7
6
CONTINUOUS
10
156.3541396478
20
151.8517250473
11
156.0163014749
21
151.8517250473
0
LINE
8
10000_FRONT
62
7
6
CONTINUOUS
10
162.3514368476
20
152.0544252197
11
162.0811665596
21
152.0544252197
0
LINE
8
10000_FRONT
62
7
6
CONTINUOUS
10
161.7433287443
20
152.4598359863
11
161.4054909290
21
152.4598359863
0
LINE
8
10000_FRONT
62
7
6
CONTINUOUS
10
162.0135989727
20
152.9328050415
11
162.2838692607
21
152.9328050415
0
LINE
8
10000_FRONT
62
7
6
CONTINUOUS
10
162.2163017334
20
153.2030763427
11
162.0135989727
21
153.2030763427
0
LINE
8
10000_FRONT
62
7
6
CONTINUOUS
10
161.4730585159
20
153.6760453979
11
161.8108963312
21
153.6760453979
0
LINE
8
10000_FRONT
62
7
6
CONTINUOUS
10
162.0811665596
20
154.0138902465
11
162.3514368476
21
154.0138902465
0
LINE
8
10000_FRONT
62
7
6
CONTINUOUS
10
162.4190044345
20
154.2841539184
11
162.0811665596
21
154.2841539184
0
LINE
8
10000_FRONT
62
7
6
CONTINUOUS
10
156.0163014749
20
154.2841553146
11
156.3541396478
21
154.2841553146
0
LINE
8
11000_LEFT
62
7
6
CONTINUOUS
10
252.0960771923
20
154.3517242843
11
249.0960771923
21
154.3517242843
0
LINE
8
11000_LEFT
62
7
6
CONTINUOUS
10
252.8960771923
20
155.1517242843
11
248.2960771923
21
155.1517242843
0
LINE
8
11000_LEFT
62
7
6
CONTINUOUS
10
248.2960771923
20
156.2517242843
11
252.8960771923
21
156.2517242843
0
LINE
8
11000_LEFT
62
7
6
CONTINUOUS
10
249.0960771923
20
157.0517242843
11
252.0960771923
21
157.0517242843
0
LINE
8
10000_FRONT
62
7
6
CONTINUOUS
10
163.0271125229
20
157.0517252641
11
161.4730585159
21
157.0517252641
0
LINE
8
10000_FRONT
62
7
6
CONTINUOUS
10
156.3541396478
20
157.0517250473
11
156.0163014749
21
157.0517250473
0
LINE
8
10000_FRONT
62
7
6
CONTINUOUS
10
161.8784639181
20
157.3219965654
11
163.0271125229
21
157.3219965654
0
LINE
8
10000_FRONT
62
7
6
CONTINUOUS
10
161.8784639181
20
158.8084772783
11
161.4730585159
21
158.8084772783
0
LINE
8
10000_FRONT
62
7
6
CONTINUOUS
10
162.3514368476
20
159.2138880449
11
162.1487341465
21
159.2138880449
0
LINE
8
10000_FRONT
62
7
6
CONTINUOUS
10
156.0163014749
20
159.4841553146
11
156.3541396478
21
159.4841553146
0
LINE
8
10000_FRONT
62
7
6
CONTINUOUS
10
162.1487341465
20
159.4841593462
11
162.3514368476
21
159.4841593462
0
LINE
8
11000_LEFT
62
7
6
CONTINUOUS
10
252.0960771923
20
159.5517242843
11
249.0960771923
21
159.5517242843
0
LINE
8
11000_LEFT
62
7
6
CONTINUOUS
10
252.8960771923
20
160.3517242843
11
248.2960771923
21
160.3517242843
0
LINE
8
11000_LEFT
62
7
6
CONTINUOUS
10
248.2960771923
20
161.4517242843
11
252.8960771923
21
161.4517242843
0
LINE
8
11000_LEFT
62
7
6
CONTINUOUS
10
249.0960771923
20
162.2517242843
11
252.0960771923
21
162.2517242843
0
LINE
8
10000_FRONT
62
7
6
CONTINUOUS
10
156.3541396478
20
162.2517250473
11
156.0163014749
21
162.2517250473
0
LINE
8
10000_FRONT
62
7
6
CONTINUOUS
10
162.5541395469
20
162.2517268664
11
162.2163017316
21
162.2517268664
0
LINE
8
11000_LEFT
62
7
6
CONTINUOUS
10
256.4460771923
20
162.5017242843
11
258.0460771923
21
162.5017242843
0
LINE
8
11000_LEFT
62
7
6
CONTINUOUS
10
258.0460771923
20
164.5017242843
11
256.4460771923
21
164.5017242843
0
LINE
8
10000_FRONT
62
7
6
CONTINUOUS
10
162.2163017316
20
164.6841533190
11
162.5541395469
21
164.6841533190
0
LINE
8
10000_FRONT
62
7
6
CONTINUOUS
10
156.0163014749
20
164.6841553146
11
156.3541396478
21
164.6841553146
0
LINE
8
11000_LEFT
62
7
6
CONTINUOUS
10
252.0960771923
20
164.7517242843
11
249.0960771923
21
164.7517242843
0
LINE
8
10000_FRONT
62
7
6
CONTINUOUS
10
162.0811665933
20
177.7841562560
11
161.8784638922
21
177.8517221740
0
LINE
8
10000_FRONT
62
7
6
CONTINUOUS
10
162.3514368515
20
180.2841562560
11
162.5541395488
21
180.2165903380
0
LINE
8
10000_FRONT
62
7
6
CONTINUOUS
10
162.0135990064
20
178.1219934752
11
162.1487341504
21
178.0544275573
0
LINE
8
10000_FRONT
62
7
6
CONTINUOUS
10
162.4190044085
20
179.9463190368
11
162.2838692646
21
180.0138849547
0
LINE
8
10000_FRONT
62
7
6
CONTINUOUS
10
161.9460314550
20
183.3219963970
11
162.0811666288
21
183.2544304791
0
LINE
8
10000_FRONT
62
7
6
CONTINUOUS
10
161.9460314550
20
184.2679421368
11
162.0811666288
21
184.2003762188
0
LINE
8
10000_FRONT
62
7
6
CONTINUOUS
10
161.6081936397
20
185.2138878765
11
161.8784638681
21
185.0787484112
0
LINE
8
10000_FRONT
62
7
6
CONTINUOUS
10
162.8244098076
20
189.4003763810
11
162.5541395494
21
189.5355082170
0
LINE
8
10000_FRONT
62
7
6
CONTINUOUS
10
162.6217071363
20
190.6165857927
11
162.7568422505
21
190.5490198747
0
LINE
8
10000_FRONT
62
7
6
CONTINUOUS
10
161.8108962812
20
183.0517250958
11
161.6081936397
21
183.1868569317
0
LINE
8
10000_FRONT
62
7
6
CONTINUOUS
10
161.8108962812
20
183.9976708355
11
161.6081936397
21
184.1328026715
0
LINE
8
10000_FRONT
62
7
6
CONTINUOUS
10
162.5541395583
20
185.4165856304
11
162.7568422594
21
185.2814537945
0
LINE
8
10000_FRONT
62
7
6
CONTINUOUS
10
161.6081935712
20
188.3868570939
11
161.8108963319
21
188.2517252580
0
LINE
8
10000_FRONT
62
7
6
CONTINUOUS
10
162.5541395494
20
189.5355082170
11
162.3514368483
21
189.6706400529
0
LINE
8
10000_FRONT
62
7
6
CONTINUOUS
10
161.6757611252
20
198.7868626129
11
161.8784638859
21
198.6517231475
0
LINE
8
10000_FRONT
62
7
6
CONTINUOUS
10
162.1487341142
20
198.8544285308
11
161.9460314728
21
198.9895603668
0
LINE
8
10000_FRONT
62
7
6
CONTINUOUS
10
162.4865719295
20
199.8679401886
11
162.6217071033
21
199.7328083526
0
LINE
8
10000_FRONT
62
7
6
CONTINUOUS
10
162.5541395164
20
200.7463200103
11
162.6217071033
21
200.6787540924
0
LINE
8
10000_FRONT
62
7
6
CONTINUOUS
10
162.6217071211
20
204.9328033204
11
162.4865719473
21
205.0679427857
0
LINE
8
10000_FRONT
62
7
6
CONTINUOUS
10
161.4730585159
20
214.5219911377
11
161.6081935705
21
214.3868593017
0
LINE
8
10000_FRONT
62
7
6
CONTINUOUS
10
162.4865719618
20
215.2652391235
11
162.6217071356
21
215.1300996582
0
LINE
8
11000_LEFT
62
7
6
CONTINUOUS
10
231.2960771923
20
127.9017242843
11
231.2562611464
21
128.6614596992
0
LINE
8
11000_LEFT
62
7
6
CONTINUOUS
10
231.2960771923
20
209.9017242843
11
231.2562611464
21
210.6614596992
0
LINE
8
11000_LEFT
62
7
6
CONTINUOUS
10
228.8460771923
20
210.2959277451
11
228.8460771923
21
206.3790745535
0
LINE
8
11000_LEFT
62
7
6
CONTINUOUS
10
228.8460771923
20
128.2959277451
11
228.8460771923
21
124.3790745535
0
LINE
8
11000_LEFT
62
7
6
CONTINUOUS
10
229.8460771923
20
210.7622354032
11
229.8460771923
21
205.8017242843
0
LINE
8
11000_LEFT
62
7
6
CONTINUOUS
10
229.8460771923
20
128.7622354032
11
229.8460771923
21
123.8017242843
0
LINE
8
11000_LEFT
62
7
6
CONTINUOUS
10
231.2960771923
20
125.4017242843
11
231.2960771923
21
127.9017242843
0
LINE
8
11000_LEFT
62
7
6
CONTINUOUS
10
231.2960771923
20
207.4017242843
11
231.2960771923
21
209.9017242843
0
LINE
8
11000_LEFT
62
7
6
CONTINUOUS
10
233.7460771923
20
112.8017242843
11
233.7460771923
21
238.3017242843
0
LINE
8
11000_LEFT
62
7
6
CONTINUOUS
10
235.2460771923
20
112.8017242843
11
235.2460771923
21
237.3959816349
0
LINE
8
11000_LEFT
62
7
6
CONTINUOUS
10
235.7460771923
20
108.3017242843
11
235.7460771923
21
114.9017242843
0
LINE
8
11000_LEFT
62
7
6
CONTINUOUS
10
237.1460771923
20
110.3017242843
11
237.1460771923
21
114.9017242843
0
LINE
8
11000_LEFT
62
7
6
CONTINUOUS
10
239.1460771923
20
110.3017242843
11
239.1460771923
21
114.9017242843
0
LINE
8
11000_LEFT
62
7
6
CONTINUOUS
10
235.2618869891
20
238.3017242843
11
235.2460771923
21
237.3959816349
0
LINE
8
11000_LEFT
62
7
6
CONTINUOUS
10
235.2726157272
20
238.4974688256
11
235.2618869891
21
238.3017242843
0
LINE
8
13000_TOP
62
7
6
CONTINUOUS
10
146.7877025274
20
74.9214036176
11
146.8703300508
21
74.9759383946
0
LINE
8
11000_LEFT
62
7
6
CONTINUOUS
10
228.8460771923
20
128.2959277451
11
231.1170037238
21
129.3548781778
0
LINE
8
11000_LEFT
62
7
6
CONTINUOUS
10
231.2100641115
20
128.8465839898
11
231.3283128547
21
128.9017242843
0
LINE
8
10000_FRONT
62
7
6
CONTINUOUS
10
161.8784639181
20
159.4165857988
11
162.1487341465
21
159.4841593462
0
LINE
8
10000_FRONT
62
7
6
CONTINUOUS
10
162.0811665596
20
154.2841539184
11
161.8108963312
21
154.2165880005
0
LINE
8
11000_LEFT
62
7
6
CONTINUOUS
10
252.8960771923
20
165.5517242843
11
248.2960771923
21
165.5517242843
0
LINE
8
11000_LEFT
62
7
6
CONTINUOUS
10
253.3960771923
20
166.0517242843
11
247.7960771923
21
166.0517242843
0
LINE
8
10000_FRONT
62
7
6
CONTINUOUS
10
153.2027881959
20
166.0517242843
11
152.7027881959
21
166.0517242843
0
LINE
8
10000_FRONT
62
7
6
CONTINUOUS
10
163.7027881959
20
166.5517242843
11
155.0065824098
21
166.5517242843
0
LINE
8
10000_FRONT
62
7
6
CONTINUOUS
10
153.2027881959
20
167.8017242843
11
150.2027881959
21
167.8017242843
0
LINE
8
11000_LEFT
62
7
6
CONTINUOUS
10
243.8460771923
20
167.8017242843
11
246.8460771923
21
167.8017242843
0
LINE
8
11000_LEFT
62
7
6
CONTINUOUS
10
248.0960771923
20
167.8017242843
11
253.0960771923
21
167.8017242843
0
LINE
8
10000_FRONT
62
7
6
CONTINUOUS
10
153.2027881959
20
169.2517242843
11
151.5295831152
21
169.2517242843
0
LINE
8
10000_FRONT
62
7
6
CONTINUOUS
10
153.2027881959
20
173.3517242843
11
151.5295831152
21
173.3517242843
0
LINE
8
11000_LEFT
62
7
6
CONTINUOUS
10
253.0960771923
20
174.8017242843
11
248.0960771923
21
174.8017242843
0
LINE
8
10000_FRONT
62
7
6
CONTINUOUS
10
153.2027881959
20
174.8017242843
11
150.2027881959
21
174.8017242843
0
LINE
8
11000_LEFT
62
7
6
CONTINUOUS
10
243.8460771923
20
174.8017242843
11
246.8460771923
21
174.8017242843
0
LINE
8
10000_FRONT
62
7
6
CONTINUOUS
10
163.7027881959
20
176.0517242843
11
155.0065824098
21
176.0517242843
0
LINE
8
10000_FRONT
62
7
6
CONTINUOUS
10
153.2027881959
20
176.5517242843
11
152.7027881959
21
176.5517242843
0
LINE
8
11000_LEFT
62
7
6
CONTINUOUS
10
247.7960771923
20
176.5517242843
11
253.3960771923
21
176.5517242843
0
LINE
8
11000_LEFT
62
7
6
CONTINUOUS
10
248.2960771923
20
177.0517242843
11
252.8960771923
21
177.0517242843
0
LINE
8
10000_FRONT
62
7
6
CONTINUOUS
10
162.3514368515
20
177.7841562560
11
162.0811665933
21
177.7841562560
0
LINE
8
10000_FRONT
62
7
6
CONTINUOUS
10
156.3541393588
20
177.8517244724
11
156.0163016627
21
177.8517244724
0
LINE
8
11000_LEFT
62
7
6
CONTINUOUS
10
249.0960771923
20
177.8517242843
11
252.0960771923
21
177.8517242843
0
LINE
8
10000_FRONT
62
7
6
CONTINUOUS
10
162.1487341504
20
178.0544275573
11
162.2838692646
21
178.0544275573
0
LINE
8
11000_LEFT
62
7
6
CONTINUOUS
10
256.4460771923
20
178.1017242843
11
258.0460771923
21
178.1017242843
0
LINE
8
10000_FRONT
62
7
6
CONTINUOUS
10
163.0271125118
20
179.2030786803
11
162.6892746816
21
179.2706445983
0
LINE
8
10000_FRONT
62
7
6
CONTINUOUS
10
162.0811666288
20
182.9841591778
11
161.8108962812
21
183.0517250958
0
LINE
8
10000_FRONT
62
7
6
CONTINUOUS
10
161.8108963319
20
188.2517252580
11
162.0811665603
21
188.1841593400
0
LINE
8
10000_FRONT
62
7
6
CONTINUOUS
10
162.0135990419
20
183.9301049176
11
161.8108962812
21
183.9976708355
0
LINE
8
10000_FRONT
62
7
6
CONTINUOUS
10
162.4865720310
20
185.1463219586
11
162.2838692703
21
185.2138878765
0
LINE
8
10000_FRONT
62
7
6
CONTINUOUS
10
162.3514368572
20
185.4841591778
11
162.5541395583
21
185.4165856304
0
LINE
8
10000_FRONT
62
7
6
CONTINUOUS
10
162.0811665603
20
188.4544306413
11
161.8784639188
21
188.5219965593
0
LINE
8
10000_FRONT
62
7
6
CONTINUOUS
10
162.3514368483
20
189.3328028337
11
162.5541395494
21
189.2652369157
0
LINE
8
10000_FRONT
62
7
6
CONTINUOUS
10
161.8784639188
20
189.5355082170
11
161.6757611581
21
189.6030741350
0
LINE
8
10000_FRONT
62
7
6
CONTINUOUS
10
161.8784639188
20
189.7382136003
11
162.0811665603
21
189.6706400529
0
LINE
8
10000_FRONT
62
7
6
CONTINUOUS
10
162.5541395494
20
190.3463221208
11
162.3514368483
21
190.4138880388
0
LINE
8
10000_FRONT
62
7
6
CONTINUOUS
10
162.4190044352
20
190.6841593400
11
162.6217071363
21
190.6165857927
0
LINE
8
10000_FRONT
62
7
6
CONTINUOUS
10
162.3514368749
20
199.9355061065
11
162.4865719295
21
199.8679401886
0
LINE
8
10000_FRONT
62
7
6
CONTINUOUS
10
162.4190044618
20
200.8138859283
11
162.5541395164
21
200.7463200103
0
LINE
8
10000_FRONT
62
7
6
CONTINUOUS
10
162.4865719473
20
205.0679427857
11
162.3514368927
21
205.1355087037
0
LINE
8
10000_FRONT
62
7
6
CONTINUOUS
10
162.8244098640
20
200.0030720245
11
162.6217071033
21
200.1382114898
0
LINE
8
10000_FRONT
62
7
6
CONTINUOUS
10
162.8919773317
20
200.8814518463
11
162.6892746902
21
201.0165913116
0
LINE
8
10000_FRONT
62
7
6
CONTINUOUS
10
161.8108961975
20
203.8517257447
11
161.6081936752
21
203.9868575806
0
LINE
8
10000_FRONT
62
7
6
CONTINUOUS
10
161.8784637844
20
204.1895629639
11
162.0811665451
21
204.0544234986
0
LINE
8
10000_FRONT
62
7
6
CONTINUOUS
10
162.6217071211
20
205.3382140870
11
162.8244097626
21
205.2030746216
0
LINE
8
10000_FRONT
62
7
6
CONTINUOUS
10
161.6081935705
20
214.3868593017
11
161.8108963312
21
214.2517274658
0
LINE
8
10000_FRONT
62
7
6
CONTINUOUS
10
162.8244098069
20
216.4814561645
11
162.6217071356
21
216.6165880005
0
LINE
8
90000_FRAME
62
7
6
CONTINUOUS
10
308.8496008213
20
21.4969115175
11
310.5370113459
21
18.5498846858
0
LINE
8
90000_FRAME
62
7
6
CONTINUOUS
10
309.9666190559
20
16.7436424342
11
308.2554421859
21
19.7857346475
0
LINE
8
90000_FRAME
62
7
6
CONTINUOUS
10
298.2973434565
20
16.6961097434
11
296.9664281131
21
19.7857346475
0
LINE
8
90000_FRAME
62
7
6
CONTINUOUS
10
297.7269511665
20
21.4969115175
11
298.9628011281
21
18.5974173767
0
LINE
8
11000_LEFT
62
7
6
CONTINUOUS
10
242.6460771923
20
114.9017242843
11
242.6460771923
21
238.3017242843
0
LINE
8
11000_LEFT
62
7
6
CONTINUOUS
10
242.8460771923
20
234.3017242843
11
242.8460771923
21
110.3017242843
0
LINE
8
11000_LEFT
62
7
6
CONTINUOUS
10
243.2460771923
20
234.3017242843
11
243.2460771923
21
229.4017242843
0
LINE
8
11000_LEFT
62
7
6
CONTINUOUS
10
243.2460771923
20
108.3017242843
11
243.2460771923
21
113.2017242843
0
LINE
8
11000_LEFT
62
7
6
CONTINUOUS
10
243.8460771923
20
113.2017242843
11
243.8460771923
21
229.4017242843
0
LINE
8
11000_LEFT
62
7
6
CONTINUOUS
10
244.7460771923
20
233.8017242843
11
244.7460771923
21
229.4017242843
0
LINE
8
11000_LEFT
62
7
6
CONTINUOUS
10
244.7460771923
20
108.8017242843
11
244.7460771923
21
113.2017242843
0
LINE
8
11000_LEFT
62
7
6
CONTINUOUS
10
245.3460771923
20
108.3017242843
11
245.3460771923
21
167.8017242843
0
LINE
8
11000_LEFT
62
7
6
CONTINUOUS
10
245.3460771923
20
174.8017242843
11
245.3460771923
21
234.3017242843
0
LINE
8
11000_LEFT
62
7
6
CONTINUOUS
10
247.7960771923
20
228.4517242843
11
247.7960771923
21
176.5517242843
0
LINE
8
11000_LEFT
62
7
6
CONTINUOUS
10
247.7960771923
20
166.0517242843
11
247.7960771923
21
114.1517242843
0
LINE
8
11000_LEFT
62
7
6
CONTINUOUS
10
248.0960771923
20
174.8017242843
11
248.0960771923
21
167.8017242843
0
LINE
8
11000_LEFT
62
7
6
CONTINUOUS
10
248.2460771923
20
234.3017242843
11
248.2460771923
21
234.0017242843
0
LINE
8
11000_LEFT
62
7
6
CONTINUOUS
10
248.2460771923
20
108.3017242843
11
248.2460771923
21
108.6017242843
0
LINE
8
11000_LEFT
62
7
6
CONTINUOUS
10
248.2960771923
20
227.9517242843
11
248.2960771923
21
223.8517242843
0
LINE
8
11000_LEFT
62
7
6
CONTINUOUS
10
248.2960771923
20
222.7517242843
11
248.2960771923
21
218.6517242843
0
LINE
8
11000_LEFT
62
7
6
CONTINUOUS
10
248.2960771923
20
217.5517242843
11
248.2960771923
21
213.4517242843
0
LINE
8
11000_LEFT
62
7
6
CONTINUOUS
10
248.2960771923
20
212.3517242843
11
248.2960771923
21
208.2517242843
0
LINE
8
11000_LEFT
62
7
6
CONTINUOUS
10
248.2960771923
20
207.1517242843
11
248.2960771923
21
203.0517242843
0
LINE
8
11000_LEFT
62
7
6
CONTINUOUS
10
248.2960771923
20
201.9517242843
11
248.2960771923
21
197.8517242843
0
LINE
8
11000_LEFT
62
7
6
CONTINUOUS
10
248.2960771923
20
196.7517242843
11
248.2960771923
21
192.6517242843
0
LINE
8
11000_LEFT
62
7
6
CONTINUOUS
10
248.2960771923
20
191.5517242843
11
248.2960771923
21
187.4517242843
0
LINE
8
11000_LEFT
62
7
6
CONTINUOUS
10
248.2960771923
20
186.3517242843
11
248.2960771923
21
182.2517242843
0
LINE
8
11000_LEFT
62
7
6
CONTINUOUS
10
248.2960771923
20
181.1517242843
11
248.2960771923
21
177.0517242843
0
LINE
8
11000_LEFT
62
7
6
CONTINUOUS
10
248.2960771923
20
165.5517242843
11
248.2960771923
21
161.4517242843
0
LINE
8
11000_LEFT
62
7
6
CONTINUOUS
10
248.2960771923
20
160.3517242843
11
248.2960771923
21
156.2517242843
0
LINE
8
11000_LEFT
62
7
6
CONTINUOUS
10
248.2960771923
20
155.1517242843
11
248.2960771923
21
151.0517242843
0
LINE
8
11000_LEFT
62
7
6
CONTINUOUS
10
248.2960771923
20
149.9517242843
11
248.2960771923
21
145.8517242843
0
LINE
8
11000_LEFT
62
7
6
CONTINUOUS
10
248.2960771923
20
144.7517242843
11
248.2960771923
21
140.6517242843
0
LINE
8
11000_LEFT
62
7
6
CONTINUOUS
10
248.2960771923
20
139.5517242843
11
248.2960771923
21
135.4517242843
0
LINE
8
11000_LEFT
62
7
6
CONTINUOUS
10
248.2960771923
20
134.3517242843
11
248.2960771923
21
130.2517242843
0
LINE
8
11000_LEFT
62
7
6
CONTINUOUS
10
248.2960771923
20
129.1517242843
11
248.2960771923
21
125.0517242843
0
LINE
8
11000_LEFT
62
7
6
CONTINUOUS
10
248.2960771923
20
123.9517242843
11
248.2960771923
21
119.8517242843
0
LINE
8
11000_LEFT
62
7
6
CONTINUOUS
10
248.2960771923
20
118.7517242843
11
248.2960771923
21
114.6517242843
0
LINE
8
11000_LEFT
62
7
6
CONTINUOUS
10
249.0960771923
20
227.1517242843
11
249.0960771923
21
224.6517242843
0
LINE
8
11000_LEFT
62
7
6
CONTINUOUS
10
249.0960771923
20
221.9517242843
11
249.0960771923
21
219.4517242843
0
LINE
8
11000_LEFT
62
7
6
CONTINUOUS
10
249.0960771923
20
216.7517242843
11
249.0960771923
21
214.2517242843
0
LINE
8
11000_LEFT
62
7
6
CONTINUOUS
10
249.0960771923
20
211.5517242843
11
249.0960771923
21
209.0517242843
0
LINE
8
11000_LEFT
62
7
6
CONTINUOUS
10
249.0960771923
20
206.3517242843
11
249.0960771923
21
203.8517242843
0
LINE
8
11000_LEFT
62
7
6
CONTINUOUS
10
249.0960771923
20
201.1517242843
11
249.0960771923
21
198.6517242843
0
LINE
8
11000_LEFT
62
7
6
CONTINUOUS
10
249.0960771923
20
195.9517242843
11
249.0960771923
21
193.4517242843
0
LINE
8
11000_LEFT
62
7
6
CONTINUOUS
10
249.0960771923
20
190.7517242843
11
249.0960771923
21
188.2517242843
0
LINE
8
11000_LEFT
62
7
6
CONTINUOUS
10
249.0960771923
20
185.5517242843
11
249.0960771923
21
183.0517242843
0
LINE
8
11000_LEFT
62
7
6
CONTINUOUS
10
249.0960771923
20
180.3517242843
11
249.0960771923
21
177.8517242843
0
LINE
8
11000_LEFT
62
7
6
CONTINUOUS
10
249.0960771923
20
164.7517242843
11
249.0960771923
21
162.2517242843
0
LINE
8
11000_LEFT
62
7
6
CONTINUOUS
10
249.0960771923
20
159.5517242843
11
249.0960771923
21
157.0517242843
0
LINE
8
11000_LEFT
62
7
6
CONTINUOUS
10
249.0960771923
20
154.3517242843
11
249.0960771923
21
151.8517242843
0
LINE
8
11000_LEFT
62
7
6
CONTINUOUS
10
249.0960771923
20
149.1517242843
11
249.0960771923
21
146.6517242843
0
LINE
8
11000_LEFT
62
7
6
CONTINUOUS
10
249.0960771923
20
143.9517242843
11
249.0960771923
21
141.4517242843
0
LINE
8
11000_LEFT
62
7
6
CONTINUOUS
10
249.0960771923
20
138.7517242843
11
249.0960771923
21
136.2517242843
0
LINE
8
11000_LEFT
62
7
6
CONTINUOUS
10
249.0960771923
20
133.5517242843
11
249.0960771923
21
131.0517242843
0
LINE
8
11000_LEFT
62
7
6
CONTINUOUS
10
249.0960771923
20
128.3517242843
11
249.0960771923
21
125.8517242843
0
LINE
8
11000_LEFT
62
7
6
CONTINUOUS
10
249.0960771923
20
123.1517242843
11
249.0960771923
21
120.6517242843
0
LINE
8
11000_LEFT
62
7
6
CONTINUOUS
10
249.0960771923
20
117.9517242843
11
249.0960771923
21
115.4517242843
0
LINE
8
11000_LEFT
62
7
6
CONTINUOUS
10
249.6460771923
20
234.3017242843
11
249.6460771923
21
234.0017242843
0
LINE
8
11000_LEFT
62
7
6
CONTINUOUS
10
249.6460771923
20
108.3017242843
11
249.6460771923
21
108.6017242843
0
LINE
8
91000_TIP
62
7
6
CONTINUOUS
10
249.8659881699
20
20.5812835243
11
249.8659881699
21
15.5812836265
0
LINE
8
11000_LEFT
62
7
6
CONTINUOUS
10
251.0460771923
20
234.3017242843
11
251.0460771923
21
234.0017242843
0
LINE
8
11000_LEFT
62
7
6
CONTINUOUS
10
251.0460771923
20
108.3017242843
11
251.0460771923
21
108.6017242843
0
LINE
8
11000_LEFT
62
7
6
CONTINUOUS
10
252.0960771923
20
115.4517242843
11
252.0960771923
21
117.9517242843
0
LINE
8
11000_LEFT
62
7
6
CONTINUOUS
10
252.0960771923
20
120.6517242843
11
252.0960771923
21
123.1517242843
0
LINE
8
11000_LEFT
62
7
6
CONTINUOUS
10
252.0960771923
20
125.8517242843
11
252.0960771923
21
128.3517242843
0
LINE
8
11000_LEFT
62
7
6
CONTINUOUS
10
252.0960771923
20
131.0517242843
11
252.0960771923
21
133.5517242843
0
LINE
8
11000_LEFT
62
7
6
CONTINUOUS
10
252.0960771923
20
136.2517242843
11
252.0960771923
21
138.7517242843
0
LINE
8
11000_LEFT
62
7
6
CONTINUOUS
10
252.0960771923
20
141.4517242843
11
252.0960771923
21
143.9517242843
0
LINE
8
11000_LEFT
62
7
6
CONTINUOUS
10
252.0960771923
20
146.6517242843
11
252.0960771923
21
149.1517242843
0
LINE
8
11000_LEFT
62
7
6
CONTINUOUS
10
252.0960771923
20
151.8517242843
11
252.0960771923
21
154.3517242843
0
LINE
8
11000_LEFT
62
7
6
CONTINUOUS
10
252.0960771923
20
157.0517242843
11
252.0960771923
21
159.5517242843
0
LINE
8
11000_LEFT
62
7
6
CONTINUOUS
10
252.0960771923
20
162.2517242843
11
252.0960771923
21
164.7517242843
0
LINE
8
11000_LEFT
62
7
6
CONTINUOUS
10
252.0960771923
20
177.8517242843
11
252.0960771923
21
180.3517242843
0
LINE
8
11000_LEFT
62
7
6
CONTINUOUS
10
252.0960771923
20
183.0517242843
11
252.0960771923
21
185.5517242843
0
LINE
8
11000_LEFT
62
7
6
CONTINUOUS
10
252.0960771923
20
188.2517242843
11
252.0960771923
21
190.7517242843
0
LINE
8
11000_LEFT
62
7
6
CONTINUOUS
10
252.0960771923
20
193.4517242843
11
252.0960771923
21
195.9517242843
0
LINE
8
11000_LEFT
62
7
6
CONTINUOUS
10
252.0960771923
20
198.6517242843
11
252.0960771923
21
201.1517242843
0
LINE
8
11000_LEFT
62
7
6
CONTINUOUS
10
252.0960771923
20
203.8517242843
11
252.0960771923
21
206.3517242843
0
LINE
8
11000_LEFT
62
7
6
CONTINUOUS
10
252.0960771923
20
209.0517242843
11
252.0960771923
21
211.5517242843
0
LINE
8
11000_LEFT
62
7
6
CONTINUOUS
10
252.0960771923
20
214.2517242843
11
252.0960771923
21
216.7517242843
0
LINE
8
11000_LEFT
62
7
6
CONTINUOUS
10
252.0960771923
20
219.4517242843
11
252.0960771923
21
221.9517242843
0
LINE
8
11000_LEFT
62
7
6
CONTINUOUS
10
252.0960771923
20
224.6517242843
11
252.0960771923
21
227.1517242843
0
LINE
8
11000_LEFT
62
7
6
CONTINUOUS
10
252.4460771923
20
234.3017242843
11
252.4460771923
21
234.0017242843
0
LINE
8
11000_LEFT
62
7
6
CONTINUOUS
10
252.4460771923
20
108.3017242843
11
252.4460771923
21
108.6017242843
0
LINE
8
11000_LEFT
62
7
6
CONTINUOUS
10
252.8960771923
20
114.6517242843
11
252.8960771923
21
118.7517242843
0
LINE
8
11000_LEFT
62
7
6
CONTINUOUS
10
252.8960771923
20
119.8517242843
11
252.8960771923
21
123.9517242843
0
LINE
8
11000_LEFT
62
7
6
CONTINUOUS
10
252.8960771923
20
125.0517242843
11
252.8960771923
21
129.1517242843
0
LINE
8
11000_LEFT
62
7
6
CONTINUOUS
10
252.8960771923
20
130.2517242843
11
252.8960771923
21
134.3517242843
0
LINE
8
11000_LEFT
62
7
6
CONTINUOUS
10
252.8960771923
20
135.4517242843
11
252.8960771923
21
139.5517242843
0
LINE
8
11000_LEFT
62
7
6
CONTINUOUS
10
252.8960771923
20
140.6517242843
11
252.8960771923
21
144.7517242843
0
LINE
8
11000_LEFT
62
7
6
CONTINUOUS
10
252.8960771923
20
145.8517242843
11
252.8960771923
21
149.9517242843
0
LINE
8
11000_LEFT
62
7
6
CONTINUOUS
10
252.8960771923
20
151.0517242843
11
252.8960771923
21
155.1517242843
0
LINE
8
11000_LEFT
62
7
6
CONTINUOUS
10
252.8960771923
20
156.2517242843
11
252.8960771923
21
160.3517242843
0
LINE
8
11000_LEFT
62
7
6
CONTINUOUS
10
252.8960771923
20
161.4517242843
11
252.8960771923
21
165.5517242843
0
LINE
8
11000_LEFT
62
7
6
CONTINUOUS
10
252.8960771923
20
177.0517242843
11
252.8960771923
21
181.1517242843
0
LINE
8
11000_LEFT
62
7
6
CONTINUOUS
10
252.8960771923
20
182.2517242843
11
252.8960771923
21
186.3517242843
0
LINE
8
11000_LEFT
62
7
6
CONTINUOUS
10
252.8960771923
20
187.4517242843
11
252.8960771923
21
191.5517242843
0
LINE
8
11000_LEFT
62
7
6
CONTINUOUS
10
252.8960771923
20
192.6517242843
11
252.8960771923
21
196.7517242843
0
LINE
8
11000_LEFT
62
7
6
CONTINUOUS
10
252.8960771923
20
197.8517242843
11
252.8960771923
21
201.9517242843
0
LINE
8
11000_LEFT
62
7
6
CONTINUOUS
10
252.8960771923
20
203.0517242843
11
252.8960771923
21
207.1517242843
0
LINE
8
11000_LEFT
62
7
6
CONTINUOUS
10
252.8960771923
20
208.2517242843
11
252.8960771923
21
212.3517242843
0
LINE
8
11000_LEFT
62
7
6
CONTINUOUS
10
252.8960771923
20
213.4517242843
11
252.8960771923
21
217.5517242843
0
LINE
8
11000_LEFT
62
7
6
CONTINUOUS
10
252.8960771923
20
218.6517242843
11
252.8960771923
21
222.7517242843
0
LINE
8
11000_LEFT
62
7
6
CONTINUOUS
10
252.8960771923
20
223.8517242843
11
252.8960771923
21
227.9517242843
0
LINE
8
11000_LEFT
62
7
6
CONTINUOUS
10
253.0960771923
20
167.8017242843
11
253.0960771923
21
174.8017242843
0
LINE
8
11000_LEFT
62
7
6
CONTINUOUS
10
253.3960771923
20
114.1517242843
11
253.3960771923
21
166.0517242843
0
LINE
8
11000_LEFT
62
7
6
CONTINUOUS
10
253.3960771923
20
176.5517242843
11
253.3960771923
21
228.4517242843
0
LINE
8
11000_LEFT
62
7
6
CONTINUOUS
10
253.8460771923
20
234.3017242843
11
253.8460771923
21
234.0017242843
0
LINE
8
11000_LEFT
62
7
6
CONTINUOUS
10
253.8460771923
20
108.3017242843
11
253.8460771923
21
108.6017242843
0
LINE
8
11000_LEFT
62
7
6
CONTINUOUS
10
255.2460771923
20
234.3017242843
11
255.2460771923
21
234.0017242843
0
LINE
8
11000_LEFT
62
7
6
CONTINUOUS
10
255.2460771923
20
108.3017242843
11
255.2460771923
21
108.6017242843
0
LINE
8
13000_TOP
62
7
6
CONTINUOUS
10
146.7027881959
20
74.8789707387
11
146.7877025274
21
74.9214036176
0
LINE
8
10000_FRONT
62
7
6
CONTINUOUS
10
162.2838692646
20
180.0138849547
11
162.1487341504
21
180.0138849547
0
LINE
8
11000_LEFT
62
7
6
CONTINUOUS
10
258.0460771923
20
180.1017242843
11
256.4460771923
21
180.1017242843
0
LINE
8
10000_FRONT
62
7
6
CONTINUOUS
10
162.0811665933
20
180.2841562560
11
162.3514368515
21
180.2841562560
0
LINE
8
10000_FRONT
62
7
6
CONTINUOUS
10
156.0163016627
20
180.2841585544
11
156.3541393588
21
180.2841585544
0
LINE
8
11000_LEFT
62
7
6
CONTINUOUS
10
252.0960771923
20
180.3517242843
11
249.0960771923
21
180.3517242843
0
LINE
8
11000_LEFT
62
7
6
CONTINUOUS
10
252.8960771923
20
181.1517242843
11
248.2960771923
21
181.1517242843
0
LINE
8
11000_LEFT
62
7
6
CONTINUOUS
10
248.2960771923
20
182.2517242843
11
252.8960771923
21
182.2517242843
0
LINE
8
10000_FRONT
62
7
6
CONTINUOUS
10
162.2838692703
20
182.9841591778
11
162.0811666288
21
182.9841591778
0
LINE
8
11000_LEFT
62
7
6
CONTINUOUS
10
249.0960771923
20
183.0517242843
11
252.0960771923
21
183.0517242843
0
LINE
8
10000_FRONT
62
7
6
CONTINUOUS
10
162.0811666288
20
183.2544304791
11
162.2163016834
21
183.2544304791
0
LINE
8
10000_FRONT
62
7
6
CONTINUOUS
10
161.4730584659
20
183.5922676983
11
161.8108962812
21
183.5922676983
0
LINE
8
10000_FRONT
62
7
6
CONTINUOUS
10
162.2163016834
20
183.9301049176
11
162.0135990419
21
183.9301049176
0
LINE
8
10000_FRONT
62
7
6
CONTINUOUS
10
162.0811666288
20
184.2003762188
11
162.2838692703
21
184.2003762188
0
LINE
8
10000_FRONT
62
7
6
CONTINUOUS
10
162.2838692703
20
185.2138878765
11
162.0811666288
21
185.2138878765
0
LINE
8
10000_FRONT
62
7
6
CONTINUOUS
10
162.0811666288
20
185.4841591778
11
162.3514368572
21
185.4841591778
0
LINE
8
11000_LEFT
62
7
6
CONTINUOUS
10
252.0960771923
20
185.5517242843
11
249.0960771923
21
185.5517242843
0
LINE
8
11000_LEFT
62
7
6
CONTINUOUS
10
252.8960771923
20
186.3517242843
11
248.2960771923
21
186.3517242843
0
LINE
8
11000_LEFT
62
7
6
CONTINUOUS
10
248.2960771923
20
187.4517242843
11
252.8960771923
21
187.4517242843
0
LINE
8
10000_FRONT
62
7
6
CONTINUOUS
10
162.0811665603
20
188.1841593400
11
162.3514368483
21
188.1841593400
0
LINE
8
11000_LEFT
62
7
6
CONTINUOUS
10
249.0960771923
20
188.2517242843
11
252.0960771923
21
188.2517242843
0
LINE
8
10000_FRONT
62
7
6
CONTINUOUS
10
162.3514368483
20
188.4544306413
11
162.0811665603
21
188.4544306413
0
LINE
8
10000_FRONT
62
7
6
CONTINUOUS
10
162.0811665603
20
189.3328028337
11
162.3514368483
21
189.3328028337
0
LINE
8
10000_FRONT
62
7
6
CONTINUOUS
10
162.3514368483
20
189.6706400529
11
162.0811665603
21
189.6706400529
0
LINE
8
10000_FRONT
62
7
6
CONTINUOUS
10
162.3514368483
20
190.4138880388
11
162.0811665603
21
190.4138880388
0
LINE
8
10000_FRONT
62
7
6
CONTINUOUS
10
162.0135989734
20
190.6841593400
11
162.4190044352
21
190.6841593400
0
LINE
8
11000_LEFT
62
7
6
CONTINUOUS
10
252.0960771923
20
190.7517242843
11
249.0960771923
21
190.7517242843
0
LINE
8
11000_LEFT
62
7
6
CONTINUOUS
10
252.8960771923
20
191.5517242843
11
248.2960771923
21
191.5517242843
0
LINE
8
11000_LEFT
62
7
6
CONTINUOUS
10
248.2960771923
20
192.6517242843
11
252.8960771923
21
192.6517242843
0
LINE
8
10000_FRONT
62
7
6
CONTINUOUS
10
162.0811665781
20
193.4517229853
11
161.7433287628
21
193.4517229853
0
LINE
8
11000_LEFT
62
7
6
CONTINUOUS
10
249.0960771923
20
193.4517242843
11
252.0960771923
21
193.4517242843
0
LINE
8
10000_FRONT
62
7
6
CONTINUOUS
10
162.6892746902
20
201.0165913116
11
162.4190044618
21
201.0841572296
0
LINE
8
10000_FRONT
62
7
6
CONTINUOUS
10
162.0811665451
20
203.7841598267
11
161.8108961975
21
203.8517257447
0
LINE
8
10000_FRONT
62
7
6
CONTINUOUS
10
161.8784638859
20
198.6517231475
11
162.0811665273
21
198.5841572296
0
LINE
8
10000_FRONT
62
7
6
CONTINUOUS
10
162.6217071033
20
200.1382114898
11
162.4190044618
21
200.2057774078
0
LINE
8
10000_FRONT
62
7
6
CONTINUOUS
10
162.4190044796
20
205.4057800049
11
162.6217071211
21
205.3382140870
0
LINE
8
10000_FRONT
62
7
6
CONTINUOUS
10
162.8919773938
20
215.3328050415
11
162.7568422498
21
215.4003709594
0
LINE
8
10000_FRONT
62
7
6
CONTINUOUS
10
162.3514368476
20
216.4138902465
11
162.4865719618
21
216.3463166992
0
LINE
8
10000_FRONT
62
7
6
CONTINUOUS
10
162.4865719618
20
221.5463221269
11
162.3514368476
21
221.6138880449
0
LINE
8
10000_FRONT
62
7
6
CONTINUOUS
10
162.6217071356
20
221.8165857988
11
162.8244098069
21
221.6814539629
0
LINE
8
11000_LEFT
62
7
6
CONTINUOUS
10
256.4460771923
20
221.7017242843
11
256.4460771923
21
219.7017242843
0
LINE
8
11000_LEFT
62
7
6
CONTINUOUS
10
256.4460771923
20
200.9017242843
11
256.4460771923
21
198.9017242843
0
LINE
8
11000_LEFT
62
7
6
CONTINUOUS
10
256.4460771923
20
180.1017242843
11
256.4460771923
21
178.1017242843
0
LINE
8
11000_LEFT
62
7
6
CONTINUOUS
10
256.4460771923
20
164.5017242843
11
256.4460771923
21
162.5017242843
0
LINE
8
11000_LEFT
62
7
6
CONTINUOUS
10
256.4460771923
20
143.7017242843
11
256.4460771923
21
141.7017242843
0
LINE
8
11000_LEFT
62
7
6
CONTINUOUS
10
256.4460771923
20
122.9017242843
11
256.4460771923
21
120.9017242843
0
LINE
8
11000_LEFT
62
7
6
CONTINUOUS
10
256.6460771923
20
234.3017242843
11
256.6460771923
21
234.0017242843
0
LINE
8
11000_LEFT
62
7
6
CONTINUOUS
10
256.6460771923
20
108.3017242843
11
256.6460771923
21
108.6017242843
0
LINE
8
11000_LEFT
62
7
6
CONTINUOUS
10
258.0460771923
20
234.3017242843
11
258.0460771923
21
234.0017242843
0
LINE
8
11000_LEFT
62
7
6
CONTINUOUS
10
258.0460771923
20
108.3017242843
11
258.0460771923
21
108.6017242843
0
LINE
8
11000_LEFT
62
7
6
CONTINUOUS
10
258.0460771923
20
120.9017242843
11
258.0460771923
21
122.9017242843
0
LINE
8
11000_LEFT
62
7
6
CONTINUOUS
10
258.0460771923
20
141.7017242843
11
258.0460771923
21
143.7017242843
0
LINE
8
11000_LEFT
62
7
6
CONTINUOUS
10
258.0460771923
20
162.5017242843
11
258.0460771923
21
164.5017242843
0
LINE
8
11000_LEFT
62
7
6
CONTINUOUS
10
258.0460771923
20
178.1017242843
11
258.0460771923
21
180.1017242843
0
LINE
8
11000_LEFT
62
7
6
CONTINUOUS
10
258.0460771923
20
198.9017242843
11
258.0460771923
21
200.9017242843
0
LINE
8
11000_LEFT
62
7
6
CONTINUOUS
10
258.0460771923
20
219.7017242843
11
258.0460771923
21
221.7017242843
0
LINE
8
11000_LEFT
62
7
6
CONTINUOUS
10
259.3460771923
20
110.2017242843
11
259.3460771923
21
232.4017242843
0
LINE
8
11000_LEFT
62
7
6
CONTINUOUS
10
259.4460771923
20
234.3017242843
11
259.4460771923
21
232.4017242843
0
LINE
8
11000_LEFT
62
7
6
CONTINUOUS
10
259.4460771923
20
108.3017242843
11
259.4460771923
21
110.2017242843
0
LINE
8
91000_TIP
62
7
6
CONTINUOUS
10
259.8659879657
20
23.0812834733
11
259.8659879657
21
13.0812836775
0
LINE
8
11000_LEFT
62
7
6
CONTINUOUS
10
260.8460771923
20
234.3017242843
11
260.8460771923
21
234.0017242843
0
LINE
8
11000_LEFT
62
7
6
CONTINUOUS
10
260.8460771923
20
108.3017242843
11
260.8460771923
21
108.6017242843
0
LINE
8
11000_LEFT
62
7
6
CONTINUOUS
10
260.8460771923
20
110.2017242843
11
260.8460771923
21
113.2017242843
0
LINE
8
11000_LEFT
62
7
6
CONTINUOUS
10
260.8460771923
20
229.4017242843
11
260.8460771923
21
232.4017242843
0
LINE
8
11000_LEFT
62
7
6
CONTINUOUS
10
262.2460771923
20
234.3017242843
11
262.2460771923
21
234.0017242843
0
LINE
8
11000_LEFT
62
7
6
CONTINUOUS
10
262.2460771923
20
108.3017242843
11
262.2460771923
21
108.6017242843
0
LINE
8
11000_LEFT
62
7
6
CONTINUOUS
10
263.4460771923
20
113.2017242843
11
263.4460771923
21
113.6017242843
0
LINE
8
11000_LEFT
62
7
6
CONTINUOUS
10
263.4460771923
20
229.0017242843
11
263.4460771923
21
229.4017242843
0
LINE
8
11000_LEFT
62
7
6
CONTINUOUS
10
264.7460771923
20
232.3017242843
11
264.7460771923
21
229.4017242843
0
LINE
8
11000_LEFT
62
7
6
CONTINUOUS
10
264.7460771923
20
113.2017242843
11
264.7460771923
21
110.3017242843
0
LINE
8
11000_LEFT
62
7
6
CONTINUOUS
10
264.7460771923
20
113.6017242843
11
264.7460771923
21
229.0017242843
0
LINE
8
91000_TIP
62
7
6
CENTER
10
266.3659878329
20
12.3598023690
11
266.3659878329
21
23.6431883690
0
LINE
8
10000_FRONT
62
7
6
CONTINUOUS
10
162.3514368483
20
188.1841593400
11
162.6217071363
21
188.2517252580
0
LINE
8
10000_FRONT
62
7
6
CONTINUOUS
10
162.6217071540
20
195.5463198481
11
161.4054908283
21
195.5463198481
0
LINE
8
10000_FRONT
62
7
6
CONTINUOUS
10
161.4054908283
20
195.8841570673
11
162.9595449693
21
195.8841570673
0
LINE
8
11000_LEFT
62
7
6
CONTINUOUS
10
252.0960771923
20
195.9517242843
11
249.0960771923
21
195.9517242843
0
LINE
8
11000_LEFT
62
7
6
CONTINUOUS
10
252.8960771923
20
196.7517242843
11
248.2960771923
21
196.7517242843
0
LINE
8
11000_LEFT
62
7
6
CONTINUOUS
10
248.2960771923
20
197.8517242843
11
252.8960771923
21
197.8517242843
0
LINE
8
10000_FRONT
62
7
6
CONTINUOUS
10
162.0811665273
20
198.5841572296
11
162.3514368749
21
198.5841572296
0
LINE
8
11000_LEFT
62
7
6
CONTINUOUS
10
249.0960771923
20
198.6517242843
11
252.0960771923
21
198.6517242843
0
LINE
8
10000_FRONT
62
7
6
CONTINUOUS
10
162.3514368749
20
198.8544285308
11
162.1487341142
21
198.8544285308
0
LINE
8
11000_LEFT
62
7
6
CONTINUOUS
10
256.4460771923
20
198.9017242843
11
258.0460771923
21
198.9017242843
0
LINE
8
10000_FRONT
62
7
6
CONTINUOUS
10
163.0271125055
20
199.2598316680
11
162.6892746902
21
199.2598316680
0
LINE
8
10000_FRONT
62
7
6
CONTINUOUS
10
162.1487341142
20
199.9355061065
11
162.3514368749
21
199.9355061065
0
LINE
8
10000_FRONT
62
7
6
CONTINUOUS
10
162.4190044618
20
200.2057774078
11
162.2163017011
21
200.2057774078
0
LINE
8
10000_FRONT
62
7
6
CONTINUOUS
10
162.6892746902
20
200.4760487091
11
163.0271125055
21
200.4760487091
0
LINE
8
10000_FRONT
62
7
6
CONTINUOUS
10
162.2163017011
20
200.8138859283
11
162.4190044618
21
200.8138859283
0
LINE
8
11000_LEFT
62
7
6
CONTINUOUS
10
258.0460771923
20
200.9017242843
11
256.4460771923
21
200.9017242843
0
LINE
8
10000_FRONT
62
7
6
CONTINUOUS
10
162.4190044618
20
201.0841572296
11
162.1487341142
21
201.0841572296
0
LINE
8
11000_LEFT
62
7
6
CONTINUOUS
10
252.0960771923
20
201.1517242843
11
249.0960771923
21
201.1517242843
0
LINE
8
11000_LEFT
62
7
6
CONTINUOUS
10
252.8960771923
20
201.9517242843
11
248.2960771923
21
201.9517242843
0
LINE
8
11000_LEFT
62
7
6
CONTINUOUS
10
248.2960771923
20
203.0517242843
11
252.8960771923
21
203.0517242843
0
LINE
8
10000_FRONT
62
7
6
CONTINUOUS
10
162.3514368927
20
203.7841598267
11
162.0811665451
21
203.7841598267
0
LINE
8
11000_LEFT
62
7
6
CONTINUOUS
10
249.0960771923
20
203.8517242843
11
252.0960771923
21
203.8517242843
0
LINE
8
10000_FRONT
62
7
6
CONTINUOUS
10
162.0811665451
20
204.0544234986
11
162.3514368927
21
204.0544234986
0
LINE
8
10000_FRONT
62
7
6
CONTINUOUS
10
161.4730585014
20
204.3922683472
11
161.8108961975
21
204.3922683472
0
LINE
8
10000_FRONT
62
7
6
CONTINUOUS
10
161.8108961975
20
204.7976714844
11
161.4730585014
21
204.7976714844
0
LINE
8
10000_FRONT
62
7
6
CONTINUOUS
10
162.3514368927
20
205.1355087037
11
162.1487341320
21
205.1355087037
0
LINE
8
10000_FRONT
62
7
6
CONTINUOUS
10
162.2163017189
20
205.4057800049
11
162.4190044796
21
205.4057800049
0
LINE
8
11000_LEFT
62
7
6
CONTINUOUS
10
229.8460771923
20
205.8017242843
11
233.5460771923
21
205.8017242843
0
LINE
8
10000_FRONT
62
7
6
CONTINUOUS
10
162.8919773495
20
206.0138885254
11
161.8784637844
21
206.0138885254
0
LINE
8
10000_FRONT
62
7
6
CONTINUOUS
10
161.5406260883
20
206.2841598267
11
162.8919773495
21
206.2841598267
0
LINE
8
11000_LEFT
62
7
6
CONTINUOUS
10
252.0960771923
20
206.3517242843
11
249.0960771923
21
206.3517242843
0
LINE
8
11000_LEFT
62
7
6
CONTINUOUS
10
252.8960771923
20
207.1517242843
11
248.2960771923
21
207.1517242843
0
LINE
8
11000_LEFT
62
7
6
CONTINUOUS
10
233.7460771923
20
207.4017242843
11
231.2960771923
21
207.4017242843
0
LINE
8
11000_LEFT
62
7
6
CONTINUOUS
10
248.2960771923
20
208.2517242843
11
252.8960771923
21
208.2517242843
0
LINE
8
10000_FRONT
62
7
6
CONTINUOUS
10
162.7568422516
20
209.0517258780
11
162.4865719636
21
209.0517258780
0
LINE
8
11000_LEFT
62
7
6
CONTINUOUS
10
249.0960771923
20
209.0517242843
11
252.0960771923
21
209.0517242843
0
LINE
8
10000_FRONT
62
7
6
CONTINUOUS
10
161.6081935723
20
209.8625321524
11
161.3379233439
21
209.9301056998
0
LINE
8
10000_FRONT
62
7
6
CONTINUOUS
10
161.8108963312
20
214.2517274658
11
162.0811665596
21
214.1841539184
0
LINE
8
10000_FRONT
62
7
6
CONTINUOUS
10
162.3514368476
20
221.8841593462
11
162.6217071356
21
221.8165857988
0
LINE
8
10000_FRONT
62
7
6
CONTINUOUS
10
162.0811665596
20
214.4544252197
11
161.8784639181
21
214.5219911377
0
LINE
8
10000_FRONT
62
7
6
CONTINUOUS
10
162.2838692607
20
215.3328050415
11
162.4865719618
21
215.2652391235
0
LINE
8
10000_FRONT
62
7
6
CONTINUOUS
10
162.7568422498
20
215.4003709594
11
162.5541395487
21
215.4679368774
0
LINE
8
10000_FRONT
62
7
6
CONTINUOUS
10
162.6217071356
20
216.6165880005
11
162.4190044345
21
216.6841539184
0
LINE
8
11000_LEFT
62
7
6
CONTINUOUS
10
229.8460771923
20
205.8017242843
11
228.8460771923
21
206.3790745535
0
LINE
8
90000_FRAME
62
7
6
CONTINUOUS
10
275.0000000000
20
10.0000000000
11
275.0000000000
21
28.0000000000
0
LINE
8
90000_FRAME
62
7
6
CONTINUOUS
10
284.7029938783
20
16.8387078159
11
284.7029938783
21
17.7893616325
0
LINE
8
10000_FRONT
62
7
6
CONTINUOUS
10
163.1622476538
20
209.5922684806
11
161.3379233439
21
209.5922684806
0
LINE
8
10000_FRONT
62
7
6
CONTINUOUS
10
161.6081935723
20
209.8625321524
11
163.1622476538
21
209.8625321524
0
LINE
8
11000_LEFT
62
7
6
CONTINUOUS
10
233.7460771923
20
210.9017242843
11
231.3283128547
21
210.9017242843
0
LINE
8
11000_LEFT
62
7
6
CONTINUOUS
10
233.7460771923
20
211.4017242843
11
231.3283128547
21
211.4017242843
0
LINE
8
10000_FRONT
62
7
6
CONTINUOUS
10
162.4190044363
20
211.4841599600
11
162.7568422516
21
211.4841599600
0
LINE
8
11000_LEFT
62
7
6
CONTINUOUS
10
252.0960771923
20
211.5517242843
11
249.0960771923
21
211.5517242843
0
LINE
8
11000_LEFT
62
7
6
CONTINUOUS
10
252.8960771923
20
212.3517242843
11
248.2960771923
21
212.3517242843
0
LINE
8
11000_LEFT
62
7
6
CONTINUOUS
10
248.2960771923
20
213.4517242843
11
252.8960771923
21
213.4517242843
0
LINE
8
10000_FRONT
62
7
6
CONTINUOUS
10
162.0811665596
20
214.1841539184
11
162.3514368476
21
214.1841539184
0
LINE
8
11000_LEFT
62
7
6
CONTINUOUS
10
249.0960771923
20
214.2517242843
11
252.0960771923
21
214.2517242843
0
LINE
8
10000_FRONT
62
7
6
CONTINUOUS
10
162.3514368476
20
214.4544252197
11
162.0811665596
21
214.4544252197
0
LINE
8
10000_FRONT
62
7
6
CONTINUOUS
10
161.7433287443
20
214.8598359863
11
161.4054909290
21
214.8598359863
0
LINE
8
10000_FRONT
62
7
6
CONTINUOUS
10
162.0135989727
20
215.3328050415
11
162.2838692607
21
215.3328050415
0
LINE
8
10000_FRONT
62
7
6
CONTINUOUS
10
162.2163017334
20
215.6030763427
11
162.0135989727
21
215.6030763427
0
LINE
8
10000_FRONT
62
7
6
CONTINUOUS
10
161.4730585159
20
216.0760453979
11
161.8108963312
21
216.0760453979
0
LINE
8
10000_FRONT
62
7
6
CONTINUOUS
10
162.0811665596
20
216.4138902465
11
162.3514368476
21
216.4138902465
0
LINE
8
10000_FRONT
62
7
6
CONTINUOUS
10
162.4190044345
20
216.6841539184
11
162.0811665596
21
216.6841539184
0
LINE
8
11000_LEFT
62
7
6
CONTINUOUS
10
252.0960771923
20
216.7517242843
11
249.0960771923
21
216.7517242843
0
LINE
8
11000_LEFT
62
7
6
CONTINUOUS
10
252.8960771923
20
217.5517242843
11
248.2960771923
21
217.5517242843
0
LINE
8
11000_LEFT
62
7
6
CONTINUOUS
10
248.2960771923
20
218.6517242843
11
252.8960771923
21
218.6517242843
0
LINE
8
10000_FRONT
62
7
6
CONTINUOUS
10
163.0271125229
20
219.4517252641
11
161.4730585159
21
219.4517252641
0
LINE
8
11000_LEFT
62
7
6
CONTINUOUS
10
249.0960771923
20
219.4517242843
11
252.0960771923
21
219.4517242843
0
LINE
8
11000_LEFT
62
7
6
CONTINUOUS
10
256.4460771923
20
219.7017242843
11
258.0460771923
21
219.7017242843
0
LINE
8
10000_FRONT
62
7
6
CONTINUOUS
10
161.8784639181
20
219.7219965654
11
163.0271125229
21
219.7219965654
0
LINE
8
10000_FRONT
62
7
6
CONTINUOUS
10
161.8784639181
20
221.2084772783
11
161.4730585159
21
221.2084772783
0
LINE
8
10000_FRONT
62
7
6
CONTINUOUS
10
162.3514368476
20
221.6138880449
11
162.1487341465
21
221.6138880449
0
LINE
8
11000_LEFT
62
7
6
CONTINUOUS
10
258.0460771923
20
221.7017242843
11
256.4460771923
21
221.7017242843
0
LINE
8
10000_FRONT
62
7
6
CONTINUOUS
10
162.1487341465
20
221.8841593462
11
162.3514368476
21
221.8841593462
0
LINE
8
11000_LEFT
62
7
6
CONTINUOUS
10
252.0960771923
20
221.9517242843
11
249.0960771923
21
221.9517242843
0
LINE
8
11000_LEFT
62
7
6
CONTINUOUS
10
252.8960771923
20
222.7517242843
11
248.2960771923
21
222.7517242843
0
LINE
8
90000_FRAME
62
7
6
CONTINUOUS
10
288.0302822366
20
20.4987250100
11
288.0302822366
21
21.4493788266
0
LINE
8
90000_FRAME
62
7
6
CONTINUOUS
10
289.1235341257
20
21.4969115175
11
289.1235341257
21
16.7436424342
0
LINE
8
90000_FRAME
62
7
6
CONTINUOUS
10
290.5495148507
20
21.4969115175
11
290.5495148507
21
16.7436424342
0
LINE
8
90000_FRAME
62
7
6
CONTINUOUS
10
291.6427667399
20
21.4969115175
11
291.6427667399
21
16.7436424342
0
LINE
8
90000_FRAME
62
7
6
CONTINUOUS
10
293.0212147740
20
20.6175567371
11
293.0212147740
21
19.5480711933
0
LINE
8
90000_FRAME
62
7
6
CONTINUOUS
10
293.0212147740
20
18.7637817946
11
293.0212147740
21
17.6467635600
0
LINE
8
90000_FRAME
62
7
6
CONTINUOUS
10
294.8749897165
20
19.5480711933
11
294.8749897165
21
18.7637817946
0
LINE
8
90000_FRAME
62
7
6
CONTINUOUS
10
295.1601858615
20
21.4969115175
11
295.1601858615
21
20.6175567371
0
LINE
8
90000_FRAME
62
7
6
CONTINUOUS
10
295.2077185523
20
17.6467635600
11
295.2077185523
21
16.7436424342
0
LINE
8
90000_FRAME
62
7
6
CONTINUOUS
10
296.0157742965
20
16.7436424342
11
296.0157742965
21
21.4969115175
0
LINE
8
90000_FRAME
62
7
6
CONTINUOUS
10
296.9664281131
20
16.7436424342
11
296.9664281131
21
19.7857346475
0
LINE
8
10000_FRONT
62
7
6
CONTINUOUS
10
161.8784639181
20
221.8165857988
11
162.1487341465
21
221.8841593462
0
LINE
8
10000_FRONT
62
7
6
CONTINUOUS
10
162.0811665596
20
216.6841539184
11
161.8108963312
21
216.6165880005
0
LINE
8
11000_LEFT
62
7
6
CONTINUOUS
10
248.2960771923
20
223.8517242843
11
252.8960771923
21
223.8517242843
0
LINE
8
10000_FRONT
62
7
6
CONTINUOUS
10
162.5541395469
20
224.6517268664
11
162.2163017316
21
224.6517268664
0
LINE
8
11000_LEFT
62
7
6
CONTINUOUS
10
249.0960771923
20
224.6517242843
11
252.0960771923
21
224.6517242843
0
LINE
8
10000_FRONT
62
7
6
CONTINUOUS
10
162.2163017316
20
227.0841533190
11
162.5541395469
21
227.0841533190
0
LINE
8
11000_LEFT
62
7
6
CONTINUOUS
10
252.0960771923
20
227.1517242843
11
249.0960771923
21
227.1517242843
0
LINE
8
11000_LEFT
62
7
6
CONTINUOUS
10
252.8960771923
20
227.9517242843
11
248.2960771923
21
227.9517242843
0
LINE
8
11000_LEFT
62
7
6
CONTINUOUS
10
253.3960771923
20
228.4517242843
11
247.7960771923
21
228.4517242843
0
LINE
8
10000_FRONT
62
7
6
CONTINUOUS
10
153.2027881959
20
228.4517242843
11
152.7027881959
21
228.4517242843
0
LINE
8
10000_FRONT
62
7
6
CONTINUOUS
10
153.2295831152
20
229.0017242843
11
163.7027881959
21
229.0017242843
0
LINE
8
11000_LEFT
62
7
6
CONTINUOUS
10
259.3460771923
20
229.0017242843
11
264.7460771923
21
229.0017242843
0
LINE
8
10000_FRONT
62
7
6
CONTINUOUS
10
140.6027881959
20
229.4017242843
11
153.0420186805
21
229.4017242843
0
LINE
8
10000_FRONT
62
7
6
CONTINUOUS
10
153.5779170653
20
229.4017242843
11
163.7027881959
21
229.4017242843
0
LINE
8
11000_LEFT
62
7
6
CONTINUOUS
10
243.2460771923
20
229.4017242843
11
244.7460771923
21
229.4017242843
0
LINE
8
11000_LEFT
62
7
6
CONTINUOUS
10
259.3460771923
20
229.4017242843
11
264.7460771923
21
229.4017242843
0
LINE
8
10000_FRONT
62
7
6
CONTINUOUS
10
153.2027881959
20
232.4017242843
11
153.5779170653
21
232.4017242843
0
LINE
8
11000_LEFT
62
7
6
CONTINUOUS
10
259.3460771923
20
232.4017242843
11
260.8460771923
21
232.4017242843
0
LINE
8
10000_FRONT
62
7
6
CONTINUOUS
10
140.6027881959
20
234.3017242843
11
153.1759932767
21
234.3017242843
0
LINE
8
10000_FRONT
62
7
6
CONTINUOUS
10
153.2027881959
20
234.3017242843
11
163.7027881959
21
234.3017242843
0
LINE
8
11000_LEFT
62
7
6
CONTINUOUS
10
242.6460771923
20
234.3017242843
11
243.2460771923
21
234.3017242843
0
LINE
8
11000_LEFT
62
7
6
CONTINUOUS
10
245.2460771923
20
234.3017242843
11
246.8460771923
21
234.3017242843
0
LINE
8
11000_LEFT
62
7
6
CONTINUOUS
10
262.2460771923
20
234.3017242843
11
262.7460771923
21
234.3017242843
0
LINE
8
10000_FRONT
62
7
6
CONTINUOUS
10
141.5224034382
20
237.0017242843
11
162.4827881959
21
237.0017242843
0
LINE
8
10000_FRONT
62
7
6
CONTINUOUS
10
141.0027881959
20
237.9017242843
11
163.0024034382
21
237.9017242843
0
LINE
8
11000_LEFT
62
7
6
CONTINUOUS
10
233.7460771923
20
237.4221642323
11
235.2460771923
21
237.3959816349
0
LINE
8
90000_FRAME
62
7
6
CONTINUOUS
10
300.4838472348
20
19.8332673383
11
300.4838472348
21
16.7436424342
0
LINE
8
90000_FRAME
62
7
6
CONTINUOUS
10
301.8622952689
20
21.4969115175
11
301.8622952689
21
16.7436424342
0
LINE
8
90000_FRAME
62
7
6
CONTINUOUS
10
302.9555471581
20
21.4969115175
11
302.9555471581
21
16.7436424342
0
LINE
8
90000_FRAME
62
7
6
CONTINUOUS
10
304.3339951922
20
20.6175567371
11
304.3339951922
21
19.5480711933
0
LINE
8
90000_FRAME
62
7
6
CONTINUOUS
10
304.3339951922
20
18.7637817946
11
304.3339951922
21
17.6467635600
0
LINE
8
90000_FRAME
62
7
6
CONTINUOUS
10
306.1877701347
20
19.5480711933
11
306.1877701347
21
18.7637817946
0
LINE
8
90000_FRAME
62
7
6
CONTINUOUS
10
306.4729662797
20
21.4969115175
11
306.4729662797
21
20.6175567371
0
LINE
8
90000_FRAME
62
7
6
CONTINUOUS
10
306.5204989705
20
17.6467635600
11
306.5204989705
21
16.7436424342
0
LINE
8
90000_FRAME
62
7
6
CONTINUOUS
10
307.3047883693
20
16.7436424342
11
307.3047883693
21
21.4969115175
0
LINE
8
90000_FRAME
62
7
6
CONTINUOUS
10
308.2554421859
20
16.7436424342
11
308.2554421859
21
19.7857346475
0
LINE
8
90000_FRAME
62
7
6
CONTINUOUS
10
310.5370113459
20
21.4969115175
11
310.5370113459
21
18.5498846858
0
LINE
8
90000_FRAME
62
7
6
CONTINUOUS
10
311.4876651625
20
21.4969115175
11
311.4876651625
21
16.7436424342
0
LINE
8
90000_FRAME
62
7
6
CONTINUOUS
10
312.2957209067
20
16.8387078159
11
312.2957209067
21
17.7893616325
0
LINE
8
10000_FRONT
62
7
6
CONTINUOUS
10
163.1027881959
20
238.8017242843
11
141.1027881959
21
238.8017242843
0
LINE
8
11000_LEFT
62
7
6
CONTINUOUS
10
234.2460771923
20
238.8017242843
11
242.1460771923
21
238.8017242843
0
LINE
8
11000_LEFT
62
7
6
CONTINUOUS
10
248.2460771923
20
234.0017242843
11
246.8460771923
21
234.3017242843
0
LINE
8
11000_LEFT
62
7
6
CONTINUOUS
10
249.6460771923
20
234.0017242843
11
248.2460771923
21
234.3017242843
0
LINE
8
11000_LEFT
62
7
6
CONTINUOUS
10
251.0460771923
20
234.0017242843
11
249.6460771923
21
234.3017242843
0
LINE
8
11000_LEFT
62
7
6
CONTINUOUS
10
252.4460771923
20
234.0017242843
11
251.0460771923
21
234.3017242843
0
LINE
8
11000_LEFT
62
7
6
CONTINUOUS
10
253.8460771923
20
234.0017242843
11
252.4460771923
21
234.3017242843
0
LINE
8
11000_LEFT
62
7
6
CONTINUOUS
10
255.2460771923
20
234.0017242843
11
253.8460771923
21
234.3017242843
0
LINE
8
11000_LEFT
62
7
6
CONTINUOUS
10
256.6460771923
20
234.0017242843
11
255.2460771923
21
234.3017242843
0
LINE
8
11000_LEFT
62
7
6
CONTINUOUS
10
258.0460771923
20
234.0017242843
11
256.6460771923
21
234.3017242843
0
LINE
8
11000_LEFT
62
7
6
CONTINUOUS
10
259.4460771923
20
234.0017242843
11
258.0460771923
21
234.3017242843
0
LINE
8
11000_LEFT
62
7
6
CONTINUOUS
10
259.4460771923
20
234.3017242843
11
260.8460771923
21
234.0017242843
0
LINE
8
11000_LEFT
62
7
6
CONTINUOUS
10
262.2460771923
20
234.0017242843
11
260.8460771923
21
234.3017242843
0
LINE
8
90000_FRAME
62
7
6
CONTINUOUS
10
315.6230092650
20
20.4987250100
11
315.6230092650
21
21.4493788266
0
LINE
8
90000_FRAME
62
7
6
CONTINUOUS
10
325.0000000000
20
10.0000000000
11
325.0000000000
21
28.0000000000
0
LINE
8
90000_FRAME
62
7
6
CONTINUOUS
10
300.1511183989
20
21.4969115175
11
298.9628011281
21
18.5974173767
0
LINE
8
90000_FRAME
62
7
6
CONTINUOUS
10
300.4838472348
20
19.8332673383
11
299.1529318914
21
16.6961097434
0
LINE
8
90000_FRAME
62
7
6
CONTINUOUS
10
284.8948224676
20
20.9161059766
11
285.1688882922
21
21.1901790542
0
LINE
8
90000_FRAME
62
7
6
CONTINUOUS
10
415.0000000000
20
292.0000000000
11
5.0000000000
21
292.0000000000
0
LINE
8
90000_FRAME
62
7
6
CONTINUOUS
10
420.0000000000
20
297.0000000000
11
0.0000000000
21
297.0000000000
0
LINE
8
90000_FRAME
62
7
6
CONTINUOUS
10
367.5000000000
20
10.0000000000
11
367.5000000000
21
16.0000000000
0
LINE
8
90000_FRAME
62
7
6
CONTINUOUS
10
410.0000000000
20
10.0000000000
11
410.0000000000
21
28.0000000000
0
LINE
8
90000_FRAME
62
7
6
CONTINUOUS
10
415.0000000000
20
5.0000000000
11
415.0000000000
21
292.0000000000
0
LINE
8
90000_FRAME
62
7
6
CONTINUOUS
10
420.0000000000
20
0.0000000000
11
420.0000000000
21
297.0000000000
0
ARC
8
10000_FRONT
62
7
6
CONTINUOUS
10
163.1027881959
20
238.3017242843
40
0.5000000000
50
0.0000000000
51
90.0000000000
0
ARC
8
10000_FRONT
62
7
6
CONTINUOUS
10
141.1027881959
20
238.3017242843
40
0.5000000000
50
90.0000000000
51
180.0000000000
0
CIRCLE
8
10000_FRONT
62
7
6
CONTINUOUS
10
158.9027881959
20
163.5017242843
40
2.0000000000
0
CIRCLE
8
10000_FRONT
62
7
6
CONTINUOUS
10
158.9027881959
20
158.3017242843
40
2.0000000000
0
CIRCLE
8
10000_FRONT
62
7
6
CONTINUOUS
10
158.9027881959
20
153.1017242843
40
2.0000000000
0
CIRCLE
8
10000_FRONT
62
7
6
CONTINUOUS
10
158.9027881959
20
147.9017242843
40
2.0000000000
0
CIRCLE
8
10000_FRONT
62
7
6
CONTINUOUS
10
158.9027881959
20
142.7017242843
40
2.0000000000
0
CIRCLE
8
10000_FRONT
62
7
6
CONTINUOUS
10
158.9027881959
20
137.5017242843
40
2.0000000000
0
CIRCLE
8
10000_FRONT
62
7
6
CONTINUOUS
10
158.9027881959
20
132.3017242843
40
2.0000000000
0
CIRCLE
8
10000_FRONT
62
7
6
CONTINUOUS
10
158.9027881959
20
127.1017242843
40
2.0000000000
0
CIRCLE
8
10000_FRONT
62
7
6
CONTINUOUS
10
158.9027881959
20
121.9017242843
40
2.0000000000
0
CIRCLE
8
10000_FRONT
62
7
6
CONTINUOUS
10
158.9027881959
20
116.7017242843
40
2.0000000000
0
CIRCLE
8
10000_FRONT
62
7
6
CONTINUOUS
10
158.9027881959
20
179.1017242843
40
2.0000000000
0
CIRCLE
8
10000_FRONT
62
7
6
CONTINUOUS
10
158.9027881959
20
184.3017242843
40
2.0000000000
0
CIRCLE
8
10000_FRONT
62
7
6
CONTINUOUS
10
158.9027881959
20
189.5017242843
40
2.0000000000
0
CIRCLE
8
10000_FRONT
62
7
6
CONTINUOUS
10
158.9027881959
20
194.7017242843
40
2.0000000000
0
CIRCLE
8
10000_FRONT
62
7
6
CONTINUOUS
10
158.9027881959
20
199.9017242843
40
2.0000000000
0
CIRCLE
8
10000_FRONT
62
7
6
CONTINUOUS
10
158.9027881959
20
205.1017242843
40
2.0000000000
0
CIRCLE
8
10000_FRONT
62
7
6
CONTINUOUS
10
158.9027881959
20
210.3017242843
40
2.0000000000
0
CIRCLE
8
10000_FRONT
62
7
6
CONTINUOUS
10
158.9027881959
20
215.5017242843
40
2.0000000000
0
CIRCLE
8
10000_FRONT
62
7
6
CONTINUOUS
10
158.9027881959
20
220.7017242843
40
2.0000000000
0
CIRCLE
8
10000_FRONT
62
7
6
CONTINUOUS
10
158.9027881959
20
225.9017242843
40
2.0000000000
0
CIRCLE
8
10000_FRONT
62
7
6
CONTINUOUS
10
148.3027881959
20
177.3017242843
40
2.0000000000
0
CIRCLE
8
10000_FRONT
62
7
6
CONTINUOUS
10
148.3027881959
20
165.3017242843
40
2.0000000000
0
ARC
8
13000_TOP
62
7
6
CONTINUOUS
10
163.1027881959
20
71.8429576580
40
0.5000000000
50
0.0000000000
51
90.0000000000
0
ARC
8
13000_TOP
62
7
6
CONTINUOUS
10
163.1027881959
20
63.9429576580
40
0.5000000000
50
270.0000000000
51
360.0000000000
0
ARC
8
13000_TOP
62
7
6
CONTINUOUS
10
160.2027881959
20
59.3429576580
40
2.0000000000
50
0.0000000000
51
90.0000000000
0
ARC
8
13000_TOP
62
7
6
CONTINUOUS
10
161.2027881959
20
42.3429576580
40
1.0000000000
50
270.0000000000
51
360.0000000000
0
ARC
8
13000_TOP
62
7
6
CONTINUOUS
10
155.0065824098
20
41.8429576580
40
0.5000000000
50
195.0000000000
51
270.0000000000
0
ARC
8
13000_TOP
62
7
6
CONTINUOUS
10
150.2027881959
20
59.2429576580
40
3.0000000000
50
0.0000000000
51
88.0605400921
0
ARC
8
11000_LEFT
62
7
6
CONTINUOUS
10
242.1460771923
20
238.3017242843
40
0.5000000000
50
0.0000000000
51
90.0000000000
0
ARC
8
11000_LEFT
62
7
6
CONTINUOUS
10
234.2460771923
20
238.3017242843
40
0.5000000000
50
90.0000000000
51
180.0000000000
0
ARC
8
11000_LEFT
62
7
6
CONTINUOUS
10
233.5460771923
20
205.6017242843
40
0.2000000000
50
0.0000000000
51
90.0000000000
0
ARC
8
11000_LEFT
62
7
6
CONTINUOUS
10
233.5460771923
20
123.6017242843
40
0.2000000000
50
0.0000000000
51
90.0000000000
0
ARC
8
11000_LEFT
62
7
6
CONTINUOUS
10
231.3283128547
20
210.9017242843
40
0.5000000000
50
90.0000000000
51
115.0000000000
0
ARC
8
11000_LEFT
62
7
6
CONTINUOUS
10
232.7460771923
20
208.4017242843
40
3.0000000000
50
70.4911131943
51
90.0000000000
0
ARC
8
11000_LEFT
62
7
6
CONTINUOUS
10
230.7569463790
20
210.6352917211
40
0.5000000000
50
3.0000000000
51
115.0000000000
0
ARC
8
11000_LEFT
62
7
6
CONTINUOUS
10
232.7460771923
20
126.4017242843
40
3.0000000000
50
70.4911131943
51
90.0000000000
0
ARC
8
11000_LEFT
62
7
6
CONTINUOUS
10
231.3283128547
20
128.9017242843
40
0.5000000000
50
90.0000000000
51
115.0000000000
0
ARC
8
11000_LEFT
62
7
6
CONTINUOUS
10
230.7569463790
20
128.6352917211
40
0.5000000000
50
3.0000000000
51
115.0000000000
0
ARC
8
11000_LEFT
62
7
6
CONTINUOUS
10
262.7460771923
20
110.3017242843
40
2.0000000000
50
270.0000000000
51
360.0000000000
0
ARC
8
11000_LEFT
62
7
6
CONTINUOUS
10
262.7460771923
20
232.3017242843
40
2.0000000000
50
0.0000000000
51
90.0000000000
0
ARC
8
90000_FRAME
62
7
6
CONTINUOUS
10
314.0003620317
20
18.7008009792
40
1.1116193606
50
277.7099956934
51
295.6884927746
0
ARC
8
90000_FRAME
62
7
6
CONTINUOUS
10
314.2846720145
20
17.9759752156
40
0.3401689265
50
305.5032212550
51
72.4652898523
0
ARC
8
90000_FRAME
62
7
6
CONTINUOUS
10
313.7186782063
20
21.3776821252
40
4.7567946411
50
252.5939200548
51
280.9816604256
0
ARC
8
90000_FRAME
62
7
6
CONTINUOUS
10
314.1735135694
20
18.7596683887
40
2.1007265953
50
282.4058358520
51
311.8644433928
0
ARC
8
90000_FRAME
62
7
6
CONTINUOUS
10
313.8999492223
20
20.3680101102
40
0.3029626476
50
154.4400348282
51
221.8201698801
0
ARC
8
90000_FRAME
62
7
6
CONTINUOUS
10
313.9791703737
20
20.2887889588
40
0.4103089737
50
102.8287828681
51
149.2259639003
0
ARC
8
90000_FRAME
62
7
6
CONTINUOUS
10
314.3961972093
20
18.5464536290
40
2.2018365570
50
84.0400061857
51
103.3427657871
0
ARC
8
90000_FRAME
62
7
6
CONTINUOUS
10
314.0552333846
20
16.1290897051
40
4.6423737365
50
70.2625858546
51
82.9524186380
0
ARC
8
90000_FRAME
62
7
6
CONTINUOUS
10
313.5412151824
20
20.8007125947
40
3.2587559909
50
247.5300206145
51
280.7579522143
0
ARC
8
90000_FRAME
62
7
6
CONTINUOUS
10
307.1562487104
20
2.5491926343
40
17.3316084133
50
65.3414674650
51
67.3997770736
0
ARC
8
90000_FRAME
62
7
6
CONTINUOUS
10
317.9521111158
20
28.3416189974
40
10.6291642039
50
242.8620101252
51
247.1042029186
0
ARC
8
90000_FRAME
62
7
6
CONTINUOUS
10
314.0972098893
20
20.8076875004
40
2.1662916292
50
227.3119280794
51
242.7040315235
0
ARC
8
90000_FRAME
62
7
6
CONTINUOUS
10
313.4931790796
20
20.1020098596
40
1.2385217340
50
194.7952194236
51
225.7176549047
0
ARC
8
90000_FRAME
62
7
6
CONTINUOUS
10
313.5553372138
20
20.1422298287
40
1.3090920729
50
164.1974860461
51
195.8025139539
0
ARC
8
90000_FRAME
62
7
6
CONTINUOUS
10
314.1123609345
20
19.2539626688
40
2.3669248153
50
86.2218022928
51
120.4272602309
0
ARC
8
90000_FRAME
62
7
6
CONTINUOUS
10
313.8435041519
20
12.5577948477
40
9.0679051661
50
78.6827049226
51
87.3147599624
0
ARC
8
90000_FRAME
62
7
6
CONTINUOUS
10
313.3874349735
20
20.2497375912
40
1.1197474440
50
142.8139179030
51
167.1522951417
0
ARC
8
90000_FRAME
62
7
6
CONTINUOUS
10
313.7327443151
20
19.9431558946
40
1.5805466845
50
121.2140948535
51
141.5254768286
0
ARC
8
90000_FRAME
62
7
6
CONTINUOUS
10
314.3099186807
20
20.7542132232
40
0.8661276052
50
222.7760387596
51
239.0362434679
0
ARC
8
90000_FRAME
62
7
6
CONTINUOUS
10
311.8032091024
20
13.4239410246
40
6.8587735763
50
59.9020272560
51
68.2036481279
0
ARC
8
90000_FRAME
62
7
6
CONTINUOUS
10
315.2117035963
20
22.3498275319
40
2.6987410171
50
240.0481997804
51
251.3779673737
0
ARC
8
90000_FRAME
62
7
6
CONTINUOUS
10
314.5462464295
20
18.1929289165
40
1.4334474881
50
315.8904553224
51
333.5229264373
0
ARC
8
90000_FRAME
62
7
6
CONTINUOUS
10
314.5508846732
20
18.1395217664
40
1.4062287119
50
335.3867972702
51
24.3915119402
0
ARC
8
90000_FRAME
62
7
6
CONTINUOUS
10
314.4786797697
20
18.0616650746
40
1.5047025148
50
25.9562916605
51
59.4834829668
0
ARC
8
90000_FRAME
62
7
6
CONTINUOUS
10
286.4076350033
20
18.7008009792
40
1.1116193606
50
277.7099956934
51
295.6884927746
0
ARC
8
90000_FRAME
62
7
6
CONTINUOUS
10
286.6919449860
20
17.9759752156
40
0.3401689265
50
305.5032212556
51
72.4652898515
0
ARC
8
90000_FRAME
62
7
6
CONTINUOUS
10
286.1259511779
20
21.3776821252
40
4.7567946411
50
252.5939200545
51
280.9816604253
0
ARC
8
90000_FRAME
62
7
6
CONTINUOUS
10
286.5807865410
20
18.7596683887
40
2.1007265953
50
282.4058358513
51
311.8644433923
0
ARC
8
90000_FRAME
62
7
6
CONTINUOUS
10
286.3072221939
20
20.3680101102
40
0.3029626476
50
154.4400348282
51
221.8201698801
0
ARC
8
90000_FRAME
62
7
6
CONTINUOUS
10
286.3864433453
20
20.2887889588
40
0.4103089737
50
102.8287828727
51
149.2259639027
0
ARC
8
90000_FRAME
62
7
6
CONTINUOUS
10
286.8034701809
20
18.5464536290
40
2.2018365570
50
84.0400061859
51
103.3427657872
0
ARC
8
90000_FRAME
62
7
6
CONTINUOUS
10
286.4625063562
20
16.1290897051
40
4.6423737365
50
70.2625858546
51
82.9524186379
0
ARC
8
90000_FRAME
62
7
6
CONTINUOUS
10
285.9484881540
20
20.8007125947
40
3.2587559909
50
247.5300206148
51
280.7579522145
0
ARC
8
90000_FRAME
62
7
6
CONTINUOUS
10
279.5635216820
20
2.5491926343
40
17.3316084133
50
65.3414674650
51
67.3997770736
0
ARC
8
90000_FRAME
62
7
6
CONTINUOUS
10
290.3593840874
20
28.3416189974
40
10.6291642039
50
242.8620101252
51
247.1042029185
0
ARC
8
90000_FRAME
62
7
6
CONTINUOUS
10
286.5044828608
20
20.8076875004
40
2.1662916292
50
227.3119280794
51
242.7040315235
0
ARC
8
90000_FRAME
62
7
6
CONTINUOUS
10
285.9004520512
20
20.1020098596
40
1.2385217340
50
194.7952194234
51
225.7176549042
0
ARC
8
90000_FRAME
62
7
6
CONTINUOUS
10
286.5196339060
20
19.2539626688
40
2.3669248153
50
86.2218022928
51
120.4272602309
0
ARC
8
90000_FRAME
62
7
6
CONTINUOUS
10
286.2507771235
20
12.5577948477
40
9.0679051661
50
78.6827049226
51
87.3147599624
0
ARC
8
90000_FRAME
62
7
6
CONTINUOUS
10
286.1400172867
20
19.9431558946
40
1.5805466846
50
121.2140948541
51
141.5254768290
0
ARC
8
90000_FRAME
62
7
6
CONTINUOUS
10
286.7171916523
20
20.7542132232
40
0.8661276052
50
222.7760387596
51
239.0362434679
0
ARC
8
90000_FRAME
62
7
6
CONTINUOUS
10
284.2104820740
20
13.4239410246
40
6.8587735763
50
59.9020272562
51
68.2036481282
0
ARC
8
90000_FRAME
62
7
6
CONTINUOUS
10
287.6189765678
20
22.3498275319
40
2.6987410171
50
240.0481997804
51
251.3779673734
0
ARC
8
90000_FRAME
62
7
6
CONTINUOUS
10
286.9535194010
20
18.1929289165
40
1.4334474881
50
315.8904553226
51
333.5229264375
0
ARC
8
90000_FRAME
62
7
6
CONTINUOUS
10
286.9581576447
20
18.1395217664
40
1.4062287119
50
335.3867972703
51
24.3915119403
0
ARC
8
90000_FRAME
62
7
6
CONTINUOUS
10
286.8859527412
20
18.0616650746
40
1.5047025147
50
25.9562916611
51
59.4834829676
0
ARC
8
90000_FRAME
62
7
6
CONTINUOUS
10
285.9626101853
20
20.1422298287
40
1.3090920729
50
164.1974860461
51
195.8025139539
0
ARC
8
90000_FRAME
62
7
6
CONTINUOUS
10
285.7947079451
20
20.2497375912
40
1.1197474440
50
142.8139179030
51
167.1522951417
0
CIRCLE
8
91000_TIP
62
7
6
CONTINUOUS
10
266.3659878329
20
18.0812835754
40
4.9999998979
0
CIRCLE
8
91000_TIP
62
7
6
CONTINUOUS
10
266.3659878329
20
18.0812835754
40
2.4999999489
0
ENDSEC
0
EOF
