  0
SECTION
  2
HEADER
  9
$ACADVER
  1
AC1015
  9
$ACADMAINTVER
 70
     6
  9
$DWGCODEPAGE
  3
ANSI_1252
  9
$INSBASE
 10
0.0
 20
0.0
 30
0.0
  9
$EXTMIN
 10
0.0
 20
0.0
 30
0.0
  9
$EXTMAX
 10
420.0
 20
297.0
 30
0.0
  9
$LIMMIN
 10
0.0
 20
0.0
  9
$LIMMAX
 10
420.0
 20
297.0
  9
$ORTHOMODE
 70
     0
  9
$REGENMODE
 70
     1
  9
$FILLMODE
 70
     1
  9
$QTEXTMODE
 70
     0
  9
$MIRRTEXT
 70
     1
  9
$LTSCALE
 40
1.0
  9
$ATTMODE
 70
     1
  9
$TEXTSIZE
 40
2.5
  9
$TRACEWID
 40
1.0
  9
$TEXTSTYLE
  7
Standard
  9
$CLAYER
  8
0
  9
$CELTYPE
  6
ByLayer
  9
$CECOLOR
 62
   256
  9
$CELTSCALE
 40
1.0
  9
$DISPSILH
 70
     0
  9
$DIMSCALE
 40
1.0
  9
$DIMASZ
 40
2.5
  9
$DIMEXO
 40
0.625
  9
$DIMDLI
 40
3.75
  9
$DIMRND
 40
0.0
  9
$DIMDLE
 40
0.0
  9
$DIMEXE
 40
1.25
  9
$DIMTP
 40
0.0
  9
$DIMTM
 40
0.0
  9
$DIMTXT
 40
2.5
  9
$DIMCEN
 40
2.5
  9
$DIMTSZ
 40
0.0
  9
$DIMTOL
 70
     0
  9
$DIMLIM
 70
     0
  9
$DIMTIH
 70
     0
  9
$DIMTOH
 70
     0
  9
$DIMSE1
 70
     0
  9
$DIMSE2
 70
     0
  9
$DIMTAD
 70
     1
  9
$DIMZIN
 70
     8
  9
$DIMBLK
  1

  9
$DIMASO
 70
     1
  9
$DIMSHO
 70
     1
  9
$DIMPOST
  1

  9
$DIMAPOST
  1

  9
$DIMALT
 70
     0
  9
$DIMALTD
 70
     3
  9
$DIMALTF
 40
0.0393700787
  9
$DIMLFAC
 40
1.0
  9
$DIMTOFL
 70
     1
  9
$DIMTVP
 40
0.0
  9
$DIMTIX
 70
     0
  9
$DIMSOXD
 70
     0
  9
$DIMSAH
 70
     0
  9
$DIMBLK1
  1

  9
$DIMBLK2
  1

  9
$DIMSTYLE
  2
ISO-25
  9
$DIMCLRD
 70
     0
  9
$DIMCLRE
 70
     0
  9
$DIMCLRT
 70
     0
  9
$DIMTFAC
 40
1.0
  9
$DIMGAP
 40
0.625
  9
$DIMJUST
 70
     0
  9
$DIMSD1
 70
     0
  9
$DIMSD2
 70
     0
  9
$DIMTOLJ
 70
     0
  9
$DIMTZIN
 70
     8
  9
$DIMALTZ
 70
     0
  9
$DIMALTTZ
 70
     0
  9
$DIMUPT
 70
     0
  9
$DIMDEC
 70
     2
  9
$DIMTDEC
 70
     2
  9
$DIMALTU
 70
     2
  9
$DIMALTTD
 70
     3
  9
$DIMTXSTY
  7
Standard
  9
$DIMAUNIT
 70
     0
  9
$DIMADEC
 70
     0
  9
$DIMALTRND
 40
0.0
  9
$DIMAZIN
 70
     0
  9
$DIMDSEP
 70
    44
  9
$DIMATFIT
 70
     3
  9
$DIMFRAC
 70
     0
  9
$DIMLDRBLK
  1

  9
$DIMLUNIT
 70
     2
  9
$DIMLWD
 70
    -2
  9
$DIMLWE
 70
    -2
  9
$DIMTMOVE
 70
     0
  9
$LUNITS
 70
     2
  9
$LUPREC
 70
     4
  9
$SKETCHINC
 40
1.0
  9
$FILLETRAD
 40
10.0
  9
$AUNITS
 70
     0
  9
$AUPREC
 70
     0
  9
$MENU
  1
.
  9
$ELEVATION
 40
0.0
  9
$PELEVATION
 40
0.0
  9
$THICKNESS
 40
0.0
  9
$LIMCHECK
 70
     0
  9
$CHAMFERA
 40
10.0
  9
$CHAMFERB
 40
10.0
  9
$CHAMFERC
 40
20.0
  9
$CHAMFERD
 40
0.0
  9
$SKPOLY
 70
     0
  9
$TDCREATE
 40
2455369.514966366
  9
$TDUCREATE
 40
2455369.431633032
  9
$TDUPDATE
 40
2455369.514966378
  9
$TDUUPDATE
 40
2455369.431633044
  9
$TDINDWG
 40
0.0000000116
  9
$TDUSRTIMER
 40
0.0000000116
  9
$USRTIMER
 70
     1
  9
$ANGBASE
 50
0.0
  9
$ANGDIR
 70
     0
  9
$PDMODE
 70
     0
  9
$PDSIZE
 40
0.0
  9
$PLINEWID
 40
0.0
  9
$SPLFRAME
 70
     0
  9
$SPLINETYPE
 70
     6
  9
$SPLINESEGS
 70
     8
  9
$HANDSEED
  5
314
  9
$SURFTAB1
 70
     6
  9
$SURFTAB2
 70
     6
  9
$SURFTYPE
 70
     6
  9
$SURFU
 70
     6
  9
$SURFV
 70
     6
  9
$UCSBASE
  2

  9
$UCSNAME
  2

  9
$UCSORG
 10
0.0
 20
0.0
 30
0.0
  9
$UCSXDIR
 10
1.0
 20
0.0
 30
0.0
  9
$UCSYDIR
 10
0.0
 20
1.0
 30
0.0
  9
$UCSORTHOREF
  2

  9
$UCSORTHOVIEW
 70
     0
  9
$UCSORGTOP
 10
0.0
 20
0.0
 30
0.0
  9
$UCSORGBOTTOM
 10
0.0
 20
0.0
 30
0.0
  9
$UCSORGLEFT
 10
0.0
 20
0.0
 30
0.0
  9
$UCSORGRIGHT
 10
0.0
 20
0.0
 30
0.0
  9
$UCSORGFRONT
 10
0.0
 20
0.0
 30
0.0
  9
$UCSORGBACK
 10
0.0
 20
0.0
 30
0.0
  9
$PUCSBASE
  2

  9
$PUCSNAME
  2

  9
$PUCSORG
 10
0.0
 20
0.0
 30
0.0
  9
$PUCSXDIR
 10
1.0
 20
0.0
 30
0.0
  9
$PUCSYDIR
 10
0.0
 20
1.0
 30
0.0
  9
$PUCSORTHOREF
  2

  9
$PUCSORTHOVIEW
 70
     0
  9
$PUCSORGTOP
 10
0.0
 20
0.0
 30
0.0
  9
$PUCSORGBOTTOM
 10
0.0
 20
0.0
 30
0.0
  9
$PUCSORGLEFT
 10
0.0
 20
0.0
 30
0.0
  9
$PUCSORGRIGHT
 10
0.0
 20
0.0
 30
0.0
  9
$PUCSORGFRONT
 10
0.0
 20
0.0
 30
0.0
  9
$PUCSORGBACK
 10
0.0
 20
0.0
 30
0.0
  9
$USERI1
 70
     0
  9
$USERI2
 70
     0
  9
$USERI3
 70
     0
  9
$USERI4
 70
     0
  9
$USERI5
 70
     0
  9
$USERR1
 40
0.0
  9
$USERR2
 40
0.0
  9
$USERR3
 40
0.0
  9
$USERR4
 40
0.0
  9
$USERR5
 40
0.0
  9
$WORLDVIEW
 70
     1
  9
$SHADEDGE
 70
     3
  9
$SHADEDIF
 70
    70
  9
$TILEMODE
 70
     1
  9
$MAXACTVP
 70
    64
  9
$PINSBASE
 10
0.0
 20
0.0
 30
0.0
  9
$PLIMCHECK
 70
     0
  9
$PEXTMIN
 10
0.0
 20
0.0
 30
0.0
  9
$PEXTMAX
 10
420.0
 20
297.0
 30
0.0
  9
$PLIMMIN
 10
0.0
 20
0.0
  9
$PLIMMAX
 10
420.0
 20
297.0
  9
$UNITMODE
 70
     0
  9
$VISRETAIN
 70
     1
  9
$PLINEGEN
 70
     0
  9
$PSLTSCALE
 70
     1
  9
$TREEDEPTH
 70
  3020
  9
$CMLSTYLE
  2
Standard
  9
$CMLJUST
 70
     0
  9
$CMLSCALE
 40
20.0
  9
$PROXYGRAPHICS
 70
     1
  9
$MEASUREMENT
 70
     1
  9
$CELWEIGHT
370
    -1
  9
$ENDCAPS
280
     0
  9
$JOINSTYLE
280
     0
  9
$LWDISPLAY
290
     0
  9
$INSUNITS
 70
     4
  9
$HYPERLINKBASE
  1

  9
$STYLESHEET
  1

  9
$XEDIT
290
     1
  9
$CEPSNTYPE
380
     0
  9
$PSTYLEMODE
290
     1
  9
$FINGERPRINTGUID
  2
{44816644-DD67-40AC-A1B8-C59FF0BB9DC0}
  9
$VERSIONGUID
  2
{FAEB1C32-E019-11D5-929B-00C0DF256EC4}
  9
$EXTNAMES
290
     1
  9
$PSVPSCALE
 40
0.0
  9
$OLESTARTUP
290
     0
  0
ENDSEC
  0
SECTION
  2
CLASSES
  0
CLASS
  1
ACDBDICTIONARYWDFLT
  2
AcDbDictionaryWithDefault
  3
ObjectDBX Classes
 90
        0
280
     0
281
     0
  0
CLASS
  1
ACDBPLACEHOLDER
  2
AcDbPlaceHolder
  3
ObjectDBX Classes
 90
        0
280
     0
281
     0
  0
CLASS
  1
LAYOUT
  2
AcDbLayout
  3
ObjectDBX Classes
 90
        0
280
     0
281
     0
  0
ENDSEC
  0
SECTION
  2
TABLES
  0
TABLE
  2
VPORT
  5
8
330
0
100
AcDbSymbolTable
 70
     1
  0
VPORT
  5
29
330
8
100
AcDbSymbolTableRecord
100
AcDbViewportTableRecord
  2
*Active
 70
     0
 10
0.0
 20
0.0
 11
1.0
 21
1.0
 12
344.1869158879
 22
148.5
 13
0.0
 23
0.0
 14
10.0
 24
10.0
 15
10.0
 25
10.0
 16
0.0
 26
0.0
 36
1.0
 17
0.0
 27
0.0
 37
0.0
 40
297.0
 41
1.9729729729
 42
50.0
 43
0.0
 44
0.0
 50
0.0
 51
0.0
 71
     0
 72
   100
 73
     1
 74
     3
 75
     0
 76
     0
 77
     0
 78
     0
281
     0
 65
     1
110
0.0
120
0.0
130
0.0
111
1.0
121
0.0
131
0.0
112
0.0
122
1.0
132
0.0
 79
     0
146
0.0
  0
ENDTAB
  0
TABLE
  2
LTYPE
  5
5
330
0
100
AcDbSymbolTable
 70
     2
  0
LTYPE
  5
14
330
5
100
AcDbSymbolTableRecord
100
AcDbLinetypeTableRecord
  2
ByBlock
 70
     0
  3

 72
    65
 73
     0
 40
0.0
  0
LTYPE
  5
15
330
5
100
AcDbSymbolTableRecord
100
AcDbLinetypeTableRecord
  2
ByLayer
 70
     0
  3

 72
    65
 73
     0
 40
0.0
  0
LTYPE
  5
16
330
5
100
AcDbSymbolTableRecord
100
AcDbLinetypeTableRecord
  2
Continuous
 70
     0
  3
Solid line
 72
    65
 73
     0
 40
0.0
  0
LTYPE
  5
2A3
330
5
100
AcDbSymbolTableRecord
100
AcDbLinetypeTableRecord
  2
CENTER2
 70
     0
  3
Center (.5x) ___ _ ___ _ ___ _ ___ _ ___ _ ___
 72
    65
 73
     4
 40
28.575
 49
19.05
 74
     4
 75
     0
340
0
 46
0.0
 50
0.0
 44
0.0
 45
0.0
 49
-3.175
 74
     4
 75
     0
340
0
 46
0.0
 50
0.0
 44
0.0
 45
0.0
 49
3.175
 74
     4
 75
     0
340
0
 46
0.0
 50
0.0
 44
0.0
 45
0.0
 49
-3.175
 74
     4
 75
     0
340
0
 46
0.0
 50
0.0
 44
0.0
 45
0.0
  0
ENDTAB
  0
TABLE
  2
LAYER
  5
2
330
0
100
AcDbSymbolTable
 70
    14
  0
LAYER
  5
10
330
2
100
AcDbSymbolTableRecord
100
AcDbLayerTableRecord
  2
0
 70
     0
 62
     7
  6
Continuous
370
    -3
390
F
  0
LAYER
  5
2A
330
2
100
AcDbSymbolTableRecord
100
AcDbLayerTableRecord
  2
Default
 70
     0
 62
     7
  6
Continuous
370
    -3
390
F
  0
LAYER
  5
2D
330
2
100
AcDbSymbolTableRecord
100
AcDbLayerTableRecord
  2
GEHÄUSE_VORDERTE
 70
     0
 62
     7
  6
Continuous
370
    -3
390
F
  0
LAYER
  5
94
330
2
100
AcDbSymbolTableRecord
100
AcDbLayerTableRecord
  2
DC_24V
 70
     0
 62
     7
  6
Continuous
370
    -3
390
F
  0
LAYER
  5
B8
330
2
100
AcDbSymbolTableRecord
100
AcDbLayerTableRecord
  2
PS_307
 70
     0
 62
     7
  6
Continuous
370
    -3
390
F
  0
LAYER
  5
D7
330
2
100
AcDbSymbolTableRecord
100
AcDbLayerTableRecord
  2
SCHALTER_EIN
 70
     0
 62
     7
  6
Continuous
370
    -3
390
F
  0
LAYER
  5
DC
330
2
100
AcDbSymbolTableRecord
100
AcDbLayerTableRecord
  2
SCHALTER_AUS
 70
     0
 62
     7
  6
Continuous
370
    -3
390
F
  0
LAYER
  5
E5
330
2
100
AcDbSymbolTableRecord
100
AcDbLayerTableRecord
  2
ZUSATZPLATINE
 70
     0
 62
     7
  6
Continuous
370
    -3
390
F
  0
LAYER
  5
EA
330
2
100
AcDbSymbolTableRecord
100
AcDbLayerTableRecord
  2
KK_PRIMÄR
 70
     0
 62
     7
  6
Continuous
370
    -3
390
F
  0
LAYER
  5
ED
330
2
100
AcDbSymbolTableRecord
100
AcDbLayerTableRecord
  2
KIPPSCHALTER_26-
 70
     0
 62
     7
  6
Continuous
370
    -3
390
F
  0
LAYER
  5
116
330
2
100
AcDbSymbolTableRecord
100
AcDbLayerTableRecord
  2
LICHTLEITER
 70
     0
 62
     7
  6
Continuous
370
    -3
390
F
  0
LAYER
  5
129
330
2
100
AcDbSymbolTableRecord
100
AcDbLayerTableRecord
  2
DECKEL
 70
     0
 62
     7
  6
Continuous
370
    -3
390
F
  0
LAYER
  5
1E1
330
2
100
AcDbSymbolTableRecord
100
AcDbLayerTableRecord
  2
GEHÄUSEHÄLFTE_HI
 70
     0
 62
     7
  6
Continuous
370
    -3
390
F
  0
LAYER
  5
294
330
2
100
AcDbSymbolTableRecord
100
AcDbLayerTableRecord
  2
91000_TIP
 70
     0
 62
     7
  6
Continuous
370
    -3
390
F
  0
ENDTAB
  0
TABLE
  2
STYLE
  5
3
330
0
100
AcDbSymbolTable
 70
     3
  0
STYLE
  5
11
330
3
100
AcDbSymbolTableRecord
100
AcDbTextStyleTableRecord
  2
Standard
 70
     0
 40
0.0
 41
1.0
 50
0.0
 71
     0
 42
2.5
  3
txt
  4

  0
STYLE
  5
24F
330
3
100
AcDbSymbolTableRecord
100
AcDbTextStyleTableRecord
  2
SEACAD_seiso_ttf
 70
     0
 40
0.0
 41
1.0
 50
0.0
 71
     0
 42
0.2
  3
seiso.ttf
  4

  0
STYLE
  5
28D
330
3
100
AcDbSymbolTableRecord
100
AcDbTextStyleTableRecord
  2
SEACAD_txt_shx
 70
     0
 40
0.0
 41
1.0
 50
0.0
 71
     0
 42
0.2
  3
txt.shx
  4

  0
ENDTAB
  0
TABLE
  2
VIEW
  5
6
330
0
100
AcDbSymbolTable
 70
     0
  0
ENDTAB
  0
TABLE
  2
UCS
  5
7
330
0
100
AcDbSymbolTable
 70
     0
  0
ENDTAB
  0
TABLE
  2
APPID
  5
9
330
0
100
AcDbSymbolTable
 70
     1
  0
APPID
  5
12
330
9
100
AcDbSymbolTableRecord
100
AcDbRegAppTableRecord
  2
ACAD
 70
     0
  0
ENDTAB
  0
TABLE
  2
DIMSTYLE
  5
A
330
0
100
AcDbSymbolTable
 70
     3
100
AcDbDimStyleTable
  0
DIMSTYLE
105
27
330
A
100
AcDbSymbolTableRecord
100
AcDbDimStyleTableRecord
  2
ISO-25
 70
     0
 41
2.5
 42
0.625
 43
3.75
 44
1.25
 73
     0
 74
     0
 77
     1
 78
     8
140
2.5
141
2.5
143
0.0393700787
147
0.625
171
     3
172
     1
271
     2
272
     2
274
     3
278
    44
283
     0
284
     8
340
11
  0
DIMSTYLE
105
240
330
A
100
AcDbSymbolTableRecord
100
AcDbDimStyleTableRecord
  2
Standard
 70
     0
340
11
  0
DIMSTYLE
105
250
102
{ACAD_REACTORS
330
251
330
25B
330
265
330
26F
330
279
330
283
102
}
330
A
100
AcDbSymbolTableRecord
100
AcDbDimStyleTableRecord
  2
Siemens
 70
     0
 41
5.0
 42
0.0
 44
2.5
 73
     0
 74
     0
 77
     1
 78
     8
140
5.0
141
2.5
147
2.5
172
     1
173
     1
179
     1
271
     2
272
     2
278
    44
284
     8
340
24F
343
24A
344
24A
  0
ENDTAB
  0
TABLE
  2
BLOCK_RECORD
  5
1
330
0
100
AcDbSymbolTable
 70
    12
  0
BLOCK_RECORD
  5
1F
330
1
100
AcDbSymbolTableRecord
100
AcDbBlockTableRecord
  2
*Model_Space
340
22
  0
BLOCK_RECORD
  5
1B
330
1
100
AcDbSymbolTableRecord
100
AcDbBlockTableRecord
  2
*Paper_Space
340
1E
  0
BLOCK_RECORD
  5
2B
330
1
100
AcDbSymbolTableRecord
100
AcDbBlockTableRecord
  2
SE
340
0
102
{BLKREFS
331
2C
102
}
1001
ACAD
1000
DesignCenter Data
1002
{
1070
     1
1070
     0
1002
}
  0
BLOCK_RECORD
  5
195
330
1
100
AcDbSymbolTableRecord
100
AcDbBlockTableRecord
  2
SE1
340
0
102
{BLKREFS
331
196
102
}
1001
ACAD
1000
DesignCenter Data
1002
{
1070
     1
1070
     0
1002
}
  0
BLOCK_RECORD
  5
241
330
1
100
AcDbSymbolTableRecord
100
AcDbBlockTableRecord
  2
_Oblique
340
0
1001
ACAD
1000
DesignCenter Data
1002
{
1070
     1
1070
     0
1002
}
  0
BLOCK_RECORD
  5
245
330
1
100
AcDbSymbolTableRecord
100
AcDbBlockTableRecord
  2
_Dot
340
0
1001
ACAD
1000
DesignCenter Data
1002
{
1070
     1
1070
     0
1002
}
  0
BLOCK_RECORD
  5
24A
330
1
100
AcDbSymbolTableRecord
100
AcDbBlockTableRecord
  2
_SE_FILLED
340
0
1001
ACAD
1000
DesignCenter Data
1002
{
1070
     1
1070
     0
1002
}
  0
BLOCK_RECORD
  5
252
330
1
100
AcDbSymbolTableRecord
100
AcDbBlockTableRecord
  2
DMBLK17
340
0
1001
ACAD
1000
DesignCenter Data
1002
{
1070
     1
1070
     0
1002
}
  0
BLOCK_RECORD
  5
25C
330
1
100
AcDbSymbolTableRecord
100
AcDbBlockTableRecord
  2
DMBLK18
340
0
1001
ACAD
1000
DesignCenter Data
1002
{
1070
     1
1070
     0
1002
}
  0
BLOCK_RECORD
  5
266
330
1
100
AcDbSymbolTableRecord
100
AcDbBlockTableRecord
  2
DMBLK19
340
0
1001
ACAD
1000
DesignCenter Data
1002
{
1070
     1
1070
     0
1002
}
  0
BLOCK_RECORD
  5
270
330
1
100
AcDbSymbolTableRecord
100
AcDbBlockTableRecord
  2
DMBLK20
340
0
1001
ACAD
1000
DesignCenter Data
1002
{
1070
     1
1070
     0
1002
}
  0
BLOCK_RECORD
  5
27A
330
1
100
AcDbSymbolTableRecord
100
AcDbBlockTableRecord
  2
DMBLK21
340
0
1001
ACAD
1000
DesignCenter Data
1002
{
1070
     1
1070
     0
1002
}
  0
BLOCK_RECORD
  5
284
330
1
100
AcDbSymbolTableRecord
100
AcDbBlockTableRecord
  2
DMBLK22
340
0
1001
ACAD
1000
DesignCenter Data
1002
{
1070
     1
1070
     0
1002
}
  0
ENDTAB
  0
ENDSEC
  0
SECTION
  2
BLOCKS
  0
BLOCK
  5
20
330
1F
100
AcDbEntity
  8
0
100
AcDbBlockBegin
  2
*Model_Space
 70
     0
 71
     0
 10
0.0
 20
0.0
 30
0.0
  3
*Model_Space
  1

  0
ENDBLK
  5
21
330
1F
100
AcDbEntity
  8
0
100
AcDbBlockEnd
  0
BLOCK
  5
1C
330
1B
100
AcDbEntity
 67
     1
  8
0
100
AcDbBlockBegin
  2
*Paper_Space
 70
     0
 71
     0
 10
0.0
 20
0.0
 30
0.0
  3
*Paper_Space
  1

  0
ENDBLK
  5
1D
330
1B
100
AcDbEntity
 67
     1
  8
0
100
AcDbBlockEnd
  0
BLOCK
  5
193
330
2B
100
AcDbEntity
  8
0
100
AcDbBlockBegin
  2
SE
 70
     0
 71
     0
 10
0.0
 20
0.0
 30
0.0
  3
SE
  1

  0
LINE
  5
2E
330
2B
100
AcDbEntity
  8
GEHÄUSE_VORDERTE
  6
Continuous
 62
     7
100
AcDbLine
 10
155.5503623385
 20
194.0505351838
 30
0.0
 11
155.5503623385
 21
195.2505351838
 31
0.0
  0
LINE
  5
2F
330
2B
100
AcDbEntity
  8
GEHÄUSE_VORDERTE
  6
Continuous
 62
     7
100
AcDbLine
 10
152.7003623385
 20
195.2505351838
 30
0.0
 11
154.5503623385
 21
195.2505351838
 31
0.0
  0
LINE
  5
30
330
2B
100
AcDbEntity
  8
GEHÄUSE_VORDERTE
  6
Continuous
 62
     7
100
AcDbLine
 10
78.4003623385
 20
195.2505351838
 30
0.0
 11
76.5503623385
 21
195.2505351838
 31
0.0
  0
LINE
  5
31
330
2B
100
AcDbEntity
  8
GEHÄUSE_VORDERTE
  6
Continuous
 62
     7
100
AcDbLine
 10
75.5503623385
 20
195.2505351838
 30
0.0
 11
75.5503623385
 21
194.0505351838
 31
0.0
  0
LINE
  5
32
330
2B
100
AcDbEntity
  8
GEHÄUSE_VORDERTE
  6
Continuous
 62
     7
100
AcDbLine
 10
77.9003623385
 20
175.9473222668
 30
0.0
 11
77.9003623385
 21
176.5505351838
 31
0.0
  0
LINE
  5
33
330
2B
100
AcDbEntity
  8
GEHÄUSE_VORDERTE
  6
Continuous
 62
     7
100
AcDbLine
 10
153.2003623385
 20
176.5505351838
 30
0.0
 11
153.2003623385
 21
175.9473222668
 31
0.0
  0
LINE
  5
34
330
2B
100
AcDbEntity
  8
GEHÄUSE_VORDERTE
  6
Continuous
 62
     7
100
AcDbLine
 10
153.2003623385
 20
195.2505351838
 30
0.0
 11
153.2003623385
 21
193.2029280984
 31
0.0
  0
LINE
  5
35
330
2B
100
AcDbEntity
  8
GEHÄUSE_VORDERTE
  6
Continuous
 62
     7
100
AcDbLine
 10
152.7003623385
 20
189.0078315391
 30
0.0
 11
152.7003623385
 21
195.2505351838
 31
0.0
  0
LINE
  5
36
330
2B
100
AcDbEntity
  8
GEHÄUSE_VORDERTE
  6
Continuous
 62
     7
100
AcDbLine
 10
153.2003623385
 20
186.8505351838
 30
0.0
 11
153.2003623385
 21
184.1398959352
 31
0.0
  0
LINE
  5
37
330
2B
100
AcDbEntity
  8
GEHÄUSE_VORDERTE
  6
Continuous
 62
     7
100
AcDbLine
 10
153.2003623385
 20
179.0473222668
 30
0.0
 11
153.2003623385
 21
176.68450978
 31
0.0
  0
LINE
  5
38
330
2B
100
AcDbEntity
  8
GEHÄUSE_VORDERTE
  6
Continuous
 62
     7
100
AcDbLine
 10
153.2003623385
 20
186.8505351838
 30
0.0
 11
153.2003623385
 21
187.2431132029
 31
0.0
  0
LINE
  5
39
330
2B
100
AcDbEntity
  8
GEHÄUSE_VORDERTE
  6
Continuous
 62
     7
100
AcDbLine
 10
152.7003623385
 20
189.0078315391
 30
0.0
 11
152.7003623385
 21
187.3505351838
 31
0.0
  0
SPLINE
  5
3A
330
2B
100
AcDbEntity
  8
GEHÄUSE_VORDERTE
  6
Continuous
 62
     7
100
AcDbSpline
210
0.0
220
0.0
230
1.0
 70
    12
 71
     2
 72
     6
 73
     3
 74
     0
 42
0.0000000076604444
 43
0.0000000001
 40
0.0
 40
0.0
 40
0.0
 40
1.0
 40
1.0
 40
1.0
 10
153.2003623385106
 20
189.2409853682216
 30
0.0
 41
1.0
 10
152.7003623385106
 20
189.6605351838103
 30
0.0
 41
0.7071067811865441
 10
152.7003623385106
 20
189.0078315391441
 30
0.0
 41
1.0
  0
ARC
  5
3B
330
2B
100
AcDbEntity
  8
GEHÄUSE_VORDERTE
  6
Continuous
 62
     7
100
AcDbCircle
 10
153.2003623385
 20
187.3505351838
 30
0.0
 40
0.5000000000000004
100
AcDbArc
 50
180.0
 51
270.0
  0
SPLINE
  5
3C
330
2B
100
AcDbEntity
  8
GEHÄUSE_VORDERTE
  6
Continuous
 62
     7
100
AcDbSpline
210
0.0
220
0.0
230
1.0
 70
    12
 71
     2
 72
     6
 73
     3
 74
     0
 42
0.0000000113247433
 43
0.0000000001
 40
0.0
 40
0.0
 40
0.0
 40
1.0
 40
1.0
 40
1.0
 10
153.2003623385106
 20
188.6165796269292
 30
0.0
 41
1.0
 10
152.7003623385106
 20
188.6165796269292
 30
0.0
 41
0.7071067811865109
 10
152.7003623385106
 20
188.2335574053697
 30
0.0
 41
1.0
  0
LINE
  5
3D
330
2B
100
AcDbEntity
  8
GEHÄUSE_VORDERTE
  6
Continuous
 62
     7
100
AcDbLine
 10
78.4003623385
 20
195.2505351838
 30
0.0
 11
78.4003623385
 21
189.0078315391
 31
0.0
  0
LINE
  5
3E
330
2B
100
AcDbEntity
  8
GEHÄUSE_VORDERTE
  6
Continuous
 62
     7
100
AcDbLine
 10
78.4003623385
 20
187.3505351838
 30
0.0
 11
78.4003623385
 21
177.5505351838
 31
0.0
  0
LINE
  5
3F
330
2B
100
AcDbEntity
  8
GEHÄUSE_VORDERTE
  6
Continuous
 62
     7
100
AcDbLine
 10
77.9003623385
 20
193.2029280984
 30
0.0
 11
77.9003623385
 21
195.2505351838
 31
0.0
  0
LINE
  5
40
330
2B
100
AcDbEntity
  8
GEHÄUSE_VORDERTE
  6
Continuous
 62
     7
100
AcDbLine
 10
77.9003623385
 20
187.2385808996
 30
0.0
 11
77.9003623385
 21
186.8505351838
 31
0.0
  0
LINE
  5
41
330
2B
100
AcDbEntity
  8
GEHÄUSE_VORDERTE
  6
Continuous
 62
     7
100
AcDbLine
 10
78.4003623385
 20
187.3505351838
 30
0.0
 11
78.4003623385
 21
189.0078315391
 31
0.0
  0
ARC
  5
42
330
2B
100
AcDbEntity
  8
GEHÄUSE_VORDERTE
  6
Continuous
 62
     7
100
AcDbCircle
 10
77.9003623385
 20
187.3505351838
 30
0.0
 40
0.5000000000000004
100
AcDbArc
 50
270.0
 51
360.0
  0
SPLINE
  5
43
330
2B
100
AcDbEntity
  8
GEHÄUSE_VORDERTE
  6
Continuous
 62
     7
100
AcDbSpline
210
0.0
220
0.0
230
1.0
 70
    12
 71
     2
 72
     6
 73
     3
 74
     0
 42
0.0000000076604444
 43
0.0000000001
 40
0.0
 40
0.0
 40
0.0
 40
1.0
 40
1.0
 40
1.0
 10
78.40036233851063
 20
189.0078315391441
 30
0.0
 41
1.0
 10
78.40036233851066
 20
189.6605351838103
 30
0.0
 41
0.7071067811865213
 10
77.90036233851063
 20
189.2409853682216
 30
0.0
 41
1.0
  0
SPLINE
  5
44
330
2B
100
AcDbEntity
  8
GEHÄUSE_VORDERTE
  6
Continuous
 62
     7
100
AcDbSpline
210
0.0
220
0.0
230
1.0
 70
    12
 71
     2
 72
     6
 73
     3
 74
     0
 42
0.0000000113247433
 43
0.0000000001
 40
0.0
 40
0.0
 40
0.0
 40
1.0
 40
1.0
 40
1.0
 10
78.40036233851065
 20
188.2335574053697
 30
0.0
 41
1.0
 10
78.40036233851065
 20
188.6165796269292
 30
0.0
 41
0.7071067811864952
 10
77.90036233851065
 20
188.6165796269292
 30
0.0
 41
1.0
  0
LINE
  5
45
330
2B
100
AcDbEntity
  8
GEHÄUSE_VORDERTE
  6
Continuous
 62
     7
100
AcDbLine
 10
76.5503623385
 20
235.8505351838
 30
0.0
 11
154.5503623385
 21
235.8505351838
 31
0.0
  0
LINE
  5
46
330
2B
100
AcDbEntity
  8
GEHÄUSE_VORDERTE
  6
Continuous
 62
     7
100
AcDbLine
 10
155.5503623385
 20
234.8505351838
 30
0.0
 11
155.5503623385
 21
195.2505351838
 31
0.0
  0
LINE
  5
47
330
2B
100
AcDbEntity
  8
GEHÄUSE_VORDERTE
  6
Continuous
 62
     7
100
AcDbLine
 10
76.5503623385
 20
234.8505351838
 30
0.0
 11
76.5503623385
 21
195.2505351838
 31
0.0
  0
LINE
  5
48
330
2B
100
AcDbEntity
  8
GEHÄUSE_VORDERTE
  6
Continuous
 62
     7
100
AcDbLine
 10
154.5503623385
 20
234.8505351838
 30
0.0
 11
76.5503623385
 21
234.8505351838
 31
0.0
  0
LINE
  5
49
330
2B
100
AcDbEntity
  8
GEHÄUSE_VORDERTE
  6
Continuous
 62
     7
100
AcDbLine
 10
154.5503623385
 20
195.2505351838
 30
0.0
 11
154.5503623385
 21
234.8505351838
 31
0.0
  0
LINE
  5
4A
330
2B
100
AcDbEntity
  8
GEHÄUSE_VORDERTE
  6
Continuous
 62
     7
100
AcDbLine
 10
155.5503623385
 20
195.2505351838
 30
0.0
 11
154.5503623385
 21
195.2505351838
 31
0.0
  0
LINE
  5
4B
330
2B
100
AcDbEntity
  8
GEHÄUSE_VORDERTE
  6
Continuous
 62
     7
100
AcDbLine
 10
75.5503623385
 20
195.2505351838
 30
0.0
 11
75.5503623385
 21
234.8505351838
 31
0.0
  0
LINE
  5
4C
330
2B
100
AcDbEntity
  8
GEHÄUSE_VORDERTE
  6
Continuous
 62
     7
100
AcDbLine
 10
76.5503623385
 20
195.2505351838
 30
0.0
 11
75.5503623385
 21
195.2505351838
 31
0.0
  0
LINE
  5
4D
330
2B
100
AcDbEntity
  8
GEHÄUSE_VORDERTE
  6
Continuous
 62
     7
100
AcDbLine
 10
75.5503623385
 20
234.8505351838
 30
0.0
 11
76.5503623385
 21
234.8505351838
 31
0.0
  0
ARC
  5
4E
330
2B
100
AcDbEntity
  8
GEHÄUSE_VORDERTE
  6
Continuous
 62
     7
100
AcDbCircle
 10
76.5503623385
 20
234.8505351838
 30
0.0
 40
1.000000000000001
100
AcDbArc
 50
90.0
 51
180.0
  0
LINE
  5
4F
330
2B
100
AcDbEntity
  8
GEHÄUSE_VORDERTE
  6
Continuous
 62
     7
100
AcDbLine
 10
76.5503623385
 20
235.8505351838
 30
0.0
 11
76.5503623385
 21
234.8505351838
 31
0.0
  0
LINE
  5
50
330
2B
100
AcDbEntity
  8
GEHÄUSE_VORDERTE
  6
Continuous
 62
     7
100
AcDbLine
 10
154.5503623385
 20
234.8505351838
 30
0.0
 11
155.5503623385
 21
234.8505351838
 31
0.0
  0
LINE
  5
51
330
2B
100
AcDbEntity
  8
GEHÄUSE_VORDERTE
  6
Continuous
 62
     7
100
AcDbLine
 10
154.5503623385
 20
235.8505351838
 30
0.0
 11
154.5503623385
 21
234.8505351838
 31
0.0
  0
ARC
  5
52
330
2B
100
AcDbEntity
  8
GEHÄUSE_VORDERTE
  6
Continuous
 62
     7
100
AcDbCircle
 10
154.5503623385
 20
234.8505351838
 30
0.0
 40
1.000000000000001
100
AcDbArc
 50
0.0
 51
90.0
  0
LINE
  5
53
330
2B
100
AcDbEntity
  8
GEHÄUSE_VORDERTE
  6
Continuous
 62
     7
100
AcDbLine
 10
153.2003623385
 20
176.5505351838
 30
0.0
 11
77.9003623385
 21
176.5505351838
 31
0.0
  0
LINE
  5
54
330
2B
100
AcDbEntity
  8
GEHÄUSE_VORDERTE
  6
Continuous
 62
     7
100
AcDbLine
 10
77.9003623385
 20
176.68450978
 30
0.0
 11
77.9003623385
 21
179.0473222668
 31
0.0
  0
LINE
  5
55
330
2B
100
AcDbEntity
  8
GEHÄUSE_VORDERTE
  6
Continuous
 62
     7
100
AcDbLine
 10
77.9003623385
 20
184.1398959352
 30
0.0
 11
77.9003623385
 21
186.8505351838
 31
0.0
  0
LINE
  5
56
330
2B
100
AcDbEntity
  8
GEHÄUSE_VORDERTE
  6
Continuous
 62
     7
100
AcDbLine
 10
77.9003623385
 20
176.5505351838
 30
0.0
 11
77.9003623385
 21
176.68450978
 31
0.0
  0
ARC
  5
57
330
2B
100
AcDbEntity
  8
GEHÄUSE_VORDERTE
  6
Continuous
 62
     7
100
AcDbCircle
 10
77.4003623385
 20
177.5505351838
 30
0.0
 40
1.0
100
AcDbArc
 50
300.0
 51
360.0
  0
LINE
  5
58
330
2B
100
AcDbEntity
  8
GEHÄUSE_VORDERTE
  6
Continuous
 62
     7
100
AcDbLine
 10
152.7003623385
 20
177.5505351838
 30
0.0
 11
152.7003623385
 21
187.3505351838
 31
0.0
  0
LINE
  5
59
330
2B
100
AcDbEntity
  8
GEHÄUSE_VORDERTE
  6
Continuous
 62
     7
100
AcDbLine
 10
78.4003623385
 20
177.5505351838
 30
0.0
 11
152.7003623385
 21
177.5505351838
 31
0.0
  0
ARC
  5
5A
330
2B
100
AcDbEntity
  8
GEHÄUSE_VORDERTE
  6
Continuous
 62
     7
100
AcDbCircle
 10
153.7003623385
 20
177.5505351838
 30
0.0
 40
1.000000000000001
100
AcDbArc
 50
180.0
 51
240.0
  0
LINE
  5
5B
330
2B
100
AcDbEntity
  8
GEHÄUSE_VORDERTE
  6
Continuous
 62
     7
100
AcDbLine
 10
153.2003623385
 20
176.68450978
 30
0.0
 11
153.2003623385
 21
176.5505351838
 31
0.0
  0
LINE
  5
5C
330
2B
100
AcDbEntity
  8
GEHÄUSE_VORDERTE
  6
Continuous
 62
     7
100
AcDbLine
 10
84.4753623385
 20
179.8059277664
 30
0.0
 11
84.4753623385
 21
190.0551426013
 31
0.0
  0
LINE
  5
5D
330
2B
100
AcDbEntity
  8
GEHÄUSE_VORDERTE
  6
Continuous
 62
     7
100
AcDbLine
 10
84.2675156761
 20
180.5052318568
 30
0.0
 11
84.4753623385
 21
179.8059277664
 31
0.0
  0
SPLINE
  5
5E
330
2B
100
AcDbEntity
  8
GEHÄUSE_VORDERTE
  6
Continuous
 62
     7
100
AcDbSpline
210
0.0
220
0.0
230
1.0
 70
    12
 71
     2
 72
     6
 73
     3
 74
     0
 42
0.0000001705010883
 43
0.0000000001
 40
0.0
 40
0.0
 40
0.0
 40
1.0
 40
1.0
 40
1.0
 10
84.26295210093554
 20
180.5634260920279
 30
0.0
 41
1.0
 10
84.26456275887162
 20
180.5151670037499
 30
0.0
 41
0.9152780938143524
 10
84.26751567614647
 20
180.5052318568216
 30
0.0
 41
1.0
  0
SPLINE
  5
5F
330
2B
100
AcDbEntity
  8
GEHÄUSE_VORDERTE
  6
Continuous
 62
     7
100
AcDbSpline
210
0.0
220
0.0
230
1.0
 70
    12
 71
     2
 72
     6
 73
     3
 74
     0
 42
0.000000001144285
 43
0.0000000001
 40
0.0
 40
0.0
 40
0.0
 40
1.0
 40
1.0
 40
1.0
 10
84.26295210093554
 20
189.2976442755926
 30
0.0
 41
1.0
 10
84.11719885180803
 20
184.9305351838102
 30
0.0
 41
0.8434805037037493
 10
84.26295210093554
 20
180.5634260920278
 30
0.0
 41
1.0
  0
SPLINE
  5
60
330
2B
100
AcDbEntity
  8
GEHÄUSE_VORDERTE
  6
Continuous
 62
     7
100
AcDbSpline
210
0.0
220
0.0
230
1.0
 70
    12
 71
     2
 72
     6
 73
     3
 74
     0
 42
0.0000001705010883
 43
0.0000000001
 40
0.0
 40
0.0
 40
0.0
 40
1.0
 40
1.0
 40
1.0
 10
84.26751567614647
 20
189.3558385107988
 30
0.0
 41
1.0
 10
84.26456275887163
 20
189.3459033638705
 30
0.0
 41
0.9152780938282306
 10
84.26295210093554
 20
189.2976442755926
 30
0.0
 41
1.0
  0
LINE
  5
61
330
2B
100
AcDbEntity
  8
GEHÄUSE_VORDERTE
  6
Continuous
 62
     7
100
AcDbLine
 10
84.4753623385
 20
190.0551426013
 30
0.0
 11
84.2675156761
 21
189.3558385108
 31
0.0
  0
LINE
  5
62
330
2B
100
AcDbEntity
  8
GEHÄUSE_VORDERTE
  6
Continuous
 62
     7
100
AcDbLine
 10
83.6120858459
 20
190.9305351838
 30
0.0
 11
83.0386388312
 21
190.9305351838
 31
0.0
  0
LINE
  5
63
330
2B
100
AcDbEntity
  8
GEHÄUSE_VORDERTE
  6
Continuous
 62
     7
100
AcDbLine
 10
83.3987079809
 20
190.2126212559
 30
0.0
 11
83.2520166961
 21
190.2126212559
 31
0.0
  0
LINE
  5
64
330
2B
100
AcDbEntity
  8
GEHÄUSE_VORDERTE
  6
Continuous
 62
     7
100
AcDbLine
 10
83.3987079809
 20
190.2126212559
 30
0.0
 11
83.6120858459
 21
190.9305351838
 31
0.0
  0
LINE
  5
65
330
2B
100
AcDbEntity
  8
GEHÄUSE_VORDERTE
  6
Continuous
 62
     7
100
AcDbLine
 10
83.3941444057
 20
189.7649732928
 30
0.0
 11
83.2565802713
 21
189.7649732928
 31
0.0
  0
SPLINE
  5
66
330
2B
100
AcDbEntity
  8
GEHÄUSE_VORDERTE
  6
Continuous
 62
     7
100
AcDbSpline
210
0.0
220
0.0
230
1.0
 70
    12
 71
     2
 72
     6
 73
     3
 74
     0
 42
0.0000000223359627
 43
0.0000000001
 40
0.0
 40
0.0
 40
0.0
 40
1.0
 40
1.0
 40
1.0
 10
83.39870798090998
 20
190.2126212559195
 30
0.0
 41
1.0
 10
83.39575506363508
 20
190.1361970487796
 30
0.0
 41
0.9152780938235944
 10
83.39414440569897
 20
189.7649732927944
 30
0.0
 41
1.0
  0
LINE
  5
67
330
2B
100
AcDbEntity
  8
GEHÄUSE_VORDERTE
  6
Continuous
 62
     7
100
AcDbLine
 10
83.3941444057
 20
180.0960970748
 30
0.0
 11
83.2565802713
 21
180.0960970748
 31
0.0
  0
SPLINE
  5
68
330
2B
100
AcDbEntity
  8
GEHÄUSE_VORDERTE
  6
Continuous
 62
     7
100
AcDbSpline
210
0.0
220
0.0
230
1.0
 70
    12
 71
     2
 72
     6
 73
     3
 74
     0
 42
0.0000000010337766
 43
0.0000000001
 40
0.0
 40
0.0
 40
0.0
 40
1.0
 40
1.0
 40
1.0
 10
83.39414440569905
 20
189.7649732927943
 30
0.0
 41
1.0
 10
83.24839115657154
 20
184.9305351838102
 30
0.0
 41
0.8434805037037492
 10
83.39414440569905
 20
180.096097074826
 30
0.0
 41
1.0
  0
LINE
  5
69
330
2B
100
AcDbEntity
  8
GEHÄUSE_VORDERTE
  6
Continuous
 62
     7
100
AcDbLine
 10
83.3987079809
 20
179.6484491117
 30
0.0
 11
83.2520166961
 21
179.6484491117
 31
0.0
  0
SPLINE
  5
6A
330
2B
100
AcDbEntity
  8
GEHÄUSE_VORDERTE
  6
Continuous
 62
     7
100
AcDbSpline
210
0.0
220
0.0
230
1.0
 70
    12
 71
     2
 72
     6
 73
     3
 74
     0
 42
0.0000000223359627
 43
0.0000000001
 40
0.0
 40
0.0
 40
0.0
 40
1.0
 40
1.0
 40
1.0
 10
83.39414440569897
 20
180.096097074826
 30
0.0
 41
1.0
 10
83.39575506363508
 20
179.7248733188408
 30
0.0
 41
0.9152780938235948
 10
83.39870798090998
 20
179.6484491117009
 30
0.0
 41
1.0
  0
LINE
  5
6B
330
2B
100
AcDbEntity
  8
GEHÄUSE_VORDERTE
  6
Continuous
 62
     7
100
AcDbLine
 10
83.6120858459
 20
178.9305351838
 30
0.0
 11
83.3987079809
 21
179.6484491117
 31
0.0
  0
SPLINE
  5
6C
330
2B
100
AcDbEntity
  8
GEHÄUSE_VORDERTE
  6
Continuous
 62
     7
100
AcDbSpline
210
0.0
220
0.0
230
1.0
 70
    12
 71
     2
 72
     6
 73
     3
 74
     0
 42
0.0000000057515258
 43
0.0000000001
 40
0.0
 40
0.0
 40
0.0
 40
1.0
 40
1.0
 40
1.0
 10
84.47536233851064
 20
190.0551426012673
 30
0.0
 41
1.0
 10
84.47536233851062
 20
190.9305351838101
 30
0.0
 41
0.7103126225220179
 10
83.61208584586278
 20
190.9305351838102
 30
0.0
 41
1.0
  0
SPLINE
  5
6D
330
2B
100
AcDbEntity
  8
GEHÄUSE_VORDERTE
  6
Continuous
 62
     7
100
AcDbSpline
210
0.0
220
0.0
230
1.0
 70
    12
 71
     2
 72
     6
 73
     3
 74
     0
 42
0.0000000057515258
 43
0.0000000001
 40
0.0
 40
0.0
 40
0.0
 40
1.0
 40
1.0
 40
1.0
 10
83.61208584586268
 20
178.9305351838102
 30
0.0
 41
1.0
 10
84.47536233851064
 20
178.9305351838102
 30
0.0
 41
0.7103126225219576
 10
84.47536233851064
 20
179.8059277663531
 30
0.0
 41
1.0
  0
SPLINE
  5
6E
330
2B
100
AcDbEntity
  8
GEHÄUSE_VORDERTE
  6
Continuous
 62
     7
100
AcDbSpline
210
0.0
220
0.0
230
1.0
 70
    12
 71
     2
 72
     6
 73
     3
 74
     0
 42
0.0000000058475426
 43
0.0000000001
 40
0.0
 40
0.0
 40
0.0
 40
1.0
 40
1.0
 40
1.0
 10
83.39870798090999
 20
179.648449111701
 30
0.0
 41
1.0
 10
84.2596910248523
 20
179.6561654639527
 30
0.0
 41
0.710312622522009
 10
84.26751567614649
 20
180.5052318568216
 30
0.0
 41
1.0
  0
SPLINE
  5
6F
330
2B
100
AcDbEntity
  8
GEHÄUSE_VORDERTE
  6
Continuous
 62
     7
100
AcDbSpline
210
0.0
220
0.0
230
1.0
 70
    12
 71
     2
 72
     6
 73
     3
 74
     0
 42
0.0000000078040451
 43
0.0000000001
 40
0.0
 40
0.0
 40
0.0
 40
1.0
 40
1.0
 40
1.0
 10
83.39414440569907
 20
180.0960970748261
 30
0.0
 41
1.0
 10
84.22622062961327
 20
180.115854821549
 30
0.0
 41
0.7225456244189208
 10
84.26295210093554
 20
180.5634260920278
 30
0.0
 41
1.0
  0
SPLINE
  5
70
330
2B
100
AcDbEntity
  8
GEHÄUSE_VORDERTE
  6
Continuous
 62
     7
100
AcDbSpline
210
0.0
220
0.0
230
1.0
 70
    12
 71
     2
 72
     6
 73
     3
 74
     0
 42
0.0000000078040451
 43
0.0000000001
 40
0.0
 40
0.0
 40
0.0
 40
1.0
 40
1.0
 40
1.0
 10
84.26295210093555
 20
189.2976442755927
 30
0.0
 41
1.0
 10
84.22622062961315
 20
189.7452155460714
 30
0.0
 41
0.7225456244189555
 10
83.39414440569908
 20
189.7649732927943
 30
0.0
 41
1.0
  0
SPLINE
  5
71
330
2B
100
AcDbEntity
  8
GEHÄUSE_VORDERTE
  6
Continuous
 62
     7
100
AcDbSpline
210
0.0
220
0.0
230
1.0
 70
    12
 71
     2
 72
     6
 73
     3
 74
     0
 42
0.0000000058475426
 43
0.0000000001
 40
0.0
 40
0.0
 40
0.0
 40
1.0
 40
1.0
 40
1.0
 10
84.26751567614647
 20
189.3558385107988
 30
0.0
 41
1.0
 10
84.25969102485234
 20
190.2049049036677
 30
0.0
 41
0.7103126225219826
 10
83.39870798091002
 20
190.2126212559194
 30
0.0
 41
1.0
  0
LINE
  5
72
330
2B
100
AcDbEntity
  8
GEHÄUSE_VORDERTE
  6
Continuous
 62
     7
100
AcDbLine
 10
83.0386388312
 20
178.9305351838
 30
0.0
 11
83.6120858459
 21
178.9305351838
 31
0.0
  0
LINE
  5
73
330
2B
100
AcDbEntity
  8
GEHÄUSE_VORDERTE
  6
Continuous
 62
     7
100
AcDbLine
 10
83.2520166961
 20
179.6484491117
 30
0.0
 11
83.0386388312
 21
178.9305351838
 31
0.0
  0
LINE
  5
74
330
2B
100
AcDbEntity
  8
GEHÄUSE_VORDERTE
  6
Continuous
 62
     7
100
AcDbLine
 10
82.1753623385
 20
190.0551426013
 30
0.0
 11
82.1753623385
 21
179.8059277664
 31
0.0
  0
LINE
  5
75
330
2B
100
AcDbEntity
  8
GEHÄUSE_VORDERTE
  6
Continuous
 62
     7
100
AcDbLine
 10
82.3832090009
 20
189.3558385108
 30
0.0
 11
82.1753623385
 21
190.0551426013
 31
0.0
  0
SPLINE
  5
76
330
2B
100
AcDbEntity
  8
GEHÄUSE_VORDERTE
  6
Continuous
 62
     7
100
AcDbSpline
210
0.0
220
0.0
230
1.0
 70
    12
 71
     2
 72
     6
 73
     3
 74
     0
 42
0.0000001705010883
 43
0.0000000001
 40
0.0
 40
0.0
 40
0.0
 40
1.0
 40
1.0
 40
1.0
 10
82.38777257608571
 20
189.2976442755926
 30
0.0
 41
1.0
 10
82.38616191814961
 20
189.3459033638707
 30
0.0
 41
0.9152780938262134
 10
82.38320900087477
 20
189.3558385107988
 30
0.0
 41
1.0
  0
SPLINE
  5
77
330
2B
100
AcDbEntity
  8
GEHÄUSE_VORDERTE
  6
Continuous
 62
     7
100
AcDbSpline
210
0.0
220
0.0
230
1.0
 70
    12
 71
     2
 72
     6
 73
     3
 74
     0
 42
0.000000001144285
 43
0.0000000001
 40
0.0
 40
0.0
 40
0.0
 40
1.0
 40
1.0
 40
1.0
 10
82.3877725760857
 20
180.5634260920279
 30
0.0
 41
1.0
 10
82.53352582521319
 20
184.9305351838102
 30
0.0
 41
0.8434805037039007
 10
82.3877725760857
 20
189.2976442755925
 30
0.0
 41
1.0
  0
SPLINE
  5
78
330
2B
100
AcDbEntity
  8
GEHÄUSE_VORDERTE
  6
Continuous
 62
     7
100
AcDbSpline
210
0.0
220
0.0
230
1.0
 70
    12
 71
     2
 72
     6
 73
     3
 74
     0
 42
0.0000001705010883
 43
0.0000000001
 40
0.0
 40
0.0
 40
0.0
 40
1.0
 40
1.0
 40
1.0
 10
82.38320900087476
 20
180.5052318568216
 30
0.0
 41
1.0
 10
82.38616191814961
 20
180.5151670037497
 30
0.0
 41
0.9152780938344283
 10
82.38777257608571
 20
180.5634260920278
 30
0.0
 41
1.0
  0
LINE
  5
79
330
2B
100
AcDbEntity
  8
GEHÄUSE_VORDERTE
  6
Continuous
 62
     7
100
AcDbLine
 10
82.1753623385
 20
179.8059277664
 30
0.0
 11
82.3832090009
 21
180.5052318568
 31
0.0
  0
SPLINE
  5
7A
330
2B
100
AcDbEntity
  8
GEHÄUSE_VORDERTE
  6
Continuous
 62
     7
100
AcDbSpline
210
0.0
220
0.0
230
1.0
 70
    12
 71
     2
 72
     6
 73
     3
 74
     0
 42
0.0000000223359627
 43
0.0000000001
 40
0.0
 40
0.0
 40
0.0
 40
1.0
 40
1.0
 40
1.0
 10
83.25201669611127
 20
179.6484491117009
 30
0.0
 41
1.0
 10
83.25496961338617
 20
179.7248733188408
 30
0.0
 41
0.9152780938239635
 10
83.25658027132228
 20
180.096097074826
 30
0.0
 41
1.0
  0
SPLINE
  5
7B
330
2B
100
AcDbEntity
  8
GEHÄUSE_VORDERTE
  6
Continuous
 62
     7
100
AcDbSpline
210
0.0
220
0.0
230
1.0
 70
    12
 71
     2
 72
     6
 73
     3
 74
     0
 42
0.0000000010337766
 43
0.0000000001
 40
0.0
 40
0.0
 40
0.0
 40
1.0
 40
1.0
 40
1.0
 10
83.2565802713222
 20
180.096097074826
 30
0.0
 41
1.0
 10
83.40233352044972
 20
184.9305351838102
 30
0.0
 41
0.8434805037037492
 10
83.2565802713222
 20
189.7649732927944
 30
0.0
 41
1.0
  0
SPLINE
  5
7C
330
2B
100
AcDbEntity
  8
GEHÄUSE_VORDERTE
  6
Continuous
 62
     7
100
AcDbSpline
210
0.0
220
0.0
230
1.0
 70
    12
 71
     2
 72
     6
 73
     3
 74
     0
 42
0.0000000223359627
 43
0.0000000001
 40
0.0
 40
0.0
 40
0.0
 40
1.0
 40
1.0
 40
1.0
 10
83.25658027132228
 20
189.7649732927945
 30
0.0
 41
1.0
 10
83.25496961338617
 20
190.1361970487796
 30
0.0
 41
0.9152780938242707
 10
83.25201669611127
 20
190.2126212559195
 30
0.0
 41
1.0
  0
LINE
  5
7D
330
2B
100
AcDbEntity
  8
GEHÄUSE_VORDERTE
  6
Continuous
 62
     7
100
AcDbLine
 10
83.0386388312
 20
190.9305351838
 30
0.0
 11
83.2520166961
 21
190.2126212559
 31
0.0
  0
SPLINE
  5
7E
330
2B
100
AcDbEntity
  8
GEHÄUSE_VORDERTE
  6
Continuous
 62
     7
100
AcDbSpline
210
0.0
220
0.0
230
1.0
 70
    12
 71
     2
 72
     6
 73
     3
 74
     0
 42
0.0000000057515258
 43
0.0000000001
 40
0.0
 40
0.0
 40
0.0
 40
1.0
 40
1.0
 40
1.0
 10
82.17536233851062
 20
179.8059277663531
 30
0.0
 41
1.0
 10
82.17536233851061
 20
178.9305351838103
 30
0.0
 41
0.710312622521959
 10
83.03863883115848
 20
178.9305351838102
 30
0.0
 41
1.0
  0
SPLINE
  5
7F
330
2B
100
AcDbEntity
  8
GEHÄUSE_VORDERTE
  6
Continuous
 62
     7
100
AcDbSpline
210
0.0
220
0.0
230
1.0
 70
    12
 71
     2
 72
     6
 73
     3
 74
     0
 42
0.0000000057515258
 43
0.0000000001
 40
0.0
 40
0.0
 40
0.0
 40
1.0
 40
1.0
 40
1.0
 10
83.0386388311586
 20
190.9305351838102
 30
0.0
 41
1.0
 10
82.17536233851064
 20
190.9305351838102
 30
0.0
 41
0.7103126225220198
 10
82.17536233851062
 20
190.0551426012673
 30
0.0
 41
1.0
  0
SPLINE
  5
80
330
2B
100
AcDbEntity
  8
GEHÄUSE_VORDERTE
  6
Continuous
 62
     7
100
AcDbSpline
210
0.0
220
0.0
230
1.0
 70
    12
 71
     2
 72
     6
 73
     3
 74
     0
 42
0.0000000058475426
 43
0.0000000001
 40
0.0
 40
0.0
 40
0.0
 40
1.0
 40
1.0
 40
1.0
 10
83.25201669611127
 20
190.2126212559194
 30
0.0
 41
1.0
 10
82.39103365216891
 20
190.2049049036678
 30
0.0
 41
0.7103126225218863
 10
82.38320900087477
 20
189.3558385107988
 30
0.0
 41
1.0
  0
SPLINE
  5
81
330
2B
100
AcDbEntity
  8
GEHÄUSE_VORDERTE
  6
Continuous
 62
     7
100
AcDbSpline
210
0.0
220
0.0
230
1.0
 70
    12
 71
     2
 72
     6
 73
     3
 74
     0
 42
0.0000000078040451
 43
0.0000000001
 40
0.0
 40
0.0
 40
0.0
 40
1.0
 40
1.0
 40
1.0
 10
83.25658027132224
 20
189.7649732927943
 30
0.0
 41
1.0
 10
82.42450404740813
 20
189.7452155460715
 30
0.0
 41
0.7225456244188575
 10
82.38777257608574
 20
189.2976442755927
 30
0.0
 41
1.0
  0
SPLINE
  5
82
330
2B
100
AcDbEntity
  8
GEHÄUSE_VORDERTE
  6
Continuous
 62
     7
100
AcDbSpline
210
0.0
220
0.0
230
1.0
 70
    12
 71
     2
 72
     6
 73
     3
 74
     0
 42
0.0000000078040451
 43
0.0000000001
 40
0.0
 40
0.0
 40
0.0
 40
1.0
 40
1.0
 40
1.0
 10
82.38777257608574
 20
180.5634260920278
 30
0.0
 41
1.0
 10
82.42450404740813
 20
180.115854821549
 30
0.0
 41
0.7225456244189555
 10
83.2565802713222
 20
180.0960970748261
 30
0.0
 41
1.0
  0
SPLINE
  5
83
330
2B
100
AcDbEntity
  8
GEHÄUSE_VORDERTE
  6
Continuous
 62
     7
100
AcDbSpline
210
0.0
220
0.0
230
1.0
 70
    12
 71
     2
 72
     6
 73
     3
 74
     0
 42
0.0000000058475426
 43
0.0000000001
 40
0.0
 40
0.0
 40
0.0
 40
1.0
 40
1.0
 40
1.0
 10
82.38320900087479
 20
180.5052318568216
 30
0.0
 41
1.0
 10
82.39103365216896
 20
179.6561654639527
 30
0.0
 41
0.71031262252191
 10
83.25201669611126
 20
179.648449111701
 30
0.0
 41
1.0
  0
LINE
  5
84
330
2B
100
AcDbEntity
  8
GEHÄUSE_VORDERTE
  6
Continuous
 62
     7
100
AcDbLine
 10
86.6253623385
 20
188.6805355286
 30
0.0
 11
86.6253623385
 21
181.1805355286
 31
0.0
  0
LINE
  5
85
330
2B
100
AcDbEntity
  8
GEHÄUSE_VORDERTE
  6
Continuous
 62
     7
100
AcDbLine
 10
86.6253623385
 20
181.1805355286
 30
0.0
 11
90.4753623385
 21
181.1805355286
 31
0.0
  0
LINE
  5
86
330
2B
100
AcDbEntity
  8
GEHÄUSE_VORDERTE
  6
Continuous
 62
     7
100
AcDbLine
 10
90.4753623385
 20
181.1805355286
 30
0.0
 11
90.4753623385
 21
188.6805355286
 31
0.0
  0
LINE
  5
87
330
2B
100
AcDbEntity
  8
GEHÄUSE_VORDERTE
  6
Continuous
 62
     7
100
AcDbLine
 10
90.4753623385
 20
188.6805355286
 30
0.0
 11
86.6253623385
 21
188.6805355286
 31
0.0
  0
LINE
  5
88
330
2B
100
AcDbEntity
  8
GEHÄUSE_VORDERTE
  6
Continuous
 62
     7
100
AcDbLine
 10
89.0503623385
 20
215.4505351838
 30
0.0
 11
89.0503623385
 21
230.0505351838
 31
0.0
  0
LINE
  5
89
330
2B
100
AcDbEntity
  8
GEHÄUSE_VORDERTE
  6
Continuous
 62
     7
100
AcDbLine
 10
85.9503623385
 20
215.4505351838
 30
0.0
 11
89.0503623385
 21
215.4505351838
 31
0.0
  0
LINE
  5
8A
330
2B
100
AcDbEntity
  8
GEHÄUSE_VORDERTE
  6
Continuous
 62
     7
100
AcDbLine
 10
85.9503623385
 20
230.0505351838
 30
0.0
 11
89.0503623385
 21
230.0505351838
 31
0.0
  0
LINE
  5
8B
330
2B
100
AcDbEntity
  8
GEHÄUSE_VORDERTE
  6
Continuous
 62
     7
100
AcDbLine
 10
85.9503623385
 20
215.4505351838
 30
0.0
 11
85.9503623385
 21
230.0505351838
 31
0.0
  0
LINE
  5
8C
330
2B
100
AcDbEntity
  8
GEHÄUSE_VORDERTE
  6
Continuous
 62
     7
100
AcDbLine
 10
85.9503623385
 20
224.7505351838
 30
0.0
 11
86.0003623385
 21
224.7505351838
 31
0.0
  0
LINE
  5
8D
330
2B
100
AcDbEntity
  8
GEHÄUSE_VORDERTE
  6
Continuous
 62
     7
100
AcDbLine
 10
89.0003623385
 20
224.7505351838
 30
0.0
 11
89.0503623385
 21
224.7505351838
 31
0.0
  0
LINE
  5
8E
330
2B
100
AcDbEntity
  8
GEHÄUSE_VORDERTE
  6
Continuous
 62
     7
100
AcDbLine
 10
85.9503623385
 20
225.9505351838
 30
0.0
 11
86.0003623385
 21
225.9505351838
 31
0.0
  0
LINE
  5
8F
330
2B
100
AcDbEntity
  8
GEHÄUSE_VORDERTE
  6
Continuous
 62
     7
100
AcDbLine
 10
89.0003623385
 20
225.9505351838
 30
0.0
 11
89.0503623385
 21
225.9505351838
 31
0.0
  0
LINE
  5
90
330
2B
100
AcDbEntity
  8
GEHÄUSE_VORDERTE
  6
Continuous
 62
     7
100
AcDbLine
 10
89.0503623385
 20
220.7505351838
 30
0.0
 11
89.0003623385
 21
220.7505351838
 31
0.0
  0
LINE
  5
91
330
2B
100
AcDbEntity
  8
GEHÄUSE_VORDERTE
  6
Continuous
 62
     7
100
AcDbLine
 10
86.0003623385
 20
220.7505351838
 30
0.0
 11
85.9503623385
 21
220.7505351838
 31
0.0
  0
LINE
  5
92
330
2B
100
AcDbEntity
  8
GEHÄUSE_VORDERTE
  6
Continuous
 62
     7
100
AcDbLine
 10
89.0503623385
 20
219.5505351838
 30
0.0
 11
89.0003623385
 21
219.5505351838
 31
0.0
  0
LINE
  5
93
330
2B
100
AcDbEntity
  8
GEHÄUSE_VORDERTE
  6
Continuous
 62
     7
100
AcDbLine
 10
86.0003623385
 20
219.5505351838
 30
0.0
 11
85.9503623385
 21
219.5505351838
 31
0.0
  0
LINE
  5
95
330
2B
100
AcDbEntity
  8
DC_24V
  6
Continuous
 62
     7
100
AcDbLine
 10
91.1651976725
 20
216.772141832
 30
0.0
 11
91.1651976725
 21
218.2292055439
 31
0.0
  0
SPLINE
  5
96
330
2B
100
AcDbEntity
  8
DC_24V
  6
Continuous
 62
     7
100
AcDbSpline
210
0.0
220
0.0
230
1.0
 70
     8
 71
     3
 72
    28
 73
    24
 74
     0
 42
0.0000000036139265
 43
0.0000000001
 40
0.0
 40
0.0
 40
0.0
 40
0.0
 40
0.1444668744754432
 40
0.1444668744754432
 40
0.1444668744754432
 40
0.295381611484181
 40
0.295381611484181
 40
0.295381611484181
 40
0.5099728439055436
 40
0.5099728439055436
 40
0.6125059915115738
 40
0.6125059915115738
 40
0.6125059915115738
 40
0.7031301107310601
 40
0.7031301107310601
 40
0.7031301107310601
 40
0.7779804413563979
 40
0.7779804413563979
 40
0.7779804413563979
 40
0.8505817941600232
 40
0.8505817941600232
 40
0.8505817941600232
 40
1.0
 40
1.0
 40
1.0
 40
1.0
 10
91.16519767245954
 20
218.229205543921
 30
0.0
 10
91.29693051333365
 20
218.229205543921
 30
0.0
 10
91.42866335420777
 20
218.229205543921
 30
0.0
 10
91.56039619508188
 20
218.229205543921
 30
0.0
 10
91.71059625663929
 20
218.229205543921
 30
0.0
 10
91.82632417292122
 20
218.1664169935978
 30
0.0
 10
91.90696436990491
 20
218.0414554669742
 30
0.0
 10
91.98742358580576
 20
217.9167743919523
 30
0.0
 10
92.02761687836905
 20
217.7361307516772
 30
0.0
 10
92.02761687836905
 20
217.3877158547859
 30
0.0
 10
92.01653654595908
 20
217.2861461410278
 30
0.0
 10
91.99560702918468
 20
217.1968879077252
 30
0.0
 10
91.9745406935143
 20
217.1070461820721
 30
0.0
 10
91.94451438529426
 20
217.0300673475529
 30
0.0
 10
91.90511764783659
 20
216.9672787972297
 30
0.0
 10
91.8656176637566
 20
216.9043256976022
 30
0.0
 10
91.8189372846479
 20
216.8552443250844
 30
0.0
 10
91.76353562259806
 20
216.8220033278545
 30
0.0
 10
91.70768133259025
 20
216.7884907538499
 30
0.0
 10
91.64472983620223
 20
216.7715262579868
 30
0.0
 10
91.57393882358298
 20
216.7721418320096
 30
0.0
 10
91.43770207466397
 20
216.7733264993915
 30
0.0
 10
91.30144472283402
 20
216.7721418320096
 30
0.0
 10
91.16519767245954
 20
216.7721418320096
 30
0.0
  0
SPLINE
  5
97
330
2B
100
AcDbEntity
  8
DC_24V
  6
Continuous
 62
     7
100
AcDbSpline
210
0.0
220
0.0
230
1.0
 70
     8
 71
     3
 72
    34
 73
    30
 74
     0
 42
0.0000000025835499
 43
0.0000000001
 40
0.0
 40
0.0
 40
0.0
 40
0.0
 40
0.1624408821331765
 40
0.1624408821331765
 40
0.1624408821331765
 40
0.2371957826216188
 40
0.2371957826216188
 40
0.2371957826216188
 40
0.3121603153908813
 40
0.3121603153908813
 40
0.3121603153908813
 40
0.399430643187917
 40
0.399430643187917
 40
0.399430643187917
 40
0.5050313895767027
 40
0.5050313895767027
 40
0.605374007514594
 40
0.605374007514594
 40
0.605374007514594
 40
0.6891634113720216
 40
0.6891634113720216
 40
0.6891634113720216
 40
0.7620575871903762
 40
0.7620575871903762
 40
0.7620575871903762
 40
0.8354705946904961
 40
0.8354705946904961
 40
0.8354705946904961
 40
1.0
 40
1.0
 40
1.0
 40
1.0
 10
90.95036233851064
 20
216.5505351838102
 30
0.0
 10
91.15904193223179
 20
216.5505351838102
 30
0.0
 10
91.36772152595293
 20
216.5505351838102
 30
0.0
 10
91.57640111967407
 20
216.5505351838102
 30
0.0
 10
91.6792019814777
 20
216.5505351838102
 30
0.0
 10
91.77153808489413
 20
216.5726958486302
 30
0.0
 10
91.85340942992337
 20
216.6176327522928
 30
0.0
 10
91.93575383468365
 20
216.6628293052815
 30
0.0
 10
92.0060717875719
 20
216.7278205023698
 30
0.0
 10
92.06332017169008
 20
216.8121541434901
 30
0.0
 10
92.12085460981018
 20
216.8969091759896
 30
0.0
 10
92.16488988544816
 20
216.9992886464141
 30
0.0
 10
92.19628416060974
 20
217.1193255808554
 30
0.0
 10
92.2276390248514
 20
217.2392118264853
 30
0.0
 10
92.24245221231796
 20
217.373557652262
 30
0.0
 10
92.24245221231796
 20
217.6628774429669
 30
0.0
 10
92.22706286174856
 20
217.7903012656815
 30
0.0
 10
92.19628416060974
 20
217.9054136079407
 30
0.0
 10
92.16561799735707
 20
218.0201050585057
 30
0.0
 10
92.12056855580826
 20
218.1171710717757
 30
0.0
 10
92.06332017169008
 20
218.1978112687594
 30
0.0
 10
92.00636235472878
 20
218.278042172221
 30
0.0
 10
91.93712749702095
 20
218.3400088680207
 30
0.0
 10
91.85648730003726
 20
218.3843301976606
 30
0.0
 10
91.77610694168337
 20
218.4285087152292
 30
0.0
 10
91.68535772170547
 20
218.4501966180977
 30
0.0
 10
91.58440358197016
 20
218.4501966180977
 30
0.0
 10
91.37305650081699
 20
218.4501966180977
 30
0.0
 10
91.16170941966381
 20
218.4501966180977
 30
0.0
 10
90.95036233851064
 20
218.4501966180977
 30
0.0
  0
LINE
  5
98
330
2B
100
AcDbEntity
  8
DC_24V
  6
Continuous
 62
     7
100
AcDbLine
 10
90.9503623385
 20
218.4501966181
 30
0.0
 11
90.9503623385
 21
216.5505351838
 31
0.0
  0
SPLINE
  5
99
330
2B
100
AcDbEntity
  8
DC_24V
  6
Continuous
 62
     7
100
AcDbSpline
210
0.0
220
0.0
230
1.0
 70
     8
 71
     3
 72
    38
 73
    34
 74
     0
 42
0.0000000028196134
 43
0.0000000001
 40
0.0
 40
0.0
 40
0.0
 40
0.0
 40
0.055482660817833
 40
0.055482660817833
 40
0.055482660817833
 40
0.0965779210319665
 40
0.0965779210319665
 40
0.0965779210319665
 40
0.2361095282012138
 40
0.2361095282012138
 40
0.3853625998043847
 40
0.3853625998043847
 40
0.5346156714075556
 40
0.5346156714075556
 40
0.6857724811689307
 40
0.6857724811689307
 40
0.6857724811689307
 40
0.8174064183153137
 40
0.8174064183153137
 40
0.8594491967194817
 40
0.8594491967194817
 40
0.8594491967194817
 40
0.9005702227472472
 40
0.9005702227472472
 40
0.9005702227472472
 40
0.9225988447281489
 40
0.9225988447281489
 40
0.9446274667090504
 40
0.9446274667090504
 40
0.9446274667090504
 40
0.9723137333545244
 40
0.9723137333545244
 40
1.0
 40
1.0
 40
1.0
 40
1.0
 10
93.61826015322286
 20
217.2516739957523
 30
0.0
 10
93.60225522863067
 20
217.1722649468142
 30
0.0
 10
93.5862503040385
 20
217.1100919705138
 30
0.0
 10
93.5708609534691
 20
217.0651550668511
 30
0.0
 10
93.55521830152988
 20
217.0194785231886
 30
0.0
 10
93.53454208612528
 20
216.9771279815941
 30
0.0
 10
93.50991912521424
 20
216.9365000960909
 30
0.0
 10
93.42729412575684
 20
216.8001688469862
 30
0.0
 10
93.31047314183475
 20
216.7327450945519
 30
0.0
 10
92.99960826033274
 20
216.7327450945519
 30
0.0
 10
92.8758778817547
 20
216.798611514989
 30
0.0
 10
92.70105485928626
 20
217.0620771967372
 30
0.0
 10
92.65734910366915
 20
217.2485961256385
 30
0.0
 10
92.65734910366915
 20
217.7342840296089
 30
0.0
 10
92.70290158135458
 20
217.9251119766695
 30
0.0
 10
92.7933909627027
 20
218.0623849837486
 30
0.0
 10
92.88378394111012
 20
218.1995117469109
 30
0.0
 10
93.01130416676548
 20
218.2679867073559
 30
0.0
 10
93.22490835266883
 20
218.2679867073559
 30
0.0
 10
93.27415427449094
 20
218.2599842450598
 30
0.0
 10
93.3215534742447
 20
218.2439793204676
 30
0.0
 10
93.3695052460471
 20
218.2277878131058
 30
0.0
 10
93.41081170754727
 20
218.2051981570327
 30
0.0
 10
93.4458994268455
 20
218.1756506039395
 30
0.0
 10
93.46730085044773
 20
218.1576283524849
 30
0.0
 10
93.48591173832597
 20
218.1393317365957
 30
0.0
 10
93.51792158751032
 20
218.1023972952291
 30
0.0
 10
93.53146421601141
 20
218.0814677784547
 30
0.0
 10
93.54254454842139
 20
218.058691539612
 30
0.0
 10
93.5537426870826
 20
218.035673143475
 30
0.0
 10
93.56470521324133
 20
218.0094456177899
 30
0.0
 10
93.58440358197016
 20
217.9491193635578
 30
0.0
 10
93.59363719231182
 20
217.9146472182823
 30
0.0
 10
93.60225522863067
 20
217.8764816288702
 30
0.0
  0
LINE
  5
9A
330
2B
100
AcDbEntity
  8
DC_24V
  6
Continuous
 62
     7
100
AcDbLine
 10
93.8220151548
 20
217.2516739958
 30
0.0
 11
93.6182601532
 21
217.2516739958
 31
0.0
  0
SPLINE
  5
9B
330
2B
100
AcDbEntity
  8
DC_24V
  6
Continuous
 62
     7
100
AcDbSpline
210
0.0
220
0.0
230
1.0
 70
     8
 71
     3
 72
    56
 73
    52
 74
     0
 42
0.0000000020438185
 43
0.0000000001
 40
0.0
 40
0.0
 40
0.0
 40
0.0
 40
0.0357416816098529
 40
0.0357416816098529
 40
0.0357416816098529
 40
0.0664706331819901
 40
0.0664706331819901
 40
0.0664706331819901
 40
0.1341068993172732
 40
0.1341068993172732
 40
0.1341068993172732
 40
0.2031013577032008
 40
0.2031013577032008
 40
0.2031013577032008
 40
0.2674175424084137
 40
0.2674175424084137
 40
0.2674175424084137
 40
0.3307172721875455
 40
0.3307172721875455
 40
0.3307172721875455
 40
0.4026824214775174
 40
0.4026824214775174
 40
0.4026824214775174
 40
0.4887207311785005
 40
0.4887207311785005
 40
0.5751045762598088
 40
0.5751045762598088
 40
0.5751045762598088
 40
0.6460419013738091
 40
0.6460419013738091
 40
0.6460419013738091
 40
0.7078110732187326
 40
0.7078110732187326
 40
0.7078110732187326
 40
0.771060590978374
 40
0.771060590978374
 40
0.8220216310018552
 40
0.8220216310018552
 40
0.8220216310018552
 40
0.8735717819315425
 40
0.8735717819315425
 40
0.8735717819315425
 40
0.8999749042428736
 40
0.8999749042428736
 40
0.9263780265542045
 40
0.9263780265542045
 40
0.9263780265542045
 40
0.9586760534628025
 40
0.9586760534628025
 40
0.9586760534628025
 40
1.0
 40
1.0
 40
1.0
 40
1.0
 10
93.8060102301696
 20
217.8764816288702
 30
0.0
 10
93.79739219385075
 20
217.9466570674667
 30
0.0
 10
93.78631186144077
 20
218.0032898775621
 30
0.0
 10
93.77338480696247
 20
218.0469956331792
 30
0.0
 10
93.76057565703067
 20
218.0903027591391
 30
0.0
 10
93.74014380973256
 20
218.135638292459
 30
0.0
 10
93.71367412675318
 20
218.1836530662355
 30
0.0
 10
93.657271313053
 20
218.285965146901
 30
0.0
 10
93.58255685990183
 20
218.3646318289317
 30
0.0
 10
93.48960518246261
 20
218.4188023429361
 30
0.0
 10
93.39711301405248
 20
218.4727050635989
 30
0.0
 10
93.29015919908312
 20
218.5000581139425
 30
0.0
 10
93.16827554257343
 20
218.5006736879653
 30
0.0
 10
93.05686259528767
 20
218.5012363796183
 30
0.0
 10
92.9565180787384
 20
218.476666301077
 30
0.0
 10
92.86664427141307
 20
218.4304982493688
 30
0.0
 10
92.77578302312533
 20
218.3838229505909
 30
0.0
 10
92.69982371124071
 20
218.3166170551552
 30
0.0
 10
92.63641958689475
 20
218.2304366919665
 30
0.0
 10
92.57293780514205
 20
218.1441507750211
 30
0.0
 10
92.52500068877225
 20
218.0383775968604
 30
0.0
 10
92.49175969154233
 20
217.9140316442596
 30
0.0
 10
92.45855975135383
 20
217.7898392754063
 30
0.0
 10
92.44251376972024
 20
217.6511815365341
 30
0.0
 10
92.44251376972024
 20
217.3440100991688
 30
0.0
 10
92.45851869431242
 20
217.2061215180669
 30
0.0
 10
92.4905285434968
 20
217.0836222875344
 30
0.0
 10
92.52257773819959
 20
216.9609724847294
 30
0.0
 10
92.56932201841214
 20
216.85647547313
 30
0.0
 10
92.63026384666699
 20
216.7702951099413
 30
0.0
 10
92.69129065893458
 20
216.6839945673407
 30
0.0
 10
92.76384340960944
 20
216.61701717827
 30
0.0
 10
92.85063934682088
 20
216.570233552539
 30
0.0
 10
92.93670118735794
 20
216.5238456101219
 30
0.0
 10
93.03408040560821
 20
216.5006736879653
 30
0.0
 10
93.22860179680549
 20
216.5006736879653
 30
0.0
 10
93.31047314183475
 20
216.5166786125575
 30
0.0
 10
93.38803546870454
 20
216.5499196097874
 30
0.0
 10
93.46537491532472
 20
216.5830650869103
 30
0.0
 10
93.53331093807974
 20
216.6299442327483
 30
0.0
 10
93.59179047024348
 20
216.6927327830715
 30
0.0
 10
93.62084512688955
 20
216.7239283091546
 30
0.0
 10
93.64842328033889
 20
216.7549057593719
 30
0.0
 10
93.69397575802434
 20
216.8238500499228
 30
0.0
 10
93.71428970077595
 20
216.8626312133578
 30
0.0
 10
93.73214134743645
 20
216.9057213949521
 30
0.0
 10
93.75012048364812
 20
216.9491193099457
 30
0.0
 10
93.76538234466638
 20
216.9992886464141
 30
0.0
 10
93.77954054719024
 20
217.0553058824867
 30
0.0
 10
93.79384499221462
 20
217.1119017301919
 30
0.0
 10
93.80785695223794
 20
217.1771895389964
 30
0.0
 10
93.8220151547618
 20
217.2516739957523
 30
0.0
  0
LINE
  5
9C
330
2B
100
AcDbEntity
  8
DC_24V
  6
Continuous
 62
     7
100
AcDbLine
 10
93.6022552286
 20
217.8764816289
 30
0.0
 11
93.8060102302
 21
217.8764816289
 31
0.0
  0
SPLINE
  5
9D
330
2B
100
AcDbEntity
  8
DC_24V
  6
Continuous
 62
     7
100
AcDbSpline
210
0.0
220
0.0
230
1.0
 70
     8
 71
     3
 72
    48
 73
    44
 74
     0
 42
0.0000000030845736
 43
0.0000000001
 40
0.0
 40
0.0
 40
0.0
 40
0.0
 40
0.0710066310534044
 40
0.0710066310534044
 40
0.1420132621068084
 40
0.1420132621068084
 40
0.1420132621068084
 40
0.2012927539383945
 40
0.2012927539383945
 40
0.2012927539383945
 40
0.2426584938059021
 40
0.2426584938059021
 40
0.2426584938059021
 40
0.2746822135448247
 40
0.2746822135448247
 40
0.2746822135448247
 40
0.3006513311510766
 40
0.3006513311510766
 40
0.3006513311510766
 40
0.3238721309435535
 40
0.3238721309435535
 40
0.3238721309435535
 40
0.4412828384190174
 40
0.4412828384190174
 40
0.5103183187801277
 40
0.5103183187801277
 40
0.5793537991412369
 40
0.5793537991412369
 40
0.5793537991412369
 40
0.6392214013617269
 40
0.6392214013617269
 40
0.6392214013617269
 40
0.7025025053418376
 40
0.7025025053418376
 40
0.7794945151843027
 40
0.7794945151843027
 40
0.8564865250267683
 40
0.8564865250267683
 40
0.8564865250267683
 40
0.9182291684904645
 40
0.9182291684904645
 40
0.9182291684904645
 40
1.0
 40
1.0
 40
1.0
 40
1.0
 10
94.7884663705205
 20
216.7721418320096
 30
0.0
 10
94.79708440683936
 20
216.8349303823328
 30
0.0
 10
94.82416966384152
 20
216.897718932656
 30
0.0
 10
94.91404347116683
 20
217.0208337372112
 30
0.0
 10
94.97560087344446
 20
217.0774665473066
 30
0.0
 10
95.05316320031426
 20
217.1285591911971
 30
0.0
 10
95.106295580434
 20
217.1635590923871
 30
0.0
 10
95.15904193223177
 20
217.1991450124754
 30
0.0
 10
95.21198129819054
 20
217.2344379231146
 30
0.0
 10
95.25445590576209
 20
217.2627543281623
 30
0.0
 10
95.2907747731059
 20
217.2879928630961
 30
0.0
 10
95.32155347424471
 20
217.310153527916
 30
0.0
 10
95.35244569008741
 20
217.3323959233228
 30
0.0
 10
95.37941743238568
 20
217.3526281354876
 30
0.0
 10
95.40280924525118
 20
217.373557652262
 30
0.0
 10
95.42524739189983
 20
217.3936338887372
 30
0.0
 10
95.4458994268455
 20
217.4129543897197
 30
0.0
 10
95.46313549948324
 20
217.431421610403
 30
0.0
 10
95.48065815765177
 20
217.4501958870121
 30
0.0
 10
95.49699207073593
 20
217.4689716257923
 30
0.0
 10
95.51115027325979
 20
217.4886699945212
 30
0.0
 10
95.58344553791797
 20
217.5892547105673
 30
0.0
 10
95.6194913012684
 20
217.7102766427206
 30
0.0
 10
95.6194913012684
 20
217.9380390311478
 30
0.0
 10
95.60779539483566
 20
218.0143702099721
 30
0.0
 10
95.55978062105912
 20
218.1497964949829
 30
0.0
 10
95.52653962382921
 20
218.2082760271466
 30
0.0
 10
95.4846805902804
 20
218.2581375229915
 30
0.0
 10
95.44287020826816
 20
218.3079410662708
 30
0.0
 10
95.39049776479565
 20
218.3449334602029
 30
0.0
 10
95.33078708458635
 20
218.3714031431823
 30
0.0
 10
95.27056193147065
 20
218.3981008914707
 30
0.0
 10
95.20336326187167
 20
218.4114154546627
 30
0.0
 10
95.0396205718132
 20
218.4114154546627
 30
0.0
 10
94.9589803748295
 20
218.3917170859339
 30
0.0
 10
94.81616720154541
 20
218.3141547590641
 30
0.0
 10
94.75830324340446
 20
218.259368671037
 30
0.0
 10
94.71398191376457
 20
218.1891932324405
 30
0.0
 10
94.67823230002202
 20
218.1325896773482
 30
0.0
 10
94.65365565953249
 20
218.0716185940903
 30
0.0
 10
94.63826630896308
 20
218.006367747676
 30
0.0
 10
94.62290939526783
 20
217.9412544336081
 30
0.0
 10
94.61487449609758
 20
217.8537053900275
 30
0.0
 10
94.61302777402926
 20
217.7447487879961
 30
0.0
  0
LINE
  5
9E
330
2B
100
AcDbEntity
  8
DC_24V
  6
Continuous
 62
     7
100
AcDbLine
 10
95.6194913013
 20
216.772141832
 30
0.0
 11
94.7884663705
 21
216.772141832
 31
0.0
  0
LINE
  5
9F
330
2B
100
AcDbEntity
  8
DC_24V
  6
Continuous
 62
     7
100
AcDbLine
 10
95.6194913013
 20
216.5505351838
 30
0.0
 11
95.6194913013
 21
216.772141832
 31
0.0
  0
LINE
  5
A0
330
2B
100
AcDbEntity
  8
DC_24V
  6
Continuous
 62
     7
100
AcDbLine
 10
94.5736310366
 20
216.5505351838
 30
0.0
 11
95.6194913013
 21
216.5505351838
 31
0.0
  0
SPLINE
  5
A1
330
2B
100
AcDbEntity
  8
DC_24V
  6
Continuous
 62
     7
100
AcDbSpline
210
0.0
220
0.0
230
1.0
 70
     8
 71
     3
 72
    37
 73
    33
 74
     0
 42
0.0000000035459592
 43
0.0000000001
 40
0.0
 40
0.0
 40
0.0
 40
0.0
 40
0.1079871601277162
 40
0.1079871601277162
 40
0.215974320255432
 40
0.215974320255432
 40
0.3146865095746313
 40
0.3146865095746313
 40
0.413398698893833
 40
0.413398698893833
 40
0.5023544508966018
 40
0.5023544508966018
 40
0.5023544508966018
 40
0.540123234878593
 40
0.540123234878593
 40
0.540123234878593
 40
0.603804082120623
 40
0.603804082120623
 40
0.603804082120623
 40
0.6933175393450103
 40
0.6933175393450103
 40
0.6933175393450103
 40
0.7681539341572751
 40
0.7681539341572751
 40
0.7681539341572751
 40
0.839401080883285
 40
0.839401080883285
 40
0.839401080883285
 40
0.914233484994147
 40
0.914233484994147
 40
0.914233484994147
 40
1.0
 40
1.0
 40
1.0
 40
1.0
 10
94.80385572108989
 20
217.7447487879961
 30
0.0
 10
94.81247375740875
 20
217.9066447559863
 30
0.0
 10
94.84140573647925
 20
218.0236038203137
 30
0.0
 10
94.9386664320779
 20
218.1688792896889
 30
0.0
 10
95.01315088883382
 20
218.2051981570327
 30
0.0
 10
95.20520998394
 20
218.2051981570327
 30
0.0
 10
95.27846329265037
 20
218.1738038818711
 30
0.0
 10
95.38803546870454
 20
218.0482267812248
 30
0.0
 10
95.41573629972946
 20
217.9638931401045
 30
0.0
 10
95.41573629972946
 20
217.7626004346566
 30
0.0
 10
95.39234448686399
 20
217.6825758116957
 30
0.0
 10
95.34679200917853
 20
217.6173249652814
 30
0.0
 10
95.3293854676216
 20
217.5923912706188
 30
0.0
 10
95.30493297562975
 20
217.5668478954138
 30
0.0
 10
95.2753854225365
 20
217.5403782124344
 30
0.0
 10
95.2454963614855
 20
217.5136025952428
 30
0.0
 10
95.19843866968947
 20
217.4775896621112
 30
0.0
 10
95.1350345453435
 20
217.4320371844258
 30
0.0
 10
95.0675453847818
 20
217.3835498263523
 30
0.0
 10
94.99878749496904
 20
217.3368284022364
 30
0.0
 10
94.93066396978179
 20
217.2892240111417
 30
0.0
 10
94.87060158444957
 20
217.2472527057288
 30
0.0
 10
94.8192450716593
 20
217.1999657778391
 30
0.0
 10
94.77615489006497
 20
217.1501042819942
 30
0.0
 10
94.73276017093383
 20
217.0998903927139
 30
0.0
 10
94.69674584112683
 20
217.0442255500767
 30
0.0
 10
94.66781386205635
 20
216.9845148698674
 30
0.0
 10
94.63852328383057
 20
216.9240641020398
 30
0.0
 10
94.61610564414313
 20
216.8589377692211
 30
0.0
 10
94.6013318675965
 20
216.787531182579
 30
0.0
 10
94.58643595891765
 20
216.7155342906312
 30
0.0
 10
94.57670890668545
 20
216.6367155469989
 30
0.0
 10
94.57363103657157
 20
216.5505351838102
 30
0.0
  0
LINE
  5
A2
330
2B
100
AcDbEntity
  8
DC_24V
  6
Continuous
 62
     7
100
AcDbLine
 10
94.613027774
 20
217.744748788
 30
0.0
 11
94.8038557211
 21
217.744748788
 31
0.0
  0
LINE
  5
A3
330
2B
100
AcDbEntity
  8
DC_24V
  6
Continuous
 62
     7
100
AcDbLine
 10
95.9500545515
 20
217.2061215181
 30
0.0
 11
96.4425137697
 21
218.0556136695
 31
0.0
  0
LINE
  5
A4
330
2B
100
AcDbEntity
  8
DC_24V
  6
Continuous
 62
     7
100
AcDbLine
 10
96.4425137697
 20
218.0556136695
 30
0.0
 11
96.4425137697
 21
217.2061215181
 31
0.0
  0
LINE
  5
A5
330
2B
100
AcDbEntity
  8
DC_24V
  6
Continuous
 62
     7
100
AcDbLine
 10
96.4425137697
 20
217.2061215181
 30
0.0
 11
95.9500545515
 21
217.2061215181
 31
0.0
  0
LINE
  5
A6
330
2B
100
AcDbEntity
  8
DC_24V
  6
Continuous
 62
     7
100
AcDbLine
 10
96.6358040129
 20
216.5505351838
 30
0.0
 11
96.6358040129
 21
216.9999042204
 31
0.0
  0
LINE
  5
A7
330
2B
100
AcDbEntity
  8
DC_24V
  6
Continuous
 62
     7
100
AcDbLine
 10
96.4425137697
 20
216.5505351838
 30
0.0
 11
96.6358040129
 21
216.5505351838
 31
0.0
  0
LINE
  5
A8
330
2B
100
AcDbEntity
  8
DC_24V
  6
Continuous
 62
     7
100
AcDbLine
 10
96.4425137697
 20
216.9999042204
 30
0.0
 11
96.4425137697
 21
216.5505351838
 31
0.0
  0
LINE
  5
A9
330
2B
100
AcDbEntity
  8
DC_24V
  6
Continuous
 62
     7
100
AcDbLine
 10
95.7758471031
 20
216.9999042204
 30
0.0
 11
96.4425137697
 21
216.9999042204
 31
0.0
  0
LINE
  5
AA
330
2B
100
AcDbEntity
  8
DC_24V
  6
Continuous
 62
     7
100
AcDbLine
 10
95.7758471031
 20
217.232591201
 30
0.0
 11
95.7758471031
 21
216.9999042204
 31
0.0
  0
LINE
  5
AB
330
2B
100
AcDbEntity
  8
DC_24V
  6
Continuous
 62
     7
100
AcDbLine
 10
96.4751391929
 20
218.4107998806
 30
0.0
 11
95.7758471031
 21
217.232591201
 31
0.0
  0
LINE
  5
AC
330
2B
100
AcDbEntity
  8
DC_24V
  6
Continuous
 62
     7
100
AcDbLine
 10
96.6358040129
 20
218.4107998806
 30
0.0
 11
96.4751391929
 21
218.4107998806
 31
0.0
  0
LINE
  5
AD
330
2B
100
AcDbEntity
  8
DC_24V
  6
Continuous
 62
     7
100
AcDbLine
 10
96.6358040129
 20
217.2061215181
 30
0.0
 11
96.6358040129
 21
218.4107998806
 31
0.0
  0
LINE
  5
AE
330
2B
100
AcDbEntity
  8
DC_24V
  6
Continuous
 62
     7
100
AcDbLine
 10
96.8611041052
 20
217.2061215181
 30
0.0
 11
96.6358040129
 21
217.2061215181
 31
0.0
  0
LINE
  5
AF
330
2B
100
AcDbEntity
  8
DC_24V
  6
Continuous
 62
     7
100
AcDbLine
 10
96.8611041052
 20
216.9999042204
 30
0.0
 11
96.8611041052
 21
217.2061215181
 31
0.0
  0
LINE
  5
B0
330
2B
100
AcDbEntity
  8
DC_24V
  6
Continuous
 62
     7
100
AcDbLine
 10
96.6358040129
 20
216.9999042204
 30
0.0
 11
96.8611041052
 21
216.9999042204
 31
0.0
  0
LINE
  5
B1
330
2B
100
AcDbEntity
  8
DC_24V
  6
Continuous
 62
     7
100
AcDbLine
 10
98.3390973339
 20
218.4501966181
 30
0.0
 11
98.1008701871
 21
218.4501966181
 31
0.0
  0
LINE
  5
B2
330
2B
100
AcDbEntity
  8
DC_24V
  6
Continuous
 62
     7
100
AcDbLine
 10
97.7703069368
 20
216.5505351838
 30
0.0
 11
98.3390973339
 21
218.4501966181
 31
0.0
  0
LINE
  5
B3
330
2B
100
AcDbEntity
  8
DC_24V
  6
Continuous
 62
     7
100
AcDbLine
 10
97.5450068445
 20
216.5505351838
 30
0.0
 11
97.7703069368
 21
216.5505351838
 31
0.0
  0
LINE
  5
B4
330
2B
100
AcDbEntity
  8
DC_24V
  6
Continuous
 62
     7
100
AcDbLine
 10
96.9762164475
 20
218.4501966181
 30
0.0
 11
97.5450068445
 21
216.5505351838
 31
0.0
  0
LINE
  5
B5
330
2B
100
AcDbEntity
  8
DC_24V
  6
Continuous
 62
     7
100
AcDbLine
 10
97.2113657242
 20
218.4501966181
 30
0.0
 11
96.9762164475
 21
218.4501966181
 31
0.0
  0
LINE
  5
B6
330
2B
100
AcDbEntity
  8
DC_24V
  6
Continuous
 62
     7
100
AcDbLine
 10
97.6588880387
 20
216.8226189019
 30
0.0
 11
97.2113657242
 21
218.4501966181
 31
0.0
  0
LINE
  5
B7
330
2B
100
AcDbEntity
  8
DC_24V
  6
Continuous
 62
     7
100
AcDbLine
 10
98.1008701871
 20
218.4501966181
 30
0.0
 11
97.6588880387
 21
216.8226189019
 31
0.0
  0
LINE
  5
B9
330
2B
100
AcDbEntity
  8
PS_307
  6
Continuous
 62
     7
100
AcDbLine
 10
141.7646030442
 20
229.9725893741
 30
0.0
 11
141.7646030442
 21
230.6253934069
 31
0.0
  0
SPLINE
  5
BA
330
2B
100
AcDbEntity
  8
PS_307
  6
Continuous
 62
     7
100
AcDbSpline
210
0.0
220
0.0
230
1.0
 70
     8
 71
     3
 72
    16
 73
    12
 74
     0
 42
0.0000000050125084
 43
0.0000000001
 40
0.0
 40
0.0
 40
0.0
 40
0.0
 40
0.2253968010698146
 40
0.2253968010698146
 40
0.2253968010698146
 40
0.4991461367285853
 40
0.4991461367285853
 40
0.7792989656191398
 40
0.7792989656191398
 40
0.7792989656191398
 40
1.0
 40
1.0
 40
1.0
 40
1.0
 10
141.7646030442447
 20
230.6253934068726
 30
0.0
 10
141.9057498621401
 20
230.6253934068726
 30
0.0
 10
142.0468966800355
 20
230.6253934068726
 30
0.0
 10
142.1880434979309
 20
230.6253934068726
 30
0.0
 10
142.394722766992
 20
230.6253934068726
 30
0.0
 10
142.4980624015226
 20
230.5182730540055
 30
0.0
 10
142.4980624015226
 20
230.0822302058644
 30
0.0
 10
142.392202288101
 20
229.9725893741063
 30
0.0
 10
142.1792218218124
 20
229.9725893741063
 30
0.0
 10
142.0410155626232
 20
229.9725893741063
 30
0.0
 10
141.902809303434
 20
229.9725893741063
 30
0.0
 10
141.7646030442447
 20
229.9725893741063
 30
0.0
  0
LINE
  5
BB
330
2B
100
AcDbEntity
  8
PS_307
  6
Continuous
 62
     7
100
AcDbLine
 10
141.5503623385
 20
228.9505351838
 30
0.0
 11
141.7646030442
 21
228.9505351838
 31
0.0
  0
LINE
  5
BC
330
2B
100
AcDbEntity
  8
PS_307
  6
Continuous
 62
     7
100
AcDbLine
 10
141.5503623385
 20
230.8484557887
 30
0.0
 11
141.5503623385
 21
228.9505351838
 31
0.0
  0
SPLINE
  5
BD
330
2B
100
AcDbEntity
  8
PS_307
  6
Continuous
 62
     7
100
AcDbSpline
210
0.0
220
0.0
230
1.0
 70
     8
 71
     3
 72
    32
 73
    28
 74
     0
 42
0.0000000035586089
 43
0.0000000001
 40
0.0
 40
0.0
 40
0.0
 40
0.0
 40
0.1734678174269547
 40
0.1734678174269547
 40
0.1734678174269547
 40
0.2431554927802892
 40
0.2431554927802892
 40
0.2431554927802892
 40
0.3094953694958368
 40
0.3094953694958368
 40
0.3094953694958368
 40
0.3818745504718405
 40
0.3818745504718405
 40
0.3818745504718405
 40
0.4649473040953973
 40
0.4649473040953973
 40
0.5455402740286985
 40
0.5455402740286985
 40
0.5455402740286985
 40
0.613196963433149
 40
0.6808536528375988
 40
0.6808536528375988
 40
0.6808536528375988
 40
0.7503718589970887
 40
0.7503718589970887
 40
0.7503718589970887
 40
1.0
 40
1.0
 40
1.0
 40
1.0
 10
141.7646030442447
 20
229.7495269922538
 30
0.0
 10
141.9263337730832
 20
229.7495269922538
 30
0.0
 10
142.0880645019217
 20
229.7495269922538
 30
0.0
 10
142.2497952307602
 20
229.7495269922538
 30
0.0
 10
142.3203686397079
 20
229.7495269922538
 30
0.0
 10
142.3833806119826
 20
229.7633896261542
 30
0.0
 10
142.4388311475844
 20
229.7898546545096
 30
0.0
 10
142.4953081129574
 20
229.8168095698013
 30
0.0
 10
142.5434310215604
 20
229.8541268662298
 30
0.0
 10
142.5837586838162
 20
229.9032762046041
 30
0.0
 10
142.6245934129452
 20
229.9530435307301
 30
0.0
 10
142.6555923322094
 20
230.0116567969167
 30
0.0
 10
142.6782766422283
 20
230.0809699664189
 30
0.0
 10
142.7004664898312
 20
230.1487722785387
 30
0.0
 10
142.7110428678112
 20
230.2258975026508
 30
0.0
 10
142.7110428678112
 20
230.3922491094561
 30
0.0
 10
142.6997007128017
 20
230.4653429972948
 30
0.0
 10
142.6782766422283
 20
230.532135687906
 30
0.0
 10
142.6571015279301
 20
230.5981522207179
 30
0.0
 10
142.5925803599347
 20
230.7110896891662
 30
0.0
 10
142.4942816831861
 20
230.7841835770049
 30
0.0
 10
142.4375709081389
 20
230.8093883659148
 30
0.0
 10
142.3798077681938
 20
230.835060872557
 30
0.0
 10
142.3178481608169
 20
230.8484557887251
 30
0.0
 10
142.2485349913146
 20
230.8484557887251
 30
0.0
 10
142.0158107737133
 20
230.8484557887251
 30
0.0
 10
141.783086556112
 20
230.8484557887251
 30
0.0
 10
141.5503623385106
 20
230.8484557887251
 30
0.0
  0
LINE
  5
BE
330
2B
100
AcDbEntity
  8
PS_307
  6
Continuous
 62
     7
100
AcDbLine
 10
141.7646030442
 20
228.9505351838
 30
0.0
 11
141.7646030442
 21
229.7495269923
 31
0.0
  0
SPLINE
  5
BF
330
2B
100
AcDbEntity
  8
PS_307
  6
Continuous
 62
     7
100
AcDbSpline
210
0.0
220
0.0
230
1.0
 70
     8
 71
     3
 72
    46
 73
    42
 74
     0
 42
0.0000000021251488
 43
0.0000000001
 40
0.0
 40
0.0
 40
0.0
 40
0.0
 40
0.0475525511127475
 40
0.0475525511127475
 40
0.095105102225494
 40
0.095105102225494
 40
0.095105102225494
 40
0.1605455416130738
 40
0.1605455416130738
 40
0.225985981000654
 40
0.225985981000654
 40
0.3302816812746099
 40
0.3302816812746099
 40
0.3302816812746099
 40
0.4309531820202289
 40
0.4309531820202289
 40
0.5062808084522665
 40
0.5062808084522665
 40
0.5062808084522665
 40
0.5764339117571123
 40
0.5764339117571123
 40
0.5764339117571123
 40
0.6760773937748631
 40
0.6760773937748631
 40
0.6760773937748631
 40
0.7118029216217262
 40
0.7118029216217262
 40
0.7118029216217262
 40
0.7490820265436053
 40
0.7490820265436053
 40
0.8056910377212732
 40
0.8056910377212732
 40
0.8056910377212732
 40
0.8668063334752424
 40
0.8668063334752424
 40
0.9473674051509302
 40
0.9473674051509302
 40
0.9473674051509302
 40
0.9736837025754648
 40
0.9736837025754648
 40
1.0
 40
1.0
 40
1.0
 40
1.0
 10
142.9126811790903
 20
229.5680525121026
 30
0.0
 10
142.9139414185358
 20
229.467233356463
 30
0.0
 10
142.9227630946543
 20
229.3853177925058
 30
0.0
 10
142.9555293202371
 20
229.2618143268474
 30
0.0
 10
142.9819943485925
 20
229.2038433123546
 30
0.0
 10
143.0210617714029
 20
229.1496530161983
 30
0.0
 10
143.0829996250043
 20
229.0637392192673
 30
0.0
 10
143.1521266737343
 20
228.998424282739
 30
0.0
 10
143.3134373227576
 20
228.9202894371183
 30
0.0
 10
143.4155167178427
 20
228.9013858454359
 30
0.0
 10
143.7293163397708
 20
228.9013858454359
 30
0.0
 10
143.8792848337847
 20
228.9505351838102
 30
0.0
 10
143.9889256655428
 20
229.0513543394497
 30
0.0
 10
144.097883645818
 20
229.1515455856799
 30
0.0
 10
144.1514965540115
 20
229.2920600735393
 30
0.0
 10
144.1514965540115
 20
229.6071199349129
 30
0.0
 10
144.1225110467652
 20
229.7180210061164
 30
0.0
 10
144.0620195533814
 20
229.8037172884101
 30
0.0
 10
144.0013534309752
 20
229.8896609618189
 30
0.0
 10
143.9145715382586
 20
229.9499050640874
 30
0.0
 10
143.798629509273
 20
229.9814110502248
 30
0.0
 10
143.6504055319963
 20
230.0216893049196
 30
0.0
 10
143.502893319397
 20
230.0645868536275
 30
0.0
 10
143.355025224459
 20
230.1061747553288
 30
0.0
 10
143.2923622415691
 20
230.1237987192665
 30
0.0
 10
143.2453843927009
 20
230.1515433753666
 30
0.0
 10
143.2176591249
 20
230.1918710376224
 30
0.0
 10
143.1901177116602
 20
230.2319312750622
 30
0.0
 10
143.1735507443077
 20
230.2838685171435
 30
0.0
 10
143.1735507443077
 20
230.4552610817308
 30
0.0
 10
143.2037964909996
 20
230.5359164062424
 30
0.0
 10
143.2655482238288
 20
230.5926271812897
 30
0.0
 10
143.3279277984966
 20
230.6499145457805
 30
0.0
 10
143.4142564783972
 20
230.6795837030288
 30
0.0
 10
143.6713453252781
 20
230.6795837030288
 30
0.0
 10
143.7797259175906
 20
230.6266536463181
 30
0.0
 10
143.8477788476474
 20
230.5233140117875
 30
0.0
 10
143.8693101170118
 20
230.4906183805304
 30
0.0
 10
143.8843257915667
 20
230.4590418000673
 30
0.0
 10
143.9044896226946
 20
230.3935093489016
 30
0.0
 10
143.9107908199221
 20
230.3494009683093
 30
0.0
 10
143.9145715382586
 20
230.292690193262
 30
0.0
  0
LINE
  5
C0
330
2B
100
AcDbEntity
  8
PS_307
  6
Continuous
 62
     7
100
AcDbLine
 10
143.110538772
 20
229.5680525121
 30
0.0
 11
142.9126811791
 21
229.5680525121
 31
0.0
  0
SPLINE
  5
C1
330
2B
100
AcDbEntity
  8
PS_307
  6
Continuous
 62
     7
100
AcDbSpline
210
0.0
220
0.0
230
1.0
 70
     8
 71
     3
 72
    62
 73
    58
 74
     0
 42
0.0000000021208606
 43
0.0000000001
 40
0.0
 40
0.0
 40
0.0
 40
0.0
 40
0.0193338812381547
 40
0.0193338812381547
 40
0.0386677624763093
 40
0.0386677624763093
 40
0.058001643714464
 40
0.058001643714464
 40
0.058001643714464
 40
0.0741265660753919
 40
0.0741265660753919
 40
0.0741265660753919
 40
0.1373068770494266
 40
0.1373068770494266
 40
0.1373068770494266
 40
0.2056018289590025
 40
0.2056018289590025
 40
0.3112125793346345
 40
0.3112125793346345
 40
0.3112125793346345
 40
0.3558719344250867
 40
0.3558719344250867
 40
0.3558719344250867
 40
0.3994039909595008
 40
0.3994039909595008
 40
0.5364229230022474
 40
0.5364229230022474
 40
0.5364229230022474
 40
0.6081109602953583
 40
0.6081109602953583
 40
0.6081109602953583
 40
0.6448918844912453
 40
0.6448918844912453
 40
0.6448918844912453
 40
0.6712875062380941
 40
0.6712875062380941
 40
0.6712875062380941
 40
0.6935066930794584
 40
0.6935066930794584
 40
0.6935066930794584
 40
0.7190428680058882
 40
0.7190428680058882
 40
0.778627276167558
 40
0.778627276167558
 40
0.778627276167558
 40
0.8490317913721482
 40
0.8490317913721482
 40
0.8957357767058863
 40
0.8957357767058863
 40
0.8957357767058863
 40
0.9394783018626744
 40
0.9394783018626744
 40
0.9394783018626744
 40
0.96621400740556
 40
0.96621400740556
 40
0.96621400740556
 40
1.0
 40
1.0
 40
1.0
 40
1.0
 10
144.1124291312012
 20
230.292690193262
 30
0.0
 10
144.1086484128647
 20
230.3330178555178
 30
0.0
 10
144.1061279339738
 20
230.3695647994371
 30
0.0
 10
144.0985664973008
 20
230.4325767717119
 30
0.0
 10
144.0935255395188
 20
230.4603020395128
 30
0.0
 10
144.0834436239548
 20
230.5107116173326
 30
0.0
 10
144.0771424267274
 20
230.5333959273514
 30
0.0
 10
144.0683207506089
 20
230.5560802373704
 30
0.0
 10
144.0597592311588
 20
230.5780955730992
 30
0.0
 10
144.0494171589265
 20
230.6001886179627
 30
0.0
 10
144.038075003917
 20
230.6241331674271
 30
0.0
 10
143.9951441773767
 20
230.7147649123455
 30
0.0
 10
143.925913693268
 20
230.7829233375594
 30
0.0
 10
143.8389571715289
 20
230.8308124364882
 30
0.0
 10
143.752533179657
 20
230.8784082580988
 30
0.0
 10
143.6474007758137
 20
230.9013858454359
 30
0.0
 10
143.3361216327765
 20
230.9013858454359
 30
0.0
 10
143.1949748148811
 20
230.8421545914977
 30
0.0
 10
143.0991966170235
 20
230.7236920836212
 30
0.0
 10
143.0573772286899
 20
230.6719681033137
 30
0.0
 10
143.0261027291848
 20
230.6102705335266
 30
0.0
 10
143.0034184191659
 20
230.5422176034699
 30
0.0
 10
142.9803560373134
 20
230.4730304579123
 30
0.0
 10
142.9693919541376
 20
230.399810546129
 30
0.0
 10
142.9693919541376
 20
230.0809699664189
 30
0.0
 10
143.0790327858956
 20
229.9297412329595
 30
0.0
 10
143.2983144494117
 20
229.8679895001303
 30
0.0
 10
143.4045675560685
 20
229.8380676482556
 30
0.0
 10
143.5108748358851
 20
229.8083381663769
 30
0.0
 10
143.6171550291218
 20
229.7785124995002
 30
0.0
 10
143.6819805598756
 20
229.760320354506
 30
0.0
 10
143.7343572975528
 20
229.7394450766898
 30
0.0
 10
143.7772054386996
 20
229.7218017244529
 30
0.0
 10
143.8204972736157
 20
229.7039756747816
 30
0.0
 10
143.8540800448748
 20
229.6814740621971
 30
0.0
 10
143.8780245943392
 20
229.6550090338417
 30
0.0
 10
143.9019094317102
 20
229.6286100030632
 30
0.0
 10
143.920872735486
 20
229.6008187376854
 30
0.0
 10
143.93095465105
 20
229.5680525121026
 30
0.0
 10
143.9411455602957
 20
229.5349320570539
 30
0.0
 10
143.9473377638414
 20
229.4962188637093
 30
0.0
 10
143.9473377638414
 20
229.34499013025
 30
0.0
 10
143.9120510593676
 20
229.2630745662929
 30
0.0
 10
143.8427378898654
 20
229.2076240306911
 30
0.0
 10
143.7728099694141
 20
229.1516816943301
 30
0.0
 10
143.6751260436146
 20
229.123187987843
 30
0.0
 10
143.4634058167715
 20
229.123187987843
 30
0.0
 10
143.3890516894873
 20
229.1383108611889
 30
0.0
 10
143.3260397172126
 20
229.1685566078808
 30
0.0
 10
143.2624951339888
 20
229.1990580078282
 30
0.0
 10
143.2126181671181
 20
229.2416504957195
 30
0.0
 10
143.1773314626442
 20
229.3008817496577
 30
0.0
 10
143.1546597844941
 20
229.3389377808382
 30
0.0
 10
143.1357435609429
 20
229.3739756374964
 30
0.0
 10
143.1269218848244
 20
229.4130430603067
 30
0.0
 10
143.1183709730225
 20
229.4509113840011
 30
0.0
 10
143.113059250924
 20
229.5025200609369
 30
0.0
 10
143.110538772033
 20
229.5680525121026
 30
0.0
  0
LINE
  5
C2
330
2B
100
AcDbEntity
  8
PS_307
  6
Continuous
 62
     7
100
AcDbLine
 10
143.9145715383
 20
230.2926901933
 30
0.0
 11
144.1124291312
 21
230.2926901933
 31
0.0
  0
SPLINE
  5
C3
330
2B
100
AcDbEntity
  8
PS_307
  6
Continuous
 62
     7
100
AcDbSpline
210
0.0
220
0.0
230
1.0
 70
     8
 71
     3
 72
     8
 73
     4
 74
     0
 42
0.0000001674537277
 43
0.0000000001
 40
0.0
 40
0.0
 40
0.0
 40
0.0
 40
1.0
 40
1.0
 40
1.0
 40
1.0
 10
145.4041745628332
 20
230.0040953602437
 30
0.0
 10
145.3915721683783
 20
230.0028351207982
 30
0.0
 10
145.3726685766959
 20
230.0053555996892
 30
0.0
 10
145.344943308895
 20
230.0091363180257
 30
0.0
  0
SPLINE
  5
C4
330
2B
100
AcDbEntity
  8
PS_307
  6
Continuous
 62
     7
100
AcDbSpline
210
0.0
220
0.0
230
1.0
 70
     8
 71
     3
 72
     8
 73
     4
 74
     0
 42
0.0000002726311255
 43
0.0000000001
 40
0.0
 40
0.0
 40
0.0
 40
0.0
 40
1.0
 40
1.0
 40
1.0
 40
1.0
 10
145.4407215067526
 20
230.0040953602437
 30
0.0
 10
145.4281191122977
 20
230.0028351207982
 30
0.0
 10
145.4155167178427
 20
230.0028351207982
 30
0.0
 10
145.4041745628332
 20
230.0040953602437
 30
0.0
  0
SPLINE
  5
C5
330
2B
100
AcDbEntity
  8
PS_307
  6
Continuous
 62
     7
100
AcDbSpline
210
0.0
220
0.0
230
1.0
 70
     8
 71
     3
 72
    20
 73
    16
 74
     0
 42
0.0000000064596105
 43
0.0000000001
 40
0.0
 40
0.0
 40
0.0
 40
0.0
 40
0.214492172419074
 40
0.214492172419074
 40
0.214492172419074
 40
0.3793421906210286
 40
0.3793421906210286
 40
0.5249240248773013
 40
0.5249240248773013
 40
0.5249240248773013
 40
0.6790597856948873
 40
0.6790597856948873
 40
0.8395298928474427
 40
0.8395298928474427
 40
1.0
 40
1.0
 40
1.0
 40
1.0
 10
145.1571676315163
 20
230.2019529531864
 30
0.0
 10
145.1659893076348
 20
230.3456202499728
 30
0.0
 10
145.1937145754356
 20
230.4489598845033
 30
0.0
 10
145.2403434349189
 20
230.5107116173326
 30
0.0
 10
145.2865146636858
 20
230.5718572986725
 30
0.0
 10
145.3575457033499
 20
230.6039693362992
 30
0.0
 10
145.5402804229466
 20
230.6039693362992
 30
0.0
 10
145.6083333530034
 20
230.5762440684983
 30
0.0
 10
145.6587429308231
 20
230.5233140117875
 30
0.0
 10
145.7097818791151
 20
230.4697231160809
 30
0.0
 10
145.7343572975528
 20
230.394769588347
 30
0.0
 10
145.7343572975528
 20
230.2069939109684
 30
0.0
 10
145.7091525086429
 20
230.1326397836842
 30
0.0
 10
145.6083333530034
 20
230.0293001491536
 30
0.0
 10
145.5364997046102
 20
230.0028351207982
 30
0.0
 10
145.4407215067526
 20
230.0040953602437
 30
0.0
  0
LINE
  5
C6
330
2B
100
AcDbEntity
  8
PS_307
  6
Continuous
 62
     7
100
AcDbLine
 10
144.9693919541
 20
230.2019529532
 30
0.0
 11
145.1571676315
 21
230.2019529532
 31
0.0
  0
SPLINE
  5
C7
330
2B
100
AcDbEntity
  8
PS_307
  6
Continuous
 62
     7
100
AcDbSpline
210
0.0
220
0.0
230
1.0
 70
     8
 71
     3
 72
    20
 73
    16
 74
     0
 42
0.0000000045889324
 43
0.0000000001
 40
0.0
 40
0.0
 40
0.0
 40
0.0
 40
0.2273037007385069
 40
0.2273037007385069
 40
0.4040954679795681
 40
0.4040954679795681
 40
0.5808872352206289
 40
0.5808872352206289
 40
0.8007239544855955
 40
0.8007239544855955
 40
0.8007239544855955
 40
0.8875096756271676
 40
0.8875096756271676
 40
0.8875096756271676
 40
1.0
 40
1.0
 40
1.0
 40
1.0
 10
145.7242753819889
 20
229.933521951296
 30
0.0
 10
145.8591210026568
 20
229.9965339235708
 30
0.0
 10
145.925913693268
 20
230.1238181075657
 30
0.0
 10
145.925913693268
 20
230.4666032367402
 30
0.0
 10
145.8843257915667
 20
230.5850657446167
 30
0.0
 10
145.7179741847614
 20
230.764019745877
 30
0.0
 10
145.6045526346669
 20
230.8081281264693
 30
0.0
 10
145.2794108577293
 20
230.8081281264693
 30
0.0
 10
145.1483459553978
 20
230.7400751964126
 30
0.0
 10
145.0651701519952
 20
230.6064898151902
 30
0.0
 10
145.0326189236497
 20
230.5542105696656
 30
0.0
 10
145.0109798558389
 20
230.4968489834321
 30
0.0
 10
144.995856982493
 20
230.4376177294939
 30
0.0
 10
144.980811233873
 20
230.3786885473989
 30
0.0
 10
144.973172672474
 20
230.300251629935
 30
0.0
 10
144.9693919541376
 20
230.2019529531864
 30
0.0
  0
SPLINE
  5
C8
330
2B
100
AcDbEntity
  8
PS_307
  6
Continuous
 62
     7
100
AcDbSpline
210
0.0
220
0.0
230
1.0
 70
     8
 71
     3
 72
    36
 73
    32
 74
     0
 42
0.0000000041927205
 43
0.0000000001
 40
0.0
 40
0.0
 40
0.0
 40
0.0
 40
0.071289039977481
 40
0.071289039977481
 40
0.071289039977481
 40
0.1276077880678918
 40
0.1276077880678918
 40
0.1276077880678918
 40
0.1724607374080774
 40
0.1724607374080774
 40
0.2173136867482613
 40
0.2173136867482613
 40
0.2173136867482613
 40
0.2979471920822383
 40
0.2979471920822383
 40
0.2979471920822383
 40
0.381687796819708
 40
0.381687796819708
 40
0.4757123354723022
 40
0.4757123354723022
 40
0.5697368741248966
 40
0.5697368741248966
 40
0.5697368741248966
 40
0.662367708477167
 40
0.662367708477167
 40
0.662367708477167
 40
0.7571182725013614
 40
0.7571182725013614
 40
0.8785591362506814
 40
0.8785591362506814
 40
1.0
 40
1.0
 40
1.0
 40
1.0
 10
144.9328450102182
 20
229.5176429342828
 30
0.0
 10
144.9391462074457
 20
229.4546309620081
 30
0.0
 10
144.9454474046732
 20
229.3979201869608
 30
0.0
 10
144.9530088413462
 20
229.350031088032
 30
0.0
 10
144.9607644230148
 20
229.3009124041307
 30
0.0
 10
144.9719124330286
 20
229.2580336085109
 30
0.0
 10
144.983254588038
 20
229.2202264251461
 30
0.0
 10
144.9947007995155
 20
229.182072386888
 30
0.0
 10
145.0109798558389
 20
229.1483927767529
 30
0.0
 10
145.0462665603127
 20
229.0904217622601
 30
0.0
 10
145.0676906308862
 20
229.0639567339047
 30
0.0
 10
145.0916351803506
 20
229.0400121844403
 30
0.0
 10
145.1363736806656
 20
228.9952736841253
 30
0.0
 10
145.1886736176536
 20
228.9593568599286
 30
0.0
 10
145.2504253504829
 20
228.9366725499097
 30
0.0
 10
145.3125849846666
 20
228.913838398577
 30
0.0
 10
145.3802300133688
 20
228.9013858454359
 30
0.0
 10
145.5327189862737
 20
228.9013858454359
 30
0.0
 10
145.6070731135579
 20
228.9152484793363
 30
0.0
 10
145.7406584947803
 20
228.9706990149381
 30
0.0
 10
145.798629509273
 20
229.0110266771939
 30
0.0
 10
145.8452583687564
 20
229.0626964944592
 30
0.0
 10
145.8925140424163
 20
229.1150608895959
 30
0.0
 10
145.928434172159
 20
229.1786385234447
 30
0.0
 10
145.9536389610689
 20
229.2517324112834
 30
0.0
 10
145.9793660596321
 20
229.3263409971166
 30
0.0
 10
145.9927063838792
 20
229.4080021025247
 30
0.0
 10
145.9927063838792
 20
229.6121608926949
 30
0.0
 10
145.9712823133058
 20
229.7028981327705
 30
0.0
 10
145.8881065099032
 20
229.8364835139929
 30
0.0
 10
145.8200535798464
 20
229.8906738101492
 30
0.0
 10
145.7242753819889
 20
229.933521951296
 30
0.0
  0
LINE
  5
C9
330
2B
100
AcDbEntity
  8
PS_307
  6
Continuous
 62
     7
100
AcDbLine
 10
145.1319628426
 20
229.5176429343
 30
0.0
 11
144.9328450102
 21
229.5176429343
 31
0.0
  0
SPLINE
  5
CA
330
2B
100
AcDbEntity
  8
PS_307
  6
Continuous
 62
     7
100
AcDbSpline
210
0.0
220
0.0
230
1.0
 70
     8
 71
     3
 72
    26
 73
    22
 74
     0
 42
0.0000000056756252
 43
0.0000000001
 40
0.0
 40
0.0
 40
0.0
 40
0.0
 40
0.0153905435470579
 40
0.0153905435470579
 40
0.0153905435470579
 40
0.1726129714745771
 40
0.1726129714745771
 40
0.3298353994020982
 40
0.3298353994020982
 40
0.4964163051824489
 40
0.4964163051824489
 40
0.4964163051824489
 40
0.6535659414638324
 40
0.6535659414638324
 40
0.8260472495775448
 40
0.8260472495775448
 40
0.8260472495775448
 40
0.8973572566614756
 40
0.8973572566614756
 40
0.8973572566614756
 40
1.0
 40
1.0
 40
1.0
 40
1.0
 10
145.4306395911886
 20
229.8125389645285
 30
0.0
 10
145.4394612673071
 20
229.8125389645285
 30
0.0
 10
145.4482829434255
 20
229.8125389645285
 30
0.0
 10
145.457104619544
 20
229.8125389645285
 30
0.0
 10
145.5604442540746
 20
229.8125389645285
 30
0.0
 10
145.6423598180317
 20
229.7822932178367
 30
0.0
 10
145.7583018470172
 20
229.6613102310692
 30
0.0
 10
145.7872873542636
 20
229.5781344276665
 30
0.0
 10
145.7872873542636
 20
229.3601130035959
 30
0.0
 10
145.7570416075718
 20
229.2706360029658
 30
0.0
 10
145.696550114188
 20
229.2051035518001
 30
0.0
 10
145.6354305142436
 20
229.1388906518603
 30
0.0
 10
145.5528828174016
 20
229.105544635606
 30
0.0
 10
145.3361216327765
 20
229.105544635606
 30
0.0
 10
145.2529458293739
 20
229.1471325373073
 30
0.0
 10
145.2000157726631
 20
229.23030834071
 30
0.0
 10
145.178636181129
 20
229.2639048416922
 30
0.0
 10
145.1609483498528
 20
229.3008817496577
 30
0.0
 10
145.1521266737343
 20
229.342469651359
 30
0.0
 10
145.1435065473339
 20
229.3831073901041
 30
0.0
 10
145.1357435609429
 20
229.4420285675531
 30
0.0
 10
145.1319628426064
 20
229.5176429342828
 30
0.0
  0
SPLINE
  5
CB
330
2B
100
AcDbEntity
  8
PS_307
  6
Continuous
 62
     7
100
AcDbSpline
210
0.0
220
0.0
230
1.0
 70
     8
 71
     3
 72
     8
 73
     4
 74
     0
 42
0.0000002190272562
 43
0.0000000001
 40
0.0
 40
0.0
 40
0.0
 40
0.0
 40
1.0
 40
1.0
 40
1.0
 40
1.0
 10
145.3852709711508
 20
229.8100184856375
 30
0.0
 10
145.3953528867148
 20
229.808758246192
 30
0.0
 10
145.4104757600607
 20
229.8100184856375
 30
0.0
 10
145.4306395911886
 20
229.8125389645285
 30
0.0
  0
SPLINE
  5
CC
330
2B
100
AcDbEntity
  8
PS_307
  6
Continuous
 62
     7
100
AcDbSpline
210
0.0
220
0.0
230
1.0
 70
     8
 71
     3
 72
     8
 73
     4
 74
     0
 42
0.0000002471626584
 43
0.0000000001
 40
0.0
 40
0.0
 40
0.0
 40
0.0
 40
1.0
 40
1.0
 40
1.0
 40
1.0
 10
145.344943308895
 20
229.8100184856375
 30
0.0
 10
145.3638469005774
 20
229.808758246192
 30
0.0
 10
145.3764492950324
 20
229.808758246192
 30
0.0
 10
145.3852709711508
 20
229.8100184856375
 30
0.0
  0
LINE
  5
CD
330
2B
100
AcDbEntity
  8
PS_307
  6
Continuous
 62
     7
100
AcDbLine
 10
145.3449433089
 20
230.009136318
 30
0.0
 11
145.3449433089
 21
229.8100184856
 31
0.0
  0
SPLINE
  5
CE
330
2B
100
AcDbEntity
  8
PS_307
  6
Continuous
 62
     7
100
AcDbSpline
210
0.0
220
0.0
230
1.0
 70
    11
 71
     3
 72
    23
 73
    19
 74
     0
 42
0.0000000027255962
 43
0.0000000001
 40
0.0
 40
0.0
 40
0.0
 40
0.0
 40
0.0909186592665295
 40
0.0909186592665295
 40
0.0909186592665295
 40
0.2176190554928499
 40
0.2176190554928499
 40
0.3482380206746235
 40
0.3482380206746235
 40
0.4788569858563981
 40
0.4788569858563981
 40
0.6094759510381704
 40
0.6094759510381704
 40
0.740094916219943
 40
0.740094916219943
 40
0.8700474581099717
 40
0.8700474581099717
 40
1.0
 40
1.0
 40
1.0
 40
1.0
 10
146.6656742477734
 20
230.6039693362992
 30
0.0
 10
146.7715343611949
 20
230.6039693362992
 30
0.0
 10
146.8521896857066
 20
230.5409573640245
 30
0.0
 10
146.9063799818628
 20
230.4161936589205
 30
0.0
 10
146.9610307792483
 20
230.2903697300564
 30
0.0
 10
146.98829554582
 20
230.1049145158833
 30
0.0
 10
146.98829554582
 20
229.6083801743584
 30
0.0
 10
146.9618305174646
 20
229.4206044969797
 30
0.0
 10
146.8534499251521
 20
229.1685566078808
 30
0.0
 10
146.7740548400859
 20
229.105544635606
 30
0.0
 10
146.5623346132428
 20
229.105544635606
 30
0.0
 10
146.4829395281766
 20
229.1685566078808
 30
0.0
 10
146.3745589358641
 20
229.4206044969797
 30
0.0
 10
146.3480939075087
 20
229.6071199349129
 30
0.0
 10
146.3480939075087
 20
230.0998735581013
 30
0.0
 10
146.3745589358641
 20
230.285128756589
 30
0.0
 10
146.4829395281766
 20
230.5396971245789
 30
0.0
 10
146.5610743737973
 20
230.6039693362992
 30
0.0
 10
146.6656742477734
 20
230.6039693362992
 30
0.0
  0
SPLINE
  5
CF
330
2B
100
AcDbEntity
  8
PS_307
  6
Continuous
 62
     7
100
AcDbSpline
210
0.0
220
0.0
230
1.0
 70
    11
 71
     3
 72
    25
 73
    21
 74
     0
 42
0.0000000020106288
 43
0.0000000001
 40
0.0
 40
0.0
 40
0.0
 40
0.0
 40
0.1335426948520199
 40
0.1335426948520199
 40
0.2670853897040398
 40
0.2670853897040398
 40
0.4006280845560598
 40
0.4006280845560598
 40
0.4006280845560598
 40
0.5013495847175983
 40
0.5013495847175983
 40
0.6013194318928569
 40
0.6013194318928569
 40
0.6013194318928569
 40
0.7514168294212058
 40
0.7514168294212058
 40
0.9002737525898162
 40
0.9002737525898162
 40
0.9002737525898162
 40
1.0
 40
1.0
 40
1.0
 40
1.0
 10
146.6732356844464
 20
230.8081281264693
 30
0.0
 10
146.501843119859
 20
230.8081281264693
 30
0.0
 10
146.3707782175276
 20
230.7262125625121
 30
0.0
 10
146.1893037373764
 20
230.3985503066835
 30
0.0
 10
146.1439351173386
 20
230.162885530376
 30
0.0
 10
146.1439351173386
 20
229.5504091598656
 30
0.0
 10
146.1880434979309
 20
229.3147443835581
 30
0.0
 10
146.2787807380065
 20
229.1496530161983
 30
0.0
 10
146.3697575617547
 20
228.9841257396564
 30
0.0
 10
146.4993226409681
 20
228.9013858454359
 30
0.0
 10
146.8358065729151
 20
228.9013858454359
 30
0.0
 10
146.9656112358011
 20
228.9833014093931
 30
0.0
 10
147.0563484758767
 20
229.1483927767529
 30
0.0
 10
147.1465537589843
 20
229.3125162779625
 30
0.0
 10
147.1924543359902
 20
229.5466284415292
 30
0.0
 10
147.1924543359902
 20
230.1540638542576
 30
0.0
 10
147.1470857159523
 20
230.3897286305651
 30
0.0
 10
147.0563484758767
 20
230.5573404768159
 30
0.0
 10
146.9661388470865
 20
230.7239777077756
 30
0.0
 10
146.8383270518062
 20
230.8081281264693
 30
0.0
 10
146.6732356844464
 20
230.8081281264693
 30
0.0
  0
LINE
  5
D0
330
2B
100
AcDbEntity
  8
PS_307
  6
Continuous
 62
     7
100
AcDbLine
 10
148.4035444431
 20
230.7678004642
 30
0.0
 11
147.3474637878
 21
230.7678004642
 31
0.0
  0
LINE
  5
D1
330
2B
100
AcDbEntity
  8
PS_307
  6
Continuous
 62
     7
100
AcDbLine
 10
148.4035444431
 20
230.5623814346
 30
0.0
 11
148.4035444431
 21
230.7678004642
 31
0.0
  0
SPLINE
  5
D2
330
2B
100
AcDbEntity
  8
PS_307
  6
Continuous
 62
     7
100
AcDbSpline
210
0.0
220
0.0
230
1.0
 70
     8
 71
     3
 72
    11
 73
     7
 74
     0
 42
0.0000000057086871
 43
0.0000000001
 40
0.0
 40
0.0
 40
0.0
 40
0.0
 40
0.522528058219595
 40
0.522528058219595
 40
0.522528058219595
 40
1.0
 40
1.0
 40
1.0
 40
1.0
 10
147.7759451992542
 20
228.9505351838102
 30
0.0
 10
147.823834298183
 20
229.2718962424113
 30
0.0
 10
147.9007089043581
 20
229.5667922726571
 30
0.0
 10
148.0040485388887
 20
229.8327027956564
 30
0.0
 10
148.1075535329671
 20
230.0990388170046
 30
0.0
 10
148.2409735546417
 20
230.3418395316363
 30
0.0
 10
148.4035444431105
 20
230.5623814345979
 30
0.0
  0
LINE
  5
D3
330
2B
100
AcDbEntity
  8
PS_307
  6
Continuous
 62
     7
100
AcDbLine
 10
147.5642249724
 20
228.9505351838
 30
0.0
 11
147.7759451993
 21
228.9505351838
 31
0.0
  0
SPLINE
  5
D4
330
2B
100
AcDbEntity
  8
PS_307
  6
Continuous
 62
     7
100
AcDbSpline
210
0.0
220
0.0
230
1.0
 70
     8
 71
     3
 72
    17
 73
    13
 74
     0
 42
0.0000000058082379
 43
0.0000000001
 40
0.0
 40
0.0
 40
0.0
 40
0.0
 40
0.2583743892703263
 40
0.2583743892703263
 40
0.2583743892703263
 40
0.5147988839508851
 40
0.5147988839508851
 40
0.5147988839508851
 40
0.7625126672645782
 40
0.7625126672645782
 40
0.7625126672645782
 40
1.0
 40
1.0
 40
1.0
 40
1.0
 10
148.1893037373764
 20
230.537176645688
 30
0.0
 10
148.1061279339738
 20
230.414933419475
 30
0.0
 10
148.0305135672441
 20
230.2889094749255
 30
0.0
 10
147.9599401582964
 20
230.1565843331486
 30
0.0
 10
147.8896458335165
 20
230.0247824741864
 30
0.0
 10
147.8288752559649
 20
229.8906738101492
 30
0.0
 10
147.7759451992542
 20
229.7558281894813
 30
0.0
 10
147.7231833906613
 20
229.6214112009232
 30
0.0
 10
147.6789067619511
 20
229.4861369481454
 30
0.0
 10
147.6423598180317
 20
229.3512913274775
 30
0.0
 10
147.6055809244276
 20
229.2155898924554
 30
0.0
 10
147.5806080852025
 20
229.0816000861416
 30
0.0
 10
147.5642249724111
 20
228.9505351838102
 30
0.0
  0
LINE
  5
D5
330
2B
100
AcDbEntity
  8
PS_307
  6
Continuous
 62
     7
100
AcDbLine
 10
147.3474637878
 20
230.5371766457
 30
0.0
 11
148.1893037374
 21
230.5371766457
 31
0.0
  0
LINE
  5
D6
330
2B
100
AcDbEntity
  8
PS_307
  6
Continuous
 62
     7
100
AcDbLine
 10
147.3474637878
 20
230.7678004642
 30
0.0
 11
147.3474637878
 21
230.5371766457
 31
0.0
  0
LINE
  5
D8
330
2B
100
AcDbEntity
  8
SCHALTER_EIN
  6
Continuous
 62
     7
100
AcDbLine
 10
93.2753623385
 20
185.9805355286
 30
0.0
 11
93.3253623385
 21
185.9805355286
 31
0.0
  0
LINE
  5
D9
330
2B
100
AcDbEntity
  8
SCHALTER_EIN
  6
Continuous
 62
     7
100
AcDbLine
 10
93.3253623385
 20
185.9805355286
 30
0.0
 11
93.3253623385
 21
187.9805355286
 31
0.0
  0
LINE
  5
DA
330
2B
100
AcDbEntity
  8
SCHALTER_EIN
  6
Continuous
 62
     7
100
AcDbLine
 10
93.3253623385
 20
187.9805355286
 30
0.0
 11
93.2753623385
 21
187.9805355286
 31
0.0
  0
LINE
  5
DB
330
2B
100
AcDbEntity
  8
SCHALTER_EIN
  6
Continuous
 62
     7
100
AcDbLine
 10
93.2753623385
 20
187.9805355286
 30
0.0
 11
93.2753623385
 21
185.9805355286
 31
0.0
  0
LINE
  5
DD
330
2B
100
AcDbEntity
  8
SCHALTER_AUS
  6
Continuous
 62
     7
100
AcDbLine
 10
93.3253623385
 20
184.7805355286
 30
0.0
 11
93.2753623385
 21
184.7805355286
 31
0.0
  0
LINE
  5
DE
330
2B
100
AcDbEntity
  8
SCHALTER_AUS
  6
Continuous
 62
     7
100
AcDbLine
 10
93.2753623385
 20
184.7805355286
 30
0.0
 11
93.2753623385
 21
182.7805355286
 31
0.0
  0
LINE
  5
DF
330
2B
100
AcDbEntity
  8
SCHALTER_AUS
  6
Continuous
 62
     7
100
AcDbLine
 10
93.2753623385
 20
182.7805355286
 30
0.0
 11
93.3253623385
 21
182.7805355286
 31
0.0
  0
LINE
  5
E0
330
2B
100
AcDbEntity
  8
SCHALTER_AUS
  6
Continuous
 62
     7
100
AcDbLine
 10
93.3253623385
 20
182.7805355286
 30
0.0
 11
93.3253623385
 21
184.7805355286
 31
0.0
  0
LINE
  5
E1
330
2B
100
AcDbEntity
  8
SCHALTER_AUS
  6
Continuous
 62
     7
100
AcDbLine
 10
93.5967166606
 20
183.9691477933
 30
0.0
 11
93.6088127554
 21
184.0176625796
 31
0.0
  0
ARC
  5
E2
330
2B
100
AcDbEntity
  8
SCHALTER_AUS
  6
Continuous
 62
     7
100
AcDbCircle
 10
93.3003623385
 20
182.7805355286
 30
0.0
 40
1.275
100
AcDbArc
 50
104.0
 51
76.0
  0
LINE
  5
E3
330
2B
100
AcDbEntity
  8
SCHALTER_AUS
  6
Continuous
 62
     7
100
AcDbLine
 10
92.9919119216
 20
184.0176625796
 30
0.0
 11
93.0040080164
 21
183.9691477933
 31
0.0
  0
ARC
  5
E4
330
2B
100
AcDbEntity
  8
SCHALTER_AUS
  6
Continuous
 62
     7
100
AcDbCircle
 10
93.3003623385
 20
182.7805355286
 30
0.0
 40
1.225000000000001
100
AcDbArc
 50
104.0
 51
76.0
  0
LINE
  5
E6
330
2B
100
AcDbEntity
  8
ZUSATZPLATINE
  6
Continuous
 62
     7
100
AcDbLine
 10
80.0003623385
 20
118.3163638428
 30
0.0
 11
80.0003623385
 21
117.6505151838
 31
0.0
  0
LINE
  5
E7
330
2B
100
AcDbEntity
  8
ZUSATZPLATINE
  6
Continuous
 62
     7
100
AcDbLine
 10
80.0003623385
 20
117.6505151838
 30
0.0
 11
80.1588717109
 21
117.6188133093
 31
0.0
  0
ARC
  5
E8
330
2B
100
AcDbEntity
  8
ZUSATZPLATINE
  6
Continuous
 62
     7
100
AcDbCircle
 10
85.9145759009
 20
229.3505351838
 30
0.0
 40
1.000000000000006
100
AcDbArc
 50
272.0508497421
 51
274.9212496188
  0
ARC
  5
E9
330
2B
100
AcDbEntity
  8
ZUSATZPLATINE
  6
Continuous
 62
     7
100
AcDbCircle
 10
89.3145759009
 20
229.3505351838
 30
0.0
 40
1.000000000000001
100
AcDbArc
 50
251.6866561914
 51
254.6797722084
  0
LINE
  5
EB
330
2B
100
AcDbEntity
  8
KK_PRIMÄR
  6
Continuous
 62
     7
100
AcDbLine
 10
85.9503623385
 20
229.9005351838
 30
0.0
 11
86.0003623385
 21
229.9005351838
 31
0.0
  0
LINE
  5
EC
330
2B
100
AcDbEntity
  8
KK_PRIMÄR
  6
Continuous
 62
     7
100
AcDbLine
 10
86.5003623385
 20
229.9505351838
 30
0.0
 11
86.5003623385
 21
230.0505351838
 31
0.0
  0
LINE
  5
EE
330
2B
100
AcDbEntity
  8
KIPPSCHALTER_26-
  6
Continuous
 62
     7
100
AcDbLine
 10
89.9303623385
 20
182.1720913089
 30
0.0
 11
89.9303623385
 21
181.685022675
 31
0.0
  0
LINE
  5
EF
330
2B
100
AcDbEntity
  8
KIPPSCHALTER_26-
  6
Continuous
 62
     7
100
AcDbLine
 10
89.9303623385
 20
182.1720913089
 30
0.0
 11
89.9303623385
 21
184.2931799486
 31
0.0
  0
LINE
  5
F0
330
2B
100
AcDbEntity
  8
KIPPSCHALTER_26-
  6
Continuous
 62
     7
100
AcDbLine
 10
89.7303623387
 20
182.3615542607
 30
0.0
 11
89.7303623389
 21
181.4850226752
 31
0.0
  0
LINE
  5
F1
330
2B
100
AcDbEntity
  8
KIPPSCHALTER_26-
  6
Continuous
 62
     7
100
AcDbLine
 10
89.7303623387
 20
182.3615542607
 30
0.0
 11
89.9303623385
 21
182.1720913089
 31
0.0
  0
LINE
  5
F2
330
2B
100
AcDbEntity
  8
KIPPSCHALTER_26-
  6
Continuous
 62
     7
100
AcDbLine
 10
87.2303623385
 20
182.1720913084
 30
0.0
 11
87.2303623385
 21
181.6850226754
 31
0.0
  0
LINE
  5
F3
330
2B
100
AcDbEntity
  8
KIPPSCHALTER_26-
  6
Continuous
 62
     7
100
AcDbLine
 10
87.4303623382
 20
181.4850226751
 30
0.0
 11
87.4303623388
 21
182.3615542607
 31
0.0
  0
LINE
  5
F4
330
2B
100
AcDbEntity
  8
KIPPSCHALTER_26-
  6
Continuous
 62
     7
100
AcDbLine
 10
87.4303623385
 20
182.3615542605
 30
0.0
 11
87.2303623385
 21
182.1720913082
 31
0.0
  0
LINE
  5
F5
330
2B
100
AcDbEntity
  8
KIPPSCHALTER_26-
  6
Continuous
 62
     7
100
AcDbLine
 10
87.2303623385
 20
182.1720913084
 30
0.0
 11
87.2303623385
 21
184.293179949
 31
0.0
  0
LINE
  5
F6
330
2B
100
AcDbEntity
  8
KIPPSCHALTER_26-
  6
Continuous
 62
     7
100
AcDbLine
 10
89.9303623385
 20
184.2931799486
 30
0.0
 11
89.9056407187
 21
184.31927647
 31
0.0
  0
SPLINE
  5
F7
330
2B
100
AcDbEntity
  8
KIPPSCHALTER_26-
  6
Continuous
 62
     7
100
AcDbSpline
210
0.0
220
0.0
230
1.0
 70
    12
 71
     2
 72
     6
 73
     3
 74
     0
 42
0.0000000426667248
 43
0.0000000001
 40
0.0
 40
0.0
 40
0.0
 40
1.0
 40
1.0
 40
1.0
 10
89.73036233885342
 20
184.4748535333177
 30
0.0
 41
1.0
 10
89.81841863189793
 20
184.3952366441372
 30
0.0
 41
0.9993489334738568
 10
89.90564071866552
 20
184.3192764700269
 30
0.0
 41
1.0
  0
LINE
  5
F8
330
2B
100
AcDbEntity
  8
KIPPSCHALTER_26-
  6
Continuous
 62
     7
100
AcDbLine
 10
89.7303623388
 20
184.4748535333
 30
0.0
 11
89.7303623387
 21
182.3615542607
 31
0.0
  0
LINE
  5
F9
330
2B
100
AcDbEntity
  8
KIPPSCHALTER_26-
  6
Continuous
 62
     7
100
AcDbLine
 10
89.7303623387
 20
182.3615542607
 30
0.0
 11
87.4303623385
 21
182.3615542607
 31
0.0
  0
LINE
  5
FA
330
2B
100
AcDbEntity
  8
KIPPSCHALTER_26-
  6
Continuous
 62
     7
100
AcDbLine
 10
87.4303623385
 20
182.3615542607
 30
0.0
 11
87.4303623382
 21
184.4748535333
 31
0.0
  0
SPLINE
  5
FB
330
2B
100
AcDbEntity
  8
KIPPSCHALTER_26-
  6
Continuous
 62
     7
100
AcDbSpline
210
0.0
220
0.0
230
1.0
 70
    12
 71
     2
 72
     6
 73
     3
 74
     0
 42
0.0000000426667251
 43
0.0000000001
 40
0.0
 40
0.0
 40
0.0
 40
1.0
 40
1.0
 40
1.0
 10
87.25508395953953
 20
184.3192764708525
 30
0.0
 41
1.0
 10
87.34230604577118
 20
184.3952366445144
 30
0.0
 41
0.9993489333584072
 10
87.43036233826702
 20
184.4748535331993
 30
0.0
 41
1.0
  0
LINE
  5
FC
330
2B
100
AcDbEntity
  8
KIPPSCHALTER_26-
  6
Continuous
 62
     7
100
AcDbLine
 10
87.2303623385
 20
184.293179949
 30
0.0
 11
87.2550839595
 21
184.3192764709
 31
0.0
  0
SPLINE
  5
FD
330
2B
100
AcDbEntity
  8
KIPPSCHALTER_26-
  6
Continuous
 62
     7
100
AcDbSpline
210
0.0
220
0.0
230
1.0
 70
    12
 71
     2
 72
     6
 73
     3
 74
     0
 42
0.0000000043232452
 43
0.0000000001
 40
0.0
 40
0.0
 40
0.0
 40
1.0
 40
1.0
 40
1.0
 10
87.43036233821701
 20
184.4748535332711
 30
0.0
 41
1.0
 10
88.58036233851072
 20
184.352046654841
 30
0.0
 41
0.9486650446728969
 10
89.73036233880427
 20
184.474853533265
 30
0.0
 41
1.0
  0
ARC
  5
FE
330
2B
100
AcDbEntity
  8
KIPPSCHALTER_26-
  6
Continuous
 62
     7
100
AcDbCircle
 10
88.5803623385
 20
184.9305351838
 30
0.0
 40
1.459451950539987
100
AcDbArc
 50
335.2394108431
 51
204.7605891469
  0
LINE
  5
FF
330
2B
100
AcDbEntity
  8
KIPPSCHALTER_26-
  6
Continuous
 62
     7
100
AcDbLine
 10
86.9553623385
 20
183.1888816018
 30
0.0
 11
87.2303623385
 21
183.1888816018
 31
0.0
  0
LINE
  5
100
330
2B
100
AcDbEntity
  8
KIPPSCHALTER_26-
  6
Continuous
 62
     7
100
AcDbLine
 10
89.9303623385
 20
183.1888816018
 30
0.0
 11
90.2053623385
 21
183.1888816018
 31
0.0
  0
LINE
  5
101
330
2B
100
AcDbEntity
  8
KIPPSCHALTER_26-
  6
Continuous
 62
     7
100
AcDbLine
 10
90.2053623385
 20
186.6721887658
 30
0.0
 11
86.9553623385
 21
186.6721887658
 31
0.0
  0
LINE
  5
102
330
2B
100
AcDbEntity
  8
KIPPSCHALTER_26-
  6
Continuous
 62
     7
100
AcDbLine
 10
86.9553623385
 20
187.2055351838
 30
0.0
 11
90.2053623385
 21
187.2055351838
 31
0.0
  0
LINE
  5
103
330
2B
100
AcDbEntity
  8
KIPPSCHALTER_26-
  6
Continuous
 62
     7
100
AcDbLine
 10
90.2053623385
 20
187.2055351838
 30
0.0
 11
90.2053623385
 21
182.6555351838
 31
0.0
  0
LINE
  5
104
330
2B
100
AcDbEntity
  8
KIPPSCHALTER_26-
  6
Continuous
 62
     7
100
AcDbLine
 10
90.2053623385
 20
182.6555351838
 30
0.0
 11
89.9303623385
 21
182.6555351838
 31
0.0
  0
LINE
  5
105
330
2B
100
AcDbEntity
  8
KIPPSCHALTER_26-
  6
Continuous
 62
     7
100
AcDbLine
 10
87.2303623385
 20
182.6555351838
 30
0.0
 11
86.9553623385
 21
182.6555351838
 31
0.0
  0
LINE
  5
106
330
2B
100
AcDbEntity
  8
KIPPSCHALTER_26-
  6
Continuous
 62
     7
100
AcDbLine
 10
86.9553623385
 20
182.6555351838
 30
0.0
 11
86.9553623385
 21
187.2055351838
 31
0.0
  0
ARC
  5
107
330
2B
100
AcDbEntity
  8
KIPPSCHALTER_26-
  6
Continuous
 62
     7
100
AcDbCircle
 10
88.5803623385
 20
184.9305351838
 30
0.0
 40
3.6
100
AcDbArc
 50
58.2382102878
 51
122.8918870011
  0
ARC
  5
108
330
2B
100
AcDbEntity
  8
KIPPSCHALTER_26-
  6
Continuous
 62
     7
100
AcDbCircle
 10
88.5803623385
 20
184.9305351838
 30
0.0
 40
3.6
100
AcDbArc
 50
237.1081129989
 51
250.4921971983
  0
ARC
  5
109
330
2B
100
AcDbEntity
  8
KIPPSCHALTER_26-
  6
Continuous
 62
     7
100
AcDbCircle
 10
88.5803623385
 20
184.9305351838
 30
0.0
 40
3.6
100
AcDbArc
 50
253.1539344649
 51
286.8460655351
  0
ARC
  5
10A
330
2B
100
AcDbEntity
  8
KIPPSCHALTER_26-
  6
Continuous
 62
     7
100
AcDbCircle
 10
88.5803623385
 20
184.9305351838
 30
0.0
 40
3.6
100
AcDbArc
 50
289.5078028189
 51
301.7617897122
  0
ARC
  5
10B
330
2B
100
AcDbEntity
  8
KIPPSCHALTER_26-
  6
Continuous
 62
     7
100
AcDbCircle
 10
88.5803623385
 20
184.9305351838
 30
0.0
 40
3.9
100
AcDbArc
 50
60.9287132897
 51
74.0576498348
  0
ARC
  5
10C
330
2B
100
AcDbEntity
  8
KIPPSCHALTER_26-
  6
Continuous
 62
     7
100
AcDbCircle
 10
88.5803623385
 20
184.9305351838
 30
0.0
 40
3.9
100
AcDbArc
 50
105.9423501652
 51
120.0848561399
  0
ARC
  5
10D
330
2B
100
AcDbEntity
  8
KIPPSCHALTER_26-
  6
Continuous
 62
     7
100
AcDbCircle
 10
88.5803623385
 20
184.9305351838
 30
0.0
 40
3.9
100
AcDbArc
 50
239.9151438601
 51
254.057612954
  0
ARC
  5
10E
330
2B
100
AcDbEntity
  8
KIPPSCHALTER_26-
  6
Continuous
 62
     7
100
AcDbCircle
 10
88.5803623385
 20
184.9305351838
 30
0.0
 40
3.9
100
AcDbArc
 50
285.942387046
 51
299.0712867103
  0
ARC
  5
10F
330
2B
100
AcDbEntity
  8
KIPPSCHALTER_26-
  6
Continuous
 62
     7
100
AcDbCircle
 10
88.5803623384
 20
184.9305351842
 30
0.0
 40
4.09999984998135
100
AcDbArc
 50
293.8461828608
 51
297.5288467608
  0
ARC
  5
110
330
2B
100
AcDbEntity
  8
KIPPSCHALTER_26-
  6
Continuous
 62
     7
100
AcDbCircle
 10
88.5803623384
 20
184.9305351842
 30
0.0
 40
4.09999984998135
100
AcDbArc
 50
241.521478394
 51
246.1538171392
  0
ARC
  5
111
330
2B
100
AcDbEntity
  8
KIPPSCHALTER_26-
  6
Continuous
 62
     7
100
AcDbCircle
 10
88.5803623384
 20
184.9305351842
 30
0.0
 40
4.09999984998135
100
AcDbArc
 50
113.8461590507
 51
118.478521606
  0
ARC
  5
112
330
2B
100
AcDbEntity
  8
KIPPSCHALTER_26-
  6
Continuous
 62
     7
100
AcDbCircle
 10
88.5803623384
 20
184.9305351842
 30
0.0
 40
4.09999984998135
100
AcDbArc
 50
62.4711532392
 51
66.1538409493
  0
LINE
  5
113
330
2B
100
AcDbEntity
  8
KIPPSCHALTER_26-
  6
Continuous
 62
     7
100
AcDbLine
 10
89.7303623388
 20
181.4850226749
 30
0.0
 11
89.9303623385
 21
181.6850226748
 31
0.0
  0
LINE
  5
114
330
2B
100
AcDbEntity
  8
KIPPSCHALTER_26-
  6
Continuous
 62
     7
100
AcDbLine
 10
87.2303623385
 20
181.6850226754
 30
0.0
 11
87.4303623385
 21
181.4850226752
 31
0.0
  0
LINE
  5
115
330
2B
100
AcDbEntity
  8
KIPPSCHALTER_26-
  6
Continuous
 62
     7
100
AcDbLine
 10
87.4303623385
 20
181.4850226752
 30
0.0
 11
89.7303623388
 21
181.4850226752
 31
0.0
  0
LINE
  5
117
330
2B
100
AcDbEntity
  8
LICHTLEITER
  6
Continuous
 62
     7
100
AcDbLine
 10
86.0003623385
 20
229.9505351838
 30
0.0
 11
89.0003623385
 21
229.9505351838
 31
0.0
  0
LINE
  5
118
330
2B
100
AcDbEntity
  8
LICHTLEITER
  6
Continuous
 62
     7
100
AcDbLine
 10
86.0003623385
 20
215.5505351838
 30
0.0
 11
86.0003623385
 21
229.9505351838
 31
0.0
  0
LINE
  5
119
330
2B
100
AcDbEntity
  8
LICHTLEITER
  6
Continuous
 62
     7
100
AcDbLine
 10
89.0003623385
 20
229.9505351838
 30
0.0
 11
89.0003623385
 21
215.5505351838
 31
0.0
  0
LINE
  5
11A
330
2B
100
AcDbEntity
  8
LICHTLEITER
  6
Continuous
 62
     7
100
AcDbLine
 10
86.0003623385
 20
229.9505351838
 30
0.0
 11
86.3003623385
 21
229.6505351838
 31
0.0
  0
LINE
  5
11B
330
2B
100
AcDbEntity
  8
LICHTLEITER
  6
Continuous
 62
     7
100
AcDbLine
 10
88.7003623385
 20
229.6505351838
 30
0.0
 11
89.0003623385
 21
229.9505351838
 31
0.0
  0
LINE
  5
11C
330
2B
100
AcDbEntity
  8
LICHTLEITER
  6
Continuous
 62
     7
100
AcDbLine
 10
89.0003623385
 20
215.5505351838
 30
0.0
 11
86.0003623385
 21
215.5505351838
 31
0.0
  0
LINE
  5
11D
330
2B
100
AcDbEntity
  8
LICHTLEITER
  6
Continuous
 62
     7
100
AcDbLine
 10
86.3003623385
 20
215.8505351838
 30
0.0
 11
86.3003623385
 21
229.6505351838
 31
0.0
  0
LINE
  5
11E
330
2B
100
AcDbEntity
  8
LICHTLEITER
  6
Continuous
 62
     7
100
AcDbLine
 10
86.0003623385
 20
215.5505351838
 30
0.0
 11
86.3003623385
 21
215.8505351838
 31
0.0
  0
LINE
  5
11F
330
2B
100
AcDbEntity
  8
LICHTLEITER
  6
Continuous
 62
     7
100
AcDbLine
 10
88.7003623385
 20
215.8505351838
 30
0.0
 11
89.0003623385
 21
215.5505351838
 31
0.0
  0
LINE
  5
120
330
2B
100
AcDbEntity
  8
LICHTLEITER
  6
Continuous
 62
     7
100
AcDbLine
 10
88.7003623385
 20
229.6505351838
 30
0.0
 11
88.7003623385
 21
215.8505351838
 31
0.0
  0
LINE
  5
121
330
2B
100
AcDbEntity
  8
LICHTLEITER
  6
Continuous
 62
     7
100
AcDbLine
 10
88.7003623385
 20
215.8505351838
 30
0.0
 11
86.3003623385
 21
215.8505351838
 31
0.0
  0
ARC
  5
122
330
2B
100
AcDbEntity
  8
LICHTLEITER
  6
Continuous
 62
     7
100
AcDbCircle
 10
87.5003623385
 20
217.5505351838
 30
0.0
 40
0.5500000000000851
100
AcDbArc
 50
90.0
 51
270.0
  0
ARC
  5
123
330
2B
100
AcDbEntity
  8
LICHTLEITER
  6
Continuous
 62
     7
100
AcDbCircle
 10
87.5003623385
 20
217.5505351838
 30
0.0
 40
0.5500000000000851
100
AcDbArc
 50
270.0
 51
90.0
  0
ARC
  5
124
330
2B
100
AcDbEntity
  8
LICHTLEITER
  6
Continuous
 62
     7
100
AcDbCircle
 10
87.5003623385
 20
222.7505351838
 30
0.0
 40
0.5500000000000851
100
AcDbArc
 50
90.0
 51
270.0
  0
ARC
  5
125
330
2B
100
AcDbEntity
  8
LICHTLEITER
  6
Continuous
 62
     7
100
AcDbCircle
 10
87.5003623385
 20
222.7505351838
 30
0.0
 40
0.5500000000000851
100
AcDbArc
 50
270.0
 51
90.0
  0
ARC
  5
126
330
2B
100
AcDbEntity
  8
LICHTLEITER
  6
Continuous
 62
     7
100
AcDbCircle
 10
87.5003623385
 20
227.9505351838
 30
0.0
 40
0.5500000000000851
100
AcDbArc
 50
90.0
 51
270.0
  0
ARC
  5
127
330
2B
100
AcDbEntity
  8
LICHTLEITER
  6
Continuous
 62
     7
100
AcDbCircle
 10
87.5003623385
 20
227.9505351838
 30
0.0
 40
0.5500000000000851
100
AcDbArc
 50
270.0
 51
90.0
  0
LINE
  5
128
330
2B
100
AcDbEntity
  8
LICHTLEITER
  6
Continuous
 62
     7
100
AcDbLine
 10
88.7003623385
 20
229.6505351838
 30
0.0
 11
86.3003623385
 21
229.6505351838
 31
0.0
  0
LINE
  5
12A
330
2B
100
AcDbEntity
  8
DECKEL
  6
Continuous
 62
     7
100
AcDbLine
 10
77.9003623385
 20
184.1398959352
 30
0.0
 11
76.5503623385
 21
184.1398959352
 31
0.0
  0
LINE
  5
12B
330
2B
100
AcDbEntity
  8
DECKEL
  6
Continuous
 62
     7
100
AcDbLine
 10
77.8003623385
 20
177.5473222668
 30
0.0
 11
76.5503623385
 21
177.5473222668
 31
0.0
  0
LINE
  5
12C
330
2B
100
AcDbEntity
  8
DECKEL
  6
Continuous
 62
     7
100
AcDbLine
 10
77.8003623385
 20
176.5473222668
 30
0.0
 11
75.5503623385
 21
176.5473222668
 31
0.0
  0
LINE
  5
12D
330
2B
100
AcDbEntity
  8
DECKEL
  6
Continuous
 62
     7
100
AcDbLine
 10
75.5503623385
 20
176.5473222668
 30
0.0
 11
75.5503623385
 21
174.9473222668
 31
0.0
  0
LINE
  5
12E
330
2B
100
AcDbEntity
  8
DECKEL
  6
Continuous
 62
     7
100
AcDbLine
 10
77.9003623385
 20
193.2029280984
 30
0.0
 11
76.5503623385
 21
193.2029280984
 31
0.0
  0
LINE
  5
12F
330
2B
100
AcDbEntity
  8
DECKEL
  6
Continuous
 62
     7
100
AcDbLine
 10
78.0345641895
 20
187.9525687412
 30
0.0
 11
76.5503623385
 21
187.9525687412
 31
0.0
  0
LINE
  5
130
330
2B
100
AcDbEntity
  8
DECKEL
  6
Continuous
 62
     7
100
AcDbLine
 10
75.5503623385
 20
186.2133789327
 30
0.0
 11
75.5503623385
 21
184.8408229728
 31
0.0
  0
LINE
  5
131
330
2B
100
AcDbEntity
  8
DECKEL
  6
Continuous
 62
     7
100
AcDbLine
 10
77.9003623385
 20
186.2133789327
 30
0.0
 11
75.5503623385
 21
186.2133789327
 31
0.0
  0
LINE
  5
132
330
2B
100
AcDbEntity
  8
DECKEL
  6
Continuous
 62
     7
100
AcDbLine
 10
77.9003623385
 20
184.8206504521
 30
0.0
 11
75.550748327
 21
184.8206504521
 31
0.0
  0
LINE
  5
133
330
2B
100
AcDbEntity
  8
DECKEL
  6
Continuous
 62
     7
100
AcDbLine
 10
77.9003623385
 20
184.1398959352
 30
0.0
 11
77.9003623385
 21
179.0473222668
 31
0.0
  0
LINE
  5
134
330
2B
100
AcDbEntity
  8
DECKEL
  6
Continuous
 62
     7
100
AcDbLine
 10
77.9003623385
 20
193.2029280984
 30
0.0
 11
77.9003623385
 21
188.0247870025
 31
0.0
  0
LINE
  5
135
330
2B
100
AcDbEntity
  8
DECKEL
  6
Continuous
 62
     7
100
AcDbLine
 10
77.9003623385
 20
184.8206504521
 30
0.0
 11
77.9003623385
 21
184.1398959352
 31
0.0
  0
LINE
  5
136
330
2B
100
AcDbEntity
  8
DECKEL
  6
Continuous
 62
     7
100
AcDbLine
 10
154.5503623385
 20
174.9473222668
 30
0.0
 11
76.5503623385
 21
174.9473222668
 31
0.0
  0
LINE
  5
137
330
2B
100
AcDbEntity
  8
DECKEL
  6
Continuous
 62
     7
100
AcDbLine
 10
154.5503623385
 20
111.8473222668
 30
0.0
 11
154.5503623385
 21
174.9473222668
 31
0.0
  0
LINE
  5
138
330
2B
100
AcDbEntity
  8
DECKEL
  6
Continuous
 62
     7
100
AcDbLine
 10
76.5503623385
 20
174.9473222668
 30
0.0
 11
76.5503623385
 21
111.8473222668
 31
0.0
  0
LINE
  5
139
330
2B
100
AcDbEntity
  8
DECKEL
  6
Continuous
 62
     7
100
AcDbLine
 10
76.5503623385
 20
111.8473222668
 30
0.0
 11
154.5503623385
 21
111.8473222668
 31
0.0
  0
LINE
  5
13A
330
2B
100
AcDbEntity
  8
DECKEL
  6
Continuous
 62
     7
100
AcDbLine
 10
154.5503623385
 20
110.8473222668
 30
0.0
 11
76.5503623385
 21
110.8473222668
 31
0.0
  0
ARC
  5
13B
330
2B
100
AcDbEntity
  8
DECKEL
  6
Continuous
 62
     7
100
AcDbCircle
 10
76.5503623385
 20
111.8473222668
 30
0.0
 40
1.000000000000015
100
AcDbArc
 50
180.0
 51
270.0
  0
ARC
  5
13C
330
2B
100
AcDbEntity
  8
DECKEL
  6
Continuous
 62
     7
100
AcDbCircle
 10
154.5503623385
 20
111.8473222668
 30
0.0
 40
1.000000000000001
100
AcDbArc
 50
270.0
 51
360.0
  0
LINE
  5
13D
330
2B
100
AcDbEntity
  8
DECKEL
  6
Continuous
 62
     7
100
AcDbLine
 10
75.5503623385
 20
111.8473222668
 30
0.0
 11
75.5503623385
 21
174.9473222668
 31
0.0
  0
LINE
  5
13E
330
2B
100
AcDbEntity
  8
DECKEL
  6
Continuous
 62
     7
100
AcDbLine
 10
155.5503623385
 20
174.9473222668
 30
0.0
 11
155.5503623385
 21
111.8473222668
 31
0.0
  0
ARC
  5
13F
330
2B
100
AcDbEntity
  8
DECKEL
  6
Continuous
 62
     7
100
AcDbCircle
 10
76.5503623385
 20
174.9473222668
 30
0.0
 40
1.000000000000001
100
AcDbArc
 50
90.0
 51
180.0
  0
ARC
  5
140
330
2B
100
AcDbEntity
  8
DECKEL
  6
Continuous
 62
     7
100
AcDbCircle
 10
154.5503623385
 20
174.9473222668
 30
0.0
 40
1.000000000000001
100
AcDbArc
 50
0.0
 51
90.0
  0
LINE
  5
141
330
2B
100
AcDbEntity
  8
DECKEL
  6
Continuous
 62
     7
100
AcDbLine
 10
76.5503623385
 20
175.9473222668
 30
0.0
 11
154.5503623385
 21
175.9473222668
 31
0.0
  0
LINE
  5
142
330
2B
100
AcDbEntity
  8
DECKEL
  6
Continuous
 62
     7
100
AcDbLine
 10
76.5503623385
 20
174.9473222668
 30
0.0
 11
76.5503623385
 21
175.9473222668
 31
0.0
  0
LINE
  5
143
330
2B
100
AcDbEntity
  8
DECKEL
  6
Continuous
 62
     7
100
AcDbLine
 10
154.5503623385
 20
175.9473222668
 30
0.0
 11
154.5503623385
 21
174.9473222668
 31
0.0
  0
LINE
  5
144
330
2B
100
AcDbEntity
  8
DECKEL
  6
Continuous
 62
     7
100
AcDbLine
 10
76.5503623385
 20
174.9473222668
 30
0.0
 11
75.5503623385
 21
174.9473222668
 31
0.0
  0
LINE
  5
145
330
2B
100
AcDbEntity
  8
DECKEL
  6
Continuous
 62
     7
100
AcDbLine
 10
155.5503623385
 20
174.9473222668
 30
0.0
 11
154.5503623385
 21
174.9473222668
 31
0.0
  0
LINE
  5
146
330
2B
100
AcDbEntity
  8
DECKEL
  6
Continuous
 62
     7
100
AcDbLine
 10
76.5503623385
 20
111.8473222668
 30
0.0
 11
75.5503623385
 21
111.8473222668
 31
0.0
  0
LINE
  5
147
330
2B
100
AcDbEntity
  8
DECKEL
  6
Continuous
 62
     7
100
AcDbLine
 10
155.5503623385
 20
111.8473222668
 30
0.0
 11
154.5503623385
 21
111.8473222668
 31
0.0
  0
LINE
  5
148
330
2B
100
AcDbEntity
  8
DECKEL
  6
Continuous
 62
     7
100
AcDbLine
 10
76.5503623385
 20
111.8473222668
 30
0.0
 11
76.5503623385
 21
110.8473222668
 31
0.0
  0
LINE
  5
149
330
2B
100
AcDbEntity
  8
DECKEL
  6
Continuous
 62
     7
100
AcDbLine
 10
154.5503623385
 20
110.8473222668
 30
0.0
 11
154.5503623385
 21
111.8473222668
 31
0.0
  0
LINE
  5
14A
330
2B
100
AcDbEntity
  8
DECKEL
  6
Continuous
 62
     7
100
AcDbLine
 10
76.5503623385
 20
193.2029280984
 30
0.0
 11
76.5503623385
 21
187.9525687412
 31
0.0
  0
LINE
  5
14B
330
2B
100
AcDbEntity
  8
DECKEL
  6
Continuous
 62
     7
100
AcDbLine
 10
75.5503623385
 20
186.5244207345
 30
0.0
 11
75.5503623385
 21
186.2133789327
 31
0.0
  0
SPLINE
  5
14C
330
2B
100
AcDbEntity
  8
DECKEL
  6
Continuous
 62
     7
100
AcDbSpline
210
0.0
220
0.0
230
1.0
 70
    12
 71
     2
 72
     6
 73
     3
 74
     0
 42
0.0000000041183651
 43
0.0000000001
 40
0.0
 40
0.0
 40
0.0
 40
1.0
 40
1.0
 40
1.0
 10
76.55036233851054
 20
187.9525687412307
 30
0.0
 41
1.0
 10
75.55036233851054
 20
187.9525687412307
 30
0.0
 41
0.7071067811865909
 10
75.55036233851054
 20
186.5244207344886
 30
0.0
 41
1.0
  0
LINE
  5
14D
330
2B
100
AcDbEntity
  8
DECKEL
  6
Continuous
 62
     7
100
AcDbLine
 10
75.5503623385
 20
186.5244207345
 30
0.0
 11
75.5503623385
 21
193.446767007
 31
0.0
  0
LINE
  5
14E
330
2B
100
AcDbEntity
  8
DECKEL
  6
Continuous
 62
     7
100
AcDbLine
 10
76.5503623385
 20
184.1398959352
 30
0.0
 11
76.5503623385
 21
177.5473222668
 31
0.0
  0
LINE
  5
14F
330
2B
100
AcDbEntity
  8
DECKEL
  6
Continuous
 62
     7
100
AcDbLine
 10
76.5503623385
 20
177.5473222668
 30
0.0
 11
75.5503623385
 21
176.5473222668
 31
0.0
  0
LINE
  5
150
330
2B
100
AcDbEntity
  8
DECKEL
  6
Continuous
 62
     7
100
AcDbLine
 10
75.5503623385
 20
176.5473222668
 30
0.0
 11
75.5503623385
 21
184.8408229728
 31
0.0
  0
LINE
  5
151
330
2B
100
AcDbEntity
  8
DECKEL
  6
Continuous
 62
     7
100
AcDbLine
 10
75.5503623385
 20
184.8408229728
 30
0.0
 11
75.550748327
 21
184.8206504521
 31
0.0
  0
SPLINE
  5
152
330
2B
100
AcDbEntity
  8
DECKEL
  6
Continuous
 62
     7
100
AcDbSpline
210
0.0
220
0.0
230
1.0
 70
    12
 71
     2
 72
     6
 73
     3
 74
     0
 42
0.0000000060463727
 43
0.0000000001
 40
0.0
 40
0.0
 40
0.0
 40
1.0
 40
1.0
 40
1.0
 10
75.5507483270336
 20
184.82065045211
 30
0.0
 41
1.0
 10
75.57776872219696
 20
184.139895935246
 30
0.0
 41
0.7168618394293483
 10
76.55036233851055
 20
184.139895935246
 30
0.0
 41
1.0
  0
LINE
  5
153
330
2B
100
AcDbEntity
  8
DECKEL
  6
Continuous
 62
     7
100
AcDbLine
 10
75.5503623385
 20
194.0505351838
 30
0.0
 11
75.5503623385
 21
193.446767007
 31
0.0
  0
ARC
  5
154
330
2B
100
AcDbEntity
  8
DECKEL
  6
Continuous
 62
     7
100
AcDbCircle
 10
76.5682719077
 20
194.169273027
 30
0.0
 40
0.9665108761316775
100
AcDbArc
 50
237.5980941691
 51
268.9382411693
  0
LINE
  5
155
330
2B
100
AcDbEntity
  8
DECKEL
  6
Continuous
 62
     7
100
AcDbLine
 10
76.0503623385
 20
193.3532381307
 30
0.0
 11
76.0503623385
 21
194.5505351838
 31
0.0
  0
SPLINE
  5
156
330
2B
100
AcDbEntity
  8
DECKEL
  6
Continuous
 62
     7
100
AcDbSpline
210
0.0
220
0.0
230
1.0
 70
     8
 71
     3
 72
    10
 73
     6
 74
     0
 42
0.0000000177917018
 43
0.0000000001
 40
0.0
 40
0.0
 40
0.0
 40
0.0
 40
0.5
 40
0.5
 40
1.0
 40
1.0
 40
1.0
 40
1.0
 10
76.05036233851055
 20
193.3532381307482
 30
0.0
 10
75.9127293654639
 20
193.4377698872796
 30
0.0
 10
75.7800216590693
 20
193.4760764444195
 30
0.0
 10
75.59800287503792
 20
193.4944156830223
 30
0.0
 10
75.55036233851054
 20
193.4746716524211
 30
0.0
 10
75.55036233851055
 20
193.4467670070381
 30
0.0
  0
LINE
  5
157
330
2B
100
AcDbEntity
  8
DECKEL
  6
Continuous
 62
     7
100
AcDbLine
 10
155.5503623385
 20
174.9473222668
 30
0.0
 11
155.5503623385
 21
176.5473222668
 31
0.0
  0
LINE
  5
158
330
2B
100
AcDbEntity
  8
DECKEL
  6
Continuous
 62
     7
100
AcDbLine
 10
153.3003623385
 20
176.5473222668
 30
0.0
 11
155.5503623385
 21
176.5473222668
 31
0.0
  0
LINE
  5
159
330
2B
100
AcDbEntity
  8
DECKEL
  6
Continuous
 62
     7
100
AcDbLine
 10
153.3003623385
 20
177.5473222668
 30
0.0
 11
154.5503623385
 21
177.5473222668
 31
0.0
  0
LINE
  5
15A
330
2B
100
AcDbEntity
  8
DECKEL
  6
Continuous
 62
     7
100
AcDbLine
 10
153.2003623385
 20
184.1398959352
 30
0.0
 11
154.5503623385
 21
184.1398959352
 31
0.0
  0
LINE
  5
15B
330
2B
100
AcDbEntity
  8
DECKEL
  6
Continuous
 62
     7
100
AcDbLine
 10
153.2003623385
 20
184.8206504521
 30
0.0
 11
155.54997635
 21
184.8206504521
 31
0.0
  0
LINE
  5
15C
330
2B
100
AcDbEntity
  8
DECKEL
  6
Continuous
 62
     7
100
AcDbLine
 10
155.5503623385
 20
186.2133789327
 30
0.0
 11
155.5503623385
 21
186.5244207345
 31
0.0
  0
LINE
  5
15D
330
2B
100
AcDbEntity
  8
DECKEL
  6
Continuous
 62
     7
100
AcDbLine
 10
153.2003623385
 20
186.2133789327
 30
0.0
 11
155.5503623385
 21
186.2133789327
 31
0.0
  0
LINE
  5
15E
330
2B
100
AcDbEntity
  8
DECKEL
  6
Continuous
 62
     7
100
AcDbLine
 10
153.0661604876
 20
187.9525687412
 30
0.0
 11
154.5503623385
 21
187.9525687412
 31
0.0
  0
LINE
  5
15F
330
2B
100
AcDbEntity
  8
DECKEL
  6
Continuous
 62
     7
100
AcDbLine
 10
153.2003623385
 20
193.2029280984
 30
0.0
 11
154.5503623385
 21
193.2029280984
 31
0.0
  0
LINE
  5
160
330
2B
100
AcDbEntity
  8
DECKEL
  6
Continuous
 62
     7
100
AcDbLine
 10
153.2003623385
 20
179.0473222668
 30
0.0
 11
153.2003623385
 21
184.1398959352
 31
0.0
  0
LINE
  5
161
330
2B
100
AcDbEntity
  8
DECKEL
  6
Continuous
 62
     7
100
AcDbLine
 10
153.2003623385
 20
184.1398959352
 30
0.0
 11
153.2003623385
 21
184.8206504521
 31
0.0
  0
LINE
  5
162
330
2B
100
AcDbEntity
  8
DECKEL
  6
Continuous
 62
     7
100
AcDbLine
 10
153.2003623385
 20
186.8505351838
 30
0.0
 11
153.2003623385
 21
187.2431132029
 31
0.0
  0
LINE
  5
163
330
2B
100
AcDbEntity
  8
DECKEL
  6
Continuous
 62
     7
100
AcDbLine
 10
153.2003623385
 20
193.2029280984
 30
0.0
 11
153.2003623385
 21
194.0215967343
 31
0.0
  0
LINE
  5
164
330
2B
100
AcDbEntity
  8
DECKEL
  6
Continuous
 62
     7
100
AcDbLine
 10
154.5503623385
 20
177.5473222668
 30
0.0
 11
154.5503623385
 21
184.1398959352
 31
0.0
  0
SPLINE
  5
165
330
2B
100
AcDbEntity
  8
DECKEL
  6
Continuous
 62
     7
100
AcDbSpline
210
0.0
220
0.0
230
1.0
 70
    12
 71
     2
 72
     6
 73
     3
 74
     0
 42
0.0000000060463727
 43
0.0000000001
 40
0.0
 40
0.0
 40
0.0
 40
1.0
 40
1.0
 40
1.0
 10
154.5503623385107
 20
184.139895935246
 30
0.0
 41
1.0
 10
155.5229559548223
 20
184.139895935246
 30
0.0
 41
0.7168618394301242
 10
155.5499763499876
 20
184.8206504521086
 30
0.0
 41
1.0
  0
LINE
  5
166
330
2B
100
AcDbEntity
  8
DECKEL
  6
Continuous
 62
     7
100
AcDbLine
 10
155.5503623385
 20
184.8408229728
 30
0.0
 11
155.5503623385
 21
186.2133789327
 31
0.0
  0
LINE
  5
167
330
2B
100
AcDbEntity
  8
DECKEL
  6
Continuous
 62
     7
100
AcDbLine
 10
155.54997635
 20
184.8206504521
 30
0.0
 11
155.5503623385
 21
184.8408229728
 31
0.0
  0
LINE
  5
168
330
2B
100
AcDbEntity
  8
DECKEL
  6
Continuous
 62
     7
100
AcDbLine
 10
155.5503623385
 20
184.8408229728
 30
0.0
 11
155.5503623385
 21
176.5473222668
 31
0.0
  0
LINE
  5
169
330
2B
100
AcDbEntity
  8
DECKEL
  6
Continuous
 62
     7
100
AcDbLine
 10
155.5503623385
 20
176.5473222668
 30
0.0
 11
154.5503623385
 21
177.5473222668
 31
0.0
  0
LINE
  5
16A
330
2B
100
AcDbEntity
  8
DECKEL
  6
Continuous
 62
     7
100
AcDbLine
 10
154.5503623385
 20
187.9525687412
 30
0.0
 11
154.5503623385
 21
193.2029280984
 31
0.0
  0
ARC
  5
16B
330
2B
100
AcDbEntity
  8
DECKEL
  6
Continuous
 62
     7
100
AcDbCircle
 10
154.5335460453
 20
194.1656362906
 30
0.0
 40
0.9628550519064549
100
AcDbArc
 50
271.000723437
 51
302.4629412245
  0
SPLINE
  5
16C
330
2B
100
AcDbEntity
  8
DECKEL
  6
Continuous
 62
     7
100
AcDbSpline
210
0.0
220
0.0
230
1.0
 70
    12
 71
     2
 72
     6
 73
     3
 74
     0
 42
0.0000000041183651
 43
0.0000000001
 40
0.0
 40
0.0
 40
0.0
 40
1.0
 40
1.0
 40
1.0
 10
155.5503623385107
 20
186.5244207344886
 30
0.0
 41
1.0
 10
155.5503623385107
 20
187.9525687412307
 30
0.0
 41
0.7071067811865909
 10
154.5503623385107
 20
187.9525687412307
 30
0.0
 41
1.0
  0
LINE
  5
16D
330
2B
100
AcDbEntity
  8
DECKEL
  6
Continuous
 62
     7
100
AcDbLine
 10
155.5503623385
 20
193.446767007
 30
0.0
 11
155.5503623385
 21
186.5244207345
 31
0.0
  0
LINE
  5
16E
330
2B
100
AcDbEntity
  8
DECKEL
  6
Continuous
 62
     7
100
AcDbLine
 10
155.5503623385
 20
193.446767007
 30
0.0
 11
155.5503623385
 21
194.0505351838
 31
0.0
  0
LINE
  5
16F
330
2B
100
AcDbEntity
  8
DECKEL
  6
Continuous
 62
     7
100
AcDbLine
 10
155.0503623385
 20
194.5505351838
 30
0.0
 11
155.0503623385
 21
193.3532381307
 31
0.0
  0
SPLINE
  5
170
330
2B
100
AcDbEntity
  8
DECKEL
  6
Continuous
 62
     7
100
AcDbSpline
210
0.0
220
0.0
230
1.0
 70
     8
 71
     3
 72
    10
 73
     6
 74
     0
 42
0.0000000177917018
 43
0.0000000001
 40
0.0
 40
0.0
 40
0.0
 40
0.0
 40
0.5
 40
0.5
 40
1.0
 40
1.0
 40
1.0
 40
1.0
 10
155.5503623385107
 20
193.4467670070381
 30
0.0
 10
155.5503623385107
 20
193.4746716524214
 30
0.0
 10
155.5027218019833
 20
193.4944156830223
 30
0.0
 10
155.3207030179519
 20
193.4760764444194
 30
0.0
 10
155.1879953115573
 20
193.4377698872796
 30
0.0
 10
155.0503623385107
 20
193.3532381307482
 30
0.0
  0
LINE
  5
171
330
2B
100
AcDbEntity
  8
DECKEL
  6
Continuous
 62
     7
100
AcDbLine
 10
77.9003623385
 20
194.0215967343
 30
0.0
 11
77.9003623385
 21
193.2029280984
 31
0.0
  0
LINE
  5
172
330
2B
100
AcDbEntity
  8
DECKEL
  6
Continuous
 62
     7
100
AcDbLine
 10
76.3003623385
 20
194.0215967343
 30
0.0
 11
77.9003623385
 21
194.0215967343
 31
0.0
  0
LINE
  5
173
330
2B
100
AcDbEntity
  8
DECKEL
  6
Continuous
 62
     7
100
AcDbLine
 10
76.3003623385
 20
194.5505351838
 30
0.0
 11
76.3003623385
 21
194.0215967343
 31
0.0
  0
LINE
  5
174
330
2B
100
AcDbEntity
  8
DECKEL
  6
Continuous
 62
     7
100
AcDbLine
 10
77.8003623385
 20
179.0473222668
 30
0.0
 11
77.9003623385
 21
179.0473222668
 31
0.0
  0
LINE
  5
175
330
2B
100
AcDbEntity
  8
DECKEL
  6
Continuous
 62
     7
100
AcDbLine
 10
77.8003623385
 20
175.9473222668
 30
0.0
 11
77.8003623385
 21
176.5473222668
 31
0.0
  0
LINE
  5
176
330
2B
100
AcDbEntity
  8
DECKEL
  6
Continuous
 62
     7
100
AcDbLine
 10
77.8003623385
 20
176.5473222668
 30
0.0
 11
77.8003623385
 21
177.5473222668
 31
0.0
  0
LINE
  5
177
330
2B
100
AcDbEntity
  8
DECKEL
  6
Continuous
 62
     7
100
AcDbLine
 10
77.8003623385
 20
177.5473222668
 30
0.0
 11
77.8003623385
 21
179.0473222668
 31
0.0
  0
LINE
  5
178
330
2B
100
AcDbEntity
  8
DECKEL
  6
Continuous
 62
     7
100
AcDbLine
 10
154.8003623385
 20
194.0215967343
 30
0.0
 11
153.2003623385
 21
194.0215967343
 31
0.0
  0
LINE
  5
179
330
2B
100
AcDbEntity
  8
DECKEL
  6
Continuous
 62
     7
100
AcDbLine
 10
154.8003623385
 20
194.0215967343
 30
0.0
 11
154.8003623385
 21
194.5505351838
 31
0.0
  0
LINE
  5
17A
330
2B
100
AcDbEntity
  8
DECKEL
  6
Continuous
 62
     7
100
AcDbLine
 10
153.3003623385
 20
179.0473222668
 30
0.0
 11
153.2003623385
 21
179.0473222668
 31
0.0
  0
LINE
  5
17B
330
2B
100
AcDbEntity
  8
DECKEL
  6
Continuous
 62
     7
100
AcDbLine
 10
153.3003623385
 20
179.0473222668
 30
0.0
 11
153.3003623385
 21
177.5473222668
 31
0.0
  0
LINE
  5
17C
330
2B
100
AcDbEntity
  8
DECKEL
  6
Continuous
 62
     7
100
AcDbLine
 10
153.3003623385
 20
177.5473222668
 30
0.0
 11
153.3003623385
 21
176.5473222668
 31
0.0
  0
LINE
  5
17D
330
2B
100
AcDbEntity
  8
DECKEL
  6
Continuous
 62
     7
100
AcDbLine
 10
153.3003623385
 20
176.5473222668
 30
0.0
 11
153.3003623385
 21
175.9473222668
 31
0.0
  0
LINE
  5
17E
330
2B
100
AcDbEntity
  8
DECKEL
  6
Continuous
 62
     7
100
AcDbLine
 10
77.0003623385
 20
115.2973222668
 30
0.0
 11
82.1003623385
 21
115.2973222668
 31
0.0
  0
LINE
  5
17F
330
2B
100
AcDbEntity
  8
DECKEL
  6
Continuous
 62
     7
100
AcDbLine
 10
82.1003623385
 20
115.2973222668
 30
0.0
 11
82.1003623385
 21
120.3973222668
 31
0.0
  0
LINE
  5
180
330
2B
100
AcDbEntity
  8
DECKEL
  6
Continuous
 62
     7
100
AcDbLine
 10
82.1003623385
 20
120.3973222668
 30
0.0
 11
77.0003623385
 21
120.3973222668
 31
0.0
  0
LINE
  5
181
330
2B
100
AcDbEntity
  8
DECKEL
  6
Continuous
 62
     7
100
AcDbLine
 10
77.0003623385
 20
120.3973222668
 30
0.0
 11
77.0003623385
 21
115.2973222668
 31
0.0
  0
CIRCLE
  5
182
330
2B
100
AcDbEntity
  8
DECKEL
  6
Continuous
 62
     7
100
AcDbCircle
 10
79.5503623385
 20
117.8473222668
 30
0.0
 40
0.9500000000000064
  0
CIRCLE
  5
183
330
2B
100
AcDbEntity
  8
DECKEL
  6
Continuous
 62
     7
100
AcDbCircle
 10
79.5503623385
 20
117.8473222668
 30
0.0
 40
0.6500000000000001
  0
LINE
  5
184
330
2B
100
AcDbEntity
  8
DECKEL
  6
Continuous
 62
     7
100
AcDbLine
 10
153.2003623385
 20
188.0247870025
 30
0.0
 11
153.2003623385
 21
193.2029280984
 31
0.0
  0
SPLINE
  5
185
330
2B
100
AcDbEntity
  8
DECKEL
  6
Continuous
 62
     7
100
AcDbSpline
210
0.0
220
0.0
230
1.0
 70
     8
 71
     3
 72
    14
 73
    10
 74
     0
 42
0.0000000091760675
 43
0.0000000001
 40
0.0
 40
0.0
 40
0.0
 40
0.0
 40
0.25
 40
0.25
 40
0.5
 40
0.5
 40
0.75
 40
0.75
 40
1.0
 40
1.0
 40
1.0
 40
1.0
 10
153.0661604875586
 20
187.9525687412348
 30
0.0
 10
152.9723292466484
 20
187.9229472845747
 30
0.0
 10
152.8966654968892
 20
187.862700093707
 30
0.0
 10
152.8078640494641
 20
187.7166422796132
 30
0.0
 10
152.7932453973172
 20
187.6320694703084
 30
0.0
 10
152.8193588949793
 20
187.4707185843215
 30
0.0
 10
152.8611257581235
 20
187.3931887940552
 30
0.0
 10
153.0029656774531
 20
187.2773907269472
 30
0.0
 10
153.099637155774
 20
187.2431132028721
 30
0.0
 10
153.2003623385106
 20
187.2431132028721
 30
0.0
  0
SPLINE
  5
186
330
2B
100
AcDbEntity
  8
DECKEL
  6
Continuous
 62
     7
100
AcDbSpline
210
0.0
220
0.0
230
1.0
 70
     8
 71
     3
 72
    10
 73
     6
 74
     0
 42
0.0000000625227115
 43
0.0000000001
 40
0.0
 40
0.0
 40
0.0
 40
0.0
 40
0.5
 40
0.5
 40
1.0
 40
1.0
 40
1.0
 40
1.0
 10
153.2003623385106
 20
188.0247870025301
 30
0.0
 10
153.1739275743219
 20
188.0247870025303
 30
0.0
 10
153.1476524746232
 20
188.0178585195301
 30
0.0
 10
153.1014455726431
 20
187.9925829708877
 30
0.0
 10
153.0814425251577
 20
187.9742962984311
 30
0.0
 10
153.0661604875586
 20
187.9525687412348
 30
0.0
  0
LINE
  5
187
330
2B
100
AcDbEntity
  8
DECKEL
  6
Continuous
 62
     7
100
AcDbLine
 10
77.9003623385
 20
187.2431132029
 30
0.0
 11
77.9003623385
 21
186.8505351838
 31
0.0
  0
SPLINE
  5
188
330
2B
100
AcDbEntity
  8
DECKEL
  6
Continuous
 62
     7
100
AcDbSpline
210
0.0
220
0.0
230
1.0
 70
     8
 71
     3
 72
    32
 73
    28
 74
     0
 42
0.0000000093208629
 43
0.0000000001
 40
0.0
 40
0.0
 40
0.0
 40
0.0
 40
0.1068563933556644
 40
0.1068563933556644
 40
0.1068563933556644
 40
0.2137421822588879
 40
0.2137421822588879
 40
0.2137421822588879
 40
0.3217854468151102
 40
0.3217854468151102
 40
0.3217854468151102
 40
0.4368038410392768
 40
0.4368038410392768
 40
0.4368038410392768
 40
0.5651603228782137
 40
0.5651603228782137
 40
0.5651603228782137
 40
0.7111835762370332
 40
0.7111835762370332
 40
0.7111835762370332
 40
0.8554469948313123
 40
0.8554469948313123
 40
0.8554469948313123
 40
0.9787171493504471
 40
0.9787171493504471
 40
0.9787171493504471
 40
1.0
 40
1.0
 40
1.0
 40
1.0
 10
77.9003623385106
 20
187.2431132028721
 30
0.0
 10
77.94270512305705
 20
187.2431132028721
 30
0.0
 10
77.98563999373067
 20
187.2492320843504
 30
0.0
 10
78.02552681408025
 20
187.260873066864
 30
0.0
 10
78.06544738089488
 20
187.2725238982954
 30
0.0
 10
78.10340658367038
 20
187.290010737333
 30
0.0
 10
78.13648777104504
 20
187.311707932432
 30
0.0
 10
78.16995511677219
 20
187.3336583999731
 30
0.0
 10
78.1992960238641
 20
187.3604519174823
 30
0.0
 10
78.22278730825128
 20
187.3898305872765
 30
0.0
 10
78.24780194126343
 20
187.4211143873094
 30
0.0
 10
78.26682134821321
 20
187.4560418121866
 30
0.0
 10
78.27938218314506
 20
187.4919956742819
 30
0.0
 10
78.29339234274269
 20
187.5320980519374
 30
0.0
 10
78.29982237820498
 20
187.5744034169828
 30
0.0
 10
78.2988833188371
 20
187.6161085473605
 30
0.0
 10
78.29781874512095
 20
187.6633879709482
 30
0.0
 10
78.28718427955673
 20
187.7112903928102
 30
0.0
 10
78.26669490235035
 20
187.7554990407398
 30
0.0
 10
78.24651727407853
 20
187.7990350474881
 30
0.0
 10
78.21580343127432
 20
187.8403695565497
 30
0.0
 10
78.17669287748316
 20
187.8741656499165
 30
0.0
 10
78.14316384156784
 20
187.9031386589499
 30
0.0
 10
78.10239099165766
 20
187.9274871200774
 30
0.0
 10
78.05820914343482
 20
187.9443378362365
 30
0.0
 10
78.05044559389871
 20
187.9472988117249
 30
0.0
 10
78.04255511142541
 20
187.9500460979633
 30
0.0
 10
78.03456418947569
 20
187.9525687412307
 30
0.0
  0
SPLINE
  5
189
330
2B
100
AcDbEntity
  8
DECKEL
  6
Continuous
 62
     7
100
AcDbSpline
210
0.0
220
0.0
230
1.0
 70
     8
 71
     3
 72
    10
 73
     6
 74
     0
 42
0.0000000625233428
 43
0.0000000001
 40
0.0
 40
0.0
 40
0.0
 40
0.0
 40
0.5
 40
0.5
 40
1.0
 40
1.0
 40
1.0
 40
1.0
 10
78.03456418947569
 20
187.9525687412307
 30
0.0
 10
78.01940763064401
 20
187.9741178963918
 30
0.0
 10
77.99939972327182
 20
187.9924854004432
 30
0.0
 10
77.95325330226039
 20
188.0177908415687
 30
0.0
 10
77.92693544218105
 20
188.02478700253
 30
0.0
 10
77.9003623385106
 20
188.0247870025301
 30
0.0
  0
LINE
  5
18A
330
2B
100
AcDbEntity
  8
DECKEL
  6
Continuous
 62
     7
100
AcDbLine
 10
76.3003623385
 20
194.5505351838
 30
0.0
 11
76.0503623385
 21
194.5505351838
 31
0.0
  0
ARC
  5
18B
330
2B
100
AcDbEntity
  8
DECKEL
  6
Continuous
 62
     7
100
AcDbCircle
 10
76.0503623385
 20
194.0505351838
 30
0.0
 40
0.5000000000000004
100
AcDbArc
 50
90.0
 51
180.0
  0
LINE
  5
18C
330
2B
100
AcDbEntity
  8
DECKEL
  6
Continuous
 62
     7
100
AcDbLine
 10
155.0503623385
 20
194.5505351838
 30
0.0
 11
154.8003623385
 21
194.5505351838
 31
0.0
  0
ARC
  5
18D
330
2B
100
AcDbEntity
  8
DECKEL
  6
Continuous
 62
     7
100
AcDbCircle
 10
155.0503623385
 20
194.0505351838
 30
0.0
 40
0.5000000000000004
100
AcDbArc
 50
0.0
 51
90.0
  0
ARC
  5
18E
330
2B
100
AcDbEntity
  8
DECKEL
  6
Continuous
 62
     7
100
AcDbCircle
 10
153.2003623385
 20
187.9385808996
 30
0.0
 40
0.5000000000000004
100
AcDbArc
 50
90.0
 51
180.0
  0
ARC
  5
18F
330
2B
100
AcDbEntity
  8
DECKEL
  6
Continuous
 62
     7
100
AcDbCircle
 10
153.2003623385
 20
187.7385808996
 30
0.0
 40
0.5000000000000004
100
AcDbArc
 50
180.0
 51
270.0
  0
ARC
  5
190
330
2B
100
AcDbEntity
  8
DECKEL
  6
Continuous
 62
     7
100
AcDbCircle
 10
77.9003623385
 20
187.7385808996
 30
0.0
 40
0.5000000000000004
100
AcDbArc
 50
270.0
 51
280.0224756237
  0
ARC
  5
191
330
2B
100
AcDbEntity
  8
DECKEL
  6
Continuous
 62
     7
100
AcDbCircle
 10
77.9003623385
 20
187.7385808996
 30
0.0
 40
0.5000000000000004
100
AcDbArc
 50
286.8028486391
 51
360.0
  0
ARC
  5
192
330
2B
100
AcDbEntity
  8
DECKEL
  6
Continuous
 62
     7
100
AcDbCircle
 10
77.9003623385
 20
187.9385808996
 30
0.0
 40
0.5000000000000004
100
AcDbArc
 50
0.0
 51
90.0
  0
ENDBLK
  5
194
330
2B
100
AcDbEntity
  8
0
100
AcDbBlockEnd
  0
BLOCK
  5
23E
330
195
100
AcDbEntity
  8
0
100
AcDbBlockBegin
  2
SE1
 70
     0
 71
     0
 10
0.0
 20
0.0
 30
0.0
  3
SE1
  1

  0
ARC
  5
197
330
195
100
AcDbEntity
  8
GEHÄUSE_VORDERTE
  6
Continuous
 62
     7
100
AcDbCircle
 10
333.2651542979
 20
190.7505351838
 30
0.0
 40
4.500000000000001
100
AcDbArc
 50
90.0
 51
180.0
  0
LINE
  5
198
330
195
100
AcDbEntity
  8
GEHÄUSE_VORDERTE
  6
Continuous
 62
     7
100
AcDbLine
 10
328.7651542979
 20
190.7505351838
 30
0.0
 11
328.7651542979
 21
165.8505351838
 31
0.0
  0
ARC
  5
199
330
195
100
AcDbEntity
  8
GEHÄUSE_VORDERTE
  6
Continuous
 62
     7
100
AcDbCircle
 10
333.2651542979
 20
165.8505351838
 30
0.0
 40
4.499999999999997
100
AcDbArc
 50
180.0
 51
270.0
  0
LINE
  5
19A
330
195
100
AcDbEntity
  8
GEHÄUSE_VORDERTE
  6
Continuous
 62
     7
100
AcDbLine
 10
333.2651542979
 20
161.3505351838
 30
0.0
 11
334.3651542979
 21
161.3505351838
 31
0.0
  0
LINE
  5
19B
330
195
100
AcDbEntity
  8
GEHÄUSE_VORDERTE
  6
Continuous
 62
     7
100
AcDbLine
 10
336.1651542979
 20
195.2505351838
 30
0.0
 11
336.1651542979
 21
193.2029280984
 31
0.0
  0
ARC
  5
19C
330
195
100
AcDbEntity
  8
GEHÄUSE_VORDERTE
  6
Continuous
 62
     7
100
AcDbCircle
 10
334.4651542979
 20
193.8505351838
 30
0.0
 40
0.6
100
AcDbArc
 50
28.0596507802
 51
109.5304929763
  0
LINE
  5
19D
330
195
100
AcDbEntity
  8
GEHÄUSE_VORDERTE
  6
Continuous
 62
     7
100
AcDbLine
 10
336.1651542979
 20
187.3505351838
 30
0.0
 11
336.1651542979
 21
184.1398959352
 31
0.0
  0
LINE
  5
19E
330
195
100
AcDbEntity
  8
GEHÄUSE_VORDERTE
  6
Continuous
 62
     7
100
AcDbLine
 10
335.6651542979
 20
193.6945033436
 30
0.0
 11
335.6651542979
 21
195.2505351838
 31
0.0
  0
ARC
  5
19F
330
195
100
AcDbEntity
  8
GEHÄUSE_VORDERTE
  6
Continuous
 62
     7
100
AcDbCircle
 10
335.5638041221
 20
187.8505351838
 30
0.0
 40
0.9999999999999996
100
AcDbArc
 50
260.726333634
 51
270.0
  0
LINE
  5
1A0
330
195
100
AcDbEntity
  8
GEHÄUSE_VORDERTE
  6
Continuous
 62
     7
100
AcDbLine
 10
335.5638041221
 20
186.8505351838
 30
0.0
 11
335.6651542979
 21
186.8505351838
 31
0.0
  0
LINE
  5
1A1
330
195
100
AcDbEntity
  8
GEHÄUSE_VORDERTE
  6
Continuous
 62
     7
100
AcDbLine
 10
336.1651542979
 20
187.3505351838
 30
0.0
 11
336.1651542979
 21
187.9525687412
 31
0.0
  0
LINE
  5
1A2
330
195
100
AcDbEntity
  8
GEHÄUSE_VORDERTE
  6
Continuous
 62
     7
100
AcDbLine
 10
335.7436058627
 20
187.3505351838
 30
0.0
 11
336.1651542979
 21
187.3505351838
 31
0.0
  0
ARC
  5
1A3
330
195
100
AcDbEntity
  8
GEHÄUSE_VORDERTE
  6
Continuous
 62
     7
100
AcDbCircle
 10
335.6651542979
 20
187.3505351838
 30
0.0
 40
0.5000000000000004
100
AcDbArc
 50
270.0
 51
360.0
  0
LINE
  5
1A4
330
195
100
AcDbEntity
  8
GEHÄUSE_VORDERTE
  6
Continuous
 62
     7
100
AcDbLine
 10
335.5638041221
 20
187.0937516864
 30
0.0
 11
335.5638041221
 21
186.8505351838
 31
0.0
  0
LINE
  5
1A5
330
195
100
AcDbEntity
  8
GEHÄUSE_VORDERTE
  6
Continuous
 62
     7
100
AcDbLine
 10
295.2651542979
 20
235.8505351838
 30
0.0
 11
335.1651542979
 21
235.8505351838
 31
0.0
  0
LINE
  5
1A6
330
195
100
AcDbEntity
  8
GEHÄUSE_VORDERTE
  6
Continuous
 62
     7
100
AcDbLine
 10
295.2651542979
 20
234.8505351838
 30
0.0
 11
295.2651542979
 21
111.8505351838
 31
0.0
  0
LINE
  5
1A7
330
195
100
AcDbEntity
  8
GEHÄUSE_VORDERTE
  6
Continuous
 62
     7
100
AcDbLine
 10
295.2651542979
 20
234.8505351838
 30
0.0
 11
295.2651542979
 21
235.8505351838
 31
0.0
  0
LINE
  5
1A8
330
195
100
AcDbEntity
  8
GEHÄUSE_VORDERTE
  6
Continuous
 62
     7
100
AcDbLine
 10
336.1651542979
 20
234.8505351838
 30
0.0
 11
336.1651542979
 21
195.2505351838
 31
0.0
  0
LINE
  5
1A9
330
195
100
AcDbEntity
  8
GEHÄUSE_VORDERTE
  6
Continuous
 62
     7
100
AcDbLine
 10
335.1651542979
 20
195.2505351838
 30
0.0
 11
333.2651542979
 21
195.2505351838
 31
0.0
  0
LINE
  5
1AA
330
195
100
AcDbEntity
  8
GEHÄUSE_VORDERTE
  6
Continuous
 62
     7
100
AcDbLine
 10
335.1651542979
 20
195.2505351838
 30
0.0
 11
335.1651542979
 21
234.8505351838
 31
0.0
  0
LINE
  5
1AB
330
195
100
AcDbEntity
  8
GEHÄUSE_VORDERTE
  6
Continuous
 62
     7
100
AcDbLine
 10
335.1651542979
 20
234.8505351838
 30
0.0
 11
295.2651542979
 21
234.8505351838
 31
0.0
  0
LINE
  5
1AC
330
195
100
AcDbEntity
  8
GEHÄUSE_VORDERTE
  6
Continuous
 62
     7
100
AcDbLine
 10
336.1651542979
 20
195.2505351838
 30
0.0
 11
335.1651542979
 21
195.2505351838
 31
0.0
  0
LINE
  5
1AD
330
195
100
AcDbEntity
  8
GEHÄUSE_VORDERTE
  6
Continuous
 62
     7
100
AcDbLine
 10
335.1651542979
 20
234.8505351838
 30
0.0
 11
336.1651542979
 21
234.8505351838
 31
0.0
  0
LINE
  5
1AE
330
195
100
AcDbEntity
  8
GEHÄUSE_VORDERTE
  6
Continuous
 62
     7
100
AcDbLine
 10
335.1651542979
 20
235.8505351838
 30
0.0
 11
335.1651542979
 21
234.8505351838
 31
0.0
  0
ARC
  5
1AF
330
195
100
AcDbEntity
  8
GEHÄUSE_VORDERTE
  6
Continuous
 62
     7
100
AcDbCircle
 10
335.1651542979
 20
234.8505351838
 30
0.0
 40
1.000000000000001
100
AcDbArc
 50
0.0
 51
90.0
  0
LINE
  5
1B0
330
195
100
AcDbEntity
  8
GEHÄUSE_VORDERTE
  6
Continuous
 62
     7
100
AcDbLine
 10
335.6651542979
 20
184.4899997044
 30
0.0
 11
335.6651542979
 21
186.8505351838
 31
0.0
  0
LINE
  5
1B1
330
195
100
AcDbEntity
  8
GEHÄUSE_VORDERTE
  6
Continuous
 62
     7
100
AcDbLine
 10
295.2651542979
 20
110.8505351838
 30
0.0
 11
295.2651542979
 21
111.8505351838
 31
0.0
  0
LINE
  5
1B2
330
195
100
AcDbEntity
  8
GEHÄUSE_VORDERTE
  6
Continuous
 62
     7
100
AcDbLine
 10
334.3651542979
 20
111.8505351838
 30
0.0
 11
334.3651542979
 21
161.3505351838
 31
0.0
  0
LINE
  5
1B3
330
195
100
AcDbEntity
  8
GEHÄUSE_VORDERTE
  6
Continuous
 62
     7
100
AcDbLine
 10
295.2651542979
 20
111.8505351838
 30
0.0
 11
334.3651542979
 21
111.8505351838
 31
0.0
  0
LINE
  5
1B4
330
195
100
AcDbEntity
  8
GEHÄUSE_VORDERTE
  6
Continuous
 62
     7
100
AcDbLine
 10
333.3651542979
 20
110.8505351838
 30
0.0
 11
295.2651542979
 21
110.8505351838
 31
0.0
  0
ARC
  5
1B5
330
195
100
AcDbEntity
  8
GEHÄUSE_VORDERTE
  6
Continuous
 62
     7
100
AcDbCircle
 10
333.3651542979
 20
111.8505351838
 30
0.0
 40
1.000000000000001
100
AcDbArc
 50
270.0
 51
360.0
  0
LINE
  5
1B6
330
195
100
AcDbEntity
  8
GEHÄUSE_VORDERTE
  6
Continuous
 62
     7
100
AcDbLine
 10
340.2366465052
 20
179.6484491117
 30
0.0
 11
336.1651542979
 21
178.9305351838
 31
0.0
  0
LINE
  5
1B7
330
195
100
AcDbEntity
  8
GEHÄUSE_VORDERTE
  6
Continuous
 62
     7
100
AcDbLine
 10
340.1311048725
 20
189.3558385108
 30
0.0
 11
336.1651542979
 21
190.0551426013
 31
0.0
  0
ARC
  5
1B8
330
195
100
AcDbEntity
  8
GEHÄUSE_VORDERTE
  6
Continuous
 62
     7
100
AcDbCircle
 10
340.1085306094
 20
189.2278135029
 30
0.0
 40
0.1300000000000119
100
AcDbArc
 50
32.4905019375
 51
80.0
  0
ARC
  5
1B9
330
195
100
AcDbEntity
  8
GEHÄUSE_VORDERTE
  6
Continuous
 62
     7
100
AcDbCircle
 10
333.3606865798
 20
184.9305351838
 30
0.0
 40
8.130000000000019
100
AcDbArc
 50
327.5094980625
 51
32.4905019375
  0
ARC
  5
1BA
330
195
100
AcDbEntity
  8
GEHÄUSE_VORDERTE
  6
Continuous
 62
     7
100
AcDbCircle
 10
340.1085306094
 20
180.6332568647
 30
0.0
 40
0.1300000000000032
100
AcDbArc
 50
280.0
 51
327.5094980625
  0
LINE
  5
1BB
330
195
100
AcDbEntity
  8
GEHÄUSE_VORDERTE
  6
Continuous
 62
     7
100
AcDbLine
 10
336.1651542979
 20
179.8059277664
 30
0.0
 11
340.1311048725
 21
180.5052318568
 31
0.0
  0
ARC
  5
1BC
330
195
100
AcDbEntity
  8
GEHÄUSE_VORDERTE
  6
Continuous
 62
     7
100
AcDbCircle
 10
340.0629983275
 20
180.6332568647
 30
0.0
 40
1.000000000000007
100
AcDbArc
 50
280.0
 51
327.5094980625
  0
ARC
  5
1BD
330
195
100
AcDbEntity
  8
GEHÄUSE_VORDERTE
  6
Continuous
 62
     7
100
AcDbCircle
 10
333.3151542979
 20
184.9305351838
 30
0.0
 40
8.999999999999993
100
AcDbArc
 50
327.5094980625
 51
32.4905019375
  0
ARC
  5
1BE
330
195
100
AcDbEntity
  8
GEHÄUSE_VORDERTE
  6
Continuous
 62
     7
100
AcDbCircle
 10
340.0629983275
 20
189.2278135029
 30
0.0
 40
1.0
100
AcDbArc
 50
32.4905019375
 51
80.0
  0
LINE
  5
1BF
330
195
100
AcDbEntity
  8
GEHÄUSE_VORDERTE
  6
Continuous
 62
     7
100
AcDbLine
 10
336.1651542979
 20
190.9305351838
 30
0.0
 11
340.2366465052
 21
190.2126212559
 31
0.0
  0
SPLINE
  5
1C0
330
195
100
AcDbEntity
  8
GEHÄUSE_VORDERTE
  6
Continuous
 62
     7
100
AcDbSpline
210
0.0
220
0.0
230
1.0
 70
    12
 71
     2
 72
     6
 73
     3
 74
     0
 42
0.0000000110310721
 43
0.0000000001
 40
0.0
 40
0.0
 40
0.0
 40
1.0
 40
1.0
 40
1.0
 10
340.1311048725294
 20
189.3558385107988
 30
0.0
 41
1.0
 10
340.280408113407
 20
190.2049049036675
 30
0.0
 41
0.7103126225225993
 10
340.2366465051683
 20
190.2126212559194
 30
0.0
 41
1.0
  0
SPLINE
  5
1C1
330
195
100
AcDbEntity
  8
GEHÄUSE_VORDERTE
  6
Continuous
 62
     7
100
AcDbSpline
210
0.0
220
0.0
230
1.0
 70
    12
 71
     2
 72
     6
 73
     3
 74
     0
 42
0.0000000116956449
 43
0.0000000001
 40
0.0
 40
0.0
 40
0.0
 40
1.0
 40
1.0
 40
1.0
 10
340.2181830749141
 20
189.2976442755925
 30
0.0
 41
1.0
 10
340.9190612999542
 20
189.7452155460714
 30
0.0
 41
0.7225456244183618
 10
340.9064788312051
 20
189.7649732927943
 30
0.0
 41
1.0
  0
SPLINE
  5
1C2
330
195
100
AcDbEntity
  8
GEHÄUSE_VORDERTE
  6
Continuous
 62
     7
100
AcDbSpline
210
0.0
220
0.0
230
1.0
 70
    12
 71
     2
 72
     6
 73
     3
 74
     0
 42
0.0000000116956449
 43
0.0000000001
 40
0.0
 40
0.0
 40
0.0
 40
1.0
 40
1.0
 40
1.0
 10
340.9064788312051
 20
180.0960970748261
 30
0.0
 41
1.0
 10
340.9190612999542
 20
180.115854821549
 30
0.0
 41
0.7225456244183618
 10
340.2181830749141
 20
180.5634260920279
 30
0.0
 41
1.0
  0
SPLINE
  5
1C3
330
195
100
AcDbEntity
  8
GEHÄUSE_VORDERTE
  6
Continuous
 62
     7
100
AcDbSpline
210
0.0
220
0.0
230
1.0
 70
    12
 71
     2
 72
     6
 73
     3
 74
     0
 42
0.0000000110310721
 43
0.0000000001
 40
0.0
 40
0.0
 40
0.0
 40
1.0
 40
1.0
 40
1.0
 10
340.2366465051683
 20
179.648449111701
 30
0.0
 41
1.0
 10
340.2804081134069
 20
179.656165463953
 30
0.0
 41
0.7103126225203097
 10
340.1311048725294
 20
180.5052318568216
 30
0.0
 41
1.0
  0
LINE
  5
1C4
330
195
100
AcDbEntity
  8
GEHÄUSE_VORDERTE
  6
Continuous
 62
     7
100
AcDbLine
 10
294.4651542979
 20
115.4505351838
 30
0.0
 11
295.0428000114
 21
115.4505351838
 31
0.0
  0
LINE
  5
1C5
330
195
100
AcDbEntity
  8
GEHÄUSE_VORDERTE
  6
Continuous
 62
     7
100
AcDbLine
 10
295.0428000114
 20
115.4505351838
 30
0.0
 11
295.2651542979
 21
115.4505351838
 31
0.0
  0
LINE
  5
1C6
330
195
100
AcDbEntity
  8
GEHÄUSE_VORDERTE
  6
Continuous
 62
     7
100
AcDbLine
 10
295.0428000114
 20
231.2505351838
 30
0.0
 11
295.0428000114
 21
186.8505351838
 31
0.0
  0
LINE
  5
1C7
330
195
100
AcDbEntity
  8
GEHÄUSE_VORDERTE
  6
Continuous
 62
     7
100
AcDbLine
 10
294.4651542979
 20
231.2505351838
 30
0.0
 11
295.0428000114
 21
231.2505351838
 31
0.0
  0
LINE
  5
1C8
330
195
100
AcDbEntity
  8
GEHÄUSE_VORDERTE
  6
Continuous
 62
     7
100
AcDbLine
 10
295.0428000114
 20
231.2505351838
 30
0.0
 11
295.2651542979
 21
231.2505351838
 31
0.0
  0
LINE
  5
1C9
330
195
100
AcDbEntity
  8
GEHÄUSE_VORDERTE
  6
Continuous
 62
     7
100
AcDbLine
 10
295.0428000114
 20
155.8505351838
 30
0.0
 11
295.0428000114
 21
115.4505351838
 31
0.0
  0
LINE
  5
1CA
330
195
100
AcDbEntity
  8
GEHÄUSE_VORDERTE
  6
Continuous
 62
     7
100
AcDbLine
 10
294.4651542979
 20
186.8505351838
 30
0.0
 11
295.0428000114
 21
186.8505351838
 31
0.0
  0
LINE
  5
1CB
330
195
100
AcDbEntity
  8
GEHÄUSE_VORDERTE
  6
Continuous
 62
     7
100
AcDbLine
 10
295.0428000114
 20
186.8505351838
 30
0.0
 11
295.2651542979
 21
186.8505351838
 31
0.0
  0
LINE
  5
1CC
330
195
100
AcDbEntity
  8
GEHÄUSE_VORDERTE
  6
Continuous
 62
     7
100
AcDbLine
 10
294.4651542979
 20
155.8505351838
 30
0.0
 11
295.0428000114
 21
155.8505351838
 31
0.0
  0
LINE
  5
1CD
330
195
100
AcDbEntity
  8
GEHÄUSE_VORDERTE
  6
Continuous
 62
     7
100
AcDbLine
 10
295.0428000114
 20
155.8505351838
 30
0.0
 11
295.2651542979
 21
155.8505351838
 31
0.0
  0
LINE
  5
1CE
330
195
100
AcDbEntity
  8
GEHÄUSE_VORDERTE
  6
Continuous
 62
     7
100
AcDbLine
 10
294.4651542979
 20
233.6005351838
 30
0.0
 11
295.2651542979
 21
233.6005351838
 31
0.0
  0
LINE
  5
1CF
330
195
100
AcDbEntity
  8
GEHÄUSE_VORDERTE
  6
Continuous
 62
     7
100
AcDbLine
 10
295.0651542979
 20
234.4005351838
 30
0.0
 11
295.2651542979
 21
234.4005351838
 31
0.0
  0
LINE
  5
1D0
330
195
100
AcDbEntity
  8
GEHÄUSE_VORDERTE
  6
Continuous
 62
     7
100
AcDbLine
 10
294.4651542979
 20
233.0505351838
 30
0.0
 11
295.0651542979
 21
233.0505351838
 31
0.0
  0
LINE
  5
1D1
330
195
100
AcDbEntity
  8
GEHÄUSE_VORDERTE
  6
Continuous
 62
     7
100
AcDbLine
 10
295.0651542979
 20
232.5505351838
 30
0.0
 11
294.4651542979
 21
232.5505351838
 31
0.0
  0
LINE
  5
1D2
330
195
100
AcDbEntity
  8
GEHÄUSE_VORDERTE
  6
Continuous
 62
     7
100
AcDbLine
 10
295.0651542979
 20
231.2505351838
 30
0.0
 11
295.0651542979
 21
232.5505351838
 31
0.0
  0
LINE
  5
1D3
330
195
100
AcDbEntity
  8
GEHÄUSE_VORDERTE
  6
Continuous
 62
     7
100
AcDbLine
 10
295.0651542979
 20
232.5505351838
 30
0.0
 11
295.0651542979
 21
233.0505351838
 31
0.0
  0
ARC
  5
1D4
330
195
100
AcDbEntity
  8
GEHÄUSE_VORDERTE
  6
Continuous
 62
     7
100
AcDbCircle
 10
295.0651542979
 20
233.2505351838
 30
0.0
 40
0.2
100
AcDbArc
 50
270.0
 51
360.0
  0
LINE
  5
1D5
330
195
100
AcDbEntity
  8
GEHÄUSE_VORDERTE
  6
Continuous
 62
     7
100
AcDbLine
 10
295.2651542979
 20
232.5505351838
 30
0.0
 11
295.0651542979
 21
232.5505351838
 31
0.0
  0
LINE
  5
1D6
330
195
100
AcDbEntity
  8
GEHÄUSE_VORDERTE
  6
Continuous
 62
     7
100
AcDbLine
 10
294.4651542979
 20
113.1005351838
 30
0.0
 11
295.2651542979
 21
113.1005351838
 31
0.0
  0
LINE
  5
1D7
330
195
100
AcDbEntity
  8
GEHÄUSE_VORDERTE
  6
Continuous
 62
     7
100
AcDbLine
 10
295.0651542979
 20
112.3005351838
 30
0.0
 11
295.2651542979
 21
112.3005351838
 31
0.0
  0
LINE
  5
1D8
330
195
100
AcDbEntity
  8
GEHÄUSE_VORDERTE
  6
Continuous
 62
     7
100
AcDbLine
 10
294.4651542979
 20
114.1505351838
 30
0.0
 11
295.0651542979
 21
114.1505351838
 31
0.0
  0
LINE
  5
1D9
330
195
100
AcDbEntity
  8
GEHÄUSE_VORDERTE
  6
Continuous
 62
     7
100
AcDbLine
 10
295.0651542979
 20
113.6505351838
 30
0.0
 11
294.4651542979
 21
113.6505351838
 31
0.0
  0
LINE
  5
1DA
330
195
100
AcDbEntity
  8
GEHÄUSE_VORDERTE
  6
Continuous
 62
     7
100
AcDbLine
 10
295.0651542979
 20
114.1505351838
 30
0.0
 11
295.0651542979
 21
115.4505351838
 31
0.0
  0
LINE
  5
1DB
330
195
100
AcDbEntity
  8
GEHÄUSE_VORDERTE
  6
Continuous
 62
     7
100
AcDbLine
 10
295.0651542979
 20
113.6505351838
 30
0.0
 11
295.0651542979
 21
114.1505351838
 31
0.0
  0
LINE
  5
1DC
330
195
100
AcDbEntity
  8
GEHÄUSE_VORDERTE
  6
Continuous
 62
     7
100
AcDbLine
 10
295.2651542979
 20
114.1505351838
 30
0.0
 11
295.0651542979
 21
114.1505351838
 31
0.0
  0
ARC
  5
1DD
330
195
100
AcDbEntity
  8
GEHÄUSE_VORDERTE
  6
Continuous
 62
     7
100
AcDbCircle
 10
295.0651542979
 20
113.4505351838
 30
0.0
 40
0.2
100
AcDbArc
 50
0.0
 51
90.0
  0
LINE
  5
1DE
330
195
100
AcDbEntity
  8
PS_307
  6
Continuous
 62
     7
100
AcDbLine
 10
336.1751542979
 20
230.8484557887
 30
0.0
 11
336.1751542979
 21
229.8355351838
 31
0.0
  0
LINE
  5
1DF
330
195
100
AcDbEntity
  8
PS_307
  6
Continuous
 62
     7
100
AcDbLine
 10
336.1651542979
 20
230.8484557887
 30
0.0
 11
336.1751542979
 21
230.8484557887
 31
0.0
  0
LINE
  5
1E0
330
195
100
AcDbEntity
  8
PS_307
  6
Continuous
 62
     7
100
AcDbLine
 10
336.1751542979
 20
230.9013858454
 30
0.0
 11
336.1651542979
 21
230.9013858454
 31
0.0
  0
LINE
  5
1E2
330
195
100
AcDbEntity
  8
GEHÄUSEHÄLFTE_HI
  6
Continuous
 62
     7
100
AcDbLine
 10
230.7651542979
 20
126.3505351838
 30
0.0
 11
228.5530222635
 21
128.5626672182
 31
0.0
  0
LINE
  5
1E3
330
195
100
AcDbEntity
  8
GEHÄUSEHÄLFTE_HI
  6
Continuous
 62
     7
100
AcDbLine
 10
220.2651542979
 20
212.7505351838
 30
0.0
 11
224.8361379788
 21
212.7505351838
 31
0.0
  0
LINE
  5
1E4
330
195
100
AcDbEntity
  8
GEHÄUSEHÄLFTE_HI
  6
Continuous
 62
     7
100
AcDbLine
 10
224.8361379788
 20
212.7505351838
 30
0.0
 11
227.5785517575
 21
217.5005351838
 31
0.0
  0
LINE
  5
1E5
330
195
100
AcDbEntity
  8
GEHÄUSEHÄLFTE_HI
  6
Continuous
 62
     7
100
AcDbLine
 10
230.7651542979
 20
217.6505351838
 30
0.0
 11
230.7651542979
 21
231.3005351838
 31
0.0
  0
ARC
  5
1E6
330
195
100
AcDbEntity
  8
GEHÄUSEHÄLFTE_HI
  6
Continuous
 62
     7
100
AcDbCircle
 10
229.2151542979
 20
231.3005351838
 30
0.0
 40
1.549999999999996
100
AcDbArc
 50
0.0
 51
180.0
  0
LINE
  5
1E7
330
195
100
AcDbEntity
  8
GEHÄUSEHÄLFTE_HI
  6
Continuous
 62
     7
100
AcDbLine
 10
227.6651542979
 20
231.3005351838
 30
0.0
 11
227.6651542979
 21
230.7505351838
 31
0.0
  0
LINE
  5
1E8
330
195
100
AcDbEntity
  8
GEHÄUSEHÄLFTE_HI
  6
Continuous
 62
     7
100
AcDbLine
 10
227.6651542979
 20
230.7505351838
 30
0.0
 11
225.6651542979
 21
230.7505351838
 31
0.0
  0
LINE
  5
1E9
330
195
100
AcDbEntity
  8
GEHÄUSEHÄLFTE_HI
  6
Continuous
 62
     7
100
AcDbLine
 10
220.2651542979
 20
170.3505351838
 30
0.0
 11
224.6651542979
 21
170.3505351838
 31
0.0
  0
LINE
  5
1EA
330
195
100
AcDbEntity
  8
GEHÄUSEHÄLFTE_HI
  6
Continuous
 62
     7
100
AcDbLine
 10
224.6651542979
 20
170.3505351838
 30
0.0
 11
224.6651542979
 21
186.3505351838
 31
0.0
  0
LINE
  5
1EB
330
195
100
AcDbEntity
  8
GEHÄUSEHÄLFTE_HI
  6
Continuous
 62
     7
100
AcDbLine
 10
224.6651542979
 20
186.3505351838
 30
0.0
 11
220.2651542979
 21
186.3505351838
 31
0.0
  0
LINE
  5
1EC
330
195
100
AcDbEntity
  8
GEHÄUSEHÄLFTE_HI
  6
Continuous
 62
     7
100
AcDbLine
 10
295.2651542979
 20
112.1005351838
 30
0.0
 11
295.2651542979
 21
111.8505351838
 31
0.0
  0
LINE
  5
1ED
330
195
100
AcDbEntity
  8
GEHÄUSEHÄLFTE_HI
  6
Continuous
 62
     7
100
AcDbLine
 10
294.4651542979
 20
233.8005351838
 30
0.0
 11
294.4651542979
 21
112.9005351838
 31
0.0
  0
LINE
  5
1EE
330
195
100
AcDbEntity
  8
GEHÄUSEHÄLFTE_HI
  6
Continuous
 62
     7
100
AcDbLine
 10
294.4651542979
 20
112.9005351838
 30
0.0
 11
295.2651542979
 21
112.1005351838
 31
0.0
  0
LINE
  5
1EF
330
195
100
AcDbEntity
  8
GEHÄUSEHÄLFTE_HI
  6
Continuous
 62
     7
100
AcDbLine
 10
295.2651542979
 20
234.6005351838
 30
0.0
 11
294.4651542979
 21
233.8005351838
 31
0.0
  0
LINE
  5
1F0
330
195
100
AcDbEntity
  8
GEHÄUSEHÄLFTE_HI
  6
Continuous
 62
     7
100
AcDbLine
 10
294.4651542979
 20
156.3505351838
 30
0.0
 11
295.2651542979
 21
156.3505351838
 31
0.0
  0
LINE
  5
1F1
330
195
100
AcDbEntity
  8
GEHÄUSEHÄLFTE_HI
  6
Continuous
 62
     7
100
AcDbLine
 10
294.4651542979
 20
186.3505351838
 30
0.0
 11
295.2651542979
 21
186.3505351838
 31
0.0
  0
LINE
  5
1F2
330
195
100
AcDbEntity
  8
GEHÄUSEHÄLFTE_HI
  6
Continuous
 62
     7
100
AcDbLine
 10
228.3408902292
 20
128.6505351838
 30
0.0
 11
220.2651542979
 21
128.6505351838
 31
0.0
  0
ARC
  5
1F3
330
195
100
AcDbEntity
  8
GEHÄUSEHÄLFTE_HI
  6
Continuous
 62
     7
100
AcDbCircle
 10
228.3408902292
 20
128.3505351838
 30
0.0
 40
0.3000000000000017
100
AcDbArc
 50
45.0
 51
90.0
  0
LINE
  5
1F4
330
195
100
AcDbEntity
  8
GEHÄUSEHÄLFTE_HI
  6
Continuous
 62
     7
100
AcDbLine
 10
225.1651542979
 20
235.8505351838
 30
0.0
 11
295.2651542979
 21
235.8505351838
 31
0.0
  0
LINE
  5
1F5
330
195
100
AcDbEntity
  8
GEHÄUSEHÄLFTE_HI
  6
Continuous
 62
     7
100
AcDbLine
 10
295.2651542979
 20
234.8505351838
 30
0.0
 11
295.2651542979
 21
234.6005351838
 31
0.0
  0
LINE
  5
1F6
330
195
100
AcDbEntity
  8
GEHÄUSEHÄLFTE_HI
  6
Continuous
 62
     7
100
AcDbLine
 10
295.2651542979
 20
235.8505351838
 30
0.0
 11
295.2651542979
 21
234.8505351838
 31
0.0
  0
LINE
  5
1F7
330
195
100
AcDbEntity
  8
GEHÄUSEHÄLFTE_HI
  6
Continuous
 62
     7
100
AcDbLine
 10
225.6651542979
 20
234.8505351838
 30
0.0
 11
225.6651542979
 21
230.7505351838
 31
0.0
  0
LINE
  5
1F8
330
195
100
AcDbEntity
  8
GEHÄUSEHÄLFTE_HI
  6
Continuous
 62
     7
100
AcDbLine
 10
295.2651542979
 20
234.8505351838
 30
0.0
 11
225.6651542979
 21
234.8505351838
 31
0.0
  0
ARC
  5
1F9
330
195
100
AcDbEntity
  8
GEHÄUSEHÄLFTE_HI
  6
Continuous
 62
     7
100
AcDbCircle
 10
225.1651542979
 20
235.3505351838
 30
0.0
 40
0.5000000000000004
100
AcDbArc
 50
90.0
 51
180.0
  0
LINE
  5
1FA
330
195
100
AcDbEntity
  8
GEHÄUSEHÄLFTE_HI
  6
Continuous
 62
     7
100
AcDbLine
 10
224.6651542979
 20
230.7505351838
 30
0.0
 11
224.6651542979
 21
235.3505351838
 31
0.0
  0
LINE
  5
1FB
330
195
100
AcDbEntity
  8
GEHÄUSEHÄLFTE_HI
  6
Continuous
 62
     7
100
AcDbLine
 10
225.6651542979
 20
230.7505351838
 30
0.0
 11
224.6651542979
 21
230.7505351838
 31
0.0
  0
LINE
  5
1FC
330
195
100
AcDbEntity
  8
GEHÄUSEHÄLFTE_HI
  6
Continuous
 62
     7
100
AcDbLine
 10
224.6651542979
 20
235.3505351838
 30
0.0
 11
225.6651542979
 21
234.8505351838
 31
0.0
  0
LINE
  5
1FD
330
195
100
AcDbEntity
  8
GEHÄUSEHÄLFTE_HI
  6
Continuous
 62
     7
100
AcDbLine
 10
225.1651542979
 20
235.8505351838
 30
0.0
 11
225.6651542979
 21
234.8505351838
 31
0.0
  0
LINE
  5
1FE
330
195
100
AcDbEntity
  8
GEHÄUSEHÄLFTE_HI
  6
Continuous
 62
     7
100
AcDbLine
 10
230.7651542979
 20
111.8505351838
 30
0.0
 11
230.7651542979
 21
126.3505351838
 31
0.0
  0
LINE
  5
1FF
330
195
100
AcDbEntity
  8
GEHÄUSEHÄLFTE_HI
  6
Continuous
 62
     7
100
AcDbLine
 10
230.7651542979
 20
111.8505351838
 30
0.0
 11
295.2651542979
 21
111.8505351838
 31
0.0
  0
LINE
  5
200
330
195
100
AcDbEntity
  8
GEHÄUSEHÄLFTE_HI
  6
Continuous
 62
     7
100
AcDbLine
 10
295.2651542979
 20
111.8505351838
 30
0.0
 11
295.2651542979
 21
110.8505351838
 31
0.0
  0
LINE
  5
201
330
195
100
AcDbEntity
  8
GEHÄUSEHÄLFTE_HI
  6
Continuous
 62
     7
100
AcDbLine
 10
295.2651542979
 20
110.8505351838
 30
0.0
 11
230.7651542979
 21
110.8505351838
 31
0.0
  0
LINE
  5
202
330
195
100
AcDbEntity
  8
GEHÄUSEHÄLFTE_HI
  6
Continuous
 62
     7
100
AcDbLine
 10
230.7651542979
 20
110.8505351838
 30
0.0
 11
230.7651542979
 21
111.8505351838
 31
0.0
  0
LINE
  5
203
330
195
100
AcDbEntity
  8
GEHÄUSEHÄLFTE_HI
  6
Continuous
 62
     7
100
AcDbLine
 10
220.2651542979
 20
212.7505351838
 30
0.0
 11
220.2651542979
 21
186.3505351838
 31
0.0
  0
ARC
  5
204
330
195
100
AcDbEntity
  8
GEHÄUSEHÄLFTE_HI
  6
Continuous
 62
     7
100
AcDbCircle
 10
220.2651542979
 20
187.3505351838
 30
0.0
 40
1.000000000000001
100
AcDbArc
 50
180.0
 51
270.0
  0
LINE
  5
205
330
195
100
AcDbEntity
  8
GEHÄUSEHÄLFTE_HI
  6
Continuous
 62
     7
100
AcDbLine
 10
219.2651542979
 20
187.3505351838
 30
0.0
 11
219.2651542979
 21
211.7505351838
 31
0.0
  0
ARC
  5
206
330
195
100
AcDbEntity
  8
GEHÄUSEHÄLFTE_HI
  6
Continuous
 62
     7
100
AcDbCircle
 10
220.2651542979
 20
211.7505351838
 30
0.0
 40
1.000000000000001
100
AcDbArc
 50
90.0
 51
180.0
  0
LINE
  5
207
330
195
100
AcDbEntity
  8
GEHÄUSEHÄLFTE_HI
  6
Continuous
 62
     7
100
AcDbLine
 10
220.2651542979
 20
170.3505351838
 30
0.0
 11
220.2651542979
 21
128.6505351838
 31
0.0
  0
ARC
  5
208
330
195
100
AcDbEntity
  8
GEHÄUSEHÄLFTE_HI
  6
Continuous
 62
     7
100
AcDbCircle
 10
220.2651542979
 20
129.6505351838
 30
0.0
 40
1.000000000000008
100
AcDbArc
 50
180.0
 51
270.0
  0
LINE
  5
209
330
195
100
AcDbEntity
  8
GEHÄUSEHÄLFTE_HI
  6
Continuous
 62
     7
100
AcDbLine
 10
219.2651542979
 20
129.6505351838
 30
0.0
 11
219.2651542979
 21
169.3505351838
 31
0.0
  0
ARC
  5
20A
330
195
100
AcDbEntity
  8
GEHÄUSEHÄLFTE_HI
  6
Continuous
 62
     7
100
AcDbCircle
 10
220.2651542979
 20
169.3505351838
 30
0.0
 40
1.000000000000001
100
AcDbArc
 50
90.0
 51
180.0
  0
ARC
  5
20B
330
195
100
AcDbEntity
  8
GEHÄUSEHÄLFTE_HI
  6
Continuous
 62
     7
100
AcDbCircle
 10
238.3214042979
 20
224.6505351838
 30
0.0
 40
7.756250000000025
100
AcDbArc
 50
166.9603964967
 51
193.0396035033
  0
LINE
  5
20C
330
195
100
AcDbEntity
  8
GEHÄUSEHÄLFTE_HI
  6
Continuous
 62
     7
100
AcDbLine
 10
227.8383593786
 20
217.6505351838
 30
0.0
 11
230.7651542979
 21
217.6505351838
 31
0.0
  0
ARC
  5
20D
330
195
100
AcDbEntity
  8
GEHÄUSEHÄLFTE_HI
  6
Continuous
 62
     7
100
AcDbCircle
 10
227.8383593786
 20
217.3505351838
 30
0.0
 40
0.3000000000000017
100
AcDbArc
 50
90.0
 51
150.0
  0
LINE
  5
20E
330
195
100
AcDbEntity
  8
LICHTLEITER
  6
Continuous
 62
     7
100
AcDbLine
 10
336.1651542979
 20
229.8455351838
 30
0.0
 11
336.3601542979
 21
229.6505351838
 31
0.0
  0
LINE
  5
20F
330
195
100
AcDbEntity
  8
LICHTLEITER
  6
Continuous
 62
     7
100
AcDbLine
 10
336.3601542979
 20
215.8505351838
 30
0.0
 11
336.3601542979
 21
229.6505351838
 31
0.0
  0
LINE
  5
210
330
195
100
AcDbEntity
  8
LICHTLEITER
  6
Continuous
 62
     7
100
AcDbLine
 10
336.1651542979
 20
215.6555351838
 30
0.0
 11
336.3601542979
 21
215.8505351838
 31
0.0
  0
LINE
  5
211
330
195
100
AcDbEntity
  8
DECKEL
  6
Continuous
 62
     7
100
AcDbLine
 10
334.3651542979
 20
162.5460067051
 30
0.0
 11
334.3651542979
 21
111.8473222668
 31
0.0
  0
LINE
  5
212
330
195
100
AcDbEntity
  8
DECKEL
  6
Continuous
 62
     7
100
AcDbLine
 10
334.3651542979
 20
111.8473222668
 30
0.0
 11
334.3651542979
 21
110.8473222668
 31
0.0
  0
LINE
  5
213
330
195
100
AcDbEntity
  8
DECKEL
  6
Continuous
 62
     7
100
AcDbLine
 10
334.3651542979
 20
111.8473222668
 30
0.0
 11
335.1651542979
 21
111.8473222668
 31
0.0
  0
LINE
  5
214
330
195
100
AcDbEntity
  8
DECKEL
  6
Continuous
 62
     7
100
AcDbLine
 10
334.3651542979
 20
174.9473222668
 30
0.0
 11
335.1651542979
 21
174.9473222668
 31
0.0
  0
LINE
  5
215
330
195
100
AcDbEntity
  8
DECKEL
  6
Continuous
 62
     7
100
AcDbLine
 10
334.3651542979
 20
175.9473222668
 30
0.0
 11
335.1651542979
 21
175.9473222668
 31
0.0
  0
LINE
  5
216
330
195
100
AcDbEntity
  8
DECKEL
  6
Continuous
 62
     7
100
AcDbLine
 10
334.3651542979
 20
110.8473222668
 30
0.0
 11
335.1651542979
 21
110.8473222668
 31
0.0
  0
LINE
  5
217
330
195
100
AcDbEntity
  8
DECKEL
  6
Continuous
 62
     7
100
AcDbLine
 10
335.1651542979
 20
176.5473222668
 30
0.0
 11
334.3651542979
 21
176.5473222668
 31
0.0
  0
LINE
  5
218
330
195
100
AcDbEntity
  8
DECKEL
  6
Continuous
 62
     7
100
AcDbLine
 10
334.3651542979
 20
176.5473222668
 30
0.0
 11
334.3651542979
 21
174.9473222668
 31
0.0
  0
ARC
  5
219
330
195
100
AcDbEntity
  8
DECKEL
  6
Continuous
 62
     7
100
AcDbCircle
 10
335.7665125279
 20
185.6398024964
 30
0.0
 40
0.9999999999985003
100
AcDbArc
 50
145.0
 51
233.0327642364
  0
LINE
  5
21A
330
195
100
AcDbEntity
  8
DECKEL
  6
Continuous
 62
     7
100
AcDbLine
 10
336.1651542979
 20
174.9473222668
 30
0.0
 11
336.1651542979
 21
111.8473222668
 31
0.0
  0
LINE
  5
21B
330
195
100
AcDbEntity
  8
DECKEL
  6
Continuous
 62
     7
100
AcDbLine
 10
335.1651542979
 20
110.8473222668
 30
0.0
 11
335.1651542979
 21
111.8473222668
 31
0.0
  0
LINE
  5
21C
330
195
100
AcDbEntity
  8
DECKEL
  6
Continuous
 62
     7
100
AcDbLine
 10
335.1651542979
 20
111.8473222668
 30
0.0
 11
335.1651542979
 21
174.9473222668
 31
0.0
  0
LINE
  5
21D
330
195
100
AcDbEntity
  8
DECKEL
  6
Continuous
 62
     7
100
AcDbLine
 10
335.1651542979
 20
174.9473222668
 30
0.0
 11
335.1651542979
 21
175.9473222668
 31
0.0
  0
ARC
  5
21E
330
195
100
AcDbEntity
  8
DECKEL
  6
Continuous
 62
     7
100
AcDbCircle
 10
335.1651542979
 20
174.9473222668
 30
0.0
 40
0.999999999999994
100
AcDbArc
 50
0.0
 51
90.0
  0
LINE
  5
21F
330
195
100
AcDbEntity
  8
DECKEL
  6
Continuous
 62
     7
100
AcDbLine
 10
336.1651542979
 20
174.9473222668
 30
0.0
 11
335.1651542979
 21
174.9473222668
 31
0.0
  0
LINE
  5
220
330
195
100
AcDbEntity
  8
DECKEL
  6
Continuous
 62
     7
100
AcDbLine
 10
336.1651542979
 20
111.8473222668
 30
0.0
 11
335.1651542979
 21
111.8473222668
 31
0.0
  0
ARC
  5
221
330
195
100
AcDbEntity
  8
DECKEL
  6
Continuous
 62
     7
100
AcDbCircle
 10
335.1651542979
 20
111.8473222668
 30
0.0
 40
1.000000000000001
100
AcDbArc
 50
270.0
 51
360.0
  0
LINE
  5
222
330
195
100
AcDbEntity
  8
DECKEL
  6
Continuous
 62
     7
100
AcDbLine
 10
336.1651542979
 20
193.2029280984
 30
0.0
 11
336.1651542979
 21
187.9525687412
 31
0.0
  0
LINE
  5
223
330
195
100
AcDbEntity
  8
DECKEL
  6
Continuous
 62
     7
100
AcDbLine
 10
335.1651542979
 20
186.5244207345
 30
0.0
 11
334.9473604836
 21
186.2133789327
 31
0.0
  0
LINE
  5
224
330
195
100
AcDbEntity
  8
DECKEL
  6
Continuous
 62
     7
100
AcDbLine
 10
336.1651542979
 20
187.9525687412
 30
0.0
 11
335.1651542979
 21
186.5244207345
 31
0.0
  0
LINE
  5
225
330
195
100
AcDbEntity
  8
DECKEL
  6
Continuous
 62
     7
100
AcDbLine
 10
335.1651542979
 20
186.5244207345
 30
0.0
 11
335.1651542979
 21
193.446767007
 31
0.0
  0
LINE
  5
226
330
195
100
AcDbEntity
  8
DECKEL
  6
Continuous
 62
     7
100
AcDbLine
 10
336.1651542979
 20
184.1398959352
 30
0.0
 11
336.1651542979
 21
177.5473222668
 31
0.0
  0
ARC
  5
227
330
195
100
AcDbEntity
  8
DECKEL
  6
Continuous
 62
     7
100
AcDbCircle
 10
335.1651542979
 20
177.5473222668
 30
0.0
 40
1.000000000000001
100
AcDbArc
 50
270.0
 51
360.0
  0
LINE
  5
228
330
195
100
AcDbEntity
  8
DECKEL
  6
Continuous
 62
     7
100
AcDbLine
 10
335.1651542979
 20
176.5473222668
 30
0.0
 11
335.1651542979
 21
184.8408229728
 31
0.0
  0
LINE
  5
229
330
195
100
AcDbEntity
  8
DECKEL
  6
Continuous
 62
     7
100
AcDbLine
 10
335.1651542979
 20
184.8408229728
 30
0.0
 11
335.1929360915
 21
184.8206504521
 31
0.0
  0
LINE
  5
22A
330
195
100
AcDbEntity
  8
DECKEL
  6
Continuous
 62
     7
100
AcDbLine
 10
335.1929360915
 20
184.8206504521
 30
0.0
 11
336.1651542979
 21
184.1398959352
 31
0.0
  0
LINE
  5
22B
330
195
100
AcDbEntity
  8
DECKEL
  6
Continuous
 62
     7
100
AcDbLine
 10
334.3651542979
 20
162.0460067051
 30
0.0
 11
333.2651542979
 21
162.0460067051
 31
0.0
  0
ARC
  5
22C
330
195
100
AcDbEntity
  8
DECKEL
  6
Continuous
 62
     7
100
AcDbCircle
 10
333.2624367793
 20
190.7505351838
 30
0.0
 40
3.300000000000002
100
AcDbArc
 50
54.7895694167
 51
181.6701802863
  0
LINE
  5
22D
330
195
100
AcDbEntity
  8
DECKEL
  6
Continuous
 62
     7
100
AcDbLine
 10
329.9638387361
 20
190.6543533278
 30
0.0
 11
329.9638387361
 21
165.8473222668
 31
0.0
  0
ARC
  5
22E
330
195
100
AcDbEntity
  8
DECKEL
  6
Continuous
 62
     7
100
AcDbCircle
 10
333.2651542979
 20
165.8473222668
 30
0.0
 40
3.301315561749632
100
AcDbArc
 50
180.0
 51
270.0
  0
LINE
  5
22F
330
195
100
AcDbEntity
  8
DECKEL
  6
Continuous
 62
     7
100
AcDbLine
 10
333.2651542979
 20
162.5460067051
 30
0.0
 11
334.3651542979
 21
162.5460067051
 31
0.0
  0
ARC
  5
230
330
195
100
AcDbEntity
  8
DECKEL
  6
Continuous
 62
     7
100
AcDbCircle
 10
333.2651542979
 20
165.8473222668
 30
0.0
 40
3.801315561749619
100
AcDbArc
 50
180.0
 51
270.0
  0
LINE
  5
231
330
195
100
AcDbEntity
  8
DECKEL
  6
Continuous
 62
     7
100
AcDbLine
 10
329.4638387361
 20
165.8473222668
 30
0.0
 11
329.4638387361
 21
190.6473222668
 31
0.0
  0
ARC
  5
232
330
195
100
AcDbEntity
  8
DECKEL
  6
Continuous
 62
     7
100
AcDbCircle
 10
333.3695723743
 20
190.8460274663
 30
0.0
 40
3.656536459683083
100
AcDbArc
 50
40.1335851537
 51
43.2890387108
  0
ARC
  5
233
330
195
100
AcDbEntity
  8
DECKEL
  6
Continuous
 62
     7
100
AcDbCircle
 10
333.2624367793
 20
190.7505351838
 30
0.0
 40
3.799999999999999
100
AcDbArc
 50
43.2294596858
 51
181.5564189201
  0
SPLINE
  5
234
330
195
100
AcDbEntity
  8
DECKEL
  6
Continuous
 62
     7
100
AcDbSpline
210
0.0
220
0.0
230
1.0
 70
     8
 71
     3
 72
    10
 73
     6
 74
     0
 42
0.0000000109626178
 43
0.0000000001
 40
0.0
 40
0.0
 40
0.0
 40
0.0
 40
0.5
 40
0.5
 40
1.0
 40
1.0
 40
1.0
 40
1.0
 10
336.0311797016553
 20
193.3532381307482
 30
0.0
 10
335.9517172676175
 20
193.4377698872796
 30
0.0
 10
335.8274754448287
 20
193.4760764444195
 30
0.0
 10
335.518856879772
 20
193.4944156830223
 30
0.0
 10
335.3405995707291
 20
193.4746716524211
 30
0.0
 10
335.1651542978709
 20
193.4467670070381
 30
0.0
  0
LINE
  5
235
330
195
100
AcDbEntity
  8
DECKEL
  6
Continuous
 62
     7
100
AcDbLine
 10
329.9638387361
 20
190.6543533278
 30
0.0
 11
329.4638387361
 21
190.6473222668
 31
0.0
  0
LINE
  5
236
330
195
100
AcDbEntity
  8
DECKEL
  6
Continuous
 62
     7
100
AcDbLine
 10
329.9638387361
 20
165.8473222668
 30
0.0
 11
329.4638387361
 21
165.8473222668
 31
0.0
  0
LINE
  5
237
330
195
100
AcDbEntity
  8
DECKEL
  6
Continuous
 62
     7
100
AcDbLine
 10
333.2651542979
 20
162.5460067051
 30
0.0
 11
333.2651542979
 21
162.0460067051
 31
0.0
  0
LINE
  5
238
330
195
100
AcDbEntity
  8
DECKEL
  6
Continuous
 62
     7
100
AcDbLine
 10
329.0651542979
 20
110.8473222668
 30
0.0
 11
329.5651542979
 21
110.8473222668
 31
0.0
  0
LINE
  5
239
330
195
100
AcDbEntity
  8
DECKEL
  6
Continuous
 62
     7
100
AcDbLine
 10
329.5651542979
 20
110.8473222668
 30
0.0
 11
329.8651542979
 21
110.8473222668
 31
0.0
  0
LINE
  5
23A
330
195
100
AcDbEntity
  8
DECKEL
  6
Continuous
 62
     7
100
AcDbLine
 10
329.5651542979
 20
110.8505351838
 30
0.0
 11
329.5651542979
 21
110.8473222668
 31
0.0
  0
LINE
  5
23B
330
195
100
AcDbEntity
  8
DECKEL
  6
Continuous
 62
     7
100
AcDbLine
 10
329.8651542979
 20
110.8473222668
 30
0.0
 11
334.3651542979
 21
110.8473222668
 31
0.0
  0
LINE
  5
23C
330
195
100
AcDbEntity
  8
DECKEL
  6
Continuous
 62
     7
100
AcDbLine
 10
329.8651542979
 20
110.8505351838
 30
0.0
 11
329.8651542979
 21
110.8473222668
 31
0.0
  0
LINE
  5
23D
330
195
100
AcDbEntity
  8
DECKEL
  6
Continuous
 62
     7
100
AcDbLine
 10
329.0651542979
 20
110.8505351838
 30
0.0
 11
329.0651542979
 21
110.8473222668
 31
0.0
  0
ENDBLK
  5
23F
330
195
100
AcDbEntity
  8
0
100
AcDbBlockEnd
  0
BLOCK
  5
242
330
241
100
AcDbEntity
  8
0
100
AcDbBlockBegin
  2
_Oblique
 70
     0
 71
     0
 10
0.0
 20
0.0
 30
0.0
  3
_Oblique
  1

  0
LINE
  5
244
330
241
100
AcDbEntity
  8
0
  6
ByBlock
 62
     0
370
    -2
100
AcDbLine
 10
-0.5
 20
-0.5
 30
0.0
 11
0.5
 21
0.5
 31
0.0
  0
ENDBLK
  5
243
330
241
100
AcDbEntity
  8
0
100
AcDbBlockEnd
  0
BLOCK
  5
246
330
245
100
AcDbEntity
  8
0
100
AcDbBlockBegin
  2
_Dot
 70
     0
 71
     0
 10
0.0
 20
0.0
 30
0.0
  3
_Dot
  1

  0
LWPOLYLINE
  5
248
330
245
100
AcDbEntity
  8
0
  6
ByBlock
 62
     0
100
AcDbPolyline
 90
        2
 70
     1
 43
0.5
 10
-0.25
 20
0.0
 42
1.0
 10
0.25
 20
0.0
 42
1.0
  0
LINE
  5
249
330
245
100
AcDbEntity
  8
0
  6
ByBlock
 62
     0
370
    -2
100
AcDbLine
 10
-0.5
 20
0.0
 30
0.0
 11
-1.0
 21
0.0
 31
0.0
  0
ENDBLK
  5
247
330
245
100
AcDbEntity
  8
0
100
AcDbBlockEnd
  0
BLOCK
  5
24D
330
24A
100
AcDbEntity
  8
0
100
AcDbBlockBegin
  2
_SE_FILLED
 70
     0
 71
     0
 10
0.0
 20
0.0
 30
0.0
  3
_SE_FILLED
  1

  0
SOLID
  5
24B
330
24A
100
AcDbEntity
  8
0
 62
     0
100
AcDbTrace
 10
0.0
 20
0.0
 30
0.0
 11
-1.0
 21
-0.1665
 31
0.0
 12
-1.0
 22
0.1665
 32
0.0
 13
0.0
 23
0.0
 33
0.0
  0
LINE
  5
24C
330
24A
100
AcDbEntity
  8
0
 62
     0
100
AcDbLine
 10
0.0
 20
0.0
 30
0.0
 11
-1.0
 21
0.0
 31
0.0
  0
ENDBLK
  5
24E
330
24A
100
AcDbEntity
  8
0
100
AcDbBlockEnd
  0
BLOCK
  5
259
330
252
100
AcDbEntity
  8
0
100
AcDbBlockBegin
  2
DMBLK17
 70
     0
 71
     0
 10
0.0
 20
0.0
 30
0.0
  3
DMBLK17
  1

  0
HATCH
  5
253
330
252
100
AcDbEntity
  8
Default
  6
Continuous
 62
     7
370
    15
100
AcDbHatch
 10
0.0
 20
0.0
 30
0.0
210
0.0
220
0.0
230
1.0
  2
SOLID
 70
     1
 71
     0
 91
        1
 92
        1
 93
        3
 72
     1
 10
80.55036222675194
 20
249.4268350759278
 11
75.55036233851065
 21
248.5935017612209
 72
     1
 10
75.55036233851065
 20
248.5935017612209
 11
80.55036222675194
 21
247.760168446514
 72
     1
 10
80.55036222675194
 20
247.760168446514
 11
80.55036222675194
 21
249.4268350759278
 97
        0
 75
     0
 76
     1
 98
        0
  0
HATCH
  5
254
330
252
100
AcDbEntity
  8
Default
  6
Continuous
 62
     7
370
    15
100
AcDbHatch
 10
0.0
 20
0.0
 30
0.0
210
0.0
220
0.0
230
1.0
  2
SOLID
 70
     1
 71
     0
 91
        1
 92
        1
 93
        3
 72
     1
 10
150.55036066213
 20
249.4268350759278
 11
150.55036066213
 21
247.760168446514
 72
     1
 10
150.55036066213
 20
247.760168446514
 11
155.5503605503713
 21
248.5935017612209
 72
     1
 10
155.5503605503713
 20
248.5935017612209
 11
150.55036066213
 21
249.4268350759278
 97
        0
 75
     0
 76
     1
 98
        0
  0
LINE
  5
255
330
252
100
AcDbEntity
  8
Default
  6
Continuous
 62
     7
370
    15
100
AcDbLine
 10
75.5503623385
 20
234.8505351838
 30
0.0
 11
75.5503623385
 21
251.0935017053
 31
0.0
  0
LINE
  5
256
330
252
100
AcDbEntity
  8
Default
  6
Continuous
 62
     7
370
    15
100
AcDbLine
 10
155.5503623385
 20
234.8505351838
 30
0.0
 11
155.5503623385
 21
251.0935017053
 31
0.0
  0
LINE
  5
257
330
252
100
AcDbEntity
  8
Default
  6
Continuous
 62
     7
370
    15
100
AcDbLine
 10
75.5503623385
 20
248.5935017612
 30
0.0
 11
155.5503605504
 21
248.5935017612
 31
0.0
  0
TEXT
  5
258
330
252
100
AcDbEntity
  8
Default
  6
Continuous
 62
     7
370
    15
100
AcDbText
 10
112.4821796263
 20
249.8435017612
 30
0.0
 40
5.0
  1
80
  7
SEACAD_seiso_ttf
 11
112.4821796263
 21
254.8435017612
 31
0.0
100
AcDbText
 73
     3
  0
ENDBLK
  5
25A
330
252
100
AcDbEntity
  8
0
100
AcDbBlockEnd
  0
BLOCK
  5
263
330
25C
100
AcDbEntity
  8
0
100
AcDbBlockBegin
  2
DMBLK18
 70
     0
 71
     0
 10
0.0
 20
0.0
 30
0.0
  3
DMBLK18
  1

  0
HATCH
  5
25D
330
25C
100
AcDbEntity
  8
Default
  6
Continuous
 62
     7
370
    15
100
AcDbHatch
 10
0.0
 20
0.0
 30
0.0
210
0.0
220
0.0
230
1.0
  2
SOLID
 70
     1
 71
     0
 91
        1
 92
        1
 93
        3
 72
     1
 10
59.53258169058708
 20
230.8505352955689
 11
61.19924832000085
 21
230.8505352955689
 72
     1
 10
61.19924832000085
 20
230.8505352955689
 11
60.36591500529396
 21
235.8505351838102
 72
     1
 10
60.36591500529396
 20
235.8505351838102
 11
59.53258169058708
 21
230.8505352955689
 97
        0
 75
     0
 76
     1
 98
        0
  0
HATCH
  5
25E
330
25C
100
AcDbEntity
  8
Default
  6
Continuous
 62
     7
370
    15
100
AcDbHatch
 10
0.0
 20
0.0
 30
0.0
210
0.0
220
0.0
230
1.0
  2
SOLID
 70
     1
 71
     0
 91
        1
 92
        1
 93
        3
 72
     1
 10
59.53258169058708
 20
115.8473164212336
 11
60.36591500529396
 21
110.8473165329924
 72
     1
 10
60.36591500529396
 20
110.8473165329924
 11
61.19924832000085
 21
115.8473164212336
 72
     1
 10
61.19924832000085
 20
115.8473164212336
 11
59.53258169058708
 21
115.8473164212336
 97
        0
 75
     0
 76
     1
 98
        0
  0
LINE
  5
25F
330
25C
100
AcDbEntity
  8
Default
  6
Continuous
 62
     7
370
    15
100
AcDbLine
 10
76.5503623385
 20
235.8505351838
 30
0.0
 11
57.8659150612
 21
235.8505351838
 31
0.0
  0
LINE
  5
260
330
25C
100
AcDbEntity
  8
Default
  6
Continuous
 62
     7
370
    15
100
AcDbLine
 10
76.5503623385
 20
110.8473222668
 30
0.0
 11
57.8659150612
 21
110.8473222668
 31
0.0
  0
LINE
  5
261
330
25C
100
AcDbEntity
  8
Default
  6
Continuous
 62
     7
370
    15
100
AcDbLine
 10
60.3659150053
 20
235.8505351838
 30
0.0
 11
60.3659150053
 21
110.847316533
 31
0.0
  0
TEXT
  5
262
330
25C
100
AcDbEntity
  8
Default
  6
Continuous
 62
     7
370
    15
100
AcDbText
 10
59.1159150053
 20
169.3716531311
 30
0.0
 40
5.0
  1
125
 50
90.0
  7
SEACAD_seiso_ttf
 11
54.1159150053
 21
169.3716531311
 31
0.0
100
AcDbText
 73
     3
  0
ENDBLK
  5
264
330
25C
100
AcDbEntity
  8
0
100
AcDbBlockEnd
  0
BLOCK
  5
26D
330
266
100
AcDbEntity
  8
0
100
AcDbBlockBegin
  2
DMBLK19
 70
     0
 71
     0
 10
0.0
 20
0.0
 30
0.0
  3
DMBLK19
  1

  0
HATCH
  5
267
330
266
100
AcDbEntity
  8
Default
  6
Continuous
 62
     7
370
    15
100
AcDbHatch
 10
0.0
 20
0.0
 30
0.0
210
0.0
220
0.0
230
1.0
  2
SOLID
 70
     1
 71
     0
 91
        1
 92
        1
 93
        3
 72
     1
 10
235.7651541861122
 20
248.628541291667
 11
230.7651542978709
 21
247.7952079769601
 72
     1
 10
230.7651542978709
 20
247.7952079769601
 11
235.7651541861122
 21
246.9618746622533
 72
     1
 10
235.7651541861122
 20
246.9618746622533
 11
235.7651541861122
 21
248.628541291667
 97
        0
 75
     0
 76
     1
 98
        0
  0
HATCH
  5
268
330
266
100
AcDbEntity
  8
Default
  6
Continuous
 62
     7
370
    15
100
AcDbHatch
 10
0.0
 20
0.0
 30
0.0
210
0.0
220
0.0
230
1.0
  2
SOLID
 70
     1
 71
     0
 91
        1
 92
        1
 93
        3
 72
     1
 10
337.315157699806
 20
248.628541291667
 11
337.315157699806
 21
246.9618746622533
 72
     1
 10
337.315157699806
 20
246.9618746622533
 11
342.3151575880473
 21
247.7952079769601
 72
     1
 10
342.3151575880473
 20
247.7952079769601
 11
337.315157699806
 21
248.628541291667
 97
        0
 75
     0
 76
     1
 98
        0
  0
LINE
  5
269
330
266
100
AcDbEntity
  8
Default
  6
Continuous
 62
     7
370
    15
100
AcDbLine
 10
230.7651542979
 20
224.4755351838
 30
0.0
 11
230.7651542979
 21
250.2952079211
 31
0.0
  0
LINE
  5
26A
330
266
100
AcDbEntity
  8
Default
  6
Continuous
 62
     7
370
    15
100
AcDbLine
 10
342.3151542979
 20
184.9305351838
 30
0.0
 11
342.3151542979
 21
250.2952079211
 31
0.0
  0
LINE
  5
26B
330
266
100
AcDbEntity
  8
Default
  6
Continuous
 62
     7
370
    15
100
AcDbLine
 10
230.7651542979
 20
247.795207977
 30
0.0
 11
342.315157588
 21
247.795207977
 31
0.0
  0
TEXT
  5
26C
330
266
100
AcDbEntity
  8
Default
  6
Continuous
 62
     7
370
    15
100
AcDbText
 10
281.4833377611
 20
249.045207977
 30
0.0
 40
5.0
  1
111,6
  7
SEACAD_seiso_ttf
 11
281.4833377611
 21
254.045207977
 31
0.0
100
AcDbText
 73
     3
  0
ENDBLK
  5
26E
330
266
100
AcDbEntity
  8
0
100
AcDbBlockEnd
  0
BLOCK
  5
277
330
270
100
AcDbEntity
  8
0
100
AcDbBlockBegin
  2
DMBLK20
 70
     0
 71
     0
 10
0.0
 20
0.0
 30
0.0
  3
DMBLK20
  1

  0
HATCH
  5
271
330
270
100
AcDbEntity
  8
Default
  6
Continuous
 62
     7
370
    15
100
AcDbHatch
 10
0.0
 20
0.0
 30
0.0
210
0.0
220
0.0
230
1.0
  2
SOLID
 70
     1
 71
     0
 91
        1
 92
        1
 93
        3
 72
     1
 10
224.2651541861122
 20
259.032691092206
 11
219.2651542978709
 21
258.1993577774991
 72
     1
 10
219.2651542978709
 20
258.1993577774991
 11
224.2651541861122
 21
257.3660244627923
 72
     1
 10
224.2651541861122
 20
257.3660244627923
 11
224.2651541861122
 21
259.032691092206
 97
        0
 75
     0
 76
     1
 98
        0
  0
HATCH
  5
272
330
270
100
AcDbEntity
  8
Default
  6
Continuous
 62
     7
370
    15
100
AcDbHatch
 10
0.0
 20
0.0
 30
0.0
210
0.0
220
0.0
230
1.0
  2
SOLID
 70
     1
 71
     0
 91
        1
 92
        1
 93
        3
 72
     1
 10
337.3151512028997
 20
259.032691092206
 11
337.3151512028997
 21
257.3660244627923
 72
     1
 10
337.3151512028997
 20
257.3660244627923
 11
342.315151091141
 21
258.1993577774991
 72
     1
 10
342.315151091141
 20
258.1993577774991
 11
337.3151512028997
 21
259.032691092206
 97
        0
 75
     0
 76
     1
 98
        0
  0
LINE
  5
273
330
270
100
AcDbEntity
  8
Default
  6
Continuous
 62
     7
370
    15
100
AcDbLine
 10
219.2651542979
 20
211.7505347129
 30
0.0
 11
219.2651542979
 21
260.6993577216
 31
0.0
  0
LINE
  5
274
330
270
100
AcDbEntity
  8
Default
  6
Continuous
 62
     7
370
    15
100
AcDbLine
 10
342.3151542979
 20
184.9305351838
 30
0.0
 11
342.3151542979
 21
260.6993577216
 31
0.0
  0
LINE
  5
275
330
270
100
AcDbEntity
  8
Default
  6
Continuous
 62
     7
370
    15
100
AcDbLine
 10
219.2651542979
 20
258.1993577775
 30
0.0
 11
342.3151510911
 21
258.1993577775
 31
0.0
  0
TEXT
  5
276
330
270
100
AcDbEntity
  8
Default
  6
Continuous
 62
     7
370
    15
100
AcDbText
 10
276.9265163309
 20
259.4493577775
 30
0.0
 40
5.0
  1
123
  7
SEACAD_seiso_ttf
 11
276.9265163309
 21
264.4493577775
 31
0.0
100
AcDbText
 73
     3
  0
ENDBLK
  5
278
330
270
100
AcDbEntity
  8
0
100
AcDbBlockEnd
  0
BLOCK
  5
281
330
27A
100
AcDbEntity
  8
0
100
AcDbBlockBegin
  2
DMBLK21
 70
     0
 71
     0
 10
0.0
 20
0.0
 30
0.0
  3
DMBLK21
  1

  0
HATCH
  5
27B
330
27A
100
AcDbEntity
  8
Default
  6
Continuous
 62
     7
370
    15
100
AcDbHatch
 10
0.0
 20
0.0
 30
0.0
210
0.0
220
0.0
230
1.0
  2
SOLID
 70
     1
 71
     0
 91
        1
 92
        1
 93
        3
 72
     1
 10
204.9015842919275
 20
222.6505350720515
 11
205.7349176066344
 21
217.6505351838102
 72
     1
 10
205.7349176066344
 20
217.6505351838102
 11
206.5682509213413
 21
222.6505350720515
 72
     1
 10
206.5682509213413
 20
222.6505350720515
 11
204.9015842919275
 21
222.6505350720515
 97
        0
 75
     0
 76
     1
 98
        0
  0
HATCH
  5
27C
330
27A
100
AcDbEntity
  8
Default
  6
Continuous
 62
     7
370
    15
100
AcDbHatch
 10
0.0
 20
0.0
 30
0.0
210
0.0
220
0.0
230
1.0
  2
SOLID
 70
     1
 71
     0
 91
        1
 92
        1
 93
        3
 72
     1
 10
204.9015842919275
 20
230.8505360436072
 11
206.5682509213413
 21
230.8505360436072
 72
     1
 10
206.5682509213413
 20
230.8505360436072
 11
205.7349176066344
 21
235.8505359318485
 72
     1
 10
205.7349176066344
 20
235.8505359318485
 11
204.9015842919275
 21
230.8505360436072
 97
        0
 75
     0
 76
     1
 98
        0
  0
LINE
  5
27D
330
27A
100
AcDbEntity
  8
Default
  6
Continuous
 62
     7
370
    15
100
AcDbLine
 10
230.7651542979
 20
217.6505351838
 30
0.0
 11
203.2349176625
 21
217.6505351838
 31
0.0
  0
LINE
  5
27E
330
27A
100
AcDbEntity
  8
Default
  6
Continuous
 62
     7
370
    15
100
AcDbLine
 10
225.1651542979
 20
235.8505351838
 30
0.0
 11
203.2349176625
 21
235.8505351838
 31
0.0
  0
LINE
  5
27F
330
27A
100
AcDbEntity
  8
Default
  6
Continuous
 62
     7
370
    15
100
AcDbLine
 10
205.7349176066
 20
217.6505351838
 30
0.0
 11
205.7349176066
 21
235.8505359318
 31
0.0
  0
TEXT
  5
280
330
27A
100
AcDbEntity
  8
Default
  6
Continuous
 62
     7
370
    15
100
AcDbText
 10
204.4849176066
 20
222.1482628306
 30
0.0
 40
5.0
  1
18,2
 50
90.0
  7
SEACAD_seiso_ttf
 11
199.4849176066
 21
222.1482628306
 31
0.0
100
AcDbText
 73
     3
  0
ENDBLK
  5
282
330
27A
100
AcDbEntity
  8
0
100
AcDbBlockEnd
  0
BLOCK
  5
28B
330
284
100
AcDbEntity
  8
0
100
AcDbBlockBegin
  2
DMBLK22
 70
     0
 71
     0
 10
0.0
 20
0.0
 30
0.0
  3
DMBLK22
  1

  0
HATCH
  5
285
330
284
100
AcDbEntity
  8
Default
  6
Continuous
 62
     7
370
    15
100
AcDbHatch
 10
0.0
 20
0.0
 30
0.0
210
0.0
220
0.0
230
1.0
  2
SOLID
 70
     1
 71
     0
 91
        1
 92
        1
 93
        3
 72
     1
 10
224.2651541861122
 20
92.86906691035925
 11
224.2651541861122
 21
94.535733539773
 72
     1
 10
224.2651541861122
 20
94.535733539773
 11
219.2651542978709
 21
93.70240022506613
 72
     1
 10
219.2651542978709
 20
93.70240022506613
 11
224.2651541861122
 21
92.86906691035925
 97
        0
 75
     0
 76
     1
 98
        0
  0
HATCH
  5
286
330
284
100
AcDbEntity
  8
Default
  6
Continuous
 62
     7
370
    15
100
AcDbHatch
 10
0.0
 20
0.0
 30
0.0
210
0.0
220
0.0
230
1.0
  2
SOLID
 70
     1
 71
     0
 91
        1
 92
        1
 93
        3
 72
     1
 10
331.1651514055555
 20
92.86906691035925
 11
336.1651512937968
 21
93.70240022506613
 72
     1
 10
336.1651512937968
 20
93.70240022506613
 11
331.1651514055555
 21
94.535733539773
 72
     1
 10
331.1651514055555
 20
94.535733539773
 11
331.1651514055555
 21
92.86906691035925
 97
        0
 75
     0
 76
     1
 98
        0
  0
LINE
  5
287
330
284
100
AcDbEntity
  8
Default
  6
Continuous
 62
     7
370
    15
100
AcDbLine
 10
219.2651542979
 20
129.6505351838
 30
0.0
 11
219.2651542979
 21
91.2024002809
 31
0.0
  0
LINE
  5
288
330
284
100
AcDbEntity
  8
Default
  6
Continuous
 62
     7
370
    15
100
AcDbLine
 10
336.1651542979
 20
111.8473222668
 30
0.0
 11
336.1651542979
 21
91.2024002809
 31
0.0
  0
LINE
  5
289
330
284
100
AcDbEntity
  8
Default
  6
Continuous
 62
     7
370
    15
100
AcDbLine
 10
219.2651542979
 20
93.7024002251
 30
0.0
 11
336.1651512938
 21
93.7024002251
 31
0.0
  0
TEXT
  5
28A
330
284
100
AcDbEntity
  8
Default
  6
Continuous
 62
     7
370
    15
100
AcDbText
 10
274.0787891595
 20
94.9524002251
 30
0.0
 40
5.0
  1
117
  7
SEACAD_seiso_ttf
 11
274.0787891595
 21
99.9524002251
 31
0.0
100
AcDbText
 73
     3
  0
ENDBLK
  5
28C
330
284
100
AcDbEntity
  8
0
100
AcDbBlockEnd
  0
ENDSEC
  0
SECTION
  2
ENTITIES
  0
INSERT
  5
2C
330
1F
100
AcDbEntity
  8
Default
100
AcDbBlockReference
  2
SE
 10
0.0
 20
0.0
 30
0.0
  0
INSERT
  5
196
330
1F
100
AcDbEntity
  8
Default
100
AcDbBlockReference
  2
SE1
 10
0.0
 20
0.0
 30
0.0
  0
DIMENSION
  5
251
330
1F
100
AcDbEntity
  8
Default
  6
Continuous
 62
     7
100
AcDbDimension
  2
DMBLK17
 10
75.5503623385
 20
248.5935017612
 30
0.0
 11
115.5503614444
 21
248.5935017612
 31
0.0
 70
   161
  1
\A1;<>
 71
     5
 42
-1.0
  3
Siemens
100
AcDbAlignedDimension
 13
75.5503623385
 23
234.8505351838
 33
0.0
 14
155.5503623385
 24
234.8505351838
 34
0.0
  0
DIMENSION
  5
25B
330
1F
100
AcDbEntity
  8
Default
  6
Continuous
 62
     7
370
    15
100
AcDbDimension
  2
DMBLK18
 10
60.3659150053
 20
235.8505351838
 30
0.0
 11
60.3659150053
 21
173.3489258584
 31
0.0
 70
   161
  1
\A1;<>
 71
     5
 42
-1.0
  3
Siemens
100
AcDbAlignedDimension
 13
76.5503623385
 23
235.8505351838
 33
0.0
 14
76.5503623385
 24
110.8473222668
 34
0.0
  0
DIMENSION
  5
265
330
1F
100
AcDbEntity
  8
Default
  6
Continuous
 62
     7
370
    15
100
AcDbDimension
  2
DMBLK19
 10
342.3151542979
 20
247.795207977
 30
0.0
 11
286.540155943
 21
247.795207977
 31
0.0
 70
   160
  1
\A1;<>
 71
     5
 42
-1.0
  3
Siemens
100
AcDbAlignedDimension
 13
230.7651542979
 23
224.4755351838
 33
0.0
 14
342.3151542979
 24
184.9305351838
 34
0.0
100
AcDbRotatedDimension
1001
ACAD
1000
DSTYLE
1002
{
1070
   271
1070
     1
1070
   272
1070
     1
1070
     0
1002
}
  0
DIMENSION
  5
26F
330
1F
100
AcDbEntity
  8
Default
  6
Continuous
 62
     7
370
    15
100
AcDbDimension
  2
DMBLK20
 10
342.3151542979
 20
258.1993577775
 30
0.0
 11
280.7901526945
 21
258.1993577775
 31
0.0
 70
   160
  1
\A1;<>
 71
     5
 42
-1.0
  3
Siemens
100
AcDbAlignedDimension
 13
219.2651542979
 23
187.3505351838
 33
0.0
 14
342.3151542979
 24
184.9305351838
 34
0.0
100
AcDbRotatedDimension
1001
ACAD
1000
DSTYLE
1002
{
1070
   271
1070
     1
1070
   272
1070
     1
1070
     0
1002
}
  0
DIMENSION
  5
279
330
1F
100
AcDbEntity
  8
Default
  6
Continuous
 62
     7
370
    15
100
AcDbDimension
  2
DMBLK21
 10
205.7349176066
 20
235.8505351838
 30
0.0
 11
205.7349176066
 21
226.7505355578
 31
0.0
 70
   160
  1
\A1;<>
 71
     5
 42
-1.0
  3
Siemens
100
AcDbAlignedDimension
 13
230.7651542979
 23
217.6505351838
 33
0.0
 14
225.1651542979
 24
235.8505351838
 34
0.0
 50
90.0
100
AcDbRotatedDimension
1001
ACAD
1000
DSTYLE
1002
{
1070
   271
1070
     1
1070
   272
1070
     1
1070
     0
1002
}
  0
DIMENSION
  5
283
330
1F
100
AcDbEntity
  8
Default
  6
Continuous
 62
     7
370
    15
100
AcDbDimension
  2
DMBLK22
 10
336.1651542979
 20
93.7024002251
 30
0.0
 11
277.7151527958
 21
93.7024002251
 31
0.0
 70
   160
  1
\A1;<>
 71
     5
 42
-1.0
  3
Siemens
100
AcDbAlignedDimension
 13
219.2651542979
 23
129.6505351838
 33
0.0
 14
336.1651542979
 24
111.8473222668
 34
0.0
100
AcDbRotatedDimension
1001
ACAD
1000
DSTYLE
1002
{
1070
   271
1070
     0
1070
   272
1070
     0
1070
     0
1002
}
  0
TEXT
  5
28E
330
1F
100
AcDbEntity
  8
0
  6
Continuous
 62
     7
370
     0
100
AcDbText
 10
325.66
 20
11.89999
 30
0.0
 40
2.2
  1
Format / Size: DIN A3
  7
SEACAD_txt_shx
 11
325.66
 21
14.09999
 31
0.0
100
AcDbText
 73
     3
  0
TEXT
  5
28F
330
1F
100
AcDbEntity
  8
0
  6
Continuous
 62
     7
370
     0
100
AcDbText
 10
368.16
 20
11.89999
 30
0.0
 40
2.2
  1
Massstab / Scale: 1:1
  7
SEACAD_txt_shx
 11
368.16
 21
14.09999
 31
0.0
100
AcDbText
 73
     3
  0
TEXT
  5
290
330
1F
100
AcDbEntity
  8
0
  6
Continuous
 62
     7
370
     0
100
AcDbText
 10
340.7598684211
 20
20.18749
 30
0.0
 40
3.5
  1
6ES73071KA020AA0
  7
SEACAD_txt_shx
 11
340.7598684211
 21
23.68749
 31
0.0
100
AcDbText
 73
     3
  0
LINE
  5
291
330
1F
100
AcDbEntity
  8
0
  6
Continuous
 62
     7
370
    30
100
AcDbLine
 10
0.0
 20
297.0
 30
0.0
 11
0.0
 21
0.0
 31
0.0
  0
LINE
  5
292
330
1F
100
AcDbEntity
  8
0
  6
Continuous
 62
     7
370
    30
100
AcDbLine
 10
5.0
 20
292.0
 30
0.0
 11
5.0
 21
5.0
 31
0.0
  0
LINE
  5
293
330
1F
100
AcDbEntity
  8
0
  6
Continuous
 62
     7
370
    30
100
AcDbLine
 10
0.0
 20
0.0
 30
0.0
 11
420.0
 21
0.0
 31
0.0
  0
LINE
  5
295
330
1F
100
AcDbEntity
  8
91000_TIP
  6
Continuous
 62
     7
370
    30
100
AcDbLine
 10
249.8659881699
 20
20.5812835243
 30
0.0
 11
259.8659879657
 21
23.0812834733
 31
0.0
  0
LINE
  5
296
330
1F
100
AcDbEntity
  8
0
  6
Continuous
 62
     7
370
    30
100
AcDbLine
 10
5.0
 20
5.0
 30
0.0
 11
415.0
 21
5.0
 31
0.0
  0
LINE
  5
297
330
1F
100
AcDbEntity
  8
0
  6
Continuous
 62
     7
370
    30
100
AcDbLine
 10
275.0
 20
10.0
 30
0.0
 11
410.0
 21
10.0
 31
0.0
  0
LINE
  5
298
330
1F
100
AcDbEntity
  8
0
  6
Continuous
 62
     7
370
    30
100
AcDbLine
 10
325.0
 20
16.0
 30
0.0
 11
410.0
 21
16.0
 31
0.0
  0
LINE
  5
299
330
1F
100
AcDbEntity
  8
0
  6
Continuous
 62
     7
370
    30
100
AcDbLine
 10
298.2973434565
 20
16.6961097434
 30
0.0
 11
299.1529318914
 21
16.6961097434
 31
0.0
  0
LINE
  5
29A
330
1F
100
AcDbEntity
  8
0
  6
Continuous
 62
     7
370
    30
100
AcDbLine
 10
311.4876651625
 20
16.7436424342
 30
0.0
 11
309.9666190559
 21
16.7436424342
 31
0.0
  0
LINE
  5
29B
330
1F
100
AcDbEntity
  8
0
  6
Continuous
 62
     7
370
    30
100
AcDbLine
 10
301.8622952689
 20
16.7436424342
 30
0.0
 11
300.4838472348
 21
16.7436424342
 31
0.0
  0
LINE
  5
29C
330
1F
100
AcDbEntity
  8
0
  6
Continuous
 62
     7
370
    30
100
AcDbLine
 10
289.1235341257
 20
16.7436424342
 30
0.0
 11
290.5495148507
 21
16.7436424342
 31
0.0
  0
LINE
  5
29D
330
1F
100
AcDbEntity
  8
0
  6
Continuous
 62
     7
370
    30
100
AcDbLine
 10
291.6427667399
 20
16.7436424342
 30
0.0
 11
295.2077185523
 21
16.7436424342
 31
0.0
  0
LINE
  5
29E
330
1F
100
AcDbEntity
  8
0
  6
Continuous
 62
     7
370
    30
100
AcDbLine
 10
296.0157742965
 20
16.7436424342
 30
0.0
 11
296.9664281131
 21
16.7436424342
 31
0.0
  0
LINE
  5
29F
330
1F
100
AcDbEntity
  8
0
  6
Continuous
 62
     7
370
    30
100
AcDbLine
 10
302.9555471581
 20
16.7436424342
 30
0.0
 11
306.5204989705
 21
16.7436424342
 31
0.0
  0
LINE
  5
2A0
330
1F
100
AcDbEntity
  8
0
  6
Continuous
 62
     7
370
    30
100
AcDbLine
 10
307.3047883693
 20
16.7436424342
 30
0.0
 11
308.2554421859
 21
16.7436424342
 31
0.0
  0
LINE
  5
2A1
330
1F
100
AcDbEntity
  8
0
  6
Continuous
 62
     7
370
    30
100
AcDbLine
 10
306.5204989705
 20
17.64676356
 30
0.0
 11
304.3339951922
 21
17.64676356
 31
0.0
  0
LINE
  5
2A2
330
1F
100
AcDbEntity
  8
0
  6
Continuous
 62
     7
370
    30
100
AcDbLine
 10
295.2077185523
 20
17.64676356
 30
0.0
 11
293.021214774
 21
17.64676356
 31
0.0
  0
LINE
  5
2A4
330
1F
100
AcDbEntity
  8
91000_TIP
  6
CENTER2
 62
     7
370
    30
100
AcDbLine
 10
248.5864776979
 20
18.0812835754
 30
0.0
 11
272.188466962
 21
18.0812835754
 31
0.0
  0
LINE
  5
2A5
330
1F
100
AcDbEntity
  8
0
  6
Continuous
 62
     7
370
    30
100
AcDbLine
 10
306.1877701347
 20
18.7637817946
 30
0.0
 11
304.3339951922
 21
18.7637817946
 31
0.0
  0
LINE
  5
2A6
330
1F
100
AcDbEntity
  8
0
  6
Continuous
 62
     7
370
    30
100
AcDbLine
 10
294.8749897165
 20
18.7637817946
 30
0.0
 11
293.021214774
 21
18.7637817946
 31
0.0
  0
LINE
  5
2A7
330
1F
100
AcDbEntity
  8
0
  6
Continuous
 62
     7
370
    30
100
AcDbLine
 10
306.1877701347
 20
19.5480711933
 30
0.0
 11
304.3339951922
 21
19.5480711933
 31
0.0
  0
LINE
  5
2A8
330
1F
100
AcDbEntity
  8
0
  6
Continuous
 62
     7
370
    30
100
AcDbLine
 10
294.8749897165
 20
19.5480711933
 30
0.0
 11
293.021214774
 21
19.5480711933
 31
0.0
  0
LINE
  5
2A9
330
1F
100
AcDbEntity
  8
0
  6
Continuous
 62
     7
370
    30
100
AcDbLine
 10
306.4729662797
 20
20.6175567371
 30
0.0
 11
304.3339951922
 21
20.6175567371
 31
0.0
  0
LINE
  5
2AA
330
1F
100
AcDbEntity
  8
0
  6
Continuous
 62
     7
370
    30
100
AcDbLine
 10
295.1601858615
 20
20.6175567371
 30
0.0
 11
293.021214774
 21
20.6175567371
 31
0.0
  0
LINE
  5
2AB
330
1F
100
AcDbEntity
  8
0
  6
Continuous
 62
     7
370
    30
100
AcDbLine
 10
311.4876651625
 20
21.4969115175
 30
0.0
 11
310.5370113459
 21
21.4969115175
 31
0.0
  0
LINE
  5
2AC
330
1F
100
AcDbEntity
  8
0
  6
Continuous
 62
     7
370
    30
100
AcDbLine
 10
308.8496008213
 20
21.4969115175
 30
0.0
 11
307.3047883693
 21
21.4969115175
 31
0.0
  0
LINE
  5
2AD
330
1F
100
AcDbEntity
  8
0
  6
Continuous
 62
     7
370
    30
100
AcDbLine
 10
306.4729662797
 20
21.4969115175
 30
0.0
 11
302.9555471581
 21
21.4969115175
 31
0.0
  0
LINE
  5
2AE
330
1F
100
AcDbEntity
  8
0
  6
Continuous
 62
     7
370
    30
100
AcDbLine
 10
301.8622952689
 20
21.4969115175
 30
0.0
 11
300.1511183989
 21
21.4969115175
 31
0.0
  0
LINE
  5
2AF
330
1F
100
AcDbEntity
  8
0
  6
Continuous
 62
     7
370
    30
100
AcDbLine
 10
297.7269511665
 20
21.4969115175
 30
0.0
 11
296.0157742965
 21
21.4969115175
 31
0.0
  0
LINE
  5
2B0
330
1F
100
AcDbEntity
  8
0
  6
Continuous
 62
     7
370
    30
100
AcDbLine
 10
295.1601858615
 20
21.4969115175
 30
0.0
 11
291.6427667399
 21
21.4969115175
 31
0.0
  0
LINE
  5
2B1
330
1F
100
AcDbEntity
  8
0
  6
Continuous
 62
     7
370
    30
100
AcDbLine
 10
289.1235341257
 20
21.4969115175
 30
0.0
 11
290.5495148507
 21
21.4969115175
 31
0.0
  0
LINE
  5
2B2
330
1F
100
AcDbEntity
  8
0
  6
Continuous
 62
     7
370
    30
100
AcDbLine
 10
275.0
 20
28.0
 30
0.0
 11
410.0
 21
28.0
 31
0.0
  0
LINE
  5
2B3
330
1F
100
AcDbEntity
  8
91000_TIP
  6
Continuous
 62
     7
370
    30
100
AcDbLine
 10
249.8659881699
 20
15.5812836265
 30
0.0
 11
259.8659879657
 21
13.0812836775
 31
0.0
  0
LINE
  5
2B4
330
1F
100
AcDbEntity
  8
0
  6
Continuous
 62
     7
370
    30
100
AcDbLine
 10
308.8496008213
 20
21.4969115175
 30
0.0
 11
310.5370113459
 21
18.5498846858
 31
0.0
  0
LINE
  5
2B5
330
1F
100
AcDbEntity
  8
0
  6
Continuous
 62
     7
370
    30
100
AcDbLine
 10
309.9666190559
 20
16.7436424342
 30
0.0
 11
308.2554421859
 21
19.7857346475
 31
0.0
  0
LINE
  5
2B6
330
1F
100
AcDbEntity
  8
0
  6
Continuous
 62
     7
370
    30
100
AcDbLine
 10
298.2973434565
 20
16.6961097434
 30
0.0
 11
296.9664281131
 21
19.7857346475
 31
0.0
  0
LINE
  5
2B7
330
1F
100
AcDbEntity
  8
0
  6
Continuous
 62
     7
370
    30
100
AcDbLine
 10
297.7269511665
 20
21.4969115175
 30
0.0
 11
298.9628011281
 21
18.5974173767
 31
0.0
  0
LINE
  5
2B8
330
1F
100
AcDbEntity
  8
91000_TIP
  6
Continuous
 62
     7
370
    30
100
AcDbLine
 10
249.8659881699
 20
20.5812835243
 30
0.0
 11
249.8659881699
 21
15.5812836265
 31
0.0
  0
LINE
  5
2B9
330
1F
100
AcDbEntity
  8
91000_TIP
  6
Continuous
 62
     7
370
    30
100
AcDbLine
 10
259.8659879657
 20
23.0812834733
 30
0.0
 11
259.8659879657
 21
13.0812836775
 31
0.0
  0
LINE
  5
2BA
330
1F
100
AcDbEntity
  8
91000_TIP
  6
CENTER2
 62
     7
370
    30
100
AcDbLine
 10
266.3659878329
 20
12.359802369
 30
0.0
 11
266.3659878329
 21
23.643188369
 31
0.0
  0
LINE
  5
2BB
330
1F
100
AcDbEntity
  8
0
  6
Continuous
 62
     7
370
    30
100
AcDbLine
 10
275.0
 20
10.0
 30
0.0
 11
275.0
 21
28.0
 31
0.0
  0
LINE
  5
2BC
330
1F
100
AcDbEntity
  8
0
  6
Continuous
 62
     7
370
    30
100
AcDbLine
 10
284.7029938783
 20
16.8387078159
 30
0.0
 11
284.7029938783
 21
17.7893616325
 31
0.0
  0
LINE
  5
2BD
330
1F
100
AcDbEntity
  8
0
  6
Continuous
 62
     7
370
    30
100
AcDbLine
 10
288.0302822366
 20
20.49872501
 30
0.0
 11
288.0302822366
 21
21.4493788266
 31
0.0
  0
LINE
  5
2BE
330
1F
100
AcDbEntity
  8
0
  6
Continuous
 62
     7
370
    30
100
AcDbLine
 10
289.1235341257
 20
21.4969115175
 30
0.0
 11
289.1235341257
 21
16.7436424342
 31
0.0
  0
LINE
  5
2BF
330
1F
100
AcDbEntity
  8
0
  6
Continuous
 62
     7
370
    30
100
AcDbLine
 10
290.5495148507
 20
21.4969115175
 30
0.0
 11
290.5495148507
 21
16.7436424342
 31
0.0
  0
LINE
  5
2C0
330
1F
100
AcDbEntity
  8
0
  6
Continuous
 62
     7
370
    30
100
AcDbLine
 10
291.6427667399
 20
21.4969115175
 30
0.0
 11
291.6427667399
 21
16.7436424342
 31
0.0
  0
LINE
  5
2C1
330
1F
100
AcDbEntity
  8
0
  6
Continuous
 62
     7
370
    30
100
AcDbLine
 10
293.021214774
 20
20.6175567371
 30
0.0
 11
293.021214774
 21
19.5480711933
 31
0.0
  0
LINE
  5
2C2
330
1F
100
AcDbEntity
  8
0
  6
Continuous
 62
     7
370
    30
100
AcDbLine
 10
293.021214774
 20
18.7637817946
 30
0.0
 11
293.021214774
 21
17.64676356
 31
0.0
  0
LINE
  5
2C3
330
1F
100
AcDbEntity
  8
0
  6
Continuous
 62
     7
370
    30
100
AcDbLine
 10
294.8749897165
 20
19.5480711933
 30
0.0
 11
294.8749897165
 21
18.7637817946
 31
0.0
  0
LINE
  5
2C4
330
1F
100
AcDbEntity
  8
0
  6
Continuous
 62
     7
370
    30
100
AcDbLine
 10
295.1601858615
 20
21.4969115175
 30
0.0
 11
295.1601858615
 21
20.6175567371
 31
0.0
  0
LINE
  5
2C5
330
1F
100
AcDbEntity
  8
0
  6
Continuous
 62
     7
370
    30
100
AcDbLine
 10
295.2077185523
 20
17.64676356
 30
0.0
 11
295.2077185523
 21
16.7436424342
 31
0.0
  0
LINE
  5
2C6
330
1F
100
AcDbEntity
  8
0
  6
Continuous
 62
     7
370
    30
100
AcDbLine
 10
296.0157742965
 20
16.7436424342
 30
0.0
 11
296.0157742965
 21
21.4969115175
 31
0.0
  0
LINE
  5
2C7
330
1F
100
AcDbEntity
  8
0
  6
Continuous
 62
     7
370
    30
100
AcDbLine
 10
296.9664281131
 20
16.7436424342
 30
0.0
 11
296.9664281131
 21
19.7857346475
 31
0.0
  0
LINE
  5
2C8
330
1F
100
AcDbEntity
  8
0
  6
Continuous
 62
     7
370
    30
100
AcDbLine
 10
300.4838472348
 20
19.8332673383
 30
0.0
 11
300.4838472348
 21
16.7436424342
 31
0.0
  0
LINE
  5
2C9
330
1F
100
AcDbEntity
  8
0
  6
Continuous
 62
     7
370
    30
100
AcDbLine
 10
301.8622952689
 20
21.4969115175
 30
0.0
 11
301.8622952689
 21
16.7436424342
 31
0.0
  0
LINE
  5
2CA
330
1F
100
AcDbEntity
  8
0
  6
Continuous
 62
     7
370
    30
100
AcDbLine
 10
302.9555471581
 20
21.4969115175
 30
0.0
 11
302.9555471581
 21
16.7436424342
 31
0.0
  0
LINE
  5
2CB
330
1F
100
AcDbEntity
  8
0
  6
Continuous
 62
     7
370
    30
100
AcDbLine
 10
304.3339951922
 20
20.6175567371
 30
0.0
 11
304.3339951922
 21
19.5480711933
 31
0.0
  0
LINE
  5
2CC
330
1F
100
AcDbEntity
  8
0
  6
Continuous
 62
     7
370
    30
100
AcDbLine
 10
304.3339951922
 20
18.7637817946
 30
0.0
 11
304.3339951922
 21
17.64676356
 31
0.0
  0
LINE
  5
2CD
330
1F
100
AcDbEntity
  8
0
  6
Continuous
 62
     7
370
    30
100
AcDbLine
 10
306.1877701347
 20
19.5480711933
 30
0.0
 11
306.1877701347
 21
18.7637817946
 31
0.0
  0
LINE
  5
2CE
330
1F
100
AcDbEntity
  8
0
  6
Continuous
 62
     7
370
    30
100
AcDbLine
 10
306.4729662797
 20
21.4969115175
 30
0.0
 11
306.4729662797
 21
20.6175567371
 31
0.0
  0
LINE
  5
2CF
330
1F
100
AcDbEntity
  8
0
  6
Continuous
 62
     7
370
    30
100
AcDbLine
 10
306.5204989705
 20
17.64676356
 30
0.0
 11
306.5204989705
 21
16.7436424342
 31
0.0
  0
LINE
  5
2D0
330
1F
100
AcDbEntity
  8
0
  6
Continuous
 62
     7
370
    30
100
AcDbLine
 10
307.3047883693
 20
16.7436424342
 30
0.0
 11
307.3047883693
 21
21.4969115175
 31
0.0
  0
LINE
  5
2D1
330
1F
100
AcDbEntity
  8
0
  6
Continuous
 62
     7
370
    30
100
AcDbLine
 10
308.2554421859
 20
16.7436424342
 30
0.0
 11
308.2554421859
 21
19.7857346475
 31
0.0
  0
LINE
  5
2D2
330
1F
100
AcDbEntity
  8
0
  6
Continuous
 62
     7
370
    30
100
AcDbLine
 10
310.5370113459
 20
21.4969115175
 30
0.0
 11
310.5370113459
 21
18.5498846858
 31
0.0
  0
LINE
  5
2D3
330
1F
100
AcDbEntity
  8
0
  6
Continuous
 62
     7
370
    30
100
AcDbLine
 10
311.4876651625
 20
21.4969115175
 30
0.0
 11
311.4876651625
 21
16.7436424342
 31
0.0
  0
LINE
  5
2D4
330
1F
100
AcDbEntity
  8
0
  6
Continuous
 62
     7
370
    30
100
AcDbLine
 10
312.2957209067
 20
16.8387078159
 30
0.0
 11
312.2957209067
 21
17.7893616325
 31
0.0
  0
LINE
  5
2D5
330
1F
100
AcDbEntity
  8
0
  6
Continuous
 62
     7
370
    30
100
AcDbLine
 10
315.623009265
 20
20.49872501
 30
0.0
 11
315.623009265
 21
21.4493788266
 31
0.0
  0
LINE
  5
2D6
330
1F
100
AcDbEntity
  8
0
  6
Continuous
 62
     7
370
    30
100
AcDbLine
 10
325.0
 20
10.0
 30
0.0
 11
325.0
 21
28.0
 31
0.0
  0
LINE
  5
2D7
330
1F
100
AcDbEntity
  8
0
  6
Continuous
 62
     7
370
    30
100
AcDbLine
 10
300.1511183989
 20
21.4969115175
 30
0.0
 11
298.9628011281
 21
18.5974173767
 31
0.0
  0
LINE
  5
2D8
330
1F
100
AcDbEntity
  8
0
  6
Continuous
 62
     7
370
    30
100
AcDbLine
 10
300.4838472348
 20
19.8332673383
 30
0.0
 11
299.1529318914
 21
16.6961097434
 31
0.0
  0
LINE
  5
2D9
330
1F
100
AcDbEntity
  8
0
  6
Continuous
 62
     7
370
    30
100
AcDbLine
 10
284.8948224676
 20
20.9161059766
 30
0.0
 11
285.1688882922
 21
21.1901790542
 31
0.0
  0
LINE
  5
2DA
330
1F
100
AcDbEntity
  8
0
  6
Continuous
 62
     7
370
    30
100
AcDbLine
 10
415.0
 20
292.0
 30
0.0
 11
5.0
 21
292.0
 31
0.0
  0
LINE
  5
2DB
330
1F
100
AcDbEntity
  8
0
  6
Continuous
 62
     7
370
    30
100
AcDbLine
 10
420.0
 20
297.0
 30
0.0
 11
0.0
 21
297.0
 31
0.0
  0
LINE
  5
2DC
330
1F
100
AcDbEntity
  8
0
  6
Continuous
 62
     7
370
    30
100
AcDbLine
 10
367.5
 20
10.0
 30
0.0
 11
367.5
 21
16.0
 31
0.0
  0
LINE
  5
2DD
330
1F
100
AcDbEntity
  8
0
  6
Continuous
 62
     7
370
    30
100
AcDbLine
 10
410.0
 20
10.0
 30
0.0
 11
410.0
 21
28.0
 31
0.0
  0
LINE
  5
2DE
330
1F
100
AcDbEntity
  8
0
  6
Continuous
 62
     7
370
    30
100
AcDbLine
 10
415.0
 20
5.0
 30
0.0
 11
415.0
 21
292.0
 31
0.0
  0
LINE
  5
2DF
330
1F
100
AcDbEntity
  8
0
  6
Continuous
 62
     7
370
    30
100
AcDbLine
 10
420.0
 20
0.0
 30
0.0
 11
420.0
 21
297.0
 31
0.0
  0
ARC
  5
2E0
330
1F
100
AcDbEntity
  8
0
  6
Continuous
 62
     7
370
    30
100
AcDbCircle
 10
314.0003620317
 20
18.7008009792
 30
0.0
 40
1.1116193606
100
AcDbArc
 50
277.7099956934
 51
295.6884927746
  0
ARC
  5
2E1
330
1F
100
AcDbEntity
  8
0
  6
Continuous
 62
     7
370
    30
100
AcDbCircle
 10
314.2846720145
 20
17.9759752156
 30
0.0
 40
0.3401689265
100
AcDbArc
 50
305.503221255
 51
72.4652898523
  0
ARC
  5
2E2
330
1F
100
AcDbEntity
  8
0
  6
Continuous
 62
     7
370
    30
100
AcDbCircle
 10
313.7186782063
 20
21.3776821252
 30
0.0
 40
4.7567946411
100
AcDbArc
 50
252.5939200548
 51
280.9816604256
  0
ARC
  5
2E3
330
1F
100
AcDbEntity
  8
0
  6
Continuous
 62
     7
370
    30
100
AcDbCircle
 10
314.1735135694
 20
18.7596683887
 30
0.0
 40
2.1007265953
100
AcDbArc
 50
282.405835852
 51
311.8644433928
  0
ARC
  5
2E4
330
1F
100
AcDbEntity
  8
0
  6
Continuous
 62
     7
370
    30
100
AcDbCircle
 10
313.8999492223
 20
20.3680101102
 30
0.0
 40
0.3029626476000001
100
AcDbArc
 50
154.4400348282
 51
221.8201698801
  0
ARC
  5
2E5
330
1F
100
AcDbEntity
  8
0
  6
Continuous
 62
     7
370
    30
100
AcDbCircle
 10
313.9791703737
 20
20.2887889588
 30
0.0
 40
0.4103089737
100
AcDbArc
 50
102.8287828681
 51
149.2259639003
  0
ARC
  5
2E6
330
1F
100
AcDbEntity
  8
0
  6
Continuous
 62
     7
370
    30
100
AcDbCircle
 10
314.3961972093
 20
18.546453629
 30
0.0
 40
2.201836557
100
AcDbArc
 50
84.0400061857
 51
103.3427657871
  0
ARC
  5
2E7
330
1F
100
AcDbEntity
  8
0
  6
Continuous
 62
     7
370
    30
100
AcDbCircle
 10
314.0552333846
 20
16.1290897051
 30
0.0
 40
4.642373736500001
100
AcDbArc
 50
70.2625858546
 51
82.952418638
  0
ARC
  5
2E8
330
1F
100
AcDbEntity
  8
0
  6
Continuous
 62
     7
370
    30
100
AcDbCircle
 10
313.5412151824
 20
20.8007125947
 30
0.0
 40
3.2587559909
100
AcDbArc
 50
247.5300206145
 51
280.7579522143
  0
ARC
  5
2E9
330
1F
100
AcDbEntity
  8
0
  6
Continuous
 62
     7
370
    30
100
AcDbCircle
 10
307.1562487104
 20
2.5491926343
 30
0.0
 40
17.3316084133
100
AcDbArc
 50
65.341467465
 51
67.3997770736
  0
ARC
  5
2EA
330
1F
100
AcDbEntity
  8
0
  6
Continuous
 62
     7
370
    30
100
AcDbCircle
 10
317.9521111158
 20
28.3416189974
 30
0.0
 40
10.6291642039
100
AcDbArc
 50
242.8620101252
 51
247.1042029186
  0
ARC
  5
2EB
330
1F
100
AcDbEntity
  8
0
  6
Continuous
 62
     7
370
    30
100
AcDbCircle
 10
314.0972098893
 20
20.8076875004
 30
0.0
 40
2.1662916292
100
AcDbArc
 50
227.3119280794
 51
242.7040315235
  0
ARC
  5
2EC
330
1F
100
AcDbEntity
  8
0
  6
Continuous
 62
     7
370
    30
100
AcDbCircle
 10
313.4931790796
 20
20.1020098596
 30
0.0
 40
1.238521734
100
AcDbArc
 50
194.7952194236
 51
225.7176549047
  0
ARC
  5
2ED
330
1F
100
AcDbEntity
  8
0
  6
Continuous
 62
     7
370
    30
100
AcDbCircle
 10
313.5553372138
 20
20.1422298287
 30
0.0
 40
1.3090920729
100
AcDbArc
 50
164.1974860461
 51
195.8025139539
  0
ARC
  5
2EE
330
1F
100
AcDbEntity
  8
0
  6
Continuous
 62
     7
370
    30
100
AcDbCircle
 10
314.1123609345
 20
19.2539626688
 30
0.0
 40
2.3669248153
100
AcDbArc
 50
86.2218022928
 51
120.4272602309
  0
ARC
  5
2EF
330
1F
100
AcDbEntity
  8
0
  6
Continuous
 62
     7
370
    30
100
AcDbCircle
 10
313.8435041519
 20
12.5577948477
 30
0.0
 40
9.0679051661
100
AcDbArc
 50
78.6827049226
 51
87.3147599624
  0
ARC
  5
2F0
330
1F
100
AcDbEntity
  8
0
  6
Continuous
 62
     7
370
    30
100
AcDbCircle
 10
313.3874349735
 20
20.2497375912
 30
0.0
 40
1.119747444
100
AcDbArc
 50
142.813917903
 51
167.1522951417
  0
ARC
  5
2F1
330
1F
100
AcDbEntity
  8
0
  6
Continuous
 62
     7
370
    30
100
AcDbCircle
 10
313.7327443151
 20
19.9431558946
 30
0.0
 40
1.5805466845
100
AcDbArc
 50
121.2140948535
 51
141.5254768286
  0
ARC
  5
2F2
330
1F
100
AcDbEntity
  8
0
  6
Continuous
 62
     7
370
    30
100
AcDbCircle
 10
314.3099186807
 20
20.7542132232
 30
0.0
 40
0.8661276052000001
100
AcDbArc
 50
222.7760387596
 51
239.0362434679
  0
ARC
  5
2F3
330
1F
100
AcDbEntity
  8
0
  6
Continuous
 62
     7
370
    30
100
AcDbCircle
 10
311.8032091024
 20
13.4239410246
 30
0.0
 40
6.8587735763
100
AcDbArc
 50
59.902027256
 51
68.2036481279
  0
ARC
  5
2F4
330
1F
100
AcDbEntity
  8
0
  6
Continuous
 62
     7
370
    30
100
AcDbCircle
 10
315.2117035963
 20
22.3498275319
 30
0.0
 40
2.698741017100001
100
AcDbArc
 50
240.0481997804
 51
251.3779673737
  0
ARC
  5
2F5
330
1F
100
AcDbEntity
  8
0
  6
Continuous
 62
     7
370
    30
100
AcDbCircle
 10
314.5462464295
 20
18.1929289165
 30
0.0
 40
1.4334474881
100
AcDbArc
 50
315.8904553224
 51
333.5229264373
  0
ARC
  5
2F6
330
1F
100
AcDbEntity
  8
0
  6
Continuous
 62
     7
370
    30
100
AcDbCircle
 10
314.5508846732
 20
18.1395217664
 30
0.0
 40
1.4062287119
100
AcDbArc
 50
335.3867972702
 51
24.3915119402
  0
ARC
  5
2F7
330
1F
100
AcDbEntity
  8
0
  6
Continuous
 62
     7
370
    30
100
AcDbCircle
 10
314.4786797697
 20
18.0616650746
 30
0.0
 40
1.5047025148
100
AcDbArc
 50
25.9562916605
 51
59.4834829668
  0
ARC
  5
2F8
330
1F
100
AcDbEntity
  8
0
  6
Continuous
 62
     7
370
    30
100
AcDbCircle
 10
286.4076350033
 20
18.7008009792
 30
0.0
 40
1.1116193606
100
AcDbArc
 50
277.7099956934
 51
295.6884927746
  0
ARC
  5
2F9
330
1F
100
AcDbEntity
  8
0
  6
Continuous
 62
     7
370
    30
100
AcDbCircle
 10
286.691944986
 20
17.9759752156
 30
0.0
 40
0.3401689265000001
100
AcDbArc
 50
305.5032212556
 51
72.4652898515
  0
ARC
  5
2FA
330
1F
100
AcDbEntity
  8
0
  6
Continuous
 62
     7
370
    30
100
AcDbCircle
 10
286.1259511779
 20
21.3776821252
 30
0.0
 40
4.756794641099999
100
AcDbArc
 50
252.5939200545
 51
280.9816604253
  0
ARC
  5
2FB
330
1F
100
AcDbEntity
  8
0
  6
Continuous
 62
     7
370
    30
100
AcDbCircle
 10
286.580786541
 20
18.7596683887
 30
0.0
 40
2.1007265953
100
AcDbArc
 50
282.4058358513
 51
311.8644433923
  0
ARC
  5
2FC
330
1F
100
AcDbEntity
  8
0
  6
Continuous
 62
     7
370
    30
100
AcDbCircle
 10
286.3072221939
 20
20.3680101102
 30
0.0
 40
0.3029626476
100
AcDbArc
 50
154.4400348282
 51
221.8201698801
  0
ARC
  5
2FD
330
1F
100
AcDbEntity
  8
0
  6
Continuous
 62
     7
370
    30
100
AcDbCircle
 10
286.3864433453
 20
20.2887889588
 30
0.0
 40
0.4103089737
100
AcDbArc
 50
102.8287828727
 51
149.2259639027
  0
ARC
  5
2FE
330
1F
100
AcDbEntity
  8
0
  6
Continuous
 62
     7
370
    30
100
AcDbCircle
 10
286.8034701809
 20
18.546453629
 30
0.0
 40
2.201836557
100
AcDbArc
 50
84.0400061859
 51
103.3427657872
  0
ARC
  5
2FF
330
1F
100
AcDbEntity
  8
0
  6
Continuous
 62
     7
370
    30
100
AcDbCircle
 10
286.4625063562
 20
16.1290897051
 30
0.0
 40
4.6423737365
100
AcDbArc
 50
70.2625858546
 51
82.9524186379
  0
ARC
  5
300
330
1F
100
AcDbEntity
  8
0
  6
Continuous
 62
     7
370
    30
100
AcDbCircle
 10
285.948488154
 20
20.8007125947
 30
0.0
 40
3.258755990900001
100
AcDbArc
 50
247.5300206148
 51
280.7579522145
  0
ARC
  5
301
330
1F
100
AcDbEntity
  8
0
  6
Continuous
 62
     7
370
    30
100
AcDbCircle
 10
279.563521682
 20
2.5491926343
 30
0.0
 40
17.3316084133
100
AcDbArc
 50
65.341467465
 51
67.3997770736
  0
ARC
  5
302
330
1F
100
AcDbEntity
  8
0
  6
Continuous
 62
     7
370
    30
100
AcDbCircle
 10
290.3593840874
 20
28.3416189974
 30
0.0
 40
10.6291642039
100
AcDbArc
 50
242.8620101252
 51
247.1042029185
  0
ARC
  5
303
330
1F
100
AcDbEntity
  8
0
  6
Continuous
 62
     7
370
    30
100
AcDbCircle
 10
286.5044828608
 20
20.8076875004
 30
0.0
 40
2.1662916292
100
AcDbArc
 50
227.3119280794
 51
242.7040315235
  0
ARC
  5
304
330
1F
100
AcDbEntity
  8
0
  6
Continuous
 62
     7
370
    30
100
AcDbCircle
 10
285.9004520512
 20
20.1020098596
 30
0.0
 40
1.238521734
100
AcDbArc
 50
194.7952194234
 51
225.7176549042
  0
ARC
  5
305
330
1F
100
AcDbEntity
  8
0
  6
Continuous
 62
     7
370
    30
100
AcDbCircle
 10
286.519633906
 20
19.2539626688
 30
0.0
 40
2.3669248153
100
AcDbArc
 50
86.2218022928
 51
120.4272602309
  0
ARC
  5
306
330
1F
100
AcDbEntity
  8
0
  6
Continuous
 62
     7
370
    30
100
AcDbCircle
 10
286.2507771235
 20
12.5577948477
 30
0.0
 40
9.0679051661
100
AcDbArc
 50
78.6827049226
 51
87.3147599624
  0
ARC
  5
307
330
1F
100
AcDbEntity
  8
0
  6
Continuous
 62
     7
370
    30
100
AcDbCircle
 10
286.1400172867
 20
19.9431558946
 30
0.0
 40
1.5805466846
100
AcDbArc
 50
121.2140948541
 51
141.525476829
  0
ARC
  5
308
330
1F
100
AcDbEntity
  8
0
  6
Continuous
 62
     7
370
    30
100
AcDbCircle
 10
286.7171916523
 20
20.7542132232
 30
0.0
 40
0.8661276052000001
100
AcDbArc
 50
222.7760387596
 51
239.0362434679
  0
ARC
  5
309
330
1F
100
AcDbEntity
  8
0
  6
Continuous
 62
     7
370
    30
100
AcDbCircle
 10
284.210482074
 20
13.4239410246
 30
0.0
 40
6.8587735763
100
AcDbArc
 50
59.9020272562
 51
68.2036481282
  0
ARC
  5
30A
330
1F
100
AcDbEntity
  8
0
  6
Continuous
 62
     7
370
    30
100
AcDbCircle
 10
287.6189765678
 20
22.3498275319
 30
0.0
 40
2.698741017100001
100
AcDbArc
 50
240.0481997804
 51
251.3779673734
  0
ARC
  5
30B
330
1F
100
AcDbEntity
  8
0
  6
Continuous
 62
     7
370
    30
100
AcDbCircle
 10
286.953519401
 20
18.1929289165
 30
0.0
 40
1.4334474881
100
AcDbArc
 50
315.8904553226
 51
333.5229264375
  0
ARC
  5
30C
330
1F
100
AcDbEntity
  8
0
  6
Continuous
 62
     7
370
    30
100
AcDbCircle
 10
286.9581576447
 20
18.1395217664
 30
0.0
 40
1.4062287119
100
AcDbArc
 50
335.3867972703
 51
24.3915119403
  0
ARC
  5
30D
330
1F
100
AcDbEntity
  8
0
  6
Continuous
 62
     7
370
    30
100
AcDbCircle
 10
286.8859527412
 20
18.0616650746
 30
0.0
 40
1.5047025147
100
AcDbArc
 50
25.9562916611
 51
59.4834829676
  0
ARC
  5
30E
330
1F
100
AcDbEntity
  8
0
  6
Continuous
 62
     7
370
    30
100
AcDbCircle
 10
285.9626101853
 20
20.1422298287
 30
0.0
 40
1.3090920729
100
AcDbArc
 50
164.1974860461
 51
195.8025139539
  0
ARC
  5
30F
330
1F
100
AcDbEntity
  8
0
  6
Continuous
 62
     7
370
    30
100
AcDbCircle
 10
285.7947079451
 20
20.2497375912
 30
0.0
 40
1.119747444
100
AcDbArc
 50
142.813917903
 51
167.1522951417
  0
CIRCLE
  5
310
330
1F
100
AcDbEntity
  8
91000_TIP
  6
Continuous
 62
     7
370
    30
100
AcDbCircle
 10
266.3659878329
 20
18.0812835754
 30
0.0
 40
4.999999897900011
  0
CIRCLE
  5
311
330
1F
100
AcDbEntity
  8
91000_TIP
  6
Continuous
 62
     7
370
    30
100
AcDbCircle
 10
266.3659878329
 20
18.0812835754
 30
0.0
 40
2.499999948899983
  0
TEXT
  5
312
330
1F
100
AcDbEntity
  8
0
  6
Continuous
 62
     7
370
     0
100
AcDbText
 10
9.665252337
 20
13.6558012918
 30
0.0
 40
2.2
  1
Alle Bemassungswerte sind in Millimeter (mm) angegeben.
  7
SEACAD_txt_shx
 11
9.665252337
 21
15.8558012918
 31
0.0
100
AcDbText
 73
     3
  0
TEXT
  5
313
330
1F
100
AcDbEntity
  8
0
  6
Continuous
 62
     7
370
     0
100
AcDbText
 10
9.665252337
 20
9.9891346252
 30
0.0
 40
2.2
  1
All dimensions are in millimeters (mm).
  7
SEACAD_txt_shx
 11
9.665252337
 21
12.1891346252
 31
0.0
100
AcDbText
 73
     3
  0
ENDSEC
  0
SECTION
  2
OBJECTS
  0
DICTIONARY
  5
C
330
0
100
AcDbDictionary
281
     1
  3
ACAD_GROUP
350
D
  3
ACAD_LAYOUT
350
1A
  3
ACAD_MLINESTYLE
350
17
  3
ACAD_PLOTSETTINGS
350
19
  3
ACAD_PLOTSTYLENAME
350
E
  0
DICTIONARY
  5
D
102
{ACAD_REACTORS
330
C
102
}
330
C
100
AcDbDictionary
281
     1
  0
DICTIONARY
  5
1A
102
{ACAD_REACTORS
330
C
102
}
330
C
100
AcDbDictionary
281
     1
  3
Layout1
350
1E
  3
Model
350
22
  0
DICTIONARY
  5
17
102
{ACAD_REACTORS
330
C
102
}
330
C
100
AcDbDictionary
281
     1
  3
Standard
350
18
  0
DICTIONARY
  5
19
102
{ACAD_REACTORS
330
C
102
}
330
C
100
AcDbDictionary
281
     1
  0
ACDBDICTIONARYWDFLT
  5
E
102
{ACAD_REACTORS
330
C
102
}
330
C
100
AcDbDictionary
281
     1
  3
Normal
350
F
100
AcDbDictionaryWithDefault
340
F
  0
LAYOUT
  5
1E
102
{ACAD_REACTORS
330
1A
102
}
330
1A
100
AcDbPlotSettings
  1

  2
none_device
  4

  6

 40
0.0
 41
0.0
 42
0.0
 43
0.0
 44
0.0
 45
0.0
 46
0.0
 47
0.0
 48
0.0
 49
0.0
140
0.0
141
0.0
142
1.0
143
1.0
 70
   688
 72
     0
 73
     0
 74
     5
  7

 75
    16
147
1.0
148
0.0
149
0.0
100
AcDbLayout
  1
Layout1
 70
     1
 71
     1
 10
0.0
 20
0.0
 11
420.0
 21
297.0
 12
0.0
 22
0.0
 32
0.0
 14
0.0
 24
0.0
 34
0.0
 15
420.0
 25
297.0
 35
0.0
146
0.0
 13
0.0
 23
0.0
 33
0.0
 16
1.0
 26
0.0
 36
0.0
 17
0.0
 27
1.0
 37
0.0
 76
     0
330
1B
  0
LAYOUT
  5
22
102
{ACAD_REACTORS
330
1A
102
}
330
1A
100
AcDbPlotSettings
  1

  2
none_device
  4

  6

 40
0.0
 41
0.0
 42
0.0
 43
0.0
 44
0.0
 45
0.0
 46
0.0
 47
0.0
 48
0.0
 49
0.0
140
0.0
141
0.0
142
1.0
143
1.0
 70
  1712
 72
     0
 73
     0
 74
     0
  7

 75
     0
147
1.0
148
0.0
149
0.0
100
AcDbLayout
  1
Model
 70
     1
 71
     0
 10
0.0
 20
0.0
 11
420.0
 21
297.0
 12
0.0
 22
0.0
 32
0.0
 14
0.0
 24
0.0
 34
0.0
 15
420.0
 25
297.0
 35
0.0
146
0.0
 13
0.0
 23
0.0
 33
0.0
 16
1.0
 26
0.0
 36
0.0
 17
0.0
 27
1.0
 37
0.0
 76
     0
330
1F
  0
MLINESTYLE
  5
18
102
{ACAD_REACTORS
330
17
102
}
330
17
100
AcDbMlineStyle
  2
Standard
 70
     0
  3

 62
   256
 51
90.0
 52
90.0
 71
     2
 49
0.5
 62
   256
  6
BYLAYER
 49
-0.5
 62
   256
  6
BYLAYER
  0
ACDBPLACEHOLDER
  5
F
102
{ACAD_REACTORS
330
E
102
}
330
E
  0
ENDSEC
  0
EOF
