  0
SECTION
  2
HEADER
  9
$ACADVER
  1
AC1015
  9
$ACADMAINTVER
 70
     6
  9
$DWGCODEPAGE
  3
ANSI_1252
  9
$INSBASE
 10
0.0
 20
0.0
 30
0.0
  9
$EXTMIN
 10
0.0
 20
0.0
 30
0.0
  9
$EXTMAX
 10
420.0
 20
297.0
 30
0.0
  9
$LIMMIN
 10
0.0
 20
0.0
  9
$LIMMAX
 10
420.0
 20
297.0
  9
$ORTHOMODE
 70
     0
  9
$REGENMODE
 70
     1
  9
$FILLMODE
 70
     1
  9
$QTEXTMODE
 70
     0
  9
$MIRRTEXT
 70
     1
  9
$LTSCALE
 40
1.0
  9
$ATTMODE
 70
     1
  9
$TEXTSIZE
 40
2.5
  9
$TRACEWID
 40
1.0
  9
$TEXTSTYLE
  7
Standard
  9
$CLAYER
  8
0
  9
$CELTYPE
  6
ByLayer
  9
$CECOLOR
 62
   256
  9
$CELTSCALE
 40
1.0
  9
$DISPSILH
 70
     0
  9
$DIMSCALE
 40
1.0
  9
$DIMASZ
 40
2.5
  9
$DIMEXO
 40
0.625
  9
$DIMDLI
 40
3.75
  9
$DIMRND
 40
0.0
  9
$DIMDLE
 40
0.0
  9
$DIMEXE
 40
1.25
  9
$DIMTP
 40
0.0
  9
$DIMTM
 40
0.0
  9
$DIMTXT
 40
2.5
  9
$DIMCEN
 40
2.5
  9
$DIMTSZ
 40
0.0
  9
$DIMTOL
 70
     0
  9
$DIMLIM
 70
     0
  9
$DIMTIH
 70
     0
  9
$DIMTOH
 70
     0
  9
$DIMSE1
 70
     0
  9
$DIMSE2
 70
     0
  9
$DIMTAD
 70
     1
  9
$DIMZIN
 70
     8
  9
$DIMBLK
  1

  9
$DIMASO
 70
     1
  9
$DIMSHO
 70
     1
  9
$DIMPOST
  1

  9
$DIMAPOST
  1

  9
$DIMALT
 70
     0
  9
$DIMALTD
 70
     3
  9
$DIMALTF
 40
0.0393700787
  9
$DIMLFAC
 40
1.0
  9
$DIMTOFL
 70
     1
  9
$DIMTVP
 40
0.0
  9
$DIMTIX
 70
     0
  9
$DIMSOXD
 70
     0
  9
$DIMSAH
 70
     0
  9
$DIMBLK1
  1

  9
$DIMBLK2
  1

  9
$DIMSTYLE
  2
ISO-25
  9
$DIMCLRD
 70
     0
  9
$DIMCLRE
 70
     0
  9
$DIMCLRT
 70
     0
  9
$DIMTFAC
 40
1.0
  9
$DIMGAP
 40
0.625
  9
$DIMJUST
 70
     0
  9
$DIMSD1
 70
     0
  9
$DIMSD2
 70
     0
  9
$DIMTOLJ
 70
     0
  9
$DIMTZIN
 70
     8
  9
$DIMALTZ
 70
     0
  9
$DIMALTTZ
 70
     0
  9
$DIMUPT
 70
     0
  9
$DIMDEC
 70
     2
  9
$DIMTDEC
 70
     2
  9
$DIMALTU
 70
     2
  9
$DIMALTTD
 70
     3
  9
$DIMTXSTY
  7
Standard
  9
$DIMAUNIT
 70
     0
  9
$DIMADEC
 70
     0
  9
$DIMALTRND
 40
0.0
  9
$DIMAZIN
 70
     0
  9
$DIMDSEP
 70
    44
  9
$DIMATFIT
 70
     3
  9
$DIMFRAC
 70
     0
  9
$DIMLDRBLK
  1

  9
$DIMLUNIT
 70
     2
  9
$DIMLWD
 70
    -2
  9
$DIMLWE
 70
    -2
  9
$DIMTMOVE
 70
     0
  9
$LUNITS
 70
     2
  9
$LUPREC
 70
     4
  9
$SKETCHINC
 40
1.0
  9
$FILLETRAD
 40
10.0
  9
$AUNITS
 70
     0
  9
$AUPREC
 70
     0
  9
$MENU
  1
.
  9
$ELEVATION
 40
0.0
  9
$PELEVATION
 40
0.0
  9
$THICKNESS
 40
0.0
  9
$LIMCHECK
 70
     0
  9
$CHAMFERA
 40
10.0
  9
$CHAMFERB
 40
10.0
  9
$CHAMFERC
 40
20.0
  9
$CHAMFERD
 40
0.0
  9
$SKPOLY
 70
     0
  9
$TDCREATE
 40
2455369.575365613
  9
$TDUCREATE
 40
2455369.49203228
  9
$TDUPDATE
 40
2455369.575365625
  9
$TDUUPDATE
 40
2455369.492032292
  9
$TDINDWG
 40
0.0000000116
  9
$TDUSRTIMER
 40
0.0000000116
  9
$USRTIMER
 70
     1
  9
$ANGBASE
 50
0.0
  9
$ANGDIR
 70
     0
  9
$PDMODE
 70
     0
  9
$PDSIZE
 40
0.0
  9
$PLINEWID
 40
0.0
  9
$SPLFRAME
 70
     0
  9
$SPLINETYPE
 70
     6
  9
$SPLINESEGS
 70
     8
  9
$HANDSEED
  5
2EE
  9
$SURFTAB1
 70
     6
  9
$SURFTAB2
 70
     6
  9
$SURFTYPE
 70
     6
  9
$SURFU
 70
     6
  9
$SURFV
 70
     6
  9
$UCSBASE
  2

  9
$UCSNAME
  2

  9
$UCSORG
 10
0.0
 20
0.0
 30
0.0
  9
$UCSXDIR
 10
1.0
 20
0.0
 30
0.0
  9
$UCSYDIR
 10
0.0
 20
1.0
 30
0.0
  9
$UCSORTHOREF
  2

  9
$UCSORTHOVIEW
 70
     0
  9
$UCSORGTOP
 10
0.0
 20
0.0
 30
0.0
  9
$UCSORGBOTTOM
 10
0.0
 20
0.0
 30
0.0
  9
$UCSORGLEFT
 10
0.0
 20
0.0
 30
0.0
  9
$UCSORGRIGHT
 10
0.0
 20
0.0
 30
0.0
  9
$UCSORGFRONT
 10
0.0
 20
0.0
 30
0.0
  9
$UCSORGBACK
 10
0.0
 20
0.0
 30
0.0
  9
$PUCSBASE
  2

  9
$PUCSNAME
  2

  9
$PUCSORG
 10
0.0
 20
0.0
 30
0.0
  9
$PUCSXDIR
 10
1.0
 20
0.0
 30
0.0
  9
$PUCSYDIR
 10
0.0
 20
1.0
 30
0.0
  9
$PUCSORTHOREF
  2

  9
$PUCSORTHOVIEW
 70
     0
  9
$PUCSORGTOP
 10
0.0
 20
0.0
 30
0.0
  9
$PUCSORGBOTTOM
 10
0.0
 20
0.0
 30
0.0
  9
$PUCSORGLEFT
 10
0.0
 20
0.0
 30
0.0
  9
$PUCSORGRIGHT
 10
0.0
 20
0.0
 30
0.0
  9
$PUCSORGFRONT
 10
0.0
 20
0.0
 30
0.0
  9
$PUCSORGBACK
 10
0.0
 20
0.0
 30
0.0
  9
$USERI1
 70
     0
  9
$USERI2
 70
     0
  9
$USERI3
 70
     0
  9
$USERI4
 70
     0
  9
$USERI5
 70
     0
  9
$USERR1
 40
0.0
  9
$USERR2
 40
0.0
  9
$USERR3
 40
0.0
  9
$USERR4
 40
0.0
  9
$USERR5
 40
0.0
  9
$WORLDVIEW
 70
     1
  9
$SHADEDGE
 70
     3
  9
$SHADEDIF
 70
    70
  9
$TILEMODE
 70
     1
  9
$MAXACTVP
 70
    64
  9
$PINSBASE
 10
0.0
 20
0.0
 30
0.0
  9
$PLIMCHECK
 70
     0
  9
$PEXTMIN
 10
0.0
 20
0.0
 30
0.0
  9
$PEXTMAX
 10
420.0
 20
297.0
 30
0.0
  9
$PLIMMIN
 10
0.0
 20
0.0
  9
$PLIMMAX
 10
420.0
 20
297.0
  9
$UNITMODE
 70
     0
  9
$VISRETAIN
 70
     1
  9
$PLINEGEN
 70
     0
  9
$PSLTSCALE
 70
     1
  9
$TREEDEPTH
 70
  3020
  9
$CMLSTYLE
  2
Standard
  9
$CMLJUST
 70
     0
  9
$CMLSCALE
 40
20.0
  9
$PROXYGRAPHICS
 70
     1
  9
$MEASUREMENT
 70
     1
  9
$CELWEIGHT
370
    -1
  9
$ENDCAPS
280
     0
  9
$JOINSTYLE
280
     0
  9
$LWDISPLAY
290
     0
  9
$INSUNITS
 70
     4
  9
$HYPERLINKBASE
  1

  9
$STYLESHEET
  1

  9
$XEDIT
290
     1
  9
$CEPSNTYPE
380
     0
  9
$PSTYLEMODE
290
     1
  9
$FINGERPRINTGUID
  2
{0578E6A2-24BF-46A1-A0A9-0B1FEC93C50C}
  9
$VERSIONGUID
  2
{FAEB1C32-E019-11D5-929B-00C0DF256EC4}
  9
$EXTNAMES
290
     1
  9
$PSVPSCALE
 40
0.0
  9
$OLESTARTUP
290
     0
  0
ENDSEC
  0
SECTION
  2
CLASSES
  0
CLASS
  1
ACDBDICTIONARYWDFLT
  2
AcDbDictionaryWithDefault
  3
ObjectDBX Classes
 90
        0
280
     0
281
     0
  0
CLASS
  1
ACDBPLACEHOLDER
  2
AcDbPlaceHolder
  3
ObjectDBX Classes
 90
        0
280
     0
281
     0
  0
CLASS
  1
LAYOUT
  2
AcDbLayout
  3
ObjectDBX Classes
 90
        0
280
     0
281
     0
  0
ENDSEC
  0
SECTION
  2
TABLES
  0
TABLE
  2
VPORT
  5
8
330
0
100
AcDbSymbolTable
 70
     1
  0
VPORT
  5
29
330
8
100
AcDbSymbolTableRecord
100
AcDbViewportTableRecord
  2
*Active
 70
     0
 10
0.0
 20
0.0
 11
1.0
 21
1.0
 12
344.1869158879
 22
148.5
 13
0.0
 23
0.0
 14
10.0
 24
10.0
 15
10.0
 25
10.0
 16
0.0
 26
0.0
 36
1.0
 17
0.0
 27
0.0
 37
0.0
 40
297.0
 41
1.9729729729
 42
50.0
 43
0.0
 44
0.0
 50
0.0
 51
0.0
 71
     0
 72
   100
 73
     1
 74
     3
 75
     0
 76
     0
 77
     0
 78
     0
281
     0
 65
     1
110
0.0
120
0.0
130
0.0
111
1.0
121
0.0
131
0.0
112
0.0
122
1.0
132
0.0
 79
     0
146
0.0
  0
ENDTAB
  0
TABLE
  2
LTYPE
  5
5
330
0
100
AcDbSymbolTable
 70
     2
  0
LTYPE
  5
14
330
5
100
AcDbSymbolTableRecord
100
AcDbLinetypeTableRecord
  2
ByBlock
 70
     0
  3

 72
    65
 73
     0
 40
0.0
  0
LTYPE
  5
15
330
5
100
AcDbSymbolTableRecord
100
AcDbLinetypeTableRecord
  2
ByLayer
 70
     0
  3

 72
    65
 73
     0
 40
0.0
  0
LTYPE
  5
16
330
5
100
AcDbSymbolTableRecord
100
AcDbLinetypeTableRecord
  2
Continuous
 70
     0
  3
Solid line
 72
    65
 73
     0
 40
0.0
  0
LTYPE
  5
27D
330
5
100
AcDbSymbolTableRecord
100
AcDbLinetypeTableRecord
  2
CENTER2
 70
     0
  3
Center (.5x) ___ _ ___ _ ___ _ ___ _ ___ _ ___
 72
    65
 73
     4
 40
28.575
 49
19.05
 74
     4
 75
     0
340
0
 46
0.0
 50
0.0
 44
0.0
 45
0.0
 49
-3.175
 74
     4
 75
     0
340
0
 46
0.0
 50
0.0
 44
0.0
 45
0.0
 49
3.175
 74
     4
 75
     0
340
0
 46
0.0
 50
0.0
 44
0.0
 45
0.0
 49
-3.175
 74
     4
 75
     0
340
0
 46
0.0
 50
0.0
 44
0.0
 45
0.0
  0
ENDTAB
  0
TABLE
  2
LAYER
  5
2
330
0
100
AcDbSymbolTable
 70
    12
  0
LAYER
  5
10
330
2
100
AcDbSymbolTableRecord
100
AcDbLayerTableRecord
  2
0
 70
     0
 62
     7
  6
Continuous
370
    -3
390
F
  0
LAYER
  5
2A
330
2
100
AcDbSymbolTableRecord
100
AcDbLayerTableRecord
  2
Default
 70
     0
 62
     7
  6
Continuous
370
    -3
390
F
  0
LAYER
  5
2D
330
2
100
AcDbSymbolTableRecord
100
AcDbLayerTableRecord
  2
GEHÄUSEHÄLFTE_HI
 70
     0
 62
     7
  6
Continuous
370
    -3
390
F
  0
LAYER
  5
35
330
2
100
AcDbSymbolTableRecord
100
AcDbLayerTableRecord
  2
GEHÄUSEHÄLFTE_VO
 70
     0
 62
     7
  6
Continuous
370
    -3
390
F
  0
LAYER
  5
9C
330
2
100
AcDbSymbolTableRecord
100
AcDbLayerTableRecord
  2
DC_24V
 70
     0
 62
     7
  6
Continuous
370
    -3
390
F
  0
LAYER
  5
C0
330
2
100
AcDbSymbolTableRecord
100
AcDbLayerTableRecord
  2
PS_307
 70
     0
 62
     7
  6
Continuous
370
    -3
390
F
  0
LAYER
  5
DF
330
2
100
AcDbSymbolTableRecord
100
AcDbLayerTableRecord
  2
SCHALTER_EIN
 70
     0
 62
     7
  6
Continuous
370
    -3
390
F
  0
LAYER
  5
E4
330
2
100
AcDbSymbolTableRecord
100
AcDbLayerTableRecord
  2
SCHALTER_AUS
 70
     0
 62
     7
  6
Continuous
370
    -3
390
F
  0
LAYER
  5
ED
330
2
100
AcDbSymbolTableRecord
100
AcDbLayerTableRecord
  2
DECKEL
 70
     0
 62
     7
  6
Continuous
370
    -3
390
F
  0
LAYER
  5
157
330
2
100
AcDbSymbolTableRecord
100
AcDbLayerTableRecord
  2
LICHTLEITER
 70
     0
 62
     7
  6
Continuous
370
    -3
390
F
  0
LAYER
  5
16A
330
2
100
AcDbSymbolTableRecord
100
AcDbLayerTableRecord
  2
ZUSATZPLATINE
 70
     0
 62
     7
  6
Continuous
370
    -3
390
F
  0
LAYER
  5
26E
330
2
100
AcDbSymbolTableRecord
100
AcDbLayerTableRecord
  2
91000_TIP
 70
     0
 62
     7
  6
Continuous
370
    -3
390
F
  0
ENDTAB
  0
TABLE
  2
STYLE
  5
3
330
0
100
AcDbSymbolTable
 70
     3
  0
STYLE
  5
11
330
3
100
AcDbSymbolTableRecord
100
AcDbTextStyleTableRecord
  2
Standard
 70
     0
 40
0.0
 41
1.0
 50
0.0
 71
     0
 42
2.5
  3
txt
  4

  0
STYLE
  5
229
330
3
100
AcDbSymbolTableRecord
100
AcDbTextStyleTableRecord
  2
SEACAD_seiso_ttf
 70
     0
 40
0.0
 41
1.0
 50
0.0
 71
     0
 42
0.2
  3
seiso.ttf
  4

  0
STYLE
  5
267
330
3
100
AcDbSymbolTableRecord
100
AcDbTextStyleTableRecord
  2
SEACAD_txt_shx
 70
     0
 40
0.0
 41
1.0
 50
0.0
 71
     0
 42
0.2
  3
txt.shx
  4

  0
ENDTAB
  0
TABLE
  2
VIEW
  5
6
330
0
100
AcDbSymbolTable
 70
     0
  0
ENDTAB
  0
TABLE
  2
UCS
  5
7
330
0
100
AcDbSymbolTable
 70
     0
  0
ENDTAB
  0
TABLE
  2
APPID
  5
9
330
0
100
AcDbSymbolTable
 70
     1
  0
APPID
  5
12
330
9
100
AcDbSymbolTableRecord
100
AcDbRegAppTableRecord
  2
ACAD
 70
     0
  0
ENDTAB
  0
TABLE
  2
DIMSTYLE
  5
A
330
0
100
AcDbSymbolTable
 70
     3
100
AcDbDimStyleTable
  0
DIMSTYLE
105
27
330
A
100
AcDbSymbolTableRecord
100
AcDbDimStyleTableRecord
  2
ISO-25
 70
     0
 41
2.5
 42
0.625
 43
3.75
 44
1.25
 73
     0
 74
     0
 77
     1
 78
     8
140
2.5
141
2.5
143
0.0393700787
147
0.625
171
     3
172
     1
271
     2
272
     2
274
     3
278
    44
283
     0
284
     8
340
11
  0
DIMSTYLE
105
21A
330
A
100
AcDbSymbolTableRecord
100
AcDbDimStyleTableRecord
  2
Standard
 70
     0
340
11
  0
DIMSTYLE
105
22A
102
{ACAD_REACTORS
330
22B
330
235
330
23F
330
249
330
253
330
25D
102
}
330
A
100
AcDbSymbolTableRecord
100
AcDbDimStyleTableRecord
  2
Siemens
 70
     0
 41
5.0
 42
0.0
 44
2.5
 73
     0
 74
     0
 77
     1
 78
     8
140
5.0
141
2.5
147
2.5
172
     1
173
     1
179
     1
271
     1
272
     1
278
    44
284
     8
340
229
343
224
344
224
  0
ENDTAB
  0
TABLE
  2
BLOCK_RECORD
  5
1
330
0
100
AcDbSymbolTable
 70
    12
  0
BLOCK_RECORD
  5
1F
330
1
100
AcDbSymbolTableRecord
100
AcDbBlockTableRecord
  2
*Model_Space
340
22
  0
BLOCK_RECORD
  5
1B
330
1
100
AcDbSymbolTableRecord
100
AcDbBlockTableRecord
  2
*Paper_Space
340
1E
  0
BLOCK_RECORD
  5
2B
330
1
100
AcDbSymbolTableRecord
100
AcDbBlockTableRecord
  2
SE
340
0
102
{BLKREFS
331
2C
102
}
1001
ACAD
1000
DesignCenter Data
1002
{
1070
     1
1070
     0
1002
}
  0
BLOCK_RECORD
  5
16F
330
1
100
AcDbSymbolTableRecord
100
AcDbBlockTableRecord
  2
SE1
340
0
102
{BLKREFS
331
170
102
}
1001
ACAD
1000
DesignCenter Data
1002
{
1070
     1
1070
     0
1002
}
  0
BLOCK_RECORD
  5
21B
330
1
100
AcDbSymbolTableRecord
100
AcDbBlockTableRecord
  2
_Oblique
340
0
1001
ACAD
1000
DesignCenter Data
1002
{
1070
     1
1070
     0
1002
}
  0
BLOCK_RECORD
  5
21F
330
1
100
AcDbSymbolTableRecord
100
AcDbBlockTableRecord
  2
_Dot
340
0
1001
ACAD
1000
DesignCenter Data
1002
{
1070
     1
1070
     0
1002
}
  0
BLOCK_RECORD
  5
224
330
1
100
AcDbSymbolTableRecord
100
AcDbBlockTableRecord
  2
_SE_FILLED
340
0
1001
ACAD
1000
DesignCenter Data
1002
{
1070
     1
1070
     0
1002
}
  0
BLOCK_RECORD
  5
22C
330
1
100
AcDbSymbolTableRecord
100
AcDbBlockTableRecord
  2
DMBLK23
340
0
1001
ACAD
1000
DesignCenter Data
1002
{
1070
     1
1070
     0
1002
}
  0
BLOCK_RECORD
  5
236
330
1
100
AcDbSymbolTableRecord
100
AcDbBlockTableRecord
  2
DMBLK24
340
0
1001
ACAD
1000
DesignCenter Data
1002
{
1070
     1
1070
     0
1002
}
  0
BLOCK_RECORD
  5
240
330
1
100
AcDbSymbolTableRecord
100
AcDbBlockTableRecord
  2
DMBLK25
340
0
1001
ACAD
1000
DesignCenter Data
1002
{
1070
     1
1070
     0
1002
}
  0
BLOCK_RECORD
  5
24A
330
1
100
AcDbSymbolTableRecord
100
AcDbBlockTableRecord
  2
DMBLK26
340
0
1001
ACAD
1000
DesignCenter Data
1002
{
1070
     1
1070
     0
1002
}
  0
BLOCK_RECORD
  5
254
330
1
100
AcDbSymbolTableRecord
100
AcDbBlockTableRecord
  2
DMBLK27
340
0
1001
ACAD
1000
DesignCenter Data
1002
{
1070
     1
1070
     0
1002
}
  0
BLOCK_RECORD
  5
25E
330
1
100
AcDbSymbolTableRecord
100
AcDbBlockTableRecord
  2
DMBLK28
340
0
1001
ACAD
1000
DesignCenter Data
1002
{
1070
     1
1070
     0
1002
}
  0
ENDTAB
  0
ENDSEC
  0
SECTION
  2
BLOCKS
  0
BLOCK
  5
20
330
1F
100
AcDbEntity
  8
0
100
AcDbBlockBegin
  2
*Model_Space
 70
     0
 71
     0
 10
0.0
 20
0.0
 30
0.0
  3
*Model_Space
  1

  0
ENDBLK
  5
21
330
1F
100
AcDbEntity
  8
0
100
AcDbBlockEnd
  0
BLOCK
  5
1C
330
1B
100
AcDbEntity
 67
     1
  8
0
100
AcDbBlockBegin
  2
*Paper_Space
 70
     0
 71
     0
 10
0.0
 20
0.0
 30
0.0
  3
*Paper_Space
  1

  0
ENDBLK
  5
1D
330
1B
100
AcDbEntity
 67
     1
  8
0
100
AcDbBlockEnd
  0
BLOCK
  5
16D
330
2B
100
AcDbEntity
  8
0
100
AcDbBlockBegin
  2
SE
 70
     0
 71
     0
 10
0.0
 20
0.0
 30
0.0
  3
SE
  1

  0
LINE
  5
2E
330
2B
100
AcDbEntity
  8
GEHÄUSEHÄLFTE_HI
  6
Continuous
 62
     7
100
AcDbLine
 10
100.3045543078
 20
191.4058429374
 30
0.0
 11
100.2545543078
 21
191.4058429374
 31
0.0
  0
LINE
  5
2F
330
2B
100
AcDbEntity
  8
GEHÄUSEHÄLFTE_HI
  6
Continuous
 62
     7
100
AcDbLine
 10
97.2545543078
 20
191.4058429374
 30
0.0
 11
97.2045543078
 21
191.4058429374
 31
0.0
  0
LINE
  5
30
330
2B
100
AcDbEntity
  8
GEHÄUSEHÄLFTE_HI
  6
Continuous
 62
     7
100
AcDbLine
 10
97.2045543078
 20
193.4058429374
 30
0.0
 11
97.2545543078
 21
193.4058429374
 31
0.0
  0
LINE
  5
31
330
2B
100
AcDbEntity
  8
GEHÄUSEHÄLFTE_HI
  6
Continuous
 62
     7
100
AcDbLine
 10
100.2545543078
 20
193.4058429374
 30
0.0
 11
100.3045543078
 21
193.4058429374
 31
0.0
  0
LINE
  5
32
330
2B
100
AcDbEntity
  8
GEHÄUSEHÄLFTE_HI
  6
Continuous
 62
     7
100
AcDbLine
 10
101.7295543078
 20
162.3058429374
 30
0.0
 11
97.8795543078
 21
162.3058429374
 31
0.0
  0
LINE
  5
33
330
2B
100
AcDbEntity
  8
GEHÄUSEHÄLFTE_HI
  6
Continuous
 62
     7
100
AcDbLine
 10
97.8795543078
 20
164.3058429374
 30
0.0
 11
101.7295543078
 21
164.3058429374
 31
0.0
  0
ARC
  5
34
330
2B
100
AcDbEntity
  8
GEHÄUSEHÄLFTE_HI
  6
Continuous
 62
     7
100
AcDbCircle
 10
87.8045543078
 20
210.7058429374
 30
0.0
 40
0.999999999999994
100
AcDbArc
 50
90.0
 51
180.0
  0
LINE
  5
36
330
2B
100
AcDbEntity
  8
GEHÄUSEHÄLFTE_VO
  6
Continuous
 62
     7
100
AcDbLine
 10
146.8045543078
 20
169.9058429374
 30
0.0
 11
146.8045543078
 21
171.1058429374
 31
0.0
  0
LINE
  5
37
330
2B
100
AcDbEntity
  8
GEHÄUSEHÄLFTE_VO
  6
Continuous
 62
     7
100
AcDbLine
 10
143.9545543078
 20
171.1058429374
 30
0.0
 11
145.8045543078
 21
171.1058429374
 31
0.0
  0
LINE
  5
38
330
2B
100
AcDbEntity
  8
GEHÄUSEHÄLFTE_VO
  6
Continuous
 62
     7
100
AcDbLine
 10
89.6545543078
 20
171.1058429374
 30
0.0
 11
87.8045543078
 21
171.1058429374
 31
0.0
  0
LINE
  5
39
330
2B
100
AcDbEntity
  8
GEHÄUSEHÄLFTE_VO
  6
Continuous
 62
     7
100
AcDbLine
 10
86.8045543078
 20
171.1058429374
 30
0.0
 11
86.8045543078
 21
169.9058429374
 31
0.0
  0
LINE
  5
3A
330
2B
100
AcDbEntity
  8
GEHÄUSEHÄLFTE_VO
  6
Continuous
 62
     7
100
AcDbLine
 10
89.1545543078
 20
151.8026300205
 30
0.0
 11
89.1545543078
 21
152.4058429374
 31
0.0
  0
LINE
  5
3B
330
2B
100
AcDbEntity
  8
GEHÄUSEHÄLFTE_VO
  6
Continuous
 62
     7
100
AcDbLine
 10
144.4545543078
 20
152.4058429374
 30
0.0
 11
144.4545543078
 21
151.8026300205
 31
0.0
  0
LINE
  5
3C
330
2B
100
AcDbEntity
  8
GEHÄUSEHÄLFTE_VO
  6
Continuous
 62
     7
100
AcDbLine
 10
144.4545543078
 20
171.1058429374
 30
0.0
 11
144.4545543078
 21
169.058235852
 31
0.0
  0
LINE
  5
3D
330
2B
100
AcDbEntity
  8
GEHÄUSEHÄLFTE_VO
  6
Continuous
 62
     7
100
AcDbLine
 10
143.9545543078
 20
164.8631392928
 30
0.0
 11
143.9545543078
 21
171.1058429374
 31
0.0
  0
LINE
  5
3E
330
2B
100
AcDbEntity
  8
GEHÄUSEHÄLFTE_VO
  6
Continuous
 62
     7
100
AcDbLine
 10
144.4545543078
 20
162.7058429374
 30
0.0
 11
144.4545543078
 21
159.9952036889
 31
0.0
  0
LINE
  5
3F
330
2B
100
AcDbEntity
  8
GEHÄUSEHÄLFTE_VO
  6
Continuous
 62
     7
100
AcDbLine
 10
144.4545543078
 20
154.9026300205
 30
0.0
 11
144.4545543078
 21
152.5398175336
 31
0.0
  0
LINE
  5
40
330
2B
100
AcDbEntity
  8
GEHÄUSEHÄLFTE_VO
  6
Continuous
 62
     7
100
AcDbLine
 10
144.4545543078
 20
162.7058429374
 30
0.0
 11
144.4545543078
 21
163.0938886532
 31
0.0
  0
LINE
  5
41
330
2B
100
AcDbEntity
  8
GEHÄUSEHÄLFTE_VO
  6
Continuous
 62
     7
100
AcDbLine
 10
143.9545543078
 20
164.8631392928
 30
0.0
 11
143.9545543078
 21
163.2058429374
 31
0.0
  0
SPLINE
  5
42
330
2B
100
AcDbEntity
  8
GEHÄUSEHÄLFTE_VO
  6
Continuous
 62
     7
100
AcDbSpline
210
0.0
220
0.0
230
1.0
 70
    12
 71
     2
 72
     6
 73
     3
 74
     0
 42
0.0000000076604444
 43
0.0000000001
 40
0.0
 40
0.0
 40
0.0
 40
1.0
 40
1.0
 40
1.0
 10
144.4545543078416
 20
165.0962931218445
 30
0.0
 41
1.0
 10
143.9545543078416
 20
165.5158429374332
 30
0.0
 41
0.7071067811863971
 10
143.9545543078416
 20
164.863139292767
 30
0.0
 41
1.0
  0
ARC
  5
43
330
2B
100
AcDbEntity
  8
GEHÄUSEHÄLFTE_VO
  6
Continuous
 62
     7
100
AcDbCircle
 10
144.4545543078
 20
163.2058429374
 30
0.0
 40
0.5000000000000004
100
AcDbArc
 50
180.0
 51
270.0
  0
SPLINE
  5
44
330
2B
100
AcDbEntity
  8
GEHÄUSEHÄLFTE_VO
  6
Continuous
 62
     7
100
AcDbSpline
210
0.0
220
0.0
230
1.0
 70
    12
 71
     2
 72
     6
 73
     3
 74
     0
 42
0.0000000113247433
 43
0.0000000001
 40
0.0
 40
0.0
 40
0.0
 40
1.0
 40
1.0
 40
1.0
 10
144.4545543078416
 20
164.4718873805521
 30
0.0
 41
1.0
 10
143.9545543078416
 20
164.4718873805521
 30
0.0
 41
0.7071067811865109
 10
143.9545543078416
 20
164.0888651589927
 30
0.0
 41
1.0
  0
LINE
  5
45
330
2B
100
AcDbEntity
  8
GEHÄUSEHÄLFTE_VO
  6
Continuous
 62
     7
100
AcDbLine
 10
89.6545543078
 20
171.1058429374
 30
0.0
 11
89.6545543078
 21
164.8631392928
 31
0.0
  0
LINE
  5
46
330
2B
100
AcDbEntity
  8
GEHÄUSEHÄLFTE_VO
  6
Continuous
 62
     7
100
AcDbLine
 10
89.6545543078
 20
163.2058429374
 30
0.0
 11
89.6545543078
 21
153.4058429374
 31
0.0
  0
LINE
  5
47
330
2B
100
AcDbEntity
  8
GEHÄUSEHÄLFTE_VO
  6
Continuous
 62
     7
100
AcDbLine
 10
89.1545543078
 20
169.058235852
 30
0.0
 11
89.1545543078
 21
171.1058429374
 31
0.0
  0
LINE
  5
48
330
2B
100
AcDbEntity
  8
GEHÄUSEHÄLFTE_VO
  6
Continuous
 62
     7
100
AcDbLine
 10
89.1545543078
 20
163.0938886532
 30
0.0
 11
89.1545543078
 21
162.7058429374
 31
0.0
  0
LINE
  5
49
330
2B
100
AcDbEntity
  8
GEHÄUSEHÄLFTE_VO
  6
Continuous
 62
     7
100
AcDbLine
 10
89.6545543078
 20
163.2058429374
 30
0.0
 11
89.6545543078
 21
164.8631392928
 31
0.0
  0
ARC
  5
4A
330
2B
100
AcDbEntity
  8
GEHÄUSEHÄLFTE_VO
  6
Continuous
 62
     7
100
AcDbCircle
 10
89.1545543078
 20
163.2058429374
 30
0.0
 40
0.5000000000000004
100
AcDbArc
 50
270.0
 51
360.0
  0
SPLINE
  5
4B
330
2B
100
AcDbEntity
  8
GEHÄUSEHÄLFTE_VO
  6
Continuous
 62
     7
100
AcDbSpline
210
0.0
220
0.0
230
1.0
 70
    12
 71
     2
 72
     6
 73
     3
 74
     0
 42
0.0000000076604444
 43
0.0000000001
 40
0.0
 40
0.0
 40
0.0
 40
1.0
 40
1.0
 40
1.0
 10
89.65455430784161
 20
164.863139292767
 30
0.0
 41
1.0
 10
89.65455430784162
 20
165.5158429374332
 30
0.0
 41
0.7071067811865192
 10
89.15455430784161
 20
165.0962931218445
 30
0.0
 41
1.0
  0
SPLINE
  5
4C
330
2B
100
AcDbEntity
  8
GEHÄUSEHÄLFTE_VO
  6
Continuous
 62
     7
100
AcDbSpline
210
0.0
220
0.0
230
1.0
 70
    12
 71
     2
 72
     6
 73
     3
 74
     0
 42
0.0000000113247433
 43
0.0000000001
 40
0.0
 40
0.0
 40
0.0
 40
1.0
 40
1.0
 40
1.0
 10
89.65455430784161
 20
164.0888651589927
 30
0.0
 41
1.0
 10
89.6545543078416
 20
164.4718873805521
 30
0.0
 41
0.7071067811865139
 10
89.15455430784161
 20
164.4718873805521
 30
0.0
 41
1.0
  0
LINE
  5
4D
330
2B
100
AcDbEntity
  8
GEHÄUSEHÄLFTE_VO
  6
Continuous
 62
     7
100
AcDbLine
 10
87.8045543078
 20
211.7058429374
 30
0.0
 11
145.8045543078
 21
211.7058429374
 31
0.0
  0
LINE
  5
4E
330
2B
100
AcDbEntity
  8
GEHÄUSEHÄLFTE_VO
  6
Continuous
 62
     7
100
AcDbLine
 10
146.8045543078
 20
210.7058429374
 30
0.0
 11
146.8045543078
 21
171.1058429374
 31
0.0
  0
LINE
  5
4F
330
2B
100
AcDbEntity
  8
GEHÄUSEHÄLFTE_VO
  6
Continuous
 62
     7
100
AcDbLine
 10
87.8045543078
 20
210.7058429374
 30
0.0
 11
87.8045543078
 21
171.1058429374
 31
0.0
  0
LINE
  5
50
330
2B
100
AcDbEntity
  8
GEHÄUSEHÄLFTE_VO
  6
Continuous
 62
     7
100
AcDbLine
 10
145.8045543078
 20
210.7058429374
 30
0.0
 11
87.8045543078
 21
210.7058429374
 31
0.0
  0
LINE
  5
51
330
2B
100
AcDbEntity
  8
GEHÄUSEHÄLFTE_VO
  6
Continuous
 62
     7
100
AcDbLine
 10
145.8045543078
 20
171.1058429374
 30
0.0
 11
145.8045543078
 21
210.7058429374
 31
0.0
  0
LINE
  5
52
330
2B
100
AcDbEntity
  8
GEHÄUSEHÄLFTE_VO
  6
Continuous
 62
     7
100
AcDbLine
 10
146.8045543078
 20
171.1058429374
 30
0.0
 11
145.8045543078
 21
171.1058429374
 31
0.0
  0
LINE
  5
53
330
2B
100
AcDbEntity
  8
GEHÄUSEHÄLFTE_VO
  6
Continuous
 62
     7
100
AcDbLine
 10
86.8045543078
 20
171.1058429374
 30
0.0
 11
86.8045543078
 21
210.7058429374
 31
0.0
  0
LINE
  5
54
330
2B
100
AcDbEntity
  8
GEHÄUSEHÄLFTE_VO
  6
Continuous
 62
     7
100
AcDbLine
 10
87.8045543078
 20
171.1058429374
 30
0.0
 11
86.8045543078
 21
171.1058429374
 31
0.0
  0
LINE
  5
55
330
2B
100
AcDbEntity
  8
GEHÄUSEHÄLFTE_VO
  6
Continuous
 62
     7
100
AcDbLine
 10
86.8045543078
 20
210.7058429374
 30
0.0
 11
87.8045543078
 21
210.7058429374
 31
0.0
  0
ARC
  5
56
330
2B
100
AcDbEntity
  8
GEHÄUSEHÄLFTE_VO
  6
Continuous
 62
     7
100
AcDbCircle
 10
87.8045543078
 20
210.7058429374
 30
0.0
 40
1.000000000000001
100
AcDbArc
 50
90.0
 51
180.0
  0
LINE
  5
57
330
2B
100
AcDbEntity
  8
GEHÄUSEHÄLFTE_VO
  6
Continuous
 62
     7
100
AcDbLine
 10
87.8045543078
 20
211.7058429374
 30
0.0
 11
87.8045543078
 21
210.7058429374
 31
0.0
  0
LINE
  5
58
330
2B
100
AcDbEntity
  8
GEHÄUSEHÄLFTE_VO
  6
Continuous
 62
     7
100
AcDbLine
 10
145.8045543078
 20
210.7058429374
 30
0.0
 11
146.8045543078
 21
210.7058429374
 31
0.0
  0
LINE
  5
59
330
2B
100
AcDbEntity
  8
GEHÄUSEHÄLFTE_VO
  6
Continuous
 62
     7
100
AcDbLine
 10
145.8045543078
 20
211.7058429374
 30
0.0
 11
145.8045543078
 21
210.7058429374
 31
0.0
  0
ARC
  5
5A
330
2B
100
AcDbEntity
  8
GEHÄUSEHÄLFTE_VO
  6
Continuous
 62
     7
100
AcDbCircle
 10
145.8045543078
 20
210.7058429374
 30
0.0
 40
1.000000000000001
100
AcDbArc
 50
0.0
 51
90.0
  0
LINE
  5
5B
330
2B
100
AcDbEntity
  8
GEHÄUSEHÄLFTE_VO
  6
Continuous
 62
     7
100
AcDbLine
 10
144.4545543078
 20
152.4058429374
 30
0.0
 11
89.1545543078
 21
152.4058429374
 31
0.0
  0
LINE
  5
5C
330
2B
100
AcDbEntity
  8
GEHÄUSEHÄLFTE_VO
  6
Continuous
 62
     7
100
AcDbLine
 10
89.1545543078
 20
152.5398175336
 30
0.0
 11
89.1545543078
 21
154.9026300205
 31
0.0
  0
LINE
  5
5D
330
2B
100
AcDbEntity
  8
GEHÄUSEHÄLFTE_VO
  6
Continuous
 62
     7
100
AcDbLine
 10
89.1545543078
 20
159.9952036889
 30
0.0
 11
89.1545543078
 21
162.7058429374
 31
0.0
  0
LINE
  5
5E
330
2B
100
AcDbEntity
  8
GEHÄUSEHÄLFTE_VO
  6
Continuous
 62
     7
100
AcDbLine
 10
89.1545543078
 20
152.4058429374
 30
0.0
 11
89.1545543078
 21
152.5398175336
 31
0.0
  0
ARC
  5
5F
330
2B
100
AcDbEntity
  8
GEHÄUSEHÄLFTE_VO
  6
Continuous
 62
     7
100
AcDbCircle
 10
88.6545543078
 20
153.4058429374
 30
0.0
 40
1.000000000000001
100
AcDbArc
 50
300.0
 51
360.0
  0
LINE
  5
60
330
2B
100
AcDbEntity
  8
GEHÄUSEHÄLFTE_VO
  6
Continuous
 62
     7
100
AcDbLine
 10
143.9545543078
 20
153.4058429374
 30
0.0
 11
143.9545543078
 21
163.2058429374
 31
0.0
  0
LINE
  5
61
330
2B
100
AcDbEntity
  8
GEHÄUSEHÄLFTE_VO
  6
Continuous
 62
     7
100
AcDbLine
 10
89.6545543078
 20
153.4058429374
 30
0.0
 11
143.9545543078
 21
153.4058429374
 31
0.0
  0
ARC
  5
62
330
2B
100
AcDbEntity
  8
GEHÄUSEHÄLFTE_VO
  6
Continuous
 62
     7
100
AcDbCircle
 10
144.9545543078
 20
153.4058429374
 30
0.0
 40
1.000000000000001
100
AcDbArc
 50
180.0
 51
240.0
  0
LINE
  5
63
330
2B
100
AcDbEntity
  8
GEHÄUSEHÄLFTE_VO
  6
Continuous
 62
     7
100
AcDbLine
 10
144.4545543078
 20
152.5398175336
 30
0.0
 11
144.4545543078
 21
152.4058429374
 31
0.0
  0
LINE
  5
64
330
2B
100
AcDbEntity
  8
GEHÄUSEHÄLFTE_VO
  6
Continuous
 62
     7
100
AcDbLine
 10
95.7295543078
 20
155.66123552
 30
0.0
 11
95.7295543078
 21
165.9104503549
 31
0.0
  0
LINE
  5
65
330
2B
100
AcDbEntity
  8
GEHÄUSEHÄLFTE_VO
  6
Continuous
 62
     7
100
AcDbLine
 10
95.5217076455
 20
156.3605396104
 30
0.0
 11
95.7295543078
 21
155.66123552
 31
0.0
  0
SPLINE
  5
66
330
2B
100
AcDbEntity
  8
GEHÄUSEHÄLFTE_VO
  6
Continuous
 62
     7
100
AcDbSpline
210
0.0
220
0.0
230
1.0
 70
    12
 71
     2
 72
     6
 73
     3
 74
     0
 42
0.0000001705010883
 43
0.0000000001
 40
0.0
 40
0.0
 40
0.0
 40
1.0
 40
1.0
 40
1.0
 10
95.51714407026651
 20
156.4187338456508
 30
0.0
 41
1.0
 10
95.51875472820261
 20
156.3704747573727
 30
0.0
 41
0.91527809383182
 10
95.52170764547746
 20
156.3605396104445
 30
0.0
 41
1.0
  0
SPLINE
  5
67
330
2B
100
AcDbEntity
  8
GEHÄUSEHÄLFTE_VO
  6
Continuous
 62
     7
100
AcDbSpline
210
0.0
220
0.0
230
1.0
 70
    12
 71
     2
 72
     6
 73
     3
 74
     0
 42
0.000000001144285
 43
0.0000000001
 40
0.0
 40
0.0
 40
0.0
 40
1.0
 40
1.0
 40
1.0
 10
95.51714407026653
 20
165.1529520292154
 30
0.0
 41
1.0
 10
95.37139082113902
 20
160.785842937433
 30
0.0
 41
0.8434805037036593
 10
95.51714407026651
 20
156.4187338456509
 30
0.0
 41
1.0
  0
SPLINE
  5
68
330
2B
100
AcDbEntity
  8
GEHÄUSEHÄLFTE_VO
  6
Continuous
 62
     7
100
AcDbSpline
210
0.0
220
0.0
230
1.0
 70
    12
 71
     2
 72
     6
 73
     3
 74
     0
 42
0.0000001705010883
 43
0.0000000001
 40
0.0
 40
0.0
 40
0.0
 40
1.0
 40
1.0
 40
1.0
 10
95.52170764547745
 20
165.2111462644217
 30
0.0
 41
1.0
 10
95.5187547282026
 20
165.2012111174936
 30
0.0
 41
0.9152780938148081
 10
95.51714407026651
 20
165.1529520292154
 30
0.0
 41
1.0
  0
LINE
  5
69
330
2B
100
AcDbEntity
  8
GEHÄUSEHÄLFTE_VO
  6
Continuous
 62
     7
100
AcDbLine
 10
95.7295543078
 20
165.9104503549
 30
0.0
 11
95.5217076455
 21
165.2111462644
 31
0.0
  0
LINE
  5
6A
330
2B
100
AcDbEntity
  8
GEHÄUSEHÄLFTE_VO
  6
Continuous
 62
     7
100
AcDbLine
 10
94.8662778152
 20
166.7858429374
 30
0.0
 11
94.2928308005
 21
166.7858429374
 31
0.0
  0
LINE
  5
6B
330
2B
100
AcDbEntity
  8
GEHÄUSEHÄLFTE_VO
  6
Continuous
 62
     7
100
AcDbLine
 10
94.6528999502
 20
166.0679290095
 30
0.0
 11
94.5062086654
 21
166.0679290095
 31
0.0
  0
LINE
  5
6C
330
2B
100
AcDbEntity
  8
GEHÄUSEHÄLFTE_VO
  6
Continuous
 62
     7
100
AcDbLine
 10
94.6528999502
 20
166.0679290095
 30
0.0
 11
94.8662778152
 21
166.7858429374
 31
0.0
  0
LINE
  5
6D
330
2B
100
AcDbEntity
  8
GEHÄUSEHÄLFTE_VO
  6
Continuous
 62
     7
100
AcDbLine
 10
94.648336375
 20
165.6202810464
 30
0.0
 11
94.5107722407
 21
165.6202810464
 31
0.0
  0
SPLINE
  5
6E
330
2B
100
AcDbEntity
  8
GEHÄUSEHÄLFTE_VO
  6
Continuous
 62
     7
100
AcDbSpline
210
0.0
220
0.0
230
1.0
 70
    12
 71
     2
 72
     6
 73
     3
 74
     0
 42
0.0000000223359627
 43
0.0000000001
 40
0.0
 40
0.0
 40
0.0
 40
1.0
 40
1.0
 40
1.0
 10
94.65289995024095
 20
166.0679290095424
 30
0.0
 41
1.0
 10
94.64994703296608
 20
165.991504802403
 30
0.0
 41
0.9152780938238826
 10
94.64833637502996
 20
165.6202810464173
 30
0.0
 41
1.0
  0
LINE
  5
6F
330
2B
100
AcDbEntity
  8
GEHÄUSEHÄLFTE_VO
  6
Continuous
 62
     7
100
AcDbLine
 10
94.648336375
 20
155.9514048284
 30
0.0
 11
94.5107722407
 21
155.9514048284
 31
0.0
  0
SPLINE
  5
70
330
2B
100
AcDbEntity
  8
GEHÄUSEHÄLFTE_VO
  6
Continuous
 62
     7
100
AcDbSpline
210
0.0
220
0.0
230
1.0
 70
    12
 71
     2
 72
     6
 73
     3
 74
     0
 42
0.0000000010337766
 43
0.0000000001
 40
0.0
 40
0.0
 40
0.0
 40
1.0
 40
1.0
 40
1.0
 10
94.64833637503003
 20
165.6202810464172
 30
0.0
 41
1.0
 10
94.50258312590252
 20
160.7858429374331
 30
0.0
 41
0.8434805037037492
 10
94.64833637503003
 20
155.951404828449
 30
0.0
 41
1.0
  0
LINE
  5
71
330
2B
100
AcDbEntity
  8
GEHÄUSEHÄLFTE_VO
  6
Continuous
 62
     7
100
AcDbLine
 10
94.6528999502
 20
155.5037568653
 30
0.0
 11
94.5062086654
 21
155.5037568653
 31
0.0
  0
SPLINE
  5
72
330
2B
100
AcDbEntity
  8
GEHÄUSEHÄLFTE_VO
  6
Continuous
 62
     7
100
AcDbSpline
210
0.0
220
0.0
230
1.0
 70
    12
 71
     2
 72
     6
 73
     3
 74
     0
 42
0.0000000223359627
 43
0.0000000001
 40
0.0
 40
0.0
 40
0.0
 40
1.0
 40
1.0
 40
1.0
 10
94.64833637502996
 20
155.9514048284489
 30
0.0
 41
1.0
 10
94.64994703296608
 20
155.5801810724631
 30
0.0
 41
0.9152780938235449
 10
94.65289995024095
 20
155.5037568653239
 30
0.0
 41
1.0
  0
LINE
  5
73
330
2B
100
AcDbEntity
  8
GEHÄUSEHÄLFTE_VO
  6
Continuous
 62
     7
100
AcDbLine
 10
94.8662778152
 20
154.7858429374
 30
0.0
 11
94.6528999502
 21
155.5037568653
 31
0.0
  0
SPLINE
  5
74
330
2B
100
AcDbEntity
  8
GEHÄUSEHÄLFTE_VO
  6
Continuous
 62
     7
100
AcDbSpline
210
0.0
220
0.0
230
1.0
 70
    12
 71
     2
 72
     6
 73
     3
 74
     0
 42
0.0000000057515258
 43
0.0000000001
 40
0.0
 40
0.0
 40
0.0
 40
1.0
 40
1.0
 40
1.0
 10
95.72955430784161
 20
165.9104503548903
 30
0.0
 41
1.0
 10
95.72955430784158
 20
166.7858429374331
 30
0.0
 41
0.7103126225220864
 10
94.86627781519364
 20
166.7858429374331
 30
0.0
 41
1.0
  0
SPLINE
  5
75
330
2B
100
AcDbEntity
  8
GEHÄUSEHÄLFTE_VO
  6
Continuous
 62
     7
100
AcDbSpline
210
0.0
220
0.0
230
1.0
 70
    12
 71
     2
 72
     6
 73
     3
 74
     0
 42
0.0000000057515258
 43
0.0000000001
 40
0.0
 40
0.0
 40
0.0
 40
1.0
 40
1.0
 40
1.0
 10
94.86627781519356
 20
154.7858429374331
 30
0.0
 41
1.0
 10
95.72955430784161
 20
154.785842937433
 30
0.0
 41
0.7103126225219443
 10
95.72955430784161
 20
155.661235519976
 30
0.0
 41
1.0
  0
SPLINE
  5
76
330
2B
100
AcDbEntity
  8
GEHÄUSEHÄLFTE_VO
  6
Continuous
 62
     7
100
AcDbSpline
210
0.0
220
0.0
230
1.0
 70
    12
 71
     2
 72
     6
 73
     3
 74
     0
 42
0.0000000058475426
 43
0.0000000001
 40
0.0
 40
0.0
 40
0.0
 40
1.0
 40
1.0
 40
1.0
 10
94.65289995024098
 20
155.5037568653239
 30
0.0
 41
1.0
 10
95.51388299418335
 20
155.5114732175756
 30
0.0
 41
0.7103126225219937
 10
95.52170764547745
 20
156.3605396104446
 30
0.0
 41
1.0
  0
SPLINE
  5
77
330
2B
100
AcDbEntity
  8
GEHÄUSEHÄLFTE_VO
  6
Continuous
 62
     7
100
AcDbSpline
210
0.0
220
0.0
230
1.0
 70
    12
 71
     2
 72
     6
 73
     3
 74
     0
 42
0.0000000078040451
 43
0.0000000001
 40
0.0
 40
0.0
 40
0.0
 40
1.0
 40
1.0
 40
1.0
 10
94.64833637503004
 20
155.951404828449
 30
0.0
 41
1.0
 10
95.48041259894418
 20
155.9711625751719
 30
0.0
 41
0.7225456244190136
 10
95.51714407026651
 20
156.4187338456507
 30
0.0
 41
1.0
  0
SPLINE
  5
78
330
2B
100
AcDbEntity
  8
GEHÄUSEHÄLFTE_VO
  6
Continuous
 62
     7
100
AcDbSpline
210
0.0
220
0.0
230
1.0
 70
    12
 71
     2
 72
     6
 73
     3
 74
     0
 42
0.0000000078040451
 43
0.0000000001
 40
0.0
 40
0.0
 40
0.0
 40
1.0
 40
1.0
 40
1.0
 10
95.51714407026651
 20
165.1529520292156
 30
0.0
 41
1.0
 10
95.48041259894418
 20
165.6005232996944
 30
0.0
 41
0.722545624419013
 10
94.64833637503004
 20
165.6202810464173
 30
0.0
 41
1.0
  0
SPLINE
  5
79
330
2B
100
AcDbEntity
  8
GEHÄUSEHÄLFTE_VO
  6
Continuous
 62
     7
100
AcDbSpline
210
0.0
220
0.0
230
1.0
 70
    12
 71
     2
 72
     6
 73
     3
 74
     0
 42
0.0000000058475426
 43
0.0000000001
 40
0.0
 40
0.0
 40
0.0
 40
1.0
 40
1.0
 40
1.0
 10
95.52170764547746
 20
165.2111462644216
 30
0.0
 41
1.0
 10
95.51388299418335
 20
166.0602126572906
 30
0.0
 41
0.71031262252193
 10
94.65289995024098
 20
166.0679290095423
 30
0.0
 41
1.0
  0
LINE
  5
7A
330
2B
100
AcDbEntity
  8
GEHÄUSEHÄLFTE_VO
  6
Continuous
 62
     7
100
AcDbLine
 10
94.2928308005
 20
154.7858429374
 30
0.0
 11
94.8662778152
 21
154.7858429374
 31
0.0
  0
LINE
  5
7B
330
2B
100
AcDbEntity
  8
GEHÄUSEHÄLFTE_VO
  6
Continuous
 62
     7
100
AcDbLine
 10
94.5062086654
 20
155.5037568653
 30
0.0
 11
94.2928308005
 21
154.7858429374
 31
0.0
  0
LINE
  5
7C
330
2B
100
AcDbEntity
  8
GEHÄUSEHÄLFTE_VO
  6
Continuous
 62
     7
100
AcDbLine
 10
93.4295543078
 20
165.9104503549
 30
0.0
 11
93.4295543078
 21
155.66123552
 31
0.0
  0
LINE
  5
7D
330
2B
100
AcDbEntity
  8
GEHÄUSEHÄLFTE_VO
  6
Continuous
 62
     7
100
AcDbLine
 10
93.6374009702
 20
165.2111462644
 30
0.0
 11
93.4295543078
 21
165.9104503549
 31
0.0
  0
SPLINE
  5
7E
330
2B
100
AcDbEntity
  8
GEHÄUSEHÄLFTE_VO
  6
Continuous
 62
     7
100
AcDbSpline
210
0.0
220
0.0
230
1.0
 70
    12
 71
     2
 72
     6
 73
     3
 74
     0
 42
0.0000001705010883
 43
0.0000000001
 40
0.0
 40
0.0
 40
0.0
 40
1.0
 40
1.0
 40
1.0
 10
93.64196454541667
 20
165.1529520292154
 30
0.0
 41
1.0
 10
93.64035388748059
 20
165.2012111174936
 30
0.0
 41
0.9152780938148081
 10
93.63740097020573
 20
165.2111462644217
 30
0.0
 41
1.0
  0
SPLINE
  5
7F
330
2B
100
AcDbEntity
  8
GEHÄUSEHÄLFTE_VO
  6
Continuous
 62
     7
100
AcDbSpline
210
0.0
220
0.0
230
1.0
 70
    12
 71
     2
 72
     6
 73
     3
 74
     0
 42
0.000000001144285
 43
0.0000000001
 40
0.0
 40
0.0
 40
0.0
 40
1.0
 40
1.0
 40
1.0
 10
93.64196454541668
 20
156.4187338456508
 30
0.0
 41
1.0
 10
93.78771779454419
 20
160.7858429374331
 30
0.0
 41
0.8434805037037492
 10
93.64196454541668
 20
165.1529520292154
 30
0.0
 41
1.0
  0
SPLINE
  5
80
330
2B
100
AcDbEntity
  8
GEHÄUSEHÄLFTE_VO
  6
Continuous
 62
     7
100
AcDbSpline
210
0.0
220
0.0
230
1.0
 70
    12
 71
     2
 72
     6
 73
     3
 74
     0
 42
0.0000001705010883
 43
0.0000000001
 40
0.0
 40
0.0
 40
0.0
 40
1.0
 40
1.0
 40
1.0
 10
93.63740097020572
 20
156.3605396104445
 30
0.0
 41
1.0
 10
93.64035388748057
 20
156.3704747573727
 30
0.0
 41
0.915278093831819
 10
93.64196454541667
 20
156.4187338456508
 30
0.0
 41
1.0
  0
LINE
  5
81
330
2B
100
AcDbEntity
  8
GEHÄUSEHÄLFTE_VO
  6
Continuous
 62
     7
100
AcDbLine
 10
93.4295543078
 20
155.66123552
 30
0.0
 11
93.6374009702
 21
156.3605396104
 31
0.0
  0
SPLINE
  5
82
330
2B
100
AcDbEntity
  8
GEHÄUSEHÄLFTE_VO
  6
Continuous
 62
     7
100
AcDbSpline
210
0.0
220
0.0
230
1.0
 70
    12
 71
     2
 72
     6
 73
     3
 74
     0
 42
0.0000000223359627
 43
0.0000000001
 40
0.0
 40
0.0
 40
0.0
 40
1.0
 40
1.0
 40
1.0
 10
94.50620866544224
 20
155.5037568653239
 30
0.0
 41
1.0
 10
94.50916158271714
 20
155.5801810724635
 30
0.0
 41
0.9152780938216916
 10
94.51077224065325
 20
155.951404828449
 30
0.0
 41
1.0
  0
SPLINE
  5
83
330
2B
100
AcDbEntity
  8
GEHÄUSEHÄLFTE_VO
  6
Continuous
 62
     7
100
AcDbSpline
210
0.0
220
0.0
230
1.0
 70
    12
 71
     2
 72
     6
 73
     3
 74
     0
 42
0.0000000010337766
 43
0.0000000001
 40
0.0
 40
0.0
 40
0.0
 40
1.0
 40
1.0
 40
1.0
 10
94.51077224065317
 20
155.951404828449
 30
0.0
 41
1.0
 10
94.65652548978068
 20
160.785842937433
 30
0.0
 41
0.8434805037038391
 10
94.51077224065315
 20
165.6202810464173
 30
0.0
 41
1.0
  0
SPLINE
  5
84
330
2B
100
AcDbEntity
  8
GEHÄUSEHÄLFTE_VO
  6
Continuous
 62
     7
100
AcDbSpline
210
0.0
220
0.0
230
1.0
 70
    12
 71
     2
 72
     6
 73
     3
 74
     0
 42
0.0000000223359627
 43
0.0000000001
 40
0.0
 40
0.0
 40
0.0
 40
1.0
 40
1.0
 40
1.0
 10
94.51077224065324
 20
165.6202810464173
 30
0.0
 41
1.0
 10
94.50916158271711
 20
165.991504802403
 30
0.0
 41
0.9152780938241901
 10
94.50620866544224
 20
166.0679290095424
 30
0.0
 41
1.0
  0
LINE
  5
85
330
2B
100
AcDbEntity
  8
GEHÄUSEHÄLFTE_VO
  6
Continuous
 62
     7
100
AcDbLine
 10
94.2928308005
 20
166.7858429374
 30
0.0
 11
94.5062086654
 21
166.0679290095
 31
0.0
  0
SPLINE
  5
86
330
2B
100
AcDbEntity
  8
GEHÄUSEHÄLFTE_VO
  6
Continuous
 62
     7
100
AcDbSpline
210
0.0
220
0.0
230
1.0
 70
    12
 71
     2
 72
     6
 73
     3
 74
     0
 42
0.0000000057515258
 43
0.0000000001
 40
0.0
 40
0.0
 40
0.0
 40
1.0
 40
1.0
 40
1.0
 10
93.42955430784161
 20
155.661235519976
 30
0.0
 41
1.0
 10
93.42955430784161
 20
154.785842937433
 30
0.0
 41
0.7103126225219443
 10
94.29283080048967
 20
154.7858429374331
 30
0.0
 41
1.0
  0
SPLINE
  5
87
330
2B
100
AcDbEntity
  8
GEHÄUSEHÄLFTE_VO
  6
Continuous
 62
     7
100
AcDbSpline
210
0.0
220
0.0
230
1.0
 70
    12
 71
     2
 72
     6
 73
     3
 74
     0
 42
0.0000000057515258
 43
0.0000000001
 40
0.0
 40
0.0
 40
0.0
 40
1.0
 40
1.0
 40
1.0
 10
94.29283080048963
 20
166.7858429374332
 30
0.0
 41
1.0
 10
93.42955430784158
 20
166.7858429374332
 30
0.0
 41
0.7103126225219106
 10
93.42955430784158
 20
165.9104503548903
 30
0.0
 41
1.0
  0
SPLINE
  5
88
330
2B
100
AcDbEntity
  8
GEHÄUSEHÄLFTE_VO
  6
Continuous
 62
     7
100
AcDbSpline
210
0.0
220
0.0
230
1.0
 70
    12
 71
     2
 72
     6
 73
     3
 74
     0
 42
0.0000000058475426
 43
0.0000000001
 40
0.0
 40
0.0
 40
0.0
 40
1.0
 40
1.0
 40
1.0
 10
94.50620866544223
 20
166.0679290095423
 30
0.0
 41
1.0
 10
93.64522562149992
 20
166.0602126572907
 30
0.0
 41
0.7103126225219822
 10
93.63740097020575
 20
165.2111462644217
 30
0.0
 41
1.0
  0
SPLINE
  5
89
330
2B
100
AcDbEntity
  8
GEHÄUSEHÄLFTE_VO
  6
Continuous
 62
     7
100
AcDbSpline
210
0.0
220
0.0
230
1.0
 70
    12
 71
     2
 72
     6
 73
     3
 74
     0
 42
0.0000000078040451
 43
0.0000000001
 40
0.0
 40
0.0
 40
0.0
 40
1.0
 40
1.0
 40
1.0
 10
94.51077224065318
 20
165.6202810464172
 30
0.0
 41
1.0
 10
93.678696016739
 20
165.6005232996943
 30
0.0
 41
0.7225456244188628
 10
93.64196454541671
 20
165.1529520292155
 30
0.0
 41
1.0
  0
SPLINE
  5
8A
330
2B
100
AcDbEntity
  8
GEHÄUSEHÄLFTE_VO
  6
Continuous
 62
     7
100
AcDbSpline
210
0.0
220
0.0
230
1.0
 70
    12
 71
     2
 72
     6
 73
     3
 74
     0
 42
0.0000000078040451
 43
0.0000000001
 40
0.0
 40
0.0
 40
0.0
 40
1.0
 40
1.0
 40
1.0
 10
93.64196454541673
 20
156.4187338456508
 30
0.0
 41
1.0
 10
93.678696016739
 20
155.9711625751719
 30
0.0
 41
0.7225456244189377
 10
94.51077224065318
 20
155.951404828449
 30
0.0
 41
1.0
  0
SPLINE
  5
8B
330
2B
100
AcDbEntity
  8
GEHÄUSEHÄLFTE_VO
  6
Continuous
 62
     7
100
AcDbSpline
210
0.0
220
0.0
230
1.0
 70
    12
 71
     2
 72
     6
 73
     3
 74
     0
 42
0.0000000058475426
 43
0.0000000001
 40
0.0
 40
0.0
 40
0.0
 40
1.0
 40
1.0
 40
1.0
 10
93.63740097020576
 20
156.3605396104446
 30
0.0
 41
1.0
 10
93.64522562149989
 20
155.5114732175756
 30
0.0
 41
0.7103126225219215
 10
94.50620866544224
 20
155.5037568653239
 30
0.0
 41
1.0
  0
LINE
  5
8C
330
2B
100
AcDbEntity
  8
GEHÄUSEHÄLFTE_VO
  6
Continuous
 62
     7
100
AcDbLine
 10
97.8795543078
 20
164.5358432822
 30
0.0
 11
97.8795543078
 21
157.0358432822
 31
0.0
  0
LINE
  5
8D
330
2B
100
AcDbEntity
  8
GEHÄUSEHÄLFTE_VO
  6
Continuous
 62
     7
100
AcDbLine
 10
97.8795543078
 20
157.0358432822
 30
0.0
 11
101.7295543078
 21
157.0358432822
 31
0.0
  0
LINE
  5
8E
330
2B
100
AcDbEntity
  8
GEHÄUSEHÄLFTE_VO
  6
Continuous
 62
     7
100
AcDbLine
 10
101.7295543078
 20
157.0358432822
 30
0.0
 11
101.7295543078
 21
164.5358432822
 31
0.0
  0
LINE
  5
8F
330
2B
100
AcDbEntity
  8
GEHÄUSEHÄLFTE_VO
  6
Continuous
 62
     7
100
AcDbLine
 10
101.7295543078
 20
164.5358432822
 30
0.0
 11
97.8795543078
 21
164.5358432822
 31
0.0
  0
LINE
  5
90
330
2B
100
AcDbEntity
  8
GEHÄUSEHÄLFTE_VO
  6
Continuous
 62
     7
100
AcDbLine
 10
100.3045543078
 20
191.3058429374
 30
0.0
 11
100.3045543078
 21
205.9058429374
 31
0.0
  0
LINE
  5
91
330
2B
100
AcDbEntity
  8
GEHÄUSEHÄLFTE_VO
  6
Continuous
 62
     7
100
AcDbLine
 10
97.2045543078
 20
191.3058429374
 30
0.0
 11
100.3045543078
 21
191.3058429374
 31
0.0
  0
LINE
  5
92
330
2B
100
AcDbEntity
  8
GEHÄUSEHÄLFTE_VO
  6
Continuous
 62
     7
100
AcDbLine
 10
97.2045543078
 20
205.9058429374
 30
0.0
 11
100.3045543078
 21
205.9058429374
 31
0.0
  0
LINE
  5
93
330
2B
100
AcDbEntity
  8
GEHÄUSEHÄLFTE_VO
  6
Continuous
 62
     7
100
AcDbLine
 10
97.2045543078
 20
191.3058429374
 30
0.0
 11
97.2045543078
 21
205.9058429374
 31
0.0
  0
LINE
  5
94
330
2B
100
AcDbEntity
  8
GEHÄUSEHÄLFTE_VO
  6
Continuous
 62
     7
100
AcDbLine
 10
97.2045543078
 20
200.6058429374
 30
0.0
 11
97.2545543078
 21
200.6058429374
 31
0.0
  0
LINE
  5
95
330
2B
100
AcDbEntity
  8
GEHÄUSEHÄLFTE_VO
  6
Continuous
 62
     7
100
AcDbLine
 10
100.2545543078
 20
200.6058429374
 30
0.0
 11
100.3045543078
 21
200.6058429374
 31
0.0
  0
LINE
  5
96
330
2B
100
AcDbEntity
  8
GEHÄUSEHÄLFTE_VO
  6
Continuous
 62
     7
100
AcDbLine
 10
97.2045543078
 20
201.8058429374
 30
0.0
 11
97.2545543078
 21
201.8058429374
 31
0.0
  0
LINE
  5
97
330
2B
100
AcDbEntity
  8
GEHÄUSEHÄLFTE_VO
  6
Continuous
 62
     7
100
AcDbLine
 10
100.2545543078
 20
201.8058429374
 30
0.0
 11
100.3045543078
 21
201.8058429374
 31
0.0
  0
LINE
  5
98
330
2B
100
AcDbEntity
  8
GEHÄUSEHÄLFTE_VO
  6
Continuous
 62
     7
100
AcDbLine
 10
100.3045543078
 20
196.6058429374
 30
0.0
 11
100.2545543078
 21
196.6058429374
 31
0.0
  0
LINE
  5
99
330
2B
100
AcDbEntity
  8
GEHÄUSEHÄLFTE_VO
  6
Continuous
 62
     7
100
AcDbLine
 10
97.2545543078
 20
196.6058429374
 30
0.0
 11
97.2045543078
 21
196.6058429374
 31
0.0
  0
LINE
  5
9A
330
2B
100
AcDbEntity
  8
GEHÄUSEHÄLFTE_VO
  6
Continuous
 62
     7
100
AcDbLine
 10
100.3045543078
 20
195.4058429374
 30
0.0
 11
100.2545543078
 21
195.4058429374
 31
0.0
  0
LINE
  5
9B
330
2B
100
AcDbEntity
  8
GEHÄUSEHÄLFTE_VO
  6
Continuous
 62
     7
100
AcDbLine
 10
97.2545543078
 20
195.4058429374
 30
0.0
 11
97.2045543078
 21
195.4058429374
 31
0.0
  0
LINE
  5
9D
330
2B
100
AcDbEntity
  8
DC_24V
  6
Continuous
 62
     7
100
AcDbLine
 10
102.4193896418
 20
192.6274495856
 30
0.0
 11
102.4193896418
 21
194.0845132975
 31
0.0
  0
SPLINE
  5
9E
330
2B
100
AcDbEntity
  8
DC_24V
  6
Continuous
 62
     7
100
AcDbSpline
210
0.0
220
0.0
230
1.0
 70
     8
 71
     3
 72
    28
 73
    24
 74
     0
 42
0.0000000036139265
 43
0.0000000001
 40
0.0
 40
0.0
 40
0.0
 40
0.0
 40
0.1444668744754432
 40
0.1444668744754432
 40
0.1444668744754432
 40
0.295381611484181
 40
0.295381611484181
 40
0.295381611484181
 40
0.5099728439055436
 40
0.5099728439055436
 40
0.6125059915115738
 40
0.6125059915115738
 40
0.6125059915115738
 40
0.7031301107310601
 40
0.7031301107310601
 40
0.7031301107310601
 40
0.7779804413563979
 40
0.7779804413563979
 40
0.7779804413563979
 40
0.8505817941600232
 40
0.8505817941600232
 40
0.8505817941600232
 40
1.0
 40
1.0
 40
1.0
 40
1.0
 10
102.4193896417905
 20
194.0845132975439
 30
0.0
 10
102.5511224826646
 20
194.0845132975439
 30
0.0
 10
102.6828553235388
 20
194.0845132975439
 30
0.0
 10
102.8145881644129
 20
194.0845132975439
 30
0.0
 10
102.9647882259703
 20
194.0845132975439
 30
0.0
 10
103.0805161422522
 20
194.0217247472208
 30
0.0
 10
103.1611563392359
 20
193.8967632205972
 30
0.0
 10
103.2416155551367
 20
193.7720821455753
 30
0.0
 10
103.2818088477
 20
193.5914385053002
 30
0.0
 10
103.2818088477
 20
193.2430236084088
 30
0.0
 10
103.2707285152901
 20
193.1414538946507
 30
0.0
 10
103.2497989985157
 20
193.0521956613482
 30
0.0
 10
103.2287326628453
 20
192.962353935695
 30
0.0
 10
103.1987063546252
 20
192.8853751011758
 30
0.0
 10
103.1593096171676
 20
192.8225865508527
 30
0.0
 10
103.1198096330876
 20
192.7596334512252
 30
0.0
 10
103.0731292539789
 20
192.7105520787074
 30
0.0
 10
103.017727591929
 20
192.6773110814775
 30
0.0
 10
102.9618733019212
 20
192.6437985074728
 30
0.0
 10
102.8989218055332
 20
192.6268340116098
 30
0.0
 10
102.828130792914
 20
192.6274495856326
 30
0.0
 10
102.691894043995
 20
192.6286342530145
 30
0.0
 10
102.555636692165
 20
192.6274495856326
 30
0.0
 10
102.4193896417905
 20
192.6274495856326
 30
0.0
  0
SPLINE
  5
9F
330
2B
100
AcDbEntity
  8
DC_24V
  6
Continuous
 62
     7
100
AcDbSpline
210
0.0
220
0.0
230
1.0
 70
     8
 71
     3
 72
    34
 73
    30
 74
     0
 42
0.0000000025835499
 43
0.0000000001
 40
0.0
 40
0.0
 40
0.0
 40
0.0
 40
0.1624408821331765
 40
0.1624408821331765
 40
0.1624408821331765
 40
0.2371957826216188
 40
0.2371957826216188
 40
0.2371957826216188
 40
0.3121603153908813
 40
0.3121603153908813
 40
0.3121603153908813
 40
0.399430643187917
 40
0.399430643187917
 40
0.399430643187917
 40
0.5050313895767027
 40
0.5050313895767027
 40
0.605374007514594
 40
0.605374007514594
 40
0.605374007514594
 40
0.6891634113720216
 40
0.6891634113720216
 40
0.6891634113720216
 40
0.7620575871903762
 40
0.7620575871903762
 40
0.7620575871903762
 40
0.8354705946904961
 40
0.8354705946904961
 40
0.8354705946904961
 40
1.0
 40
1.0
 40
1.0
 40
1.0
 10
102.2045543078416
 20
192.4058429374331
 30
0.0
 10
102.4132339015628
 20
192.4058429374331
 30
0.0
 10
102.6219134952839
 20
192.4058429374331
 30
0.0
 10
102.830593089005
 20
192.4058429374331
 30
0.0
 10
102.9333939508087
 20
192.4058429374331
 30
0.0
 10
103.0257300542251
 20
192.4280036022531
 30
0.0
 10
103.1076013992544
 20
192.4729405059157
 30
0.0
 10
103.1899458040146
 20
192.5181370589045
 30
0.0
 10
103.2602637569029
 20
192.5831282559927
 30
0.0
 10
103.3175121410211
 20
192.667461897113
 30
0.0
 10
103.3750465791412
 20
192.7522169296125
 30
0.0
 10
103.4190818547791
 20
192.854596400037
 30
0.0
 10
103.4504761299407
 20
192.9746333344784
 30
0.0
 10
103.4818309941824
 20
193.0945195801082
 30
0.0
 10
103.4966441816489
 20
193.228865405885
 30
0.0
 10
103.4966441816489
 20
193.5181851965898
 30
0.0
 10
103.4812548310795
 20
193.6456090193045
 30
0.0
 10
103.4504761299407
 20
193.7607213615636
 30
0.0
 10
103.4198099666881
 20
193.8754128121286
 30
0.0
 10
103.3747605251393
 20
193.9724788253987
 30
0.0
 10
103.3175121410211
 20
194.0531190223823
 30
0.0
 10
103.2605543240598
 20
194.133349925844
 30
0.0
 10
103.1913194663519
 20
194.1953166216437
 30
0.0
 10
103.1106792693682
 20
194.2396379512836
 30
0.0
 10
103.0302989110144
 20
194.2838164688521
 30
0.0
 10
102.9395496910364
 20
194.3055043717206
 30
0.0
 10
102.8385955513012
 20
194.3055043717206
 30
0.0
 10
102.627248470148
 20
194.3055043717206
 30
0.0
 10
102.4159013889948
 20
194.3055043717206
 30
0.0
 10
102.2045543078416
 20
194.3055043717206
 30
0.0
  0
LINE
  5
A0
330
2B
100
AcDbEntity
  8
DC_24V
  6
Continuous
 62
     7
100
AcDbLine
 10
102.2045543078
 20
194.3055043717
 30
0.0
 11
102.2045543078
 21
192.4058429374
 31
0.0
  0
SPLINE
  5
A1
330
2B
100
AcDbEntity
  8
DC_24V
  6
Continuous
 62
     7
100
AcDbSpline
210
0.0
220
0.0
230
1.0
 70
     8
 71
     3
 72
    38
 73
    34
 74
     0
 42
0.0000000028196134
 43
0.0000000001
 40
0.0
 40
0.0
 40
0.0
 40
0.0
 40
0.055482660817833
 40
0.055482660817833
 40
0.055482660817833
 40
0.0965779210319665
 40
0.0965779210319665
 40
0.0965779210319665
 40
0.2361095282012138
 40
0.2361095282012138
 40
0.3853625998043847
 40
0.3853625998043847
 40
0.5346156714075556
 40
0.5346156714075556
 40
0.6857724811689307
 40
0.6857724811689307
 40
0.6857724811689307
 40
0.8174064183153137
 40
0.8174064183153137
 40
0.8594491967194817
 40
0.8594491967194817
 40
0.8594491967194817
 40
0.9005702227472472
 40
0.9005702227472472
 40
0.9005702227472472
 40
0.9225988447281489
 40
0.9225988447281489
 40
0.9446274667090504
 40
0.9446274667090504
 40
0.9446274667090504
 40
0.9723137333545244
 40
0.9723137333545244
 40
1.0
 40
1.0
 40
1.0
 40
1.0
 10
104.8724521225538
 20
193.1069817493753
 30
0.0
 10
104.8564471979617
 20
193.0275727004371
 30
0.0
 10
104.8404422733695
 20
192.9653997241367
 30
0.0
 10
104.8250529228001
 20
192.9204628204741
 30
0.0
 10
104.8094102708609
 20
192.8747862768116
 30
0.0
 10
104.7887340554563
 20
192.8324357352171
 30
0.0
 10
104.7641110945452
 20
192.7918078497138
 30
0.0
 10
104.6814860950878
 20
192.6554766006091
 30
0.0
 10
104.5646651111657
 20
192.5880528481749
 30
0.0
 10
104.2538002296637
 20
192.5880528481749
 30
0.0
 10
104.1300698510857
 20
192.653919268612
 30
0.0
 10
103.9552468286172
 20
192.9173849503602
 30
0.0
 10
103.9115410730001
 20
193.1039038792614
 30
0.0
 10
103.9115410730001
 20
193.5895917832318
 30
0.0
 10
103.9570935506856
 20
193.7804197302925
 30
0.0
 10
104.0475829320337
 20
193.9176927373716
 30
0.0
 10
104.1379759104411
 20
194.0548195005339
 30
0.0
 10
104.2654961360965
 20
194.1232944609788
 30
0.0
 10
104.4791003219998
 20
194.1232944609788
 30
0.0
 10
104.5283462438219
 20
194.1152919986827
 30
0.0
 10
104.5757454435757
 20
194.0992870740906
 30
0.0
 10
104.6236972153781
 20
194.0830955667287
 30
0.0
 10
104.6650036768782
 20
194.0605059106556
 30
0.0
 10
104.7000913961765
 20
194.0309583575624
 30
0.0
 10
104.7214928197787
 20
194.0129361061079
 30
0.0
 10
104.7401037076569
 20
193.9946394902186
 30
0.0
 10
104.7721135568413
 20
193.957705048852
 30
0.0
 10
104.7856561853424
 20
193.9367755320776
 30
0.0
 10
104.7967365177524
 20
193.9139992932349
 30
0.0
 10
104.8079346564136
 20
193.8909808970979
 30
0.0
 10
104.8188971825723
 20
193.8647533714128
 30
0.0
 10
104.8385955513012
 20
193.8044271171808
 30
0.0
 10
104.8478291616428
 20
193.7699549719053
 30
0.0
 10
104.8564471979617
 20
193.7317893824932
 30
0.0
  0
LINE
  5
A2
330
2B
100
AcDbEntity
  8
DC_24V
  6
Continuous
 62
     7
100
AcDbLine
 10
105.0762071241
 20
193.1069817494
 30
0.0
 11
104.8724521226
 21
193.1069817494
 31
0.0
  0
SPLINE
  5
A3
330
2B
100
AcDbEntity
  8
DC_24V
  6
Continuous
 62
     7
100
AcDbSpline
210
0.0
220
0.0
230
1.0
 70
     8
 71
     3
 72
    56
 73
    52
 74
     0
 42
0.0000000020438185
 43
0.0000000001
 40
0.0
 40
0.0
 40
0.0
 40
0.0
 40
0.0357416816098529
 40
0.0357416816098529
 40
0.0357416816098529
 40
0.0664706331819901
 40
0.0664706331819901
 40
0.0664706331819901
 40
0.1341068993172732
 40
0.1341068993172732
 40
0.1341068993172732
 40
0.2031013577032008
 40
0.2031013577032008
 40
0.2031013577032008
 40
0.2674175424084137
 40
0.2674175424084137
 40
0.2674175424084137
 40
0.3307172721875455
 40
0.3307172721875455
 40
0.3307172721875455
 40
0.4026824214775174
 40
0.4026824214775174
 40
0.4026824214775174
 40
0.4887207311785005
 40
0.4887207311785005
 40
0.5751045762598088
 40
0.5751045762598088
 40
0.5751045762598088
 40
0.6460419013738091
 40
0.6460419013738091
 40
0.6460419013738091
 40
0.7078110732187326
 40
0.7078110732187326
 40
0.7078110732187326
 40
0.771060590978374
 40
0.771060590978374
 40
0.8220216310018552
 40
0.8220216310018552
 40
0.8220216310018552
 40
0.8735717819315425
 40
0.8735717819315425
 40
0.8735717819315425
 40
0.8999749042428736
 40
0.8999749042428736
 40
0.9263780265542045
 40
0.9263780265542045
 40
0.9263780265542045
 40
0.9586760534628025
 40
0.9586760534628025
 40
0.9586760534628025
 40
1.0
 40
1.0
 40
1.0
 40
1.0
 10
105.0602021995006
 20
193.7317893824932
 30
0.0
 10
105.0515841631817
 20
193.8019648210896
 30
0.0
 10
105.0405038307718
 20
193.8585976311851
 30
0.0
 10
105.0275767762934
 20
193.9023033868022
 30
0.0
 10
105.0147676263616
 20
193.9456105127621
 30
0.0
 10
104.9943357790635
 20
193.9909460460819
 30
0.0
 10
104.9678660960842
 20
194.0389608198585
 30
0.0
 10
104.911463282384
 20
194.1412729005239
 30
0.0
 10
104.8367488292328
 20
194.2199395825547
 30
0.0
 10
104.7437971517936
 20
194.274110096559
 30
0.0
 10
104.6513049833835
 20
194.3280128172219
 30
0.0
 10
104.5443511684141
 20
194.3553658675655
 30
0.0
 10
104.4224675119044
 20
194.3559814415883
 30
0.0
 10
104.3110545646187
 20
194.3565441332412
 30
0.0
 10
104.2107100480694
 20
194.3319740547
 30
0.0
 10
104.120836240744
 20
194.2858060029918
 30
0.0
 10
104.0299749924563
 20
194.2391307042138
 30
0.0
 10
103.9540156805717
 20
194.1719248087782
 30
0.0
 10
103.8906115562257
 20
194.0857444455895
 30
0.0
 10
103.827129774473
 20
193.9994585286441
 30
0.0
 10
103.7791926581032
 20
193.8936853504833
 30
0.0
 10
103.7459516608733
 20
193.7693393978825
 30
0.0
 10
103.7127517206848
 20
193.6451470290292
 30
0.0
 10
103.6967057390512
 20
193.506489290157
 30
0.0
 10
103.6967057390512
 20
193.1993178527917
 30
0.0
 10
103.7127106636434
 20
193.0614292716898
 30
0.0
 10
103.7447205128278
 20
192.9389300411574
 30
0.0
 10
103.7767697075306
 20
192.8162802383524
 30
0.0
 10
103.8235139877431
 20
192.7117832267529
 30
0.0
 10
103.884455815998
 20
192.6256028635643
 30
0.0
 10
103.9454826282656
 20
192.5393023209636
 30
0.0
 10
104.0180353789404
 20
192.472324931893
 30
0.0
 10
104.1048313161519
 20
192.425541306162
 30
0.0
 10
104.1908931566889
 20
192.3791533637448
 30
0.0
 10
104.2882723749392
 20
192.3559814415883
 30
0.0
 10
104.4827937661365
 20
192.3559814415883
 30
0.0
 10
104.5646651111657
 20
192.3719863661804
 30
0.0
 10
104.6422274380355
 20
192.4052273634104
 30
0.0
 10
104.7195668846557
 20
192.4383728405333
 30
0.0
 10
104.7875029074107
 20
192.4852519863713
 30
0.0
 10
104.8459824395745
 20
192.5480405366944
 30
0.0
 10
104.8750370962205
 20
192.5792360627776
 30
0.0
 10
104.9026152496699
 20
192.6102135129948
 30
0.0
 10
104.9481677273553
 20
192.6791578035458
 30
0.0
 10
104.9684816701069
 20
192.7179389669807
 30
0.0
 10
104.9863333167674
 20
192.761029148575
 30
0.0
 10
105.0043124529791
 20
192.8044270635687
 30
0.0
 10
105.0195743139974
 20
192.854596400037
 30
0.0
 10
105.0337325165212
 20
192.9106136361096
 30
0.0
 10
105.0480369615456
 20
192.9672094838148
 30
0.0
 10
105.0620489215689
 20
193.0324972926194
 30
0.0
 10
105.0762071240928
 20
193.1069817493753
 30
0.0
  0
LINE
  5
A4
330
2B
100
AcDbEntity
  8
DC_24V
  6
Continuous
 62
     7
100
AcDbLine
 10
104.856447198
 20
193.7317893825
 30
0.0
 11
105.0602021995
 21
193.7317893825
 31
0.0
  0
SPLINE
  5
A5
330
2B
100
AcDbEntity
  8
DC_24V
  6
Continuous
 62
     7
100
AcDbSpline
210
0.0
220
0.0
230
1.0
 70
     8
 71
     3
 72
    48
 73
    44
 74
     0
 42
0.0000000030845736
 43
0.0000000001
 40
0.0
 40
0.0
 40
0.0
 40
0.0
 40
0.0710066310534044
 40
0.0710066310534044
 40
0.1420132621068084
 40
0.1420132621068084
 40
0.1420132621068084
 40
0.2012927539383945
 40
0.2012927539383945
 40
0.2012927539383945
 40
0.2426584938059021
 40
0.2426584938059021
 40
0.2426584938059021
 40
0.2746822135448247
 40
0.2746822135448247
 40
0.2746822135448247
 40
0.3006513311510766
 40
0.3006513311510766
 40
0.3006513311510766
 40
0.3238721309435535
 40
0.3238721309435535
 40
0.3238721309435535
 40
0.4412828384190174
 40
0.4412828384190174
 40
0.5103183187801277
 40
0.5103183187801277
 40
0.5793537991412369
 40
0.5793537991412369
 40
0.5793537991412369
 40
0.6392214013617269
 40
0.6392214013617269
 40
0.6392214013617269
 40
0.7025025053418376
 40
0.7025025053418376
 40
0.7794945151843027
 40
0.7794945151843027
 40
0.8564865250267683
 40
0.8564865250267683
 40
0.8564865250267683
 40
0.9182291684904645
 40
0.9182291684904645
 40
0.9182291684904645
 40
1.0
 40
1.0
 40
1.0
 40
1.0
 10
106.0426583398515
 20
192.6274495856326
 30
0.0
 10
106.0512763761703
 20
192.6902381359558
 30
0.0
 10
106.0783616331725
 20
192.7530266862789
 30
0.0
 10
106.1682354404978
 20
192.8761414908342
 30
0.0
 10
106.2297928427755
 20
192.9327743009296
 30
0.0
 10
106.3073551696452
 20
192.98386694482
 30
0.0
 10
106.360487549765
 20
193.01886684601
 30
0.0
 10
106.4132339015628
 20
193.0544527660984
 30
0.0
 10
106.4661732675215
 20
193.0897456767375
 30
0.0
 10
106.5086478750931
 20
193.1180620817852
 30
0.0
 10
106.5449667424369
 20
193.1433006167191
 30
0.0
 10
106.5757454435757
 20
193.165461281539
 30
0.0
 10
106.6066376594184
 20
193.1877036769458
 30
0.0
 10
106.6336094017167
 20
193.2079358891106
 30
0.0
 10
106.6570012145822
 20
193.228865405885
 30
0.0
 10
106.6794393612308
 20
193.2489416423601
 30
0.0
 10
106.7000913961765
 20
193.2682621433426
 30
0.0
 10
106.7173274688142
 20
193.2867293640259
 30
0.0
 10
106.7348501269827
 20
193.3055036406351
 30
0.0
 10
106.7511840400669
 20
193.3242793794153
 30
0.0
 10
106.7653422425908
 20
193.3439777481441
 30
0.0
 10
106.837637507249
 20
193.4445624641903
 30
0.0
 10
106.8736832705994
 20
193.5655843963436
 30
0.0
 10
106.8736832705994
 20
193.7933467847708
 30
0.0
 10
106.8619873641667
 20
193.869677963595
 30
0.0
 10
106.8139725903901
 20
194.0051042486058
 30
0.0
 10
106.7807315931602
 20
194.0635837807695
 30
0.0
 10
106.7388725596114
 20
194.1134452766144
 30
0.0
 10
106.6970621775991
 20
194.1632488198937
 30
0.0
 10
106.6446897341266
 20
194.2002412138259
 30
0.0
 10
106.5849790539173
 20
194.2267108968053
 30
0.0
 10
106.5247539008016
 20
194.2534086450937
 30
0.0
 10
106.4575552312026
 20
194.2667232082857
 30
0.0
 10
106.2938125411442
 20
194.2667232082857
 30
0.0
 10
106.2131723441605
 20
194.2470248395569
 30
0.0
 10
106.0703591708764
 20
194.1694625126871
 30
0.0
 10
106.0124952127354
 20
194.11467642466
 30
0.0
 10
105.9681738830955
 20
194.0445009860635
 30
0.0
 10
105.932424269353
 20
193.9878974309711
 30
0.0
 10
105.9078476288635
 20
193.9269263477132
 30
0.0
 10
105.8924582782941
 20
193.8616755012989
 30
0.0
 10
105.8771013645988
 20
193.796562187231
 30
0.0
 10
105.8690664654286
 20
193.7090131436505
 30
0.0
 10
105.8672197433603
 20
193.600056541619
 30
0.0
  0
LINE
  5
A6
330
2B
100
AcDbEntity
  8
DC_24V
  6
Continuous
 62
     7
100
AcDbLine
 10
106.8736832706
 20
192.6274495856
 30
0.0
 11
106.0426583399
 21
192.6274495856
 31
0.0
  0
LINE
  5
A7
330
2B
100
AcDbEntity
  8
DC_24V
  6
Continuous
 62
     7
100
AcDbLine
 10
106.8736832706
 20
192.4058429374
 30
0.0
 11
106.8736832706
 21
192.6274495856
 31
0.0
  0
LINE
  5
A8
330
2B
100
AcDbEntity
  8
DC_24V
  6
Continuous
 62
     7
100
AcDbLine
 10
105.8278230059
 20
192.4058429374
 30
0.0
 11
106.8736832706
 21
192.4058429374
 31
0.0
  0
SPLINE
  5
A9
330
2B
100
AcDbEntity
  8
DC_24V
  6
Continuous
 62
     7
100
AcDbSpline
210
0.0
220
0.0
230
1.0
 70
     8
 71
     3
 72
    37
 73
    33
 74
     0
 42
0.0000000035459592
 43
0.0000000001
 40
0.0
 40
0.0
 40
0.0
 40
0.0
 40
0.1079871601277162
 40
0.1079871601277162
 40
0.215974320255432
 40
0.215974320255432
 40
0.3146865095746313
 40
0.3146865095746313
 40
0.413398698893833
 40
0.413398698893833
 40
0.5023544508966018
 40
0.5023544508966018
 40
0.5023544508966018
 40
0.540123234878593
 40
0.540123234878593
 40
0.540123234878593
 40
0.603804082120623
 40
0.603804082120623
 40
0.603804082120623
 40
0.6933175393450103
 40
0.6933175393450103
 40
0.6933175393450103
 40
0.7681539341572751
 40
0.7681539341572751
 40
0.7681539341572751
 40
0.839401080883285
 40
0.839401080883285
 40
0.839401080883285
 40
0.914233484994147
 40
0.914233484994147
 40
0.914233484994147
 40
1.0
 40
1.0
 40
1.0
 40
1.0
 10
106.0580476904209
 20
193.600056541619
 30
0.0
 10
106.0666657267397
 20
193.7619525096092
 30
0.0
 10
106.0955977058102
 20
193.8789115739367
 30
0.0
 10
106.1928584014089
 20
194.0241870433119
 30
0.0
 10
106.2673428581648
 20
194.0605059106556
 30
0.0
 10
106.459401953271
 20
194.0605059106556
 30
0.0
 10
106.5326552619814
 20
194.0291116354941
 30
0.0
 10
106.6422274380355
 20
193.9035345348477
 30
0.0
 10
106.6699282690604
 20
193.8192008937274
 30
0.0
 10
106.6699282690604
 20
193.6179081882796
 30
0.0
 10
106.646536456195
 20
193.5378835653187
 30
0.0
 10
106.6009839785095
 20
193.4726327189044
 30
0.0
 10
106.5835774369526
 20
193.4476990242418
 30
0.0
 10
106.5591249449607
 20
193.4221556490367
 30
0.0
 10
106.5295773918675
 20
193.3956859660573
 30
0.0
 10
106.4996883308165
 20
193.3689103488658
 30
0.0
 10
106.4526306390204
 20
193.3328974157342
 30
0.0
 10
106.3892265146745
 20
193.2873449380487
 30
0.0
 10
106.3217373541128
 20
193.2388575799752
 30
0.0
 10
106.2529794643
 20
193.1921361558593
 30
0.0
 10
106.1848559391128
 20
193.1445317647646
 30
0.0
 10
106.1247935537806
 20
193.1025604593517
 30
0.0
 10
106.0734370409903
 20
193.0552735314621
 30
0.0
 10
106.0303468593959
 20
193.0054120356172
 30
0.0
 10
105.9869521402648
 20
192.9551981463369
 30
0.0
 10
105.9509378104578
 20
192.8995333036997
 30
0.0
 10
105.9220058313873
 20
192.8398226234904
 30
0.0
 10
105.8927152531615
 20
192.7793718556627
 30
0.0
 10
105.8702976134741
 20
192.714245522844
 30
0.0
 10
105.8555238369275
 20
192.642838936202
 30
0.0
 10
105.8406279282486
 20
192.5708420442542
 30
0.0
 10
105.8309008760164
 20
192.4920233006218
 30
0.0
 10
105.8278230059026
 20
192.4058429374331
 30
0.0
  0
LINE
  5
AA
330
2B
100
AcDbEntity
  8
DC_24V
  6
Continuous
 62
     7
100
AcDbLine
 10
105.8672197434
 20
193.6000565416
 30
0.0
 11
106.0580476904
 21
193.6000565416
 31
0.0
  0
LINE
  5
AB
330
2B
100
AcDbEntity
  8
DC_24V
  6
Continuous
 62
     7
100
AcDbLine
 10
107.2042465208
 20
193.0614292717
 30
0.0
 11
107.6967057391
 21
193.9109214231
 31
0.0
  0
LINE
  5
AC
330
2B
100
AcDbEntity
  8
DC_24V
  6
Continuous
 62
     7
100
AcDbLine
 10
107.6967057391
 20
193.9109214231
 30
0.0
 11
107.6967057391
 21
193.0614292717
 31
0.0
  0
LINE
  5
AD
330
2B
100
AcDbEntity
  8
DC_24V
  6
Continuous
 62
     7
100
AcDbLine
 10
107.6967057391
 20
193.0614292717
 30
0.0
 11
107.2042465208
 21
193.0614292717
 31
0.0
  0
LINE
  5
AE
330
2B
100
AcDbEntity
  8
DC_24V
  6
Continuous
 62
     7
100
AcDbLine
 10
107.8899959822
 20
192.4058429374
 30
0.0
 11
107.8899959822
 21
192.8552119741
 31
0.0
  0
LINE
  5
AF
330
2B
100
AcDbEntity
  8
DC_24V
  6
Continuous
 62
     7
100
AcDbLine
 10
107.6967057391
 20
192.4058429374
 30
0.0
 11
107.8899959822
 21
192.4058429374
 31
0.0
  0
LINE
  5
B0
330
2B
100
AcDbEntity
  8
DC_24V
  6
Continuous
 62
     7
100
AcDbLine
 10
107.6967057391
 20
192.8552119741
 30
0.0
 11
107.6967057391
 21
192.4058429374
 31
0.0
  0
LINE
  5
B1
330
2B
100
AcDbEntity
  8
DC_24V
  6
Continuous
 62
     7
100
AcDbLine
 10
107.0300390724
 20
192.8552119741
 30
0.0
 11
107.6967057391
 21
192.8552119741
 31
0.0
  0
LINE
  5
B2
330
2B
100
AcDbEntity
  8
DC_24V
  6
Continuous
 62
     7
100
AcDbLine
 10
107.0300390724
 20
193.0878989547
 30
0.0
 11
107.0300390724
 21
192.8552119741
 31
0.0
  0
LINE
  5
B3
330
2B
100
AcDbEntity
  8
DC_24V
  6
Continuous
 62
     7
100
AcDbLine
 10
107.7293311623
 20
194.2661076343
 30
0.0
 11
107.0300390724
 21
193.0878989547
 31
0.0
  0
LINE
  5
B4
330
2B
100
AcDbEntity
  8
DC_24V
  6
Continuous
 62
     7
100
AcDbLine
 10
107.8899959822
 20
194.2661076343
 30
0.0
 11
107.7293311623
 21
194.2661076343
 31
0.0
  0
LINE
  5
B5
330
2B
100
AcDbEntity
  8
DC_24V
  6
Continuous
 62
     7
100
AcDbLine
 10
107.8899959822
 20
193.0614292717
 30
0.0
 11
107.8899959822
 21
194.2661076343
 31
0.0
  0
LINE
  5
B6
330
2B
100
AcDbEntity
  8
DC_24V
  6
Continuous
 62
     7
100
AcDbLine
 10
108.1152960745
 20
193.0614292717
 30
0.0
 11
107.8899959822
 21
193.0614292717
 31
0.0
  0
LINE
  5
B7
330
2B
100
AcDbEntity
  8
DC_24V
  6
Continuous
 62
     7
100
AcDbLine
 10
108.1152960745
 20
192.8552119741
 30
0.0
 11
108.1152960745
 21
193.0614292717
 31
0.0
  0
LINE
  5
B8
330
2B
100
AcDbEntity
  8
DC_24V
  6
Continuous
 62
     7
100
AcDbLine
 10
107.8899959822
 20
192.8552119741
 30
0.0
 11
108.1152960745
 21
192.8552119741
 31
0.0
  0
LINE
  5
B9
330
2B
100
AcDbEntity
  8
DC_24V
  6
Continuous
 62
     7
100
AcDbLine
 10
109.5932893032
 20
194.3055043717
 30
0.0
 11
109.3550621564
 21
194.3055043717
 31
0.0
  0
LINE
  5
BA
330
2B
100
AcDbEntity
  8
DC_24V
  6
Continuous
 62
     7
100
AcDbLine
 10
109.0244989062
 20
192.4058429374
 30
0.0
 11
109.5932893032
 21
194.3055043717
 31
0.0
  0
LINE
  5
BB
330
2B
100
AcDbEntity
  8
DC_24V
  6
Continuous
 62
     7
100
AcDbLine
 10
108.7991988138
 20
192.4058429374
 30
0.0
 11
109.0244989062
 21
192.4058429374
 31
0.0
  0
LINE
  5
BC
330
2B
100
AcDbEntity
  8
DC_24V
  6
Continuous
 62
     7
100
AcDbLine
 10
108.2304084168
 20
194.3055043717
 30
0.0
 11
108.7991988138
 21
192.4058429374
 31
0.0
  0
LINE
  5
BD
330
2B
100
AcDbEntity
  8
DC_24V
  6
Continuous
 62
     7
100
AcDbLine
 10
108.4655576935
 20
194.3055043717
 30
0.0
 11
108.2304084168
 21
194.3055043717
 31
0.0
  0
LINE
  5
BE
330
2B
100
AcDbEntity
  8
DC_24V
  6
Continuous
 62
     7
100
AcDbLine
 10
108.9130800081
 20
192.6779266555
 30
0.0
 11
108.4655576935
 21
194.3055043717
 31
0.0
  0
LINE
  5
BF
330
2B
100
AcDbEntity
  8
DC_24V
  6
Continuous
 62
     7
100
AcDbLine
 10
109.3550621564
 20
194.3055043717
 30
0.0
 11
108.9130800081
 21
192.6779266555
 31
0.0
  0
LINE
  5
C1
330
2B
100
AcDbEntity
  8
PS_307
  6
Continuous
 62
     7
100
AcDbLine
 10
133.0187950136
 20
205.8278971277
 30
0.0
 11
133.0187950136
 21
206.4807011605
 31
0.0
  0
SPLINE
  5
C2
330
2B
100
AcDbEntity
  8
PS_307
  6
Continuous
 62
     7
100
AcDbSpline
210
0.0
220
0.0
230
1.0
 70
     8
 71
     3
 72
    16
 73
    12
 74
     0
 42
0.0000000050125084
 43
0.0000000001
 40
0.0
 40
0.0
 40
0.0
 40
0.0
 40
0.2253968010698146
 40
0.2253968010698146
 40
0.2253968010698146
 40
0.4991461367285853
 40
0.4991461367285853
 40
0.7792989656191398
 40
0.7792989656191398
 40
0.7792989656191398
 40
1.0
 40
1.0
 40
1.0
 40
1.0
 10
133.0187950135757
 20
206.4807011604955
 30
0.0
 10
133.1599418314711
 20
206.4807011604955
 30
0.0
 10
133.3010886493665
 20
206.4807011604955
 30
0.0
 10
133.4422354672619
 20
206.4807011604955
 30
0.0
 10
133.648914736323
 20
206.4807011604955
 30
0.0
 10
133.7522543708536
 20
206.3735808076285
 30
0.0
 10
133.7522543708536
 20
205.9375379594873
 30
0.0
 10
133.646394257432
 20
205.8278971277293
 30
0.0
 10
133.4334137911434
 20
205.8278971277293
 30
0.0
 10
133.2952075319542
 20
205.8278971277293
 30
0.0
 10
133.1570012727649
 20
205.8278971277293
 30
0.0
 10
133.0187950135757
 20
205.8278971277293
 30
0.0
  0
LINE
  5
C3
330
2B
100
AcDbEntity
  8
PS_307
  6
Continuous
 62
     7
100
AcDbLine
 10
132.8045543078
 20
204.8058429374
 30
0.0
 11
133.0187950136
 21
204.8058429374
 31
0.0
  0
LINE
  5
C4
330
2B
100
AcDbEntity
  8
PS_307
  6
Continuous
 62
     7
100
AcDbLine
 10
132.8045543078
 20
206.7037635423
 30
0.0
 11
132.8045543078
 21
204.8058429374
 31
0.0
  0
SPLINE
  5
C5
330
2B
100
AcDbEntity
  8
PS_307
  6
Continuous
 62
     7
100
AcDbSpline
210
0.0
220
0.0
230
1.0
 70
     8
 71
     3
 72
    32
 73
    28
 74
     0
 42
0.0000000035586089
 43
0.0000000001
 40
0.0
 40
0.0
 40
0.0
 40
0.0
 40
0.1734678174269547
 40
0.1734678174269547
 40
0.1734678174269547
 40
0.2431554927802892
 40
0.2431554927802892
 40
0.2431554927802892
 40
0.3094953694958368
 40
0.3094953694958368
 40
0.3094953694958368
 40
0.3818745504718405
 40
0.3818745504718405
 40
0.3818745504718405
 40
0.4649473040953973
 40
0.4649473040953973
 40
0.5455402740286985
 40
0.5455402740286985
 40
0.5455402740286985
 40
0.613196963433149
 40
0.6808536528375988
 40
0.6808536528375988
 40
0.6808536528375988
 40
0.7503718589970887
 40
0.7503718589970887
 40
0.7503718589970887
 40
1.0
 40
1.0
 40
1.0
 40
1.0
 10
133.0187950135757
 20
205.6048347458767
 30
0.0
 10
133.1805257424142
 20
205.6048347458767
 30
0.0
 10
133.3422564712527
 20
205.6048347458767
 30
0.0
 10
133.5039872000911
 20
205.6048347458767
 30
0.0
 10
133.5745606090388
 20
205.6048347458767
 30
0.0
 10
133.6375725813135
 20
205.6186973797772
 30
0.0
 10
133.6930231169153
 20
205.6451624081325
 30
0.0
 10
133.7495000822884
 20
205.6721173234243
 30
0.0
 10
133.7976229908914
 20
205.7094346198528
 30
0.0
 10
133.8379506531472
 20
205.7585839582271
 30
0.0
 10
133.8787853822762
 20
205.808351284353
 30
0.0
 10
133.9097843015404
 20
205.8669645505396
 30
0.0
 10
133.9324686115593
 20
205.9362777200418
 30
0.0
 10
133.9546584591621
 20
206.0040800321616
 30
0.0
 10
133.9652348371422
 20
206.0812052562737
 30
0.0
 10
133.9652348371422
 20
206.247556863079
 30
0.0
 10
133.9538926821327
 20
206.3206507509177
 30
0.0
 10
133.9324686115593
 20
206.3874434415289
 30
0.0
 10
133.9112934972611
 20
206.4534599743409
 30
0.0
 10
133.8467723292657
 20
206.5663974427891
 30
0.0
 10
133.7484736525171
 20
206.6394913306278
 30
0.0
 10
133.6917628774698
 20
206.6646961195377
 30
0.0
 10
133.6339997375248
 20
206.6903686261799
 30
0.0
 10
133.5720401301478
 20
206.703763542348
 30
0.0
 10
133.5027269606456
 20
206.703763542348
 30
0.0
 10
133.2700027430443
 20
206.703763542348
 30
0.0
 10
133.037278525443
 20
206.703763542348
 30
0.0
 10
132.8045543078416
 20
206.703763542348
 30
0.0
  0
LINE
  5
C6
330
2B
100
AcDbEntity
  8
PS_307
  6
Continuous
 62
     7
100
AcDbLine
 10
133.0187950136
 20
204.8058429374
 30
0.0
 11
133.0187950136
 21
205.6048347459
 31
0.0
  0
SPLINE
  5
C7
330
2B
100
AcDbEntity
  8
PS_307
  6
Continuous
 62
     7
100
AcDbSpline
210
0.0
220
0.0
230
1.0
 70
     8
 71
     3
 72
    46
 73
    42
 74
     0
 42
0.0000000021251488
 43
0.0000000001
 40
0.0
 40
0.0
 40
0.0
 40
0.0
 40
0.0475525511127475
 40
0.0475525511127475
 40
0.095105102225494
 40
0.095105102225494
 40
0.095105102225494
 40
0.1605455416130738
 40
0.1605455416130738
 40
0.225985981000654
 40
0.225985981000654
 40
0.3302816812746099
 40
0.3302816812746099
 40
0.3302816812746099
 40
0.4309531820202289
 40
0.4309531820202289
 40
0.5062808084522665
 40
0.5062808084522665
 40
0.5062808084522665
 40
0.5764339117571123
 40
0.5764339117571123
 40
0.5764339117571123
 40
0.6760773937748631
 40
0.6760773937748631
 40
0.6760773937748631
 40
0.7118029216217262
 40
0.7118029216217262
 40
0.7118029216217262
 40
0.7490820265436053
 40
0.7490820265436053
 40
0.8056910377212732
 40
0.8056910377212732
 40
0.8056910377212732
 40
0.8668063334752424
 40
0.8668063334752424
 40
0.9473674051509302
 40
0.9473674051509302
 40
0.9473674051509302
 40
0.9736837025754648
 40
0.9736837025754648
 40
1.0
 40
1.0
 40
1.0
 40
1.0
 10
134.1668731484213
 20
205.4233602657255
 30
0.0
 10
134.1681333878668
 20
205.3225411100859
 30
0.0
 10
134.1769550639853
 20
205.2406255461288
 30
0.0
 10
134.2097212895682
 20
205.1171220804703
 30
0.0
 10
134.2361863179235
 20
205.0591510659775
 30
0.0
 10
134.2752537407339
 20
205.0049607698213
 30
0.0
 10
134.3371915943353
 20
204.9190469728902
 30
0.0
 10
134.4063186430653
 20
204.8537320363619
 30
0.0
 10
134.5676292920886
 20
204.7755971907412
 30
0.0
 10
134.6697086871737
 20
204.7566935990588
 30
0.0
 10
134.9835083091019
 20
204.7566935990588
 30
0.0
 10
135.1334768031157
 20
204.8058429374331
 30
0.0
 10
135.2431176348737
 20
204.9066620930727
 30
0.0
 10
135.352075615149
 20
205.0068533393028
 30
0.0
 10
135.4056885233425
 20
205.1473678271622
 30
0.0
 10
135.4056885233425
 20
205.4624276885359
 30
0.0
 10
135.3767030160962
 20
205.5733287597394
 30
0.0
 10
135.3162115227125
 20
205.659025042033
 30
0.0
 10
135.2555454003062
 20
205.7449687154418
 30
0.0
 10
135.1687635075895
 20
205.8052128177104
 30
0.0
 10
135.0528214786041
 20
205.8367188038477
 30
0.0
 10
134.9045975013273
 20
205.8769970585425
 30
0.0
 10
134.757085288728
 20
205.9198946072504
 30
0.0
 10
134.6092171937899
 20
205.9614825089517
 30
0.0
 10
134.5465542109001
 20
205.9791064728895
 30
0.0
 10
134.4995763620319
 20
206.0068511289895
 30
0.0
 10
134.471851094231
 20
206.0471787912454
 30
0.0
 10
134.4443096809912
 20
206.0872390286851
 30
0.0
 10
134.4277427136387
 20
206.1391762707665
 30
0.0
 10
134.4277427136387
 20
206.3105688353537
 30
0.0
 10
134.4579884603306
 20
206.3912241598654
 30
0.0
 10
134.5197401931598
 20
206.4479349349126
 30
0.0
 10
134.5821197678276
 20
206.5052222994034
 30
0.0
 10
134.6684484477282
 20
206.5348914566518
 30
0.0
 10
134.9255372946091
 20
206.5348914566518
 30
0.0
 10
135.0339178869216
 20
206.481961399941
 30
0.0
 10
135.1019708169783
 20
206.3786217654104
 30
0.0
 10
135.1235020863428
 20
206.3459261341534
 30
0.0
 10
135.1385177608977
 20
206.3143495536902
 30
0.0
 10
135.1586815920256
 20
206.2488171025245
 30
0.0
 10
135.1649827892531
 20
206.2047087219322
 30
0.0
 10
135.1687635075895
 20
206.1479979468849
 30
0.0
  0
LINE
  5
C8
330
2B
100
AcDbEntity
  8
PS_307
  6
Continuous
 62
     7
100
AcDbLine
 10
134.3647307414
 20
205.4233602657
 30
0.0
 11
134.1668731484
 21
205.4233602657
 31
0.0
  0
SPLINE
  5
C9
330
2B
100
AcDbEntity
  8
PS_307
  6
Continuous
 62
     7
100
AcDbSpline
210
0.0
220
0.0
230
1.0
 70
     8
 71
     3
 72
    62
 73
    58
 74
     0
 42
0.0000000021208606
 43
0.0000000001
 40
0.0
 40
0.0
 40
0.0
 40
0.0
 40
0.0193338812381547
 40
0.0193338812381547
 40
0.0386677624763093
 40
0.0386677624763093
 40
0.058001643714464
 40
0.058001643714464
 40
0.058001643714464
 40
0.0741265660753919
 40
0.0741265660753919
 40
0.0741265660753919
 40
0.1373068770494266
 40
0.1373068770494266
 40
0.1373068770494266
 40
0.2056018289590025
 40
0.2056018289590025
 40
0.3112125793346345
 40
0.3112125793346345
 40
0.3112125793346345
 40
0.3558719344250867
 40
0.3558719344250867
 40
0.3558719344250867
 40
0.3994039909595008
 40
0.3994039909595008
 40
0.5364229230022474
 40
0.5364229230022474
 40
0.5364229230022474
 40
0.6081109602953583
 40
0.6081109602953583
 40
0.6081109602953583
 40
0.6448918844912453
 40
0.6448918844912453
 40
0.6448918844912453
 40
0.6712875062380941
 40
0.6712875062380941
 40
0.6712875062380941
 40
0.6935066930794584
 40
0.6935066930794584
 40
0.6935066930794584
 40
0.7190428680058882
 40
0.7190428680058882
 40
0.778627276167558
 40
0.778627276167558
 40
0.778627276167558
 40
0.8490317913721482
 40
0.8490317913721482
 40
0.8957357767058863
 40
0.8957357767058863
 40
0.8957357767058863
 40
0.9394783018626744
 40
0.9394783018626744
 40
0.9394783018626744
 40
0.96621400740556
 40
0.96621400740556
 40
0.96621400740556
 40
1.0
 40
1.0
 40
1.0
 40
1.0
 10
135.3666211005322
 20
206.1479979468849
 30
0.0
 10
135.3628403821957
 20
206.1883256091407
 30
0.0
 10
135.3603199033047
 20
206.2248725530601
 30
0.0
 10
135.3527584666318
 20
206.2878845253348
 30
0.0
 10
135.3477175088498
 20
206.3156097931357
 30
0.0
 10
135.3376355932859
 20
206.3660193709555
 30
0.0
 10
135.3313343960584
 20
206.3887036809744
 30
0.0
 10
135.3225127199399
 20
206.4113879909933
 30
0.0
 10
135.3139512004898
 20
206.4334033267221
 30
0.0
 10
135.3036091282575
 20
206.4554963715856
 30
0.0
 10
135.292266973248
 20
206.47944092105
 30
0.0
 10
135.2493361467077
 20
206.5700726659684
 30
0.0
 10
135.180105662599
 20
206.6382310911823
 30
0.0
 10
135.0931491408599
 20
206.6861201901111
 30
0.0
 10
135.006725148988
 20
206.7337160117218
 30
0.0
 10
134.9015927451447
 20
206.7566935990588
 30
0.0
 10
134.5903136021075
 20
206.7566935990588
 30
0.0
 10
134.4491667842121
 20
206.6974623451206
 30
0.0
 10
134.3533885863545
 20
206.5789998372441
 30
0.0
 10
134.3115691980209
 20
206.5272758569367
 30
0.0
 10
134.2802946985159
 20
206.4655782871496
 30
0.0
 10
134.2576103884969
 20
206.3975253570929
 30
0.0
 10
134.2345480066444
 20
206.3283382115352
 30
0.0
 10
134.2235839234686
 20
206.255118299752
 30
0.0
 10
134.2235839234686
 20
205.9362777200418
 30
0.0
 10
134.3332247552266
 20
205.7850489865825
 30
0.0
 10
134.5525064187427
 20
205.7232972537532
 30
0.0
 10
134.6587595253995
 20
205.6933754018786
 30
0.0
 10
134.7650668052161
 20
205.6636459199998
 30
0.0
 10
134.8713469984528
 20
205.6338202531231
 30
0.0
 10
134.9361725292067
 20
205.6156281081289
 30
0.0
 10
134.9885492668838
 20
205.5947528303128
 30
0.0
 10
135.0313974080307
 20
205.5771094780758
 30
0.0
 10
135.0746892429467
 20
205.5592834284045
 30
0.0
 10
135.1082720142058
 20
205.53678181582
 30
0.0
 10
135.1322165636702
 20
205.5103167874646
 30
0.0
 10
135.1561014010412
 20
205.4839177566862
 30
0.0
 10
135.1750647048171
 20
205.4561264913083
 30
0.0
 10
135.185146620381
 20
205.4233602657255
 30
0.0
 10
135.1953375296267
 20
205.3902398106769
 30
0.0
 10
135.2015297331724
 20
205.3515266173323
 30
0.0
 10
135.2015297331724
 20
205.200297883873
 30
0.0
 10
135.1662430286986
 20
205.1183823199158
 30
0.0
 10
135.0969298591964
 20
205.062931784314
 30
0.0
 10
135.0270019387451
 20
205.006989447953
 30
0.0
 10
134.9293180129456
 20
204.9784957414659
 30
0.0
 10
134.7175977861025
 20
204.9784957414659
 30
0.0
 10
134.6432436588183
 20
204.9936186148118
 30
0.0
 10
134.5802316865436
 20
205.0238643615037
 30
0.0
 10
134.5166871033198
 20
205.0543657614511
 30
0.0
 10
134.466810136449
 20
205.0969582493424
 30
0.0
 10
134.4315234319752
 20
205.1561895032806
 30
0.0
 10
134.4088517538251
 20
205.1942455344611
 30
0.0
 10
134.3899355302739
 20
205.2292833911193
 30
0.0
 10
134.3811138541554
 20
205.2683508139296
 30
0.0
 10
134.3725629423535
 20
205.306219137624
 30
0.0
 10
134.367251220255
 20
205.3578278145598
 30
0.0
 10
134.364730741364
 20
205.4233602657255
 30
0.0
  0
LINE
  5
CA
330
2B
100
AcDbEntity
  8
PS_307
  6
Continuous
 62
     7
100
AcDbLine
 10
135.1687635076
 20
206.1479979469
 30
0.0
 11
135.3666211005
 21
206.1479979469
 31
0.0
  0
SPLINE
  5
CB
330
2B
100
AcDbEntity
  8
PS_307
  6
Continuous
 62
     7
100
AcDbSpline
210
0.0
220
0.0
230
1.0
 70
     8
 71
     3
 72
     8
 73
     4
 74
     0
 42
0.0000001674537277
 43
0.0000000001
 40
0.0
 40
0.0
 40
0.0
 40
0.0
 40
1.0
 40
1.0
 40
1.0
 40
1.0
 10
136.6583665321642
 20
205.8594031138666
 30
0.0
 10
136.6457641377093
 20
205.8581428744211
 30
0.0
 10
136.6268605460268
 20
205.8606633533121
 30
0.0
 10
136.599135278226
 20
205.8644440716486
 30
0.0
  0
SPLINE
  5
CC
330
2B
100
AcDbEntity
  8
PS_307
  6
Continuous
 62
     7
100
AcDbSpline
210
0.0
220
0.0
230
1.0
 70
     8
 71
     3
 72
     8
 73
     4
 74
     0
 42
0.0000002726311255
 43
0.0000000001
 40
0.0
 40
0.0
 40
0.0
 40
0.0
 40
1.0
 40
1.0
 40
1.0
 40
1.0
 10
136.6949134760836
 20
205.8594031138666
 30
0.0
 10
136.6823110816286
 20
205.8581428744211
 30
0.0
 10
136.6697086871737
 20
205.8581428744211
 30
0.0
 10
136.6583665321642
 20
205.8594031138666
 30
0.0
  0
SPLINE
  5
CD
330
2B
100
AcDbEntity
  8
PS_307
  6
Continuous
 62
     7
100
AcDbSpline
210
0.0
220
0.0
230
1.0
 70
     8
 71
     3
 72
    20
 73
    16
 74
     0
 42
0.0000000064596105
 43
0.0000000001
 40
0.0
 40
0.0
 40
0.0
 40
0.0
 40
0.214492172419074
 40
0.214492172419074
 40
0.214492172419074
 40
0.3793421906210286
 40
0.3793421906210286
 40
0.5249240248773013
 40
0.5249240248773013
 40
0.5249240248773013
 40
0.6790597856948873
 40
0.6790597856948873
 40
0.8395298928474427
 40
0.8395298928474427
 40
1.0
 40
1.0
 40
1.0
 40
1.0
 10
136.4113596008473
 20
206.0572607068093
 30
0.0
 10
136.4201812769658
 20
206.2009280035957
 30
0.0
 10
136.4479065447666
 20
206.3042676381262
 30
0.0
 10
136.4945354042499
 20
206.3660193709555
 30
0.0
 10
136.5407066330168
 20
206.4271650522954
 30
0.0
 10
136.6117376726809
 20
206.4592770899221
 30
0.0
 10
136.7944723922777
 20
206.4592770899221
 30
0.0
 10
136.8625253223344
 20
206.4315518221212
 30
0.0
 10
136.9129349001542
 20
206.3786217654104
 30
0.0
 10
136.9639738484461
 20
206.3250308697039
 30
0.0
 10
136.9885492668838
 20
206.25007734197
 30
0.0
 10
136.9885492668838
 20
206.0623016645913
 30
0.0
 10
136.9633444779739
 20
205.9879475373071
 30
0.0
 10
136.8625253223344
 20
205.8846079027765
 30
0.0
 10
136.7906916739412
 20
205.8581428744211
 30
0.0
 10
136.6949134760836
 20
205.8594031138666
 30
0.0
  0
LINE
  5
CE
330
2B
100
AcDbEntity
  8
PS_307
  6
Continuous
 62
     7
100
AcDbLine
 10
136.2235839235
 20
206.0572607068
 30
0.0
 11
136.4113596008
 21
206.0572607068
 31
0.0
  0
SPLINE
  5
CF
330
2B
100
AcDbEntity
  8
PS_307
  6
Continuous
 62
     7
100
AcDbSpline
210
0.0
220
0.0
230
1.0
 70
     8
 71
     3
 72
    20
 73
    16
 74
     0
 42
0.0000000045889324
 43
0.0000000001
 40
0.0
 40
0.0
 40
0.0
 40
0.0
 40
0.2273037007385069
 40
0.2273037007385069
 40
0.4040954679795681
 40
0.4040954679795681
 40
0.5808872352206289
 40
0.5808872352206289
 40
0.8007239544855955
 40
0.8007239544855955
 40
0.8007239544855955
 40
0.8875096756271676
 40
0.8875096756271676
 40
0.8875096756271676
 40
1.0
 40
1.0
 40
1.0
 40
1.0
 10
136.9784673513199
 20
205.7888297049189
 30
0.0
 10
137.1133129719878
 20
205.8518416771937
 30
0.0
 10
137.180105662599
 20
205.9791258611886
 30
0.0
 10
137.180105662599
 20
206.3219109903632
 30
0.0
 10
137.1385177608977
 20
206.4403734982397
 30
0.0
 10
136.9721661540924
 20
206.6193274994999
 30
0.0
 10
136.8587446039979
 20
206.6634358800922
 30
0.0
 10
136.5336028270603
 20
206.6634358800922
 30
0.0
 10
136.4025379247288
 20
206.5953829500355
 30
0.0
 10
136.3193621213262
 20
206.4617975688131
 30
0.0
 10
136.2868108929807
 20
206.4095183232885
 30
0.0
 10
136.2651718251699
 20
206.352156737055
 30
0.0
 10
136.250048951824
 20
206.2929254831168
 30
0.0
 10
136.235003203204
 20
206.2339963010218
 30
0.0
 10
136.2273646418051
 20
206.1555593835579
 30
0.0
 10
136.2235839234686
 20
206.0572607068093
 30
0.0
  0
SPLINE
  5
D0
330
2B
100
AcDbEntity
  8
PS_307
  6
Continuous
 62
     7
100
AcDbSpline
210
0.0
220
0.0
230
1.0
 70
     8
 71
     3
 72
    36
 73
    32
 74
     0
 42
0.0000000041927205
 43
0.0000000001
 40
0.0
 40
0.0
 40
0.0
 40
0.0
 40
0.071289039977481
 40
0.071289039977481
 40
0.071289039977481
 40
0.1276077880678918
 40
0.1276077880678918
 40
0.1276077880678918
 40
0.1724607374080774
 40
0.1724607374080774
 40
0.2173136867482613
 40
0.2173136867482613
 40
0.2173136867482613
 40
0.2979471920822383
 40
0.2979471920822383
 40
0.2979471920822383
 40
0.381687796819708
 40
0.381687796819708
 40
0.4757123354723022
 40
0.4757123354723022
 40
0.5697368741248966
 40
0.5697368741248966
 40
0.5697368741248966
 40
0.662367708477167
 40
0.662367708477167
 40
0.662367708477167
 40
0.7571182725013614
 40
0.7571182725013614
 40
0.8785591362506814
 40
0.8785591362506814
 40
1.0
 40
1.0
 40
1.0
 40
1.0
 10
136.1870369795492
 20
205.3729506879057
 30
0.0
 10
136.1933381767767
 20
205.309938715631
 30
0.0
 10
136.1996393740042
 20
205.2532279405837
 30
0.0
 10
136.2072008106772
 20
205.2053388416549
 30
0.0
 10
136.2149563923458
 20
205.1562201577536
 30
0.0
 10
136.2261044023596
 20
205.1133413621338
 30
0.0
 10
136.237446557369
 20
205.075534178769
 30
0.0
 10
136.2488927688464
 20
205.0373801405109
 30
0.0
 10
136.2651718251699
 20
205.0037005303758
 30
0.0
 10
136.3004585296437
 20
204.945729515883
 30
0.0
 10
136.3218826002172
 20
204.9192644875276
 30
0.0
 10
136.3458271496816
 20
204.8953199380632
 30
0.0
 10
136.3905656499966
 20
204.8505814377482
 30
0.0
 10
136.4428655869847
 20
204.8146646135516
 30
0.0
 10
136.5046173198139
 20
204.7919803035327
 30
0.0
 10
136.5667769539976
 20
204.7691461521999
 30
0.0
 10
136.6344219826998
 20
204.7566935990588
 30
0.0
 10
136.7869109556047
 20
204.7566935990588
 30
0.0
 10
136.8612650828889
 20
204.7705562329593
 30
0.0
 10
136.9948504641113
 20
204.826006768561
 30
0.0
 10
137.0528214786041
 20
204.8663344308169
 30
0.0
 10
137.0994503380873
 20
204.9180042480822
 30
0.0
 10
137.1467060117473
 20
204.9703686432188
 30
0.0
 10
137.18262614149
 20
205.0339462770676
 30
0.0
 10
137.2078309303999
 20
205.1070401649063
 30
0.0
 10
137.2335580289631
 20
205.1816487507396
 30
0.0
 10
137.2468983532102
 20
205.2633098561477
 30
0.0
 10
137.2468983532102
 20
205.4674686463178
 30
0.0
 10
137.2254742826368
 20
205.5582058863934
 30
0.0
 10
137.1422984792342
 20
205.6917912676159
 30
0.0
 10
137.0742455491775
 20
205.7459815637721
 30
0.0
 10
136.9784673513199
 20
205.7888297049189
 30
0.0
  0
LINE
  5
D1
330
2B
100
AcDbEntity
  8
PS_307
  6
Continuous
 62
     7
100
AcDbLine
 10
136.3861548119
 20
205.3729506879
 30
0.0
 11
136.1870369795
 21
205.3729506879
 31
0.0
  0
SPLINE
  5
D2
330
2B
100
AcDbEntity
  8
PS_307
  6
Continuous
 62
     7
100
AcDbSpline
210
0.0
220
0.0
230
1.0
 70
     8
 71
     3
 72
    26
 73
    22
 74
     0
 42
0.0000000056756252
 43
0.0000000001
 40
0.0
 40
0.0
 40
0.0
 40
0.0
 40
0.0153905435470579
 40
0.0153905435470579
 40
0.0153905435470579
 40
0.1726129714745771
 40
0.1726129714745771
 40
0.3298353994020982
 40
0.3298353994020982
 40
0.4964163051824489
 40
0.4964163051824489
 40
0.4964163051824489
 40
0.6535659414638324
 40
0.6535659414638324
 40
0.8260472495775448
 40
0.8260472495775448
 40
0.8260472495775448
 40
0.8973572566614756
 40
0.8973572566614756
 40
0.8973572566614756
 40
1.0
 40
1.0
 40
1.0
 40
1.0
 10
136.6848315605196
 20
205.6678467181515
 30
0.0
 10
136.6936532366381
 20
205.6678467181515
 30
0.0
 10
136.7024749127565
 20
205.6678467181515
 30
0.0
 10
136.711296588875
 20
205.6678467181515
 30
0.0
 10
136.8146362234056
 20
205.6678467181515
 30
0.0
 10
136.8965517873627
 20
205.6376009714596
 30
0.0
 10
137.0124938163482
 20
205.5166179846921
 30
0.0
 10
137.0414793235946
 20
205.4334421812895
 30
0.0
 10
137.0414793235946
 20
205.2154207572189
 30
0.0
 10
137.0112335769027
 20
205.1259437565888
 30
0.0
 10
136.950742083519
 20
205.060411305423
 30
0.0
 10
136.8896224835746
 20
204.9941984054832
 30
0.0
 10
136.8070747867326
 20
204.960852389229
 30
0.0
 10
136.5903136021075
 20
204.960852389229
 30
0.0
 10
136.5071377987049
 20
205.0024402909303
 30
0.0
 10
136.4542077419941
 20
205.0856160943329
 30
0.0
 10
136.4328281504599
 20
205.1192125953152
 30
0.0
 10
136.4151403191838
 20
205.1561895032806
 30
0.0
 10
136.4063186430653
 20
205.197777404982
 30
0.0
 10
136.3976985166648
 20
205.238415143727
 30
0.0
 10
136.3899355302739
 20
205.297336321176
 30
0.0
 10
136.3861548119374
 20
205.3729506879057
 30
0.0
  0
SPLINE
  5
D3
330
2B
100
AcDbEntity
  8
PS_307
  6
Continuous
 62
     7
100
AcDbSpline
210
0.0
220
0.0
230
1.0
 70
     8
 71
     3
 72
     8
 73
     4
 74
     0
 42
0.0000002190272562
 43
0.0000000001
 40
0.0
 40
0.0
 40
0.0
 40
0.0
 40
1.0
 40
1.0
 40
1.0
 40
1.0
 10
136.6394629404818
 20
205.6653262392605
 30
0.0
 10
136.6495448560458
 20
205.664065999815
 30
0.0
 10
136.6646677293917
 20
205.6653262392605
 30
0.0
 10
136.6848315605196
 20
205.6678467181515
 30
0.0
  0
SPLINE
  5
D4
330
2B
100
AcDbEntity
  8
PS_307
  6
Continuous
 62
     7
100
AcDbSpline
210
0.0
220
0.0
230
1.0
 70
     8
 71
     3
 72
     8
 73
     4
 74
     0
 42
0.0000002471626584
 43
0.0000000001
 40
0.0
 40
0.0
 40
0.0
 40
0.0
 40
1.0
 40
1.0
 40
1.0
 40
1.0
 10
136.599135278226
 20
205.6653262392605
 30
0.0
 10
136.6180388699084
 20
205.664065999815
 30
0.0
 10
136.6306412643634
 20
205.664065999815
 30
0.0
 10
136.6394629404818
 20
205.6653262392605
 30
0.0
  0
LINE
  5
D5
330
2B
100
AcDbEntity
  8
PS_307
  6
Continuous
 62
     7
100
AcDbLine
 10
136.5991352782
 20
205.8644440716
 30
0.0
 11
136.5991352782
 21
205.6653262393
 31
0.0
  0
SPLINE
  5
D6
330
2B
100
AcDbEntity
  8
PS_307
  6
Continuous
 62
     7
100
AcDbSpline
210
0.0
220
0.0
230
1.0
 70
    11
 71
     3
 72
    23
 73
    19
 74
     0
 42
0.0000000027255962
 43
0.0000000001
 40
0.0
 40
0.0
 40
0.0
 40
0.0
 40
0.0909186592665295
 40
0.0909186592665295
 40
0.0909186592665295
 40
0.2176190554928499
 40
0.2176190554928499
 40
0.3482380206746235
 40
0.3482380206746235
 40
0.4788569858563981
 40
0.4788569858563981
 40
0.6094759510381704
 40
0.6094759510381704
 40
0.740094916219943
 40
0.740094916219943
 40
0.8700474581099717
 40
0.8700474581099717
 40
1.0
 40
1.0
 40
1.0
 40
1.0
 10
137.9198662171044
 20
206.4592770899221
 30
0.0
 10
138.0257263305259
 20
206.4592770899221
 30
0.0
 10
138.1063816550376
 20
206.3962651176473
 30
0.0
 10
138.1605719511938
 20
206.2715014125434
 30
0.0
 10
138.2152227485793
 20
206.1456774836793
 30
0.0
 10
138.242487515151
 20
205.9602222695062
 30
0.0
 10
138.242487515151
 20
205.4636879279813
 30
0.0
 10
138.2160224867956
 20
205.2759122506026
 30
0.0
 10
138.1076418944831
 20
205.0238643615037
 30
0.0
 10
138.0282468094169
 20
204.960852389229
 30
0.0
 10
137.8165265825738
 20
204.960852389229
 30
0.0
 10
137.7371314975076
 20
205.0238643615037
 30
0.0
 10
137.6287509051951
 20
205.2759122506026
 30
0.0
 10
137.6022858768397
 20
205.4624276885359
 30
0.0
 10
137.6022858768397
 20
205.9551813117242
 30
0.0
 10
137.6287509051951
 20
206.1404365102119
 30
0.0
 10
137.7371314975076
 20
206.3950048782019
 30
0.0
 10
137.8152663431283
 20
206.4592770899221
 30
0.0
 10
137.9198662171044
 20
206.4592770899221
 30
0.0
  0
SPLINE
  5
D7
330
2B
100
AcDbEntity
  8
PS_307
  6
Continuous
 62
     7
100
AcDbSpline
210
0.0
220
0.0
230
1.0
 70
    11
 71
     3
 72
    25
 73
    21
 74
     0
 42
0.0000000020106288
 43
0.0000000001
 40
0.0
 40
0.0
 40
0.0
 40
0.0
 40
0.1335426948520199
 40
0.1335426948520199
 40
0.2670853897040398
 40
0.2670853897040398
 40
0.4006280845560598
 40
0.4006280845560598
 40
0.4006280845560598
 40
0.5013495847175983
 40
0.5013495847175983
 40
0.6013194318928569
 40
0.6013194318928569
 40
0.6013194318928569
 40
0.7514168294212058
 40
0.7514168294212058
 40
0.9002737525898162
 40
0.9002737525898162
 40
0.9002737525898162
 40
1.0
 40
1.0
 40
1.0
 40
1.0
 10
137.9274276537773
 20
206.6634358800922
 30
0.0
 10
137.7560350891901
 20
206.6634358800922
 30
0.0
 10
137.6249701868586
 20
206.5815203161351
 30
0.0
 10
137.4434957067074
 20
206.2538580603065
 30
0.0
 10
137.3981270866696
 20
206.018193283999
 30
0.0
 10
137.3981270866696
 20
205.4057169134886
 30
0.0
 10
137.4422354672619
 20
205.1700521371811
 30
0.0
 10
137.5329727073375
 20
205.0049607698213
 30
0.0
 10
137.6239495310857
 20
204.8394334932794
 30
0.0
 10
137.7535146102991
 20
204.7566935990588
 30
0.0
 10
138.0899985422461
 20
204.7566935990588
 30
0.0
 10
138.2198032051321
 20
204.838609163016
 30
0.0
 10
138.3105404452077
 20
205.0037005303758
 30
0.0
 10
138.4007457283153
 20
205.1678240315855
 30
0.0
 10
138.4466463053211
 20
205.4019361951521
 30
0.0
 10
138.4466463053211
 20
206.0093716078805
 30
0.0
 10
138.4012776852833
 20
206.245036384188
 30
0.0
 10
138.3105404452077
 20
206.4126482304388
 30
0.0
 10
138.2203308164175
 20
206.5792854613986
 30
0.0
 10
138.0925190211372
 20
206.6634358800922
 30
0.0
 10
137.9274276537773
 20
206.6634358800922
 30
0.0
  0
LINE
  5
D8
330
2B
100
AcDbEntity
  8
PS_307
  6
Continuous
 62
     7
100
AcDbLine
 10
139.6577364124
 20
206.6231082178
 30
0.0
 11
138.6016557571
 21
206.6231082178
 31
0.0
  0
LINE
  5
D9
330
2B
100
AcDbEntity
  8
PS_307
  6
Continuous
 62
     7
100
AcDbLine
 10
139.6577364124
 20
206.4176891882
 30
0.0
 11
139.6577364124
 21
206.6231082178
 31
0.0
  0
SPLINE
  5
DA
330
2B
100
AcDbEntity
  8
PS_307
  6
Continuous
 62
     7
100
AcDbSpline
210
0.0
220
0.0
230
1.0
 70
     8
 71
     3
 72
    11
 73
     7
 74
     0
 42
0.0000000057086871
 43
0.0000000001
 40
0.0
 40
0.0
 40
0.0
 40
0.0
 40
0.522528058219595
 40
0.522528058219595
 40
0.522528058219595
 40
1.0
 40
1.0
 40
1.0
 40
1.0
 10
139.0301371685852
 20
204.8058429374331
 30
0.0
 10
139.078026267514
 20
205.1272039960342
 30
0.0
 10
139.1549008736891
 20
205.42210002628
 30
0.0
 10
139.2582405082197
 20
205.6880105492794
 30
0.0
 10
139.3617455022981
 20
205.9543465706276
 30
0.0
 10
139.4951655239727
 20
206.1971472852592
 30
0.0
 10
139.6577364124415
 20
206.4176891882207
 30
0.0
  0
LINE
  5
DB
330
2B
100
AcDbEntity
  8
PS_307
  6
Continuous
 62
     7
100
AcDbLine
 10
138.8184169417
 20
204.8058429374
 30
0.0
 11
139.0301371686
 21
204.8058429374
 31
0.0
  0
SPLINE
  5
DC
330
2B
100
AcDbEntity
  8
PS_307
  6
Continuous
 62
     7
100
AcDbSpline
210
0.0
220
0.0
230
1.0
 70
     8
 71
     3
 72
    17
 73
    13
 74
     0
 42
0.0000000058082379
 43
0.0000000001
 40
0.0
 40
0.0
 40
0.0
 40
0.0
 40
0.2583743892703263
 40
0.2583743892703263
 40
0.2583743892703263
 40
0.5147988839508851
 40
0.5147988839508851
 40
0.5147988839508851
 40
0.7625126672645782
 40
0.7625126672645782
 40
0.7625126672645782
 40
1.0
 40
1.0
 40
1.0
 40
1.0
 10
139.4434957067074
 20
206.3924843993109
 30
0.0
 10
139.3603199033047
 20
206.2702411730979
 30
0.0
 10
139.2847055365751
 20
206.1442172285484
 30
0.0
 10
139.2141321276274
 20
206.0118920867715
 30
0.0
 10
139.1438378028475
 20
205.8800902278093
 30
0.0
 10
139.0830672252959
 20
205.7459815637721
 30
0.0
 10
139.0301371685852
 20
205.6111359431042
 30
0.0
 10
138.9773753599923
 20
205.4767189545462
 30
0.0
 10
138.9330987312821
 20
205.3414447017684
 30
0.0
 10
138.8965517873627
 20
205.2065990811004
 30
0.0
 10
138.8597728937586
 20
205.0708976460784
 30
0.0
 10
138.8348000545335
 20
204.9369078397646
 30
0.0
 10
138.818416941742
 20
204.8058429374331
 30
0.0
  0
LINE
  5
DD
330
2B
100
AcDbEntity
  8
PS_307
  6
Continuous
 62
     7
100
AcDbLine
 10
138.6016557571
 20
206.3924843993
 30
0.0
 11
139.4434957067
 21
206.3924843993
 31
0.0
  0
LINE
  5
DE
330
2B
100
AcDbEntity
  8
PS_307
  6
Continuous
 62
     7
100
AcDbLine
 10
138.6016557571
 20
206.6231082178
 30
0.0
 11
138.6016557571
 21
206.3924843993
 31
0.0
  0
LINE
  5
E0
330
2B
100
AcDbEntity
  8
SCHALTER_EIN
  6
Continuous
 62
     7
100
AcDbLine
 10
104.5295543078
 20
161.8358432822
 30
0.0
 11
104.5795543078
 21
161.8358432822
 31
0.0
  0
LINE
  5
E1
330
2B
100
AcDbEntity
  8
SCHALTER_EIN
  6
Continuous
 62
     7
100
AcDbLine
 10
104.5795543078
 20
161.8358432822
 30
0.0
 11
104.5795543078
 21
163.8358432822
 31
0.0
  0
LINE
  5
E2
330
2B
100
AcDbEntity
  8
SCHALTER_EIN
  6
Continuous
 62
     7
100
AcDbLine
 10
104.5795543078
 20
163.8358432822
 30
0.0
 11
104.5295543078
 21
163.8358432822
 31
0.0
  0
LINE
  5
E3
330
2B
100
AcDbEntity
  8
SCHALTER_EIN
  6
Continuous
 62
     7
100
AcDbLine
 10
104.5295543078
 20
163.8358432822
 30
0.0
 11
104.5295543078
 21
161.8358432822
 31
0.0
  0
LINE
  5
E5
330
2B
100
AcDbEntity
  8
SCHALTER_AUS
  6
Continuous
 62
     7
100
AcDbLine
 10
104.5795543078
 20
160.6358432822
 30
0.0
 11
104.5295543078
 21
160.6358432822
 31
0.0
  0
LINE
  5
E6
330
2B
100
AcDbEntity
  8
SCHALTER_AUS
  6
Continuous
 62
     7
100
AcDbLine
 10
104.5295543078
 20
160.6358432822
 30
0.0
 11
104.5295543078
 21
158.6358432822
 31
0.0
  0
LINE
  5
E7
330
2B
100
AcDbEntity
  8
SCHALTER_AUS
  6
Continuous
 62
     7
100
AcDbLine
 10
104.5295543078
 20
158.6358432822
 30
0.0
 11
104.5795543078
 21
158.6358432822
 31
0.0
  0
LINE
  5
E8
330
2B
100
AcDbEntity
  8
SCHALTER_AUS
  6
Continuous
 62
     7
100
AcDbLine
 10
104.5795543078
 20
158.6358432822
 30
0.0
 11
104.5795543078
 21
160.6358432822
 31
0.0
  0
LINE
  5
E9
330
2B
100
AcDbEntity
  8
SCHALTER_AUS
  6
Continuous
 62
     7
100
AcDbLine
 10
104.85090863
 20
159.8244555469
 30
0.0
 11
104.8630047247
 21
159.8729703332
 31
0.0
  0
ARC
  5
EA
330
2B
100
AcDbEntity
  8
SCHALTER_AUS
  6
Continuous
 62
     7
100
AcDbCircle
 10
104.5545543078
 20
158.6358432822
 30
0.0
 40
1.275000000000002
100
AcDbArc
 50
104.0
 51
76.0
  0
LINE
  5
EB
330
2B
100
AcDbEntity
  8
SCHALTER_AUS
  6
Continuous
 62
     7
100
AcDbLine
 10
104.246103891
 20
159.8729703332
 30
0.0
 11
104.2581999857
 21
159.8244555469
 31
0.0
  0
ARC
  5
EC
330
2B
100
AcDbEntity
  8
SCHALTER_AUS
  6
Continuous
 62
     7
100
AcDbCircle
 10
104.5545543078
 20
158.6358432822
 30
0.0
 40
1.225000000000003
100
AcDbArc
 50
104.0
 51
76.0
  0
LINE
  5
EE
330
2B
100
AcDbEntity
  8
DECKEL
  6
Continuous
 62
     7
100
AcDbLine
 10
89.1545543078
 20
159.9952036889
 30
0.0
 11
87.8045543078
 21
159.9952036889
 31
0.0
  0
LINE
  5
EF
330
2B
100
AcDbEntity
  8
DECKEL
  6
Continuous
 62
     7
100
AcDbLine
 10
89.0545543078
 20
153.4026300205
 30
0.0
 11
87.8045543078
 21
153.4026300205
 31
0.0
  0
LINE
  5
F0
330
2B
100
AcDbEntity
  8
DECKEL
  6
Continuous
 62
     7
100
AcDbLine
 10
89.0545543078
 20
152.4026300205
 30
0.0
 11
86.8045543078
 21
152.4026300205
 31
0.0
  0
LINE
  5
F1
330
2B
100
AcDbEntity
  8
DECKEL
  6
Continuous
 62
     7
100
AcDbLine
 10
86.8045543078
 20
152.4026300205
 30
0.0
 11
86.8045543078
 21
150.8026300205
 31
0.0
  0
LINE
  5
F2
330
2B
100
AcDbEntity
  8
DECKEL
  6
Continuous
 62
     7
100
AcDbLine
 10
89.1545543078
 20
169.058235852
 30
0.0
 11
87.8045543078
 21
169.058235852
 31
0.0
  0
LINE
  5
F3
330
2B
100
AcDbEntity
  8
DECKEL
  6
Continuous
 62
     7
100
AcDbLine
 10
89.2887561588
 20
163.8078764949
 30
0.0
 11
87.8045543078
 21
163.8078764949
 31
0.0
  0
LINE
  5
F4
330
2B
100
AcDbEntity
  8
DECKEL
  6
Continuous
 62
     7
100
AcDbLine
 10
86.8045543078
 20
162.0686866864
 30
0.0
 11
86.8045543078
 21
160.6961307264
 31
0.0
  0
LINE
  5
F5
330
2B
100
AcDbEntity
  8
DECKEL
  6
Continuous
 62
     7
100
AcDbLine
 10
89.1545543078
 20
162.0686866864
 30
0.0
 11
86.8045543078
 21
162.0686866864
 31
0.0
  0
LINE
  5
F6
330
2B
100
AcDbEntity
  8
DECKEL
  6
Continuous
 62
     7
100
AcDbLine
 10
89.1545543078
 20
160.6759582057
 30
0.0
 11
86.8049402964
 21
160.6759582057
 31
0.0
  0
LINE
  5
F7
330
2B
100
AcDbEntity
  8
DECKEL
  6
Continuous
 62
     7
100
AcDbLine
 10
89.1545543078
 20
159.9952036889
 30
0.0
 11
89.1545543078
 21
154.9026300205
 31
0.0
  0
LINE
  5
F8
330
2B
100
AcDbEntity
  8
DECKEL
  6
Continuous
 62
     7
100
AcDbLine
 10
89.1545543078
 20
169.058235852
 30
0.0
 11
89.1545543078
 21
163.8800947562
 31
0.0
  0
LINE
  5
F9
330
2B
100
AcDbEntity
  8
DECKEL
  6
Continuous
 62
     7
100
AcDbLine
 10
89.1545543078
 20
160.6759582057
 30
0.0
 11
89.1545543078
 21
159.9952036889
 31
0.0
  0
LINE
  5
FA
330
2B
100
AcDbEntity
  8
DECKEL
  6
Continuous
 62
     7
100
AcDbLine
 10
145.8045543078
 20
150.8026300205
 30
0.0
 11
87.8045543078
 21
150.8026300205
 31
0.0
  0
LINE
  5
FB
330
2B
100
AcDbEntity
  8
DECKEL
  6
Continuous
 62
     7
100
AcDbLine
 10
145.8045543078
 20
87.7026300205
 30
0.0
 11
145.8045543078
 21
150.8026300205
 31
0.0
  0
LINE
  5
FC
330
2B
100
AcDbEntity
  8
DECKEL
  6
Continuous
 62
     7
100
AcDbLine
 10
87.8045543078
 20
150.8026300205
 30
0.0
 11
87.8045543078
 21
87.7026300205
 31
0.0
  0
LINE
  5
FD
330
2B
100
AcDbEntity
  8
DECKEL
  6
Continuous
 62
     7
100
AcDbLine
 10
87.8045543078
 20
87.7026300205
 30
0.0
 11
145.8045543078
 21
87.7026300205
 31
0.0
  0
LINE
  5
FE
330
2B
100
AcDbEntity
  8
DECKEL
  6
Continuous
 62
     7
100
AcDbLine
 10
145.8045543078
 20
86.7026300205
 30
0.0
 11
87.8045543078
 21
86.7026300205
 31
0.0
  0
ARC
  5
FF
330
2B
100
AcDbEntity
  8
DECKEL
  6
Continuous
 62
     7
100
AcDbCircle
 10
87.8045543078
 20
87.7026300205
 30
0.0
 40
1.000000000000001
100
AcDbArc
 50
180.0
 51
270.0
  0
ARC
  5
100
330
2B
100
AcDbEntity
  8
DECKEL
  6
Continuous
 62
     7
100
AcDbCircle
 10
145.8045543078
 20
87.7026300205
 30
0.0
 40
1.000000000000001
100
AcDbArc
 50
270.0
 51
360.0
  0
LINE
  5
101
330
2B
100
AcDbEntity
  8
DECKEL
  6
Continuous
 62
     7
100
AcDbLine
 10
86.8045543078
 20
87.7026300205
 30
0.0
 11
86.8045543078
 21
150.8026300205
 31
0.0
  0
LINE
  5
102
330
2B
100
AcDbEntity
  8
DECKEL
  6
Continuous
 62
     7
100
AcDbLine
 10
146.8045543078
 20
150.8026300205
 30
0.0
 11
146.8045543078
 21
87.7026300205
 31
0.0
  0
ARC
  5
103
330
2B
100
AcDbEntity
  8
DECKEL
  6
Continuous
 62
     7
100
AcDbCircle
 10
87.8045543078
 20
150.8026300205
 30
0.0
 40
1.000000000000001
100
AcDbArc
 50
90.0
 51
180.0
  0
ARC
  5
104
330
2B
100
AcDbEntity
  8
DECKEL
  6
Continuous
 62
     7
100
AcDbCircle
 10
145.8045543078
 20
150.8026300205
 30
0.0
 40
1.000000000000001
100
AcDbArc
 50
0.0
 51
90.0
  0
LINE
  5
105
330
2B
100
AcDbEntity
  8
DECKEL
  6
Continuous
 62
     7
100
AcDbLine
 10
87.8045543078
 20
151.8026300205
 30
0.0
 11
145.8045543078
 21
151.8026300205
 31
0.0
  0
LINE
  5
106
330
2B
100
AcDbEntity
  8
DECKEL
  6
Continuous
 62
     7
100
AcDbLine
 10
87.8045543078
 20
150.8026300205
 30
0.0
 11
87.8045543078
 21
151.8026300205
 31
0.0
  0
LINE
  5
107
330
2B
100
AcDbEntity
  8
DECKEL
  6
Continuous
 62
     7
100
AcDbLine
 10
145.8045543078
 20
151.8026300205
 30
0.0
 11
145.8045543078
 21
150.8026300205
 31
0.0
  0
LINE
  5
108
330
2B
100
AcDbEntity
  8
DECKEL
  6
Continuous
 62
     7
100
AcDbLine
 10
87.8045543078
 20
150.8026300205
 30
0.0
 11
86.8045543078
 21
150.8026300205
 31
0.0
  0
LINE
  5
109
330
2B
100
AcDbEntity
  8
DECKEL
  6
Continuous
 62
     7
100
AcDbLine
 10
146.8045543078
 20
150.8026300205
 30
0.0
 11
145.8045543078
 21
150.8026300205
 31
0.0
  0
LINE
  5
10A
330
2B
100
AcDbEntity
  8
DECKEL
  6
Continuous
 62
     7
100
AcDbLine
 10
87.8045543078
 20
87.7026300205
 30
0.0
 11
86.8045543078
 21
87.7026300205
 31
0.0
  0
LINE
  5
10B
330
2B
100
AcDbEntity
  8
DECKEL
  6
Continuous
 62
     7
100
AcDbLine
 10
146.8045543078
 20
87.7026300205
 30
0.0
 11
145.8045543078
 21
87.7026300205
 31
0.0
  0
LINE
  5
10C
330
2B
100
AcDbEntity
  8
DECKEL
  6
Continuous
 62
     7
100
AcDbLine
 10
87.8045543078
 20
87.7026300205
 30
0.0
 11
87.8045543078
 21
86.7026300205
 31
0.0
  0
LINE
  5
10D
330
2B
100
AcDbEntity
  8
DECKEL
  6
Continuous
 62
     7
100
AcDbLine
 10
145.8045543078
 20
86.7026300205
 30
0.0
 11
145.8045543078
 21
87.7026300205
 31
0.0
  0
LINE
  5
10E
330
2B
100
AcDbEntity
  8
DECKEL
  6
Continuous
 62
     7
100
AcDbLine
 10
87.8045543078
 20
169.058235852
 30
0.0
 11
87.8045543078
 21
163.8078764949
 31
0.0
  0
LINE
  5
10F
330
2B
100
AcDbEntity
  8
DECKEL
  6
Continuous
 62
     7
100
AcDbLine
 10
86.8045543078
 20
162.3797284881
 30
0.0
 11
86.8045543078
 21
162.0686866864
 31
0.0
  0
SPLINE
  5
110
330
2B
100
AcDbEntity
  8
DECKEL
  6
Continuous
 62
     7
100
AcDbSpline
210
0.0
220
0.0
230
1.0
 70
    12
 71
     2
 72
     6
 73
     3
 74
     0
 42
0.0000000041183651
 43
0.0000000001
 40
0.0
 40
0.0
 40
0.0
 40
1.0
 40
1.0
 40
1.0
 10
87.80455430784161
 20
163.8078764948536
 30
0.0
 41
1.0
 10
86.80455430784161
 20
163.8078764948536
 30
0.0
 41
0.7071067811865909
 10
86.80455430784161
 20
162.3797284881115
 30
0.0
 41
1.0
  0
LINE
  5
111
330
2B
100
AcDbEntity
  8
DECKEL
  6
Continuous
 62
     7
100
AcDbLine
 10
86.8045543078
 20
162.3797284881
 30
0.0
 11
86.8045543078
 21
169.3020747607
 31
0.0
  0
LINE
  5
112
330
2B
100
AcDbEntity
  8
DECKEL
  6
Continuous
 62
     7
100
AcDbLine
 10
87.8045543078
 20
159.9952036889
 30
0.0
 11
87.8045543078
 21
153.4026300205
 31
0.0
  0
LINE
  5
113
330
2B
100
AcDbEntity
  8
DECKEL
  6
Continuous
 62
     7
100
AcDbLine
 10
87.8045543078
 20
153.4026300205
 30
0.0
 11
86.8045543078
 21
152.4026300205
 31
0.0
  0
LINE
  5
114
330
2B
100
AcDbEntity
  8
DECKEL
  6
Continuous
 62
     7
100
AcDbLine
 10
86.8045543078
 20
152.4026300205
 30
0.0
 11
86.8045543078
 21
160.6961307264
 31
0.0
  0
LINE
  5
115
330
2B
100
AcDbEntity
  8
DECKEL
  6
Continuous
 62
     7
100
AcDbLine
 10
86.8045543078
 20
160.6961307264
 30
0.0
 11
86.8049402964
 21
160.6759582057
 31
0.0
  0
SPLINE
  5
116
330
2B
100
AcDbEntity
  8
DECKEL
  6
Continuous
 62
     7
100
AcDbSpline
210
0.0
220
0.0
230
1.0
 70
    12
 71
     2
 72
     6
 73
     3
 74
     0
 42
0.0000000060463727
 43
0.0000000001
 40
0.0
 40
0.0
 40
0.0
 40
1.0
 40
1.0
 40
1.0
 10
86.80494029636468
 20
160.6759582057325
 30
0.0
 41
1.0
 10
86.83196069152864
 20
159.9952036888689
 30
0.0
 41
0.7168618394295347
 10
87.80455430784161
 20
159.9952036888689
 30
0.0
 41
1.0
  0
LINE
  5
117
330
2B
100
AcDbEntity
  8
DECKEL
  6
Continuous
 62
     7
100
AcDbLine
 10
86.8045543078
 20
169.9058429374
 30
0.0
 11
86.8045543078
 21
169.3020747607
 31
0.0
  0
ARC
  5
118
330
2B
100
AcDbEntity
  8
DECKEL
  6
Continuous
 62
     7
100
AcDbCircle
 10
87.822463877
 20
170.0245807806
 30
0.0
 40
0.9665108761316292
100
AcDbArc
 50
237.5980941691
 51
268.9382411693
  0
LINE
  5
119
330
2B
100
AcDbEntity
  8
DECKEL
  6
Continuous
 62
     7
100
AcDbLine
 10
87.3045543078
 20
169.2085458844
 30
0.0
 11
87.3045543078
 21
170.4058429374
 31
0.0
  0
SPLINE
  5
11A
330
2B
100
AcDbEntity
  8
DECKEL
  6
Continuous
 62
     7
100
AcDbSpline
210
0.0
220
0.0
230
1.0
 70
     8
 71
     3
 72
    10
 73
     6
 74
     0
 42
0.0000000177917018
 43
0.0000000001
 40
0.0
 40
0.0
 40
0.0
 40
0.0
 40
0.5
 40
0.5
 40
1.0
 40
1.0
 40
1.0
 40
1.0
 10
87.30455430784161
 20
169.2085458843711
 30
0.0
 10
87.16692133479498
 20
169.2930776409025
 30
0.0
 10
87.03421362840038
 20
169.3313841980424
 30
0.0
 10
86.85219484436898
 20
169.3497234366452
 30
0.0
 10
86.80455430784161
 20
169.3299794060434
 30
0.0
 10
86.80455430784161
 20
169.3020747606611
 30
0.0
  0
LINE
  5
11B
330
2B
100
AcDbEntity
  8
DECKEL
  6
Continuous
 62
     7
100
AcDbLine
 10
146.8045543078
 20
150.8026300205
 30
0.0
 11
146.8045543078
 21
152.4026300205
 31
0.0
  0
LINE
  5
11C
330
2B
100
AcDbEntity
  8
DECKEL
  6
Continuous
 62
     7
100
AcDbLine
 10
144.5545543078
 20
152.4026300205
 30
0.0
 11
146.8045543078
 21
152.4026300205
 31
0.0
  0
LINE
  5
11D
330
2B
100
AcDbEntity
  8
DECKEL
  6
Continuous
 62
     7
100
AcDbLine
 10
144.5545543078
 20
153.4026300205
 30
0.0
 11
145.8045543078
 21
153.4026300205
 31
0.0
  0
LINE
  5
11E
330
2B
100
AcDbEntity
  8
DECKEL
  6
Continuous
 62
     7
100
AcDbLine
 10
144.4545543078
 20
159.9952036889
 30
0.0
 11
145.8045543078
 21
159.9952036889
 31
0.0
  0
LINE
  5
11F
330
2B
100
AcDbEntity
  8
DECKEL
  6
Continuous
 62
     7
100
AcDbLine
 10
144.4545543078
 20
160.6759582057
 30
0.0
 11
146.8041683193
 21
160.6759582057
 31
0.0
  0
LINE
  5
120
330
2B
100
AcDbEntity
  8
DECKEL
  6
Continuous
 62
     7
100
AcDbLine
 10
146.8045543078
 20
162.0686866864
 30
0.0
 11
146.8045543078
 21
162.3797284881
 31
0.0
  0
LINE
  5
121
330
2B
100
AcDbEntity
  8
DECKEL
  6
Continuous
 62
     7
100
AcDbLine
 10
144.4545543078
 20
162.0686866864
 30
0.0
 11
146.8045543078
 21
162.0686866864
 31
0.0
  0
LINE
  5
122
330
2B
100
AcDbEntity
  8
DECKEL
  6
Continuous
 62
     7
100
AcDbLine
 10
144.3203524569
 20
163.8078764949
 30
0.0
 11
145.8045543078
 21
163.8078764949
 31
0.0
  0
LINE
  5
123
330
2B
100
AcDbEntity
  8
DECKEL
  6
Continuous
 62
     7
100
AcDbLine
 10
144.4545543078
 20
169.058235852
 30
0.0
 11
145.8045543078
 21
169.058235852
 31
0.0
  0
LINE
  5
124
330
2B
100
AcDbEntity
  8
DECKEL
  6
Continuous
 62
     7
100
AcDbLine
 10
144.4545543078
 20
154.9026300205
 30
0.0
 11
144.4545543078
 21
159.9952036889
 31
0.0
  0
LINE
  5
125
330
2B
100
AcDbEntity
  8
DECKEL
  6
Continuous
 62
     7
100
AcDbLine
 10
144.4545543078
 20
159.9952036889
 30
0.0
 11
144.4545543078
 21
160.6759582057
 31
0.0
  0
LINE
  5
126
330
2B
100
AcDbEntity
  8
DECKEL
  6
Continuous
 62
     7
100
AcDbLine
 10
144.4545543078
 20
162.7058429374
 30
0.0
 11
144.4545543078
 21
163.0984209565
 31
0.0
  0
LINE
  5
127
330
2B
100
AcDbEntity
  8
DECKEL
  6
Continuous
 62
     7
100
AcDbLine
 10
144.4545543078
 20
169.058235852
 30
0.0
 11
144.4545543078
 21
169.8769044879
 31
0.0
  0
LINE
  5
128
330
2B
100
AcDbEntity
  8
DECKEL
  6
Continuous
 62
     7
100
AcDbLine
 10
145.8045543078
 20
153.4026300205
 30
0.0
 11
145.8045543078
 21
159.9952036889
 31
0.0
  0
SPLINE
  5
129
330
2B
100
AcDbEntity
  8
DECKEL
  6
Continuous
 62
     7
100
AcDbSpline
210
0.0
220
0.0
230
1.0
 70
    12
 71
     2
 72
     6
 73
     3
 74
     0
 42
0.0000000060463727
 43
0.0000000001
 40
0.0
 40
0.0
 40
0.0
 40
1.0
 40
1.0
 40
1.0
 10
145.8045543078416
 20
159.9952036888689
 30
0.0
 41
1.0
 10
146.7771479241561
 20
159.9952036888689
 30
0.0
 41
0.716861839429013
 10
146.8041683193186
 20
160.6759582057335
 30
0.0
 41
1.0
  0
LINE
  5
12A
330
2B
100
AcDbEntity
  8
DECKEL
  6
Continuous
 62
     7
100
AcDbLine
 10
146.8045543078
 20
160.6961307264
 30
0.0
 11
146.8045543078
 21
162.0686866864
 31
0.0
  0
LINE
  5
12B
330
2B
100
AcDbEntity
  8
DECKEL
  6
Continuous
 62
     7
100
AcDbLine
 10
146.8041683193
 20
160.6759582057
 30
0.0
 11
146.8045543078
 21
160.6961307264
 31
0.0
  0
LINE
  5
12C
330
2B
100
AcDbEntity
  8
DECKEL
  6
Continuous
 62
     7
100
AcDbLine
 10
146.8045543078
 20
160.6961307264
 30
0.0
 11
146.8045543078
 21
152.4026300205
 31
0.0
  0
LINE
  5
12D
330
2B
100
AcDbEntity
  8
DECKEL
  6
Continuous
 62
     7
100
AcDbLine
 10
146.8045543078
 20
152.4026300205
 30
0.0
 11
145.8045543078
 21
153.4026300205
 31
0.0
  0
LINE
  5
12E
330
2B
100
AcDbEntity
  8
DECKEL
  6
Continuous
 62
     7
100
AcDbLine
 10
145.8045543078
 20
163.8078764949
 30
0.0
 11
145.8045543078
 21
169.058235852
 31
0.0
  0
ARC
  5
12F
330
2B
100
AcDbEntity
  8
DECKEL
  6
Continuous
 62
     7
100
AcDbCircle
 10
145.7877380146
 20
170.0209440442
 30
0.0
 40
0.9628550519064654
100
AcDbArc
 50
271.000723437
 51
302.4629412245
  0
SPLINE
  5
130
330
2B
100
AcDbEntity
  8
DECKEL
  6
Continuous
 62
     7
100
AcDbSpline
210
0.0
220
0.0
230
1.0
 70
    12
 71
     2
 72
     6
 73
     3
 74
     0
 42
0.0000000041183651
 43
0.0000000001
 40
0.0
 40
0.0
 40
0.0
 40
1.0
 40
1.0
 40
1.0
 10
146.8045543078416
 20
162.3797284881115
 30
0.0
 41
1.0
 10
146.8045543078416
 20
163.8078764948536
 30
0.0
 41
0.7071067811865909
 10
145.8045543078416
 20
163.8078764948536
 30
0.0
 41
1.0
  0
LINE
  5
131
330
2B
100
AcDbEntity
  8
DECKEL
  6
Continuous
 62
     7
100
AcDbLine
 10
146.8045543078
 20
169.3020747607
 30
0.0
 11
146.8045543078
 21
162.3797284881
 31
0.0
  0
LINE
  5
132
330
2B
100
AcDbEntity
  8
DECKEL
  6
Continuous
 62
     7
100
AcDbLine
 10
146.8045543078
 20
169.3020747607
 30
0.0
 11
146.8045543078
 21
169.9058429374
 31
0.0
  0
LINE
  5
133
330
2B
100
AcDbEntity
  8
DECKEL
  6
Continuous
 62
     7
100
AcDbLine
 10
146.3045543078
 20
170.4058429374
 30
0.0
 11
146.3045543078
 21
169.2085458844
 31
0.0
  0
SPLINE
  5
134
330
2B
100
AcDbEntity
  8
DECKEL
  6
Continuous
 62
     7
100
AcDbSpline
210
0.0
220
0.0
230
1.0
 70
     8
 71
     3
 72
    10
 73
     6
 74
     0
 42
0.0000000177917018
 43
0.0000000001
 40
0.0
 40
0.0
 40
0.0
 40
0.0
 40
0.5
 40
0.5
 40
1.0
 40
1.0
 40
1.0
 40
1.0
 10
146.8045543078416
 20
169.3020747606611
 30
0.0
 10
146.8045543078416
 20
169.3299794060435
 30
0.0
 10
146.7569137713143
 20
169.3497234366452
 30
0.0
 10
146.5748949872829
 20
169.3313841980424
 30
0.0
 10
146.4421872808883
 20
169.2930776409025
 30
0.0
 10
146.3045543078416
 20
169.2085458843711
 30
0.0
  0
LINE
  5
135
330
2B
100
AcDbEntity
  8
DECKEL
  6
Continuous
 62
     7
100
AcDbLine
 10
89.1545543078
 20
169.8769044879
 30
0.0
 11
89.1545543078
 21
169.058235852
 31
0.0
  0
LINE
  5
136
330
2B
100
AcDbEntity
  8
DECKEL
  6
Continuous
 62
     7
100
AcDbLine
 10
87.5545543078
 20
169.8769044879
 30
0.0
 11
89.1545543078
 21
169.8769044879
 31
0.0
  0
LINE
  5
137
330
2B
100
AcDbEntity
  8
DECKEL
  6
Continuous
 62
     7
100
AcDbLine
 10
87.5545543078
 20
170.4058429374
 30
0.0
 11
87.5545543078
 21
169.8769044879
 31
0.0
  0
LINE
  5
138
330
2B
100
AcDbEntity
  8
DECKEL
  6
Continuous
 62
     7
100
AcDbLine
 10
89.0545543078
 20
154.9026300205
 30
0.0
 11
89.1545543078
 21
154.9026300205
 31
0.0
  0
LINE
  5
139
330
2B
100
AcDbEntity
  8
DECKEL
  6
Continuous
 62
     7
100
AcDbLine
 10
89.0545543078
 20
151.8026300205
 30
0.0
 11
89.0545543078
 21
152.4026300205
 31
0.0
  0
LINE
  5
13A
330
2B
100
AcDbEntity
  8
DECKEL
  6
Continuous
 62
     7
100
AcDbLine
 10
89.0545543078
 20
152.4026300205
 30
0.0
 11
89.0545543078
 21
153.4026300205
 31
0.0
  0
LINE
  5
13B
330
2B
100
AcDbEntity
  8
DECKEL
  6
Continuous
 62
     7
100
AcDbLine
 10
89.0545543078
 20
153.4026300205
 30
0.0
 11
89.0545543078
 21
154.9026300205
 31
0.0
  0
LINE
  5
13C
330
2B
100
AcDbEntity
  8
DECKEL
  6
Continuous
 62
     7
100
AcDbLine
 10
146.0545543078
 20
169.8769044879
 30
0.0
 11
144.4545543078
 21
169.8769044879
 31
0.0
  0
LINE
  5
13D
330
2B
100
AcDbEntity
  8
DECKEL
  6
Continuous
 62
     7
100
AcDbLine
 10
146.0545543078
 20
169.8769044879
 30
0.0
 11
146.0545543078
 21
170.4058429374
 31
0.0
  0
LINE
  5
13E
330
2B
100
AcDbEntity
  8
DECKEL
  6
Continuous
 62
     7
100
AcDbLine
 10
144.5545543078
 20
154.9026300205
 30
0.0
 11
144.4545543078
 21
154.9026300205
 31
0.0
  0
LINE
  5
13F
330
2B
100
AcDbEntity
  8
DECKEL
  6
Continuous
 62
     7
100
AcDbLine
 10
144.5545543078
 20
154.9026300205
 30
0.0
 11
144.5545543078
 21
153.4026300205
 31
0.0
  0
LINE
  5
140
330
2B
100
AcDbEntity
  8
DECKEL
  6
Continuous
 62
     7
100
AcDbLine
 10
144.5545543078
 20
153.4026300205
 30
0.0
 11
144.5545543078
 21
152.4026300205
 31
0.0
  0
LINE
  5
141
330
2B
100
AcDbEntity
  8
DECKEL
  6
Continuous
 62
     7
100
AcDbLine
 10
144.5545543078
 20
152.4026300205
 30
0.0
 11
144.5545543078
 21
151.8026300205
 31
0.0
  0
LINE
  5
142
330
2B
100
AcDbEntity
  8
DECKEL
  6
Continuous
 62
     7
100
AcDbLine
 10
88.2545543078
 20
91.1526300205
 30
0.0
 11
93.3545543078
 21
91.1526300205
 31
0.0
  0
LINE
  5
143
330
2B
100
AcDbEntity
  8
DECKEL
  6
Continuous
 62
     7
100
AcDbLine
 10
93.3545543078
 20
91.1526300205
 30
0.0
 11
93.3545543078
 21
96.2526300205
 31
0.0
  0
LINE
  5
144
330
2B
100
AcDbEntity
  8
DECKEL
  6
Continuous
 62
     7
100
AcDbLine
 10
93.3545543078
 20
96.2526300205
 30
0.0
 11
88.2545543078
 21
96.2526300205
 31
0.0
  0
LINE
  5
145
330
2B
100
AcDbEntity
  8
DECKEL
  6
Continuous
 62
     7
100
AcDbLine
 10
88.2545543078
 20
96.2526300205
 30
0.0
 11
88.2545543078
 21
91.1526300205
 31
0.0
  0
CIRCLE
  5
146
330
2B
100
AcDbEntity
  8
DECKEL
  6
Continuous
 62
     7
100
AcDbCircle
 10
90.8045543078
 20
93.7026300205
 30
0.0
 40
0.6500000000000001
  0
CIRCLE
  5
147
330
2B
100
AcDbEntity
  8
DECKEL
  6
Continuous
 62
     7
100
AcDbCircle
 10
90.8045543078
 20
93.7026300205
 30
0.0
 40
0.950000000000003
  0
LINE
  5
148
330
2B
100
AcDbEntity
  8
DECKEL
  6
Continuous
 62
     7
100
AcDbLine
 10
144.4545543078
 20
163.8800947562
 30
0.0
 11
144.4545543078
 21
169.058235852
 31
0.0
  0
SPLINE
  5
149
330
2B
100
AcDbEntity
  8
DECKEL
  6
Continuous
 62
     7
100
AcDbSpline
210
0.0
220
0.0
230
1.0
 70
     8
 71
     3
 72
    14
 73
    10
 74
     0
 42
0.0000000091760675
 43
0.0000000001
 40
0.0
 40
0.0
 40
0.0
 40
0.0
 40
0.25
 40
0.25
 40
0.5
 40
0.5
 40
0.75
 40
0.75
 40
1.0
 40
1.0
 40
1.0
 40
1.0
 10
144.3203524568896
 20
163.8078764948578
 30
0.0
 10
144.2265212159795
 20
163.7782550381976
 30
0.0
 10
144.1508574662203
 20
163.7180078473299
 30
0.0
 10
144.0620560187951
 20
163.5719500332361
 30
0.0
 10
144.0474373666483
 20
163.4873772239313
 30
0.0
 10
144.0735508643104
 20
163.3260263379444
 30
0.0
 10
144.1153177274546
 20
163.2484965476781
 30
0.0
 10
144.2571576467842
 20
163.1326984805702
 30
0.0
 10
144.3538291251051
 20
163.098420956495
 30
0.0
 10
144.4545543078416
 20
163.098420956495
 30
0.0
  0
SPLINE
  5
14A
330
2B
100
AcDbEntity
  8
DECKEL
  6
Continuous
 62
     7
100
AcDbSpline
210
0.0
220
0.0
230
1.0
 70
     8
 71
     3
 72
    10
 73
     6
 74
     0
 42
0.0000000625227115
 43
0.0000000001
 40
0.0
 40
0.0
 40
0.0
 40
0.0
 40
0.5
 40
0.5
 40
1.0
 40
1.0
 40
1.0
 40
1.0
 10
144.4545543078416
 20
163.880094756153
 30
0.0
 10
144.4281195436529
 20
163.8800947561533
 30
0.0
 10
144.4018444439543
 20
163.873166273153
 30
0.0
 10
144.3556375419741
 20
163.8478907245106
 30
0.0
 10
144.3356344944887
 20
163.8296040520541
 30
0.0
 10
144.3203524568896
 20
163.8078764948578
 30
0.0
  0
LINE
  5
14B
330
2B
100
AcDbEntity
  8
DECKEL
  6
Continuous
 62
     7
100
AcDbLine
 10
89.1545543078
 20
163.0984209565
 30
0.0
 11
89.1545543078
 21
162.7058429374
 31
0.0
  0
SPLINE
  5
14C
330
2B
100
AcDbEntity
  8
DECKEL
  6
Continuous
 62
     7
100
AcDbSpline
210
0.0
220
0.0
230
1.0
 70
     8
 71
     3
 72
    32
 73
    28
 74
     0
 42
0.0000000093208629
 43
0.0000000001
 40
0.0
 40
0.0
 40
0.0
 40
0.0
 40
0.1068563933556609
 40
0.1068563933556609
 40
0.1068563933556609
 40
0.2137421822588867
 40
0.2137421822588867
 40
0.2137421822588867
 40
0.3217854468151058
 40
0.3217854468151058
 40
0.3217854468151058
 40
0.4368038410392769
 40
0.4368038410392769
 40
0.4368038410392769
 40
0.5651603228782169
 40
0.5651603228782169
 40
0.5651603228782169
 40
0.7111835762370416
 40
0.7111835762370416
 40
0.7111835762370416
 40
0.855446994831318
 40
0.855446994831318
 40
0.855446994831318
 40
0.9787171493504446
 40
0.9787171493504446
 40
0.9787171493504446
 40
1.0
 40
1.0
 40
1.0
 40
1.0
 10
89.15455430784162
 20
163.098420956495
 30
0.0
 10
89.19689709238807
 20
163.098420956495
 30
0.0
 10
89.23983196306168
 20
163.1045398379733
 30
0.0
 10
89.27971878341125
 20
163.116180820487
 30
0.0
 10
89.31963935022588
 20
163.1278316519183
 30
0.0
 10
89.3575985530014
 20
163.145318490956
 30
0.0
 10
89.39067974037604
 20
163.167015686055
 30
0.0
 10
89.42414708610319
 20
163.1889661535961
 30
0.0
 10
89.4534879931951
 20
163.2157596711052
 30
0.0
 10
89.47697927758229
 20
163.2451383408994
 30
0.0
 10
89.50199391059442
 20
163.2764221409323
 30
0.0
 10
89.5210133175442
 20
163.3113495658096
 30
0.0
 10
89.53357415247605
 20
163.3473034279049
 30
0.0
 10
89.54758431207365
 20
163.3874058055603
 30
0.0
 10
89.55401434753595
 20
163.4297111706057
 30
0.0
 10
89.55307528816807
 20
163.4714163009835
 30
0.0
 10
89.55201071445192
 20
163.5186957245712
 30
0.0
 10
89.5413762488877
 20
163.5665981464332
 30
0.0
 10
89.52088687168131
 20
163.6108067943628
 30
0.0
 10
89.50070924340949
 20
163.6543428011111
 30
0.0
 10
89.46999540060528
 20
163.6956773101727
 30
0.0
 10
89.43088484681412
 20
163.7294734035394
 30
0.0
 10
89.3973558108988
 20
163.7584464125728
 30
0.0
 10
89.35658296098862
 20
163.7827948737004
 30
0.0
 10
89.31240111276578
 20
163.7996455898594
 30
0.0
 10
89.30463756322966
 20
163.8026065653478
 30
0.0
 10
89.29674708075636
 20
163.8053538515863
 30
0.0
 10
89.28875615880665
 20
163.8078764948536
 30
0.0
  0
SPLINE
  5
14D
330
2B
100
AcDbEntity
  8
DECKEL
  6
Continuous
 62
     7
100
AcDbSpline
210
0.0
220
0.0
230
1.0
 70
     8
 71
     3
 72
    10
 73
     6
 74
     0
 42
0.0000000625233428
 43
0.0000000001
 40
0.0
 40
0.0
 40
0.0
 40
0.0
 40
0.5
 40
0.5
 40
1.0
 40
1.0
 40
1.0
 40
1.0
 10
89.28875615880665
 20
163.8078764948536
 30
0.0
 10
89.27359959997497
 20
163.8294256500148
 30
0.0
 10
89.25359169260278
 20
163.8477931540661
 30
0.0
 10
89.20744527159138
 20
163.8730985951917
 30
0.0
 10
89.18112741151205
 20
163.880094756153
 30
0.0
 10
89.15455430784162
 20
163.880094756153
 30
0.0
  0
LINE
  5
14E
330
2B
100
AcDbEntity
  8
DECKEL
  6
Continuous
 62
     7
100
AcDbLine
 10
87.5545543078
 20
170.4058429374
 30
0.0
 11
87.3045543078
 21
170.4058429374
 31
0.0
  0
ARC
  5
14F
330
2B
100
AcDbEntity
  8
DECKEL
  6
Continuous
 62
     7
100
AcDbCircle
 10
87.3045543078
 20
169.9058429374
 30
0.0
 40
0.5000000000000004
100
AcDbArc
 50
90.0
 51
180.0
  0
LINE
  5
150
330
2B
100
AcDbEntity
  8
DECKEL
  6
Continuous
 62
     7
100
AcDbLine
 10
146.3045543078
 20
170.4058429374
 30
0.0
 11
146.0545543078
 21
170.4058429374
 31
0.0
  0
ARC
  5
151
330
2B
100
AcDbEntity
  8
DECKEL
  6
Continuous
 62
     7
100
AcDbCircle
 10
146.3045543078
 20
169.9058429374
 30
0.0
 40
0.5000000000000004
100
AcDbArc
 50
0.0
 51
90.0
  0
ARC
  5
152
330
2B
100
AcDbEntity
  8
DECKEL
  6
Continuous
 62
     7
100
AcDbCircle
 10
144.4545543078
 20
163.7938886532
 30
0.0
 40
0.5000000000000004
100
AcDbArc
 50
90.0
 51
180.0
  0
ARC
  5
153
330
2B
100
AcDbEntity
  8
DECKEL
  6
Continuous
 62
     7
100
AcDbCircle
 10
144.4545543078
 20
163.5938886532
 30
0.0
 40
0.5000000000000004
100
AcDbArc
 50
180.0
 51
270.0
  0
ARC
  5
154
330
2B
100
AcDbEntity
  8
DECKEL
  6
Continuous
 62
     7
100
AcDbCircle
 10
89.1545543078
 20
163.5938886532
 30
0.0
 40
0.5000000000000004
100
AcDbArc
 50
270.0
 51
280.0224756237
  0
ARC
  5
155
330
2B
100
AcDbEntity
  8
DECKEL
  6
Continuous
 62
     7
100
AcDbCircle
 10
89.1545543078
 20
163.5938886532
 30
0.0
 40
0.5000000000000004
100
AcDbArc
 50
286.8028486391
 51
360.0
  0
ARC
  5
156
330
2B
100
AcDbEntity
  8
DECKEL
  6
Continuous
 62
     7
100
AcDbCircle
 10
89.1545543078
 20
163.7938886532
 30
0.0
 40
0.5000000000000004
100
AcDbArc
 50
0.0
 51
90.0
  0
LINE
  5
158
330
2B
100
AcDbEntity
  8
LICHTLEITER
  6
Continuous
 62
     7
100
AcDbLine
 10
97.2545543078
 20
205.8058429374
 30
0.0
 11
100.2545543078
 21
205.8058429374
 31
0.0
  0
LINE
  5
159
330
2B
100
AcDbEntity
  8
LICHTLEITER
  6
Continuous
 62
     7
100
AcDbLine
 10
97.2545543078
 20
191.4058429374
 30
0.0
 11
97.2545543078
 21
205.8058429374
 31
0.0
  0
LINE
  5
15A
330
2B
100
AcDbEntity
  8
LICHTLEITER
  6
Continuous
 62
     7
100
AcDbLine
 10
100.2545543078
 20
205.8058429374
 30
0.0
 11
100.2545543078
 21
191.4058429374
 31
0.0
  0
LINE
  5
15B
330
2B
100
AcDbEntity
  8
LICHTLEITER
  6
Continuous
 62
     7
100
AcDbLine
 10
97.2545543078
 20
205.8058429374
 30
0.0
 11
97.5545543078
 21
205.5058429374
 31
0.0
  0
LINE
  5
15C
330
2B
100
AcDbEntity
  8
LICHTLEITER
  6
Continuous
 62
     7
100
AcDbLine
 10
99.9545543078
 20
205.5058429374
 30
0.0
 11
100.2545543078
 21
205.8058429374
 31
0.0
  0
LINE
  5
15D
330
2B
100
AcDbEntity
  8
LICHTLEITER
  6
Continuous
 62
     7
100
AcDbLine
 10
100.2545543078
 20
191.4058429374
 30
0.0
 11
97.2545543078
 21
191.4058429374
 31
0.0
  0
LINE
  5
15E
330
2B
100
AcDbEntity
  8
LICHTLEITER
  6
Continuous
 62
     7
100
AcDbLine
 10
97.5545543078
 20
191.7058429374
 30
0.0
 11
97.5545543078
 21
205.5058429374
 31
0.0
  0
LINE
  5
15F
330
2B
100
AcDbEntity
  8
LICHTLEITER
  6
Continuous
 62
     7
100
AcDbLine
 10
97.2545543078
 20
191.4058429374
 30
0.0
 11
97.5545543078
 21
191.7058429374
 31
0.0
  0
LINE
  5
160
330
2B
100
AcDbEntity
  8
LICHTLEITER
  6
Continuous
 62
     7
100
AcDbLine
 10
99.9545543078
 20
191.7058429374
 30
0.0
 11
100.2545543078
 21
191.4058429374
 31
0.0
  0
LINE
  5
161
330
2B
100
AcDbEntity
  8
LICHTLEITER
  6
Continuous
 62
     7
100
AcDbLine
 10
99.9545543078
 20
205.5058429374
 30
0.0
 11
99.9545543078
 21
191.7058429374
 31
0.0
  0
LINE
  5
162
330
2B
100
AcDbEntity
  8
LICHTLEITER
  6
Continuous
 62
     7
100
AcDbLine
 10
99.9545543078
 20
191.7058429374
 30
0.0
 11
97.5545543078
 21
191.7058429374
 31
0.0
  0
ARC
  5
163
330
2B
100
AcDbEntity
  8
LICHTLEITER
  6
Continuous
 62
     7
100
AcDbCircle
 10
98.7545543078
 20
193.4058429374
 30
0.0
 40
0.5500000000000851
100
AcDbArc
 50
90.0
 51
270.0
  0
ARC
  5
164
330
2B
100
AcDbEntity
  8
LICHTLEITER
  6
Continuous
 62
     7
100
AcDbCircle
 10
98.7545543078
 20
193.4058429374
 30
0.0
 40
0.5500000000000851
100
AcDbArc
 50
270.0
 51
90.0
  0
ARC
  5
165
330
2B
100
AcDbEntity
  8
LICHTLEITER
  6
Continuous
 62
     7
100
AcDbCircle
 10
98.7545543078
 20
198.6058429374
 30
0.0
 40
0.5500000000000851
100
AcDbArc
 50
90.0
 51
270.0
  0
ARC
  5
166
330
2B
100
AcDbEntity
  8
LICHTLEITER
  6
Continuous
 62
     7
100
AcDbCircle
 10
98.7545543078
 20
198.6058429374
 30
0.0
 40
0.5500000000000851
100
AcDbArc
 50
270.0
 51
90.0
  0
ARC
  5
167
330
2B
100
AcDbEntity
  8
LICHTLEITER
  6
Continuous
 62
     7
100
AcDbCircle
 10
98.7545543078
 20
203.8058429374
 30
0.0
 40
0.5500000000000851
100
AcDbArc
 50
90.0
 51
270.0
  0
ARC
  5
168
330
2B
100
AcDbEntity
  8
LICHTLEITER
  6
Continuous
 62
     7
100
AcDbCircle
 10
98.7545543078
 20
203.8058429374
 30
0.0
 40
0.5500000000000851
100
AcDbArc
 50
270.0
 51
90.0
  0
LINE
  5
169
330
2B
100
AcDbEntity
  8
LICHTLEITER
  6
Continuous
 62
     7
100
AcDbLine
 10
99.9545543078
 20
205.5058429374
 30
0.0
 11
97.5545543078
 21
205.5058429374
 31
0.0
  0
LINE
  5
16B
330
2B
100
AcDbEntity
  8
ZUSATZPLATINE
  6
Continuous
 62
     7
100
AcDbLine
 10
91.2545543078
 20
94.1716715964
 30
0.0
 11
91.2545543078
 21
93.5058429374
 31
0.0
  0
LINE
  5
16C
330
2B
100
AcDbEntity
  8
ZUSATZPLATINE
  6
Continuous
 62
     7
100
AcDbLine
 10
91.2545543078
 20
93.5058429374
 30
0.0
 11
91.4130706658
 21
93.4741396658
 31
0.0
  0
ENDBLK
  5
16E
330
2B
100
AcDbEntity
  8
0
100
AcDbBlockEnd
  0
BLOCK
  5
218
330
16F
100
AcDbEntity
  8
0
100
AcDbBlockBegin
  2
SE1
 70
     0
 71
     0
 10
0.0
 20
0.0
 30
0.0
  3
SE1
  1

  0
LINE
  5
171
330
16F
100
AcDbEntity
  8
GEHÄUSEHÄLFTE_HI
  6
Continuous
 62
     7
100
AcDbLine
 10
227.002348236
 20
102.2058429374
 30
0.0
 11
224.702348236
 21
104.5058429374
 31
0.0
  0
LINE
  5
172
330
16F
100
AcDbEntity
  8
GEHÄUSEHÄLFTE_HI
  6
Continuous
 62
     7
100
AcDbLine
 10
224.702348236
 20
104.5058429374
 30
0.0
 11
216.502348236
 21
104.5058429374
 31
0.0
  0
LINE
  5
173
330
16F
100
AcDbEntity
  8
GEHÄUSEHÄLFTE_HI
  6
Continuous
 62
     7
100
AcDbLine
 10
216.502348236
 20
188.6058429374
 30
0.0
 11
221.073331917
 21
188.6058429374
 31
0.0
  0
LINE
  5
174
330
16F
100
AcDbEntity
  8
GEHÄUSEHÄLFTE_HI
  6
Continuous
 62
     7
100
AcDbLine
 10
221.073331917
 20
188.6058429374
 30
0.0
 11
223.8157456957
 21
193.3558429374
 31
0.0
  0
LINE
  5
175
330
16F
100
AcDbEntity
  8
GEHÄUSEHÄLFTE_HI
  6
Continuous
 62
     7
100
AcDbLine
 10
227.002348236
 20
193.5058429374
 30
0.0
 11
227.002348236
 21
207.1558429374
 31
0.0
  0
ARC
  5
176
330
16F
100
AcDbEntity
  8
GEHÄUSEHÄLFTE_HI
  6
Continuous
 62
     7
100
AcDbCircle
 10
225.452348236
 20
207.1558429374
 30
0.0
 40
1.549999999999996
100
AcDbArc
 50
0.0
 51
180.0
  0
LINE
  5
177
330
16F
100
AcDbEntity
  8
GEHÄUSEHÄLFTE_HI
  6
Continuous
 62
     7
100
AcDbLine
 10
223.902348236
 20
207.1558429374
 30
0.0
 11
223.902348236
 21
206.6058429374
 31
0.0
  0
LINE
  5
178
330
16F
100
AcDbEntity
  8
GEHÄUSEHÄLFTE_HI
  6
Continuous
 62
     7
100
AcDbLine
 10
223.902348236
 20
206.6058429374
 30
0.0
 11
221.902348236
 21
206.6058429374
 31
0.0
  0
LINE
  5
179
330
16F
100
AcDbEntity
  8
GEHÄUSEHÄLFTE_HI
  6
Continuous
 62
     7
100
AcDbLine
 10
216.502348236
 20
146.2058429374
 30
0.0
 11
220.902348236
 21
146.2058429374
 31
0.0
  0
LINE
  5
17A
330
16F
100
AcDbEntity
  8
GEHÄUSEHÄLFTE_HI
  6
Continuous
 62
     7
100
AcDbLine
 10
220.902348236
 20
146.2058429374
 30
0.0
 11
220.902348236
 21
162.2058429374
 31
0.0
  0
LINE
  5
17B
330
16F
100
AcDbEntity
  8
GEHÄUSEHÄLFTE_HI
  6
Continuous
 62
     7
100
AcDbLine
 10
220.902348236
 20
162.2058429374
 30
0.0
 11
216.502348236
 21
162.2058429374
 31
0.0
  0
LINE
  5
17C
330
16F
100
AcDbEntity
  8
GEHÄUSEHÄLFTE_HI
  6
Continuous
 62
     7
100
AcDbLine
 10
291.502348236
 20
87.9558429374
 30
0.0
 11
291.502348236
 21
87.7058429374
 31
0.0
  0
LINE
  5
17D
330
16F
100
AcDbEntity
  8
GEHÄUSEHÄLFTE_HI
  6
Continuous
 62
     7
100
AcDbLine
 10
290.702348236
 20
209.6558429374
 30
0.0
 11
290.702348236
 21
88.7558429374
 31
0.0
  0
LINE
  5
17E
330
16F
100
AcDbEntity
  8
GEHÄUSEHÄLFTE_HI
  6
Continuous
 62
     7
100
AcDbLine
 10
290.702348236
 20
88.7558429374
 30
0.0
 11
291.502348236
 21
87.9558429374
 31
0.0
  0
LINE
  5
17F
330
16F
100
AcDbEntity
  8
GEHÄUSEHÄLFTE_HI
  6
Continuous
 62
     7
100
AcDbLine
 10
291.502348236
 20
210.4558429374
 30
0.0
 11
290.702348236
 21
209.6558429374
 31
0.0
  0
LINE
  5
180
330
16F
100
AcDbEntity
  8
GEHÄUSEHÄLFTE_HI
  6
Continuous
 62
     7
100
AcDbLine
 10
290.702348236
 20
132.2058429374
 30
0.0
 11
291.502348236
 21
132.2058429374
 31
0.0
  0
LINE
  5
181
330
16F
100
AcDbEntity
  8
GEHÄUSEHÄLFTE_HI
  6
Continuous
 62
     7
100
AcDbLine
 10
290.702348236
 20
162.2058429374
 30
0.0
 11
291.502348236
 21
162.2058429374
 31
0.0
  0
LINE
  5
182
330
16F
100
AcDbEntity
  8
GEHÄUSEHÄLFTE_HI
  6
Continuous
 62
     7
100
AcDbLine
 10
221.402348236
 20
211.7058429374
 30
0.0
 11
291.502348236
 21
211.7058429374
 31
0.0
  0
LINE
  5
183
330
16F
100
AcDbEntity
  8
GEHÄUSEHÄLFTE_HI
  6
Continuous
 62
     7
100
AcDbLine
 10
291.502348236
 20
210.7058429374
 30
0.0
 11
291.502348236
 21
210.4558429374
 31
0.0
  0
LINE
  5
184
330
16F
100
AcDbEntity
  8
GEHÄUSEHÄLFTE_HI
  6
Continuous
 62
     7
100
AcDbLine
 10
291.502348236
 20
211.7058429374
 30
0.0
 11
291.502348236
 21
210.7058429374
 31
0.0
  0
LINE
  5
185
330
16F
100
AcDbEntity
  8
GEHÄUSEHÄLFTE_HI
  6
Continuous
 62
     7
100
AcDbLine
 10
221.902348236
 20
210.7058429374
 30
0.0
 11
221.902348236
 21
206.6058429374
 31
0.0
  0
LINE
  5
186
330
16F
100
AcDbEntity
  8
GEHÄUSEHÄLFTE_HI
  6
Continuous
 62
     7
100
AcDbLine
 10
291.502348236
 20
210.7058429374
 30
0.0
 11
221.902348236
 21
210.7058429374
 31
0.0
  0
ARC
  5
187
330
16F
100
AcDbEntity
  8
GEHÄUSEHÄLFTE_HI
  6
Continuous
 62
     7
100
AcDbCircle
 10
221.402348236
 20
211.2058429374
 30
0.0
 40
0.5000000000000004
100
AcDbArc
 50
90.0
 51
180.0
  0
LINE
  5
188
330
16F
100
AcDbEntity
  8
GEHÄUSEHÄLFTE_HI
  6
Continuous
 62
     7
100
AcDbLine
 10
220.902348236
 20
206.6058429374
 30
0.0
 11
220.902348236
 21
211.2058429374
 31
0.0
  0
LINE
  5
189
330
16F
100
AcDbEntity
  8
GEHÄUSEHÄLFTE_HI
  6
Continuous
 62
     7
100
AcDbLine
 10
221.902348236
 20
206.6058429374
 30
0.0
 11
220.902348236
 21
206.6058429374
 31
0.0
  0
LINE
  5
18A
330
16F
100
AcDbEntity
  8
GEHÄUSEHÄLFTE_HI
  6
Continuous
 62
     7
100
AcDbLine
 10
220.902348236
 20
211.2058429374
 30
0.0
 11
221.902348236
 21
210.7058429374
 31
0.0
  0
LINE
  5
18B
330
16F
100
AcDbEntity
  8
GEHÄUSEHÄLFTE_HI
  6
Continuous
 62
     7
100
AcDbLine
 10
221.402348236
 20
211.7058429374
 30
0.0
 11
221.902348236
 21
210.7058429374
 31
0.0
  0
LINE
  5
18C
330
16F
100
AcDbEntity
  8
GEHÄUSEHÄLFTE_HI
  6
Continuous
 62
     7
100
AcDbLine
 10
227.002348236
 20
87.7058429374
 30
0.0
 11
227.002348236
 21
102.2058429374
 31
0.0
  0
LINE
  5
18D
330
16F
100
AcDbEntity
  8
GEHÄUSEHÄLFTE_HI
  6
Continuous
 62
     7
100
AcDbLine
 10
227.002348236
 20
87.7058429374
 30
0.0
 11
291.502348236
 21
87.7058429374
 31
0.0
  0
LINE
  5
18E
330
16F
100
AcDbEntity
  8
GEHÄUSEHÄLFTE_HI
  6
Continuous
 62
     7
100
AcDbLine
 10
291.502348236
 20
87.7058429374
 30
0.0
 11
291.502348236
 21
86.7058429374
 31
0.0
  0
LINE
  5
18F
330
16F
100
AcDbEntity
  8
GEHÄUSEHÄLFTE_HI
  6
Continuous
 62
     7
100
AcDbLine
 10
291.502348236
 20
86.7058429374
 30
0.0
 11
227.002348236
 21
86.7058429374
 31
0.0
  0
LINE
  5
190
330
16F
100
AcDbEntity
  8
GEHÄUSEHÄLFTE_HI
  6
Continuous
 62
     7
100
AcDbLine
 10
227.002348236
 20
86.7058429374
 30
0.0
 11
227.002348236
 21
87.7058429374
 31
0.0
  0
LINE
  5
191
330
16F
100
AcDbEntity
  8
GEHÄUSEHÄLFTE_HI
  6
Continuous
 62
     7
100
AcDbLine
 10
216.502348236
 20
188.6058429374
 30
0.0
 11
216.502348236
 21
162.2058429374
 31
0.0
  0
ARC
  5
192
330
16F
100
AcDbEntity
  8
GEHÄUSEHÄLFTE_HI
  6
Continuous
 62
     7
100
AcDbCircle
 10
216.502348236
 20
163.2058429374
 30
0.0
 40
1.000000000000001
100
AcDbArc
 50
180.0
 51
270.0
  0
LINE
  5
193
330
16F
100
AcDbEntity
  8
GEHÄUSEHÄLFTE_HI
  6
Continuous
 62
     7
100
AcDbLine
 10
215.502348236
 20
163.2058429374
 30
0.0
 11
215.502348236
 21
187.6058429374
 31
0.0
  0
ARC
  5
194
330
16F
100
AcDbEntity
  8
GEHÄUSEHÄLFTE_HI
  6
Continuous
 62
     7
100
AcDbCircle
 10
216.502348236
 20
187.6058429374
 30
0.0
 40
1.000000000000001
100
AcDbArc
 50
90.0
 51
180.0
  0
LINE
  5
195
330
16F
100
AcDbEntity
  8
GEHÄUSEHÄLFTE_HI
  6
Continuous
 62
     7
100
AcDbLine
 10
216.502348236
 20
146.2058429374
 30
0.0
 11
216.502348236
 21
104.5058429374
 31
0.0
  0
ARC
  5
196
330
16F
100
AcDbEntity
  8
GEHÄUSEHÄLFTE_HI
  6
Continuous
 62
     7
100
AcDbCircle
 10
216.502348236
 20
105.5058429374
 30
0.0
 40
0.999999999999994
100
AcDbArc
 50
180.0
 51
270.0
  0
LINE
  5
197
330
16F
100
AcDbEntity
  8
GEHÄUSEHÄLFTE_HI
  6
Continuous
 62
     7
100
AcDbLine
 10
215.502348236
 20
105.5058429374
 30
0.0
 11
215.502348236
 21
145.2058429374
 31
0.0
  0
ARC
  5
198
330
16F
100
AcDbEntity
  8
GEHÄUSEHÄLFTE_HI
  6
Continuous
 62
     7
100
AcDbCircle
 10
216.502348236
 20
145.2058429374
 30
0.0
 40
1.000000000000001
100
AcDbArc
 50
90.0
 51
180.0
  0
ARC
  5
199
330
16F
100
AcDbEntity
  8
GEHÄUSEHÄLFTE_HI
  6
Continuous
 62
     7
100
AcDbCircle
 10
234.558598236
 20
200.5058429374
 30
0.0
 40
7.756250000000025
100
AcDbArc
 50
166.9603964967
 51
193.0396035033
  0
LINE
  5
19A
330
16F
100
AcDbEntity
  8
GEHÄUSEHÄLFTE_HI
  6
Continuous
 62
     7
100
AcDbLine
 10
224.0755533168
 20
193.5058429374
 30
0.0
 11
227.002348236
 21
193.5058429374
 31
0.0
  0
ARC
  5
19B
330
16F
100
AcDbEntity
  8
GEHÄUSEHÄLFTE_HI
  6
Continuous
 62
     7
100
AcDbCircle
 10
224.0755533168
 20
193.2058429374
 30
0.0
 40
0.3000000000000017
100
AcDbArc
 50
90.0
 51
150.0
  0
ARC
  5
19C
330
16F
100
AcDbEntity
  8
GEHÄUSEHÄLFTE_VO
  6
Continuous
 62
     7
100
AcDbCircle
 10
329.502348236
 20
166.6058429374
 30
0.0
 40
4.500000000000001
100
AcDbArc
 50
90.0
 51
180.0
  0
LINE
  5
19D
330
16F
100
AcDbEntity
  8
GEHÄUSEHÄLFTE_VO
  6
Continuous
 62
     7
100
AcDbLine
 10
325.002348236
 20
166.6058429374
 30
0.0
 11
325.002348236
 21
141.7058429374
 31
0.0
  0
ARC
  5
19E
330
16F
100
AcDbEntity
  8
GEHÄUSEHÄLFTE_VO
  6
Continuous
 62
     7
100
AcDbCircle
 10
329.502348236
 20
141.7058429374
 30
0.0
 40
4.499999999999997
100
AcDbArc
 50
180.0
 51
270.0
  0
LINE
  5
19F
330
16F
100
AcDbEntity
  8
GEHÄUSEHÄLFTE_VO
  6
Continuous
 62
     7
100
AcDbLine
 10
329.502348236
 20
137.2058429374
 30
0.0
 11
330.602348236
 21
137.2058429374
 31
0.0
  0
LINE
  5
1A0
330
16F
100
AcDbEntity
  8
GEHÄUSEHÄLFTE_VO
  6
Continuous
 62
     7
100
AcDbLine
 10
332.402348236
 20
171.1058429374
 30
0.0
 11
332.402348236
 21
169.058235852
 31
0.0
  0
ARC
  5
1A1
330
16F
100
AcDbEntity
  8
GEHÄUSEHÄLFTE_VO
  6
Continuous
 62
     7
100
AcDbCircle
 10
330.702348236
 20
169.7058429374
 30
0.0
 40
0.6
100
AcDbArc
 50
28.0596507803
 51
109.5304929762
  0
LINE
  5
1A2
330
16F
100
AcDbEntity
  8
GEHÄUSEHÄLFTE_VO
  6
Continuous
 62
     7
100
AcDbLine
 10
332.402348236
 20
163.2058429374
 30
0.0
 11
332.402348236
 21
159.9952036889
 31
0.0
  0
LINE
  5
1A3
330
16F
100
AcDbEntity
  8
GEHÄUSEHÄLFTE_VO
  6
Continuous
 62
     7
100
AcDbLine
 10
331.902348236
 20
169.5498110973
 30
0.0
 11
331.902348236
 21
171.1058429374
 31
0.0
  0
ARC
  5
1A4
330
16F
100
AcDbEntity
  8
GEHÄUSEHÄLFTE_VO
  6
Continuous
 62
     7
100
AcDbCircle
 10
331.8009980603
 20
163.7058429374
 30
0.0
 40
0.9999999999999996
100
AcDbArc
 50
260.726333634
 51
270.0
  0
LINE
  5
1A5
330
16F
100
AcDbEntity
  8
GEHÄUSEHÄLFTE_VO
  6
Continuous
 62
     7
100
AcDbLine
 10
331.8009980603
 20
162.7058429374
 30
0.0
 11
331.902348236
 21
162.7058429374
 31
0.0
  0
LINE
  5
1A6
330
16F
100
AcDbEntity
  8
GEHÄUSEHÄLFTE_VO
  6
Continuous
 62
     7
100
AcDbLine
 10
332.402348236
 20
163.2058429374
 30
0.0
 11
332.402348236
 21
163.8078764949
 31
0.0
  0
LINE
  5
1A7
330
16F
100
AcDbEntity
  8
GEHÄUSEHÄLFTE_VO
  6
Continuous
 62
     7
100
AcDbLine
 10
331.9807998009
 20
163.2058429374
 30
0.0
 11
332.402348236
 21
163.2058429374
 31
0.0
  0
ARC
  5
1A8
330
16F
100
AcDbEntity
  8
GEHÄUSEHÄLFTE_VO
  6
Continuous
 62
     7
100
AcDbCircle
 10
331.902348236
 20
163.2058429374
 30
0.0
 40
0.5000000000000004
100
AcDbArc
 50
270.0
 51
360.0
  0
LINE
  5
1A9
330
16F
100
AcDbEntity
  8
GEHÄUSEHÄLFTE_VO
  6
Continuous
 62
     7
100
AcDbLine
 10
331.8009980603
 20
162.94905944
 30
0.0
 11
331.8009980603
 21
162.7058429374
 31
0.0
  0
LINE
  5
1AA
330
16F
100
AcDbEntity
  8
GEHÄUSEHÄLFTE_VO
  6
Continuous
 62
     7
100
AcDbLine
 10
291.502348236
 20
211.7058429374
 30
0.0
 11
331.402348236
 21
211.7058429374
 31
0.0
  0
LINE
  5
1AB
330
16F
100
AcDbEntity
  8
GEHÄUSEHÄLFTE_VO
  6
Continuous
 62
     7
100
AcDbLine
 10
291.502348236
 20
210.7058429374
 30
0.0
 11
291.502348236
 21
87.7058429374
 31
0.0
  0
LINE
  5
1AC
330
16F
100
AcDbEntity
  8
GEHÄUSEHÄLFTE_VO
  6
Continuous
 62
     7
100
AcDbLine
 10
291.502348236
 20
210.7058429374
 30
0.0
 11
291.502348236
 21
211.7058429374
 31
0.0
  0
LINE
  5
1AD
330
16F
100
AcDbEntity
  8
GEHÄUSEHÄLFTE_VO
  6
Continuous
 62
     7
100
AcDbLine
 10
332.402348236
 20
210.7058429374
 30
0.0
 11
332.402348236
 21
171.1058429374
 31
0.0
  0
LINE
  5
1AE
330
16F
100
AcDbEntity
  8
GEHÄUSEHÄLFTE_VO
  6
Continuous
 62
     7
100
AcDbLine
 10
331.402348236
 20
171.1058429374
 30
0.0
 11
329.502348236
 21
171.1058429374
 31
0.0
  0
LINE
  5
1AF
330
16F
100
AcDbEntity
  8
GEHÄUSEHÄLFTE_VO
  6
Continuous
 62
     7
100
AcDbLine
 10
331.402348236
 20
171.1058429374
 30
0.0
 11
331.402348236
 21
210.7058429374
 31
0.0
  0
LINE
  5
1B0
330
16F
100
AcDbEntity
  8
GEHÄUSEHÄLFTE_VO
  6
Continuous
 62
     7
100
AcDbLine
 10
331.402348236
 20
210.7058429374
 30
0.0
 11
291.502348236
 21
210.7058429374
 31
0.0
  0
LINE
  5
1B1
330
16F
100
AcDbEntity
  8
GEHÄUSEHÄLFTE_VO
  6
Continuous
 62
     7
100
AcDbLine
 10
332.402348236
 20
171.1058429374
 30
0.0
 11
331.402348236
 21
171.1058429374
 31
0.0
  0
LINE
  5
1B2
330
16F
100
AcDbEntity
  8
GEHÄUSEHÄLFTE_VO
  6
Continuous
 62
     7
100
AcDbLine
 10
331.402348236
 20
210.7058429374
 30
0.0
 11
332.402348236
 21
210.7058429374
 31
0.0
  0
LINE
  5
1B3
330
16F
100
AcDbEntity
  8
GEHÄUSEHÄLFTE_VO
  6
Continuous
 62
     7
100
AcDbLine
 10
331.402348236
 20
211.7058429374
 30
0.0
 11
331.402348236
 21
210.7058429374
 31
0.0
  0
ARC
  5
1B4
330
16F
100
AcDbEntity
  8
GEHÄUSEHÄLFTE_VO
  6
Continuous
 62
     7
100
AcDbCircle
 10
331.402348236
 20
210.7058429374
 30
0.0
 40
1.000000000000001
100
AcDbArc
 50
0.0
 51
90.0
  0
LINE
  5
1B5
330
16F
100
AcDbEntity
  8
GEHÄUSEHÄLFTE_VO
  6
Continuous
 62
     7
100
AcDbLine
 10
331.902348236
 20
160.345307458
 30
0.0
 11
331.902348236
 21
162.7058429374
 31
0.0
  0
LINE
  5
1B6
330
16F
100
AcDbEntity
  8
GEHÄUSEHÄLFTE_VO
  6
Continuous
 62
     7
100
AcDbLine
 10
291.502348236
 20
86.7058429374
 30
0.0
 11
291.502348236
 21
87.7058429374
 31
0.0
  0
LINE
  5
1B7
330
16F
100
AcDbEntity
  8
GEHÄUSEHÄLFTE_VO
  6
Continuous
 62
     7
100
AcDbLine
 10
330.602348236
 20
87.7058429374
 30
0.0
 11
330.602348236
 21
137.2058429374
 31
0.0
  0
LINE
  5
1B8
330
16F
100
AcDbEntity
  8
GEHÄUSEHÄLFTE_VO
  6
Continuous
 62
     7
100
AcDbLine
 10
291.502348236
 20
87.7058429374
 30
0.0
 11
330.602348236
 21
87.7058429374
 31
0.0
  0
LINE
  5
1B9
330
16F
100
AcDbEntity
  8
GEHÄUSEHÄLFTE_VO
  6
Continuous
 62
     7
100
AcDbLine
 10
329.602348236
 20
86.7058429374
 30
0.0
 11
291.502348236
 21
86.7058429374
 31
0.0
  0
ARC
  5
1BA
330
16F
100
AcDbEntity
  8
GEHÄUSEHÄLFTE_VO
  6
Continuous
 62
     7
100
AcDbCircle
 10
329.602348236
 20
87.7058429374
 30
0.0
 40
1.000000000000001
100
AcDbArc
 50
270.0
 51
360.0
  0
LINE
  5
1BB
330
16F
100
AcDbEntity
  8
GEHÄUSEHÄLFTE_VO
  6
Continuous
 62
     7
100
AcDbLine
 10
336.4738404433
 20
155.5037568653
 30
0.0
 11
332.402348236
 21
154.7858429374
 31
0.0
  0
LINE
  5
1BC
330
16F
100
AcDbEntity
  8
GEHÄUSEHÄLFTE_VO
  6
Continuous
 62
     7
100
AcDbLine
 10
336.3682988107
 20
165.2111462644
 30
0.0
 11
332.402348236
 21
165.9104503549
 31
0.0
  0
ARC
  5
1BD
330
16F
100
AcDbEntity
  8
GEHÄUSEHÄLFTE_VO
  6
Continuous
 62
     7
100
AcDbCircle
 10
336.3457245476
 20
165.0831212565
 30
0.0
 40
0.1300000000000119
100
AcDbArc
 50
32.4905019375
 51
80.0
  0
ARC
  5
1BE
330
16F
100
AcDbEntity
  8
GEHÄUSEHÄLFTE_VO
  6
Continuous
 62
     7
100
AcDbCircle
 10
329.597880518
 20
160.7858429374
 30
0.0
 40
8.130000000000011
100
AcDbArc
 50
327.5094980625
 51
32.4905019375
  0
ARC
  5
1BF
330
16F
100
AcDbEntity
  8
GEHÄUSEHÄLFTE_VO
  6
Continuous
 62
     7
100
AcDbCircle
 10
336.3457245476
 20
156.4885646183
 30
0.0
 40
0.1300000000000023
100
AcDbArc
 50
280.0
 51
327.5094980625
  0
LINE
  5
1C0
330
16F
100
AcDbEntity
  8
GEHÄUSEHÄLFTE_VO
  6
Continuous
 62
     7
100
AcDbLine
 10
332.402348236
 20
155.66123552
 30
0.0
 11
336.3682988107
 21
156.3605396104
 31
0.0
  0
ARC
  5
1C1
330
16F
100
AcDbEntity
  8
GEHÄUSEHÄLFTE_VO
  6
Continuous
 62
     7
100
AcDbCircle
 10
336.3001922657
 20
156.4885646183
 30
0.0
 40
1.0
100
AcDbArc
 50
280.0
 51
327.5094980625
  0
ARC
  5
1C2
330
16F
100
AcDbEntity
  8
GEHÄUSEHÄLFTE_VO
  6
Continuous
 62
     7
100
AcDbCircle
 10
329.552348236
 20
160.7858429374
 30
0.0
 40
9.000000000000007
100
AcDbArc
 50
327.5094980625
 51
32.4905019375
  0
ARC
  5
1C3
330
16F
100
AcDbEntity
  8
GEHÄUSEHÄLFTE_VO
  6
Continuous
 62
     7
100
AcDbCircle
 10
336.3001922657
 20
165.0831212565
 30
0.0
 40
0.9999999999999946
100
AcDbArc
 50
32.4905019375
 51
80.0
  0
LINE
  5
1C4
330
16F
100
AcDbEntity
  8
GEHÄUSEHÄLFTE_VO
  6
Continuous
 62
     7
100
AcDbLine
 10
332.402348236
 20
166.7858429374
 30
0.0
 11
336.4738404433
 21
166.0679290095
 31
0.0
  0
SPLINE
  5
1C5
330
16F
100
AcDbEntity
  8
GEHÄUSEHÄLFTE_VO
  6
Continuous
 62
     7
100
AcDbSpline
210
0.0
220
0.0
230
1.0
 70
    12
 71
     2
 72
     6
 73
     3
 74
     0
 42
0.0000000110310721
 43
0.0000000001
 40
0.0
 40
0.0
 40
0.0
 40
1.0
 40
1.0
 40
1.0
 10
336.3682988106958
 20
165.2111462644217
 30
0.0
 41
1.0
 10
336.5176020515734
 20
166.0602126572904
 30
0.0
 41
0.7103126225240747
 10
336.4738404433347
 20
166.0679290095423
 30
0.0
 41
1.0
  0
SPLINE
  5
1C6
330
16F
100
AcDbEntity
  8
GEHÄUSEHÄLFTE_VO
  6
Continuous
 62
     7
100
AcDbSpline
210
0.0
220
0.0
230
1.0
 70
    12
 71
     2
 72
     6
 73
     3
 74
     0
 42
0.0000000116956449
 43
0.0000000001
 40
0.0
 40
0.0
 40
0.0
 40
1.0
 40
1.0
 40
1.0
 10
336.4553770130806
 20
165.1529520292154
 30
0.0
 41
1.0
 10
337.1562552381207
 20
165.6005232996943
 30
0.0
 41
0.7225456244183618
 10
337.1436727693716
 20
165.6202810464172
 30
0.0
 41
1.0
  0
SPLINE
  5
1C7
330
16F
100
AcDbEntity
  8
GEHÄUSEHÄLFTE_VO
  6
Continuous
 62
     7
100
AcDbSpline
210
0.0
220
0.0
230
1.0
 70
    12
 71
     2
 72
     6
 73
     3
 74
     0
 42
0.0000000116956449
 43
0.0000000001
 40
0.0
 40
0.0
 40
0.0
 40
1.0
 40
1.0
 40
1.0
 10
337.1436727693716
 20
155.951404828449
 30
0.0
 41
1.0
 10
337.1562552381207
 20
155.9711625751719
 30
0.0
 41
0.7225456244202753
 10
336.4553770130806
 20
156.4187338456508
 30
0.0
 41
1.0
  0
SPLINE
  5
1C8
330
16F
100
AcDbEntity
  8
GEHÄUSEHÄLFTE_VO
  6
Continuous
 62
     7
100
AcDbSpline
210
0.0
220
0.0
230
1.0
 70
    12
 71
     2
 72
     6
 73
     3
 74
     0
 42
0.0000000110310721
 43
0.0000000001
 40
0.0
 40
0.0
 40
0.0
 40
1.0
 40
1.0
 40
1.0
 10
336.4738404433347
 20
155.5037568653239
 30
0.0
 41
1.0
 10
336.5176020515734
 20
155.5114732175759
 30
0.0
 41
0.7103126225242188
 10
336.3682988106958
 20
156.3605396104445
 30
0.0
 41
1.0
  0
LINE
  5
1C9
330
16F
100
AcDbEntity
  8
GEHÄUSEHÄLFTE_VO
  6
Continuous
 62
     7
100
AcDbLine
 10
291.502348236
 20
207.1058429374
 30
0.0
 11
291.2799939496
 21
207.1058429374
 31
0.0
  0
LINE
  5
1CA
330
16F
100
AcDbEntity
  8
GEHÄUSEHÄLFTE_VO
  6
Continuous
 62
     7
100
AcDbLine
 10
291.2799939496
 20
207.1058429374
 30
0.0
 11
291.2799939496
 21
162.7058429374
 31
0.0
  0
LINE
  5
1CB
330
16F
100
AcDbEntity
  8
GEHÄUSEHÄLFTE_VO
  6
Continuous
 62
     7
100
AcDbLine
 10
291.2799939496
 20
207.1058429374
 30
0.0
 11
290.702348236
 21
207.1058429374
 31
0.0
  0
LINE
  5
1CC
330
16F
100
AcDbEntity
  8
GEHÄUSEHÄLFTE_VO
  6
Continuous
 62
     7
100
AcDbLine
 10
291.502348236
 20
91.3058429374
 30
0.0
 11
291.2799939496
 21
91.3058429374
 31
0.0
  0
LINE
  5
1CD
330
16F
100
AcDbEntity
  8
GEHÄUSEHÄLFTE_VO
  6
Continuous
 62
     7
100
AcDbLine
 10
291.2799939496
 20
91.3058429374
 30
0.0
 11
290.702348236
 21
91.3058429374
 31
0.0
  0
LINE
  5
1CE
330
16F
100
AcDbEntity
  8
GEHÄUSEHÄLFTE_VO
  6
Continuous
 62
     7
100
AcDbLine
 10
291.2799939496
 20
131.7058429374
 30
0.0
 11
291.2799939496
 21
91.3058429374
 31
0.0
  0
LINE
  5
1CF
330
16F
100
AcDbEntity
  8
GEHÄUSEHÄLFTE_VO
  6
Continuous
 62
     7
100
AcDbLine
 10
291.502348236
 20
162.7058429374
 30
0.0
 11
291.2799939496
 21
162.7058429374
 31
0.0
  0
LINE
  5
1D0
330
16F
100
AcDbEntity
  8
GEHÄUSEHÄLFTE_VO
  6
Continuous
 62
     7
100
AcDbLine
 10
291.2799939496
 20
162.7058429374
 30
0.0
 11
290.702348236
 21
162.7058429374
 31
0.0
  0
LINE
  5
1D1
330
16F
100
AcDbEntity
  8
GEHÄUSEHÄLFTE_VO
  6
Continuous
 62
     7
100
AcDbLine
 10
291.502348236
 20
131.7058429374
 30
0.0
 11
291.2799939496
 21
131.7058429374
 31
0.0
  0
LINE
  5
1D2
330
16F
100
AcDbEntity
  8
GEHÄUSEHÄLFTE_VO
  6
Continuous
 62
     7
100
AcDbLine
 10
291.2799939496
 20
131.7058429374
 30
0.0
 11
290.702348236
 21
131.7058429374
 31
0.0
  0
LINE
  5
1D3
330
16F
100
AcDbEntity
  8
GEHÄUSEHÄLFTE_VO
  6
Continuous
 62
     7
100
AcDbLine
 10
290.702348236
 20
209.4558429374
 30
0.0
 11
291.502348236
 21
209.4558429374
 31
0.0
  0
LINE
  5
1D4
330
16F
100
AcDbEntity
  8
GEHÄUSEHÄLFTE_VO
  6
Continuous
 62
     7
100
AcDbLine
 10
291.302348236
 20
210.2558429374
 30
0.0
 11
291.502348236
 21
210.2558429374
 31
0.0
  0
LINE
  5
1D5
330
16F
100
AcDbEntity
  8
GEHÄUSEHÄLFTE_VO
  6
Continuous
 62
     7
100
AcDbLine
 10
290.702348236
 20
208.9058429374
 30
0.0
 11
291.302348236
 21
208.9058429374
 31
0.0
  0
LINE
  5
1D6
330
16F
100
AcDbEntity
  8
GEHÄUSEHÄLFTE_VO
  6
Continuous
 62
     7
100
AcDbLine
 10
291.302348236
 20
208.4058429374
 30
0.0
 11
290.702348236
 21
208.4058429374
 31
0.0
  0
LINE
  5
1D7
330
16F
100
AcDbEntity
  8
GEHÄUSEHÄLFTE_VO
  6
Continuous
 62
     7
100
AcDbLine
 10
291.302348236
 20
207.1058429374
 30
0.0
 11
291.302348236
 21
208.4058429374
 31
0.0
  0
LINE
  5
1D8
330
16F
100
AcDbEntity
  8
GEHÄUSEHÄLFTE_VO
  6
Continuous
 62
     7
100
AcDbLine
 10
291.302348236
 20
208.4058429374
 30
0.0
 11
291.302348236
 21
208.9058429374
 31
0.0
  0
ARC
  5
1D9
330
16F
100
AcDbEntity
  8
GEHÄUSEHÄLFTE_VO
  6
Continuous
 62
     7
100
AcDbCircle
 10
291.302348236
 20
209.1058429374
 30
0.0
 40
0.2
100
AcDbArc
 50
270.0
 51
360.0
  0
LINE
  5
1DA
330
16F
100
AcDbEntity
  8
GEHÄUSEHÄLFTE_VO
  6
Continuous
 62
     7
100
AcDbLine
 10
291.502348236
 20
208.4058429374
 30
0.0
 11
291.302348236
 21
208.4058429374
 31
0.0
  0
LINE
  5
1DB
330
16F
100
AcDbEntity
  8
GEHÄUSEHÄLFTE_VO
  6
Continuous
 62
     7
100
AcDbLine
 10
290.702348236
 20
88.9558429374
 30
0.0
 11
291.502348236
 21
88.9558429374
 31
0.0
  0
LINE
  5
1DC
330
16F
100
AcDbEntity
  8
GEHÄUSEHÄLFTE_VO
  6
Continuous
 62
     7
100
AcDbLine
 10
291.302348236
 20
88.1558429374
 30
0.0
 11
291.502348236
 21
88.1558429374
 31
0.0
  0
LINE
  5
1DD
330
16F
100
AcDbEntity
  8
GEHÄUSEHÄLFTE_VO
  6
Continuous
 62
     7
100
AcDbLine
 10
290.702348236
 20
90.0058429374
 30
0.0
 11
291.302348236
 21
90.0058429374
 31
0.0
  0
LINE
  5
1DE
330
16F
100
AcDbEntity
  8
GEHÄUSEHÄLFTE_VO
  6
Continuous
 62
     7
100
AcDbLine
 10
291.302348236
 20
89.5058429374
 30
0.0
 11
290.702348236
 21
89.5058429374
 31
0.0
  0
LINE
  5
1DF
330
16F
100
AcDbEntity
  8
GEHÄUSEHÄLFTE_VO
  6
Continuous
 62
     7
100
AcDbLine
 10
291.302348236
 20
90.0058429374
 30
0.0
 11
291.302348236
 21
91.3058429374
 31
0.0
  0
LINE
  5
1E0
330
16F
100
AcDbEntity
  8
GEHÄUSEHÄLFTE_VO
  6
Continuous
 62
     7
100
AcDbLine
 10
291.302348236
 20
89.5058429374
 30
0.0
 11
291.302348236
 21
90.0058429374
 31
0.0
  0
LINE
  5
1E1
330
16F
100
AcDbEntity
  8
GEHÄUSEHÄLFTE_VO
  6
Continuous
 62
     7
100
AcDbLine
 10
291.502348236
 20
90.0058429374
 30
0.0
 11
291.302348236
 21
90.0058429374
 31
0.0
  0
ARC
  5
1E2
330
16F
100
AcDbEntity
  8
GEHÄUSEHÄLFTE_VO
  6
Continuous
 62
     7
100
AcDbCircle
 10
291.302348236
 20
89.3058429374
 30
0.0
 40
0.2
100
AcDbArc
 50
0.0
 51
90.0
  0
LINE
  5
1E3
330
16F
100
AcDbEntity
  8
PS_307
  6
Continuous
 62
     7
100
AcDbLine
 10
332.412348236
 20
206.7037635423
 30
0.0
 11
332.412348236
 21
205.6908429374
 31
0.0
  0
LINE
  5
1E4
330
16F
100
AcDbEntity
  8
PS_307
  6
Continuous
 62
     7
100
AcDbLine
 10
332.402348236
 20
206.7037635423
 30
0.0
 11
332.412348236
 21
206.7037635423
 31
0.0
  0
LINE
  5
1E5
330
16F
100
AcDbEntity
  8
PS_307
  6
Continuous
 62
     7
100
AcDbLine
 10
332.412348236
 20
206.7566935991
 30
0.0
 11
332.402348236
 21
206.7566935991
 31
0.0
  0
LINE
  5
1E6
330
16F
100
AcDbEntity
  8
DECKEL
  6
Continuous
 62
     7
100
AcDbLine
 10
330.602348236
 20
138.4013144587
 30
0.0
 11
330.602348236
 21
87.7026300205
 31
0.0
  0
LINE
  5
1E7
330
16F
100
AcDbEntity
  8
DECKEL
  6
Continuous
 62
     7
100
AcDbLine
 10
330.602348236
 20
87.7026300205
 30
0.0
 11
330.602348236
 21
86.7026300205
 31
0.0
  0
LINE
  5
1E8
330
16F
100
AcDbEntity
  8
DECKEL
  6
Continuous
 62
     7
100
AcDbLine
 10
330.602348236
 20
87.7026300205
 30
0.0
 11
331.402348236
 21
87.7026300205
 31
0.0
  0
LINE
  5
1E9
330
16F
100
AcDbEntity
  8
DECKEL
  6
Continuous
 62
     7
100
AcDbLine
 10
330.602348236
 20
150.8026300205
 30
0.0
 11
331.402348236
 21
150.8026300205
 31
0.0
  0
LINE
  5
1EA
330
16F
100
AcDbEntity
  8
DECKEL
  6
Continuous
 62
     7
100
AcDbLine
 10
330.602348236
 20
151.8026300205
 30
0.0
 11
331.402348236
 21
151.8026300205
 31
0.0
  0
LINE
  5
1EB
330
16F
100
AcDbEntity
  8
DECKEL
  6
Continuous
 62
     7
100
AcDbLine
 10
330.602348236
 20
86.7026300205
 30
0.0
 11
331.402348236
 21
86.7026300205
 31
0.0
  0
LINE
  5
1EC
330
16F
100
AcDbEntity
  8
DECKEL
  6
Continuous
 62
     7
100
AcDbLine
 10
331.402348236
 20
152.4026300205
 30
0.0
 11
330.602348236
 21
152.4026300205
 31
0.0
  0
LINE
  5
1ED
330
16F
100
AcDbEntity
  8
DECKEL
  6
Continuous
 62
     7
100
AcDbLine
 10
330.602348236
 20
152.4026300205
 30
0.0
 11
330.602348236
 21
150.8026300205
 31
0.0
  0
ARC
  5
1EE
330
16F
100
AcDbEntity
  8
DECKEL
  6
Continuous
 62
     7
100
AcDbCircle
 10
332.003706466
 20
161.49511025
 30
0.0
 40
0.9999999999985003
100
AcDbArc
 50
145.0
 51
233.0327642364
  0
LINE
  5
1EF
330
16F
100
AcDbEntity
  8
DECKEL
  6
Continuous
 62
     7
100
AcDbLine
 10
332.402348236
 20
150.8026300205
 30
0.0
 11
332.402348236
 21
87.7026300205
 31
0.0
  0
LINE
  5
1F0
330
16F
100
AcDbEntity
  8
DECKEL
  6
Continuous
 62
     7
100
AcDbLine
 10
331.402348236
 20
86.7026300205
 30
0.0
 11
331.402348236
 21
87.7026300205
 31
0.0
  0
LINE
  5
1F1
330
16F
100
AcDbEntity
  8
DECKEL
  6
Continuous
 62
     7
100
AcDbLine
 10
331.402348236
 20
87.7026300205
 30
0.0
 11
331.402348236
 21
150.8026300205
 31
0.0
  0
LINE
  5
1F2
330
16F
100
AcDbEntity
  8
DECKEL
  6
Continuous
 62
     7
100
AcDbLine
 10
331.402348236
 20
150.8026300205
 30
0.0
 11
331.402348236
 21
151.8026300205
 31
0.0
  0
ARC
  5
1F3
330
16F
100
AcDbEntity
  8
DECKEL
  6
Continuous
 62
     7
100
AcDbCircle
 10
331.402348236
 20
150.8026300205
 30
0.0
 40
1.000000000000001
100
AcDbArc
 50
0.0
 51
90.0
  0
LINE
  5
1F4
330
16F
100
AcDbEntity
  8
DECKEL
  6
Continuous
 62
     7
100
AcDbLine
 10
332.402348236
 20
150.8026300205
 30
0.0
 11
331.402348236
 21
150.8026300205
 31
0.0
  0
LINE
  5
1F5
330
16F
100
AcDbEntity
  8
DECKEL
  6
Continuous
 62
     7
100
AcDbLine
 10
332.402348236
 20
87.7026300205
 30
0.0
 11
331.402348236
 21
87.7026300205
 31
0.0
  0
ARC
  5
1F6
330
16F
100
AcDbEntity
  8
DECKEL
  6
Continuous
 62
     7
100
AcDbCircle
 10
331.402348236
 20
87.7026300205
 30
0.0
 40
1.000000000000001
100
AcDbArc
 50
270.0
 51
360.0
  0
LINE
  5
1F7
330
16F
100
AcDbEntity
  8
DECKEL
  6
Continuous
 62
     7
100
AcDbLine
 10
332.402348236
 20
169.058235852
 30
0.0
 11
332.402348236
 21
163.8078764949
 31
0.0
  0
LINE
  5
1F8
330
16F
100
AcDbEntity
  8
DECKEL
  6
Continuous
 62
     7
100
AcDbLine
 10
331.402348236
 20
162.3797284881
 30
0.0
 11
331.1845544218
 21
162.0686866864
 31
0.0
  0
LINE
  5
1F9
330
16F
100
AcDbEntity
  8
DECKEL
  6
Continuous
 62
     7
100
AcDbLine
 10
332.402348236
 20
163.8078764949
 30
0.0
 11
331.402348236
 21
162.3797284881
 31
0.0
  0
LINE
  5
1FA
330
16F
100
AcDbEntity
  8
DECKEL
  6
Continuous
 62
     7
100
AcDbLine
 10
331.402348236
 20
162.3797284881
 30
0.0
 11
331.402348236
 21
169.3020747607
 31
0.0
  0
LINE
  5
1FB
330
16F
100
AcDbEntity
  8
DECKEL
  6
Continuous
 62
     7
100
AcDbLine
 10
332.402348236
 20
159.9952036889
 30
0.0
 11
332.402348236
 21
153.4026300205
 31
0.0
  0
ARC
  5
1FC
330
16F
100
AcDbEntity
  8
DECKEL
  6
Continuous
 62
     7
100
AcDbCircle
 10
331.402348236
 20
153.4026300205
 30
0.0
 40
1.000000000000001
100
AcDbArc
 50
270.0
 51
360.0
  0
LINE
  5
1FD
330
16F
100
AcDbEntity
  8
DECKEL
  6
Continuous
 62
     7
100
AcDbLine
 10
331.402348236
 20
152.4026300205
 30
0.0
 11
331.402348236
 21
160.6961307264
 31
0.0
  0
LINE
  5
1FE
330
16F
100
AcDbEntity
  8
DECKEL
  6
Continuous
 62
     7
100
AcDbLine
 10
331.402348236
 20
160.6961307264
 30
0.0
 11
331.4301300297
 21
160.6759582057
 31
0.0
  0
LINE
  5
1FF
330
16F
100
AcDbEntity
  8
DECKEL
  6
Continuous
 62
     7
100
AcDbLine
 10
331.4301300297
 20
160.6759582057
 30
0.0
 11
332.402348236
 21
159.9952036889
 31
0.0
  0
LINE
  5
200
330
16F
100
AcDbEntity
  8
DECKEL
  6
Continuous
 62
     7
100
AcDbLine
 10
330.602348236
 20
137.9013144587
 30
0.0
 11
329.502348236
 21
137.9013144587
 31
0.0
  0
ARC
  5
201
330
16F
100
AcDbEntity
  8
DECKEL
  6
Continuous
 62
     7
100
AcDbCircle
 10
329.4996307175
 20
166.6058429374
 30
0.0
 40
3.300000000000002
100
AcDbArc
 50
54.7895694167
 51
181.6701802863
  0
LINE
  5
202
330
16F
100
AcDbEntity
  8
DECKEL
  6
Continuous
 62
     7
100
AcDbLine
 10
326.2010326743
 20
166.5096610814
 30
0.0
 11
326.2010326743
 21
141.7026300205
 31
0.0
  0
ARC
  5
203
330
16F
100
AcDbEntity
  8
DECKEL
  6
Continuous
 62
     7
100
AcDbCircle
 10
329.502348236
 20
141.7026300205
 30
0.0
 40
3.301315561749632
100
AcDbArc
 50
180.0
 51
270.0
  0
LINE
  5
204
330
16F
100
AcDbEntity
  8
DECKEL
  6
Continuous
 62
     7
100
AcDbLine
 10
329.502348236
 20
138.4013144587
 30
0.0
 11
330.602348236
 21
138.4013144587
 31
0.0
  0
ARC
  5
205
330
16F
100
AcDbEntity
  8
DECKEL
  6
Continuous
 62
     7
100
AcDbCircle
 10
329.502348236
 20
141.7026300205
 30
0.0
 40
3.801315561749622
100
AcDbArc
 50
180.0
 51
270.0
  0
LINE
  5
206
330
16F
100
AcDbEntity
  8
DECKEL
  6
Continuous
 62
     7
100
AcDbLine
 10
325.7010326743
 20
141.7026300205
 30
0.0
 11
325.7010326743
 21
166.5026300205
 31
0.0
  0
ARC
  5
207
330
16F
100
AcDbEntity
  8
DECKEL
  6
Continuous
 62
     7
100
AcDbCircle
 10
329.6067663124
 20
166.7013352199
 30
0.0
 40
3.656536459685047
100
AcDbArc
 50
40.1335851537
 51
43.2890387108
  0
ARC
  5
208
330
16F
100
AcDbEntity
  8
DECKEL
  6
Continuous
 62
     7
100
AcDbCircle
 10
329.4996307175
 20
166.6058429374
 30
0.0
 40
3.799999999999999
100
AcDbArc
 50
43.2294596858
 51
181.5564189201
  0
SPLINE
  5
209
330
16F
100
AcDbEntity
  8
DECKEL
  6
Continuous
 62
     7
100
AcDbSpline
210
0.0
220
0.0
230
1.0
 70
     8
 71
     3
 72
    10
 73
     6
 74
     0
 42
0.0000000109626178
 43
0.0000000001
 40
0.0
 40
0.0
 40
0.0
 40
0.0
 40
0.5
 40
0.5
 40
1.0
 40
1.0
 40
1.0
 40
1.0
 10
332.2683736398217
 20
169.2085458843711
 30
0.0
 10
332.1889112057839
 20
169.2930776409025
 30
0.0
 10
332.0646693829951
 20
169.3313841980424
 30
0.0
 10
331.7560508179386
 20
169.3497234366452
 30
0.0
 10
331.5777935088957
 20
169.3299794060434
 30
0.0
 10
331.4023482360374
 20
169.3020747606611
 30
0.0
  0
LINE
  5
20A
330
16F
100
AcDbEntity
  8
DECKEL
  6
Continuous
 62
     7
100
AcDbLine
 10
326.2010326743
 20
166.5096610814
 30
0.0
 11
325.7010326743
 21
166.5026300205
 31
0.0
  0
LINE
  5
20B
330
16F
100
AcDbEntity
  8
DECKEL
  6
Continuous
 62
     7
100
AcDbLine
 10
326.2010326743
 20
141.7026300205
 30
0.0
 11
325.7010326743
 21
141.7026300205
 31
0.0
  0
LINE
  5
20C
330
16F
100
AcDbEntity
  8
DECKEL
  6
Continuous
 62
     7
100
AcDbLine
 10
329.502348236
 20
138.4013144587
 30
0.0
 11
329.502348236
 21
137.9013144587
 31
0.0
  0
LINE
  5
20D
330
16F
100
AcDbEntity
  8
DECKEL
  6
Continuous
 62
     7
100
AcDbLine
 10
328.702348236
 20
86.7058429374
 30
0.0
 11
328.702348236
 21
86.7026300205
 31
0.0
  0
LINE
  5
20E
330
16F
100
AcDbEntity
  8
DECKEL
  6
Continuous
 62
     7
100
AcDbLine
 10
326.5904683502
 20
86.7058429374
 30
0.0
 11
326.5904683502
 21
86.7026300205
 31
0.0
  0
LINE
  5
20F
330
16F
100
AcDbEntity
  8
DECKEL
  6
Continuous
 62
     7
100
AcDbLine
 10
325.4550190508
 20
86.7058429374
 30
0.0
 11
325.4550190508
 21
86.7026300205
 31
0.0
  0
LINE
  5
210
330
16F
100
AcDbEntity
  8
DECKEL
  6
Continuous
 62
     7
100
AcDbLine
 10
330.602348236
 20
86.7026300205
 30
0.0
 11
328.702348236
 21
86.7026300205
 31
0.0
  0
LINE
  5
211
330
16F
100
AcDbEntity
  8
DECKEL
  6
Continuous
 62
     7
100
AcDbLine
 10
328.702348236
 20
86.7026300205
 30
0.0
 11
326.5904683502
 21
86.7026300205
 31
0.0
  0
LINE
  5
212
330
16F
100
AcDbEntity
  8
DECKEL
  6
Continuous
 62
     7
100
AcDbLine
 10
326.5904683502
 20
86.7026300205
 30
0.0
 11
325.4550190508
 21
86.7026300205
 31
0.0
  0
LINE
  5
213
330
16F
100
AcDbEntity
  8
DECKEL
  6
Continuous
 62
     7
100
AcDbLine
 10
325.302348236
 20
86.7026300205
 30
0.0
 11
325.4550190508
 21
86.7026300205
 31
0.0
  0
LINE
  5
214
330
16F
100
AcDbEntity
  8
DECKEL
  6
Continuous
 62
     7
100
AcDbLine
 10
325.302348236
 20
86.7058429374
 30
0.0
 11
325.302348236
 21
86.7026300205
 31
0.0
  0
LINE
  5
215
330
16F
100
AcDbEntity
  8
LICHTLEITER
  6
Continuous
 62
     7
100
AcDbLine
 10
332.402348236
 20
205.7008429374
 30
0.0
 11
332.597348236
 21
205.5058429374
 31
0.0
  0
LINE
  5
216
330
16F
100
AcDbEntity
  8
LICHTLEITER
  6
Continuous
 62
     7
100
AcDbLine
 10
332.597348236
 20
191.7058429374
 30
0.0
 11
332.597348236
 21
205.5058429374
 31
0.0
  0
LINE
  5
217
330
16F
100
AcDbEntity
  8
LICHTLEITER
  6
Continuous
 62
     7
100
AcDbLine
 10
332.402348236
 20
191.5108429374
 30
0.0
 11
332.597348236
 21
191.7058429374
 31
0.0
  0
ENDBLK
  5
219
330
16F
100
AcDbEntity
  8
0
100
AcDbBlockEnd
  0
BLOCK
  5
21C
330
21B
100
AcDbEntity
  8
0
100
AcDbBlockBegin
  2
_Oblique
 70
     0
 71
     0
 10
0.0
 20
0.0
 30
0.0
  3
_Oblique
  1

  0
LINE
  5
21E
330
21B
100
AcDbEntity
  8
0
  6
ByBlock
 62
     0
370
    -2
100
AcDbLine
 10
-0.5
 20
-0.5
 30
0.0
 11
0.5
 21
0.5
 31
0.0
  0
ENDBLK
  5
21D
330
21B
100
AcDbEntity
  8
0
100
AcDbBlockEnd
  0
BLOCK
  5
220
330
21F
100
AcDbEntity
  8
0
100
AcDbBlockBegin
  2
_Dot
 70
     0
 71
     0
 10
0.0
 20
0.0
 30
0.0
  3
_Dot
  1

  0
LWPOLYLINE
  5
222
330
21F
100
AcDbEntity
  8
0
  6
ByBlock
 62
     0
100
AcDbPolyline
 90
        2
 70
     1
 43
0.5
 10
-0.25
 20
0.0
 42
1.0
 10
0.25
 20
0.0
 42
1.0
  0
LINE
  5
223
330
21F
100
AcDbEntity
  8
0
  6
ByBlock
 62
     0
370
    -2
100
AcDbLine
 10
-0.5
 20
0.0
 30
0.0
 11
-1.0
 21
0.0
 31
0.0
  0
ENDBLK
  5
221
330
21F
100
AcDbEntity
  8
0
100
AcDbBlockEnd
  0
BLOCK
  5
227
330
224
100
AcDbEntity
  8
0
100
AcDbBlockBegin
  2
_SE_FILLED
 70
     0
 71
     0
 10
0.0
 20
0.0
 30
0.0
  3
_SE_FILLED
  1

  0
SOLID
  5
225
330
224
100
AcDbEntity
  8
0
 62
     0
100
AcDbTrace
 10
0.0
 20
0.0
 30
0.0
 11
-1.0
 21
-0.1665
 31
0.0
 12
-1.0
 22
0.1665
 32
0.0
 13
0.0
 23
0.0
 33
0.0
  0
LINE
  5
226
330
224
100
AcDbEntity
  8
0
 62
     0
100
AcDbLine
 10
0.0
 20
0.0
 30
0.0
 11
-1.0
 21
0.0
 31
0.0
  0
ENDBLK
  5
228
330
224
100
AcDbEntity
  8
0
100
AcDbBlockEnd
  0
BLOCK
  5
233
330
22C
100
AcDbEntity
  8
0
100
AcDbBlockBegin
  2
DMBLK23
 70
     0
 71
     0
 10
0.0
 20
0.0
 30
0.0
  3
DMBLK23
  1

  0
HATCH
  5
22D
330
22C
100
AcDbEntity
  8
Default
  6
Continuous
 62
     7
370
    15
100
AcDbHatch
 10
0.0
 20
0.0
 30
0.0
210
0.0
220
0.0
230
1.0
  2
SOLID
 70
     1
 71
     0
 91
        1
 92
        1
 93
        3
 72
     1
 10
91.8045541960829
 20
224.6562436607018
 11
86.80455430784161
 21
223.8229103459949
 72
     1
 10
86.80455430784161
 20
223.8229103459949
 11
91.8045541960829
 21
222.989577031288
 72
     1
 10
91.8045541960829
 20
222.989577031288
 11
91.8045541960829
 21
224.6562436607018
 97
        0
 75
     0
 76
     1
 98
        0
  0
HATCH
  5
22E
330
22C
100
AcDbEntity
  8
Default
  6
Continuous
 62
     7
370
    15
100
AcDbHatch
 10
0.0
 20
0.0
 30
0.0
210
0.0
220
0.0
230
1.0
  2
SOLID
 70
     1
 71
     0
 91
        1
 92
        1
 93
        3
 72
     1
 10
141.8045530784958
 20
224.6562436607018
 11
141.8045530784958
 21
222.989577031288
 72
     1
 10
141.8045530784958
 20
222.989577031288
 11
146.8045529667371
 21
223.8229103459949
 72
     1
 10
146.8045529667371
 20
223.8229103459949
 11
141.8045530784958
 21
224.6562436607018
 97
        0
 75
     0
 76
     1
 98
        0
  0
LINE
  5
22F
330
22C
100
AcDbEntity
  8
Default
  6
Continuous
 62
     7
370
    15
100
AcDbLine
 10
86.8045543078
 20
190.9058429374
 30
0.0
 11
86.8045543078
 21
226.3229102901
 31
0.0
  0
LINE
  5
230
330
22C
100
AcDbEntity
  8
Default
  6
Continuous
 62
     7
370
    15
100
AcDbLine
 10
146.8045543078
 20
210.7058429374
 30
0.0
 11
146.8045543078
 21
226.3229102901
 31
0.0
  0
LINE
  5
231
330
22C
100
AcDbEntity
  8
Default
  6
Continuous
 62
     7
370
    15
100
AcDbLine
 10
86.8045543078
 20
223.822910346
 30
0.0
 11
146.8045529667
 21
223.822910346
 31
0.0
  0
TEXT
  5
232
330
22C
100
AcDbEntity
  8
Default
  6
Continuous
 62
     7
370
    15
100
AcDbText
 10
113.7931900009
 20
225.072910346
 30
0.0
 40
5.0
  1
60
  7
SEACAD_seiso_ttf
 11
113.7931900009
 21
230.072910346
 31
0.0
100
AcDbText
 73
     3
  0
ENDBLK
  5
234
330
22C
100
AcDbEntity
  8
0
100
AcDbBlockEnd
  0
BLOCK
  5
23D
330
236
100
AcDbEntity
  8
0
100
AcDbBlockBegin
  2
DMBLK24
 70
     0
 71
     0
 10
0.0
 20
0.0
 30
0.0
  3
DMBLK24
  1

  0
HATCH
  5
237
330
236
100
AcDbEntity
  8
Default
  6
Continuous
 62
     7
370
    15
100
AcDbHatch
 10
0.0
 20
0.0
 30
0.0
210
0.0
220
0.0
230
1.0
  2
SOLID
 70
     1
 71
     0
 91
        1
 92
        1
 93
        3
 72
     1
 10
69.56611896369195
 20
206.7058430491919
 11
71.2327855931057
 21
206.7058430491919
 72
     1
 10
71.23278559310572
 20
206.7058430491919
 11
70.39945227839884
 21
211.7058429374331
 72
     1
 10
70.39945227839883
 20
211.7058429374331
 11
69.56611896369195
 21
206.7058430491919
 97
        0
 75
     0
 76
     1
 98
        0
  0
HATCH
  5
238
330
236
100
AcDbEntity
  8
Default
  6
Continuous
 62
     7
370
    15
100
AcDbHatch
 10
0.0
 20
0.0
 30
0.0
210
0.0
220
0.0
230
1.0
  2
SOLID
 70
     1
 71
     0
 91
        1
 92
        1
 93
        3
 72
     1
 10
69.56611896369195
 20
91.70262417485655
 11
70.39945227839883
 21
86.70262428661526
 72
     1
 10
70.39945227839883
 20
86.70262428661526
 11
71.2327855931057
 21
91.70262417485655
 72
     1
 10
71.23278559310572
 20
91.70262417485655
 11
69.56611896369196
 21
91.70262417485655
 97
        0
 75
     0
 76
     1
 98
        0
  0
LINE
  5
239
330
236
100
AcDbEntity
  8
Default
  6
Continuous
 62
     7
370
    15
100
AcDbLine
 10
87.8045543078
 20
211.7058429374
 30
0.0
 11
67.8994523343
 21
211.7058429374
 31
0.0
  0
LINE
  5
23A
330
236
100
AcDbEntity
  8
Default
  6
Continuous
 62
     7
370
    15
100
AcDbLine
 10
87.8045543078
 20
86.7026300205
 30
0.0
 11
67.8994523343
 21
86.7026300205
 31
0.0
  0
LINE
  5
23B
330
236
100
AcDbEntity
  8
Default
  6
Continuous
 62
     7
370
    15
100
AcDbLine
 10
70.3994522784
 20
211.7058429374
 30
0.0
 11
70.3994522784
 21
86.7026242866
 31
0.0
  0
TEXT
  5
23C
330
236
100
AcDbEntity
  8
Default
  6
Continuous
 62
     7
370
    15
100
AcDbText
 10
69.1494522784
 20
145.2269608848
 30
0.0
 40
5.0
  1
125
 50
90.0
  7
SEACAD_seiso_ttf
 11
64.1494522784
 21
145.2269608848
 31
0.0
100
AcDbText
 73
     3
  0
ENDBLK
  5
23E
330
236
100
AcDbEntity
  8
0
100
AcDbBlockEnd
  0
BLOCK
  5
247
330
240
100
AcDbEntity
  8
0
100
AcDbBlockBegin
  2
DMBLK25
 70
     0
 71
     0
 10
0.0
 20
0.0
 30
0.0
  3
DMBLK25
  1

  0
HATCH
  5
241
330
240
100
AcDbEntity
  8
Default
  6
Continuous
 62
     7
370
    15
100
AcDbHatch
 10
0.0
 20
0.0
 30
0.0
210
0.0
220
0.0
230
1.0
  2
SOLID
 70
     1
 71
     0
 91
        1
 92
        1
 93
        3
 72
     1
 10
232.0023481242787
 20
226.7287983861103
 11
227.0023482360374
 21
225.8954650714034
 72
     1
 10
227.0023482360374
 20
225.8954650714034
 11
232.0023481242787
 21
225.0621317566965
 72
     1
 10
232.0023481242787
 20
225.0621317566965
 11
232.0023481242787
 21
226.7287983861103
 97
        0
 75
     0
 76
     1
 98
        0
  0
HATCH
  5
242
330
240
100
AcDbEntity
  8
Default
  6
Continuous
 62
     7
370
    15
100
AcDbHatch
 10
0.0
 20
0.0
 30
0.0
210
0.0
220
0.0
230
1.0
  2
SOLID
 70
     1
 71
     0
 91
        1
 92
        1
 93
        3
 72
     1
 10
333.5523516379725
 20
226.7287983861103
 11
333.5523516379725
 21
225.0621317566965
 72
     1
 10
333.5523516379725
 20
225.0621317566965
 11
338.5523515262138
 21
225.8954650714034
 72
     1
 10
338.5523515262138
 20
225.8954650714034
 11
333.5523516379725
 21
226.7287983861103
 97
        0
 75
     0
 76
     1
 98
        0
  0
LINE
  5
243
330
240
100
AcDbEntity
  8
Default
  6
Continuous
 62
     7
370
    15
100
AcDbLine
 10
227.002348236
 20
200.3308429374
 30
0.0
 11
227.002348236
 21
228.3954650155
 31
0.0
  0
LINE
  5
244
330
240
100
AcDbEntity
  8
Default
  6
Continuous
 62
     7
370
    15
100
AcDbLine
 10
338.552348236
 20
160.7858429374
 30
0.0
 11
338.552348236
 21
228.3954650155
 31
0.0
  0
LINE
  5
245
330
240
100
AcDbEntity
  8
Default
  6
Continuous
 62
     7
370
    15
100
AcDbLine
 10
227.002348236
 20
225.8954650714
 30
0.0
 11
338.5523515262
 21
225.8954650714
 31
0.0
  0
TEXT
  5
246
330
240
100
AcDbEntity
  8
Default
  6
Continuous
 62
     7
370
    15
100
AcDbText
 10
277.7205316993
 20
227.1454650714
 30
0.0
 40
5.0
  1
111,6
  7
SEACAD_seiso_ttf
 11
277.7205316993
 21
232.1454650714
 31
0.0
100
AcDbText
 73
     3
  0
ENDBLK
  5
248
330
240
100
AcDbEntity
  8
0
100
AcDbBlockEnd
  0
BLOCK
  5
251
330
24A
100
AcDbEntity
  8
0
100
AcDbBlockBegin
  2
DMBLK26
 70
     0
 71
     0
 10
0.0
 20
0.0
 30
0.0
  3
DMBLK26
  1

  0
HATCH
  5
24B
330
24A
100
AcDbEntity
  8
Default
  6
Continuous
 62
     7
370
    15
100
AcDbHatch
 10
0.0
 20
0.0
 30
0.0
210
0.0
220
0.0
230
1.0
  2
SOLID
 70
     1
 71
     0
 91
        1
 92
        1
 93
        3
 72
     1
 10
220.5023481242787
 20
237.0169356670513
 11
215.5023482360374
 21
236.1836023523444
 72
     1
 10
215.5023482360374
 20
236.1836023523444
 11
220.5023481242787
 21
235.3502690376375
 72
     1
 10
220.5023481242787
 20
235.3502690376375
 11
220.5023481242787
 21
237.0169356670513
 97
        0
 75
     0
 76
     1
 98
        0
  0
HATCH
  5
24C
330
24A
100
AcDbEntity
  8
Default
  6
Continuous
 62
     7
370
    15
100
AcDbHatch
 10
0.0
 20
0.0
 30
0.0
210
0.0
220
0.0
230
1.0
  2
SOLID
 70
     1
 71
     0
 91
        1
 92
        1
 93
        3
 72
     1
 10
333.5523451410662
 20
237.0169356670513
 11
333.5523451410662
 21
235.3502690376375
 72
     1
 10
333.5523451410662
 20
235.3502690376375
 11
338.5523450293075
 21
236.1836023523444
 72
     1
 10
338.5523450293075
 20
236.1836023523444
 11
333.5523451410662
 21
237.0169356670513
 97
        0
 75
     0
 76
     1
 98
        0
  0
LINE
  5
24D
330
24A
100
AcDbEntity
  8
Default
  6
Continuous
 62
     7
370
    15
100
AcDbLine
 10
215.502348236
 20
187.6058429374
 30
0.0
 11
215.502348236
 21
238.6836022965
 31
0.0
  0
LINE
  5
24E
330
24A
100
AcDbEntity
  8
Default
  6
Continuous
 62
     7
370
    15
100
AcDbLine
 10
338.552348236
 20
160.7858429374
 30
0.0
 11
338.552348236
 21
238.6836022965
 31
0.0
  0
LINE
  5
24F
330
24A
100
AcDbEntity
  8
Default
  6
Continuous
 62
     7
370
    15
100
AcDbLine
 10
215.502348236
 20
236.1836023523
 30
0.0
 11
338.5523450293
 21
236.1836023523
 31
0.0
  0
TEXT
  5
250
330
24A
100
AcDbEntity
  8
Default
  6
Continuous
 62
     7
370
    15
100
AcDbText
 10
273.163710269
 20
237.4336023523
 30
0.0
 40
5.0
  1
123
  7
SEACAD_seiso_ttf
 11
273.163710269
 21
242.4336023523
 31
0.0
100
AcDbText
 73
     3
  0
ENDBLK
  5
252
330
24A
100
AcDbEntity
  8
0
100
AcDbBlockEnd
  0
BLOCK
  5
25B
330
254
100
AcDbEntity
  8
0
100
AcDbBlockBegin
  2
DMBLK27
 70
     0
 71
     0
 10
0.0
 20
0.0
 30
0.0
  3
DMBLK27
  1

  0
HATCH
  5
255
330
254
100
AcDbEntity
  8
Default
  6
Continuous
 62
     7
370
    15
100
AcDbHatch
 10
0.0
 20
0.0
 30
0.0
210
0.0
220
0.0
230
1.0
  2
SOLID
 70
     1
 71
     0
 91
        1
 92
        1
 93
        3
 72
     1
 10
199.4797945018044
 20
206.7058430491919
 11
201.1464611312182
 21
206.7058430491919
 72
     1
 10
201.1464611312182
 20
206.7058430491919
 11
200.3131278165113
 21
211.7058429374331
 72
     1
 10
200.3131278165113
 20
211.7058429374331
 11
199.4797945018044
 21
206.7058430491919
 97
        0
 75
     0
 76
     1
 98
        0
  0
HATCH
  5
256
330
254
100
AcDbEntity
  8
Default
  6
Continuous
 62
     7
370
    15
100
AcDbHatch
 10
0.0
 20
0.0
 30
0.0
210
0.0
220
0.0
230
1.0
  2
SOLID
 70
     1
 71
     0
 91
        1
 92
        1
 93
        3
 72
     1
 10
199.4797945018044
 20
198.5058420776361
 11
200.3131278165113
 21
193.5058421893949
 72
     1
 10
200.3131278165113
 20
193.5058421893949
 11
201.1464611312182
 21
198.5058420776361
 72
     1
 10
201.1464611312182
 20
198.5058420776361
 11
199.4797945018044
 21
198.5058420776361
 97
        0
 75
     0
 76
     1
 98
        0
  0
LINE
  5
257
330
254
100
AcDbEntity
  8
Default
  6
Continuous
 62
     7
370
    15
100
AcDbLine
 10
221.402348236
 20
211.7058429374
 30
0.0
 11
197.8131278724
 21
211.7058429374
 31
0.0
  0
LINE
  5
258
330
254
100
AcDbEntity
  8
Default
  6
Continuous
 62
     7
370
    15
100
AcDbLine
 10
227.002348236
 20
193.5058429374
 30
0.0
 11
197.8131278724
 21
193.5058429374
 31
0.0
  0
LINE
  5
259
330
254
100
AcDbEntity
  8
Default
  6
Continuous
 62
     7
370
    15
100
AcDbLine
 10
200.3131278165
 20
211.7058429374
 30
0.0
 11
200.3131278165
 21
193.5058421894
 31
0.0
  0
TEXT
  5
25A
330
254
100
AcDbEntity
  8
Default
  6
Continuous
 62
     7
370
    15
100
AcDbText
 10
199.0631278165
 20
198.0035698361
 30
0.0
 40
5.0
  1
18,2
 50
90.0
  7
SEACAD_seiso_ttf
 11
194.0631278165
 21
198.0035698361
 31
0.0
100
AcDbText
 73
     3
  0
ENDBLK
  5
25C
330
254
100
AcDbEntity
  8
0
100
AcDbBlockEnd
  0
BLOCK
  5
265
330
25E
100
AcDbEntity
  8
0
100
AcDbBlockBegin
  2
DMBLK28
 70
     0
 71
     0
 10
0.0
 20
0.0
 30
0.0
  3
DMBLK28
  1

  0
HATCH
  5
25F
330
25E
100
AcDbEntity
  8
Default
  6
Continuous
 62
     7
370
    15
100
AcDbHatch
 10
0.0
 20
0.0
 30
0.0
210
0.0
220
0.0
230
1.0
  2
SOLID
 70
     1
 71
     0
 91
        1
 92
        1
 93
        3
 72
     1
 10
220.5023481242787
 20
70.34438420549372
 11
220.5023481242787
 21
72.01105083490748
 72
     1
 10
220.5023481242787
 20
72.01105083490748
 11
215.5023482360374
 21
71.1777175202006
 72
     1
 10
215.5023482360374
 20
71.1777175202006
 11
220.5023481242787
 21
70.34438420549372
 97
        0
 75
     0
 76
     1
 98
        0
  0
HATCH
  5
260
330
25E
100
AcDbEntity
  8
Default
  6
Continuous
 62
     7
370
    15
100
AcDbHatch
 10
0.0
 20
0.0
 30
0.0
210
0.0
220
0.0
230
1.0
  2
SOLID
 70
     1
 71
     0
 91
        1
 92
        1
 93
        3
 72
     1
 10
327.402345343722
 20
70.34438420549372
 11
332.4023452319633
 21
71.1777175202006
 72
     1
 10
332.4023452319633
 20
71.1777175202006
 11
327.402345343722
 21
72.01105083490748
 72
     1
 10
327.402345343722
 20
72.01105083490748
 11
327.402345343722
 21
70.34438420549372
 97
        0
 75
     0
 76
     1
 98
        0
  0
LINE
  5
261
330
25E
100
AcDbEntity
  8
Default
  6
Continuous
 62
     7
370
    15
100
AcDbLine
 10
215.502348236
 20
105.5058429374
 30
0.0
 11
215.502348236
 21
68.6777175761
 31
0.0
  0
LINE
  5
262
330
25E
100
AcDbEntity
  8
Default
  6
Continuous
 62
     7
370
    15
100
AcDbLine
 10
332.402348236
 20
87.7026300205
 30
0.0
 11
332.402348236
 21
68.6777175761
 31
0.0
  0
LINE
  5
263
330
25E
100
AcDbEntity
  8
Default
  6
Continuous
 62
     7
370
    15
100
AcDbLine
 10
215.502348236
 20
71.1777175202
 30
0.0
 11
332.402345232
 21
71.1777175202
 31
0.0
  0
TEXT
  5
264
330
25E
100
AcDbEntity
  8
Default
  6
Continuous
 62
     7
370
    15
100
AcDbText
 10
270.3159830976
 20
72.4277175202
 30
0.0
 40
5.0
  1
117
  7
SEACAD_seiso_ttf
 11
270.3159830976
 21
77.4277175202
 31
0.0
100
AcDbText
 73
     3
  0
ENDBLK
  5
266
330
25E
100
AcDbEntity
  8
0
100
AcDbBlockEnd
  0
ENDSEC
  0
SECTION
  2
ENTITIES
  0
INSERT
  5
2C
330
1F
100
AcDbEntity
  8
Default
100
AcDbBlockReference
  2
SE
 10
0.0
 20
0.0
 30
0.0
  0
INSERT
  5
170
330
1F
100
AcDbEntity
  8
Default
100
AcDbBlockReference
  2
SE1
 10
0.0
 20
0.0
 30
0.0
  0
DIMENSION
  5
22B
330
1F
100
AcDbEntity
  8
Default
  6
Continuous
 62
     7
100
AcDbDimension
  2
DMBLK23
 10
146.8045543078
 20
223.822910346
 30
0.0
 11
116.8045536373
 21
223.822910346
 31
0.0
 70
   160
  1
\A1;<>
 71
     5
 42
-1.0
  3
Siemens
100
AcDbAlignedDimension
 13
86.8045543078
 23
190.9058429374
 33
0.0
 14
146.8045543078
 24
210.7058429374
 34
0.0
100
AcDbRotatedDimension
  0
DIMENSION
  5
235
330
1F
100
AcDbEntity
  8
Default
  6
Continuous
 62
     7
370
    15
100
AcDbDimension
  2
DMBLK24
 10
70.3994522784
 20
211.7058429374
 30
0.0
 11
70.3994522784
 21
149.204233612
 31
0.0
 70
   161
  1
\A1;<>
 71
     5
 42
-1.0
  3
Siemens
100
AcDbAlignedDimension
 13
87.8045543078
 23
211.7058429374
 33
0.0
 14
87.8045543078
 24
86.7026300205
 34
0.0
  0
DIMENSION
  5
23F
330
1F
100
AcDbEntity
  8
Default
  6
Continuous
 62
     7
370
    15
100
AcDbDimension
  2
DMBLK25
 10
338.552348236
 20
225.8954650714
 30
0.0
 11
282.7773498811
 21
225.8954650714
 31
0.0
 70
   160
  1
\A1;<>
 71
     5
 42
-1.0
  3
Siemens
100
AcDbAlignedDimension
 13
227.002348236
 23
200.3308429374
 33
0.0
 14
338.552348236
 24
160.7858429374
 34
0.0
100
AcDbRotatedDimension
  0
DIMENSION
  5
249
330
1F
100
AcDbEntity
  8
Default
  6
Continuous
 62
     7
370
    15
100
AcDbDimension
  2
DMBLK26
 10
338.552348236
 20
236.1836023523
 30
0.0
 11
277.0273466327
 21
236.1836023523
 31
0.0
 70
   160
  1
\A1;<>
 71
     5
 42
-1.0
  3
Siemens
100
AcDbAlignedDimension
 13
215.502348236
 23
187.6058429374
 33
0.0
 14
338.552348236
 24
160.7858429374
 34
0.0
100
AcDbRotatedDimension
  0
DIMENSION
  5
253
330
1F
100
AcDbEntity
  8
Default
  6
Continuous
 62
     7
370
    15
100
AcDbDimension
  2
DMBLK27
 10
200.3131278165
 20
193.5058429374
 30
0.0
 11
200.3131278165
 21
202.6058425634
 31
0.0
 70
   160
  1
\A1;<>
 71
     5
 42
-1.0
  3
Siemens
100
AcDbAlignedDimension
 13
221.402348236
 23
211.7058429374
 33
0.0
 14
227.002348236
 24
193.5058429374
 34
0.0
 50
90.0
100
AcDbRotatedDimension
  0
DIMENSION
  5
25D
330
1F
100
AcDbEntity
  8
Default
  6
Continuous
 62
     7
370
    15
100
AcDbDimension
  2
DMBLK28
 10
332.402348236
 20
71.1777175202
 30
0.0
 11
273.952346734
 21
71.1777175202
 31
0.0
 70
   160
  1
\A1;<>
 71
     5
 42
-1.0
  3
Siemens
100
AcDbAlignedDimension
 13
215.502348236
 23
105.5058429374
 33
0.0
 14
332.402348236
 24
87.7026300205
 34
0.0
100
AcDbRotatedDimension
1001
ACAD
1000
DSTYLE
1002
{
1070
   271
1070
     0
1070
   272
1070
     0
1070
     0
1002
}
  0
TEXT
  5
268
330
1F
100
AcDbEntity
  8
0
  6
Continuous
 62
     7
370
     0
100
AcDbText
 10
325.66
 20
11.89999
 30
0.0
 40
2.2
  1
Format / Size: DIN A3
  7
SEACAD_txt_shx
 11
325.66
 21
14.09999
 31
0.0
100
AcDbText
 73
     3
  0
TEXT
  5
269
330
1F
100
AcDbEntity
  8
0
  6
Continuous
 62
     7
370
     0
100
AcDbText
 10
368.16
 20
11.89999
 30
0.0
 40
2.2
  1
Massstab / Scale: 1:1
  7
SEACAD_txt_shx
 11
368.16
 21
14.09999
 31
0.0
100
AcDbText
 73
     3
  0
TEXT
  5
26A
330
1F
100
AcDbEntity
  8
0
  6
Continuous
 62
     7
370
     0
100
AcDbText
 10
340.7598684211
 20
20.18749
 30
0.0
 40
3.5
  1
6ES73071EA010AA0
  7
SEACAD_txt_shx
 11
340.7598684211
 21
23.68749
 31
0.0
100
AcDbText
 73
     3
  0
LINE
  5
26B
330
1F
100
AcDbEntity
  8
0
  6
Continuous
 62
     7
370
    30
100
AcDbLine
 10
0.0
 20
297.0
 30
0.0
 11
0.0
 21
0.0
 31
0.0
  0
LINE
  5
26C
330
1F
100
AcDbEntity
  8
0
  6
Continuous
 62
     7
370
    30
100
AcDbLine
 10
5.0
 20
292.0
 30
0.0
 11
5.0
 21
5.0
 31
0.0
  0
LINE
  5
26D
330
1F
100
AcDbEntity
  8
0
  6
Continuous
 62
     7
370
    30
100
AcDbLine
 10
0.0
 20
0.0
 30
0.0
 11
420.0
 21
0.0
 31
0.0
  0
LINE
  5
26F
330
1F
100
AcDbEntity
  8
91000_TIP
  6
Continuous
 62
     7
370
    30
100
AcDbLine
 10
249.8659881699
 20
20.5812835243
 30
0.0
 11
259.8659879657
 21
23.0812834733
 31
0.0
  0
LINE
  5
270
330
1F
100
AcDbEntity
  8
0
  6
Continuous
 62
     7
370
    30
100
AcDbLine
 10
5.0
 20
5.0
 30
0.0
 11
415.0
 21
5.0
 31
0.0
  0
LINE
  5
271
330
1F
100
AcDbEntity
  8
0
  6
Continuous
 62
     7
370
    30
100
AcDbLine
 10
275.0
 20
10.0
 30
0.0
 11
410.0
 21
10.0
 31
0.0
  0
LINE
  5
272
330
1F
100
AcDbEntity
  8
0
  6
Continuous
 62
     7
370
    30
100
AcDbLine
 10
325.0
 20
16.0
 30
0.0
 11
410.0
 21
16.0
 31
0.0
  0
LINE
  5
273
330
1F
100
AcDbEntity
  8
0
  6
Continuous
 62
     7
370
    30
100
AcDbLine
 10
298.2973434565
 20
16.6961097434
 30
0.0
 11
299.1529318914
 21
16.6961097434
 31
0.0
  0
LINE
  5
274
330
1F
100
AcDbEntity
  8
0
  6
Continuous
 62
     7
370
    30
100
AcDbLine
 10
311.4876651625
 20
16.7436424342
 30
0.0
 11
309.9666190559
 21
16.7436424342
 31
0.0
  0
LINE
  5
275
330
1F
100
AcDbEntity
  8
0
  6
Continuous
 62
     7
370
    30
100
AcDbLine
 10
301.8622952689
 20
16.7436424342
 30
0.0
 11
300.4838472348
 21
16.7436424342
 31
0.0
  0
LINE
  5
276
330
1F
100
AcDbEntity
  8
0
  6
Continuous
 62
     7
370
    30
100
AcDbLine
 10
289.1235341257
 20
16.7436424342
 30
0.0
 11
290.5495148507
 21
16.7436424342
 31
0.0
  0
LINE
  5
277
330
1F
100
AcDbEntity
  8
0
  6
Continuous
 62
     7
370
    30
100
AcDbLine
 10
291.6427667399
 20
16.7436424342
 30
0.0
 11
295.2077185523
 21
16.7436424342
 31
0.0
  0
LINE
  5
278
330
1F
100
AcDbEntity
  8
0
  6
Continuous
 62
     7
370
    30
100
AcDbLine
 10
296.0157742965
 20
16.7436424342
 30
0.0
 11
296.9664281131
 21
16.7436424342
 31
0.0
  0
LINE
  5
279
330
1F
100
AcDbEntity
  8
0
  6
Continuous
 62
     7
370
    30
100
AcDbLine
 10
302.9555471581
 20
16.7436424342
 30
0.0
 11
306.5204989705
 21
16.7436424342
 31
0.0
  0
LINE
  5
27A
330
1F
100
AcDbEntity
  8
0
  6
Continuous
 62
     7
370
    30
100
AcDbLine
 10
307.3047883693
 20
16.7436424342
 30
0.0
 11
308.2554421859
 21
16.7436424342
 31
0.0
  0
LINE
  5
27B
330
1F
100
AcDbEntity
  8
0
  6
Continuous
 62
     7
370
    30
100
AcDbLine
 10
306.5204989705
 20
17.64676356
 30
0.0
 11
304.3339951922
 21
17.64676356
 31
0.0
  0
LINE
  5
27C
330
1F
100
AcDbEntity
  8
0
  6
Continuous
 62
     7
370
    30
100
AcDbLine
 10
295.2077185523
 20
17.64676356
 30
0.0
 11
293.021214774
 21
17.64676356
 31
0.0
  0
LINE
  5
27E
330
1F
100
AcDbEntity
  8
91000_TIP
  6
CENTER2
 62
     7
370
    30
100
AcDbLine
 10
248.5864776979
 20
18.0812835754
 30
0.0
 11
272.188466962
 21
18.0812835754
 31
0.0
  0
LINE
  5
27F
330
1F
100
AcDbEntity
  8
0
  6
Continuous
 62
     7
370
    30
100
AcDbLine
 10
306.1877701347
 20
18.7637817946
 30
0.0
 11
304.3339951922
 21
18.7637817946
 31
0.0
  0
LINE
  5
280
330
1F
100
AcDbEntity
  8
0
  6
Continuous
 62
     7
370
    30
100
AcDbLine
 10
294.8749897165
 20
18.7637817946
 30
0.0
 11
293.021214774
 21
18.7637817946
 31
0.0
  0
LINE
  5
281
330
1F
100
AcDbEntity
  8
0
  6
Continuous
 62
     7
370
    30
100
AcDbLine
 10
306.1877701347
 20
19.5480711933
 30
0.0
 11
304.3339951922
 21
19.5480711933
 31
0.0
  0
LINE
  5
282
330
1F
100
AcDbEntity
  8
0
  6
Continuous
 62
     7
370
    30
100
AcDbLine
 10
294.8749897165
 20
19.5480711933
 30
0.0
 11
293.021214774
 21
19.5480711933
 31
0.0
  0
LINE
  5
283
330
1F
100
AcDbEntity
  8
0
  6
Continuous
 62
     7
370
    30
100
AcDbLine
 10
306.4729662797
 20
20.6175567371
 30
0.0
 11
304.3339951922
 21
20.6175567371
 31
0.0
  0
LINE
  5
284
330
1F
100
AcDbEntity
  8
0
  6
Continuous
 62
     7
370
    30
100
AcDbLine
 10
295.1601858615
 20
20.6175567371
 30
0.0
 11
293.021214774
 21
20.6175567371
 31
0.0
  0
LINE
  5
285
330
1F
100
AcDbEntity
  8
0
  6
Continuous
 62
     7
370
    30
100
AcDbLine
 10
311.4876651625
 20
21.4969115175
 30
0.0
 11
310.5370113459
 21
21.4969115175
 31
0.0
  0
LINE
  5
286
330
1F
100
AcDbEntity
  8
0
  6
Continuous
 62
     7
370
    30
100
AcDbLine
 10
308.8496008213
 20
21.4969115175
 30
0.0
 11
307.3047883693
 21
21.4969115175
 31
0.0
  0
LINE
  5
287
330
1F
100
AcDbEntity
  8
0
  6
Continuous
 62
     7
370
    30
100
AcDbLine
 10
306.4729662797
 20
21.4969115175
 30
0.0
 11
302.9555471581
 21
21.4969115175
 31
0.0
  0
LINE
  5
288
330
1F
100
AcDbEntity
  8
0
  6
Continuous
 62
     7
370
    30
100
AcDbLine
 10
301.8622952689
 20
21.4969115175
 30
0.0
 11
300.1511183989
 21
21.4969115175
 31
0.0
  0
LINE
  5
289
330
1F
100
AcDbEntity
  8
0
  6
Continuous
 62
     7
370
    30
100
AcDbLine
 10
297.7269511665
 20
21.4969115175
 30
0.0
 11
296.0157742965
 21
21.4969115175
 31
0.0
  0
LINE
  5
28A
330
1F
100
AcDbEntity
  8
0
  6
Continuous
 62
     7
370
    30
100
AcDbLine
 10
295.1601858615
 20
21.4969115175
 30
0.0
 11
291.6427667399
 21
21.4969115175
 31
0.0
  0
LINE
  5
28B
330
1F
100
AcDbEntity
  8
0
  6
Continuous
 62
     7
370
    30
100
AcDbLine
 10
289.1235341257
 20
21.4969115175
 30
0.0
 11
290.5495148507
 21
21.4969115175
 31
0.0
  0
LINE
  5
28C
330
1F
100
AcDbEntity
  8
0
  6
Continuous
 62
     7
370
    30
100
AcDbLine
 10
275.0
 20
28.0
 30
0.0
 11
410.0
 21
28.0
 31
0.0
  0
LINE
  5
28D
330
1F
100
AcDbEntity
  8
91000_TIP
  6
Continuous
 62
     7
370
    30
100
AcDbLine
 10
249.8659881699
 20
15.5812836265
 30
0.0
 11
259.8659879657
 21
13.0812836775
 31
0.0
  0
LINE
  5
28E
330
1F
100
AcDbEntity
  8
0
  6
Continuous
 62
     7
370
    30
100
AcDbLine
 10
308.8496008213
 20
21.4969115175
 30
0.0
 11
310.5370113459
 21
18.5498846858
 31
0.0
  0
LINE
  5
28F
330
1F
100
AcDbEntity
  8
0
  6
Continuous
 62
     7
370
    30
100
AcDbLine
 10
309.9666190559
 20
16.7436424342
 30
0.0
 11
308.2554421859
 21
19.7857346475
 31
0.0
  0
LINE
  5
290
330
1F
100
AcDbEntity
  8
0
  6
Continuous
 62
     7
370
    30
100
AcDbLine
 10
298.2973434565
 20
16.6961097434
 30
0.0
 11
296.9664281131
 21
19.7857346475
 31
0.0
  0
LINE
  5
291
330
1F
100
AcDbEntity
  8
0
  6
Continuous
 62
     7
370
    30
100
AcDbLine
 10
297.7269511665
 20
21.4969115175
 30
0.0
 11
298.9628011281
 21
18.5974173767
 31
0.0
  0
LINE
  5
292
330
1F
100
AcDbEntity
  8
91000_TIP
  6
Continuous
 62
     7
370
    30
100
AcDbLine
 10
249.8659881699
 20
20.5812835243
 30
0.0
 11
249.8659881699
 21
15.5812836265
 31
0.0
  0
LINE
  5
293
330
1F
100
AcDbEntity
  8
91000_TIP
  6
Continuous
 62
     7
370
    30
100
AcDbLine
 10
259.8659879657
 20
23.0812834733
 30
0.0
 11
259.8659879657
 21
13.0812836775
 31
0.0
  0
LINE
  5
294
330
1F
100
AcDbEntity
  8
91000_TIP
  6
CENTER2
 62
     7
370
    30
100
AcDbLine
 10
266.3659878329
 20
12.359802369
 30
0.0
 11
266.3659878329
 21
23.643188369
 31
0.0
  0
LINE
  5
295
330
1F
100
AcDbEntity
  8
0
  6
Continuous
 62
     7
370
    30
100
AcDbLine
 10
275.0
 20
10.0
 30
0.0
 11
275.0
 21
28.0
 31
0.0
  0
LINE
  5
296
330
1F
100
AcDbEntity
  8
0
  6
Continuous
 62
     7
370
    30
100
AcDbLine
 10
284.7029938783
 20
16.8387078159
 30
0.0
 11
284.7029938783
 21
17.7893616325
 31
0.0
  0
LINE
  5
297
330
1F
100
AcDbEntity
  8
0
  6
Continuous
 62
     7
370
    30
100
AcDbLine
 10
288.0302822366
 20
20.49872501
 30
0.0
 11
288.0302822366
 21
21.4493788266
 31
0.0
  0
LINE
  5
298
330
1F
100
AcDbEntity
  8
0
  6
Continuous
 62
     7
370
    30
100
AcDbLine
 10
289.1235341257
 20
21.4969115175
 30
0.0
 11
289.1235341257
 21
16.7436424342
 31
0.0
  0
LINE
  5
299
330
1F
100
AcDbEntity
  8
0
  6
Continuous
 62
     7
370
    30
100
AcDbLine
 10
290.5495148507
 20
21.4969115175
 30
0.0
 11
290.5495148507
 21
16.7436424342
 31
0.0
  0
LINE
  5
29A
330
1F
100
AcDbEntity
  8
0
  6
Continuous
 62
     7
370
    30
100
AcDbLine
 10
291.6427667399
 20
21.4969115175
 30
0.0
 11
291.6427667399
 21
16.7436424342
 31
0.0
  0
LINE
  5
29B
330
1F
100
AcDbEntity
  8
0
  6
Continuous
 62
     7
370
    30
100
AcDbLine
 10
293.021214774
 20
20.6175567371
 30
0.0
 11
293.021214774
 21
19.5480711933
 31
0.0
  0
LINE
  5
29C
330
1F
100
AcDbEntity
  8
0
  6
Continuous
 62
     7
370
    30
100
AcDbLine
 10
293.021214774
 20
18.7637817946
 30
0.0
 11
293.021214774
 21
17.64676356
 31
0.0
  0
LINE
  5
29D
330
1F
100
AcDbEntity
  8
0
  6
Continuous
 62
     7
370
    30
100
AcDbLine
 10
294.8749897165
 20
19.5480711933
 30
0.0
 11
294.8749897165
 21
18.7637817946
 31
0.0
  0
LINE
  5
29E
330
1F
100
AcDbEntity
  8
0
  6
Continuous
 62
     7
370
    30
100
AcDbLine
 10
295.1601858615
 20
21.4969115175
 30
0.0
 11
295.1601858615
 21
20.6175567371
 31
0.0
  0
LINE
  5
29F
330
1F
100
AcDbEntity
  8
0
  6
Continuous
 62
     7
370
    30
100
AcDbLine
 10
295.2077185523
 20
17.64676356
 30
0.0
 11
295.2077185523
 21
16.7436424342
 31
0.0
  0
LINE
  5
2A0
330
1F
100
AcDbEntity
  8
0
  6
Continuous
 62
     7
370
    30
100
AcDbLine
 10
296.0157742965
 20
16.7436424342
 30
0.0
 11
296.0157742965
 21
21.4969115175
 31
0.0
  0
LINE
  5
2A1
330
1F
100
AcDbEntity
  8
0
  6
Continuous
 62
     7
370
    30
100
AcDbLine
 10
296.9664281131
 20
16.7436424342
 30
0.0
 11
296.9664281131
 21
19.7857346475
 31
0.0
  0
LINE
  5
2A2
330
1F
100
AcDbEntity
  8
0
  6
Continuous
 62
     7
370
    30
100
AcDbLine
 10
300.4838472348
 20
19.8332673383
 30
0.0
 11
300.4838472348
 21
16.7436424342
 31
0.0
  0
LINE
  5
2A3
330
1F
100
AcDbEntity
  8
0
  6
Continuous
 62
     7
370
    30
100
AcDbLine
 10
301.8622952689
 20
21.4969115175
 30
0.0
 11
301.8622952689
 21
16.7436424342
 31
0.0
  0
LINE
  5
2A4
330
1F
100
AcDbEntity
  8
0
  6
Continuous
 62
     7
370
    30
100
AcDbLine
 10
302.9555471581
 20
21.4969115175
 30
0.0
 11
302.9555471581
 21
16.7436424342
 31
0.0
  0
LINE
  5
2A5
330
1F
100
AcDbEntity
  8
0
  6
Continuous
 62
     7
370
    30
100
AcDbLine
 10
304.3339951922
 20
20.6175567371
 30
0.0
 11
304.3339951922
 21
19.5480711933
 31
0.0
  0
LINE
  5
2A6
330
1F
100
AcDbEntity
  8
0
  6
Continuous
 62
     7
370
    30
100
AcDbLine
 10
304.3339951922
 20
18.7637817946
 30
0.0
 11
304.3339951922
 21
17.64676356
 31
0.0
  0
LINE
  5
2A7
330
1F
100
AcDbEntity
  8
0
  6
Continuous
 62
     7
370
    30
100
AcDbLine
 10
306.1877701347
 20
19.5480711933
 30
0.0
 11
306.1877701347
 21
18.7637817946
 31
0.0
  0
LINE
  5
2A8
330
1F
100
AcDbEntity
  8
0
  6
Continuous
 62
     7
370
    30
100
AcDbLine
 10
306.4729662797
 20
21.4969115175
 30
0.0
 11
306.4729662797
 21
20.6175567371
 31
0.0
  0
LINE
  5
2A9
330
1F
100
AcDbEntity
  8
0
  6
Continuous
 62
     7
370
    30
100
AcDbLine
 10
306.5204989705
 20
17.64676356
 30
0.0
 11
306.5204989705
 21
16.7436424342
 31
0.0
  0
LINE
  5
2AA
330
1F
100
AcDbEntity
  8
0
  6
Continuous
 62
     7
370
    30
100
AcDbLine
 10
307.3047883693
 20
16.7436424342
 30
0.0
 11
307.3047883693
 21
21.4969115175
 31
0.0
  0
LINE
  5
2AB
330
1F
100
AcDbEntity
  8
0
  6
Continuous
 62
     7
370
    30
100
AcDbLine
 10
308.2554421859
 20
16.7436424342
 30
0.0
 11
308.2554421859
 21
19.7857346475
 31
0.0
  0
LINE
  5
2AC
330
1F
100
AcDbEntity
  8
0
  6
Continuous
 62
     7
370
    30
100
AcDbLine
 10
310.5370113459
 20
21.4969115175
 30
0.0
 11
310.5370113459
 21
18.5498846858
 31
0.0
  0
LINE
  5
2AD
330
1F
100
AcDbEntity
  8
0
  6
Continuous
 62
     7
370
    30
100
AcDbLine
 10
311.4876651625
 20
21.4969115175
 30
0.0
 11
311.4876651625
 21
16.7436424342
 31
0.0
  0
LINE
  5
2AE
330
1F
100
AcDbEntity
  8
0
  6
Continuous
 62
     7
370
    30
100
AcDbLine
 10
312.2957209067
 20
16.8387078159
 30
0.0
 11
312.2957209067
 21
17.7893616325
 31
0.0
  0
LINE
  5
2AF
330
1F
100
AcDbEntity
  8
0
  6
Continuous
 62
     7
370
    30
100
AcDbLine
 10
315.623009265
 20
20.49872501
 30
0.0
 11
315.623009265
 21
21.4493788266
 31
0.0
  0
LINE
  5
2B0
330
1F
100
AcDbEntity
  8
0
  6
Continuous
 62
     7
370
    30
100
AcDbLine
 10
325.0
 20
10.0
 30
0.0
 11
325.0
 21
28.0
 31
0.0
  0
LINE
  5
2B1
330
1F
100
AcDbEntity
  8
0
  6
Continuous
 62
     7
370
    30
100
AcDbLine
 10
300.1511183989
 20
21.4969115175
 30
0.0
 11
298.9628011281
 21
18.5974173767
 31
0.0
  0
LINE
  5
2B2
330
1F
100
AcDbEntity
  8
0
  6
Continuous
 62
     7
370
    30
100
AcDbLine
 10
300.4838472348
 20
19.8332673383
 30
0.0
 11
299.1529318914
 21
16.6961097434
 31
0.0
  0
LINE
  5
2B3
330
1F
100
AcDbEntity
  8
0
  6
Continuous
 62
     7
370
    30
100
AcDbLine
 10
284.8948224676
 20
20.9161059766
 30
0.0
 11
285.1688882922
 21
21.1901790542
 31
0.0
  0
LINE
  5
2B4
330
1F
100
AcDbEntity
  8
0
  6
Continuous
 62
     7
370
    30
100
AcDbLine
 10
415.0
 20
292.0
 30
0.0
 11
5.0
 21
292.0
 31
0.0
  0
LINE
  5
2B5
330
1F
100
AcDbEntity
  8
0
  6
Continuous
 62
     7
370
    30
100
AcDbLine
 10
420.0
 20
297.0
 30
0.0
 11
0.0
 21
297.0
 31
0.0
  0
LINE
  5
2B6
330
1F
100
AcDbEntity
  8
0
  6
Continuous
 62
     7
370
    30
100
AcDbLine
 10
367.5
 20
10.0
 30
0.0
 11
367.5
 21
16.0
 31
0.0
  0
LINE
  5
2B7
330
1F
100
AcDbEntity
  8
0
  6
Continuous
 62
     7
370
    30
100
AcDbLine
 10
410.0
 20
10.0
 30
0.0
 11
410.0
 21
28.0
 31
0.0
  0
LINE
  5
2B8
330
1F
100
AcDbEntity
  8
0
  6
Continuous
 62
     7
370
    30
100
AcDbLine
 10
415.0
 20
5.0
 30
0.0
 11
415.0
 21
292.0
 31
0.0
  0
LINE
  5
2B9
330
1F
100
AcDbEntity
  8
0
  6
Continuous
 62
     7
370
    30
100
AcDbLine
 10
420.0
 20
0.0
 30
0.0
 11
420.0
 21
297.0
 31
0.0
  0
ARC
  5
2BA
330
1F
100
AcDbEntity
  8
0
  6
Continuous
 62
     7
370
    30
100
AcDbCircle
 10
314.0003620317
 20
18.7008009792
 30
0.0
 40
1.1116193606
100
AcDbArc
 50
277.7099956934
 51
295.6884927746
  0
ARC
  5
2BB
330
1F
100
AcDbEntity
  8
0
  6
Continuous
 62
     7
370
    30
100
AcDbCircle
 10
314.2846720145
 20
17.9759752156
 30
0.0
 40
0.3401689265
100
AcDbArc
 50
305.503221255
 51
72.4652898523
  0
ARC
  5
2BC
330
1F
100
AcDbEntity
  8
0
  6
Continuous
 62
     7
370
    30
100
AcDbCircle
 10
313.7186782063
 20
21.3776821252
 30
0.0
 40
4.7567946411
100
AcDbArc
 50
252.5939200548
 51
280.9816604256
  0
ARC
  5
2BD
330
1F
100
AcDbEntity
  8
0
  6
Continuous
 62
     7
370
    30
100
AcDbCircle
 10
314.1735135694
 20
18.7596683887
 30
0.0
 40
2.1007265953
100
AcDbArc
 50
282.405835852
 51
311.8644433928
  0
ARC
  5
2BE
330
1F
100
AcDbEntity
  8
0
  6
Continuous
 62
     7
370
    30
100
AcDbCircle
 10
313.8999492223
 20
20.3680101102
 30
0.0
 40
0.3029626476000001
100
AcDbArc
 50
154.4400348282
 51
221.8201698801
  0
ARC
  5
2BF
330
1F
100
AcDbEntity
  8
0
  6
Continuous
 62
     7
370
    30
100
AcDbCircle
 10
313.9791703737
 20
20.2887889588
 30
0.0
 40
0.4103089737
100
AcDbArc
 50
102.8287828681
 51
149.2259639003
  0
ARC
  5
2C0
330
1F
100
AcDbEntity
  8
0
  6
Continuous
 62
     7
370
    30
100
AcDbCircle
 10
314.3961972093
 20
18.546453629
 30
0.0
 40
2.201836557
100
AcDbArc
 50
84.0400061857
 51
103.3427657871
  0
ARC
  5
2C1
330
1F
100
AcDbEntity
  8
0
  6
Continuous
 62
     7
370
    30
100
AcDbCircle
 10
314.0552333846
 20
16.1290897051
 30
0.0
 40
4.642373736500001
100
AcDbArc
 50
70.2625858546
 51
82.952418638
  0
ARC
  5
2C2
330
1F
100
AcDbEntity
  8
0
  6
Continuous
 62
     7
370
    30
100
AcDbCircle
 10
313.5412151824
 20
20.8007125947
 30
0.0
 40
3.2587559909
100
AcDbArc
 50
247.5300206145
 51
280.7579522143
  0
ARC
  5
2C3
330
1F
100
AcDbEntity
  8
0
  6
Continuous
 62
     7
370
    30
100
AcDbCircle
 10
307.1562487104
 20
2.5491926343
 30
0.0
 40
17.3316084133
100
AcDbArc
 50
65.341467465
 51
67.3997770736
  0
ARC
  5
2C4
330
1F
100
AcDbEntity
  8
0
  6
Continuous
 62
     7
370
    30
100
AcDbCircle
 10
317.9521111158
 20
28.3416189974
 30
0.0
 40
10.6291642039
100
AcDbArc
 50
242.8620101252
 51
247.1042029186
  0
ARC
  5
2C5
330
1F
100
AcDbEntity
  8
0
  6
Continuous
 62
     7
370
    30
100
AcDbCircle
 10
314.0972098893
 20
20.8076875004
 30
0.0
 40
2.1662916292
100
AcDbArc
 50
227.3119280794
 51
242.7040315235
  0
ARC
  5
2C6
330
1F
100
AcDbEntity
  8
0
  6
Continuous
 62
     7
370
    30
100
AcDbCircle
 10
313.4931790796
 20
20.1020098596
 30
0.0
 40
1.238521734
100
AcDbArc
 50
194.7952194236
 51
225.7176549047
  0
ARC
  5
2C7
330
1F
100
AcDbEntity
  8
0
  6
Continuous
 62
     7
370
    30
100
AcDbCircle
 10
313.5553372138
 20
20.1422298287
 30
0.0
 40
1.3090920729
100
AcDbArc
 50
164.1974860461
 51
195.8025139539
  0
ARC
  5
2C8
330
1F
100
AcDbEntity
  8
0
  6
Continuous
 62
     7
370
    30
100
AcDbCircle
 10
314.1123609345
 20
19.2539626688
 30
0.0
 40
2.3669248153
100
AcDbArc
 50
86.2218022928
 51
120.4272602309
  0
ARC
  5
2C9
330
1F
100
AcDbEntity
  8
0
  6
Continuous
 62
     7
370
    30
100
AcDbCircle
 10
313.8435041519
 20
12.5577948477
 30
0.0
 40
9.0679051661
100
AcDbArc
 50
78.6827049226
 51
87.3147599624
  0
ARC
  5
2CA
330
1F
100
AcDbEntity
  8
0
  6
Continuous
 62
     7
370
    30
100
AcDbCircle
 10
313.3874349735
 20
20.2497375912
 30
0.0
 40
1.119747444
100
AcDbArc
 50
142.813917903
 51
167.1522951417
  0
ARC
  5
2CB
330
1F
100
AcDbEntity
  8
0
  6
Continuous
 62
     7
370
    30
100
AcDbCircle
 10
313.7327443151
 20
19.9431558946
 30
0.0
 40
1.5805466845
100
AcDbArc
 50
121.2140948535
 51
141.5254768286
  0
ARC
  5
2CC
330
1F
100
AcDbEntity
  8
0
  6
Continuous
 62
     7
370
    30
100
AcDbCircle
 10
314.3099186807
 20
20.7542132232
 30
0.0
 40
0.8661276052000001
100
AcDbArc
 50
222.7760387596
 51
239.0362434679
  0
ARC
  5
2CD
330
1F
100
AcDbEntity
  8
0
  6
Continuous
 62
     7
370
    30
100
AcDbCircle
 10
311.8032091024
 20
13.4239410246
 30
0.0
 40
6.8587735763
100
AcDbArc
 50
59.902027256
 51
68.2036481279
  0
ARC
  5
2CE
330
1F
100
AcDbEntity
  8
0
  6
Continuous
 62
     7
370
    30
100
AcDbCircle
 10
315.2117035963
 20
22.3498275319
 30
0.0
 40
2.698741017100001
100
AcDbArc
 50
240.0481997804
 51
251.3779673737
  0
ARC
  5
2CF
330
1F
100
AcDbEntity
  8
0
  6
Continuous
 62
     7
370
    30
100
AcDbCircle
 10
314.5462464295
 20
18.1929289165
 30
0.0
 40
1.4334474881
100
AcDbArc
 50
315.8904553224
 51
333.5229264373
  0
ARC
  5
2D0
330
1F
100
AcDbEntity
  8
0
  6
Continuous
 62
     7
370
    30
100
AcDbCircle
 10
314.5508846732
 20
18.1395217664
 30
0.0
 40
1.4062287119
100
AcDbArc
 50
335.3867972702
 51
24.3915119402
  0
ARC
  5
2D1
330
1F
100
AcDbEntity
  8
0
  6
Continuous
 62
     7
370
    30
100
AcDbCircle
 10
314.4786797697
 20
18.0616650746
 30
0.0
 40
1.5047025148
100
AcDbArc
 50
25.9562916605
 51
59.4834829668
  0
ARC
  5
2D2
330
1F
100
AcDbEntity
  8
0
  6
Continuous
 62
     7
370
    30
100
AcDbCircle
 10
286.4076350033
 20
18.7008009792
 30
0.0
 40
1.1116193606
100
AcDbArc
 50
277.7099956934
 51
295.6884927746
  0
ARC
  5
2D3
330
1F
100
AcDbEntity
  8
0
  6
Continuous
 62
     7
370
    30
100
AcDbCircle
 10
286.691944986
 20
17.9759752156
 30
0.0
 40
0.3401689265000001
100
AcDbArc
 50
305.5032212556
 51
72.4652898515
  0
ARC
  5
2D4
330
1F
100
AcDbEntity
  8
0
  6
Continuous
 62
     7
370
    30
100
AcDbCircle
 10
286.1259511779
 20
21.3776821252
 30
0.0
 40
4.756794641099999
100
AcDbArc
 50
252.5939200545
 51
280.9816604253
  0
ARC
  5
2D5
330
1F
100
AcDbEntity
  8
0
  6
Continuous
 62
     7
370
    30
100
AcDbCircle
 10
286.580786541
 20
18.7596683887
 30
0.0
 40
2.1007265953
100
AcDbArc
 50
282.4058358513
 51
311.8644433923
  0
ARC
  5
2D6
330
1F
100
AcDbEntity
  8
0
  6
Continuous
 62
     7
370
    30
100
AcDbCircle
 10
286.3072221939
 20
20.3680101102
 30
0.0
 40
0.3029626476
100
AcDbArc
 50
154.4400348282
 51
221.8201698801
  0
ARC
  5
2D7
330
1F
100
AcDbEntity
  8
0
  6
Continuous
 62
     7
370
    30
100
AcDbCircle
 10
286.3864433453
 20
20.2887889588
 30
0.0
 40
0.4103089737
100
AcDbArc
 50
102.8287828727
 51
149.2259639027
  0
ARC
  5
2D8
330
1F
100
AcDbEntity
  8
0
  6
Continuous
 62
     7
370
    30
100
AcDbCircle
 10
286.8034701809
 20
18.546453629
 30
0.0
 40
2.201836557
100
AcDbArc
 50
84.0400061859
 51
103.3427657872
  0
ARC
  5
2D9
330
1F
100
AcDbEntity
  8
0
  6
Continuous
 62
     7
370
    30
100
AcDbCircle
 10
286.4625063562
 20
16.1290897051
 30
0.0
 40
4.6423737365
100
AcDbArc
 50
70.2625858546
 51
82.9524186379
  0
ARC
  5
2DA
330
1F
100
AcDbEntity
  8
0
  6
Continuous
 62
     7
370
    30
100
AcDbCircle
 10
285.948488154
 20
20.8007125947
 30
0.0
 40
3.258755990900001
100
AcDbArc
 50
247.5300206148
 51
280.7579522145
  0
ARC
  5
2DB
330
1F
100
AcDbEntity
  8
0
  6
Continuous
 62
     7
370
    30
100
AcDbCircle
 10
279.563521682
 20
2.5491926343
 30
0.0
 40
17.3316084133
100
AcDbArc
 50
65.341467465
 51
67.3997770736
  0
ARC
  5
2DC
330
1F
100
AcDbEntity
  8
0
  6
Continuous
 62
     7
370
    30
100
AcDbCircle
 10
290.3593840874
 20
28.3416189974
 30
0.0
 40
10.6291642039
100
AcDbArc
 50
242.8620101252
 51
247.1042029185
  0
ARC
  5
2DD
330
1F
100
AcDbEntity
  8
0
  6
Continuous
 62
     7
370
    30
100
AcDbCircle
 10
286.5044828608
 20
20.8076875004
 30
0.0
 40
2.1662916292
100
AcDbArc
 50
227.3119280794
 51
242.7040315235
  0
ARC
  5
2DE
330
1F
100
AcDbEntity
  8
0
  6
Continuous
 62
     7
370
    30
100
AcDbCircle
 10
285.9004520512
 20
20.1020098596
 30
0.0
 40
1.238521734
100
AcDbArc
 50
194.7952194234
 51
225.7176549042
  0
ARC
  5
2DF
330
1F
100
AcDbEntity
  8
0
  6
Continuous
 62
     7
370
    30
100
AcDbCircle
 10
286.519633906
 20
19.2539626688
 30
0.0
 40
2.3669248153
100
AcDbArc
 50
86.2218022928
 51
120.4272602309
  0
ARC
  5
2E0
330
1F
100
AcDbEntity
  8
0
  6
Continuous
 62
     7
370
    30
100
AcDbCircle
 10
286.2507771235
 20
12.5577948477
 30
0.0
 40
9.0679051661
100
AcDbArc
 50
78.6827049226
 51
87.3147599624
  0
ARC
  5
2E1
330
1F
100
AcDbEntity
  8
0
  6
Continuous
 62
     7
370
    30
100
AcDbCircle
 10
286.1400172867
 20
19.9431558946
 30
0.0
 40
1.5805466846
100
AcDbArc
 50
121.2140948541
 51
141.525476829
  0
ARC
  5
2E2
330
1F
100
AcDbEntity
  8
0
  6
Continuous
 62
     7
370
    30
100
AcDbCircle
 10
286.7171916523
 20
20.7542132232
 30
0.0
 40
0.8661276052000001
100
AcDbArc
 50
222.7760387596
 51
239.0362434679
  0
ARC
  5
2E3
330
1F
100
AcDbEntity
  8
0
  6
Continuous
 62
     7
370
    30
100
AcDbCircle
 10
284.210482074
 20
13.4239410246
 30
0.0
 40
6.8587735763
100
AcDbArc
 50
59.9020272562
 51
68.2036481282
  0
ARC
  5
2E4
330
1F
100
AcDbEntity
  8
0
  6
Continuous
 62
     7
370
    30
100
AcDbCircle
 10
287.6189765678
 20
22.3498275319
 30
0.0
 40
2.698741017100001
100
AcDbArc
 50
240.0481997804
 51
251.3779673734
  0
ARC
  5
2E5
330
1F
100
AcDbEntity
  8
0
  6
Continuous
 62
     7
370
    30
100
AcDbCircle
 10
286.953519401
 20
18.1929289165
 30
0.0
 40
1.4334474881
100
AcDbArc
 50
315.8904553226
 51
333.5229264375
  0
ARC
  5
2E6
330
1F
100
AcDbEntity
  8
0
  6
Continuous
 62
     7
370
    30
100
AcDbCircle
 10
286.9581576447
 20
18.1395217664
 30
0.0
 40
1.4062287119
100
AcDbArc
 50
335.3867972703
 51
24.3915119403
  0
ARC
  5
2E7
330
1F
100
AcDbEntity
  8
0
  6
Continuous
 62
     7
370
    30
100
AcDbCircle
 10
286.8859527412
 20
18.0616650746
 30
0.0
 40
1.5047025147
100
AcDbArc
 50
25.9562916611
 51
59.4834829676
  0
ARC
  5
2E8
330
1F
100
AcDbEntity
  8
0
  6
Continuous
 62
     7
370
    30
100
AcDbCircle
 10
285.9626101853
 20
20.1422298287
 30
0.0
 40
1.3090920729
100
AcDbArc
 50
164.1974860461
 51
195.8025139539
  0
ARC
  5
2E9
330
1F
100
AcDbEntity
  8
0
  6
Continuous
 62
     7
370
    30
100
AcDbCircle
 10
285.7947079451
 20
20.2497375912
 30
0.0
 40
1.119747444
100
AcDbArc
 50
142.813917903
 51
167.1522951417
  0
CIRCLE
  5
2EA
330
1F
100
AcDbEntity
  8
91000_TIP
  6
Continuous
 62
     7
370
    30
100
AcDbCircle
 10
266.3659878329
 20
18.0812835754
 30
0.0
 40
4.999999897900011
  0
CIRCLE
  5
2EB
330
1F
100
AcDbEntity
  8
91000_TIP
  6
Continuous
 62
     7
370
    30
100
AcDbCircle
 10
266.3659878329
 20
18.0812835754
 30
0.0
 40
2.499999948899983
  0
TEXT
  5
2EC
330
1F
100
AcDbEntity
  8
0
  6
Continuous
 62
     7
370
     0
100
AcDbText
 10
9.665252337
 20
13.6558012918
 30
0.0
 40
2.2
  1
Alle Bemassungswerte sind in Millimeter (mm) angegeben.
  7
SEACAD_txt_shx
 11
9.665252337
 21
15.8558012918
 31
0.0
100
AcDbText
 73
     3
  0
TEXT
  5
2ED
330
1F
100
AcDbEntity
  8
0
  6
Continuous
 62
     7
370
     0
100
AcDbText
 10
9.665252337
 20
9.9891346252
 30
0.0
 40
2.2
  1
All dimensions are in millimeters (mm).
  7
SEACAD_txt_shx
 11
9.665252337
 21
12.1891346252
 31
0.0
100
AcDbText
 73
     3
  0
ENDSEC
  0
SECTION
  2
OBJECTS
  0
DICTIONARY
  5
C
330
0
100
AcDbDictionary
281
     1
  3
ACAD_GROUP
350
D
  3
ACAD_LAYOUT
350
1A
  3
ACAD_MLINESTYLE
350
17
  3
ACAD_PLOTSETTINGS
350
19
  3
ACAD_PLOTSTYLENAME
350
E
  0
DICTIONARY
  5
D
102
{ACAD_REACTORS
330
C
102
}
330
C
100
AcDbDictionary
281
     1
  0
DICTIONARY
  5
1A
102
{ACAD_REACTORS
330
C
102
}
330
C
100
AcDbDictionary
281
     1
  3
Layout1
350
1E
  3
Model
350
22
  0
DICTIONARY
  5
17
102
{ACAD_REACTORS
330
C
102
}
330
C
100
AcDbDictionary
281
     1
  3
Standard
350
18
  0
DICTIONARY
  5
19
102
{ACAD_REACTORS
330
C
102
}
330
C
100
AcDbDictionary
281
     1
  0
ACDBDICTIONARYWDFLT
  5
E
102
{ACAD_REACTORS
330
C
102
}
330
C
100
AcDbDictionary
281
     1
  3
Normal
350
F
100
AcDbDictionaryWithDefault
340
F
  0
LAYOUT
  5
1E
102
{ACAD_REACTORS
330
1A
102
}
330
1A
100
AcDbPlotSettings
  1

  2
none_device
  4

  6

 40
0.0
 41
0.0
 42
0.0
 43
0.0
 44
0.0
 45
0.0
 46
0.0
 47
0.0
 48
0.0
 49
0.0
140
0.0
141
0.0
142
1.0
143
1.0
 70
   688
 72
     0
 73
     0
 74
     5
  7

 75
    16
147
1.0
148
0.0
149
0.0
100
AcDbLayout
  1
Layout1
 70
     1
 71
     1
 10
0.0
 20
0.0
 11
420.0
 21
297.0
 12
0.0
 22
0.0
 32
0.0
 14
0.0
 24
0.0
 34
0.0
 15
420.0
 25
297.0
 35
0.0
146
0.0
 13
0.0
 23
0.0
 33
0.0
 16
1.0
 26
0.0
 36
0.0
 17
0.0
 27
1.0
 37
0.0
 76
     0
330
1B
  0
LAYOUT
  5
22
102
{ACAD_REACTORS
330
1A
102
}
330
1A
100
AcDbPlotSettings
  1

  2
none_device
  4

  6

 40
0.0
 41
0.0
 42
0.0
 43
0.0
 44
0.0
 45
0.0
 46
0.0
 47
0.0
 48
0.0
 49
0.0
140
0.0
141
0.0
142
1.0
143
1.0
 70
  1712
 72
     0
 73
     0
 74
     0
  7

 75
     0
147
1.0
148
0.0
149
0.0
100
AcDbLayout
  1
Model
 70
     1
 71
     0
 10
0.0
 20
0.0
 11
420.0
 21
297.0
 12
0.0
 22
0.0
 32
0.0
 14
0.0
 24
0.0
 34
0.0
 15
420.0
 25
297.0
 35
0.0
146
0.0
 13
0.0
 23
0.0
 33
0.0
 16
1.0
 26
0.0
 36
0.0
 17
0.0
 27
1.0
 37
0.0
 76
     0
330
1F
  0
MLINESTYLE
  5
18
102
{ACAD_REACTORS
330
17
102
}
330
17
100
AcDbMlineStyle
  2
Standard
 70
     0
  3

 62
   256
 51
90.0
 52
90.0
 71
     2
 49
0.5
 62
   256
  6
BYLAYER
 49
-0.5
 62
   256
  6
BYLAYER
  0
ACDBPLACEHOLDER
  5
F
102
{ACAD_REACTORS
330
E
102
}
330
E
  0
ENDSEC
  0
EOF
