  0
SECTION
  2
HEADER
  9
$ACADVER
  1
AC1015
  9
$ACADMAINTVER
 70
     6
  9
$DWGCODEPAGE
  3
ANSI_1252
  9
$INSBASE
 10
0.0
 20
0.0
 30
0.0
  9
$EXTMIN
 10
0.0
 20
0.0
 30
0.0
  9
$EXTMAX
 10
594.0
 20
420.0
 30
0.0
  9
$LIMMIN
 10
0.0
 20
0.0
  9
$LIMMAX
 10
594.0
 20
420.0
  9
$ORTHOMODE
 70
     0
  9
$REGENMODE
 70
     1
  9
$FILLMODE
 70
     1
  9
$QTEXTMODE
 70
     0
  9
$MIRRTEXT
 70
     1
  9
$LTSCALE
 40
1.0
  9
$ATTMODE
 70
     1
  9
$TEXTSIZE
 40
2.5
  9
$TRACEWID
 40
1.0
  9
$TEXTSTYLE
  7
Standard
  9
$CLAYER
  8
0
  9
$CELTYPE
  6
ByLayer
  9
$CECOLOR
 62
   256
  9
$CELTSCALE
 40
1.0
  9
$DISPSILH
 70
     0
  9
$DIMSCALE
 40
1.0
  9
$DIMASZ
 40
2.5
  9
$DIMEXO
 40
0.625
  9
$DIMDLI
 40
3.75
  9
$DIMRND
 40
0.0
  9
$DIMDLE
 40
0.0
  9
$DIMEXE
 40
1.25
  9
$DIMTP
 40
0.0
  9
$DIMTM
 40
0.0
  9
$DIMTXT
 40
2.5
  9
$DIMCEN
 40
2.5
  9
$DIMTSZ
 40
0.0
  9
$DIMTOL
 70
     0
  9
$DIMLIM
 70
     0
  9
$DIMTIH
 70
     0
  9
$DIMTOH
 70
     0
  9
$DIMSE1
 70
     0
  9
$DIMSE2
 70
     0
  9
$DIMTAD
 70
     1
  9
$DIMZIN
 70
     8
  9
$DIMBLK
  1

  9
$DIMASO
 70
     1
  9
$DIMSHO
 70
     1
  9
$DIMPOST
  1

  9
$DIMAPOST
  1

  9
$DIMALT
 70
     0
  9
$DIMALTD
 70
     3
  9
$DIMALTF
 40
0.0393700787
  9
$DIMLFAC
 40
1.0
  9
$DIMTOFL
 70
     1
  9
$DIMTVP
 40
0.0
  9
$DIMTIX
 70
     0
  9
$DIMSOXD
 70
     0
  9
$DIMSAH
 70
     0
  9
$DIMBLK1
  1

  9
$DIMBLK2
  1

  9
$DIMSTYLE
  2
ISO-25
  9
$DIMCLRD
 70
     0
  9
$DIMCLRE
 70
     0
  9
$DIMCLRT
 70
     0
  9
$DIMTFAC
 40
1.0
  9
$DIMGAP
 40
0.625
  9
$DIMJUST
 70
     0
  9
$DIMSD1
 70
     0
  9
$DIMSD2
 70
     0
  9
$DIMTOLJ
 70
     0
  9
$DIMTZIN
 70
     8
  9
$DIMALTZ
 70
     0
  9
$DIMALTTZ
 70
     0
  9
$DIMUPT
 70
     0
  9
$DIMDEC
 70
     2
  9
$DIMTDEC
 70
     2
  9
$DIMALTU
 70
     2
  9
$DIMALTTD
 70
     3
  9
$DIMTXSTY
  7
Standard
  9
$DIMAUNIT
 70
     0
  9
$DIMADEC
 70
     0
  9
$DIMALTRND
 40
0.0
  9
$DIMAZIN
 70
     0
  9
$DIMDSEP
 70
    44
  9
$DIMATFIT
 70
     3
  9
$DIMFRAC
 70
     0
  9
$DIMLDRBLK
  1

  9
$DIMLUNIT
 70
     2
  9
$DIMLWD
 70
    -2
  9
$DIMLWE
 70
    -2
  9
$DIMTMOVE
 70
     0
  9
$LUNITS
 70
     2
  9
$LUPREC
 70
     4
  9
$SKETCHINC
 40
1.0
  9
$FILLETRAD
 40
10.0
  9
$AUNITS
 70
     0
  9
$AUPREC
 70
     0
  9
$MENU
  1
.
  9
$ELEVATION
 40
0.0
  9
$PELEVATION
 40
0.0
  9
$THICKNESS
 40
0.0
  9
$LIMCHECK
 70
     0
  9
$CHAMFERA
 40
10.0
  9
$CHAMFERB
 40
10.0
  9
$CHAMFERC
 40
20.0
  9
$CHAMFERD
 40
0.0
  9
$SKPOLY
 70
     0
  9
$TDCREATE
 40
2455369.451944884
  9
$TDUCREATE
 40
2455369.368611551
  9
$TDUPDATE
 40
2455369.451944896
  9
$TDUUPDATE
 40
2455369.368611563
  9
$TDINDWG
 40
0.0000000116
  9
$TDUSRTIMER
 40
0.0000000116
  9
$USRTIMER
 70
     1
  9
$ANGBASE
 50
0.0
  9
$ANGDIR
 70
     0
  9
$PDMODE
 70
     0
  9
$PDSIZE
 40
0.0
  9
$PLINEWID
 40
0.0
  9
$SPLFRAME
 70
     0
  9
$SPLINETYPE
 70
     6
  9
$SPLINESEGS
 70
     8
  9
$HANDSEED
  5
418
  9
$SURFTAB1
 70
     6
  9
$SURFTAB2
 70
     6
  9
$SURFTYPE
 70
     6
  9
$SURFU
 70
     6
  9
$SURFV
 70
     6
  9
$UCSBASE
  2

  9
$UCSNAME
  2

  9
$UCSORG
 10
0.0
 20
0.0
 30
0.0
  9
$UCSXDIR
 10
1.0
 20
0.0
 30
0.0
  9
$UCSYDIR
 10
0.0
 20
1.0
 30
0.0
  9
$UCSORTHOREF
  2

  9
$UCSORTHOVIEW
 70
     0
  9
$UCSORGTOP
 10
0.0
 20
0.0
 30
0.0
  9
$UCSORGBOTTOM
 10
0.0
 20
0.0
 30
0.0
  9
$UCSORGLEFT
 10
0.0
 20
0.0
 30
0.0
  9
$UCSORGRIGHT
 10
0.0
 20
0.0
 30
0.0
  9
$UCSORGFRONT
 10
0.0
 20
0.0
 30
0.0
  9
$UCSORGBACK
 10
0.0
 20
0.0
 30
0.0
  9
$PUCSBASE
  2

  9
$PUCSNAME
  2

  9
$PUCSORG
 10
0.0
 20
0.0
 30
0.0
  9
$PUCSXDIR
 10
1.0
 20
0.0
 30
0.0
  9
$PUCSYDIR
 10
0.0
 20
1.0
 30
0.0
  9
$PUCSORTHOREF
  2

  9
$PUCSORTHOVIEW
 70
     0
  9
$PUCSORGTOP
 10
0.0
 20
0.0
 30
0.0
  9
$PUCSORGBOTTOM
 10
0.0
 20
0.0
 30
0.0
  9
$PUCSORGLEFT
 10
0.0
 20
0.0
 30
0.0
  9
$PUCSORGRIGHT
 10
0.0
 20
0.0
 30
0.0
  9
$PUCSORGFRONT
 10
0.0
 20
0.0
 30
0.0
  9
$PUCSORGBACK
 10
0.0
 20
0.0
 30
0.0
  9
$USERI1
 70
     0
  9
$USERI2
 70
     0
  9
$USERI3
 70
     0
  9
$USERI4
 70
     0
  9
$USERI5
 70
     0
  9
$USERR1
 40
0.0
  9
$USERR2
 40
0.0
  9
$USERR3
 40
0.0
  9
$USERR4
 40
0.0
  9
$USERR5
 40
0.0
  9
$WORLDVIEW
 70
     1
  9
$SHADEDGE
 70
     3
  9
$SHADEDIF
 70
    70
  9
$TILEMODE
 70
     1
  9
$MAXACTVP
 70
    64
  9
$PINSBASE
 10
0.0
 20
0.0
 30
0.0
  9
$PLIMCHECK
 70
     0
  9
$PEXTMIN
 10
0.0
 20
0.0
 30
0.0
  9
$PEXTMAX
 10
594.0
 20
420.0
 30
0.0
  9
$PLIMMIN
 10
0.0
 20
0.0
  9
$PLIMMAX
 10
594.0
 20
420.0
  9
$UNITMODE
 70
     0
  9
$VISRETAIN
 70
     1
  9
$PLINEGEN
 70
     0
  9
$PSLTSCALE
 70
     1
  9
$TREEDEPTH
 70
  3020
  9
$CMLSTYLE
  2
Standard
  9
$CMLJUST
 70
     0
  9
$CMLSCALE
 40
20.0
  9
$PROXYGRAPHICS
 70
     1
  9
$MEASUREMENT
 70
     1
  9
$CELWEIGHT
370
    -1
  9
$ENDCAPS
280
     0
  9
$JOINSTYLE
280
     0
  9
$LWDISPLAY
290
     0
  9
$INSUNITS
 70
     4
  9
$HYPERLINKBASE
  1

  9
$STYLESHEET
  1

  9
$XEDIT
290
     1
  9
$CEPSNTYPE
380
     0
  9
$PSTYLEMODE
290
     1
  9
$FINGERPRINTGUID
  2
{E34BCBCE-485F-4AB6-A610-7FCC86AB0BAC}
  9
$VERSIONGUID
  2
{FAEB1C32-E019-11D5-929B-00C0DF256EC4}
  9
$EXTNAMES
290
     1
  9
$PSVPSCALE
 40
0.0
  9
$OLESTARTUP
290
     0
  0
ENDSEC
  0
SECTION
  2
CLASSES
  0
CLASS
  1
ACDBDICTIONARYWDFLT
  2
AcDbDictionaryWithDefault
  3
ObjectDBX Classes
 90
        0
280
     0
281
     0
  0
CLASS
  1
ACDBPLACEHOLDER
  2
AcDbPlaceHolder
  3
ObjectDBX Classes
 90
        0
280
     0
281
     0
  0
CLASS
  1
LAYOUT
  2
AcDbLayout
  3
ObjectDBX Classes
 90
        0
280
     0
281
     0
  0
ENDSEC
  0
SECTION
  2
TABLES
  0
TABLE
  2
VPORT
  5
8
330
0
100
AcDbSymbolTable
 70
     1
  0
VPORT
  5
29
330
8
100
AcDbSymbolTableRecord
100
AcDbViewportTableRecord
  2
*Active
 70
     0
 10
0.0
 20
0.0
 11
1.0
 21
1.0
 12
344.1869158879
 22
148.5
 13
0.0
 23
0.0
 14
10.0
 24
10.0
 15
10.0
 25
10.0
 16
0.0
 26
0.0
 36
1.0
 17
0.0
 27
0.0
 37
0.0
 40
297.0
 41
1.9729729729
 42
50.0
 43
0.0
 44
0.0
 50
0.0
 51
0.0
 71
     0
 72
   100
 73
     1
 74
     3
 75
     0
 76
     0
 77
     0
 78
     0
281
     0
 65
     1
110
0.0
120
0.0
130
0.0
111
1.0
121
0.0
131
0.0
112
0.0
122
1.0
132
0.0
 79
     0
146
0.0
  0
ENDTAB
  0
TABLE
  2
LTYPE
  5
5
330
0
100
AcDbSymbolTable
 70
     2
  0
LTYPE
  5
14
330
5
100
AcDbSymbolTableRecord
100
AcDbLinetypeTableRecord
  2
ByBlock
 70
     0
  3

 72
    65
 73
     0
 40
0.0
  0
LTYPE
  5
15
330
5
100
AcDbSymbolTableRecord
100
AcDbLinetypeTableRecord
  2
ByLayer
 70
     0
  3

 72
    65
 73
     0
 40
0.0
  0
LTYPE
  5
16
330
5
100
AcDbSymbolTableRecord
100
AcDbLinetypeTableRecord
  2
Continuous
 70
     0
  3
Solid line
 72
    65
 73
     0
 40
0.0
  0
LTYPE
  5
53
330
5
100
AcDbSymbolTableRecord
100
AcDbLinetypeTableRecord
  2
CENTER2
 70
     0
  3
Center (.5x) ___ _ ___ _ ___ _ ___ _ ___ _ ___
 72
    65
 73
     4
 40
28.575
 49
19.05
 74
     4
 75
     0
340
0
 46
0.0
 50
0.0
 44
0.0
 45
0.0
 49
-3.175
 74
     4
 75
     0
340
0
 46
0.0
 50
0.0
 44
0.0
 45
0.0
 49
3.175
 74
     4
 75
     0
340
0
 46
0.0
 50
0.0
 44
0.0
 45
0.0
 49
-3.175
 74
     4
 75
     0
340
0
 46
0.0
 50
0.0
 44
0.0
 45
0.0
  0
ENDTAB
  0
TABLE
  2
LAYER
  5
2
330
0
100
AcDbSymbolTable
 70
    18
  0
LAYER
  5
10
330
2
100
AcDbSymbolTableRecord
100
AcDbLayerTableRecord
  2
0
 70
     0
 62
     7
  6
Continuous
370
    -3
390
F
  0
LAYER
  5
2A
330
2
100
AcDbSymbolTableRecord
100
AcDbLayerTableRecord
  2
_Übersetzung
 70
     1
 62
    -7
  6
Continuous
370
    -3
390
F
  0
LAYER
  5
44
330
2
100
AcDbSymbolTableRecord
100
AcDbLayerTableRecord
  2
91000_TIP
 70
     0
 62
     7
  6
Continuous
370
    -3
390
F
  0
LAYER
  5
C4
330
2
100
AcDbSymbolTableRecord
100
AcDbLayerTableRecord
  2
GEHÄUSEHÄLFTE_VO
 70
     0
 62
     7
  6
Continuous
370
    -3
390
F
  0
LAYER
  5
C5
330
2
100
AcDbSymbolTableRecord
100
AcDbLayerTableRecord
  2
DC_24V
 70
     0
 62
     7
  6
Continuous
370
    -3
390
F
  0
LAYER
  5
C6
330
2
100
AcDbSymbolTableRecord
100
AcDbLayerTableRecord
  2
PS_307
 70
     0
 62
     7
  6
Continuous
370
    -3
390
F
  0
LAYER
  5
C7
330
2
100
AcDbSymbolTableRecord
100
AcDbLayerTableRecord
  2
SCHALTER_EIN
 70
     0
 62
     7
  6
Continuous
370
    -3
390
F
  0
LAYER
  5
C8
330
2
100
AcDbSymbolTableRecord
100
AcDbLayerTableRecord
  2
2A
 70
     0
 62
     7
  6
Continuous
370
    -3
390
F
  0
LAYER
  5
C9
330
2
100
AcDbSymbolTableRecord
100
AcDbLayerTableRecord
  2
SCHALTER_AUS
 70
     0
 62
     7
  6
Continuous
370
    -3
390
F
  0
LAYER
  5
CA
330
2
100
AcDbSymbolTableRecord
100
AcDbLayerTableRecord
  2
KIPPSCHALTER_26-
 70
     0
 62
     7
  6
Continuous
370
    -3
390
F
  0
LAYER
  5
CB
330
2
100
AcDbSymbolTableRecord
100
AcDbLayerTableRecord
  2
GEHÄUSEHÄLFTE_HI
 70
     0
 62
     7
  6
Continuous
370
    -3
390
F
  0
LAYER
  5
CC
330
2
100
AcDbSymbolTableRecord
100
AcDbLayerTableRecord
  2
DECKEL
 70
     0
 62
     7
  6
Continuous
370
    -3
390
F
  0
LAYER
  5
CD
330
2
100
AcDbSymbolTableRecord
100
AcDbLayerTableRecord
  2
LICHTLEITER
 70
     0
 62
     7
  6
Continuous
370
    -3
390
F
  0
LAYER
  5
23C
330
2
100
AcDbSymbolTableRecord
100
AcDbLayerTableRecord
  2
ZUGENTLASTUNG
 70
     0
 62
     7
  6
Continuous
370
    -3
390
F
  0
LAYER
  5
23D
330
2
100
AcDbSymbolTableRecord
100
AcDbLayerTableRecord
  2
SCHRAUBE_ZUGENTL
 70
     0
 62
     7
  6
Continuous
370
    -3
390
F
  0
LAYER
  5
23E
330
2
100
AcDbSymbolTableRecord
100
AcDbLayerTableRecord
  2
SCHRAUBE_S7_SCHI
 70
     0
 62
     7
  6
Continuous
370
    -3
390
F
  0
LAYER
  5
23F
330
2
100
AcDbSymbolTableRecord
100
AcDbLayerTableRecord
  2
SEKUNDÄRKLEMME-D
 70
     0
 62
     7
  6
Continuous
370
    -3
390
F
  0
LAYER
  5
3CB
330
2
100
AcDbSymbolTableRecord
100
AcDbLayerTableRecord
  2
Default
 70
     0
 62
     7
  6
Continuous
370
    -3
390
F
  0
ENDTAB
  0
TABLE
  2
STYLE
  5
3
330
0
100
AcDbSymbolTable
 70
     2
  0
STYLE
  5
11
330
3
100
AcDbSymbolTableRecord
100
AcDbTextStyleTableRecord
  2
Standard
 70
     0
 40
0.0
 41
1.0
 50
0.0
 71
     0
 42
2.5
  3
txt
  4

  0
STYLE
  5
3D
330
3
100
AcDbSymbolTableRecord
100
AcDbTextStyleTableRecord
  2
SEACAD_seiso_ttf
 70
     0
 40
0.0
 41
1.0
 50
0.0
 71
     0
 42
0.2
  3
seiso.ttf
  4

  0
ENDTAB
  0
TABLE
  2
VIEW
  5
6
330
0
100
AcDbSymbolTable
 70
     0
  0
ENDTAB
  0
TABLE
  2
UCS
  5
7
330
0
100
AcDbSymbolTable
 70
     0
  0
ENDTAB
  0
TABLE
  2
APPID
  5
9
330
0
100
AcDbSymbolTable
 70
     1
  0
APPID
  5
12
330
9
100
AcDbSymbolTableRecord
100
AcDbRegAppTableRecord
  2
ACAD
 70
     0
  0
ENDTAB
  0
TABLE
  2
DIMSTYLE
  5
A
330
0
100
AcDbSymbolTable
 70
     3
100
AcDbDimStyleTable
  0
DIMSTYLE
105
27
330
A
100
AcDbSymbolTableRecord
100
AcDbDimStyleTableRecord
  2
ISO-25
 70
     0
 41
2.5
 42
0.625
 43
3.75
 44
1.25
 73
     0
 74
     0
 77
     1
 78
     8
140
2.5
141
2.5
143
0.0393700787
147
0.625
171
     3
172
     1
271
     2
272
     2
274
     3
278
    44
283
     0
284
     8
340
11
  0
DIMSTYLE
105
3CC
330
A
100
AcDbSymbolTableRecord
100
AcDbDimStyleTableRecord
  2
Standard
 70
     0
340
11
  0
DIMSTYLE
105
3DB
102
{ACAD_REACTORS
330
3DC
330
3E6
330
3F0
330
3FA
330
404
330
40E
102
}
330
A
100
AcDbSymbolTableRecord
100
AcDbDimStyleTableRecord
  2
Siemens
 70
     0
 41
5.0
 42
2.5
 44
2.5
 73
     0
 74
     0
 77
     1
 78
     8
140
5.0
141
2.5
147
0.5
173
     1
179
     1
271
     0
272
     0
284
     8
340
3D
343
3D6
344
3D6
  0
ENDTAB
  0
TABLE
  2
BLOCK_RECORD
  5
1
330
0
100
AcDbSymbolTable
 70
    12
  0
BLOCK_RECORD
  5
1F
330
1
100
AcDbSymbolTableRecord
100
AcDbBlockTableRecord
  2
*Model_Space
340
22
  0
BLOCK_RECORD
  5
1B
330
1
100
AcDbSymbolTableRecord
100
AcDbBlockTableRecord
  2
*Paper_Space
340
1E
  0
BLOCK_RECORD
  5
CE
330
1
100
AcDbSymbolTableRecord
100
AcDbBlockTableRecord
  2
SE
340
0
102
{BLKREFS
331
23B
102
}
1001
ACAD
1000
DesignCenter Data
1002
{
1070
     1
1070
     0
1002
}
  0
BLOCK_RECORD
  5
240
330
1
100
AcDbSymbolTableRecord
100
AcDbBlockTableRecord
  2
SE1
340
0
102
{BLKREFS
331
3CA
102
}
1001
ACAD
1000
DesignCenter Data
1002
{
1070
     1
1070
     0
1002
}
  0
BLOCK_RECORD
  5
3CD
330
1
100
AcDbSymbolTableRecord
100
AcDbBlockTableRecord
  2
_Oblique
340
0
1001
ACAD
1000
DesignCenter Data
1002
{
1070
     1
1070
     0
1002
}
  0
BLOCK_RECORD
  5
3D1
330
1
100
AcDbSymbolTableRecord
100
AcDbBlockTableRecord
  2
_Dot
340
0
1001
ACAD
1000
DesignCenter Data
1002
{
1070
     1
1070
     0
1002
}
  0
BLOCK_RECORD
  5
3D6
330
1
100
AcDbSymbolTableRecord
100
AcDbBlockTableRecord
  2
_SE_FILLED
340
0
1001
ACAD
1000
DesignCenter Data
1002
{
1070
     1
1070
     0
1002
}
  0
BLOCK_RECORD
  5
3DD
330
1
100
AcDbSymbolTableRecord
100
AcDbBlockTableRecord
  2
DMBLK6
340
0
1001
ACAD
1000
DesignCenter Data
1002
{
1070
     1
1070
     0
1002
}
  0
BLOCK_RECORD
  5
3E7
330
1
100
AcDbSymbolTableRecord
100
AcDbBlockTableRecord
  2
DMBLK7
340
0
1001
ACAD
1000
DesignCenter Data
1002
{
1070
     1
1070
     0
1002
}
  0
BLOCK_RECORD
  5
3F1
330
1
100
AcDbSymbolTableRecord
100
AcDbBlockTableRecord
  2
DMBLK8
340
0
1001
ACAD
1000
DesignCenter Data
1002
{
1070
     1
1070
     0
1002
}
  0
BLOCK_RECORD
  5
3FB
330
1
100
AcDbSymbolTableRecord
100
AcDbBlockTableRecord
  2
DMBLK9
340
0
1001
ACAD
1000
DesignCenter Data
1002
{
1070
     1
1070
     0
1002
}
  0
BLOCK_RECORD
  5
405
330
1
100
AcDbSymbolTableRecord
100
AcDbBlockTableRecord
  2
DMBLK10
340
0
1001
ACAD
1000
DesignCenter Data
1002
{
1070
     1
1070
     0
1002
}
  0
BLOCK_RECORD
  5
40F
330
1
100
AcDbSymbolTableRecord
100
AcDbBlockTableRecord
  2
DMBLK11
340
0
1001
ACAD
1000
DesignCenter Data
1002
{
1070
     1
1070
     0
1002
}
  0
ENDTAB
  0
ENDSEC
  0
SECTION
  2
BLOCKS
  0
BLOCK
  5
20
330
1F
100
AcDbEntity
  8
0
100
AcDbBlockBegin
  2
*Model_Space
 70
     0
 71
     0
 10
0.0
 20
0.0
 30
0.0
  3
*Model_Space
  1

  0
ENDBLK
  5
21
330
1F
100
AcDbEntity
  8
0
100
AcDbBlockEnd
  0
BLOCK
  5
1C
330
1B
100
AcDbEntity
 67
     1
  8
0
100
AcDbBlockBegin
  2
*Paper_Space
 70
     0
 71
     0
 10
0.0
 20
0.0
 30
0.0
  3
*Paper_Space
  1

  0
ENDBLK
  5
1D
330
1B
100
AcDbEntity
 67
     1
  8
0
100
AcDbBlockEnd
  0
BLOCK
  5
239
330
CE
100
AcDbEntity
  8
0
100
AcDbBlockBegin
  2
SE
 70
     0
 71
     0
 10
0.0
 20
0.0
 30
0.0
  3
SE
  1

  0
LINE
  5
CF
330
CE
100
AcDbEntity
  8
GEHÄUSEHÄLFTE_VO
  6
Continuous
 62
     7
100
AcDbLine
 10
124.8925230467
 20
181.1929943564
 30
0.0
 11
124.8925230467
 21
182.3929943564
 31
0.0
  0
LINE
  5
D0
330
CE
100
AcDbEntity
  8
GEHÄUSEHÄLFTE_VO
  6
Continuous
 62
     7
100
AcDbLine
 10
122.0425230467
 20
182.3929943564
 30
0.0
 11
123.8925230467
 21
182.3929943564
 31
0.0
  0
LINE
  5
D1
330
CE
100
AcDbEntity
  8
GEHÄUSEHÄLFTE_VO
  6
Continuous
 62
     7
100
AcDbLine
 10
87.7425230467
 20
182.3929943564
 30
0.0
 11
85.8925230467
 21
182.3929943564
 31
0.0
  0
LINE
  5
D2
330
CE
100
AcDbEntity
  8
GEHÄUSEHÄLFTE_VO
  6
Continuous
 62
     7
100
AcDbLine
 10
84.8925230467
 20
182.3929943564
 30
0.0
 11
84.8925230467
 21
181.1929943564
 31
0.0
  0
LINE
  5
D3
330
CE
100
AcDbEntity
  8
GEHÄUSEHÄLFTE_VO
  6
Continuous
 62
     7
100
AcDbLine
 10
87.2425230467
 20
163.0897814395
 30
0.0
 11
87.2425230467
 21
163.6929943564
 31
0.0
  0
LINE
  5
D4
330
CE
100
AcDbEntity
  8
GEHÄUSEHÄLFTE_VO
  6
Continuous
 62
     7
100
AcDbLine
 10
122.5425230467
 20
163.6929943564
 30
0.0
 11
122.5425230467
 21
163.0897814395
 31
0.0
  0
LINE
  5
D5
330
CE
100
AcDbEntity
  8
GEHÄUSEHÄLFTE_VO
  6
Continuous
 62
     7
100
AcDbLine
 10
122.5425230467
 20
182.3929943564
 30
0.0
 11
122.5425230467
 21
180.345387271
 31
0.0
  0
LINE
  5
D6
330
CE
100
AcDbEntity
  8
GEHÄUSEHÄLFTE_VO
  6
Continuous
 62
     7
100
AcDbLine
 10
122.0425230467
 20
176.1502907118
 30
0.0
 11
122.0425230467
 21
182.3929943564
 31
0.0
  0
LINE
  5
D7
330
CE
100
AcDbEntity
  8
GEHÄUSEHÄLFTE_VO
  6
Continuous
 62
     7
100
AcDbLine
 10
122.5425230467
 20
173.9929943564
 30
0.0
 11
122.5425230467
 21
171.2823551079
 31
0.0
  0
LINE
  5
D8
330
CE
100
AcDbEntity
  8
GEHÄUSEHÄLFTE_VO
  6
Continuous
 62
     7
100
AcDbLine
 10
122.5425230467
 20
166.1897814395
 30
0.0
 11
122.5425230467
 21
163.8269689527
 31
0.0
  0
LINE
  5
D9
330
CE
100
AcDbEntity
  8
GEHÄUSEHÄLFTE_VO
  6
Continuous
 62
     7
100
AcDbLine
 10
122.5425230467
 20
173.9929943564
 30
0.0
 11
122.5425230467
 21
174.3855723755
 31
0.0
  0
LINE
  5
DA
330
CE
100
AcDbEntity
  8
GEHÄUSEHÄLFTE_VO
  6
Continuous
 62
     7
100
AcDbLine
 10
122.0425230467
 20
176.1502907118
 30
0.0
 11
122.0425230467
 21
174.4929943564
 31
0.0
  0
SPLINE
  5
DB
330
CE
100
AcDbEntity
  8
GEHÄUSEHÄLFTE_VO
  6
Continuous
 62
     7
100
AcDbSpline
210
0.0
220
0.0
230
1.0
 70
    12
 71
     2
 72
     6
 73
     3
 74
     0
 42
0.0000000076604444
 43
0.0000000001
 40
0.0
 40
0.0
 40
0.0
 40
1.0
 40
1.0
 40
1.0
 10
122.5425230467278
 20
176.3834445408462
 30
0.0
 41
1.0
 10
122.0425230467278
 20
176.8029943564348
 30
0.0
 41
0.7071067811864943
 10
122.0425230467278
 20
176.1502907117687
 30
0.0
 41
1.0
  0
ARC
  5
DC
330
CE
100
AcDbEntity
  8
GEHÄUSEHÄLFTE_VO
  6
Continuous
 62
     7
100
AcDbCircle
 10
122.5425230467
 20
174.4929943564
 30
0.0
 40
0.5000000000000004
100
AcDbArc
 50
180.0
 51
270.0
  0
SPLINE
  5
DD
330
CE
100
AcDbEntity
  8
GEHÄUSEHÄLFTE_VO
  6
Continuous
 62
     7
100
AcDbSpline
210
0.0
220
0.0
230
1.0
 70
    12
 71
     2
 72
     6
 73
     3
 74
     0
 42
0.0000000113247433
 43
0.0000000001
 40
0.0
 40
0.0
 40
0.0
 40
1.0
 40
1.0
 40
1.0
 10
122.5425230467278
 20
175.7590387995538
 30
0.0
 41
1.0
 10
122.0425230467278
 20
175.7590387995538
 30
0.0
 41
0.7071067811864948
 10
122.0425230467278
 20
175.3760165779943
 30
0.0
 41
1.0
  0
LINE
  5
DE
330
CE
100
AcDbEntity
  8
GEHÄUSEHÄLFTE_VO
  6
Continuous
 62
     7
100
AcDbLine
 10
87.7425230467
 20
182.3929943564
 30
0.0
 11
87.7425230467
 21
176.1502907118
 31
0.0
  0
LINE
  5
DF
330
CE
100
AcDbEntity
  8
GEHÄUSEHÄLFTE_VO
  6
Continuous
 62
     7
100
AcDbLine
 10
87.7425230467
 20
174.4929943564
 30
0.0
 11
87.7425230467
 21
164.6929943564
 31
0.0
  0
LINE
  5
E0
330
CE
100
AcDbEntity
  8
GEHÄUSEHÄLFTE_VO
  6
Continuous
 62
     7
100
AcDbLine
 10
87.2425230467
 20
180.345387271
 30
0.0
 11
87.2425230467
 21
182.3929943564
 31
0.0
  0
LINE
  5
E1
330
CE
100
AcDbEntity
  8
GEHÄUSEHÄLFTE_VO
  6
Continuous
 62
     7
100
AcDbLine
 10
87.2425230467
 20
174.3855723755
 30
0.0
 11
87.2425230467
 21
173.9929943564
 31
0.0
  0
LINE
  5
E2
330
CE
100
AcDbEntity
  8
GEHÄUSEHÄLFTE_VO
  6
Continuous
 62
     7
100
AcDbLine
 10
87.7425230467
 20
174.4929943564
 30
0.0
 11
87.7425230467
 21
176.1502907118
 31
0.0
  0
ARC
  5
E3
330
CE
100
AcDbEntity
  8
GEHÄUSEHÄLFTE_VO
  6
Continuous
 62
     7
100
AcDbCircle
 10
87.2425230467
 20
174.4929943564
 30
0.0
 40
0.5000000000000004
100
AcDbArc
 50
270.0
 51
360.0
  0
SPLINE
  5
E4
330
CE
100
AcDbEntity
  8
GEHÄUSEHÄLFTE_VO
  6
Continuous
 62
     7
100
AcDbSpline
210
0.0
220
0.0
230
1.0
 70
    12
 71
     2
 72
     6
 73
     3
 74
     0
 42
0.0000000076604444
 43
0.0000000001
 40
0.0
 40
0.0
 40
0.0
 40
1.0
 40
1.0
 40
1.0
 10
87.74252304672784
 20
176.1502907117687
 30
0.0
 41
1.0
 10
87.74252304672784
 20
176.8029943564348
 30
0.0
 41
0.7071067811864855
 10
87.24252304672783
 20
176.3834445408462
 30
0.0
 41
1.0
  0
SPLINE
  5
E5
330
CE
100
AcDbEntity
  8
GEHÄUSEHÄLFTE_VO
  6
Continuous
 62
     7
100
AcDbSpline
210
0.0
220
0.0
230
1.0
 70
    12
 71
     2
 72
     6
 73
     3
 74
     0
 42
0.0000000113247433
 43
0.0000000001
 40
0.0
 40
0.0
 40
0.0
 40
1.0
 40
1.0
 40
1.0
 10
87.74252304672784
 20
175.3760165779943
 30
0.0
 41
1.0
 10
87.74252304672784
 20
175.7590387995538
 30
0.0
 41
0.7071067811864952
 10
87.24252304672783
 20
175.7590387995538
 30
0.0
 41
1.0
  0
LINE
  5
E6
330
CE
100
AcDbEntity
  8
GEHÄUSEHÄLFTE_VO
  6
Continuous
 62
     7
100
AcDbLine
 10
85.8925230467
 20
222.9929943564
 30
0.0
 11
123.8925230467
 21
222.9929943564
 31
0.0
  0
LINE
  5
E7
330
CE
100
AcDbEntity
  8
GEHÄUSEHÄLFTE_VO
  6
Continuous
 62
     7
100
AcDbLine
 10
124.8925230467
 20
221.9929943564
 30
0.0
 11
124.8925230467
 21
182.3929943564
 31
0.0
  0
LINE
  5
E8
330
CE
100
AcDbEntity
  8
GEHÄUSEHÄLFTE_VO
  6
Continuous
 62
     7
100
AcDbLine
 10
85.8925230467
 20
221.9929943564
 30
0.0
 11
85.8925230467
 21
182.3929943564
 31
0.0
  0
LINE
  5
E9
330
CE
100
AcDbEntity
  8
GEHÄUSEHÄLFTE_VO
  6
Continuous
 62
     7
100
AcDbLine
 10
123.8925230467
 20
221.9929943564
 30
0.0
 11
85.8925230467
 21
221.9929943564
 31
0.0
  0
LINE
  5
EA
330
CE
100
AcDbEntity
  8
GEHÄUSEHÄLFTE_VO
  6
Continuous
 62
     7
100
AcDbLine
 10
123.8925230467
 20
182.3929943564
 30
0.0
 11
123.8925230467
 21
221.9929943564
 31
0.0
  0
LINE
  5
EB
330
CE
100
AcDbEntity
  8
GEHÄUSEHÄLFTE_VO
  6
Continuous
 62
     7
100
AcDbLine
 10
124.8925230467
 20
182.3929943564
 30
0.0
 11
123.8925230467
 21
182.3929943564
 31
0.0
  0
LINE
  5
EC
330
CE
100
AcDbEntity
  8
GEHÄUSEHÄLFTE_VO
  6
Continuous
 62
     7
100
AcDbLine
 10
84.8925230467
 20
182.3929943564
 30
0.0
 11
84.8925230467
 21
221.9929943564
 31
0.0
  0
LINE
  5
ED
330
CE
100
AcDbEntity
  8
GEHÄUSEHÄLFTE_VO
  6
Continuous
 62
     7
100
AcDbLine
 10
85.8925230467
 20
182.3929943564
 30
0.0
 11
84.8925230467
 21
182.3929943564
 31
0.0
  0
LINE
  5
EE
330
CE
100
AcDbEntity
  8
GEHÄUSEHÄLFTE_VO
  6
Continuous
 62
     7
100
AcDbLine
 10
84.8925230467
 20
221.9929943564
 30
0.0
 11
85.8925230467
 21
221.9929943564
 31
0.0
  0
ARC
  5
EF
330
CE
100
AcDbEntity
  8
GEHÄUSEHÄLFTE_VO
  6
Continuous
 62
     7
100
AcDbCircle
 10
85.8925230467
 20
221.9929943564
 30
0.0
 40
1.000000000000001
100
AcDbArc
 50
90.0
 51
180.0
  0
LINE
  5
F0
330
CE
100
AcDbEntity
  8
GEHÄUSEHÄLFTE_VO
  6
Continuous
 62
     7
100
AcDbLine
 10
85.8925230467
 20
222.9929943564
 30
0.0
 11
85.8925230467
 21
221.9929943564
 31
0.0
  0
LINE
  5
F1
330
CE
100
AcDbEntity
  8
GEHÄUSEHÄLFTE_VO
  6
Continuous
 62
     7
100
AcDbLine
 10
123.8925230467
 20
221.9929943564
 30
0.0
 11
124.8925230467
 21
221.9929943564
 31
0.0
  0
LINE
  5
F2
330
CE
100
AcDbEntity
  8
GEHÄUSEHÄLFTE_VO
  6
Continuous
 62
     7
100
AcDbLine
 10
123.8925230467
 20
222.9929943564
 30
0.0
 11
123.8925230467
 21
221.9929943564
 31
0.0
  0
ARC
  5
F3
330
CE
100
AcDbEntity
  8
GEHÄUSEHÄLFTE_VO
  6
Continuous
 62
     7
100
AcDbCircle
 10
123.8925230467
 20
221.9929943564
 30
0.0
 40
1.000000000000001
100
AcDbArc
 50
0.0
 51
90.0
  0
LINE
  5
F4
330
CE
100
AcDbEntity
  8
GEHÄUSEHÄLFTE_VO
  6
Continuous
 62
     7
100
AcDbLine
 10
122.5425230467
 20
163.6929943564
 30
0.0
 11
87.2425230467
 21
163.6929943564
 31
0.0
  0
LINE
  5
F5
330
CE
100
AcDbEntity
  8
GEHÄUSEHÄLFTE_VO
  6
Continuous
 62
     7
100
AcDbLine
 10
87.2425230467
 20
163.8269689527
 30
0.0
 11
87.2425230467
 21
166.1897814395
 31
0.0
  0
LINE
  5
F6
330
CE
100
AcDbEntity
  8
GEHÄUSEHÄLFTE_VO
  6
Continuous
 62
     7
100
AcDbLine
 10
87.2425230467
 20
171.2823551079
 30
0.0
 11
87.2425230467
 21
173.9929943564
 31
0.0
  0
LINE
  5
F7
330
CE
100
AcDbEntity
  8
GEHÄUSEHÄLFTE_VO
  6
Continuous
 62
     7
100
AcDbLine
 10
87.2425230467
 20
163.6929943564
 30
0.0
 11
87.2425230467
 21
163.8269689527
 31
0.0
  0
ARC
  5
F8
330
CE
100
AcDbEntity
  8
GEHÄUSEHÄLFTE_VO
  6
Continuous
 62
     7
100
AcDbCircle
 10
86.7425230467
 20
164.6929943564
 30
0.0
 40
1.000000000000001
100
AcDbArc
 50
300.0
 51
360.0
  0
LINE
  5
F9
330
CE
100
AcDbEntity
  8
GEHÄUSEHÄLFTE_VO
  6
Continuous
 62
     7
100
AcDbLine
 10
122.0425230467
 20
164.6929943564
 30
0.0
 11
122.0425230467
 21
174.4929943564
 31
0.0
  0
LINE
  5
FA
330
CE
100
AcDbEntity
  8
GEHÄUSEHÄLFTE_VO
  6
Continuous
 62
     7
100
AcDbLine
 10
87.7425230467
 20
164.6929943564
 30
0.0
 11
122.0425230467
 21
164.6929943564
 31
0.0
  0
ARC
  5
FB
330
CE
100
AcDbEntity
  8
GEHÄUSEHÄLFTE_VO
  6
Continuous
 62
     7
100
AcDbCircle
 10
123.0425230467
 20
164.6929943564
 30
0.0
 40
1.000000000000001
100
AcDbArc
 50
180.0
 51
240.0
  0
LINE
  5
FC
330
CE
100
AcDbEntity
  8
GEHÄUSEHÄLFTE_VO
  6
Continuous
 62
     7
100
AcDbLine
 10
122.5425230467
 20
163.8269689527
 30
0.0
 11
122.5425230467
 21
163.6929943564
 31
0.0
  0
LINE
  5
FD
330
CE
100
AcDbEntity
  8
GEHÄUSEHÄLFTE_VO
  6
Continuous
 62
     7
100
AcDbLine
 10
93.8175230467
 20
166.948386939
 30
0.0
 11
93.8175230467
 21
177.1976017739
 31
0.0
  0
LINE
  5
FE
330
CE
100
AcDbEntity
  8
GEHÄUSEHÄLFTE_VO
  6
Continuous
 62
     7
100
AcDbLine
 10
93.6096763844
 20
167.6476910294
 30
0.0
 11
93.8175230467
 21
166.948386939
 31
0.0
  0
SPLINE
  5
FF
330
CE
100
AcDbEntity
  8
GEHÄUSEHÄLFTE_VO
  6
Continuous
 62
     7
100
AcDbSpline
210
0.0
220
0.0
230
1.0
 70
    12
 71
     2
 72
     6
 73
     3
 74
     0
 42
0.0000001705010883
 43
0.0000000001
 40
0.0
 40
0.0
 40
0.0
 40
1.0
 40
1.0
 40
1.0
 10
93.60511280915271
 20
167.7058852646524
 30
0.0
 41
1.0
 10
93.60672346708881
 20
167.6576261763743
 30
0.0
 41
0.91527809383182
 10
93.60967638436367
 20
167.6476910294462
 30
0.0
 41
1.0
  0
SPLINE
  5
100
330
CE
100
AcDbEntity
  8
GEHÄUSEHÄLFTE_VO
  6
Continuous
 62
     7
100
AcDbSpline
210
0.0
220
0.0
230
1.0
 70
    12
 71
     2
 72
     6
 73
     3
 74
     0
 42
0.000000001144285
 43
0.0000000001
 40
0.0
 40
0.0
 40
0.0
 40
1.0
 40
1.0
 40
1.0
 10
93.60511280915273
 20
176.4401034482171
 30
0.0
 41
1.0
 10
93.45935956002523
 20
172.0729943564348
 30
0.0
 41
0.8434805037039007
 10
93.60511280915273
 20
167.7058852646525
 30
0.0
 41
1.0
  0
SPLINE
  5
101
330
CE
100
AcDbEntity
  8
GEHÄUSEHÄLFTE_VO
  6
Continuous
 62
     7
100
AcDbSpline
210
0.0
220
0.0
230
1.0
 70
    12
 71
     2
 72
     6
 73
     3
 74
     0
 42
0.0000001705010883
 43
0.0000000001
 40
0.0
 40
0.0
 40
0.0
 40
1.0
 40
1.0
 40
1.0
 10
93.60967638436365
 20
176.4982976834234
 30
0.0
 41
1.0
 10
93.60672346708881
 20
176.4883625364952
 30
0.0
 41
0.9152780938287112
 10
93.60511280915271
 20
176.4401034482171
 30
0.0
 41
1.0
  0
LINE
  5
102
330
CE
100
AcDbEntity
  8
GEHÄUSEHÄLFTE_VO
  6
Continuous
 62
     7
100
AcDbLine
 10
93.8175230467
 20
177.1976017739
 30
0.0
 11
93.6096763844
 21
176.4982976834
 31
0.0
  0
LINE
  5
103
330
CE
100
AcDbEntity
  8
GEHÄUSEHÄLFTE_VO
  6
Continuous
 62
     7
100
AcDbLine
 10
92.9542465541
 20
178.0729943564
 30
0.0
 11
92.3807995394
 21
178.0729943564
 31
0.0
  0
LINE
  5
104
330
CE
100
AcDbEntity
  8
GEHÄUSEHÄLFTE_VO
  6
Continuous
 62
     7
100
AcDbLine
 10
92.7408686891
 20
177.3550804285
 30
0.0
 11
92.5941774043
 21
177.3550804285
 31
0.0
  0
LINE
  5
105
330
CE
100
AcDbEntity
  8
GEHÄUSEHÄLFTE_VO
  6
Continuous
 62
     7
100
AcDbLine
 10
92.7408686891
 20
177.3550804285
 30
0.0
 11
92.9542465541
 21
178.0729943564
 31
0.0
  0
LINE
  5
106
330
CE
100
AcDbEntity
  8
GEHÄUSEHÄLFTE_VO
  6
Continuous
 62
     7
100
AcDbLine
 10
92.7363051139
 20
176.9074324654
 30
0.0
 11
92.5987409795
 21
176.9074324654
 31
0.0
  0
SPLINE
  5
107
330
CE
100
AcDbEntity
  8
GEHÄUSEHÄLFTE_VO
  6
Continuous
 62
     7
100
AcDbSpline
210
0.0
220
0.0
230
1.0
 70
    12
 71
     2
 72
     6
 73
     3
 74
     0
 42
0.0000000223359627
 43
0.0000000001
 40
0.0
 40
0.0
 40
0.0
 40
1.0
 40
1.0
 40
1.0
 10
92.7408686891272
 20
177.355080428544
 30
0.0
 41
1.0
 10
92.73791577185231
 20
177.2786562214044
 30
0.0
 41
0.9152780938150431
 10
92.73630511391619
 20
176.9074324654189
 30
0.0
 41
1.0
  0
LINE
  5
108
330
CE
100
AcDbEntity
  8
GEHÄUSEHÄLFTE_VO
  6
Continuous
 62
     7
100
AcDbLine
 10
92.7363051139
 20
167.2385562475
 30
0.0
 11
92.5987409795
 21
167.2385562475
 31
0.0
  0
SPLINE
  5
109
330
CE
100
AcDbEntity
  8
GEHÄUSEHÄLFTE_VO
  6
Continuous
 62
     7
100
AcDbSpline
210
0.0
220
0.0
230
1.0
 70
    12
 71
     2
 72
     6
 73
     3
 74
     0
 42
0.0000000010337766
 43
0.0000000001
 40
0.0
 40
0.0
 40
0.0
 40
1.0
 40
1.0
 40
1.0
 10
92.73630511391625
 20
176.9074324654189
 30
0.0
 41
1.0
 10
92.59055186478874
 20
172.0729943564348
 30
0.0
 41
0.8434805037037492
 10
92.73630511391625
 20
167.2385562474507
 30
0.0
 41
1.0
  0
LINE
  5
10A
330
CE
100
AcDbEntity
  8
GEHÄUSEHÄLFTE_VO
  6
Continuous
 62
     7
100
AcDbLine
 10
92.7408686891
 20
166.7909082843
 30
0.0
 11
92.5941774043
 21
166.7909082843
 31
0.0
  0
SPLINE
  5
10B
330
CE
100
AcDbEntity
  8
GEHÄUSEHÄLFTE_VO
  6
Continuous
 62
     7
100
AcDbSpline
210
0.0
220
0.0
230
1.0
 70
    12
 71
     2
 72
     6
 73
     3
 74
     0
 42
0.0000000223359627
 43
0.0000000001
 40
0.0
 40
0.0
 40
0.0
 40
1.0
 40
1.0
 40
1.0
 10
92.73630511391619
 20
167.2385562474507
 30
0.0
 41
1.0
 10
92.73791577185231
 20
166.8673324914653
 30
0.0
 41
0.9152780938150127
 10
92.7408686891272
 20
166.7909082843256
 30
0.0
 41
1.0
  0
LINE
  5
10C
330
CE
100
AcDbEntity
  8
GEHÄUSEHÄLFTE_VO
  6
Continuous
 62
     7
100
AcDbLine
 10
92.9542465541
 20
166.0729943564
 30
0.0
 11
92.7408686891
 21
166.7909082843
 31
0.0
  0
SPLINE
  5
10D
330
CE
100
AcDbEntity
  8
GEHÄUSEHÄLFTE_VO
  6
Continuous
 62
     7
100
AcDbSpline
210
0.0
220
0.0
230
1.0
 70
    12
 71
     2
 72
     6
 73
     3
 74
     0
 42
0.0000000057515258
 43
0.0000000001
 40
0.0
 40
0.0
 40
0.0
 40
1.0
 40
1.0
 40
1.0
 10
93.81752304672783
 20
177.1976017738919
 30
0.0
 41
1.0
 10
93.8175230467278
 20
178.0729943564349
 30
0.0
 41
0.7103126225219142
 10
92.95424655407979
 20
178.0729943564348
 30
0.0
 41
1.0
  0
SPLINE
  5
10E
330
CE
100
AcDbEntity
  8
GEHÄUSEHÄLFTE_VO
  6
Continuous
 62
     7
100
AcDbSpline
210
0.0
220
0.0
230
1.0
 70
    12
 71
     2
 72
     6
 73
     3
 74
     0
 42
0.0000000057515258
 43
0.0000000001
 40
0.0
 40
0.0
 40
0.0
 40
1.0
 40
1.0
 40
1.0
 10
92.95424655407977
 20
166.0729943564348
 30
0.0
 41
1.0
 10
93.81752304672783
 20
166.0729943564347
 30
0.0
 41
0.7103126225219443
 10
93.81752304672783
 20
166.9483869389777
 30
0.0
 41
1.0
  0
SPLINE
  5
10F
330
CE
100
AcDbEntity
  8
GEHÄUSEHÄLFTE_VO
  6
Continuous
 62
     7
100
AcDbSpline
210
0.0
220
0.0
230
1.0
 70
    12
 71
     2
 72
     6
 73
     3
 74
     0
 42
0.0000000058475426
 43
0.0000000001
 40
0.0
 40
0.0
 40
0.0
 40
1.0
 40
1.0
 40
1.0
 10
92.7408686891272
 20
166.7909082843256
 30
0.0
 41
1.0
 10
93.60185173306955
 20
166.7986246365772
 30
0.0
 41
0.7103126225219216
 10
93.60967638436368
 20
167.6476910294462
 30
0.0
 41
1.0
  0
SPLINE
  5
110
330
CE
100
AcDbEntity
  8
GEHÄUSEHÄLFTE_VO
  6
Continuous
 62
     7
100
AcDbSpline
210
0.0
220
0.0
230
1.0
 70
    12
 71
     2
 72
     6
 73
     3
 74
     0
 42
0.0000000078040451
 43
0.0000000001
 40
0.0
 40
0.0
 40
0.0
 40
1.0
 40
1.0
 40
1.0
 10
92.73630511391626
 20
167.2385562474507
 30
0.0
 41
1.0
 10
93.56838133783044
 20
167.2583139941736
 30
0.0
 41
0.7225456244188628
 10
93.60511280915273
 20
167.7058852646524
 30
0.0
 41
1.0
  0
SPLINE
  5
111
330
CE
100
AcDbEntity
  8
GEHÄUSEHÄLFTE_VO
  6
Continuous
 62
     7
100
AcDbSpline
210
0.0
220
0.0
230
1.0
 70
    12
 71
     2
 72
     6
 73
     3
 74
     0
 42
0.0000000078040451
 43
0.0000000001
 40
0.0
 40
0.0
 40
0.0
 40
1.0
 40
1.0
 40
1.0
 10
93.60511280915273
 20
176.4401034482172
 30
0.0
 41
1.0
 10
93.56838133783043
 20
176.887674718696
 30
0.0
 41
0.722545624418897
 10
92.73630511391626
 20
176.9074324654189
 30
0.0
 41
1.0
  0
SPLINE
  5
112
330
CE
100
AcDbEntity
  8
GEHÄUSEHÄLFTE_VO
  6
Continuous
 62
     7
100
AcDbSpline
210
0.0
220
0.0
230
1.0
 70
    12
 71
     2
 72
     6
 73
     3
 74
     0
 42
0.0000000058475426
 43
0.0000000001
 40
0.0
 40
0.0
 40
0.0
 40
1.0
 40
1.0
 40
1.0
 10
93.60967638436368
 20
176.4982976834233
 30
0.0
 41
1.0
 10
93.60185173306954
 20
177.3473640762923
 30
0.0
 41
0.7103126225219416
 10
92.7408686891272
 20
177.355080428544
 30
0.0
 41
1.0
  0
LINE
  5
113
330
CE
100
AcDbEntity
  8
GEHÄUSEHÄLFTE_VO
  6
Continuous
 62
     7
100
AcDbLine
 10
92.3807995394
 20
166.0729943564
 30
0.0
 11
92.9542465541
 21
166.0729943564
 31
0.0
  0
LINE
  5
114
330
CE
100
AcDbEntity
  8
GEHÄUSEHÄLFTE_VO
  6
Continuous
 62
     7
100
AcDbLine
 10
92.5941774043
 20
166.7909082843
 30
0.0
 11
92.3807995394
 21
166.0729943564
 31
0.0
  0
LINE
  5
115
330
CE
100
AcDbEntity
  8
GEHÄUSEHÄLFTE_VO
  6
Continuous
 62
     7
100
AcDbLine
 10
91.5175230467
 20
177.1976017739
 30
0.0
 11
91.5175230467
 21
166.948386939
 31
0.0
  0
LINE
  5
116
330
CE
100
AcDbEntity
  8
GEHÄUSEHÄLFTE_VO
  6
Continuous
 62
     7
100
AcDbLine
 10
91.7253697091
 20
176.4982976834
 30
0.0
 11
91.5175230467
 21
177.1976017739
 31
0.0
  0
SPLINE
  5
117
330
CE
100
AcDbEntity
  8
GEHÄUSEHÄLFTE_VO
  6
Continuous
 62
     7
100
AcDbSpline
210
0.0
220
0.0
230
1.0
 70
    12
 71
     2
 72
     6
 73
     3
 74
     0
 42
0.0000001705010883
 43
0.0000000001
 40
0.0
 40
0.0
 40
0.0
 40
1.0
 40
1.0
 40
1.0
 10
91.72993328430293
 20
176.4401034482171
 30
0.0
 41
1.0
 10
91.72832262636683
 20
176.4883625364953
 30
0.0
 41
0.9152780938236155
 10
91.72536970909199
 20
176.4982976834234
 30
0.0
 41
1.0
  0
SPLINE
  5
118
330
CE
100
AcDbEntity
  8
GEHÄUSEHÄLFTE_VO
  6
Continuous
 62
     7
100
AcDbSpline
210
0.0
220
0.0
230
1.0
 70
    12
 71
     2
 72
     6
 73
     3
 74
     0
 42
0.000000001144285
 43
0.0000000001
 40
0.0
 40
0.0
 40
0.0
 40
1.0
 40
1.0
 40
1.0
 10
91.72993328430296
 20
167.7058852646524
 30
0.0
 41
1.0
 10
91.87568653343047
 20
172.0729943564348
 30
0.0
 41
0.8434805037037492
 10
91.72993328430296
 20
176.4401034482172
 30
0.0
 41
1.0
  0
SPLINE
  5
119
330
CE
100
AcDbEntity
  8
GEHÄUSEHÄLFTE_VO
  6
Continuous
 62
     7
100
AcDbSpline
210
0.0
220
0.0
230
1.0
 70
    12
 71
     2
 72
     6
 73
     3
 74
     0
 42
0.0000001705010883
 43
0.0000000001
 40
0.0
 40
0.0
 40
0.0
 40
1.0
 40
1.0
 40
1.0
 10
91.72536970909199
 20
167.6476910294462
 30
0.0
 41
1.0
 10
91.72832262636683
 20
167.6576261763744
 30
0.0
 41
0.9152780938287112
 10
91.72993328430293
 20
167.7058852646525
 30
0.0
 41
1.0
  0
LINE
  5
11A
330
CE
100
AcDbEntity
  8
GEHÄUSEHÄLFTE_VO
  6
Continuous
 62
     7
100
AcDbLine
 10
91.5175230467
 20
166.948386939
 30
0.0
 11
91.7253697091
 21
167.6476910294
 31
0.0
  0
SPLINE
  5
11B
330
CE
100
AcDbEntity
  8
GEHÄUSEHÄLFTE_VO
  6
Continuous
 62
     7
100
AcDbSpline
210
0.0
220
0.0
230
1.0
 70
    12
 71
     2
 72
     6
 73
     3
 74
     0
 42
0.0000000223359627
 43
0.0000000001
 40
0.0
 40
0.0
 40
0.0
 40
1.0
 40
1.0
 40
1.0
 10
92.59417740432849
 20
166.7909082843256
 30
0.0
 41
1.0
 10
92.59713032160337
 20
166.8673324914652
 30
0.0
 41
0.9152780938150438
 10
92.59874097953949
 20
167.2385562474507
 30
0.0
 41
1.0
  0
SPLINE
  5
11C
330
CE
100
AcDbEntity
  8
GEHÄUSEHÄLFTE_VO
  6
Continuous
 62
     7
100
AcDbSpline
210
0.0
220
0.0
230
1.0
 70
    12
 71
     2
 72
     6
 73
     3
 74
     0
 42
0.0000000010337766
 43
0.0000000001
 40
0.0
 40
0.0
 40
0.0
 40
1.0
 40
1.0
 40
1.0
 10
92.59874097953946
 20
167.2385562474505
 30
0.0
 41
1.0
 10
92.74449422866698
 20
172.0729943564347
 30
0.0
 41
0.8434805037035976
 10
92.59874097953946
 20
176.9074324654191
 30
0.0
 41
1.0
  0
SPLINE
  5
11D
330
CE
100
AcDbEntity
  8
GEHÄUSEHÄLFTE_VO
  6
Continuous
 62
     7
100
AcDbSpline
210
0.0
220
0.0
230
1.0
 70
    12
 71
     2
 72
     6
 73
     3
 74
     0
 42
0.0000000223359627
 43
0.0000000001
 40
0.0
 40
0.0
 40
0.0
 40
1.0
 40
1.0
 40
1.0
 10
92.59874097953949
 20
176.9074324654189
 30
0.0
 41
1.0
 10
92.59713032160337
 20
177.2786562214044
 30
0.0
 41
0.915278093814706
 10
92.59417740432849
 20
177.355080428544
 30
0.0
 41
1.0
  0
LINE
  5
11E
330
CE
100
AcDbEntity
  8
GEHÄUSEHÄLFTE_VO
  6
Continuous
 62
     7
100
AcDbLine
 10
92.3807995394
 20
178.0729943564
 30
0.0
 11
92.5941774043
 21
177.3550804285
 31
0.0
  0
SPLINE
  5
11F
330
CE
100
AcDbEntity
  8
GEHÄUSEHÄLFTE_VO
  6
Continuous
 62
     7
100
AcDbSpline
210
0.0
220
0.0
230
1.0
 70
    12
 71
     2
 72
     6
 73
     3
 74
     0
 42
0.0000000057515258
 43
0.0000000001
 40
0.0
 40
0.0
 40
0.0
 40
1.0
 40
1.0
 40
1.0
 10
91.51752304672783
 20
166.9483869389777
 30
0.0
 41
1.0
 10
91.51752304672783
 20
166.0729943564347
 30
0.0
 41
0.7103126225219443
 10
92.38079953937589
 20
166.0729943564348
 30
0.0
 41
1.0
  0
SPLINE
  5
120
330
CE
100
AcDbEntity
  8
GEHÄUSEHÄLFTE_VO
  6
Continuous
 62
     7
100
AcDbSpline
210
0.0
220
0.0
230
1.0
 70
    12
 71
     2
 72
     6
 73
     3
 74
     0
 42
0.0000000057515258
 43
0.0000000001
 40
0.0
 40
0.0
 40
0.0
 40
1.0
 40
1.0
 40
1.0
 10
92.38079953937601
 20
178.0729943564348
 30
0.0
 41
1.0
 10
91.51752304672786
 20
178.072994356435
 30
0.0
 41
0.7103126225218833
 10
91.51752304672786
 20
177.1976017738919
 30
0.0
 41
1.0
  0
SPLINE
  5
121
330
CE
100
AcDbEntity
  8
GEHÄUSEHÄLFTE_VO
  6
Continuous
 62
     7
100
AcDbSpline
210
0.0
220
0.0
230
1.0
 70
    12
 71
     2
 72
     6
 73
     3
 74
     0
 42
0.0000000058475426
 43
0.0000000001
 40
0.0
 40
0.0
 40
0.0
 40
1.0
 40
1.0
 40
1.0
 10
92.59417740432849
 20
177.355080428544
 30
0.0
 41
1.0
 10
91.73319436038616
 20
177.3473640762923
 30
0.0
 41
0.7103126225218848
 10
91.725369709092
 20
176.4982976834234
 30
0.0
 41
1.0
  0
SPLINE
  5
122
330
CE
100
AcDbEntity
  8
GEHÄUSEHÄLFTE_VO
  6
Continuous
 62
     7
100
AcDbSpline
210
0.0
220
0.0
230
1.0
 70
    12
 71
     2
 72
     6
 73
     3
 74
     0
 42
0.0000000078040451
 43
0.0000000001
 40
0.0
 40
0.0
 40
0.0
 40
1.0
 40
1.0
 40
1.0
 10
92.59874097953941
 20
176.9074324654189
 30
0.0
 41
1.0
 10
91.76666475562521
 20
176.887674718696
 30
0.0
 41
0.7225456244189208
 10
91.72993328430294
 20
176.4401034482171
 30
0.0
 41
1.0
  0
SPLINE
  5
123
330
CE
100
AcDbEntity
  8
GEHÄUSEHÄLFTE_VO
  6
Continuous
 62
     7
100
AcDbSpline
210
0.0
220
0.0
230
1.0
 70
    12
 71
     2
 72
     6
 73
     3
 74
     0
 42
0.0000000078040451
 43
0.0000000001
 40
0.0
 40
0.0
 40
0.0
 40
1.0
 40
1.0
 40
1.0
 10
91.72993328430294
 20
167.7058852646524
 30
0.0
 41
1.0
 10
91.76666475562524
 20
167.2583139941736
 30
0.0
 41
0.722545624418897
 10
92.59874097953941
 20
167.2385562474507
 30
0.0
 41
1.0
  0
SPLINE
  5
124
330
CE
100
AcDbEntity
  8
GEHÄUSEHÄLFTE_VO
  6
Continuous
 62
     7
100
AcDbSpline
210
0.0
220
0.0
230
1.0
 70
    12
 71
     2
 72
     6
 73
     3
 74
     0
 42
0.0000000058475426
 43
0.0000000001
 40
0.0
 40
0.0
 40
0.0
 40
1.0
 40
1.0
 40
1.0
 10
91.725369709092
 20
167.6476910294462
 30
0.0
 41
1.0
 10
91.73319436038614
 20
166.7986246365772
 30
0.0
 41
0.7103126225219127
 10
92.59417740432846
 20
166.7909082843256
 30
0.0
 41
1.0
  0
LINE
  5
125
330
CE
100
AcDbEntity
  8
GEHÄUSEHÄLFTE_VO
  6
Continuous
 62
     7
100
AcDbLine
 10
95.9675230467
 20
175.8229947012
 30
0.0
 11
95.9675230467
 21
168.3229947012
 31
0.0
  0
LINE
  5
126
330
CE
100
AcDbEntity
  8
GEHÄUSEHÄLFTE_VO
  6
Continuous
 62
     7
100
AcDbLine
 10
95.9675230467
 20
168.3229947012
 30
0.0
 11
99.8175230467
 21
168.3229947012
 31
0.0
  0
LINE
  5
127
330
CE
100
AcDbEntity
  8
GEHÄUSEHÄLFTE_VO
  6
Continuous
 62
     7
100
AcDbLine
 10
99.8175230467
 20
168.3229947012
 30
0.0
 11
99.8175230467
 21
175.8229947012
 31
0.0
  0
LINE
  5
128
330
CE
100
AcDbEntity
  8
GEHÄUSEHÄLFTE_VO
  6
Continuous
 62
     7
100
AcDbLine
 10
99.8175230467
 20
175.8229947012
 30
0.0
 11
95.9675230467
 21
175.8229947012
 31
0.0
  0
LINE
  5
129
330
CE
100
AcDbEntity
  8
GEHÄUSEHÄLFTE_VO
  6
Continuous
 62
     7
100
AcDbLine
 10
98.3925230467
 20
202.5929943564
 30
0.0
 11
98.3925230467
 21
217.1929943564
 31
0.0
  0
LINE
  5
12A
330
CE
100
AcDbEntity
  8
GEHÄUSEHÄLFTE_VO
  6
Continuous
 62
     7
100
AcDbLine
 10
95.2925230467
 20
202.5929943564
 30
0.0
 11
98.3925230467
 21
202.5929943564
 31
0.0
  0
LINE
  5
12B
330
CE
100
AcDbEntity
  8
GEHÄUSEHÄLFTE_VO
  6
Continuous
 62
     7
100
AcDbLine
 10
95.2925230467
 20
217.1929943564
 30
0.0
 11
98.3925230467
 21
217.1929943564
 31
0.0
  0
LINE
  5
12C
330
CE
100
AcDbEntity
  8
GEHÄUSEHÄLFTE_VO
  6
Continuous
 62
     7
100
AcDbLine
 10
95.2925230467
 20
202.5929943564
 30
0.0
 11
95.2925230467
 21
217.1929943564
 31
0.0
  0
LINE
  5
12D
330
CE
100
AcDbEntity
  8
GEHÄUSEHÄLFTE_VO
  6
Continuous
 62
     7
100
AcDbLine
 10
95.2925230467
 20
211.8929943564
 30
0.0
 11
95.3425230467
 21
211.8929943564
 31
0.0
  0
LINE
  5
12E
330
CE
100
AcDbEntity
  8
GEHÄUSEHÄLFTE_VO
  6
Continuous
 62
     7
100
AcDbLine
 10
98.3425230467
 20
211.8929943564
 30
0.0
 11
98.3925230467
 21
211.8929943564
 31
0.0
  0
LINE
  5
12F
330
CE
100
AcDbEntity
  8
GEHÄUSEHÄLFTE_VO
  6
Continuous
 62
     7
100
AcDbLine
 10
95.2925230467
 20
213.0929943564
 30
0.0
 11
95.3425230467
 21
213.0929943564
 31
0.0
  0
LINE
  5
130
330
CE
100
AcDbEntity
  8
GEHÄUSEHÄLFTE_VO
  6
Continuous
 62
     7
100
AcDbLine
 10
98.3425230467
 20
213.0929943564
 30
0.0
 11
98.3925230467
 21
213.0929943564
 31
0.0
  0
LINE
  5
131
330
CE
100
AcDbEntity
  8
GEHÄUSEHÄLFTE_VO
  6
Continuous
 62
     7
100
AcDbLine
 10
98.3925230467
 20
207.8929943564
 30
0.0
 11
98.3425230467
 21
207.8929943564
 31
0.0
  0
LINE
  5
132
330
CE
100
AcDbEntity
  8
GEHÄUSEHÄLFTE_VO
  6
Continuous
 62
     7
100
AcDbLine
 10
95.3425230467
 20
207.8929943564
 30
0.0
 11
95.2925230467
 21
207.8929943564
 31
0.0
  0
LINE
  5
133
330
CE
100
AcDbEntity
  8
GEHÄUSEHÄLFTE_VO
  6
Continuous
 62
     7
100
AcDbLine
 10
98.3925230467
 20
206.6929943564
 30
0.0
 11
98.3425230467
 21
206.6929943564
 31
0.0
  0
LINE
  5
134
330
CE
100
AcDbEntity
  8
GEHÄUSEHÄLFTE_VO
  6
Continuous
 62
     7
100
AcDbLine
 10
95.3425230467
 20
206.6929943564
 30
0.0
 11
95.2925230467
 21
206.6929943564
 31
0.0
  0
LINE
  5
135
330
CE
100
AcDbEntity
  8
DC_24V
  6
Continuous
 62
     7
100
AcDbLine
 10
100.5073583807
 20
203.9146010046
 30
0.0
 11
100.5073583807
 21
205.3716647165
 31
0.0
  0
SPLINE
  5
136
330
CE
100
AcDbEntity
  8
DC_24V
  6
Continuous
 62
     7
100
AcDbSpline
210
0.0
220
0.0
230
1.0
 70
     8
 71
     3
 72
    28
 73
    24
 74
     0
 42
0.0000000036139265
 43
0.0000000001
 40
0.0
 40
0.0
 40
0.0
 40
0.0
 40
0.1444668744754432
 40
0.1444668744754432
 40
0.1444668744754432
 40
0.295381611484181
 40
0.295381611484181
 40
0.295381611484181
 40
0.5099728439055436
 40
0.5099728439055436
 40
0.6125059915115738
 40
0.6125059915115738
 40
0.6125059915115738
 40
0.7031301107310601
 40
0.7031301107310601
 40
0.7031301107310601
 40
0.7779804413563979
 40
0.7779804413563979
 40
0.7779804413563979
 40
0.8505817941600232
 40
0.8505817941600232
 40
0.8505817941600232
 40
1.0
 40
1.0
 40
1.0
 40
1.0
 10
100.5073583806767
 20
205.3716647165456
 30
0.0
 10
100.6390912215509
 20
205.3716647165456
 30
0.0
 10
100.770824062425
 20
205.3716647165456
 30
0.0
 10
100.9025569032991
 20
205.3716647165456
 30
0.0
 10
101.0527569648565
 20
205.3716647165456
 30
0.0
 10
101.1684848811384
 20
205.3088761662224
 30
0.0
 10
101.2491250781221
 20
205.1839146395988
 30
0.0
 10
101.329584294023
 20
205.0592335645769
 30
0.0
 10
101.3697775865863
 20
204.8785899243018
 30
0.0
 10
101.3697775865863
 20
204.5301750274105
 30
0.0
 10
101.3586972541763
 20
204.4286053136524
 30
0.0
 10
101.3377677374019
 20
204.3393470803499
 30
0.0
 10
101.3167014017315
 20
204.2495053546967
 30
0.0
 10
101.2866750935115
 20
204.1725265201775
 30
0.0
 10
101.2472783560538
 20
204.1097379698543
 30
0.0
 10
101.2077783719738
 20
204.0467848702268
 30
0.0
 10
101.1610979928651
 20
203.997703497709
 30
0.0
 10
101.1056963308152
 20
203.9644625004791
 30
0.0
 10
101.0498420408075
 20
203.9309499264744
 30
0.0
 10
100.9868905444194
 20
203.9139854306115
 30
0.0
 10
100.9160995318002
 20
203.9146010046342
 30
0.0
 10
100.7798627828812
 20
203.9157856720161
 30
0.0
 10
100.6436054310512
 20
203.9146010046342
 30
0.0
 10
100.5073583806767
 20
203.9146010046342
 30
0.0
  0
SPLINE
  5
137
330
CE
100
AcDbEntity
  8
DC_24V
  6
Continuous
 62
     7
100
AcDbSpline
210
0.0
220
0.0
230
1.0
 70
     8
 71
     3
 72
    34
 73
    30
 74
     0
 42
0.0000000025835499
 43
0.0000000001
 40
0.0
 40
0.0
 40
0.0
 40
0.0
 40
0.1624408821331765
 40
0.1624408821331765
 40
0.1624408821331765
 40
0.2371957826216188
 40
0.2371957826216188
 40
0.2371957826216188
 40
0.3121603153908813
 40
0.3121603153908813
 40
0.3121603153908813
 40
0.399430643187917
 40
0.399430643187917
 40
0.399430643187917
 40
0.5050313895767027
 40
0.5050313895767027
 40
0.605374007514594
 40
0.605374007514594
 40
0.605374007514594
 40
0.6891634113720216
 40
0.6891634113720216
 40
0.6891634113720216
 40
0.7620575871903762
 40
0.7620575871903762
 40
0.7620575871903762
 40
0.8354705946904961
 40
0.8354705946904961
 40
0.8354705946904961
 40
1.0
 40
1.0
 40
1.0
 40
1.0
 10
100.2925230467278
 20
203.6929943564348
 30
0.0
 10
100.501202640449
 20
203.6929943564348
 30
0.0
 10
100.7098822341701
 20
203.6929943564348
 30
0.0
 10
100.9185618278913
 20
203.6929943564348
 30
0.0
 10
101.0213626896949
 20
203.6929943564348
 30
0.0
 10
101.1136987931113
 20
203.7151550212547
 30
0.0
 10
101.1955701381406
 20
203.7600919249174
 30
0.0
 10
101.2779145429008
 20
203.8052884779061
 30
0.0
 10
101.3482324957891
 20
203.8702796749943
 30
0.0
 10
101.4054808799073
 20
203.9546133161147
 30
0.0
 10
101.4630153180274
 20
204.0393683486142
 30
0.0
 10
101.5070505936654
 20
204.1417478190386
 30
0.0
 10
101.5384448688269
 20
204.26178475348
 30
0.0
 10
101.5697997330686
 20
204.3816709991099
 30
0.0
 10
101.5846129205352
 20
204.5160168248866
 30
0.0
 10
101.5846129205352
 20
204.8053366155914
 30
0.0
 10
101.5692235699658
 20
204.9327604383061
 30
0.0
 10
101.5384448688269
 20
205.0478727805653
 30
0.0
 10
101.5077787055743
 20
205.1625642311303
 30
0.0
 10
101.4627292640255
 20
205.2596302444003
 30
0.0
 10
101.4054808799073
 20
205.340270441384
 30
0.0
 10
101.348523062946
 20
205.4205013448456
 30
0.0
 10
101.2792882052381
 20
205.4824680406453
 30
0.0
 10
101.1986480082545
 20
205.5267893702852
 30
0.0
 10
101.1182676499006
 20
205.5709678878538
 30
0.0
 10
101.0275184299227
 20
205.5926557907223
 30
0.0
 10
100.9265642901874
 20
205.5926557907223
 30
0.0
 10
100.7152172090342
 20
205.5926557907223
 30
0.0
 10
100.503870127881
 20
205.5926557907223
 30
0.0
 10
100.2925230467278
 20
205.5926557907223
 30
0.0
  0
LINE
  5
138
330
CE
100
AcDbEntity
  8
DC_24V
  6
Continuous
 62
     7
100
AcDbLine
 10
100.2925230467
 20
205.5926557907
 30
0.0
 11
100.2925230467
 21
203.6929943564
 31
0.0
  0
SPLINE
  5
139
330
CE
100
AcDbEntity
  8
DC_24V
  6
Continuous
 62
     7
100
AcDbSpline
210
0.0
220
0.0
230
1.0
 70
     8
 71
     3
 72
    38
 73
    34
 74
     0
 42
0.0000000028196134
 43
0.0000000001
 40
0.0
 40
0.0
 40
0.0
 40
0.0
 40
0.055482660817833
 40
0.055482660817833
 40
0.055482660817833
 40
0.0965779210319665
 40
0.0965779210319665
 40
0.0965779210319665
 40
0.2361095282012138
 40
0.2361095282012138
 40
0.3853625998043847
 40
0.3853625998043847
 40
0.5346156714075556
 40
0.5346156714075556
 40
0.6857724811689307
 40
0.6857724811689307
 40
0.6857724811689307
 40
0.8174064183153137
 40
0.8174064183153137
 40
0.8594491967194817
 40
0.8594491967194817
 40
0.8594491967194817
 40
0.9005702227472472
 40
0.9005702227472472
 40
0.9005702227472472
 40
0.9225988447281489
 40
0.9225988447281489
 40
0.9446274667090504
 40
0.9446274667090504
 40
0.9446274667090504
 40
0.9723137333545244
 40
0.9723137333545244
 40
1.0
 40
1.0
 40
1.0
 40
1.0
 10
102.9604208614401
 20
204.3941331683769
 30
0.0
 10
102.9444159368479
 20
204.3147241194388
 30
0.0
 10
102.9284110122557
 20
204.2525511431384
 30
0.0
 10
102.9130216616863
 20
204.2076142394757
 30
0.0
 10
102.8973790097471
 20
204.1619376958132
 30
0.0
 10
102.8767027943425
 20
204.1195871542187
 30
0.0
 10
102.8520798334314
 20
204.0789592687155
 30
0.0
 10
102.769454833974
 20
203.9426280196108
 30
0.0
 10
102.6526338500519
 20
203.8752042671765
 30
0.0
 10
102.3417689685499
 20
203.8752042671765
 30
0.0
 10
102.2180385899719
 20
203.9410706876136
 30
0.0
 10
102.0432155675035
 20
204.2045363693618
 30
0.0
 10
101.9995098118864
 20
204.391055298263
 30
0.0
 10
101.9995098118864
 20
204.8767432022335
 30
0.0
 10
102.0450622895718
 20
205.0675711492941
 30
0.0
 10
102.1355516709199
 20
205.2048441563732
 30
0.0
 10
102.2259446493273
 20
205.3419709195355
 30
0.0
 10
102.3534648749827
 20
205.4104458799805
 30
0.0
 10
102.567069060886
 20
205.4104458799805
 30
0.0
 10
102.6163149827081
 20
205.4024434176844
 30
0.0
 10
102.6637141824619
 20
205.3864384930922
 30
0.0
 10
102.7116659542643
 20
205.3702469857304
 30
0.0
 10
102.7529724157645
 20
205.3476573296573
 30
0.0
 10
102.7880601350627
 20
205.3181097765641
 30
0.0
 10
102.8094615586649
 20
205.3000875251095
 30
0.0
 10
102.8280724465432
 20
205.2817909092202
 30
0.0
 10
102.8600822957275
 20
205.2448564678537
 30
0.0
 10
102.8736249242286
 20
205.2239269510793
 30
0.0
 10
102.8847052566386
 20
205.2011507122366
 30
0.0
 10
102.8959033952998
 20
205.1781323160996
 30
0.0
 10
102.9068659214585
 20
205.1519047904145
 30
0.0
 10
102.9265642901874
 20
205.0915785361824
 30
0.0
 10
102.935797900529
 20
205.0571063909069
 30
0.0
 10
102.9444159368479
 20
205.0189408014948
 30
0.0
  0
LINE
  5
13A
330
CE
100
AcDbEntity
  8
DC_24V
  6
Continuous
 62
     7
100
AcDbLine
 10
103.164175863
 20
204.3941331684
 30
0.0
 11
102.9604208614
 21
204.3941331684
 31
0.0
  0
SPLINE
  5
13B
330
CE
100
AcDbEntity
  8
DC_24V
  6
Continuous
 62
     7
100
AcDbSpline
210
0.0
220
0.0
230
1.0
 70
     8
 71
     3
 72
    56
 73
    52
 74
     0
 42
0.0000000020438185
 43
0.0000000001
 40
0.0
 40
0.0
 40
0.0
 40
0.0
 40
0.0357416816098529
 40
0.0357416816098529
 40
0.0357416816098529
 40
0.0664706331819901
 40
0.0664706331819901
 40
0.0664706331819901
 40
0.1341068993172732
 40
0.1341068993172732
 40
0.1341068993172732
 40
0.2031013577032008
 40
0.2031013577032008
 40
0.2031013577032008
 40
0.2674175424084137
 40
0.2674175424084137
 40
0.2674175424084137
 40
0.3307172721875455
 40
0.3307172721875455
 40
0.3307172721875455
 40
0.4026824214775174
 40
0.4026824214775174
 40
0.4026824214775174
 40
0.4887207311785005
 40
0.4887207311785005
 40
0.5751045762598088
 40
0.5751045762598088
 40
0.5751045762598088
 40
0.6460419013738091
 40
0.6460419013738091
 40
0.6460419013738091
 40
0.7078110732187326
 40
0.7078110732187326
 40
0.7078110732187326
 40
0.771060590978374
 40
0.771060590978374
 40
0.8220216310018552
 40
0.8220216310018552
 40
0.8220216310018552
 40
0.8735717819315425
 40
0.8735717819315425
 40
0.8735717819315425
 40
0.8999749042428736
 40
0.8999749042428736
 40
0.9263780265542045
 40
0.9263780265542045
 40
0.9263780265542045
 40
0.9586760534628025
 40
0.9586760534628025
 40
0.9586760534628025
 40
1.0
 40
1.0
 40
1.0
 40
1.0
 10
103.1481709383868
 20
205.0189408014948
 30
0.0
 10
103.1395529020679
 20
205.0891162400913
 30
0.0
 10
103.128472569658
 20
205.1457490501867
 30
0.0
 10
103.1155455151797
 20
205.1894548058038
 30
0.0
 10
103.1027363652479
 20
205.2327619317637
 30
0.0
 10
103.0823045179498
 20
205.2780974650836
 30
0.0
 10
103.0558348349704
 20
205.3261122388602
 30
0.0
 10
102.9994320212702
 20
205.4284243195256
 30
0.0
 10
102.924717568119
 20
205.5070910015564
 30
0.0
 10
102.8317658906798
 20
205.5612615155607
 30
0.0
 10
102.7392737222697
 20
205.6151642362235
 30
0.0
 10
102.6323199073003
 20
205.6425172865671
 30
0.0
 10
102.5104362507906
 20
205.6431328605899
 30
0.0
 10
102.3990233035049
 20
205.6436955522429
 30
0.0
 10
102.2986787869556
 20
205.6191254737016
 30
0.0
 10
102.2088049796303
 20
205.5729574219934
 30
0.0
 10
102.1179437313425
 20
205.5262821232155
 30
0.0
 10
102.0419844194579
 20
205.4590762277798
 30
0.0
 10
101.978580295112
 20
205.3728958645912
 30
0.0
 10
101.9150985133592
 20
205.2866099476457
 30
0.0
 10
101.8671613969895
 20
205.180836769485
 30
0.0
 10
101.8339203997595
 20
205.0564908168841
 30
0.0
 10
101.800720459571
 20
204.9322984480308
 30
0.0
 10
101.7846744779374
 20
204.7936407091587
 30
0.0
 10
101.7846744779374
 20
204.4864692717934
 30
0.0
 10
101.8006794025296
 20
204.3485806906915
 30
0.0
 10
101.832689251714
 20
204.226081460159
 30
0.0
 10
101.8647384464168
 20
204.1034316573541
 30
0.0
 10
101.9114827266293
 20
203.9989346457546
 30
0.0
 10
101.9724245548842
 20
203.9127542825659
 30
0.0
 10
102.0334513671518
 20
203.8264537399653
 30
0.0
 10
102.1060041178266
 20
203.7594763508946
 30
0.0
 10
102.1928000550381
 20
203.7126927251636
 30
0.0
 10
102.2788618955751
 20
203.6663047827465
 30
0.0
 10
102.3762411138254
 20
203.6431328605899
 30
0.0
 10
102.5707625050227
 20
203.6431328605899
 30
0.0
 10
102.6526338500519
 20
203.6591377851821
 30
0.0
 10
102.7301961769217
 20
203.692378782412
 30
0.0
 10
102.8075356235419
 20
203.725524259535
 30
0.0
 10
102.8754716462969
 20
203.7724034053729
 30
0.0
 10
102.9339511784607
 20
203.8351919556961
 30
0.0
 10
102.9630058351068
 20
203.8663874817793
 30
0.0
 10
102.9905839885561
 20
203.8973649319965
 30
0.0
 10
103.0361364662415
 20
203.9663092225474
 30
0.0
 10
103.0564504089932
 20
204.0050903859823
 30
0.0
 10
103.0743020556537
 20
204.0481805675767
 30
0.0
 10
103.0922811918653
 20
204.0915784825703
 30
0.0
 10
103.1075430528836
 20
204.1417478190386
 30
0.0
 10
103.1217012554074
 20
204.1977650551113
 30
0.0
 10
103.1360057004318
 20
204.2543609028164
 30
0.0
 10
103.1500176604551
 20
204.319648711621
 30
0.0
 10
103.164175862979
 20
204.3941331683769
 30
0.0
  0
LINE
  5
13C
330
CE
100
AcDbEntity
  8
DC_24V
  6
Continuous
 62
     7
100
AcDbLine
 10
102.9444159368
 20
205.0189408015
 30
0.0
 11
103.1481709384
 21
205.0189408015
 31
0.0
  0
SPLINE
  5
13D
330
CE
100
AcDbEntity
  8
DC_24V
  6
Continuous
 62
     7
100
AcDbSpline
210
0.0
220
0.0
230
1.0
 70
     8
 71
     3
 72
    48
 73
    44
 74
     0
 42
0.0000000030845736
 43
0.0000000001
 40
0.0
 40
0.0
 40
0.0
 40
0.0
 40
0.0710066310534044
 40
0.0710066310534044
 40
0.1420132621068084
 40
0.1420132621068084
 40
0.1420132621068084
 40
0.2012927539383945
 40
0.2012927539383945
 40
0.2012927539383945
 40
0.2426584938059021
 40
0.2426584938059021
 40
0.2426584938059021
 40
0.2746822135448247
 40
0.2746822135448247
 40
0.2746822135448247
 40
0.3006513311510766
 40
0.3006513311510766
 40
0.3006513311510766
 40
0.3238721309435535
 40
0.3238721309435535
 40
0.3238721309435535
 40
0.4412828384190174
 40
0.4412828384190174
 40
0.5103183187801277
 40
0.5103183187801277
 40
0.5793537991412369
 40
0.5793537991412369
 40
0.5793537991412369
 40
0.6392214013617269
 40
0.6392214013617269
 40
0.6392214013617269
 40
0.7025025053418376
 40
0.7025025053418376
 40
0.7794945151843027
 40
0.7794945151843027
 40
0.8564865250267683
 40
0.8564865250267683
 40
0.8564865250267683
 40
0.9182291684904645
 40
0.9182291684904645
 40
0.9182291684904645
 40
1.0
 40
1.0
 40
1.0
 40
1.0
 10
104.1306270787377
 20
203.9146010046342
 30
0.0
 10
104.1392451150566
 20
203.9773895549574
 30
0.0
 10
104.1663303720587
 20
204.0401781052806
 30
0.0
 10
104.256204179384
 20
204.1632929098358
 30
0.0
 10
104.3177615816617
 20
204.2199257199312
 30
0.0
 10
104.3953239085315
 20
204.2710183638217
 30
0.0
 10
104.4484562886512
 20
204.3060182650117
 30
0.0
 10
104.501202640449
 20
204.3416041851
 30
0.0
 10
104.5541420064077
 20
204.3768970957392
 30
0.0
 10
104.5966166139793
 20
204.4052135007869
 30
0.0
 10
104.6329354813231
 20
204.4304520357207
 30
0.0
 10
104.6637141824619
 20
204.4526127005407
 30
0.0
 10
104.6946063983046
 20
204.4748550959474
 30
0.0
 10
104.7215781406029
 20
204.4950873081122
 30
0.0
 10
104.7449699534684
 20
204.5160168248866
 30
0.0
 10
104.7674081001171
 20
204.5360930613618
 30
0.0
 10
104.7880601350627
 20
204.5554135623443
 30
0.0
 10
104.8052962077005
 20
204.5738807830276
 30
0.0
 10
104.822818865869
 20
204.5926550596367
 30
0.0
 10
104.8391527789531
 20
204.6114307984169
 30
0.0
 10
104.853310981477
 20
204.6311291671458
 30
0.0
 10
104.9256062461352
 20
204.731713883192
 30
0.0
 10
104.9616520094856
 20
204.8527358153452
 30
0.0
 10
104.9616520094856
 20
205.0804982037724
 30
0.0
 10
104.9499561030529
 20
205.1568293825967
 30
0.0
 10
104.9019413292763
 20
205.2922556676074
 30
0.0
 10
104.8687003320464
 20
205.3507351997712
 30
0.0
 10
104.8268412984976
 20
205.4005966956161
 30
0.0
 10
104.7850309164854
 20
205.4504002388954
 30
0.0
 10
104.7326584730128
 20
205.4873926328275
 30
0.0
 10
104.6729477928035
 20
205.5138623158069
 30
0.0
 10
104.6127226396878
 20
205.5405600640953
 30
0.0
 10
104.5455239700889
 20
205.5538746272874
 30
0.0
 10
104.3817812800304
 20
205.5538746272874
 30
0.0
 10
104.3011410830467
 20
205.5341762585585
 30
0.0
 10
104.1583279097626
 20
205.4566139316887
 30
0.0
 10
104.1004639516216
 20
205.4018278436616
 30
0.0
 10
104.0561426219818
 20
205.3316524050651
 30
0.0
 10
104.0203930082392
 20
205.2750488499728
 30
0.0
 10
103.9958163677497
 20
205.2140777667149
 30
0.0
 10
103.9804270171803
 20
205.1488269203006
 30
0.0
 10
103.965070103485
 20
205.0837136062327
 30
0.0
 10
103.9570352043148
 20
204.9961645626521
 30
0.0
 10
103.9551884822465
 20
204.8872079606207
 30
0.0
  0
LINE
  5
13E
330
CE
100
AcDbEntity
  8
DC_24V
  6
Continuous
 62
     7
100
AcDbLine
 10
104.9616520095
 20
203.9146010046
 30
0.0
 11
104.1306270787
 21
203.9146010046
 31
0.0
  0
LINE
  5
13F
330
CE
100
AcDbEntity
  8
DC_24V
  6
Continuous
 62
     7
100
AcDbLine
 10
104.9616520095
 20
203.6929943564
 30
0.0
 11
104.9616520095
 21
203.9146010046
 31
0.0
  0
LINE
  5
140
330
CE
100
AcDbEntity
  8
DC_24V
  6
Continuous
 62
     7
100
AcDbLine
 10
103.9157917448
 20
203.6929943564
 30
0.0
 11
104.9616520095
 21
203.6929943564
 31
0.0
  0
SPLINE
  5
141
330
CE
100
AcDbEntity
  8
DC_24V
  6
Continuous
 62
     7
100
AcDbSpline
210
0.0
220
0.0
230
1.0
 70
     8
 71
     3
 72
    37
 73
    33
 74
     0
 42
0.0000000035459592
 43
0.0000000001
 40
0.0
 40
0.0
 40
0.0
 40
0.0
 40
0.1079871601277162
 40
0.1079871601277162
 40
0.215974320255432
 40
0.215974320255432
 40
0.3146865095746313
 40
0.3146865095746313
 40
0.413398698893833
 40
0.413398698893833
 40
0.5023544508966018
 40
0.5023544508966018
 40
0.5023544508966018
 40
0.540123234878593
 40
0.540123234878593
 40
0.540123234878593
 40
0.603804082120623
 40
0.603804082120623
 40
0.603804082120623
 40
0.6933175393450103
 40
0.6933175393450103
 40
0.6933175393450103
 40
0.7681539341572751
 40
0.7681539341572751
 40
0.7681539341572751
 40
0.839401080883285
 40
0.839401080883285
 40
0.839401080883285
 40
0.914233484994147
 40
0.914233484994147
 40
0.914233484994147
 40
1.0
 40
1.0
 40
1.0
 40
1.0
 10
104.1460164293071
 20
204.8872079606207
 30
0.0
 10
104.154634465626
 20
205.0491039286108
 30
0.0
 10
104.1835664446964
 20
205.1660629929383
 30
0.0
 10
104.2808271402951
 20
205.3113384623135
 30
0.0
 10
104.355311597051
 20
205.3476573296573
 30
0.0
 10
104.5473706921572
 20
205.3476573296573
 30
0.0
 10
104.6206240008676
 20
205.3162630544957
 30
0.0
 10
104.7301961769217
 20
205.1906859538494
 30
0.0
 10
104.7578970079467
 20
205.106352312729
 30
0.0
 10
104.7578970079467
 20
204.9050596072812
 30
0.0
 10
104.7345051950812
 20
204.8250349843203
 30
0.0
 10
104.6889527173957
 20
204.759784137906
 30
0.0
 10
104.6715461758388
 20
204.7348504432434
 30
0.0
 10
104.6470936838469
 20
204.7093070680384
 30
0.0
 10
104.6175461307537
 20
204.682837385059
 30
0.0
 10
104.5876570697027
 20
204.6560617678675
 30
0.0
 10
104.5405993779067
 20
204.6200488347358
 30
0.0
 10
104.4771952535607
 20
204.5744963570504
 30
0.0
 10
104.409706092999
 20
204.5260089989769
 30
0.0
 10
104.3409482031862
 20
204.479287574861
 30
0.0
 10
104.272824677999
 20
204.4316831837663
 30
0.0
 10
104.2127622926668
 20
204.3897118783534
 30
0.0
 10
104.1614057798765
 20
204.3424249504637
 30
0.0
 10
104.1183155982822
 20
204.2925634546188
 30
0.0
 10
104.074920879151
 20
204.2423495653385
 30
0.0
 10
104.038906549344
 20
204.1866847227013
 30
0.0
 10
104.0099745702735
 20
204.126974042492
 30
0.0
 10
103.9806839920478
 20
204.0665232746644
 30
0.0
 10
103.9582663523603
 20
204.0013969418457
 30
0.0
 10
103.9434925758137
 20
203.9299903552036
 30
0.0
 10
103.9285966671348
 20
203.8579934632558
 30
0.0
 10
103.9188696149026
 20
203.7791747196235
 30
0.0
 10
103.9157917447888
 20
203.6929943564348
 30
0.0
  0
LINE
  5
142
330
CE
100
AcDbEntity
  8
DC_24V
  6
Continuous
 62
     7
100
AcDbLine
 10
103.9551884822
 20
204.8872079606
 30
0.0
 11
104.1460164293
 21
204.8872079606
 31
0.0
  0
LINE
  5
143
330
CE
100
AcDbEntity
  8
DC_24V
  6
Continuous
 62
     7
100
AcDbLine
 10
105.2922152597
 20
204.3485806907
 30
0.0
 11
105.7846744779
 21
205.1980728421
 31
0.0
  0
LINE
  5
144
330
CE
100
AcDbEntity
  8
DC_24V
  6
Continuous
 62
     7
100
AcDbLine
 10
105.7846744779
 20
205.1980728421
 30
0.0
 11
105.7846744779
 21
204.3485806907
 31
0.0
  0
LINE
  5
145
330
CE
100
AcDbEntity
  8
DC_24V
  6
Continuous
 62
     7
100
AcDbLine
 10
105.7846744779
 20
204.3485806907
 30
0.0
 11
105.2922152597
 21
204.3485806907
 31
0.0
  0
LINE
  5
146
330
CE
100
AcDbEntity
  8
DC_24V
  6
Continuous
 62
     7
100
AcDbLine
 10
105.9779647211
 20
203.6929943564
 30
0.0
 11
105.9779647211
 21
204.1423633931
 31
0.0
  0
LINE
  5
147
330
CE
100
AcDbEntity
  8
DC_24V
  6
Continuous
 62
     7
100
AcDbLine
 10
105.7846744779
 20
203.6929943564
 30
0.0
 11
105.9779647211
 21
203.6929943564
 31
0.0
  0
LINE
  5
148
330
CE
100
AcDbEntity
  8
DC_24V
  6
Continuous
 62
     7
100
AcDbLine
 10
105.7846744779
 20
204.1423633931
 30
0.0
 11
105.7846744779
 21
203.6929943564
 31
0.0
  0
LINE
  5
149
330
CE
100
AcDbEntity
  8
DC_24V
  6
Continuous
 62
     7
100
AcDbLine
 10
105.1180078113
 20
204.1423633931
 30
0.0
 11
105.7846744779
 21
204.1423633931
 31
0.0
  0
LINE
  5
14A
330
CE
100
AcDbEntity
  8
DC_24V
  6
Continuous
 62
     7
100
AcDbLine
 10
105.1180078113
 20
204.3750503737
 30
0.0
 11
105.1180078113
 21
204.1423633931
 31
0.0
  0
LINE
  5
14B
330
CE
100
AcDbEntity
  8
DC_24V
  6
Continuous
 62
     7
100
AcDbLine
 10
105.8172999011
 20
205.5532590533
 30
0.0
 11
105.1180078113
 21
204.3750503737
 31
0.0
  0
LINE
  5
14C
330
CE
100
AcDbEntity
  8
DC_24V
  6
Continuous
 62
     7
100
AcDbLine
 10
105.9779647211
 20
205.5532590533
 30
0.0
 11
105.8172999011
 21
205.5532590533
 31
0.0
  0
LINE
  5
14D
330
CE
100
AcDbEntity
  8
DC_24V
  6
Continuous
 62
     7
100
AcDbLine
 10
105.9779647211
 20
204.3485806907
 30
0.0
 11
105.9779647211
 21
205.5532590533
 31
0.0
  0
LINE
  5
14E
330
CE
100
AcDbEntity
  8
DC_24V
  6
Continuous
 62
     7
100
AcDbLine
 10
106.2032648134
 20
204.3485806907
 30
0.0
 11
105.9779647211
 21
204.3485806907
 31
0.0
  0
LINE
  5
14F
330
CE
100
AcDbEntity
  8
DC_24V
  6
Continuous
 62
     7
100
AcDbLine
 10
106.2032648134
 20
204.1423633931
 30
0.0
 11
106.2032648134
 21
204.3485806907
 31
0.0
  0
LINE
  5
150
330
CE
100
AcDbEntity
  8
DC_24V
  6
Continuous
 62
     7
100
AcDbLine
 10
105.9779647211
 20
204.1423633931
 30
0.0
 11
106.2032648134
 21
204.1423633931
 31
0.0
  0
LINE
  5
151
330
CE
100
AcDbEntity
  8
DC_24V
  6
Continuous
 62
     7
100
AcDbLine
 10
107.6812580421
 20
205.5926557907
 30
0.0
 11
107.4430308953
 21
205.5926557907
 31
0.0
  0
LINE
  5
152
330
CE
100
AcDbEntity
  8
DC_24V
  6
Continuous
 62
     7
100
AcDbLine
 10
107.1124676451
 20
203.6929943564
 30
0.0
 11
107.6812580421
 21
205.5926557907
 31
0.0
  0
LINE
  5
153
330
CE
100
AcDbEntity
  8
DC_24V
  6
Continuous
 62
     7
100
AcDbLine
 10
106.8871675527
 20
203.6929943564
 30
0.0
 11
107.1124676451
 21
203.6929943564
 31
0.0
  0
LINE
  5
154
330
CE
100
AcDbEntity
  8
DC_24V
  6
Continuous
 62
     7
100
AcDbLine
 10
106.3183771557
 20
205.5926557907
 30
0.0
 11
106.8871675527
 21
203.6929943564
 31
0.0
  0
LINE
  5
155
330
CE
100
AcDbEntity
  8
DC_24V
  6
Continuous
 62
     7
100
AcDbLine
 10
106.5535264324
 20
205.5926557907
 30
0.0
 11
106.3183771557
 21
205.5926557907
 31
0.0
  0
LINE
  5
156
330
CE
100
AcDbEntity
  8
DC_24V
  6
Continuous
 62
     7
100
AcDbLine
 10
107.0010487469
 20
203.9650780745
 30
0.0
 11
106.5535264324
 21
205.5926557907
 31
0.0
  0
LINE
  5
157
330
CE
100
AcDbEntity
  8
DC_24V
  6
Continuous
 62
     7
100
AcDbLine
 10
107.4430308953
 20
205.5926557907
 30
0.0
 11
107.0010487469
 21
203.9650780745
 31
0.0
  0
LINE
  5
158
330
CE
100
AcDbEntity
  8
PS_307
  6
Continuous
 62
     7
100
AcDbLine
 10
111.1067637525
 20
217.1150485467
 30
0.0
 11
111.1067637525
 21
217.7678525795
 31
0.0
  0
SPLINE
  5
159
330
CE
100
AcDbEntity
  8
PS_307
  6
Continuous
 62
     7
100
AcDbSpline
210
0.0
220
0.0
230
1.0
 70
     8
 71
     3
 72
    16
 73
    12
 74
     0
 42
0.0000000050125084
 43
0.0000000001
 40
0.0
 40
0.0
 40
0.0
 40
0.0
 40
0.2253968010698146
 40
0.2253968010698146
 40
0.2253968010698146
 40
0.4991461367285853
 40
0.4991461367285853
 40
0.7792989656191398
 40
0.7792989656191398
 40
0.7792989656191398
 40
1.0
 40
1.0
 40
1.0
 40
1.0
 10
111.1067637524619
 20
217.7678525794972
 30
0.0
 10
111.2479105703573
 20
217.7678525794972
 30
0.0
 10
111.3890573882527
 20
217.7678525794972
 30
0.0
 10
111.5302042061481
 20
217.7678525794972
 30
0.0
 10
111.7368834752092
 20
217.7678525794972
 30
0.0
 10
111.8402231097398
 20
217.6607322266302
 30
0.0
 10
111.8402231097398
 20
217.224689378489
 30
0.0
 10
111.7343629963182
 20
217.115048546731
 30
0.0
 10
111.5213825300296
 20
217.115048546731
 30
0.0
 10
111.3831762708404
 20
217.115048546731
 30
0.0
 10
111.2449700116511
 20
217.115048546731
 30
0.0
 10
111.1067637524619
 20
217.115048546731
 30
0.0
  0
LINE
  5
15A
330
CE
100
AcDbEntity
  8
PS_307
  6
Continuous
 62
     7
100
AcDbLine
 10
110.8925230467
 20
216.0929943564
 30
0.0
 11
111.1067637525
 21
216.0929943564
 31
0.0
  0
LINE
  5
15B
330
CE
100
AcDbEntity
  8
PS_307
  6
Continuous
 62
     7
100
AcDbLine
 10
110.8925230467
 20
217.9909149613
 30
0.0
 11
110.8925230467
 21
216.0929943564
 31
0.0
  0
SPLINE
  5
15C
330
CE
100
AcDbEntity
  8
PS_307
  6
Continuous
 62
     7
100
AcDbSpline
210
0.0
220
0.0
230
1.0
 70
     8
 71
     3
 72
    32
 73
    28
 74
     0
 42
0.0000000035586089
 43
0.0000000001
 40
0.0
 40
0.0
 40
0.0
 40
0.0
 40
0.1734678174269547
 40
0.1734678174269547
 40
0.1734678174269547
 40
0.2431554927802892
 40
0.2431554927802892
 40
0.2431554927802892
 40
0.3094953694958368
 40
0.3094953694958368
 40
0.3094953694958368
 40
0.3818745504718405
 40
0.3818745504718405
 40
0.3818745504718405
 40
0.4649473040953973
 40
0.4649473040953973
 40
0.5455402740286985
 40
0.5455402740286985
 40
0.5455402740286985
 40
0.613196963433149
 40
0.6808536528375988
 40
0.6808536528375988
 40
0.6808536528375988
 40
0.7503718589970887
 40
0.7503718589970887
 40
0.7503718589970887
 40
1.0
 40
1.0
 40
1.0
 40
1.0
 10
111.1067637524619
 20
216.8919861648784
 30
0.0
 10
111.2684944813004
 20
216.8919861648784
 30
0.0
 10
111.4302252101389
 20
216.8919861648784
 30
0.0
 10
111.5919559389773
 20
216.8919861648784
 30
0.0
 10
111.662529347925
 20
216.8919861648784
 30
0.0
 10
111.7255413201998
 20
216.9058487987789
 30
0.0
 10
111.7809918558015
 20
216.9323138271342
 30
0.0
 10
111.8374688211747
 20
216.959268742426
 30
0.0
 10
111.8855917297776
 20
216.9965860388545
 30
0.0
 10
111.9259193920334
 20
217.0457353772288
 30
0.0
 10
111.9667541211624
 20
217.0955027033547
 30
0.0
 10
111.9977530404266
 20
217.1541159695413
 30
0.0
 10
112.0204373504455
 20
217.2234291390435
 30
0.0
 10
112.0426271980484
 20
217.2912314511633
 30
0.0
 10
112.0532035760284
 20
217.3683566752754
 30
0.0
 10
112.0532035760284
 20
217.5347082820807
 30
0.0
 10
112.0418614210189
 20
217.6078021699194
 30
0.0
 10
112.0204373504455
 20
217.6745948605306
 30
0.0
 10
111.9992622361473
 20
217.7406113933426
 30
0.0
 10
111.9347410681519
 20
217.8535488617908
 30
0.0
 10
111.8364423914033
 20
217.9266427496295
 30
0.0
 10
111.779731616356
 20
217.9518475385394
 30
0.0
 10
111.721968476411
 20
217.9775200451817
 30
0.0
 10
111.6600088690341
 20
217.9909149613497
 30
0.0
 10
111.5906956995318
 20
217.9909149613497
 30
0.0
 10
111.3579714819305
 20
217.9909149613497
 30
0.0
 10
111.1252472643292
 20
217.9909149613497
 30
0.0
 10
110.8925230467278
 20
217.9909149613497
 30
0.0
  0
LINE
  5
15D
330
CE
100
AcDbEntity
  8
PS_307
  6
Continuous
 62
     7
100
AcDbLine
 10
111.1067637525
 20
216.0929943564
 30
0.0
 11
111.1067637525
 21
216.8919861649
 31
0.0
  0
SPLINE
  5
15E
330
CE
100
AcDbEntity
  8
PS_307
  6
Continuous
 62
     7
100
AcDbSpline
210
0.0
220
0.0
230
1.0
 70
     8
 71
     3
 72
    46
 73
    42
 74
     0
 42
0.0000000021251488
 43
0.0000000001
 40
0.0
 40
0.0
 40
0.0
 40
0.0
 40
0.0475525511127475
 40
0.0475525511127475
 40
0.095105102225494
 40
0.095105102225494
 40
0.095105102225494
 40
0.1605455416130738
 40
0.1605455416130738
 40
0.225985981000654
 40
0.225985981000654
 40
0.3302816812746099
 40
0.3302816812746099
 40
0.3302816812746099
 40
0.4309531820202289
 40
0.4309531820202289
 40
0.5062808084522665
 40
0.5062808084522665
 40
0.5062808084522665
 40
0.5764339117571123
 40
0.5764339117571123
 40
0.5764339117571123
 40
0.6760773937748631
 40
0.6760773937748631
 40
0.6760773937748631
 40
0.7118029216217262
 40
0.7118029216217262
 40
0.7118029216217262
 40
0.7490820265436053
 40
0.7490820265436053
 40
0.8056910377212732
 40
0.8056910377212732
 40
0.8056910377212732
 40
0.8668063334752424
 40
0.8668063334752424
 40
0.9473674051509302
 40
0.9473674051509302
 40
0.9473674051509302
 40
0.9736837025754648
 40
0.9736837025754648
 40
1.0
 40
1.0
 40
1.0
 40
1.0
 10
112.2548418873075
 20
216.7105116847272
 30
0.0
 10
112.256102126753
 20
216.6096925290876
 30
0.0
 10
112.2649238028715
 20
216.5277769651305
 30
0.0
 10
112.2976900284543
 20
216.404273499472
 30
0.0
 10
112.3241550568097
 20
216.3463024849792
 30
0.0
 10
112.3632224796201
 20
216.292112188823
 30
0.0
 10
112.4251603332215
 20
216.2061983918919
 30
0.0
 10
112.4942873819515
 20
216.1408834553636
 30
0.0
 10
112.6555980309748
 20
216.062748609743
 30
0.0
 10
112.7576774260599
 20
216.0438450180606
 30
0.0
 10
113.0714770479881
 20
216.0438450180606
 30
0.0
 10
113.2214455420019
 20
216.0929943564348
 30
0.0
 10
113.3310863737599
 20
216.1938135120744
 30
0.0
 10
113.4400443540352
 20
216.2940047583045
 30
0.0
 10
113.4936572622288
 20
216.4345192461639
 30
0.0
 10
113.4936572622288
 20
216.7495791075375
 30
0.0
 10
113.4646717549824
 20
216.8604801787411
 30
0.0
 10
113.4041802615987
 20
216.9461764610347
 30
0.0
 10
113.3435141391924
 20
217.0321201344435
 30
0.0
 10
113.2567322464758
 20
217.0923642367121
 30
0.0
 10
113.1407902174903
 20
217.1238702228494
 30
0.0
 10
112.9925662402135
 20
217.1641484775442
 30
0.0
 10
112.8450540276142
 20
217.2070460262521
 30
0.0
 10
112.6971859326761
 20
217.2486339279534
 30
0.0
 10
112.6345229497863
 20
217.2662578918912
 30
0.0
 10
112.5875451009181
 20
217.2940025479912
 30
0.0
 10
112.5598198331172
 20
217.334330210247
 30
0.0
 10
112.5322784198774
 20
217.3743904476869
 30
0.0
 10
112.5157114525249
 20
217.4263276897682
 30
0.0
 10
112.5157114525249
 20
217.5977202543554
 30
0.0
 10
112.5459571992168
 20
217.6783755788671
 30
0.0
 10
112.607708932046
 20
217.7350863539143
 30
0.0
 10
112.6700885067138
 20
217.7923737184051
 30
0.0
 10
112.7564171866144
 20
217.8220428756535
 30
0.0
 10
113.0135060334953
 20
217.8220428756535
 30
0.0
 10
113.1218866258078
 20
217.7691128189427
 30
0.0
 10
113.1899395558646
 20
217.6657731844121
 30
0.0
 10
113.211470825229
 20
217.6330775531551
 30
0.0
 10
113.2264864997839
 20
217.6015009726919
 30
0.0
 10
113.2466503309118
 20
217.5359685215262
 30
0.0
 10
113.2529515281393
 20
217.4918601409339
 30
0.0
 10
113.2567322464758
 20
217.4351493658866
 30
0.0
  0
LINE
  5
15F
330
CE
100
AcDbEntity
  8
PS_307
  6
Continuous
 62
     7
100
AcDbLine
 10
112.4526994803
 20
216.7105116847
 30
0.0
 11
112.2548418873
 21
216.7105116847
 31
0.0
  0
SPLINE
  5
160
330
CE
100
AcDbEntity
  8
PS_307
  6
Continuous
 62
     7
100
AcDbSpline
210
0.0
220
0.0
230
1.0
 70
     8
 71
     3
 72
    62
 73
    58
 74
     0
 42
0.0000000021208606
 43
0.0000000001
 40
0.0
 40
0.0
 40
0.0
 40
0.0
 40
0.0193338812381547
 40
0.0193338812381547
 40
0.0386677624763093
 40
0.0386677624763093
 40
0.058001643714464
 40
0.058001643714464
 40
0.058001643714464
 40
0.0741265660753919
 40
0.0741265660753919
 40
0.0741265660753919
 40
0.1373068770494266
 40
0.1373068770494266
 40
0.1373068770494266
 40
0.2056018289590025
 40
0.2056018289590025
 40
0.3112125793346345
 40
0.3112125793346345
 40
0.3112125793346345
 40
0.3558719344250867
 40
0.3558719344250867
 40
0.3558719344250867
 40
0.3994039909595008
 40
0.3994039909595008
 40
0.5364229230022474
 40
0.5364229230022474
 40
0.5364229230022474
 40
0.6081109602953583
 40
0.6081109602953583
 40
0.6081109602953583
 40
0.6448918844912453
 40
0.6448918844912453
 40
0.6448918844912453
 40
0.6712875062380941
 40
0.6712875062380941
 40
0.6712875062380941
 40
0.6935066930794584
 40
0.6935066930794584
 40
0.6935066930794584
 40
0.7190428680058882
 40
0.7190428680058882
 40
0.778627276167558
 40
0.778627276167558
 40
0.778627276167558
 40
0.8490317913721482
 40
0.8490317913721482
 40
0.8957357767058863
 40
0.8957357767058863
 40
0.8957357767058863
 40
0.9394783018626744
 40
0.9394783018626744
 40
0.9394783018626744
 40
0.96621400740556
 40
0.96621400740556
 40
0.96621400740556
 40
1.0
 40
1.0
 40
1.0
 40
1.0
 10
113.4545898394184
 20
217.4351493658866
 30
0.0
 10
113.4508091210819
 20
217.4754770281424
 30
0.0
 10
113.448288642191
 20
217.5120239720618
 30
0.0
 10
113.440727205518
 20
217.5750359443365
 30
0.0
 10
113.435686247736
 20
217.6027612121374
 30
0.0
 10
113.4256043321721
 20
217.6531707899572
 30
0.0
 10
113.4193031349446
 20
217.6758550999761
 30
0.0
 10
113.4104814588261
 20
217.698539409995
 30
0.0
 10
113.401919939376
 20
217.7205547457238
 30
0.0
 10
113.3915778671437
 20
217.7426477905873
 30
0.0
 10
113.3802357121343
 20
217.7665923400517
 30
0.0
 10
113.337304885594
 20
217.8572240849701
 30
0.0
 10
113.2680744014852
 20
217.925382510184
 30
0.0
 10
113.1811178797461
 20
217.9732716091128
 30
0.0
 10
113.0946938878742
 20
218.0208674307235
 30
0.0
 10
112.9895614840309
 20
218.0438450180606
 30
0.0
 10
112.6782823409937
 20
218.0438450180606
 30
0.0
 10
112.5371355230983
 20
217.9846137641223
 30
0.0
 10
112.4413573252407
 20
217.8661512562458
 30
0.0
 10
112.3995379369071
 20
217.8144272759384
 30
0.0
 10
112.368263437402
 20
217.7527297061513
 30
0.0
 10
112.3455791273831
 20
217.6846767760945
 30
0.0
 10
112.3225167455306
 20
217.6154896305369
 30
0.0
 10
112.3115526623548
 20
217.5422697187537
 30
0.0
 10
112.3115526623548
 20
217.2234291390435
 30
0.0
 10
112.4211934941128
 20
217.0722004055842
 30
0.0
 10
112.6404751576289
 20
217.0104486727549
 30
0.0
 10
112.7467282642857
 20
216.9805268208803
 30
0.0
 10
112.8530355441023
 20
216.9507973390015
 30
0.0
 10
112.959315737339
 20
216.9209716721248
 30
0.0
 10
113.0241412680928
 20
216.9027795271307
 30
0.0
 10
113.07651800577
 20
216.8819042493145
 30
0.0
 10
113.1193661469168
 20
216.8642608970775
 30
0.0
 10
113.162657981833
 20
216.8464348474062
 30
0.0
 10
113.196240753092
 20
216.8239332348217
 30
0.0
 10
113.2201853025564
 20
216.7974682064663
 30
0.0
 10
113.2440701399274
 20
216.7710691756879
 30
0.0
 10
113.2630334437032
 20
216.7432779103101
 30
0.0
 10
113.2731153592672
 20
216.7105116847272
 30
0.0
 10
113.2833062685129
 20
216.6773912296786
 30
0.0
 10
113.2894984720586
 20
216.638678036334
 30
0.0
 10
113.2894984720586
 20
216.4874493028746
 30
0.0
 10
113.2542117675848
 20
216.4055337389175
 30
0.0
 10
113.1848985980826
 20
216.3500832033157
 30
0.0
 10
113.1149706776313
 20
216.2941408669548
 30
0.0
 10
113.0172867518318
 20
216.2656471604676
 30
0.0
 10
112.8055665249887
 20
216.2656471604676
 30
0.0
 10
112.7312123977045
 20
216.2807700338135
 30
0.0
 10
112.6682004254298
 20
216.3110157805054
 30
0.0
 10
112.604655842206
 20
216.3415171804528
 30
0.0
 10
112.5547788753353
 20
216.3841096683441
 30
0.0
 10
112.5194921708614
 20
216.4433409222823
 30
0.0
 10
112.4968204927113
 20
216.4813969534628
 30
0.0
 10
112.4779042691601
 20
216.516434810121
 30
0.0
 10
112.4690825930416
 20
216.5555022329314
 30
0.0
 10
112.4605316812397
 20
216.5933705566257
 30
0.0
 10
112.4552199591412
 20
216.6449792335615
 30
0.0
 10
112.4526994802502
 20
216.7105116847272
 30
0.0
  0
LINE
  5
161
330
CE
100
AcDbEntity
  8
PS_307
  6
Continuous
 62
     7
100
AcDbLine
 10
113.2567322465
 20
217.4351493659
 30
0.0
 11
113.4545898394
 21
217.4351493659
 31
0.0
  0
SPLINE
  5
162
330
CE
100
AcDbEntity
  8
PS_307
  6
Continuous
 62
     7
100
AcDbSpline
210
0.0
220
0.0
230
1.0
 70
     8
 71
     3
 72
     8
 73
     4
 74
     0
 42
0.0000001674537277
 43
0.0000000001
 40
0.0
 40
0.0
 40
0.0
 40
0.0
 40
1.0
 40
1.0
 40
1.0
 40
1.0
 10
114.7463352710504
 20
217.1465545328684
 30
0.0
 10
114.7337328765955
 20
217.1452942934228
 30
0.0
 10
114.7148292849131
 20
217.1478147723138
 30
0.0
 10
114.6871040171122
 20
217.1515954906503
 30
0.0
  0
SPLINE
  5
163
330
CE
100
AcDbEntity
  8
PS_307
  6
Continuous
 62
     7
100
AcDbSpline
210
0.0
220
0.0
230
1.0
 70
     8
 71
     3
 72
     8
 73
     4
 74
     0
 42
0.0000002726311255
 43
0.0000000001
 40
0.0
 40
0.0
 40
0.0
 40
0.0
 40
1.0
 40
1.0
 40
1.0
 40
1.0
 10
114.7828822149698
 20
217.1465545328684
 30
0.0
 10
114.7702798205148
 20
217.1452942934228
 30
0.0
 10
114.7576774260599
 20
217.1452942934228
 30
0.0
 10
114.7463352710504
 20
217.1465545328684
 30
0.0
  0
SPLINE
  5
164
330
CE
100
AcDbEntity
  8
PS_307
  6
Continuous
 62
     7
100
AcDbSpline
210
0.0
220
0.0
230
1.0
 70
     8
 71
     3
 72
    20
 73
    16
 74
     0
 42
0.0000000064596105
 43
0.0000000001
 40
0.0
 40
0.0
 40
0.0
 40
0.0
 40
0.214492172419074
 40
0.214492172419074
 40
0.214492172419074
 40
0.3793421906210286
 40
0.3793421906210286
 40
0.5249240248773013
 40
0.5249240248773013
 40
0.5249240248773013
 40
0.6790597856948873
 40
0.6790597856948873
 40
0.8395298928474427
 40
0.8395298928474427
 40
1.0
 40
1.0
 40
1.0
 40
1.0
 10
114.4993283397335
 20
217.344412125811
 30
0.0
 10
114.508150015852
 20
217.4880794225974
 30
0.0
 10
114.5358752836528
 20
217.591419057128
 30
0.0
 10
114.5825041431361
 20
217.6531707899572
 30
0.0
 10
114.628675371903
 20
217.7143164712971
 30
0.0
 10
114.6997064115671
 20
217.7464285089238
 30
0.0
 10
114.8824411311639
 20
217.7464285089238
 30
0.0
 10
114.9504940612206
 20
217.7187032411229
 30
0.0
 10
115.0009036390404
 20
217.6657731844121
 30
0.0
 10
115.0519425873323
 20
217.6121822887056
 30
0.0
 10
115.07651800577
 20
217.5372287609717
 30
0.0
 10
115.07651800577
 20
217.349453083593
 30
0.0
 10
115.0513132168601
 20
217.2750989563088
 30
0.0
 10
114.9504940612206
 20
217.1717593217782
 30
0.0
 10
114.8786604128274
 20
217.1452942934228
 30
0.0
 10
114.7828822149698
 20
217.1465545328684
 30
0.0
  0
LINE
  5
165
330
CE
100
AcDbEntity
  8
PS_307
  6
Continuous
 62
     7
100
AcDbLine
 10
114.3115526624
 20
217.3444121258
 30
0.0
 11
114.4993283397
 21
217.3444121258
 31
0.0
  0
SPLINE
  5
166
330
CE
100
AcDbEntity
  8
PS_307
  6
Continuous
 62
     7
100
AcDbSpline
210
0.0
220
0.0
230
1.0
 70
     8
 71
     3
 72
    20
 73
    16
 74
     0
 42
0.0000000045889324
 43
0.0000000001
 40
0.0
 40
0.0
 40
0.0
 40
0.0
 40
0.2273037007385069
 40
0.2273037007385069
 40
0.4040954679795681
 40
0.4040954679795681
 40
0.5808872352206289
 40
0.5808872352206289
 40
0.8007239544855955
 40
0.8007239544855955
 40
0.8007239544855955
 40
0.8875096756271676
 40
0.8875096756271676
 40
0.8875096756271676
 40
1.0
 40
1.0
 40
1.0
 40
1.0
 10
115.0664360902061
 20
217.0759811239206
 30
0.0
 10
115.201281710874
 20
217.1389930961954
 30
0.0
 10
115.2680744014852
 20
217.2662772801903
 30
0.0
 10
115.2680744014852
 20
217.6090624093649
 30
0.0
 10
115.2264864997839
 20
217.7275249172414
 30
0.0
 10
115.0601348929786
 20
217.9064789185016
 30
0.0
 10
114.9467133428841
 20
217.9505872990939
 30
0.0
 10
114.6215715659465
 20
217.9505872990939
 30
0.0
 10
114.490506663615
 20
217.8825343690372
 30
0.0
 10
114.4073308602124
 20
217.7489489878148
 30
0.0
 10
114.3747796318669
 20
217.6966697422902
 30
0.0
 10
114.3531405640561
 20
217.6393081560568
 30
0.0
 10
114.3380176907102
 20
217.5800769021185
 30
0.0
 10
114.3229719420902
 20
217.5211477200235
 30
0.0
 10
114.3153333806913
 20
217.4427108025596
 30
0.0
 10
114.3115526623548
 20
217.344412125811
 30
0.0
  0
SPLINE
  5
167
330
CE
100
AcDbEntity
  8
PS_307
  6
Continuous
 62
     7
100
AcDbSpline
210
0.0
220
0.0
230
1.0
 70
     8
 71
     3
 72
    36
 73
    32
 74
     0
 42
0.0000000041927205
 43
0.0000000001
 40
0.0
 40
0.0
 40
0.0
 40
0.0
 40
0.071289039977481
 40
0.071289039977481
 40
0.071289039977481
 40
0.1276077880678918
 40
0.1276077880678918
 40
0.1276077880678918
 40
0.1724607374080774
 40
0.1724607374080774
 40
0.2173136867482613
 40
0.2173136867482613
 40
0.2173136867482613
 40
0.2979471920822383
 40
0.2979471920822383
 40
0.2979471920822383
 40
0.381687796819708
 40
0.381687796819708
 40
0.4757123354723022
 40
0.4757123354723022
 40
0.5697368741248966
 40
0.5697368741248966
 40
0.5697368741248966
 40
0.662367708477167
 40
0.662367708477167
 40
0.662367708477167
 40
0.7571182725013614
 40
0.7571182725013614
 40
0.8785591362506814
 40
0.8785591362506814
 40
1.0
 40
1.0
 40
1.0
 40
1.0
 10
114.2750057184355
 20
216.6601021069074
 30
0.0
 10
114.2813069156629
 20
216.5970901346327
 30
0.0
 10
114.2876081128904
 20
216.5403793595854
 30
0.0
 10
114.2951695495634
 20
216.4924902606566
 30
0.0
 10
114.302925131232
 20
216.4433715767553
 30
0.0
 10
114.3140731412458
 20
216.4004927811355
 30
0.0
 10
114.3254152962552
 20
216.3626855977707
 30
0.0
 10
114.3368615077327
 20
216.3245315595126
 30
0.0
 10
114.3531405640561
 20
216.2908519493775
 30
0.0
 10
114.38842726853
 20
216.2328809348847
 30
0.0
 10
114.4098513391034
 20
216.2064159065293
 30
0.0
 10
114.4337958885678
 20
216.1824713570649
 30
0.0
 10
114.4785343888828
 20
216.1377328567499
 30
0.0
 10
114.5308343258709
 20
216.1018160325533
 30
0.0
 10
114.5925860587001
 20
216.0791317225344
 30
0.0
 10
114.6547456928838
 20
216.0562975712016
 30
0.0
 10
114.7223907215861
 20
216.0438450180606
 30
0.0
 10
114.8748796944909
 20
216.0438450180606
 30
0.0
 10
114.9492338217751
 20
216.057707651961
 30
0.0
 10
115.0828192029975
 20
216.1131581875627
 30
0.0
 10
115.1407902174903
 20
216.1534858498186
 30
0.0
 10
115.1874190769736
 20
216.2051556670838
 30
0.0
 10
115.2346747506335
 20
216.2575200622206
 30
0.0
 10
115.2705948803762
 20
216.3210976960694
 30
0.0
 10
115.2957996692861
 20
216.3941915839081
 30
0.0
 10
115.3215267678493
 20
216.4688001697413
 30
0.0
 10
115.3348670920964
 20
216.5504612751494
 30
0.0
 10
115.3348670920964
 20
216.7546200653195
 30
0.0
 10
115.313443021523
 20
216.8453573053951
 30
0.0
 10
115.2302672181204
 20
216.9789426866176
 30
0.0
 10
115.1622142880637
 20
217.0331329827738
 30
0.0
 10
115.0664360902061
 20
217.0759811239206
 30
0.0
  0
LINE
  5
168
330
CE
100
AcDbEntity
  8
PS_307
  6
Continuous
 62
     7
100
AcDbLine
 10
114.4741235508
 20
216.6601021069
 30
0.0
 11
114.2750057184
 21
216.6601021069
 31
0.0
  0
SPLINE
  5
169
330
CE
100
AcDbEntity
  8
PS_307
  6
Continuous
 62
     7
100
AcDbSpline
210
0.0
220
0.0
230
1.0
 70
     8
 71
     3
 72
    26
 73
    22
 74
     0
 42
0.0000000056756252
 43
0.0000000001
 40
0.0
 40
0.0
 40
0.0
 40
0.0
 40
0.0153905435470579
 40
0.0153905435470579
 40
0.0153905435470579
 40
0.1726129714745771
 40
0.1726129714745771
 40
0.3298353994020982
 40
0.3298353994020982
 40
0.4964163051824489
 40
0.4964163051824489
 40
0.4964163051824489
 40
0.6535659414638324
 40
0.6535659414638324
 40
0.8260472495775448
 40
0.8260472495775448
 40
0.8260472495775448
 40
0.8973572566614756
 40
0.8973572566614756
 40
0.8973572566614756
 40
1.0
 40
1.0
 40
1.0
 40
1.0
 10
114.7728002994058
 20
216.9549981371532
 30
0.0
 10
114.7816219755243
 20
216.9549981371532
 30
0.0
 10
114.7904436516428
 20
216.9549981371532
 30
0.0
 10
114.7992653277612
 20
216.9549981371532
 30
0.0
 10
114.9026049622918
 20
216.9549981371532
 30
0.0
 10
114.9845205262489
 20
216.9247523904613
 30
0.0
 10
115.1004625552344
 20
216.8037694036938
 30
0.0
 10
115.1294480624808
 20
216.7205936002912
 30
0.0
 10
115.1294480624808
 20
216.5025721762206
 30
0.0
 10
115.0992023157889
 20
216.4130951755905
 30
0.0
 10
115.0387108224052
 20
216.3475627244247
 30
0.0
 10
114.9775912224608
 20
216.2813498244849
 30
0.0
 10
114.8950435256188
 20
216.2480038082307
 30
0.0
 10
114.6782823409937
 20
216.2480038082307
 30
0.0
 10
114.5951065375911
 20
216.289591709932
 30
0.0
 10
114.5421764808803
 20
216.3727675133346
 30
0.0
 10
114.5207968893461
 20
216.4063640143169
 30
0.0
 10
114.50310905807
 20
216.4433409222823
 30
0.0
 10
114.4942873819515
 20
216.4849288239837
 30
0.0
 10
114.485667255551
 20
216.5255665627287
 30
0.0
 10
114.4779042691601
 20
216.5844877401777
 30
0.0
 10
114.4741235508236
 20
216.6601021069074
 30
0.0
  0
SPLINE
  5
16A
330
CE
100
AcDbEntity
  8
PS_307
  6
Continuous
 62
     7
100
AcDbSpline
210
0.0
220
0.0
230
1.0
 70
     8
 71
     3
 72
     8
 73
     4
 74
     0
 42
0.0000002190272562
 43
0.0000000001
 40
0.0
 40
0.0
 40
0.0
 40
0.0
 40
1.0
 40
1.0
 40
1.0
 40
1.0
 10
114.727431679368
 20
216.9524776582622
 30
0.0
 10
114.737513594932
 20
216.9512174188167
 30
0.0
 10
114.7526364682779
 20
216.9524776582622
 30
0.0
 10
114.7728002994058
 20
216.9549981371532
 30
0.0
  0
SPLINE
  5
16B
330
CE
100
AcDbEntity
  8
PS_307
  6
Continuous
 62
     7
100
AcDbSpline
210
0.0
220
0.0
230
1.0
 70
     8
 71
     3
 72
     8
 73
     4
 74
     0
 42
0.0000002471626584
 43
0.0000000001
 40
0.0
 40
0.0
 40
0.0
 40
0.0
 40
1.0
 40
1.0
 40
1.0
 40
1.0
 10
114.6871040171122
 20
216.9524776582622
 30
0.0
 10
114.7060076087946
 20
216.9512174188167
 30
0.0
 10
114.7186100032496
 20
216.9512174188167
 30
0.0
 10
114.727431679368
 20
216.9524776582622
 30
0.0
  0
LINE
  5
16C
330
CE
100
AcDbEntity
  8
PS_307
  6
Continuous
 62
     7
100
AcDbLine
 10
114.6871040171
 20
217.1515954907
 30
0.0
 11
114.6871040171
 21
216.9524776583
 31
0.0
  0
SPLINE
  5
16D
330
CE
100
AcDbEntity
  8
PS_307
  6
Continuous
 62
     7
100
AcDbSpline
210
0.0
220
0.0
230
1.0
 70
    11
 71
     3
 72
    23
 73
    19
 74
     0
 42
0.0000000027255962
 43
0.0000000001
 40
0.0
 40
0.0
 40
0.0
 40
0.0
 40
0.0909186592665295
 40
0.0909186592665295
 40
0.0909186592665295
 40
0.2176190554928499
 40
0.2176190554928499
 40
0.3482380206746235
 40
0.3482380206746235
 40
0.4788569858563981
 40
0.4788569858563981
 40
0.6094759510381704
 40
0.6094759510381704
 40
0.740094916219943
 40
0.740094916219943
 40
0.8700474581099717
 40
0.8700474581099717
 40
1.0
 40
1.0
 40
1.0
 40
1.0
 10
116.0078349559906
 20
217.7464285089238
 30
0.0
 10
116.1136950694121
 20
217.7464285089238
 30
0.0
 10
116.1943503939238
 20
217.6834165366491
 30
0.0
 10
116.2485406900801
 20
217.5586528315451
 30
0.0
 10
116.3031914874655
 20
217.432828902681
 30
0.0
 10
116.3304562540372
 20
217.2473736885079
 30
0.0
 10
116.3304562540372
 20
216.750839346983
 30
0.0
 10
116.3039912256818
 20
216.5630636696043
 30
0.0
 10
116.1956106333693
 20
216.3110157805054
 30
0.0
 10
116.1162155483031
 20
216.2480038082307
 30
0.0
 10
115.90449532146
 20
216.2480038082307
 30
0.0
 10
115.8251002363939
 20
216.3110157805054
 30
0.0
 10
115.7167196440813
 20
216.5630636696043
 30
0.0
 10
115.6902546157259
 20
216.7495791075375
 30
0.0
 10
115.6902546157259
 20
217.2423327307259
 30
0.0
 10
115.7167196440813
 20
217.4275879292136
 30
0.0
 10
115.8251002363939
 20
217.6821562972036
 30
0.0
 10
115.9032350820145
 20
217.7464285089238
 30
0.0
 10
116.0078349559906
 20
217.7464285089238
 30
0.0
  0
SPLINE
  5
16E
330
CE
100
AcDbEntity
  8
PS_307
  6
Continuous
 62
     7
100
AcDbSpline
210
0.0
220
0.0
230
1.0
 70
    11
 71
     3
 72
    25
 73
    21
 74
     0
 42
0.0000000020106288
 43
0.0000000001
 40
0.0
 40
0.0
 40
0.0
 40
0.0
 40
0.1335426948520199
 40
0.1335426948520199
 40
0.2670853897040398
 40
0.2670853897040398
 40
0.4006280845560598
 40
0.4006280845560598
 40
0.4006280845560598
 40
0.5013495847175983
 40
0.5013495847175983
 40
0.6013194318928569
 40
0.6013194318928569
 40
0.6013194318928569
 40
0.7514168294212058
 40
0.7514168294212058
 40
0.9002737525898162
 40
0.9002737525898162
 40
0.9002737525898162
 40
1.0
 40
1.0
 40
1.0
 40
1.0
 10
116.0153963926635
 20
217.9505872990939
 30
0.0
 10
115.8440038280763
 20
217.9505872990939
 30
0.0
 10
115.7129389257448
 20
217.8686717351368
 30
0.0
 10
115.5314644455936
 20
217.5410094793081
 30
0.0
 10
115.4860958255558
 20
217.3053447030007
 30
0.0
 10
115.4860958255558
 20
216.6928683324903
 30
0.0
 10
115.5302042061481
 20
216.4572035561828
 30
0.0
 10
115.6209414462237
 20
216.292112188823
 30
0.0
 10
115.7119182699719
 20
216.1265849122811
 30
0.0
 10
115.8414833491853
 20
216.0438450180606
 30
0.0
 10
116.1779672811324
 20
216.0438450180606
 30
0.0
 10
116.3077719440183
 20
216.1257605820177
 30
0.0
 10
116.3985091840939
 20
216.2908519493775
 30
0.0
 10
116.4887144672015
 20
216.4549754505872
 30
0.0
 10
116.5346150442073
 20
216.6890876141538
 30
0.0
 10
116.5346150442073
 20
217.2965230268822
 30
0.0
 10
116.4892464241695
 20
217.5321878031897
 30
0.0
 10
116.3985091840939
 20
217.6997996494405
 30
0.0
 10
116.3082995553037
 20
217.8664368804002
 30
0.0
 10
116.1804877600234
 20
217.9505872990939
 30
0.0
 10
116.0153963926635
 20
217.9505872990939
 30
0.0
  0
LINE
  5
16F
330
CE
100
AcDbEntity
  8
PS_307
  6
Continuous
 62
     7
100
AcDbLine
 10
117.7457051513
 20
217.9102596368
 30
0.0
 11
116.689624496
 21
217.9102596368
 31
0.0
  0
LINE
  5
170
330
CE
100
AcDbEntity
  8
PS_307
  6
Continuous
 62
     7
100
AcDbLine
 10
117.7457051513
 20
217.7048406072
 30
0.0
 11
117.7457051513
 21
217.9102596368
 31
0.0
  0
SPLINE
  5
171
330
CE
100
AcDbEntity
  8
PS_307
  6
Continuous
 62
     7
100
AcDbSpline
210
0.0
220
0.0
230
1.0
 70
     8
 71
     3
 72
    11
 73
     7
 74
     0
 42
0.0000000057086871
 43
0.0000000001
 40
0.0
 40
0.0
 40
0.0
 40
0.0
 40
0.522528058219595
 40
0.522528058219595
 40
0.522528058219595
 40
1.0
 40
1.0
 40
1.0
 40
1.0
 10
117.1181059074714
 20
216.0929943564348
 30
0.0
 10
117.1659950064002
 20
216.4143554150359
 30
0.0
 10
117.2428696125753
 20
216.7092514452817
 30
0.0
 10
117.3462092471059
 20
216.9751619682811
 30
0.0
 10
117.4497142411843
 20
217.2414979896293
 30
0.0
 10
117.5831342628589
 20
217.4842987042609
 30
0.0
 10
117.7457051513277
 20
217.7048406072225
 30
0.0
  0
LINE
  5
172
330
CE
100
AcDbEntity
  8
PS_307
  6
Continuous
 62
     7
100
AcDbLine
 10
116.9063856806
 20
216.0929943564
 30
0.0
 11
117.1181059075
 21
216.0929943564
 31
0.0
  0
SPLINE
  5
173
330
CE
100
AcDbEntity
  8
PS_307
  6
Continuous
 62
     7
100
AcDbSpline
210
0.0
220
0.0
230
1.0
 70
     8
 71
     3
 72
    17
 73
    13
 74
     0
 42
0.0000000058082379
 43
0.0000000001
 40
0.0
 40
0.0
 40
0.0
 40
0.0
 40
0.2583743892703263
 40
0.2583743892703263
 40
0.2583743892703263
 40
0.5147988839508851
 40
0.5147988839508851
 40
0.5147988839508851
 40
0.7625126672645782
 40
0.7625126672645782
 40
0.7625126672645782
 40
1.0
 40
1.0
 40
1.0
 40
1.0
 10
117.5314644455936
 20
217.6796358183126
 30
0.0
 10
117.4482886421909
 20
217.5573925920996
 30
0.0
 10
117.3726742754613
 20
217.4313686475501
 30
0.0
 10
117.3021008665136
 20
217.2990435057732
 30
0.0
 10
117.2318065417337
 20
217.167241646811
 30
0.0
 10
117.1710359641821
 20
217.0331329827738
 30
0.0
 10
117.1181059074714
 20
216.8982873621059
 30
0.0
 10
117.0653440988785
 20
216.7638703735479
 30
0.0
 10
117.0210674701683
 20
216.62859612077
 30
0.0
 10
116.9845205262489
 20
216.4937505001021
 30
0.0
 10
116.9477416326448
 20
216.3580490650801
 30
0.0
 10
116.9227687934197
 20
216.2240592587663
 30
0.0
 10
116.9063856806283
 20
216.0929943564348
 30
0.0
  0
LINE
  5
174
330
CE
100
AcDbEntity
  8
PS_307
  6
Continuous
 62
     7
100
AcDbLine
 10
116.689624496
 20
217.6796358183
 30
0.0
 11
117.5314644456
 21
217.6796358183
 31
0.0
  0
LINE
  5
175
330
CE
100
AcDbEntity
  8
PS_307
  6
Continuous
 62
     7
100
AcDbLine
 10
116.689624496
 20
217.9102596368
 30
0.0
 11
116.689624496
 21
217.6796358183
 31
0.0
  0
LINE
  5
176
330
CE
100
AcDbEntity
  8
SCHALTER_EIN
  6
Continuous
 62
     7
100
AcDbLine
 10
102.6175230467
 20
173.1229947012
 30
0.0
 11
102.6675230467
 21
173.1229947012
 31
0.0
  0
LINE
  5
177
330
CE
100
AcDbEntity
  8
SCHALTER_EIN
  6
Continuous
 62
     7
100
AcDbLine
 10
102.6675230467
 20
173.1229947012
 30
0.0
 11
102.6675230467
 21
175.1229947012
 31
0.0
  0
LINE
  5
178
330
CE
100
AcDbEntity
  8
SCHALTER_EIN
  6
Continuous
 62
     7
100
AcDbLine
 10
102.6675230467
 20
175.1229947012
 30
0.0
 11
102.6175230467
 21
175.1229947012
 31
0.0
  0
LINE
  5
179
330
CE
100
AcDbEntity
  8
SCHALTER_EIN
  6
Continuous
 62
     7
100
AcDbLine
 10
102.6175230467
 20
175.1229947012
 30
0.0
 11
102.6175230467
 21
173.1229947012
 31
0.0
  0
SPLINE
  5
17A
330
CE
100
AcDbEntity
  8
2A
  6
Continuous
 62
     7
100
AcDbSpline
210
0.0
220
0.0
230
1.0
 70
     8
 71
     3
 72
    39
 73
    35
 74
     0
 42
0.0000000044932939
 43
0.0000000001
 40
0.0
 40
0.0
 40
0.0
 40
0.0
 40
0.1317544199916539
 40
0.1317544199916539
 40
0.1317544199916539
 40
0.226410943631938
 40
0.226410943631938
 40
0.3138783642109347
 40
0.3138783642109347
 40
0.3138783642109347
 40
0.4129806713302666
 40
0.4129806713302666
 40
0.5026446634858528
 40
0.5026446634858528
 40
0.5026446634858528
 40
0.5401872288923115
 40
0.5401872288923115
 40
0.5401872288923115
 40
0.6041253366845388
 40
0.6041253366845388
 40
0.6041253366845388
 40
0.6937694191241132
 40
0.6937694191241132
 40
0.6937694191241132
 40
0.768305428113283
 40
0.768305428113283
 40
0.768305428113283
 40
0.8396330574732295
 40
0.8396330574732295
 40
0.8396330574732295
 40
0.9146981334025726
 40
0.9146981334025726
 40
0.9146981334025726
 40
1.0
 40
1.0
 40
1.0
 40
1.0
 10
113.4499501024307
 20
214.3939757887956
 30
0.0
 10
113.4569129671522
 20
214.5222914386629
 30
0.0
 10
113.4797909512371
 20
214.6147980699627
 30
0.0
 10
113.5175893597252
 20
214.672490377655
 30
0.0
 10
113.5549317973954
 20
214.7294867298885
 30
0.0
 10
113.615069465826
 20
214.7580341442332
 30
0.0
 10
113.7662630997782
 20
214.7580341442332
 30
0.0
 10
113.8239554074705
 20
214.7331667702279
 30
0.0
 10
113.8677219857199
 20
214.6834320222173
 30
0.0
 10
113.9105611387313
 20
214.6347511665225
 30
0.0
 10
113.9323771581336
 20
214.5680474068327
 30
0.0
 10
113.9323771581336
 20
214.4088962131987
 30
0.0
 10
113.9144726488498
 20
214.3462304307054
 30
0.0
 10
113.877668935322
 20
214.2945062927743
 30
0.0
 10
113.863590814606
 20
214.2747208258221
 30
0.0
 10
113.844844001635
 20
214.2547184943659
 30
0.0
 10
113.8219660175501
 20
214.2338299002014
 30
0.0
 10
113.7985455658013
 20
214.2124460094743
 30
0.0
 10
113.7612896249772
 20
214.1840951521908
 30
0.0
 10
113.7105601820063
 20
214.1482861336232
 30
0.0
 10
113.6569017873628
 20
214.1104096197571
 30
0.0
 10
113.6031331263034
 20
214.072689316647
 30
0.0
 10
113.5494195984519
 20
214.034890908159
 30
0.0
 10
113.502703612761
 20
214.0020166960061
 30
0.0
 10
113.4618864419533
 20
213.9652622609441
 30
0.0
 10
113.4280668133061
 20
213.9254744625356
 30
0.0
 10
113.3938299613737
 20
213.8851958132034
 30
0.0
 10
113.3654010308127
 20
213.8419200858778
 30
0.0
 10
113.3415283517676
 20
213.7951694227478
 30
0.0
 10
113.3174585195383
 20
213.7480326679654
 30
0.0
 10
113.3017405533591
 20
213.6956999267266
 30
0.0
 10
113.2898042138366
 20
213.6390023139945
 30
0.0
 10
113.278068396375
 20
213.5832571810519
 30
0.0
 10
113.2709050095925
 20
213.5206336137292
 30
0.0
 10
113.2679209247119
 20
213.4529943564348
 30
0.0
  0
LINE
  5
17B
330
CE
100
AcDbEntity
  8
2A
  6
Continuous
 62
     7
100
AcDbLine
 10
113.2679209247
 20
213.4529943564
 30
0.0
 11
114.0925230467
 21
213.4529943564
 31
0.0
  0
LINE
  5
17C
330
CE
100
AcDbEntity
  8
2A
  6
Continuous
 62
     7
100
AcDbLine
 10
114.0925230467
 20
213.4529943564
 30
0.0
 11
114.0925230467
 21
213.6270659745
 31
0.0
  0
LINE
  5
17D
330
CE
100
AcDbEntity
  8
2A
  6
Continuous
 62
     7
100
AcDbLine
 10
114.0925230467
 20
213.6270659745
 30
0.0
 11
113.4370190679
 21
213.6270659745
 31
0.0
  0
SPLINE
  5
17E
330
CE
100
AcDbEntity
  8
2A
  6
Continuous
 62
     7
100
AcDbSpline
210
0.0
220
0.0
230
1.0
 70
     8
 71
     3
 72
    49
 73
    45
 74
     0
 42
0.0000000039076607
 43
0.0000000001
 40
0.0
 40
0.0
 40
0.0
 40
0.0
 40
0.064187538640908
 40
0.064187538640908
 40
0.064187538640908
 40
0.1421722447733102
 40
0.1421722447733102
 40
0.1421722447733102
 40
0.2013319668372998
 40
0.2013319668372998
 40
0.2013319668372998
 40
0.2427950069574519
 40
0.2427950069574519
 40
0.2427950069574519
 40
0.2748551619599628
 40
0.2748551619599628
 40
0.2748551619599628
 40
0.3008786021166621
 40
0.3008786021166621
 40
0.3008786021166621
 40
0.3239508174649533
 40
0.3239508174649533
 40
0.3239508174649533
 40
0.4407129270098252
 40
0.4407129270098252
 40
0.5099435583328894
 40
0.5099435583328894
 40
0.5791741896559548
 40
0.5791741896559548
 40
0.5791741896559548
 40
0.6386613713225112
 40
0.6386613713225112
 40
0.6386613713225112
 40
0.7032788518910343
 40
0.7032788518910343
 40
0.7810388708802749
 40
0.7810388708802749
 40
0.7810388708802749
 40
0.856394574313194
 40
0.856394574313194
 40
0.856394574313194
 40
0.9281972871565972
 40
0.9281972871565972
 40
1.0
 40
1.0
 40
1.0
 40
1.0
 10
113.437019067948
 20
213.6270659744719
 30
0.0
 10
113.4429872377092
 20
213.6777954174428
 30
0.0
 10
113.4648705268339
 20
213.7265354704932
 30
0.0
 10
113.5006795454016
 20
213.7752755235436
 30
0.0
 10
113.5361398691711
 20
213.8235409642299
 30
0.0
 10
113.5842339220594
 20
213.8687768498035
 30
0.0
 10
113.6459050095925
 20
213.908564648212
 30
0.0
 10
113.6880084032978
 20
213.9357281280219
 30
0.0
 10
113.7287962562769
 20
213.9649306959574
 30
0.0
 10
113.7702418796191
 20
213.99311371983
 30
0.0
 10
113.8035434833198
 20
214.0157588103466
 30
0.0
 10
113.8329076621124
 20
214.034890908159
 30
0.0
 10
113.8577750361177
 20
214.0518007224826
 30
0.0
 10
113.8824247525825
 20
214.0685625296786
 30
0.0
 10
113.9035310042875
 20
214.0856203511298
 30
0.0
 10
113.9214355135713
 20
214.1025301654534
 30
0.0
 10
113.9383469505621
 20
214.1185020781669
 30
0.0
 10
113.9552551422185
 20
214.13336570922
 30
0.0
 10
113.9691808716615
 20
214.1482861336232
 30
0.0
 10
113.9826104349723
 20
214.1626749514562
 30
0.0
 10
113.9960376355872
 20
214.1771322874693
 30
0.0
 10
114.0069792801496
 20
214.1930474068327
 30
0.0
 10
114.0618616405405
 20
214.272876294674
 30
0.0
 10
114.0925230467278
 20
214.3681137198301
 30
0.0
 10
114.0925230467278
 20
214.5471588126682
 30
0.0
 10
114.0835707920859
 20
214.6078352052412
 30
0.0
 10
114.0457723835978
 20
214.7152622609441
 30
0.0
 10
114.0199103146323
 20
214.7610182291139
 30
0.0
 10
113.9860906859851
 20
214.7998113325621
 30
0.0
 10
113.9527005931519
 20
214.838111733165
 30
0.0
 10
113.9124832589294
 20
214.8684452848168
 30
0.0
 10
113.8657325957994
 20
214.8893338789812
 30
0.0
 10
113.8181527699649
 20
214.9105929500988
 30
0.0
 10
113.765268404818
 20
214.921164117708
 30
0.0
 10
113.6359580599904
 20
214.921164117708
 30
0.0
 10
113.5722975825368
 20
214.9052489983446
 30
0.0
 10
113.5155999698047
 20
214.8754081495383
 30
0.0
 10
113.4584923960261
 20
214.84535153176
 30
0.0
 10
113.4131463889029
 20
214.8008060275224
 30
0.0
 10
113.3783320652955
 20
214.7451031097505
 30
0.0
 10
113.3503911956266
 20
214.7003977182802
 30
0.0
 10
113.3305867072053
 20
214.6525964784508
 30
0.0
 10
113.3067140281602
 20
214.5491482025887
 30
0.0
 10
113.3007458583989
 20
214.480514250334
 30
0.0
 10
113.2987564684785
 20
214.3939757887956
 30
0.0
  0
LINE
  5
17F
330
CE
100
AcDbEntity
  8
2A
  6
Continuous
 62
     7
100
AcDbLine
 10
113.2987564685
 20
214.3939757888
 30
0.0
 11
113.4499501024
 21
214.3939757888
 31
0.0
  0
LINE
  5
180
330
CE
100
AcDbEntity
  8
2A
  6
Continuous
 62
     7
100
AcDbLine
 10
114.9330402881
 20
214.0736840116
 30
0.0
 11
114.5510774234
 21
214.0736840116
 31
0.0
  0
LINE
  5
181
330
CE
100
AcDbEntity
  8
2A
  6
Continuous
 62
     7
100
AcDbLine
 10
114.5510774234
 20
214.0736840116
 30
0.0
 11
114.7500164154
 21
214.738140245
 31
0.0
  0
LINE
  5
182
330
CE
100
AcDbEntity
  8
2A
  6
Continuous
 62
     7
100
AcDbLine
 10
114.7500164154
 20
214.738140245
 30
0.0
 11
114.9330402881
 21
214.0736840116
 31
0.0
  0
LINE
  5
183
330
CE
100
AcDbEntity
  8
2A
  6
Continuous
 62
     7
100
AcDbLine
 10
114.3710376356
 20
213.4529943564
 30
0.0
 11
114.5013426754
 21
213.889665444
 31
0.0
  0
LINE
  5
184
330
CE
100
AcDbEntity
  8
2A
  6
Continuous
 62
     7
100
AcDbLine
 10
114.1999501024
 20
213.4529943564
 30
0.0
 11
114.3710376356
 21
213.4529943564
 31
0.0
  0
LINE
  5
185
330
CE
100
AcDbEntity
  8
2A
  6
Continuous
 62
     7
100
AcDbLine
 10
114.661488564
 20
214.9529943564
 30
0.0
 11
114.1999501024
 21
213.4529943564
 31
0.0
  0
LINE
  5
186
330
CE
100
AcDbEntity
  8
2A
  6
Continuous
 62
     7
100
AcDbLine
 10
114.8514753014
 20
214.9529943564
 30
0.0
 11
114.661488564
 21
214.9529943564
 31
0.0
  0
LINE
  5
187
330
CE
100
AcDbEntity
  8
2A
  6
Continuous
 62
     7
100
AcDbLine
 10
115.2970986435
 20
213.4529943564
 30
0.0
 11
114.8514753014
 21
214.9529943564
 31
0.0
  0
LINE
  5
188
330
CE
100
AcDbEntity
  8
2A
  6
Continuous
 62
     7
100
AcDbLine
 10
115.1150694658
 20
213.4529943564
 30
0.0
 11
115.2970986435
 21
213.4529943564
 31
0.0
  0
LINE
  5
189
330
CE
100
AcDbEntity
  8
2A
  6
Continuous
 62
     7
100
AcDbLine
 10
114.9937166807
 20
213.889665444
 30
0.0
 11
115.1150694658
 21
213.4529943564
 31
0.0
  0
LINE
  5
18A
330
CE
100
AcDbEntity
  8
2A
  6
Continuous
 62
     7
100
AcDbLine
 10
114.5013426754
 20
213.889665444
 30
0.0
 11
114.9937166807
 21
213.889665444
 31
0.0
  0
LINE
  5
18B
330
CE
100
AcDbEntity
  8
SCHALTER_AUS
  6
Continuous
 62
     7
100
AcDbLine
 10
102.6675230467
 20
171.9229947012
 30
0.0
 11
102.6175230467
 21
171.9229947012
 31
0.0
  0
LINE
  5
18C
330
CE
100
AcDbEntity
  8
SCHALTER_AUS
  6
Continuous
 62
     7
100
AcDbLine
 10
102.6175230467
 20
171.9229947012
 30
0.0
 11
102.6175230467
 21
169.9229947012
 31
0.0
  0
LINE
  5
18D
330
CE
100
AcDbEntity
  8
SCHALTER_AUS
  6
Continuous
 62
     7
100
AcDbLine
 10
102.6175230467
 20
169.9229947012
 30
0.0
 11
102.6675230467
 21
169.9229947012
 31
0.0
  0
LINE
  5
18E
330
CE
100
AcDbEntity
  8
SCHALTER_AUS
  6
Continuous
 62
     7
100
AcDbLine
 10
102.6675230467
 20
169.9229947012
 30
0.0
 11
102.6675230467
 21
171.9229947012
 31
0.0
  0
LINE
  5
18F
330
CE
100
AcDbEntity
  8
SCHALTER_AUS
  6
Continuous
 62
     7
100
AcDbLine
 10
102.9388773688
 20
171.1116069659
 30
0.0
 11
102.9509734636
 21
171.1601217522
 31
0.0
  0
ARC
  5
190
330
CE
100
AcDbEntity
  8
SCHALTER_AUS
  6
Continuous
 62
     7
100
AcDbCircle
 10
102.6425230467
 20
169.9229947012
 30
0.0
 40
1.275000000000002
100
AcDbArc
 50
104.0
 51
76.0
  0
LINE
  5
191
330
CE
100
AcDbEntity
  8
SCHALTER_AUS
  6
Continuous
 62
     7
100
AcDbLine
 10
102.3340726298
 20
171.1601217522
 30
0.0
 11
102.3461687246
 21
171.1116069659
 31
0.0
  0
ARC
  5
192
330
CE
100
AcDbEntity
  8
SCHALTER_AUS
  6
Continuous
 62
     7
100
AcDbCircle
 10
102.6425230467
 20
169.9229947012
 30
0.0
 40
1.225000000000001
100
AcDbArc
 50
104.0
 51
76.0
  0
LINE
  5
193
330
CE
100
AcDbEntity
  8
KIPPSCHALTER_26-
  6
Continuous
 62
     7
100
AcDbLine
 10
99.2725230467
 20
169.3145504816
 30
0.0
 11
99.2725230467
 21
168.8274818477
 31
0.0
  0
LINE
  5
194
330
CE
100
AcDbEntity
  8
KIPPSCHALTER_26-
  6
Continuous
 62
     7
100
AcDbLine
 10
99.2725230467
 20
169.3145504816
 30
0.0
 11
99.2725230468
 21
171.4356391212
 31
0.0
  0
LINE
  5
195
330
CE
100
AcDbEntity
  8
KIPPSCHALTER_26-
  6
Continuous
 62
     7
100
AcDbLine
 10
99.0725230469
 20
169.5040134334
 30
0.0
 11
99.0725230472
 21
168.6274818478
 31
0.0
  0
LINE
  5
196
330
CE
100
AcDbEntity
  8
KIPPSCHALTER_26-
  6
Continuous
 62
     7
100
AcDbLine
 10
99.0725230469
 20
169.5040134334
 30
0.0
 11
99.2725230467
 21
169.3145504816
 31
0.0
  0
LINE
  5
197
330
CE
100
AcDbEntity
  8
KIPPSCHALTER_26-
  6
Continuous
 62
     7
100
AcDbLine
 10
96.5725230467
 20
169.314550481
 30
0.0
 11
96.5725230467
 21
168.827481848
 31
0.0
  0
LINE
  5
198
330
CE
100
AcDbEntity
  8
KIPPSCHALTER_26-
  6
Continuous
 62
     7
100
AcDbLine
 10
96.7725230464
 20
168.6274818477
 30
0.0
 11
96.772523047
 21
169.5040134334
 31
0.0
  0
LINE
  5
199
330
CE
100
AcDbEntity
  8
KIPPSCHALTER_26-
  6
Continuous
 62
     7
100
AcDbLine
 10
96.7725230467
 20
169.5040134331
 30
0.0
 11
96.5725230467
 21
169.3145504808
 31
0.0
  0
LINE
  5
19A
330
CE
100
AcDbEntity
  8
KIPPSCHALTER_26-
  6
Continuous
 62
     7
100
AcDbLine
 10
96.5725230467
 20
169.314550481
 30
0.0
 11
96.5725230467
 21
171.4356391216
 31
0.0
  0
LINE
  5
19B
330
CE
100
AcDbEntity
  8
KIPPSCHALTER_26-
  6
Continuous
 62
     7
100
AcDbLine
 10
99.2725230468
 20
171.4356391212
 30
0.0
 11
99.2478014269
 21
171.4617356427
 31
0.0
  0
SPLINE
  5
19C
330
CE
100
AcDbEntity
  8
KIPPSCHALTER_26-
  6
Continuous
 62
     7
100
AcDbSpline
210
0.0
220
0.0
230
1.0
 70
    12
 71
     2
 72
     6
 73
     3
 74
     0
 42
0.0000000426667248
 43
0.0000000001
 40
0.0
 40
0.0
 40
0.0
 40
1.0
 40
1.0
 40
1.0
 10
99.07252304707048
 20
171.6173127059429
 30
0.0
 41
1.0
 10
99.16057934011515
 20
171.5376958167623
 30
0.0
 41
0.9993489333796973
 10
99.24780142688253
 20
171.4617356426522
 30
0.0
 41
1.0
  0
LINE
  5
19D
330
CE
100
AcDbEntity
  8
KIPPSCHALTER_26-
  6
Continuous
 62
     7
100
AcDbLine
 10
99.072523047
 20
171.6173127059
 30
0.0
 11
99.0725230469
 21
169.5040134334
 31
0.0
  0
LINE
  5
19E
330
CE
100
AcDbEntity
  8
KIPPSCHALTER_26-
  6
Continuous
 62
     7
100
AcDbLine
 10
99.0725230469
 20
169.5040134334
 30
0.0
 11
96.7725230467
 21
169.5040134333
 31
0.0
  0
LINE
  5
19F
330
CE
100
AcDbEntity
  8
KIPPSCHALTER_26-
  6
Continuous
 62
     7
100
AcDbLine
 10
96.7725230467
 20
169.5040134333
 30
0.0
 11
96.7725230464
 21
171.6173127059
 31
0.0
  0
SPLINE
  5
1A0
330
CE
100
AcDbEntity
  8
KIPPSCHALTER_26-
  6
Continuous
 62
     7
100
AcDbSpline
210
0.0
220
0.0
230
1.0
 70
    12
 71
     2
 72
     6
 73
     3
 74
     0
 42
0.0000000426667251
 43
0.0000000001
 40
0.0
 40
0.0
 40
0.0
 40
1.0
 40
1.0
 40
1.0
 10
96.59724466775663
 20
171.4617356434769
 30
0.0
 41
1.0
 10
96.68446675398813
 20
171.5376958171386
 30
0.0
 41
0.9993489334847184
 10
96.77252304648417
 20
171.6173127058237
 30
0.0
 41
1.0
  0
LINE
  5
1A1
330
CE
100
AcDbEntity
  8
KIPPSCHALTER_26-
  6
Continuous
 62
     7
100
AcDbLine
 10
96.5725230467
 20
171.4356391216
 30
0.0
 11
96.5972446678
 21
171.4617356435
 31
0.0
  0
SPLINE
  5
1A2
330
CE
100
AcDbEntity
  8
KIPPSCHALTER_26-
  6
Continuous
 62
     7
100
AcDbSpline
210
0.0
220
0.0
230
1.0
 70
    12
 71
     2
 72
     6
 73
     3
 74
     0
 42
0.0000000043232452
 43
0.0000000001
 40
0.0
 40
0.0
 40
0.0
 40
1.0
 40
1.0
 40
1.0
 10
96.77252304643417
 20
171.6173127058956
 30
0.0
 41
1.0
 10
97.9225230467279
 20
171.4945058274656
 30
0.0
 41
0.9486650446728969
 10
99.07252304702145
 20
171.6173127058895
 30
0.0
 41
1.0
  0
ARC
  5
1A3
330
CE
100
AcDbEntity
  8
KIPPSCHALTER_26-
  6
Continuous
 62
     7
100
AcDbCircle
 10
97.9225230467
 20
172.0729943564
 30
0.0
 40
1.459451950539985
100
AcDbArc
 50
335.2394108431
 51
204.7605891469
  0
LINE
  5
1A4
330
CE
100
AcDbEntity
  8
KIPPSCHALTER_26-
  6
Continuous
 62
     7
100
AcDbLine
 10
96.2975230467
 20
170.3313407744
 30
0.0
 11
96.5725230467
 21
170.3313407744
 31
0.0
  0
LINE
  5
1A5
330
CE
100
AcDbEntity
  8
KIPPSCHALTER_26-
  6
Continuous
 62
     7
100
AcDbLine
 10
99.2725230467
 20
170.3313407744
 30
0.0
 11
99.5475230467
 21
170.3313407744
 31
0.0
  0
LINE
  5
1A6
330
CE
100
AcDbEntity
  8
KIPPSCHALTER_26-
  6
Continuous
 62
     7
100
AcDbLine
 10
99.5475230467
 20
173.8146479384
 30
0.0
 11
96.2975230467
 21
173.8146479384
 31
0.0
  0
LINE
  5
1A7
330
CE
100
AcDbEntity
  8
KIPPSCHALTER_26-
  6
Continuous
 62
     7
100
AcDbLine
 10
96.2975230467
 20
174.3479943564
 30
0.0
 11
99.5475230467
 21
174.3479943564
 31
0.0
  0
LINE
  5
1A8
330
CE
100
AcDbEntity
  8
KIPPSCHALTER_26-
  6
Continuous
 62
     7
100
AcDbLine
 10
99.5475230467
 20
174.3479943564
 30
0.0
 11
99.5475230467
 21
169.7979943564
 31
0.0
  0
LINE
  5
1A9
330
CE
100
AcDbEntity
  8
KIPPSCHALTER_26-
  6
Continuous
 62
     7
100
AcDbLine
 10
99.5475230467
 20
169.7979943564
 30
0.0
 11
99.2725230467
 21
169.7979943564
 31
0.0
  0
LINE
  5
1AA
330
CE
100
AcDbEntity
  8
KIPPSCHALTER_26-
  6
Continuous
 62
     7
100
AcDbLine
 10
96.5725230467
 20
169.7979943564
 30
0.0
 11
96.2975230467
 21
169.7979943564
 31
0.0
  0
LINE
  5
1AB
330
CE
100
AcDbEntity
  8
KIPPSCHALTER_26-
  6
Continuous
 62
     7
100
AcDbLine
 10
96.2975230467
 20
169.7979943564
 30
0.0
 11
96.2975230467
 21
174.3479943564
 31
0.0
  0
ARC
  5
1AC
330
CE
100
AcDbEntity
  8
KIPPSCHALTER_26-
  6
Continuous
 62
     7
100
AcDbCircle
 10
97.9225230467
 20
172.0729943564
 30
0.0
 40
3.6
100
AcDbArc
 50
58.2382102878
 51
122.8918870011
  0
ARC
  5
1AD
330
CE
100
AcDbEntity
  8
KIPPSCHALTER_26-
  6
Continuous
 62
     7
100
AcDbCircle
 10
97.9225230467
 20
172.0729943564
 30
0.0
 40
3.600000000000001
100
AcDbArc
 50
237.1081129989
 51
250.4921971983
  0
ARC
  5
1AE
330
CE
100
AcDbEntity
  8
KIPPSCHALTER_26-
  6
Continuous
 62
     7
100
AcDbCircle
 10
97.9225230467
 20
172.0729943564
 30
0.0
 40
3.6
100
AcDbArc
 50
253.1539344649
 51
286.8460655351
  0
ARC
  5
1AF
330
CE
100
AcDbEntity
  8
KIPPSCHALTER_26-
  6
Continuous
 62
     7
100
AcDbCircle
 10
97.9225230467
 20
172.0729943564
 30
0.0
 40
3.600000000000001
100
AcDbArc
 50
289.5078028189
 51
301.7617897122
  0
ARC
  5
1B0
330
CE
100
AcDbEntity
  8
KIPPSCHALTER_26-
  6
Continuous
 62
     7
100
AcDbCircle
 10
97.9225230467
 20
172.0729943564
 30
0.0
 40
3.9
100
AcDbArc
 50
60.9287132897
 51
74.0576498348
  0
ARC
  5
1B1
330
CE
100
AcDbEntity
  8
KIPPSCHALTER_26-
  6
Continuous
 62
     7
100
AcDbCircle
 10
97.9225230467
 20
172.0729943564
 30
0.0
 40
3.9
100
AcDbArc
 50
105.9423501652
 51
120.0848561399
  0
ARC
  5
1B2
330
CE
100
AcDbEntity
  8
KIPPSCHALTER_26-
  6
Continuous
 62
     7
100
AcDbCircle
 10
97.9225230467
 20
172.0729943564
 30
0.0
 40
3.9
100
AcDbArc
 50
239.9151438601
 51
254.057612954
  0
ARC
  5
1B3
330
CE
100
AcDbEntity
  8
KIPPSCHALTER_26-
  6
Continuous
 62
     7
100
AcDbCircle
 10
97.9225230467
 20
172.0729943564
 30
0.0
 40
3.9
100
AcDbArc
 50
285.942387046
 51
299.0712867103
  0
ARC
  5
1B4
330
CE
100
AcDbEntity
  8
KIPPSCHALTER_26-
  6
Continuous
 62
     7
100
AcDbCircle
 10
97.9225230466
 20
172.0729943568
 30
0.0
 40
4.09999984998135
100
AcDbArc
 50
293.8461828608
 51
297.5288467608
  0
ARC
  5
1B5
330
CE
100
AcDbEntity
  8
KIPPSCHALTER_26-
  6
Continuous
 62
     7
100
AcDbCircle
 10
97.9225230466
 20
172.0729943568
 30
0.0
 40
4.09999984998135
100
AcDbArc
 50
241.521478394
 51
246.1538171392
  0
ARC
  5
1B6
330
CE
100
AcDbEntity
  8
KIPPSCHALTER_26-
  6
Continuous
 62
     7
100
AcDbCircle
 10
97.9225230466
 20
172.0729943568
 30
0.0
 40
4.09999984998135
100
AcDbArc
 50
113.8461590507
 51
118.478521606
  0
ARC
  5
1B7
330
CE
100
AcDbEntity
  8
KIPPSCHALTER_26-
  6
Continuous
 62
     7
100
AcDbCircle
 10
97.9225230466
 20
172.0729943568
 30
0.0
 40
4.099999849981349
100
AcDbArc
 50
62.4711532392
 51
66.1538409493
  0
LINE
  5
1B8
330
CE
100
AcDbEntity
  8
KIPPSCHALTER_26-
  6
Continuous
 62
     7
100
AcDbLine
 10
99.0725230471
 20
168.6274818475
 30
0.0
 11
99.2725230467
 21
168.8274818474
 31
0.0
  0
LINE
  5
1B9
330
CE
100
AcDbEntity
  8
KIPPSCHALTER_26-
  6
Continuous
 62
     7
100
AcDbLine
 10
96.5725230467
 20
168.8274818481
 30
0.0
 11
96.7725230467
 21
168.6274818478
 31
0.0
  0
LINE
  5
1BA
330
CE
100
AcDbEntity
  8
KIPPSCHALTER_26-
  6
Continuous
 62
     7
100
AcDbLine
 10
96.7725230467
 20
168.6274818478
 30
0.0
 11
99.0725230471
 21
168.6274818478
 31
0.0
  0
LINE
  5
1BB
330
CE
100
AcDbEntity
  8
GEHÄUSEHÄLFTE_HI
  6
Continuous
 62
     7
100
AcDbLine
 10
98.3925230467
 20
202.6929943564
 30
0.0
 11
98.3425230467
 21
202.6929943564
 31
0.0
  0
LINE
  5
1BC
330
CE
100
AcDbEntity
  8
GEHÄUSEHÄLFTE_HI
  6
Continuous
 62
     7
100
AcDbLine
 10
95.3425230467
 20
202.6929943564
 30
0.0
 11
95.2925230467
 21
202.6929943564
 31
0.0
  0
LINE
  5
1BD
330
CE
100
AcDbEntity
  8
GEHÄUSEHÄLFTE_HI
  6
Continuous
 62
     7
100
AcDbLine
 10
95.2925230467
 20
204.6929943564
 30
0.0
 11
95.3425230467
 21
204.6929943564
 31
0.0
  0
LINE
  5
1BE
330
CE
100
AcDbEntity
  8
GEHÄUSEHÄLFTE_HI
  6
Continuous
 62
     7
100
AcDbLine
 10
98.3425230467
 20
204.6929943564
 30
0.0
 11
98.3925230467
 21
204.6929943564
 31
0.0
  0
LINE
  5
1BF
330
CE
100
AcDbEntity
  8
DECKEL
  6
Continuous
 62
     7
100
AcDbLine
 10
87.2425230467
 20
171.2823551079
 30
0.0
 11
85.8925230467
 21
171.2823551079
 31
0.0
  0
LINE
  5
1C0
330
CE
100
AcDbEntity
  8
DECKEL
  6
Continuous
 62
     7
100
AcDbLine
 10
87.1425230467
 20
164.6897814395
 30
0.0
 11
85.8925230467
 21
164.6897814395
 31
0.0
  0
LINE
  5
1C1
330
CE
100
AcDbEntity
  8
DECKEL
  6
Continuous
 62
     7
100
AcDbLine
 10
87.1425230467
 20
163.6897814395
 30
0.0
 11
84.8925230467
 21
163.6897814395
 31
0.0
  0
LINE
  5
1C2
330
CE
100
AcDbEntity
  8
DECKEL
  6
Continuous
 62
     7
100
AcDbLine
 10
84.8925230467
 20
163.6897814395
 30
0.0
 11
84.8925230467
 21
162.0897814395
 31
0.0
  0
LINE
  5
1C3
330
CE
100
AcDbEntity
  8
DECKEL
  6
Continuous
 62
     7
100
AcDbLine
 10
87.2425230467
 20
180.345387271
 30
0.0
 11
85.8925230467
 21
180.345387271
 31
0.0
  0
LINE
  5
1C4
330
CE
100
AcDbEntity
  8
DECKEL
  6
Continuous
 62
     7
100
AcDbLine
 10
87.3767248977
 20
175.0950279139
 30
0.0
 11
85.8925230467
 21
175.0950279139
 31
0.0
  0
LINE
  5
1C5
330
CE
100
AcDbEntity
  8
DECKEL
  6
Continuous
 62
     7
100
AcDbLine
 10
84.8925230467
 20
173.3558381054
 30
0.0
 11
84.8925230467
 21
171.9832821454
 31
0.0
  0
LINE
  5
1C6
330
CE
100
AcDbEntity
  8
DECKEL
  6
Continuous
 62
     7
100
AcDbLine
 10
87.2425230467
 20
173.3558381054
 30
0.0
 11
84.8925230467
 21
173.3558381054
 31
0.0
  0
LINE
  5
1C7
330
CE
100
AcDbEntity
  8
DECKEL
  6
Continuous
 62
     7
100
AcDbLine
 10
87.2425230467
 20
171.9631096247
 30
0.0
 11
84.8929090353
 21
171.9631096247
 31
0.0
  0
LINE
  5
1C8
330
CE
100
AcDbEntity
  8
DECKEL
  6
Continuous
 62
     7
100
AcDbLine
 10
87.2425230467
 20
171.2823551079
 30
0.0
 11
87.2425230467
 21
166.1897814395
 31
0.0
  0
LINE
  5
1C9
330
CE
100
AcDbEntity
  8
DECKEL
  6
Continuous
 62
     7
100
AcDbLine
 10
87.2425230467
 20
180.345387271
 30
0.0
 11
87.2425230467
 21
175.1672461752
 31
0.0
  0
LINE
  5
1CA
330
CE
100
AcDbEntity
  8
DECKEL
  6
Continuous
 62
     7
100
AcDbLine
 10
87.2425230467
 20
171.9631096247
 30
0.0
 11
87.2425230467
 21
171.2823551079
 31
0.0
  0
LINE
  5
1CB
330
CE
100
AcDbEntity
  8
DECKEL
  6
Continuous
 62
     7
100
AcDbLine
 10
123.8925230467
 20
162.0897814395
 30
0.0
 11
85.8925230467
 21
162.0897814395
 31
0.0
  0
LINE
  5
1CC
330
CE
100
AcDbEntity
  8
DECKEL
  6
Continuous
 62
     7
100
AcDbLine
 10
123.8925230467
 20
98.9897814395
 30
0.0
 11
123.8925230467
 21
162.0897814395
 31
0.0
  0
LINE
  5
1CD
330
CE
100
AcDbEntity
  8
DECKEL
  6
Continuous
 62
     7
100
AcDbLine
 10
85.8925230467
 20
162.0897814395
 30
0.0
 11
85.8925230467
 21
98.9897814395
 31
0.0
  0
LINE
  5
1CE
330
CE
100
AcDbEntity
  8
DECKEL
  6
Continuous
 62
     7
100
AcDbLine
 10
85.8925230467
 20
98.9897814395
 30
0.0
 11
123.8925230467
 21
98.9897814395
 31
0.0
  0
LINE
  5
1CF
330
CE
100
AcDbEntity
  8
DECKEL
  6
Continuous
 62
     7
100
AcDbLine
 10
123.8925230467
 20
97.9897814395
 30
0.0
 11
85.8925230467
 21
97.9897814395
 31
0.0
  0
ARC
  5
1D0
330
CE
100
AcDbEntity
  8
DECKEL
  6
Continuous
 62
     7
100
AcDbCircle
 10
85.8925230467
 20
98.9897814395
 30
0.0
 40
1.000000000000008
100
AcDbArc
 50
180.0
 51
270.0
  0
ARC
  5
1D1
330
CE
100
AcDbEntity
  8
DECKEL
  6
Continuous
 62
     7
100
AcDbCircle
 10
123.8925230467
 20
98.9897814395
 30
0.0
 40
1.000000000000001
100
AcDbArc
 50
270.0
 51
360.0
  0
LINE
  5
1D2
330
CE
100
AcDbEntity
  8
DECKEL
  6
Continuous
 62
     7
100
AcDbLine
 10
84.8925230467
 20
98.9897814395
 30
0.0
 11
84.8925230467
 21
162.0897814395
 31
0.0
  0
LINE
  5
1D3
330
CE
100
AcDbEntity
  8
DECKEL
  6
Continuous
 62
     7
100
AcDbLine
 10
124.8925230467
 20
162.0897814395
 30
0.0
 11
124.8925230467
 21
98.9897814395
 31
0.0
  0
ARC
  5
1D4
330
CE
100
AcDbEntity
  8
DECKEL
  6
Continuous
 62
     7
100
AcDbCircle
 10
85.8925230467
 20
162.0897814395
 30
0.0
 40
1.000000000000001
100
AcDbArc
 50
90.0
 51
180.0
  0
ARC
  5
1D5
330
CE
100
AcDbEntity
  8
DECKEL
  6
Continuous
 62
     7
100
AcDbCircle
 10
123.8925230467
 20
162.0897814395
 30
0.0
 40
1.000000000000001
100
AcDbArc
 50
0.0
 51
90.0
  0
LINE
  5
1D6
330
CE
100
AcDbEntity
  8
DECKEL
  6
Continuous
 62
     7
100
AcDbLine
 10
85.8925230467
 20
163.0897814395
 30
0.0
 11
123.8925230467
 21
163.0897814395
 31
0.0
  0
LINE
  5
1D7
330
CE
100
AcDbEntity
  8
DECKEL
  6
Continuous
 62
     7
100
AcDbLine
 10
85.8925230467
 20
162.0897814395
 30
0.0
 11
85.8925230467
 21
163.0897814395
 31
0.0
  0
LINE
  5
1D8
330
CE
100
AcDbEntity
  8
DECKEL
  6
Continuous
 62
     7
100
AcDbLine
 10
123.8925230467
 20
163.0897814395
 30
0.0
 11
123.8925230467
 21
162.0897814395
 31
0.0
  0
LINE
  5
1D9
330
CE
100
AcDbEntity
  8
DECKEL
  6
Continuous
 62
     7
100
AcDbLine
 10
85.8925230467
 20
162.0897814395
 30
0.0
 11
84.8925230467
 21
162.0897814395
 31
0.0
  0
LINE
  5
1DA
330
CE
100
AcDbEntity
  8
DECKEL
  6
Continuous
 62
     7
100
AcDbLine
 10
124.8925230467
 20
162.0897814395
 30
0.0
 11
123.8925230467
 21
162.0897814395
 31
0.0
  0
LINE
  5
1DB
330
CE
100
AcDbEntity
  8
DECKEL
  6
Continuous
 62
     7
100
AcDbLine
 10
85.8925230467
 20
98.9897814395
 30
0.0
 11
84.8925230467
 21
98.9897814395
 31
0.0
  0
LINE
  5
1DC
330
CE
100
AcDbEntity
  8
DECKEL
  6
Continuous
 62
     7
100
AcDbLine
 10
124.8925230467
 20
98.9897814395
 30
0.0
 11
123.8925230467
 21
98.9897814395
 31
0.0
  0
LINE
  5
1DD
330
CE
100
AcDbEntity
  8
DECKEL
  6
Continuous
 62
     7
100
AcDbLine
 10
85.8925230467
 20
98.9897814395
 30
0.0
 11
85.8925230467
 21
97.9897814395
 31
0.0
  0
LINE
  5
1DE
330
CE
100
AcDbEntity
  8
DECKEL
  6
Continuous
 62
     7
100
AcDbLine
 10
123.8925230467
 20
97.9897814395
 30
0.0
 11
123.8925230467
 21
98.9897814395
 31
0.0
  0
LINE
  5
1DF
330
CE
100
AcDbEntity
  8
DECKEL
  6
Continuous
 62
     7
100
AcDbLine
 10
85.8925230467
 20
180.345387271
 30
0.0
 11
85.8925230467
 21
175.0950279139
 31
0.0
  0
LINE
  5
1E0
330
CE
100
AcDbEntity
  8
DECKEL
  6
Continuous
 62
     7
100
AcDbLine
 10
84.8925230467
 20
173.6668799071
 30
0.0
 11
84.8925230467
 21
173.3558381054
 31
0.0
  0
SPLINE
  5
1E1
330
CE
100
AcDbEntity
  8
DECKEL
  6
Continuous
 62
     7
100
AcDbSpline
210
0.0
220
0.0
230
1.0
 70
    12
 71
     2
 72
     6
 73
     3
 74
     0
 42
0.0000000041183651
 43
0.0000000001
 40
0.0
 40
0.0
 40
0.0
 40
1.0
 40
1.0
 40
1.0
 10
85.89252304672782
 20
175.0950279138553
 30
0.0
 41
1.0
 10
84.89252304672782
 20
175.0950279138553
 30
0.0
 41
0.7071067811865909
 10
84.89252304672782
 20
173.6668799071132
 30
0.0
 41
1.0
  0
LINE
  5
1E2
330
CE
100
AcDbEntity
  8
DECKEL
  6
Continuous
 62
     7
100
AcDbLine
 10
84.8925230467
 20
173.6668799071
 30
0.0
 11
84.8925230467
 21
180.5892261797
 31
0.0
  0
LINE
  5
1E3
330
CE
100
AcDbEntity
  8
DECKEL
  6
Continuous
 62
     7
100
AcDbLine
 10
85.8925230467
 20
171.2823551079
 30
0.0
 11
85.8925230467
 21
164.6897814395
 31
0.0
  0
LINE
  5
1E4
330
CE
100
AcDbEntity
  8
DECKEL
  6
Continuous
 62
     7
100
AcDbLine
 10
85.8925230467
 20
164.6897814395
 30
0.0
 11
84.8925230467
 21
163.6897814395
 31
0.0
  0
LINE
  5
1E5
330
CE
100
AcDbEntity
  8
DECKEL
  6
Continuous
 62
     7
100
AcDbLine
 10
84.8925230467
 20
163.6897814395
 30
0.0
 11
84.8925230467
 21
171.9832821454
 31
0.0
  0
LINE
  5
1E6
330
CE
100
AcDbEntity
  8
DECKEL
  6
Continuous
 62
     7
100
AcDbLine
 10
84.8925230467
 20
171.9832821454
 30
0.0
 11
84.8929090353
 21
171.9631096247
 31
0.0
  0
SPLINE
  5
1E7
330
CE
100
AcDbEntity
  8
DECKEL
  6
Continuous
 62
     7
100
AcDbSpline
210
0.0
220
0.0
230
1.0
 70
    12
 71
     2
 72
     6
 73
     3
 74
     0
 42
0.0000000060463727
 43
0.0000000001
 40
0.0
 40
0.0
 40
0.0
 40
1.0
 40
1.0
 40
1.0
 10
84.8929090352509
 20
171.9631096247342
 30
0.0
 41
1.0
 10
84.91992943041473
 20
171.2823551078705
 30
0.0
 41
0.7168618394294957
 10
85.89252304672782
 20
171.2823551078705
 30
0.0
 41
1.0
  0
LINE
  5
1E8
330
CE
100
AcDbEntity
  8
DECKEL
  6
Continuous
 62
     7
100
AcDbLine
 10
84.8925230467
 20
181.1929943564
 30
0.0
 11
84.8925230467
 21
180.5892261797
 31
0.0
  0
ARC
  5
1E9
330
CE
100
AcDbEntity
  8
DECKEL
  6
Continuous
 62
     7
100
AcDbCircle
 10
85.9104326159
 20
181.3117321996
 30
0.0
 40
0.9665108761316292
100
AcDbArc
 50
237.5980941691
 51
268.9382411693
  0
LINE
  5
1EA
330
CE
100
AcDbEntity
  8
DECKEL
  6
Continuous
 62
     7
100
AcDbLine
 10
85.3925230467
 20
180.4956973034
 30
0.0
 11
85.3925230467
 21
181.6929943564
 31
0.0
  0
SPLINE
  5
1EB
330
CE
100
AcDbEntity
  8
DECKEL
  6
Continuous
 62
     7
100
AcDbSpline
210
0.0
220
0.0
230
1.0
 70
     8
 71
     3
 72
    10
 73
     6
 74
     0
 42
0.0000000177917018
 43
0.0000000001
 40
0.0
 40
0.0
 40
0.0
 40
0.0
 40
0.4999999999999999
 40
0.4999999999999999
 40
1.0
 40
1.0
 40
1.0
 40
1.0
 10
85.39252304672782
 20
180.4956973033728
 30
0.0
 10
85.25489007368117
 20
180.5802290599042
 30
0.0
 10
85.12218236728657
 20
180.618535617044
 30
0.0
 10
84.9401635832552
 20
180.6368748556469
 30
0.0
 10
84.89252304672782
 20
180.617130825045
 30
0.0
 10
84.89252304672782
 20
180.5892261796627
 30
0.0
  0
LINE
  5
1EC
330
CE
100
AcDbEntity
  8
DECKEL
  6
Continuous
 62
     7
100
AcDbLine
 10
124.8925230467
 20
162.0897814395
 30
0.0
 11
124.8925230467
 21
163.6897814395
 31
0.0
  0
LINE
  5
1ED
330
CE
100
AcDbEntity
  8
DECKEL
  6
Continuous
 62
     7
100
AcDbLine
 10
122.6425230467
 20
163.6897814395
 30
0.0
 11
124.8925230467
 21
163.6897814395
 31
0.0
  0
LINE
  5
1EE
330
CE
100
AcDbEntity
  8
DECKEL
  6
Continuous
 62
     7
100
AcDbLine
 10
122.6425230467
 20
164.6897814395
 30
0.0
 11
123.8925230467
 21
164.6897814395
 31
0.0
  0
LINE
  5
1EF
330
CE
100
AcDbEntity
  8
DECKEL
  6
Continuous
 62
     7
100
AcDbLine
 10
122.5425230467
 20
171.2823551079
 30
0.0
 11
123.8925230467
 21
171.2823551079
 31
0.0
  0
LINE
  5
1F0
330
CE
100
AcDbEntity
  8
DECKEL
  6
Continuous
 62
     7
100
AcDbLine
 10
122.5425230467
 20
171.9631096247
 30
0.0
 11
124.8921370582
 21
171.9631096247
 31
0.0
  0
LINE
  5
1F1
330
CE
100
AcDbEntity
  8
DECKEL
  6
Continuous
 62
     7
100
AcDbLine
 10
124.8925230467
 20
173.3558381054
 30
0.0
 11
124.8925230467
 21
173.6668799071
 31
0.0
  0
LINE
  5
1F2
330
CE
100
AcDbEntity
  8
DECKEL
  6
Continuous
 62
     7
100
AcDbLine
 10
122.5425230467
 20
173.3558381054
 30
0.0
 11
124.8925230467
 21
173.3558381054
 31
0.0
  0
LINE
  5
1F3
330
CE
100
AcDbEntity
  8
DECKEL
  6
Continuous
 62
     7
100
AcDbLine
 10
122.4083211958
 20
175.0950279139
 30
0.0
 11
123.8925230467
 21
175.0950279139
 31
0.0
  0
LINE
  5
1F4
330
CE
100
AcDbEntity
  8
DECKEL
  6
Continuous
 62
     7
100
AcDbLine
 10
122.5425230467
 20
180.345387271
 30
0.0
 11
123.8925230467
 21
180.345387271
 31
0.0
  0
LINE
  5
1F5
330
CE
100
AcDbEntity
  8
DECKEL
  6
Continuous
 62
     7
100
AcDbLine
 10
122.5425230467
 20
166.1897814395
 30
0.0
 11
122.5425230467
 21
171.2823551079
 31
0.0
  0
LINE
  5
1F6
330
CE
100
AcDbEntity
  8
DECKEL
  6
Continuous
 62
     7
100
AcDbLine
 10
122.5425230467
 20
171.2823551079
 30
0.0
 11
122.5425230467
 21
171.9631096247
 31
0.0
  0
LINE
  5
1F7
330
CE
100
AcDbEntity
  8
DECKEL
  6
Continuous
 62
     7
100
AcDbLine
 10
122.5425230467
 20
173.9929943564
 30
0.0
 11
122.5425230467
 21
174.3855723755
 31
0.0
  0
LINE
  5
1F8
330
CE
100
AcDbEntity
  8
DECKEL
  6
Continuous
 62
     7
100
AcDbLine
 10
122.5425230467
 20
180.345387271
 30
0.0
 11
122.5425230467
 21
181.1640559069
 31
0.0
  0
LINE
  5
1F9
330
CE
100
AcDbEntity
  8
DECKEL
  6
Continuous
 62
     7
100
AcDbLine
 10
123.8925230467
 20
164.6897814395
 30
0.0
 11
123.8925230467
 21
171.2823551079
 31
0.0
  0
SPLINE
  5
1FA
330
CE
100
AcDbEntity
  8
DECKEL
  6
Continuous
 62
     7
100
AcDbSpline
210
0.0
220
0.0
230
1.0
 70
    12
 71
     2
 72
     6
 73
     3
 74
     0
 42
0.0000000060463727
 43
0.0000000001
 40
0.0
 40
0.0
 40
0.0
 40
1.0
 40
1.0
 40
1.0
 10
123.8925230467278
 20
171.2823551078705
 30
0.0
 41
1.0
 10
124.8651166630414
 20
171.2823551078705
 30
0.0
 41
0.7168618394292574
 10
124.8921370582048
 20
171.9631096247346
 30
0.0
 41
1.0
  0
LINE
  5
1FB
330
CE
100
AcDbEntity
  8
DECKEL
  6
Continuous
 62
     7
100
AcDbLine
 10
124.8925230467
 20
171.9832821454
 30
0.0
 11
124.8925230467
 21
173.3558381054
 31
0.0
  0
LINE
  5
1FC
330
CE
100
AcDbEntity
  8
DECKEL
  6
Continuous
 62
     7
100
AcDbLine
 10
124.8921370582
 20
171.9631096247
 30
0.0
 11
124.8925230467
 21
171.9832821454
 31
0.0
  0
LINE
  5
1FD
330
CE
100
AcDbEntity
  8
DECKEL
  6
Continuous
 62
     7
100
AcDbLine
 10
124.8925230467
 20
171.9832821454
 30
0.0
 11
124.8925230467
 21
163.6897814395
 31
0.0
  0
LINE
  5
1FE
330
CE
100
AcDbEntity
  8
DECKEL
  6
Continuous
 62
     7
100
AcDbLine
 10
124.8925230467
 20
163.6897814395
 30
0.0
 11
123.8925230467
 21
164.6897814395
 31
0.0
  0
LINE
  5
1FF
330
CE
100
AcDbEntity
  8
DECKEL
  6
Continuous
 62
     7
100
AcDbLine
 10
123.8925230467
 20
175.0950279139
 30
0.0
 11
123.8925230467
 21
180.345387271
 31
0.0
  0
ARC
  5
200
330
CE
100
AcDbEntity
  8
DECKEL
  6
Continuous
 62
     7
100
AcDbCircle
 10
123.8757067535
 20
181.3080954632
 30
0.0
 40
0.9628550519064655
100
AcDbArc
 50
271.000723437
 51
302.4629412245
  0
SPLINE
  5
201
330
CE
100
AcDbEntity
  8
DECKEL
  6
Continuous
 62
     7
100
AcDbSpline
210
0.0
220
0.0
230
1.0
 70
    12
 71
     2
 72
     6
 73
     3
 74
     0
 42
0.0000000041183651
 43
0.0000000001
 40
0.0
 40
0.0
 40
0.0
 40
1.0
 40
1.0
 40
1.0
 10
124.8925230467278
 20
173.6668799071132
 30
0.0
 41
1.0
 10
124.8925230467278
 20
175.0950279138553
 30
0.0
 41
0.7071067811865909
 10
123.8925230467278
 20
175.0950279138553
 30
0.0
 41
1.0
  0
LINE
  5
202
330
CE
100
AcDbEntity
  8
DECKEL
  6
Continuous
 62
     7
100
AcDbLine
 10
124.8925230467
 20
180.5892261797
 30
0.0
 11
124.8925230467
 21
173.6668799071
 31
0.0
  0
LINE
  5
203
330
CE
100
AcDbEntity
  8
DECKEL
  6
Continuous
 62
     7
100
AcDbLine
 10
124.8925230467
 20
180.5892261797
 30
0.0
 11
124.8925230467
 21
181.1929943564
 31
0.0
  0
LINE
  5
204
330
CE
100
AcDbEntity
  8
DECKEL
  6
Continuous
 62
     7
100
AcDbLine
 10
124.3925230467
 20
181.6929943564
 30
0.0
 11
124.3925230467
 21
180.4956973034
 31
0.0
  0
SPLINE
  5
205
330
CE
100
AcDbEntity
  8
DECKEL
  6
Continuous
 62
     7
100
AcDbSpline
210
0.0
220
0.0
230
1.0
 70
     8
 71
     3
 72
    10
 73
     6
 74
     0
 42
0.0000000177917018
 43
0.0000000001
 40
0.0
 40
0.0
 40
0.0
 40
0.0
 40
0.5
 40
0.5
 40
1.0
 40
1.0
 40
1.0
 40
1.0
 10
124.8925230467278
 20
180.5892261796627
 30
0.0
 10
124.8925230467278
 20
180.6171308250452
 30
0.0
 10
124.8448825102004
 20
180.6368748556469
 30
0.0
 10
124.6628637261691
 20
180.618535617044
 30
0.0
 10
124.5301560197745
 20
180.5802290599042
 30
0.0
 10
124.3925230467278
 20
180.4956973033728
 30
0.0
  0
LINE
  5
206
330
CE
100
AcDbEntity
  8
DECKEL
  6
Continuous
 62
     7
100
AcDbLine
 10
87.2425230467
 20
181.1640559069
 30
0.0
 11
87.2425230467
 21
180.345387271
 31
0.0
  0
LINE
  5
207
330
CE
100
AcDbEntity
  8
DECKEL
  6
Continuous
 62
     7
100
AcDbLine
 10
85.6425230467
 20
181.1640559069
 30
0.0
 11
87.2425230467
 21
181.1640559069
 31
0.0
  0
LINE
  5
208
330
CE
100
AcDbEntity
  8
DECKEL
  6
Continuous
 62
     7
100
AcDbLine
 10
85.6425230467
 20
181.6929943564
 30
0.0
 11
85.6425230467
 21
181.1640559069
 31
0.0
  0
LINE
  5
209
330
CE
100
AcDbEntity
  8
DECKEL
  6
Continuous
 62
     7
100
AcDbLine
 10
87.1425230467
 20
166.1897814395
 30
0.0
 11
87.2425230467
 21
166.1897814395
 31
0.0
  0
LINE
  5
20A
330
CE
100
AcDbEntity
  8
DECKEL
  6
Continuous
 62
     7
100
AcDbLine
 10
87.1425230467
 20
163.0897814395
 30
0.0
 11
87.1425230467
 21
163.6897814395
 31
0.0
  0
LINE
  5
20B
330
CE
100
AcDbEntity
  8
DECKEL
  6
Continuous
 62
     7
100
AcDbLine
 10
87.1425230467
 20
163.6897814395
 30
0.0
 11
87.1425230467
 21
164.6897814395
 31
0.0
  0
LINE
  5
20C
330
CE
100
AcDbEntity
  8
DECKEL
  6
Continuous
 62
     7
100
AcDbLine
 10
87.1425230467
 20
164.6897814395
 30
0.0
 11
87.1425230467
 21
166.1897814395
 31
0.0
  0
LINE
  5
20D
330
CE
100
AcDbEntity
  8
DECKEL
  6
Continuous
 62
     7
100
AcDbLine
 10
124.1425230467
 20
181.1640559069
 30
0.0
 11
122.5425230467
 21
181.1640559069
 31
0.0
  0
LINE
  5
20E
330
CE
100
AcDbEntity
  8
DECKEL
  6
Continuous
 62
     7
100
AcDbLine
 10
124.1425230467
 20
181.1640559069
 30
0.0
 11
124.1425230467
 21
181.6929943564
 31
0.0
  0
LINE
  5
20F
330
CE
100
AcDbEntity
  8
DECKEL
  6
Continuous
 62
     7
100
AcDbLine
 10
122.6425230467
 20
166.1897814395
 30
0.0
 11
122.5425230467
 21
166.1897814395
 31
0.0
  0
LINE
  5
210
330
CE
100
AcDbEntity
  8
DECKEL
  6
Continuous
 62
     7
100
AcDbLine
 10
122.6425230467
 20
166.1897814395
 30
0.0
 11
122.6425230467
 21
164.6897814395
 31
0.0
  0
LINE
  5
211
330
CE
100
AcDbEntity
  8
DECKEL
  6
Continuous
 62
     7
100
AcDbLine
 10
122.6425230467
 20
164.6897814395
 30
0.0
 11
122.6425230467
 21
163.6897814395
 31
0.0
  0
LINE
  5
212
330
CE
100
AcDbEntity
  8
DECKEL
  6
Continuous
 62
     7
100
AcDbLine
 10
122.6425230467
 20
163.6897814395
 30
0.0
 11
122.6425230467
 21
163.0897814395
 31
0.0
  0
LINE
  5
213
330
CE
100
AcDbEntity
  8
DECKEL
  6
Continuous
 62
     7
100
AcDbLine
 10
86.3425230467
 20
102.4397814395
 30
0.0
 11
91.4425230467
 21
102.4397814395
 31
0.0
  0
LINE
  5
214
330
CE
100
AcDbEntity
  8
DECKEL
  6
Continuous
 62
     7
100
AcDbLine
 10
91.4425230467
 20
102.4397814395
 30
0.0
 11
91.4425230467
 21
107.5397814395
 31
0.0
  0
LINE
  5
215
330
CE
100
AcDbEntity
  8
DECKEL
  6
Continuous
 62
     7
100
AcDbLine
 10
91.4425230467
 20
107.5397814395
 30
0.0
 11
86.3425230467
 21
107.5397814395
 31
0.0
  0
LINE
  5
216
330
CE
100
AcDbEntity
  8
DECKEL
  6
Continuous
 62
     7
100
AcDbLine
 10
86.3425230467
 20
107.5397814395
 30
0.0
 11
86.3425230467
 21
102.4397814395
 31
0.0
  0
CIRCLE
  5
217
330
CE
100
AcDbEntity
  8
DECKEL
  6
Continuous
 62
     7
100
AcDbCircle
 10
88.8925230467
 20
104.9897814395
 30
0.0
 40
0.9500000000000028
  0
CIRCLE
  5
218
330
CE
100
AcDbEntity
  8
DECKEL
  6
Continuous
 62
     7
100
AcDbCircle
 10
88.8925230467
 20
104.9897814395
 30
0.0
 40
0.6500000000000057
  0
LINE
  5
219
330
CE
100
AcDbEntity
  8
DECKEL
  6
Continuous
 62
     7
100
AcDbLine
 10
122.5425230467
 20
175.1672461752
 30
0.0
 11
122.5425230467
 21
180.345387271
 31
0.0
  0
SPLINE
  5
21A
330
CE
100
AcDbEntity
  8
DECKEL
  6
Continuous
 62
     7
100
AcDbSpline
210
0.0
220
0.0
230
1.0
 70
     8
 71
     3
 72
    14
 73
    10
 74
     0
 42
0.0000000091760675
 43
0.0000000001
 40
0.0
 40
0.0
 40
0.0
 40
0.0
 40
0.25
 40
0.25
 40
0.5
 40
0.5
 40
0.75
 40
0.75
 40
1.0
 40
1.0
 40
1.0
 40
1.0
 10
122.4083211957758
 20
175.0950279138594
 30
0.0
 10
122.3144899548657
 20
175.0654064571992
 30
0.0
 10
122.2388262051065
 20
175.0051592663316
 30
0.0
 10
122.1500247576814
 20
174.8591014522378
 30
0.0
 10
122.1354061055345
 20
174.774528642933
 30
0.0
 10
122.1615196031966
 20
174.6131777569461
 30
0.0
 10
122.2032864663408
 20
174.5356479666798
 30
0.0
 10
122.3451263856704
 20
174.4198498995718
 30
0.0
 10
122.4417978639913
 20
174.3855723754967
 30
0.0
 10
122.5425230467278
 20
174.3855723754967
 30
0.0
  0
SPLINE
  5
21B
330
CE
100
AcDbEntity
  8
DECKEL
  6
Continuous
 62
     7
100
AcDbSpline
210
0.0
220
0.0
230
1.0
 70
     8
 71
     3
 72
    10
 73
     6
 74
     0
 42
0.0000000625227115
 43
0.0000000001
 40
0.0
 40
0.0
 40
0.0
 40
0.0
 40
0.5
 40
0.5
 40
1.0
 40
1.0
 40
1.0
 40
1.0
 10
122.5425230467278
 20
175.1672461751547
 30
0.0
 10
122.5160882825391
 20
175.1672461751549
 30
0.0
 10
122.4898131828405
 20
175.1603176921547
 30
0.0
 10
122.4436062808603
 20
175.1350421435123
 30
0.0
 10
122.4236032333749
 20
175.1167554710557
 30
0.0
 10
122.4083211957758
 20
175.0950279138594
 30
0.0
  0
LINE
  5
21C
330
CE
100
AcDbEntity
  8
DECKEL
  6
Continuous
 62
     7
100
AcDbLine
 10
87.2425230467
 20
174.3855723755
 30
0.0
 11
87.2425230467
 21
173.9929943564
 31
0.0
  0
SPLINE
  5
21D
330
CE
100
AcDbEntity
  8
DECKEL
  6
Continuous
 62
     7
100
AcDbSpline
210
0.0
220
0.0
230
1.0
 70
     8
 71
     3
 72
    32
 73
    28
 74
     0
 42
0.0000000093208629
 43
0.0000000001
 40
0.0
 40
0.0
 40
0.0
 40
0.0
 40
0.1068563933556609
 40
0.1068563933556609
 40
0.1068563933556609
 40
0.2137421822588867
 40
0.2137421822588867
 40
0.2137421822588867
 40
0.3217854468151058
 40
0.3217854468151058
 40
0.3217854468151058
 40
0.4368038410392769
 40
0.4368038410392769
 40
0.4368038410392769
 40
0.5651603228782169
 40
0.5651603228782169
 40
0.5651603228782169
 40
0.7111835762370416
 40
0.7111835762370416
 40
0.7111835762370416
 40
0.855446994831318
 40
0.855446994831318
 40
0.855446994831318
 40
0.9787171493504446
 40
0.9787171493504446
 40
0.9787171493504446
 40
1.0
 40
1.0
 40
1.0
 40
1.0
 10
87.24252304672783
 20
174.3855723754967
 30
0.0
 10
87.28486583127426
 20
174.3855723754967
 30
0.0
 10
87.32780070194787
 20
174.3916912569749
 30
0.0
 10
87.36768752229746
 20
174.4033322394886
 30
0.0
 10
87.40760808911207
 20
174.41498307092
 30
0.0
 10
87.44556729188757
 20
174.4324699099576
 30
0.0
 10
87.47864847926223
 20
174.4541671050566
 30
0.0
 10
87.51211582498938
 20
174.4761175725977
 30
0.0
 10
87.54145673208129
 20
174.5029110901069
 30
0.0
 10
87.56494801646846
 20
174.5322897599011
 30
0.0
 10
87.58996264948061
 20
174.563573559934
 30
0.0
 10
87.60898205643039
 20
174.5985009848112
 30
0.0
 10
87.62154289136224
 20
174.6344548469066
 30
0.0
 10
87.63555305095986
 20
174.674557224562
 30
0.0
 10
87.64198308642216
 20
174.7168625896074
 30
0.0
 10
87.64104402705426
 20
174.7585677199852
 30
0.0
 10
87.63997945333813
 20
174.8058471435728
 30
0.0
 10
87.62934498777389
 20
174.8537495654348
 30
0.0
 10
87.60885561056752
 20
174.8979582133645
 30
0.0
 10
87.58867798229566
 20
174.9414942201127
 30
0.0
 10
87.55796413949146
 20
174.9828287291744
 30
0.0
 10
87.5188535857003
 20
175.0166248225411
 30
0.0
 10
87.485324549785
 20
175.0455978315745
 30
0.0
 10
87.44455169987481
 20
175.0699462927021
 30
0.0
 10
87.40036985165197
 20
175.086797008861
 30
0.0
 10
87.39260630211585
 20
175.0897579843495
 30
0.0
 10
87.38471581964255
 20
175.092505270588
 30
0.0
 10
87.37672489769284
 20
175.0950279138553
 30
0.0
  0
SPLINE
  5
21E
330
CE
100
AcDbEntity
  8
DECKEL
  6
Continuous
 62
     7
100
AcDbSpline
210
0.0
220
0.0
230
1.0
 70
     8
 71
     3
 72
    10
 73
     6
 74
     0
 42
0.0000000625233428
 43
0.0000000001
 40
0.0
 40
0.0
 40
0.0
 40
0.0
 40
0.5
 40
0.5
 40
1.0
 40
1.0
 40
1.0
 40
1.0
 10
87.37672489769284
 20
175.0950279138553
 30
0.0
 10
87.36156833886116
 20
175.1165770690164
 30
0.0
 10
87.34156043148899
 20
175.1349445730678
 30
0.0
 10
87.29541401047757
 20
175.1602500141933
 30
0.0
 10
87.26909615039824
 20
175.1672461751547
 30
0.0
 10
87.24252304672783
 20
175.1672461751547
 30
0.0
  0
LINE
  5
21F
330
CE
100
AcDbEntity
  8
DECKEL
  6
Continuous
 62
     7
100
AcDbLine
 10
85.6425230467
 20
181.6929943564
 30
0.0
 11
85.3925230467
 21
181.6929943564
 31
0.0
  0
ARC
  5
220
330
CE
100
AcDbEntity
  8
DECKEL
  6
Continuous
 62
     7
100
AcDbCircle
 10
85.3925230467
 20
181.1929943564
 30
0.0
 40
0.5000000000000004
100
AcDbArc
 50
90.0
 51
180.0
  0
LINE
  5
221
330
CE
100
AcDbEntity
  8
DECKEL
  6
Continuous
 62
     7
100
AcDbLine
 10
124.3925230467
 20
181.6929943564
 30
0.0
 11
124.1425230467
 21
181.6929943564
 31
0.0
  0
ARC
  5
222
330
CE
100
AcDbEntity
  8
DECKEL
  6
Continuous
 62
     7
100
AcDbCircle
 10
124.3925230467
 20
181.1929943564
 30
0.0
 40
0.5000000000000004
100
AcDbArc
 50
0.0
 51
90.0
  0
ARC
  5
223
330
CE
100
AcDbEntity
  8
DECKEL
  6
Continuous
 62
     7
100
AcDbCircle
 10
122.5425230467
 20
175.0810400722
 30
0.0
 40
0.5000000000000004
100
AcDbArc
 50
90.0
 51
180.0
  0
ARC
  5
224
330
CE
100
AcDbEntity
  8
DECKEL
  6
Continuous
 62
     7
100
AcDbCircle
 10
122.5425230467
 20
174.8810400722
 30
0.0
 40
0.5000000000000004
100
AcDbArc
 50
180.0
 51
270.0
  0
ARC
  5
225
330
CE
100
AcDbEntity
  8
DECKEL
  6
Continuous
 62
     7
100
AcDbCircle
 10
87.2425230467
 20
174.8810400722
 30
0.0
 40
0.5000000000000004
100
AcDbArc
 50
270.0
 51
360.0
  0
ARC
  5
226
330
CE
100
AcDbEntity
  8
DECKEL
  6
Continuous
 62
     7
100
AcDbCircle
 10
87.2425230467
 20
175.0810400722
 30
0.0
 40
0.5000000000000004
100
AcDbArc
 50
0.0
 51
90.0
  0
LINE
  5
227
330
CE
100
AcDbEntity
  8
LICHTLEITER
  6
Continuous
 62
     7
100
AcDbLine
 10
95.3425230467
 20
217.0929943564
 30
0.0
 11
98.3425230467
 21
217.0929943564
 31
0.0
  0
LINE
  5
228
330
CE
100
AcDbEntity
  8
LICHTLEITER
  6
Continuous
 62
     7
100
AcDbLine
 10
95.3425230467
 20
202.6929943564
 30
0.0
 11
95.3425230467
 21
217.0929943564
 31
0.0
  0
LINE
  5
229
330
CE
100
AcDbEntity
  8
LICHTLEITER
  6
Continuous
 62
     7
100
AcDbLine
 10
98.3425230467
 20
217.0929943564
 30
0.0
 11
98.3425230467
 21
202.6929943564
 31
0.0
  0
LINE
  5
22A
330
CE
100
AcDbEntity
  8
LICHTLEITER
  6
Continuous
 62
     7
100
AcDbLine
 10
95.3425230467
 20
217.0929943564
 30
0.0
 11
95.6425230467
 21
216.7929943564
 31
0.0
  0
LINE
  5
22B
330
CE
100
AcDbEntity
  8
LICHTLEITER
  6
Continuous
 62
     7
100
AcDbLine
 10
98.0425230467
 20
216.7929943564
 30
0.0
 11
98.3425230467
 21
217.0929943564
 31
0.0
  0
LINE
  5
22C
330
CE
100
AcDbEntity
  8
LICHTLEITER
  6
Continuous
 62
     7
100
AcDbLine
 10
98.3425230467
 20
202.6929943564
 30
0.0
 11
95.3425230467
 21
202.6929943564
 31
0.0
  0
LINE
  5
22D
330
CE
100
AcDbEntity
  8
LICHTLEITER
  6
Continuous
 62
     7
100
AcDbLine
 10
95.6425230467
 20
202.9929943564
 30
0.0
 11
95.6425230467
 21
216.7929943564
 31
0.0
  0
LINE
  5
22E
330
CE
100
AcDbEntity
  8
LICHTLEITER
  6
Continuous
 62
     7
100
AcDbLine
 10
95.3425230467
 20
202.6929943564
 30
0.0
 11
95.6425230467
 21
202.9929943564
 31
0.0
  0
LINE
  5
22F
330
CE
100
AcDbEntity
  8
LICHTLEITER
  6
Continuous
 62
     7
100
AcDbLine
 10
98.0425230467
 20
202.9929943564
 30
0.0
 11
98.3425230467
 21
202.6929943564
 31
0.0
  0
LINE
  5
230
330
CE
100
AcDbEntity
  8
LICHTLEITER
  6
Continuous
 62
     7
100
AcDbLine
 10
98.0425230467
 20
216.7929943564
 30
0.0
 11
98.0425230467
 21
202.9929943564
 31
0.0
  0
LINE
  5
231
330
CE
100
AcDbEntity
  8
LICHTLEITER
  6
Continuous
 62
     7
100
AcDbLine
 10
98.0425230467
 20
202.9929943564
 30
0.0
 11
95.6425230467
 21
202.9929943564
 31
0.0
  0
ARC
  5
232
330
CE
100
AcDbEntity
  8
LICHTLEITER
  6
Continuous
 62
     7
100
AcDbCircle
 10
96.8425230467
 20
204.6929943564
 30
0.0
 40
0.5500000000000851
100
AcDbArc
 50
90.0
 51
270.0
  0
ARC
  5
233
330
CE
100
AcDbEntity
  8
LICHTLEITER
  6
Continuous
 62
     7
100
AcDbCircle
 10
96.8425230467
 20
204.6929943564
 30
0.0
 40
0.5500000000000851
100
AcDbArc
 50
270.0
 51
90.0
  0
ARC
  5
234
330
CE
100
AcDbEntity
  8
LICHTLEITER
  6
Continuous
 62
     7
100
AcDbCircle
 10
96.8425230467
 20
209.8929943564
 30
0.0
 40
0.5500000000000851
100
AcDbArc
 50
90.0
 51
270.0
  0
ARC
  5
235
330
CE
100
AcDbEntity
  8
LICHTLEITER
  6
Continuous
 62
     7
100
AcDbCircle
 10
96.8425230467
 20
209.8929943564
 30
0.0
 40
0.5500000000000851
100
AcDbArc
 50
270.0
 51
90.0
  0
ARC
  5
236
330
CE
100
AcDbEntity
  8
LICHTLEITER
  6
Continuous
 62
     7
100
AcDbCircle
 10
96.8425230467
 20
215.0929943564
 30
0.0
 40
0.5500000000000851
100
AcDbArc
 50
90.0
 51
270.0
  0
ARC
  5
237
330
CE
100
AcDbEntity
  8
LICHTLEITER
  6
Continuous
 62
     7
100
AcDbCircle
 10
96.8425230467
 20
215.0929943564
 30
0.0
 40
0.5500000000000851
100
AcDbArc
 50
270.0
 51
90.0
  0
LINE
  5
238
330
CE
100
AcDbEntity
  8
LICHTLEITER
  6
Continuous
 62
     7
100
AcDbLine
 10
98.0425230467
 20
216.7929943564
 30
0.0
 11
95.6425230467
 21
216.7929943564
 31
0.0
  0
ENDBLK
  5
23A
330
CE
100
AcDbEntity
  8
0
100
AcDbBlockEnd
  0
BLOCK
  5
3C8
330
240
100
AcDbEntity
  8
0
100
AcDbBlockBegin
  2
SE1
 70
     0
 71
     0
 10
0.0
 20
0.0
 30
0.0
  3
SE1
  1

  0
LINE
  5
241
330
240
100
AcDbEntity
  8
GEHÄUSEHÄLFTE_VO
  6
Continuous
 62
     7
100
AcDbLine
 10
297.1658855195
 20
113.9929943564
 30
0.0
 11
315.5658855195
 21
113.9929943564
 31
0.0
  0
LINE
  5
242
330
240
100
AcDbEntity
  8
GEHÄUSEHÄLFTE_VO
  6
Continuous
 62
     7
100
AcDbLine
 10
299.3658855195
 20
113.4629943564
 30
0.0
 11
306.1658855195
 21
113.4629943564
 31
0.0
  0
LINE
  5
243
330
240
100
AcDbEntity
  8
GEHÄUSEHÄLFTE_VO
  6
Continuous
 62
     7
100
AcDbLine
 10
299.6658855195
 20
112.5129943564
 30
0.0
 11
306.1658855195
 21
112.5129943564
 31
0.0
  0
ARC
  5
244
330
240
100
AcDbEntity
  8
GEHÄUSEHÄLFTE_VO
  6
Continuous
 62
     7
100
AcDbCircle
 10
314.7658855195
 20
177.8929943564
 30
0.0
 40
4.500000000000002
100
AcDbArc
 50
90.0
 51
180.0
  0
LINE
  5
245
330
240
100
AcDbEntity
  8
GEHÄUSEHÄLFTE_VO
  6
Continuous
 62
     7
100
AcDbLine
 10
310.2658855195
 20
177.8929943564
 30
0.0
 11
310.2658855195
 21
152.9929943564
 31
0.0
  0
ARC
  5
246
330
240
100
AcDbEntity
  8
GEHÄUSEHÄLFTE_VO
  6
Continuous
 62
     7
100
AcDbCircle
 10
314.7658855195
 20
152.9929943564
 30
0.0
 40
4.499999999999997
100
AcDbArc
 50
180.0
 51
270.0
  0
LINE
  5
247
330
240
100
AcDbEntity
  8
GEHÄUSEHÄLFTE_VO
  6
Continuous
 62
     7
100
AcDbLine
 10
314.7658855195
 20
148.4929943564
 30
0.0
 11
315.8658855195
 21
148.4929943564
 31
0.0
  0
LINE
  5
248
330
240
100
AcDbEntity
  8
GEHÄUSEHÄLFTE_VO
  6
Continuous
 62
     7
100
AcDbLine
 10
317.6658855195
 20
182.3929943564
 30
0.0
 11
317.6658855195
 21
180.345387271
 31
0.0
  0
ARC
  5
249
330
240
100
AcDbEntity
  8
GEHÄUSEHÄLFTE_VO
  6
Continuous
 62
     7
100
AcDbCircle
 10
315.9658855195
 20
180.9929943564
 30
0.0
 40
0.6000000000000001
100
AcDbArc
 50
28.0596507801
 51
109.5304929764
  0
LINE
  5
24A
330
240
100
AcDbEntity
  8
GEHÄUSEHÄLFTE_VO
  6
Continuous
 62
     7
100
AcDbLine
 10
317.6658855195
 20
174.4929943564
 30
0.0
 11
317.6658855195
 21
171.2823551079
 31
0.0
  0
LINE
  5
24B
330
240
100
AcDbEntity
  8
GEHÄUSEHÄLFTE_VO
  6
Continuous
 62
     7
100
AcDbLine
 10
317.1658855195
 20
180.8369625163
 30
0.0
 11
317.1658855195
 21
182.3929943564
 31
0.0
  0
ARC
  5
24C
330
240
100
AcDbEntity
  8
GEHÄUSEHÄLFTE_VO
  6
Continuous
 62
     7
100
AcDbCircle
 10
317.0645353437
 20
174.9929943564
 30
0.0
 40
0.9999999999999996
100
AcDbArc
 50
260.726333634
 51
270.0
  0
LINE
  5
24D
330
240
100
AcDbEntity
  8
GEHÄUSEHÄLFTE_VO
  6
Continuous
 62
     7
100
AcDbLine
 10
317.0645353437
 20
173.9929943564
 30
0.0
 11
317.1658855195
 21
173.9929943564
 31
0.0
  0
LINE
  5
24E
330
240
100
AcDbEntity
  8
GEHÄUSEHÄLFTE_VO
  6
Continuous
 62
     7
100
AcDbLine
 10
317.6658855195
 20
174.4929943564
 30
0.0
 11
317.6658855195
 21
175.0950279139
 31
0.0
  0
LINE
  5
24F
330
240
100
AcDbEntity
  8
GEHÄUSEHÄLFTE_VO
  6
Continuous
 62
     7
100
AcDbLine
 10
317.2443370843
 20
174.4929943564
 30
0.0
 11
317.6658855195
 21
174.4929943564
 31
0.0
  0
ARC
  5
250
330
240
100
AcDbEntity
  8
GEHÄUSEHÄLFTE_VO
  6
Continuous
 62
     7
100
AcDbCircle
 10
317.1658855195
 20
174.4929943564
 30
0.0
 40
0.5000000000000004
100
AcDbArc
 50
270.0
 51
360.0
  0
LINE
  5
251
330
240
100
AcDbEntity
  8
GEHÄUSEHÄLFTE_VO
  6
Continuous
 62
     7
100
AcDbLine
 10
317.0645353437
 20
174.236210859
 30
0.0
 11
317.0645353437
 21
173.9929943564
 31
0.0
  0
LINE
  5
252
330
240
100
AcDbEntity
  8
GEHÄUSEHÄLFTE_VO
  6
Continuous
 62
     7
100
AcDbLine
 10
276.7658855195
 20
222.9929943564
 30
0.0
 11
316.6658855195
 21
222.9929943564
 31
0.0
  0
LINE
  5
253
330
240
100
AcDbEntity
  8
GEHÄUSEHÄLFTE_VO
  6
Continuous
 62
     7
100
AcDbLine
 10
276.7658855195
 20
221.9929943564
 30
0.0
 11
276.7658855195
 21
98.9929943564
 31
0.0
  0
LINE
  5
254
330
240
100
AcDbEntity
  8
GEHÄUSEHÄLFTE_VO
  6
Continuous
 62
     7
100
AcDbLine
 10
276.7658855195
 20
221.9929943564
 30
0.0
 11
276.7658855195
 21
222.9929943564
 31
0.0
  0
LINE
  5
255
330
240
100
AcDbEntity
  8
GEHÄUSEHÄLFTE_VO
  6
Continuous
 62
     7
100
AcDbLine
 10
317.6658855195
 20
221.9929943564
 30
0.0
 11
317.6658855195
 21
182.3929943564
 31
0.0
  0
LINE
  5
256
330
240
100
AcDbEntity
  8
GEHÄUSEHÄLFTE_VO
  6
Continuous
 62
     7
100
AcDbLine
 10
316.6658855195
 20
182.3929943564
 30
0.0
 11
314.7658855195
 21
182.3929943564
 31
0.0
  0
LINE
  5
257
330
240
100
AcDbEntity
  8
GEHÄUSEHÄLFTE_VO
  6
Continuous
 62
     7
100
AcDbLine
 10
316.6658855195
 20
182.3929943564
 30
0.0
 11
316.6658855195
 21
221.9929943564
 31
0.0
  0
LINE
  5
258
330
240
100
AcDbEntity
  8
GEHÄUSEHÄLFTE_VO
  6
Continuous
 62
     7
100
AcDbLine
 10
316.6658855195
 20
221.9929943564
 30
0.0
 11
276.7658855195
 21
221.9929943564
 31
0.0
  0
LINE
  5
259
330
240
100
AcDbEntity
  8
GEHÄUSEHÄLFTE_VO
  6
Continuous
 62
     7
100
AcDbLine
 10
317.6658855195
 20
182.3929943564
 30
0.0
 11
316.6658855195
 21
182.3929943564
 31
0.0
  0
LINE
  5
25A
330
240
100
AcDbEntity
  8
GEHÄUSEHÄLFTE_VO
  6
Continuous
 62
     7
100
AcDbLine
 10
316.6658855195
 20
221.9929943564
 30
0.0
 11
317.6658855195
 21
221.9929943564
 31
0.0
  0
LINE
  5
25B
330
240
100
AcDbEntity
  8
GEHÄUSEHÄLFTE_VO
  6
Continuous
 62
     7
100
AcDbLine
 10
316.6658855195
 20
222.9929943564
 30
0.0
 11
316.6658855195
 21
221.9929943564
 31
0.0
  0
ARC
  5
25C
330
240
100
AcDbEntity
  8
GEHÄUSEHÄLFTE_VO
  6
Continuous
 62
     7
100
AcDbCircle
 10
316.6658855195
 20
221.9929943564
 30
0.0
 40
1.000000000000001
100
AcDbArc
 50
0.0
 51
90.0
  0
LINE
  5
25D
330
240
100
AcDbEntity
  8
GEHÄUSEHÄLFTE_VO
  6
Continuous
 62
     7
100
AcDbLine
 10
317.1658855195
 20
171.632458877
 30
0.0
 11
317.1658855195
 21
173.9929943564
 31
0.0
  0
LINE
  5
25E
330
240
100
AcDbEntity
  8
GEHÄUSEHÄLFTE_VO
  6
Continuous
 62
     7
100
AcDbLine
 10
276.7658855195
 20
97.9929943564
 30
0.0
 11
276.7658855195
 21
98.9929943564
 31
0.0
  0
LINE
  5
25F
330
240
100
AcDbEntity
  8
GEHÄUSEHÄLFTE_VO
  6
Continuous
 62
     7
100
AcDbLine
 10
276.7658855195
 20
98.9929943564
 30
0.0
 11
297.1658855195
 21
98.9929943564
 31
0.0
  0
LINE
  5
260
330
240
100
AcDbEntity
  8
GEHÄUSEHÄLFTE_VO
  6
Continuous
 62
     7
100
AcDbLine
 10
297.1658855195
 20
97.9929943564
 30
0.0
 11
276.7658855195
 21
97.9929943564
 31
0.0
  0
LINE
  5
261
330
240
100
AcDbEntity
  8
GEHÄUSEHÄLFTE_VO
  6
Continuous
 62
     7
100
AcDbLine
 10
298.1658855195
 20
98.9929943564
 30
0.0
 11
309.8958855195
 21
98.9929943564
 31
0.0
  0
LINE
  5
262
330
240
100
AcDbEntity
  8
GEHÄUSEHÄLFTE_VO
  6
Continuous
 62
     7
100
AcDbLine
 10
298.1658855195
 20
113.9929943564
 30
0.0
 11
298.1658855195
 21
98.9929943564
 31
0.0
  0
LINE
  5
263
330
240
100
AcDbEntity
  8
GEHÄUSEHÄLFTE_VO
  6
Continuous
 62
     7
100
AcDbLine
 10
297.1658855195
 20
97.9929943564
 30
0.0
 11
297.1658855195
 21
98.9929943564
 31
0.0
  0
LINE
  5
264
330
240
100
AcDbEntity
  8
GEHÄUSEHÄLFTE_VO
  6
Continuous
 62
     7
100
AcDbLine
 10
297.1658855195
 20
98.9929943564
 30
0.0
 11
297.1658855195
 21
113.9929943564
 31
0.0
  0
LINE
  5
265
330
240
100
AcDbEntity
  8
GEHÄUSEHÄLFTE_VO
  6
Continuous
 62
     7
100
AcDbLine
 10
298.1658855195
 20
98.9929943564
 30
0.0
 11
297.1658855195
 21
98.9929943564
 31
0.0
  0
ARC
  5
266
330
240
100
AcDbEntity
  8
GEHÄUSEHÄLFTE_VO
  6
Continuous
 62
     7
100
AcDbCircle
 10
297.1658855195
 20
98.9929943564
 30
0.0
 40
1.000000000000001
100
AcDbArc
 50
270.0
 51
360.0
  0
LINE
  5
267
330
240
100
AcDbEntity
  8
GEHÄUSEHÄLFTE_VO
  6
Continuous
 62
     7
100
AcDbLine
 10
321.7373777268
 20
166.7909082843
 30
0.0
 11
317.6658855195
 21
166.0729943564
 31
0.0
  0
LINE
  5
268
330
240
100
AcDbEntity
  8
GEHÄUSEHÄLFTE_VO
  6
Continuous
 62
     7
100
AcDbLine
 10
321.6318360941
 20
176.4982976834
 30
0.0
 11
317.6658855195
 21
177.1976017739
 31
0.0
  0
ARC
  5
269
330
240
100
AcDbEntity
  8
GEHÄUSEHÄLFTE_VO
  6
Continuous
 62
     7
100
AcDbCircle
 10
321.609261831
 20
176.3702726755
 30
0.0
 40
0.130000000000006
100
AcDbArc
 50
32.4905019375
 51
80.0
  0
ARC
  5
26A
330
240
100
AcDbEntity
  8
GEHÄUSEHÄLFTE_VO
  6
Continuous
 62
     7
100
AcDbCircle
 10
314.8614178014
 20
172.0729943564
 30
0.0
 40
8.129999999999999
100
AcDbArc
 50
327.5094980625
 51
32.4905019375
  0
ARC
  5
26B
330
240
100
AcDbEntity
  8
GEHÄUSEHÄLFTE_VO
  6
Continuous
 62
     7
100
AcDbCircle
 10
321.609261831
 20
167.7757160373
 30
0.0
 40
0.1300000000000078
100
AcDbArc
 50
280.0
 51
327.5094980625
  0
LINE
  5
26C
330
240
100
AcDbEntity
  8
GEHÄUSEHÄLFTE_VO
  6
Continuous
 62
     7
100
AcDbLine
 10
317.6658855195
 20
166.948386939
 30
0.0
 11
321.6318360941
 21
167.6476910294
 31
0.0
  0
ARC
  5
26D
330
240
100
AcDbEntity
  8
GEHÄUSEHÄLFTE_VO
  6
Continuous
 62
     7
100
AcDbCircle
 10
321.5637295491
 20
167.7757160373
 30
0.0
 40
0.9999999999999822
100
AcDbArc
 50
280.0
 51
327.5094980625
  0
ARC
  5
26E
330
240
100
AcDbEntity
  8
GEHÄUSEHÄLFTE_VO
  6
Continuous
 62
     7
100
AcDbCircle
 10
314.8158855195
 20
172.0729943564
 30
0.0
 40
8.999999999999984
100
AcDbArc
 50
327.5094980625
 51
32.4905019375
  0
ARC
  5
26F
330
240
100
AcDbEntity
  8
GEHÄUSEHÄLFTE_VO
  6
Continuous
 62
     7
100
AcDbCircle
 10
321.5637295491
 20
176.3702726755
 30
0.0
 40
0.9999999999999911
100
AcDbArc
 50
32.4905019375
 51
80.0
  0
LINE
  5
270
330
240
100
AcDbEntity
  8
GEHÄUSEHÄLFTE_VO
  6
Continuous
 62
     7
100
AcDbLine
 10
317.6658855195
 20
178.0729943564
 30
0.0
 11
321.7373777268
 21
177.3550804285
 31
0.0
  0
SPLINE
  5
271
330
240
100
AcDbEntity
  8
GEHÄUSEHÄLFTE_VO
  6
Continuous
 62
     7
100
AcDbSpline
210
0.0
220
0.0
230
1.0
 70
    12
 71
     2
 72
     6
 73
     3
 74
     0
 42
0.0000000110310721
 43
0.0000000001
 40
0.0
 40
0.0
 40
0.0
 40
1.0
 40
1.0
 40
1.0
 10
321.6318360941262
 20
176.4982976834234
 30
0.0
 41
1.0
 10
321.7811393350038
 20
177.3473640762921
 30
0.0
 41
0.7103126225224866
 10
321.7373777267651
 20
177.355080428544
 30
0.0
 41
1.0
  0
SPLINE
  5
272
330
240
100
AcDbEntity
  8
GEHÄUSEHÄLFTE_VO
  6
Continuous
 62
     7
100
AcDbSpline
210
0.0
220
0.0
230
1.0
 70
    12
 71
     2
 72
     6
 73
     3
 74
     0
 42
0.0000000116956449
 43
0.0000000001
 40
0.0
 40
0.0
 40
0.0
 40
1.0
 40
1.0
 40
1.0
 10
321.718914296511
 20
176.4401034482171
 30
0.0
 41
1.0
 10
322.4197925215506
 20
176.8876747186957
 30
0.0
 41
0.72254562441772
 10
322.407210052802
 20
176.9074324654189
 30
0.0
 41
1.0
  0
SPLINE
  5
273
330
240
100
AcDbEntity
  8
GEHÄUSEHÄLFTE_VO
  6
Continuous
 62
     7
100
AcDbSpline
210
0.0
220
0.0
230
1.0
 70
    12
 71
     2
 72
     6
 73
     3
 74
     0
 42
0.0000000116956449
 43
0.0000000001
 40
0.0
 40
0.0
 40
0.0
 40
1.0
 40
1.0
 40
1.0
 10
322.407210052802
 20
167.2385562474507
 30
0.0
 41
1.0
 10
322.4197925215511
 20
167.2583139941736
 30
0.0
 41
0.7225456244143641
 10
321.718914296511
 20
167.7058852646525
 30
0.0
 41
1.0
  0
SPLINE
  5
274
330
240
100
AcDbEntity
  8
GEHÄUSEHÄLFTE_VO
  6
Continuous
 62
     7
100
AcDbSpline
210
0.0
220
0.0
230
1.0
 70
    12
 71
     2
 72
     6
 73
     3
 74
     0
 42
0.0000000110310721
 43
0.0000000001
 40
0.0
 40
0.0
 40
0.0
 40
1.0
 40
1.0
 40
1.0
 10
321.7373777267651
 20
166.7909082843256
 30
0.0
 41
1.0
 10
321.7811393350038
 20
166.7986246365776
 30
0.0
 41
0.7103126225204224
 10
321.6318360941262
 20
167.6476910294462
 30
0.0
 41
1.0
  0
LINE
  5
275
330
240
100
AcDbEntity
  8
GEHÄUSEHÄLFTE_VO
  6
Continuous
 62
     7
100
AcDbLine
 10
315.7780175538
 20
99.9897814395
 30
0.0
 11
315.7780175538
 21
100.9185161121
 31
0.0
  0
LINE
  5
276
330
240
100
AcDbEntity
  8
GEHÄUSEHÄLFTE_VO
  6
Continuous
 62
     7
100
AcDbLine
 10
310.5658855195
 20
97.9929943564
 30
0.0
 11
310.2658855195
 21
97.9929943564
 31
0.0
  0
LINE
  5
277
330
240
100
AcDbEntity
  8
GEHÄUSEHÄLFTE_VO
  6
Continuous
 62
     7
100
AcDbLine
 10
310.0958855195
 20
98.2929943564
 30
0.0
 11
310.5658855195
 21
98.2929943564
 31
0.0
  0
LINE
  5
278
330
240
100
AcDbEntity
  8
GEHÄUSEHÄLFTE_VO
  6
Continuous
 62
     7
100
AcDbLine
 10
314.7416214508
 20
99.9897814395
 30
0.0
 11
314.7416214508
 21
100.2929943564
 31
0.0
  0
LINE
  5
279
330
240
100
AcDbEntity
  8
GEHÄUSEHÄLFTE_VO
  6
Continuous
 62
     7
100
AcDbLine
 10
313.8780175538
 20
99.9897814395
 30
0.0
 11
313.8780175538
 21
100.2929943564
 31
0.0
  0
LINE
  5
27A
330
240
100
AcDbEntity
  8
GEHÄUSEHÄLFTE_VO
  6
Continuous
 62
     7
100
AcDbLine
 10
311.3874583947
 20
100.2929943564
 30
0.0
 11
310.0958855195
 21
100.2929943564
 31
0.0
  0
LINE
  5
27B
330
240
100
AcDbEntity
  8
GEHÄUSEHÄLFTE_VO
  6
Continuous
 62
     7
100
AcDbLine
 10
313.8780175538
 20
100.2929943564
 30
0.0
 11
313.3158855195
 21
100.2929943564
 31
0.0
  0
LINE
  5
27C
330
240
100
AcDbEntity
  8
GEHÄUSEHÄLFTE_VO
  6
Continuous
 62
     7
100
AcDbLine
 10
314.9537534851
 20
100.3151036965
 30
0.0
 11
314.9537534851
 21
99.9897814395
 31
0.0
  0
ARC
  5
27D
330
240
100
AcDbEntity
  8
GEHÄUSEHÄLFTE_VO
  6
Continuous
 62
     7
100
AcDbCircle
 10
314.7244641632
 20
101.4929943564
 30
0.0
 40
1.2
100
AcDbArc
 50
281.0154936259
 51
331.3973888278
  0
LINE
  5
27E
330
240
100
AcDbEntity
  8
GEHÄUSEHÄLFTE_VO
  6
Continuous
 62
     7
100
AcDbLine
 10
314.0901495882
 20
100.2929943564
 30
0.0
 11
314.0901495882
 21
99.9897814395
 31
0.0
  0
LINE
  5
27F
330
240
100
AcDbEntity
  8
GEHÄUSEHÄLFTE_VO
  6
Continuous
 62
     7
100
AcDbLine
 10
314.0901495882
 20
100.2929943564
 30
0.0
 11
313.8780175538
 21
100.2929943564
 31
0.0
  0
LINE
  5
280
330
240
100
AcDbEntity
  8
GEHÄUSEHÄLFTE_VO
  6
Continuous
 62
     7
100
AcDbLine
 10
314.816179892
 20
100.2929943564
 30
0.0
 11
314.7416214508
 21
100.2929943564
 31
0.0
  0
ARC
  5
281
330
240
100
AcDbEntity
  8
GEHÄUSEHÄLFTE_VO
  6
Continuous
 62
     7
100
AcDbCircle
 10
314.8147792824
 20
100.7407845258
 30
0.0
 40
0.4477923597503267
100
AcDbArc
 50
270.1792106218
 51
288.0805725518
  0
LINE
  5
282
330
240
100
AcDbEntity
  8
GEHÄUSEHÄLFTE_VO
  6
Continuous
 62
     7
100
AcDbLine
 10
314.7416214508
 20
100.2929943564
 30
0.0
 11
314.0901495882
 21
100.2929943564
 31
0.0
  0
SPLINE
  5
283
330
240
100
AcDbEntity
  8
GEHÄUSEHÄLFTE_VO
  6
Continuous
 62
     7
100
AcDbSpline
210
0.0
220
0.0
230
1.0
 70
    12
 71
     2
 72
     6
 73
     3
 74
     0
 42
0.0000000820212831
 43
0.0000000001
 40
0.0
 40
0.0
 40
0.0
 40
1.0
 40
1.0
 40
1.0
 10
315.7438466782955
 20
101.0142624861881
 30
0.0
 41
1.0
 10
315.7238495810873
 20
100.9775891921602
 30
0.0
 41
0.9002256075624862
 10
315.7780175538238
 20
100.9185161121387
 30
0.0
 41
1.0
  0
SPLINE
  5
284
330
240
100
AcDbEntity
  8
GEHÄUSEHÄLFTE_VO
  6
Continuous
 62
     7
100
AcDbSpline
210
0.0
220
0.0
230
1.0
 70
    12
 71
     2
 72
     6
 73
     3
 74
     0
 42
0.0000000337771525
 43
0.0000000001
 40
0.0
 40
0.0
 40
0.0
 40
1.0
 40
1.0
 40
1.0
 10
315.0569599543689
 20
100.5114188064504
 30
0.0
 41
1.0
 10
314.9369203649665
 20
100.488051785225
 30
0.0
 41
0.7533624720633758
 10
314.9537534851118
 20
100.3151036964535
 30
0.0
 41
1.0
  0
SPLINE
  5
285
330
240
100
AcDbEntity
  8
GEHÄUSEHÄLFTE_VO
  6
Continuous
 62
     7
100
AcDbSpline
210
0.0
220
0.0
230
1.0
 70
    12
 71
     2
 72
     6
 73
     3
 74
     0
 42
0.0000000400471551
 43
0.0000000001
 40
0.0
 40
0.0
 40
0.0
 40
1.0
 40
1.0
 40
1.0
 10
314.8658855194678
 20
100.4929943564348
 30
0.0
 41
1.0
 10
314.816179891983
 20
100.4929943564348
 30
0.0
 41
0.7071067811865505
 10
314.816179891983
 20
100.2929943564348
 30
0.0
 41
1.0
  0
LINE
  5
286
330
240
100
AcDbEntity
  8
GEHÄUSEHÄLFTE_VO
  6
Continuous
 62
     7
100
AcDbLine
 10
314.7416214508
 20
100.2929943564
 30
0.0
 11
314.7416214508
 21
100.4929943564
 31
0.0
  0
LINE
  5
287
330
240
100
AcDbEntity
  8
GEHÄUSEHÄLFTE_VO
  6
Continuous
 62
     7
100
AcDbLine
 10
314.0901495882
 20
100.2929943564
 30
0.0
 11
314.0901495882
 21
100.4929943564
 31
0.0
  0
SPLINE
  5
288
330
240
100
AcDbEntity
  8
GEHÄUSEHÄLFTE_VO
  6
Continuous
 62
     7
100
AcDbSpline
210
0.0
220
0.0
230
1.0
 70
    12
 71
     2
 72
     6
 73
     3
 74
     0
 42
0.0000000292893219
 43
0.0000000001
 40
0.0
 40
0.0
 40
0.0
 40
1.0
 40
1.0
 40
1.0
 10
313.8780175538238
 20
100.2929943564348
 30
0.0
 41
1.0
 10
313.8780175538238
 20
100.4929943564348
 30
0.0
 41
0.7071067811865618
 10
313.7365961975864
 20
100.4929943564348
 30
0.0
 41
1.0
  0
SPLINE
  5
289
330
240
100
AcDbEntity
  8
GEHÄUSEHÄLFTE_VO
  6
Continuous
 62
     7
100
AcDbSpline
210
0.0
220
0.0
230
1.0
 70
    12
 71
     2
 72
     6
 73
     3
 74
     0
 42
0.0000000987983818
 43
0.0000000001
 40
0.0
 40
0.0
 40
0.0
 40
1.0
 40
1.0
 40
1.0
 10
313.2016719570947
 20
100.4535624257014
 30
0.0
 41
1.0
 10
313.1641250146977
 20
100.4929943564348
 30
0.0
 41
0.9494314999874182
 10
313.117357382044
 20
100.4929943564348
 30
0.0
 41
1.0
  0
SPLINE
  5
28A
330
240
100
AcDbEntity
  8
GEHÄUSEHÄLFTE_VO
  6
Continuous
 62
     7
100
AcDbSpline
210
0.0
220
0.0
230
1.0
 70
    12
 71
     2
 72
     6
 73
     3
 74
     0
 42
0.0000000987983818
 43
0.0000000001
 40
0.0
 40
0.0
 40
0.0
 40
1.0
 40
1.0
 40
1.0
 10
311.5859865321453
 20
100.4929943564348
 30
0.0
 41
1.0
 10
311.5392188994916
 20
100.4929943564347
 30
0.0
 41
0.9494314999942528
 10
311.5016719570947
 20
100.4535624257014
 30
0.0
 41
1.0
  0
LINE
  5
28B
330
240
100
AcDbEntity
  8
GEHÄUSEHÄLFTE_VO
  6
Continuous
 62
     7
100
AcDbLine
 10
314.8658855195
 20
100.6929943564
 30
0.0
 11
314.8658855195
 21
103.2897814395
 31
0.0
  0
LINE
  5
28C
330
240
100
AcDbEntity
  8
GEHÄUSEHÄLFTE_VO
  6
Continuous
 62
     7
100
AcDbLine
 10
314.8658855195
 20
106.6897814395
 30
0.0
 11
314.8658855195
 21
113.9897814395
 31
0.0
  0
SPLINE
  5
28D
330
240
100
AcDbEntity
  8
GEHÄUSEHÄLFTE_VO
  6
Continuous
 62
     7
100
AcDbSpline
210
0.0
220
0.0
230
1.0
 70
    12
 71
     2
 72
     6
 73
     3
 74
     0
 42
0.0000000055555556
 43
0.0000000001
 40
0.0
 40
0.0
 40
0.0
 40
1.0
 40
1.0
 40
1.0
 10
314.8658855194678
 20
100.6929943564348
 30
0.0
 41
1.0
 10
315.8658855194678
 20
100.6929943564348
 30
0.0
 41
0.7071067811865677
 10
315.8658855194678
 20
101.4929943564348
 30
0.0
 41
1.0
  0
ARC
  5
28E
330
240
100
AcDbEntity
  8
GEHÄUSEHÄLFTE_VO
  6
Continuous
 62
     7
100
AcDbCircle
 10
314.8658855195
 20
101.4929943564
 30
0.0
 40
1.000000000000008
100
AcDbArc
 50
270.0
 51
360.0
  0
LINE
  5
28F
330
240
100
AcDbEntity
  8
GEHÄUSEHÄLFTE_VO
  6
Continuous
 62
     7
100
AcDbLine
 10
309.8958855195
 20
98.9929943564
 30
0.0
 11
309.8958855195
 21
100.2929943564
 31
0.0
  0
ARC
  5
290
330
240
100
AcDbEntity
  8
GEHÄUSEHÄLFTE_VO
  6
Continuous
 62
     7
100
AcDbCircle
 10
310.2958855195
 20
100.2929943564
 30
0.0
 40
0.3999999999999976
100
AcDbArc
 50
90.0
 51
180.0
  0
LINE
  5
291
330
240
100
AcDbEntity
  8
GEHÄUSEHÄLFTE_VO
  6
Continuous
 62
     7
100
AcDbLine
 10
310.2958855195
 20
100.6929943564
 30
0.0
 11
314.8658855195
 21
100.6929943564
 31
0.0
  0
LINE
  5
292
330
240
100
AcDbEntity
  8
GEHÄUSEHÄLFTE_VO
  6
Continuous
 62
     7
100
AcDbLine
 10
314.8658855195
 20
100.4929943564
 30
0.0
 11
310.2958855195
 21
100.4929943564
 31
0.0
  0
ARC
  5
293
330
240
100
AcDbEntity
  8
GEHÄUSEHÄLFTE_VO
  6
Continuous
 62
     7
100
AcDbCircle
 10
310.2958855195
 20
100.2929943564
 30
0.0
 40
0.1999999999999988
100
AcDbArc
 50
90.0
 51
180.0
  0
LINE
  5
294
330
240
100
AcDbEntity
  8
GEHÄUSEHÄLFTE_VO
  6
Continuous
 62
     7
100
AcDbLine
 10
310.0958855195
 20
98.9929943564
 30
0.0
 11
310.0958855195
 21
98.2126075468
 31
0.0
  0
LINE
  5
295
330
240
100
AcDbEntity
  8
GEHÄUSEHÄLFTE_VO
  6
Continuous
 62
     7
100
AcDbLine
 10
310.0958855195
 20
100.2929943564
 30
0.0
 11
310.0958855195
 21
98.9929943564
 31
0.0
  0
LINE
  5
296
330
240
100
AcDbEntity
  8
GEHÄUSEHÄLFTE_VO
  6
Continuous
 62
     7
100
AcDbLine
 10
309.8958855195
 20
97.9929943564
 30
0.0
 11
297.1658855195
 21
97.9929943564
 31
0.0
  0
LINE
  5
297
330
240
100
AcDbEntity
  8
GEHÄUSEHÄLFTE_VO
  6
Continuous
 62
     7
100
AcDbLine
 10
309.8958855195
 20
97.9929943564
 30
0.0
 11
309.8958855195
 21
98.9929943564
 31
0.0
  0
ARC
  5
298
330
240
100
AcDbEntity
  8
GEHÄUSEHÄLFTE_VO
  6
Continuous
 62
     7
100
AcDbCircle
 10
309.8831180907
 20
98.2031451061
 30
0.0
 40
0.2129777371353569
100
AcDbArc
 50
285.5801640653
 51
2.5464466154
  0
ARC
  5
299
330
240
100
AcDbEntity
  8
GEHÄUSEHÄLFTE_VO
  6
Continuous
 62
     7
100
AcDbCircle
 10
309.8958855195
 20
98.1929943564
 30
0.0
 40
0.1999999999999988
100
AcDbArc
 50
270.0
 51
282.836956037
  0
LINE
  5
29A
330
240
100
AcDbEntity
  8
GEHÄUSEHÄLFTE_VO
  6
Continuous
 62
     7
100
AcDbLine
 10
309.8958855195
 20
98.9929943564
 30
0.0
 11
310.0958855195
 21
98.9929943564
 31
0.0
  0
LINE
  5
29B
330
240
100
AcDbEntity
  8
GEHÄUSEHÄLFTE_VO
  6
Continuous
 62
     7
100
AcDbLine
 10
309.8958855195
 20
100.2929943564
 30
0.0
 11
310.0958855195
 21
100.2929943564
 31
0.0
  0
LINE
  5
29C
330
240
100
AcDbEntity
  8
GEHÄUSEHÄLFTE_VO
  6
Continuous
 62
     7
100
AcDbLine
 10
310.2958855195
 20
100.6929943564
 30
0.0
 11
310.2958855195
 21
100.4929943564
 31
0.0
  0
LINE
  5
29D
330
240
100
AcDbEntity
  8
GEHÄUSEHÄLFTE_VO
  6
Continuous
 62
     7
100
AcDbLine
 10
314.8658855195
 20
100.6929943564
 30
0.0
 11
314.8658855195
 21
100.4929943564
 31
0.0
  0
LINE
  5
29E
330
240
100
AcDbEntity
  8
GEHÄUSEHÄLFTE_VO
  6
Continuous
 62
     7
100
AcDbLine
 10
276.7658855195
 20
218.3929943564
 30
0.0
 11
276.543531233
 21
218.3929943564
 31
0.0
  0
LINE
  5
29F
330
240
100
AcDbEntity
  8
GEHÄUSEHÄLFTE_VO
  6
Continuous
 62
     7
100
AcDbLine
 10
276.543531233
 20
218.3929943564
 30
0.0
 11
276.543531233
 21
173.9929943564
 31
0.0
  0
LINE
  5
2A0
330
240
100
AcDbEntity
  8
GEHÄUSEHÄLFTE_VO
  6
Continuous
 62
     7
100
AcDbLine
 10
276.543531233
 20
218.3929943564
 30
0.0
 11
275.9658855195
 21
218.3929943564
 31
0.0
  0
LINE
  5
2A1
330
240
100
AcDbEntity
  8
GEHÄUSEHÄLFTE_VO
  6
Continuous
 62
     7
100
AcDbLine
 10
276.7658855195
 20
102.5929943564
 30
0.0
 11
276.543531233
 21
102.5929943564
 31
0.0
  0
LINE
  5
2A2
330
240
100
AcDbEntity
  8
GEHÄUSEHÄLFTE_VO
  6
Continuous
 62
     7
100
AcDbLine
 10
276.543531233
 20
102.5929943564
 30
0.0
 11
275.9658855195
 21
102.5929943564
 31
0.0
  0
LINE
  5
2A3
330
240
100
AcDbEntity
  8
GEHÄUSEHÄLFTE_VO
  6
Continuous
 62
     7
100
AcDbLine
 10
276.543531233
 20
142.9929943564
 30
0.0
 11
276.543531233
 21
102.5929943564
 31
0.0
  0
LINE
  5
2A4
330
240
100
AcDbEntity
  8
GEHÄUSEHÄLFTE_VO
  6
Continuous
 62
     7
100
AcDbLine
 10
276.7658855195
 20
173.9929943564
 30
0.0
 11
276.543531233
 21
173.9929943564
 31
0.0
  0
LINE
  5
2A5
330
240
100
AcDbEntity
  8
GEHÄUSEHÄLFTE_VO
  6
Continuous
 62
     7
100
AcDbLine
 10
276.543531233
 20
173.9929943564
 30
0.0
 11
275.9658855195
 21
173.9929943564
 31
0.0
  0
LINE
  5
2A6
330
240
100
AcDbEntity
  8
GEHÄUSEHÄLFTE_VO
  6
Continuous
 62
     7
100
AcDbLine
 10
276.7658855195
 20
142.9929943564
 30
0.0
 11
276.543531233
 21
142.9929943564
 31
0.0
  0
LINE
  5
2A7
330
240
100
AcDbEntity
  8
GEHÄUSEHÄLFTE_VO
  6
Continuous
 62
     7
100
AcDbLine
 10
276.543531233
 20
142.9929943564
 30
0.0
 11
275.9658855195
 21
142.9929943564
 31
0.0
  0
LINE
  5
2A8
330
240
100
AcDbEntity
  8
GEHÄUSEHÄLFTE_VO
  6
Continuous
 62
     7
100
AcDbLine
 10
275.9658855195
 20
220.7429943564
 30
0.0
 11
276.7658855195
 21
220.7429943564
 31
0.0
  0
LINE
  5
2A9
330
240
100
AcDbEntity
  8
GEHÄUSEHÄLFTE_VO
  6
Continuous
 62
     7
100
AcDbLine
 10
276.5658855195
 20
221.5429943564
 30
0.0
 11
276.7658855195
 21
221.5429943564
 31
0.0
  0
LINE
  5
2AA
330
240
100
AcDbEntity
  8
GEHÄUSEHÄLFTE_VO
  6
Continuous
 62
     7
100
AcDbLine
 10
275.9658855195
 20
220.1929943564
 30
0.0
 11
276.5658855195
 21
220.1929943564
 31
0.0
  0
LINE
  5
2AB
330
240
100
AcDbEntity
  8
GEHÄUSEHÄLFTE_VO
  6
Continuous
 62
     7
100
AcDbLine
 10
276.5658855195
 20
219.6929943564
 30
0.0
 11
275.9658855195
 21
219.6929943564
 31
0.0
  0
LINE
  5
2AC
330
240
100
AcDbEntity
  8
GEHÄUSEHÄLFTE_VO
  6
Continuous
 62
     7
100
AcDbLine
 10
276.5658855195
 20
218.3929943564
 30
0.0
 11
276.5658855195
 21
219.6929943564
 31
0.0
  0
LINE
  5
2AD
330
240
100
AcDbEntity
  8
GEHÄUSEHÄLFTE_VO
  6
Continuous
 62
     7
100
AcDbLine
 10
276.5658855195
 20
219.6929943564
 30
0.0
 11
276.5658855195
 21
220.1929943564
 31
0.0
  0
ARC
  5
2AE
330
240
100
AcDbEntity
  8
GEHÄUSEHÄLFTE_VO
  6
Continuous
 62
     7
100
AcDbCircle
 10
276.5658855195
 20
220.3929943564
 30
0.0
 40
0.2
100
AcDbArc
 50
270.0
 51
360.0
  0
LINE
  5
2AF
330
240
100
AcDbEntity
  8
GEHÄUSEHÄLFTE_VO
  6
Continuous
 62
     7
100
AcDbLine
 10
276.7658855195
 20
219.6929943564
 30
0.0
 11
276.5658855195
 21
219.6929943564
 31
0.0
  0
SPLINE
  5
2B0
330
240
100
AcDbEntity
  8
GEHÄUSEHÄLFTE_VO
  6
Continuous
 62
     7
100
AcDbSpline
210
0.0
220
0.0
230
1.0
 70
    12
 71
     2
 72
     6
 73
     3
 74
     0
 42
0.0000000435546511
 43
0.0000000001
 40
0.0
 40
0.0
 40
0.0
 40
1.0
 40
1.0
 40
1.0
 10
311.5016719570947
 20
100.4535624257015
 30
0.0
 41
1.0
 10
311.3874583947215
 20
100.3935886835963
 30
0.0
 41
0.8933627700174351
 10
311.3874583947215
 20
100.2929943564348
 30
0.0
 41
1.0
  0
LINE
  5
2B1
330
240
100
AcDbEntity
  8
GEHÄUSEHÄLFTE_VO
  6
Continuous
 62
     7
100
AcDbLine
 10
313.3158855195
 20
99.9897814395
 30
0.0
 11
313.3158855195
 21
100.2929943564
 31
0.0
  0
LINE
  5
2B2
330
240
100
AcDbEntity
  8
GEHÄUSEHÄLFTE_VO
  6
Continuous
 62
     7
100
AcDbLine
 10
311.3874583947
 20
100.2929943564
 30
0.0
 11
311.3874583947
 21
99.9897814395
 31
0.0
  0
SPLINE
  5
2B3
330
240
100
AcDbEntity
  8
GEHÄUSEHÄLFTE_VO
  6
Continuous
 62
     7
100
AcDbSpline
210
0.0
220
0.0
230
1.0
 70
    12
 71
     2
 72
     6
 73
     3
 74
     0
 42
0.0000000435546511
 43
0.0000000001
 40
0.0
 40
0.0
 40
0.0
 40
1.0
 40
1.0
 40
1.0
 10
313.3158855194678
 20
100.2929943564348
 30
0.0
 41
1.0
 10
313.3158855194678
 20
100.3935886835963
 30
0.0
 41
0.8933627700174352
 10
313.2016719570947
 20
100.4535624257015
 30
0.0
 41
1.0
  0
LINE
  5
2B4
330
240
100
AcDbEntity
  8
GEHÄUSEHÄLFTE_VO
  6
Continuous
 62
     7
100
AcDbLine
 10
275.9658855195
 20
100.2429943564
 30
0.0
 11
276.7658855195
 21
100.2429943564
 31
0.0
  0
LINE
  5
2B5
330
240
100
AcDbEntity
  8
GEHÄUSEHÄLFTE_VO
  6
Continuous
 62
     7
100
AcDbLine
 10
276.5658855195
 20
99.4429943564
 30
0.0
 11
276.7658855195
 21
99.4429943564
 31
0.0
  0
LINE
  5
2B6
330
240
100
AcDbEntity
  8
GEHÄUSEHÄLFTE_VO
  6
Continuous
 62
     7
100
AcDbLine
 10
275.9658855195
 20
101.2929943564
 30
0.0
 11
276.5658855195
 21
101.2929943564
 31
0.0
  0
LINE
  5
2B7
330
240
100
AcDbEntity
  8
GEHÄUSEHÄLFTE_VO
  6
Continuous
 62
     7
100
AcDbLine
 10
276.5658855195
 20
100.7929943564
 30
0.0
 11
275.9658855195
 21
100.7929943564
 31
0.0
  0
LINE
  5
2B8
330
240
100
AcDbEntity
  8
GEHÄUSEHÄLFTE_VO
  6
Continuous
 62
     7
100
AcDbLine
 10
276.5658855195
 20
101.2929943564
 30
0.0
 11
276.5658855195
 21
102.5929943564
 31
0.0
  0
LINE
  5
2B9
330
240
100
AcDbEntity
  8
GEHÄUSEHÄLFTE_VO
  6
Continuous
 62
     7
100
AcDbLine
 10
276.5658855195
 20
100.7929943564
 30
0.0
 11
276.5658855195
 21
101.2929943564
 31
0.0
  0
LINE
  5
2BA
330
240
100
AcDbEntity
  8
GEHÄUSEHÄLFTE_VO
  6
Continuous
 62
     7
100
AcDbLine
 10
276.7658855195
 20
101.2929943564
 30
0.0
 11
276.5658855195
 21
101.2929943564
 31
0.0
  0
ARC
  5
2BB
330
240
100
AcDbEntity
  8
GEHÄUSEHÄLFTE_VO
  6
Continuous
 62
     7
100
AcDbCircle
 10
276.5658855195
 20
100.5929943564
 30
0.0
 40
0.2
100
AcDbArc
 50
0.0
 51
90.0
  0
LINE
  5
2BC
330
240
100
AcDbEntity
  8
GEHÄUSEHÄLFTE_VO
  6
Continuous
 62
     7
100
AcDbLine
 10
309.963194326
 20
97.9929943564
 30
0.0
 11
309.8958855195
 21
97.9929943564
 31
0.0
  0
ARC
  5
2BD
330
240
100
AcDbEntity
  8
GEHÄUSEHÄLFTE_VO
  6
Continuous
 62
     7
100
AcDbCircle
 10
309.9632135335
 20
101.125539841
 30
0.0
 40
3.132545484585653
100
AcDbArc
 50
269.9996486865
 51
273.5409389145
  0
ARC
  5
2BE
330
240
100
AcDbEntity
  8
GEHÄUSEHÄLFTE_VO
  6
Continuous
 62
     7
100
AcDbCircle
 10
310.2658876288
 20
98.993032873
 30
0.0
 40
1.000038516523115
100
AcDbArc
 50
263.7308839628
 51
269.9998791496
  0
LINE
  5
2BF
330
240
100
AcDbEntity
  8
GEHÄUSEHÄLFTE_VO
  6
Continuous
 62
     7
100
AcDbLine
 10
315.8658855195
 20
114.2929943564
 30
0.0
 11
315.8658855195
 21
148.4929943564
 31
0.0
  0
ARC
  5
2C0
330
240
100
AcDbEntity
  8
GEHÄUSEHÄLFTE_VO
  6
Continuous
 62
     7
100
AcDbCircle
 10
315.5658855195
 20
114.2929943564
 30
0.0
 40
0.3000000000000017
100
AcDbArc
 50
270.0
 51
360.0
  0
LINE
  5
2C1
330
240
100
AcDbEntity
  8
GEHÄUSEHÄLFTE_VO
  6
Continuous
 62
     7
100
AcDbLine
 10
306.1658855195
 20
112.5129943564
 30
0.0
 11
306.1658855195
 21
113.4629943564
 31
0.0
  0
LINE
  5
2C2
330
240
100
AcDbEntity
  8
GEHÄUSEHÄLFTE_VO
  6
Continuous
 62
     7
100
AcDbLine
 10
306.1658855195
 20
113.4629943564
 30
0.0
 11
306.1658855195
 21
113.9929943564
 31
0.0
  0
SPLINE
  5
2C3
330
240
100
AcDbEntity
  8
GEHÄUSEHÄLFTE_VO
  6
Continuous
 62
     7
100
AcDbSpline
210
0.0
220
0.0
230
1.0
 70
    12
 71
     2
 72
     6
 73
     3
 74
     0
 42
0.0000000095238095
 43
0.0000000001
 40
0.0
 40
0.0
 40
0.0
 40
1.0
 40
1.0
 40
1.0
 10
306.1658855194678
 20
113.4629943564348
 30
0.0
 41
1.0
 10
307.1658855194678
 20
113.4629943564348
 30
0.0
 41
0.7071067811863858
 10
307.1658855194678
 20
113.5129943564348
 30
0.0
 41
1.0
  0
ARC
  5
2C4
330
240
100
AcDbEntity
  8
GEHÄUSEHÄLFTE_VO
  6
Continuous
 62
     7
100
AcDbCircle
 10
306.1658855195
 20
113.5129943564
 30
0.0
 40
1.000000000000001
100
AcDbArc
 50
270.0
 51
360.0
  0
LINE
  5
2C5
330
240
100
AcDbEntity
  8
GEHÄUSEHÄLFTE_VO
  6
Continuous
 62
     7
100
AcDbLine
 10
299.6658855195
 20
112.7701740334
 30
0.0
 11
299.6658855195
 21
111.6229943564
 31
0.0
  0
LINE
  5
2C6
330
240
100
AcDbEntity
  8
GEHÄUSEHÄLFTE_VO
  6
Continuous
 62
     7
100
AcDbLine
 10
298.7658855195
 20
109.0129943562
 30
0.0
 11
298.1658855195
 21
109.0129943562
 31
0.0
  0
LINE
  5
2C7
330
240
100
AcDbEntity
  8
GEHÄUSEHÄLFTE_VO
  6
Continuous
 62
     7
100
AcDbLine
 10
299.3658855195
 20
111.6229943564
 30
0.0
 11
299.3658855195
 21
113.4629943564
 31
0.0
  0
LINE
  5
2C8
330
240
100
AcDbEntity
  8
GEHÄUSEHÄLFTE_VO
  6
Continuous
 62
     7
100
AcDbLine
 10
298.1658855195
 20
109.3129943562
 30
0.0
 11
298.7658855195
 21
109.3129943562
 31
0.0
  0
SPLINE
  5
2C9
330
240
100
AcDbEntity
  8
GEHÄUSEHÄLFTE_VO
  6
Continuous
 62
     7
100
AcDbSpline
210
0.0
220
0.0
230
1.0
 70
     8
 71
     3
 72
    12
 73
     8
 74
     0
 42
0.0000000131259138
 43
0.0000000001
 40
0.0
 40
0.0
 40
0.0
 40
0.0
 40
0.5000000000000129
 40
0.5000000000000129
 40
0.7500000000000064
 40
0.7500000000000064
 40
1.0
 40
1.0
 40
1.0
 40
1.0
 10
299.3658855194677
 20
113.4629943564348
 30
0.0
 10
299.4344630944638
 20
113.3409586311681
 30
0.0
 10
299.5035452504534
 20
113.2187993314677
 30
0.0
 10
299.5893479475967
 20
113.041266257612
 30
0.0
 10
299.6146103120687
 20
112.9838346803461
 30
0.0
 10
299.6530860346515
 20
112.871745528392
 30
0.0
 10
299.6658855194678
 20
112.8187882286863
 30
0.0
 10
299.6658855194678
 20
112.7701740334072
 30
0.0
  0
LINE
  5
2CA
330
240
100
AcDbEntity
  8
GEHÄUSEHÄLFTE_VO
  6
Continuous
 62
     7
100
AcDbLine
 10
298.7157106026
 20
102.5929943564
 30
0.0
 11
298.1658855195
 21
102.5929943564
 31
0.0
  0
LINE
  5
2CB
330
240
100
AcDbEntity
  8
GEHÄUSEHÄLFTE_VO
  6
Continuous
 62
     7
100
AcDbLine
 10
298.7658855195
 20
103.4929943564
 30
0.0
 11
298.1658855195
 21
103.4929943564
 31
0.0
  0
LINE
  5
2CC
330
240
100
AcDbEntity
  8
GEHÄUSEHÄLFTE_VO
  6
Continuous
 62
     7
100
AcDbLine
 10
298.1658855195
 20
102.8929943564
 30
0.0
 11
298.7658855195
 21
102.8929943564
 31
0.0
  0
LINE
  5
2CD
330
240
100
AcDbEntity
  8
GEHÄUSEHÄLFTE_VO
  6
Continuous
 62
     7
100
AcDbLine
 10
298.1658855195
 20
103.7929943564
 30
0.0
 11
298.7658855195
 21
103.7929943564
 31
0.0
  0
LINE
  5
2CE
330
240
100
AcDbEntity
  8
GEHÄUSEHÄLFTE_VO
  6
Continuous
 62
     7
100
AcDbLine
 10
307.1658855195
 20
113.5129943564
 30
0.0
 11
307.1658855195
 21
113.9929943564
 31
0.0
  0
LINE
  5
2CF
330
240
100
AcDbEntity
  8
PS_307
  6
Continuous
 62
     7
100
AcDbLine
 10
317.6758855195
 20
217.9909149613
 30
0.0
 11
317.6758855195
 21
216.9779943564
 31
0.0
  0
LINE
  5
2D0
330
240
100
AcDbEntity
  8
PS_307
  6
Continuous
 62
     7
100
AcDbLine
 10
317.6658855195
 20
217.9909149613
 30
0.0
 11
317.6758855195
 21
217.9909149613
 31
0.0
  0
LINE
  5
2D1
330
240
100
AcDbEntity
  8
PS_307
  6
Continuous
 62
     7
100
AcDbLine
 10
317.6758855195
 20
218.0438450181
 30
0.0
 11
317.6658855195
 21
218.0438450181
 31
0.0
  0
LINE
  5
2D2
330
240
100
AcDbEntity
  8
ZUGENTLASTUNG
  6
Continuous
 62
     7
100
AcDbLine
 10
302.7658855195
 20
99.6229943564
 30
0.0
 11
299.8773726574
 21
99.6229943564
 31
0.0
  0
LINE
  5
2D3
330
240
100
AcDbEntity
  8
ZUGENTLASTUNG
  6
Continuous
 62
     7
100
AcDbLine
 10
299.7886736038
 20
99.6229943564
 30
0.0
 11
298.7658855195
 21
99.6229943564
 31
0.0
  0
LINE
  5
2D4
330
240
100
AcDbEntity
  8
ZUGENTLASTUNG
  6
Continuous
 62
     7
100
AcDbLine
 10
299.8773726574
 20
99.6229943564
 30
0.0
 11
299.7886736038
 21
99.6229943564
 31
0.0
  0
LINE
  5
2D5
330
240
100
AcDbEntity
  8
ZUGENTLASTUNG
  6
Continuous
 62
     7
100
AcDbLine
 10
303.2658855195
 20
100.6229943564
 30
0.0
 11
303.2658855195
 21
100.1229943564
 31
0.0
  0
LINE
  5
2D6
330
240
100
AcDbEntity
  8
ZUGENTLASTUNG
  6
Continuous
 62
     7
100
AcDbLine
 10
303.2658855195
 20
110.6229943564
 30
0.0
 11
303.2658855195
 21
100.6229943564
 31
0.0
  0
LINE
  5
2D7
330
240
100
AcDbEntity
  8
ZUGENTLASTUNG
  6
Continuous
 62
     7
100
AcDbLine
 10
303.2658855195
 20
111.1229943564
 30
0.0
 11
303.2658855195
 21
110.6229943564
 31
0.0
  0
LINE
  5
2D8
330
240
100
AcDbEntity
  8
ZUGENTLASTUNG
  6
Continuous
 62
     7
100
AcDbLine
 10
299.2658855195
 20
111.6229943564
 30
0.0
 11
299.8773726574
 21
111.6229943564
 31
0.0
  0
LINE
  5
2D9
330
240
100
AcDbEntity
  8
ZUGENTLASTUNG
  6
Continuous
 62
     7
100
AcDbLine
 10
299.8773726574
 20
111.6229943564
 30
0.0
 11
302.7658855195
 21
111.6229943564
 31
0.0
  0
ARC
  5
2DA
330
240
100
AcDbEntity
  8
ZUGENTLASTUNG
  6
Continuous
 62
     7
100
AcDbCircle
 10
297.7658857499
 20
102.8521177905
 30
0.0
 40
0.9999994595544697
100
AcDbArc
 50
293.6493866738
 51
360.0
  0
ARC
  5
2DB
330
240
100
AcDbEntity
  8
ZUGENTLASTUNG
  6
Continuous
 62
     7
100
AcDbCircle
 10
299.2658855195
 20
111.1229943564
 30
0.0
 40
0.4999999999998622
100
AcDbArc
 50
90.0
 51
180.0
  0
LINE
  5
2DC
330
240
100
AcDbEntity
  8
ZUGENTLASTUNG
  6
Continuous
 62
     7
100
AcDbLine
 10
302.7658855195
 20
99.6229943564
 30
0.0
 11
302.7658855195
 21
100.6229943564
 31
0.0
  0
SPLINE
  5
2DD
330
240
100
AcDbEntity
  8
ZUGENTLASTUNG
  6
Continuous
 62
     7
100
AcDbSpline
210
0.0
220
0.0
230
1.0
 70
     8
 71
     3
 72
    20
 73
    16
 74
     0
 42
0.0000000100998921
 43
0.0000000001
 40
0.0
 40
0.0
 40
0.0
 40
0.0
 40
0.0668989028890535
 40
0.1351950689046442
 40
0.2048984439783652
 40
0.2760183787374934
 40
0.3485636711311208
 40
0.4225426056547481
 40
0.497962989451214
 40
0.5748321855459254
 40
0.6405167909065163
 40
0.7301657242131806
 40
0.8437579998916555
 40
0.9812647538792251
 40
0.9999999999999999
 40
0.9999999999999999
 40
0.9999999999999999
 40
0.9999999999999999
 10
299.7568032023024
 20
100.6229943564347
 30
0.0
 10
299.756919029023
 20
100.5922454274561
 30
0.0
 10
299.7571531016431
 20
100.5301053415582
 30
0.0
 10
299.7589985350269
 20
100.4367496779128
 30
0.0
 10
299.7619299706692
 20
100.3431927521101
 30
0.0
 10
299.7660605717462
 20
100.2504255389885
 30
0.0
 10
299.7713616542372
 20
100.159521725879
 30
0.0
 10
299.7778312655686
 20
100.0716255827402
 30
0.0
 10
299.7855079062852
 20
99.98795010599729
 30
0.0
 10
299.7937568311009
 20
99.9140109701695
 30
0.0
 10
299.8038950254572
 20
99.84278324781582
 30
0.0
 10
299.8165602602345
 20
99.7703398678027
 30
0.0
 10
299.8331946184356
 20
99.69747848567121
 30
0.0
 10
299.846702263095
 20
99.65749549470671
 30
0.0
 10
299.8546102533961
 20
99.64407489733792
 30
0.0
 10
299.8555596155585
 20
99.642589284035
 30
0.0
  0
SPLINE
  5
2DE
330
240
100
AcDbEntity
  8
ZUGENTLASTUNG
  6
Continuous
 62
     7
100
AcDbSpline
210
0.0
220
0.0
230
1.0
 70
     8
 71
     3
 72
     8
 73
     4
 74
     0
 42
0.0000003311628135
 43
0.0000000001
 40
0.0
 40
0.0
 40
0.0
 40
0.0
 40
1.0
 40
1.0
 40
1.0
 40
1.0
 10
299.8555596155585
 20
99.642589284035
 30
0.0
 10
299.862788058509
 20
99.63127782521408
 30
0.0
 10
299.870080357931
 20
99.62713609082442
 30
0.0
 10
299.877372657353
 20
99.62299435643482
 30
0.0
  0
LINE
  5
2DF
330
240
100
AcDbEntity
  8
ZUGENTLASTUNG
  6
Continuous
 62
     7
100
AcDbLine
 10
302.7658855195
 20
100.6229943564
 30
0.0
 11
299.7568032023
 21
100.6229943564
 31
0.0
  0
SPLINE
  5
2E0
330
240
100
AcDbEntity
  8
ZUGENTLASTUNG
  6
Continuous
 62
     7
100
AcDbSpline
210
0.0
220
0.0
230
1.0
 70
     8
 71
     3
 72
    10
 73
     6
 74
     0
 42
0.0000000124189131
 43
0.0000000001
 40
0.0
 40
0.0
 40
0.0
 40
0.0
 40
0.5
 40
0.5
 40
1.0
 40
1.0
 40
1.0
 40
1.0
 10
303.2658855194679
 20
100.1229943564346
 30
0.0
 10
303.2658855194678
 20
99.99209466253511
 30
0.0
 10
303.2119989712727
 20
99.86200102705305
 30
0.0
 10
303.0268788488495
 20
99.67688090462984
 30
0.0
 10
302.8967852133674
 20
99.62299435643475
 30
0.0
 10
302.7658855194679
 20
99.62299435643489
 30
0.0
  0
LINE
  5
2E1
330
240
100
AcDbEntity
  8
ZUGENTLASTUNG
  6
Continuous
 62
     7
100
AcDbLine
 10
298.7658855195
 20
99.6229943564
 30
0.0
 11
298.1678137308
 21
99.6282136521
 31
0.0
  0
LINE
  5
2E2
330
240
100
AcDbEntity
  8
ZUGENTLASTUNG
  6
Continuous
 62
     7
100
AcDbLine
 10
299.3035566583
 20
100.1229943564
 30
0.0
 11
298.1658855195
 21
100.1229943564
 31
0.0
  0
SPLINE
  5
2E3
330
240
100
AcDbEntity
  8
ZUGENTLASTUNG
  6
Continuous
 62
     7
100
AcDbSpline
210
0.0
220
0.0
230
1.0
 70
    12
 71
     2
 72
     6
 73
     3
 74
     0
 42
0.0000000101510791
 43
0.0000000001
 40
0.0
 40
0.0
 40
0.0
 40
1.0
 40
1.0
 40
1.0
 10
299.3035566582785
 20
100.1229943564349
 30
0.0
 41
1.0
 10
299.3035566582785
 20
99.6229943564347
 30
0.0
 41
0.7071067811861785
 10
299.7886736038473
 20
99.62299435643476
 30
0.0
 41
1.0
  0
SPLINE
  5
2E4
330
240
100
AcDbEntity
  8
ZUGENTLASTUNG
  6
Continuous
 62
     7
100
AcDbSpline
210
0.0
220
0.0
230
1.0
 70
     8
 71
     3
 72
    10
 73
     6
 74
     0
 42
0.0000000124189131
 43
0.0000000001
 40
0.0
 40
0.0
 40
0.0
 40
0.0
 40
0.5
 40
0.5
 40
1.0
 40
1.0
 40
1.0
 40
1.0
 10
302.7658855194679
 20
111.6229943564346
 30
0.0
 10
302.8967852133674
 20
111.6229943564348
 30
0.0
 10
303.0268788488495
 20
111.5691078082397
 30
0.0
 10
303.2119989712727
 20
111.3839876858165
 30
0.0
 10
303.2658855194678
 20
111.2538940503344
 30
0.0
 10
303.2658855194679
 20
111.1229943564349
 30
0.0
  0
LINE
  5
2E5
330
240
100
AcDbEntity
  8
ZUGENTLASTUNG
  6
Continuous
 62
     7
100
AcDbLine
 10
303.2658855195
 20
100.6229943564
 30
0.0
 11
302.7658855195
 21
100.6229943564
 31
0.0
  0
LINE
  5
2E6
330
240
100
AcDbEntity
  8
ZUGENTLASTUNG
  6
Continuous
 62
     7
100
AcDbLine
 10
302.7658855195
 20
110.6229943564
 30
0.0
 11
302.7658855195
 21
100.6229943564
 31
0.0
  0
LINE
  5
2E7
330
240
100
AcDbEntity
  8
ZUGENTLASTUNG
  6
Continuous
 62
     7
100
AcDbLine
 10
303.2658855195
 20
110.6229943564
 30
0.0
 11
302.7658855195
 21
110.6229943564
 31
0.0
  0
LINE
  5
2E8
330
240
100
AcDbEntity
  8
ZUGENTLASTUNG
  6
Continuous
 62
     7
100
AcDbLine
 10
302.7658855195
 20
111.6229943564
 30
0.0
 11
302.7658855195
 21
110.6229943564
 31
0.0
  0
LINE
  5
2E9
330
240
100
AcDbEntity
  8
ZUGENTLASTUNG
  6
Continuous
 62
     7
100
AcDbLine
 10
298.7658855195
 20
111.1229943564
 30
0.0
 11
299.3719408526
 21
111.1229943564
 31
0.0
  0
SPLINE
  5
2EA
330
240
100
AcDbEntity
  8
ZUGENTLASTUNG
  6
Continuous
 62
     7
100
AcDbSpline
210
0.0
220
0.0
230
1.0
 70
     8
 71
     3
 72
     9
 73
     5
 74
     0
 42
0.0000003260029014
 43
0.0000000001
 40
0.0
 40
0.0
 40
0.0
 40
0.0
 40
0.5372627871125223
 40
1.0
 40
1.0
 40
1.0
 40
1.0
 10
299.877372657353
 20
111.6229943564347
 30
0.0
 10
299.8734673277787
 20
111.6219442416293
 30
0.0
 10
299.8661983903647
 20
111.6199896770649
 30
0.0
 10
299.8589874928671
 20
111.6099814633929
 30
0.0
 10
299.85566257812
 20
111.6040864663311
 30
0.0
  0
SPLINE
  5
2EB
330
240
100
AcDbEntity
  8
ZUGENTLASTUNG
  6
Continuous
 62
     7
100
AcDbSpline
210
0.0
220
0.0
230
1.0
 70
     8
 71
     3
 72
    21
 73
    17
 74
     0
 42
0.0000000100952131
 43
0.0000000001
 40
0.0
 40
0.0
 40
0.0
 40
0.0
 40
0.0056438373733769
 40
0.0721092762678
 40
0.1336243873304374
 40
0.1901885456219789
 40
0.2418012034142173
 40
0.2884618991681616
 40
0.3301702718383627
 40
0.3669260848102923
 40
0.3987292684719616
 40
0.425580002039856
 40
0.5777455462059882
 40
0.7241606566999778
 40
0.8648883631834814
 40
1.0
 40
1.0
 40
1.0
 40
1.0
 10
299.85566257812
 20
111.6040864663311
 30
0.0
 10
299.855377266788
 20
111.6035806159284
 30
0.0
 10
299.8517330602247
 20
111.5969986480469
 30
0.0
 10
299.8450062978328
 20
111.5820746886065
 30
0.0
 10
299.8358017744766
 20
111.5542163629525
 30
0.0
 10
299.8274290934842
 20
111.5227969495959
 30
0.0
 10
299.8198881924588
 20
111.4893995502691
 30
0.0
 10
299.8131792625199
 20
111.4554739796886
 30
0.0
 10
299.8073001541027
 20
111.4222612917088
 30
0.0
 10
299.802255636281
 20
111.3908207118071
 30
0.0
 10
299.798028084976
 20
111.3620323892729
 30
0.0
 10
299.7892247163161
 20
111.2955459616388
 30
0.0
 10
299.7774941052987
 20
111.1793418332754
 30
0.0
 10
299.765685437602
 20
110.9995365472334
 30
0.0
 10
299.7582445421481
 20
110.8121446035971
 30
0.0
 10
299.7572770831183
 20
110.6851827943139
 30
0.0
 10
299.7568032023024
 20
110.6229943564348
 30
0.0
  0
LINE
  5
2EC
330
240
100
AcDbEntity
  8
ZUGENTLASTUNG
  6
Continuous
 62
     7
100
AcDbLine
 10
299.7568032023
 20
110.6229943564
 30
0.0
 11
302.7658855195
 21
110.6229943564
 31
0.0
  0
ARC
  5
2ED
330
240
100
AcDbEntity
  8
ZUGENTLASTUNG
  6
Continuous
 62
     7
100
AcDbCircle
 10
297.8610675303
 20
103.389898107
 30
0.0
 40
1.537751725972805
100
AcDbArc
 50
281.4269715127
 51
335.9612016314
  0
LINE
  5
2EE
330
240
100
AcDbEntity
  8
ZUGENTLASTUNG
  6
Continuous
 62
     7
100
AcDbLine
 10
299.7568032023
 20
100.6229943564
 30
0.0
 11
299.2568032023
 21
100.6229943564
 31
0.0
  0
LINE
  5
2EF
330
240
100
AcDbEntity
  8
ZUGENTLASTUNG
  6
Continuous
 62
     7
100
AcDbLine
 10
299.7568032023
 20
104.6981009879
 30
0.0
 11
299.7568032023
 21
101.4909943564
 31
0.0
  0
LINE
  5
2F0
330
240
100
AcDbEntity
  8
ZUGENTLASTUNG
  6
Continuous
 62
     7
100
AcDbLine
 10
299.4541151112
 20
104.9909941032
 30
0.0
 11
299.7568032023
 21
104.6981011376
 31
0.0
  0
LINE
  5
2F1
330
240
100
AcDbEntity
  8
ZUGENTLASTUNG
  6
Continuous
 62
     7
100
AcDbLine
 10
299.7568032023
 20
108.1981009879
 30
0.0
 11
299.7568032023
 21
104.9909943564
 31
0.0
  0
LINE
  5
2F2
330
240
100
AcDbEntity
  8
ZUGENTLASTUNG
  6
Continuous
 62
     7
100
AcDbLine
 10
299.4541151112
 20
108.4909941032
 30
0.0
 11
299.7568032023
 21
108.1981011376
 31
0.0
  0
LINE
  5
2F3
330
240
100
AcDbEntity
  8
ZUGENTLASTUNG
  6
Continuous
 62
     7
100
AcDbLine
 10
299.7568032023
 20
110.6229943564
 30
0.0
 11
299.7568032023
 21
108.4909943564
 31
0.0
  0
LINE
  5
2F4
330
240
100
AcDbEntity
  8
ZUGENTLASTUNG
  6
Continuous
 62
     7
100
AcDbLine
 10
299.7568032023
 20
101.1981009879
 30
0.0
 11
299.7568032023
 21
100.6229943564
 31
0.0
  0
LINE
  5
2F5
330
240
100
AcDbEntity
  8
ZUGENTLASTUNG
  6
Continuous
 62
     7
100
AcDbLine
 10
299.4541151112
 20
101.4909941032
 30
0.0
 11
299.7568032023
 21
101.1981011376
 31
0.0
  0
LINE
  5
2F6
330
240
100
AcDbEntity
  8
ZUGENTLASTUNG
  6
Continuous
 62
     7
100
AcDbLine
 10
299.3035566583
 20
100.1229943564
 30
0.0
 11
299.3035566583
 21
100.249009705
 31
0.0
  0
LINE
  5
2F7
330
240
100
AcDbEntity
  8
ZUGENTLASTUNG
  6
Continuous
 62
     7
100
AcDbLine
 10
299.2568032023
 20
110.6229943564
 30
0.0
 11
299.7568032023
 21
110.6229943564
 31
0.0
  0
LINE
  5
2F8
330
240
100
AcDbEntity
  8
ZUGENTLASTUNG
  6
Continuous
 62
     7
100
AcDbLine
 10
298.7658855195
 20
111.1229943564
 30
0.0
 11
298.7658855195
 21
108.4909943564
 31
0.0
  0
ARC
  5
2F9
330
240
100
AcDbEntity
  8
ZUGENTLASTUNG
  6
Continuous
 62
     7
100
AcDbCircle
 10
270.753086632
 20
169.0031997661
 30
0.0
 40
73.74786086118937
100
AcDbArc
 50
292.7373513018
 51
293.15887835
  0
ARC
  5
2FA
330
240
100
AcDbEntity
  8
ZUGENTLASTUNG
  6
Continuous
 62
     7
100
AcDbCircle
 10
270.7530561811
 20
172.5032717987
 30
0.0
 40
73.74793906499706
100
AcDbArc
 50
292.7373586387
 51
293.158878092
  0
LINE
  5
2FB
330
240
100
AcDbEntity
  8
ZUGENTLASTUNG
  6
Continuous
 62
     7
100
AcDbLine
 10
298.7658855195
 20
104.9909943564
 30
0.0
 11
298.7658855195
 21
104.960750973
 31
0.0
  0
ARC
  5
2FC
330
240
100
AcDbEntity
  8
ZUGENTLASTUNG
  6
Continuous
 62
     7
100
AcDbCircle
 10
270.753056435
 20
176.0032711992
 30
0.0
 40
73.74793841398177
100
AcDbArc
 50
292.7373586368
 51
293.1588780939
  0
LINE
  5
2FD
330
240
100
AcDbEntity
  8
ZUGENTLASTUNG
  6
Continuous
 62
     7
100
AcDbLine
 10
298.7658855195
 20
108.4909943564
 30
0.0
 11
298.7658855195
 21
108.460750973
 31
0.0
  0
LINE
  5
2FE
330
240
100
AcDbEntity
  8
ZUGENTLASTUNG
  6
Continuous
 62
     7
100
AcDbLine
 10
299.4541151208
 20
108.4909943564
 30
0.0
 11
298.7658855194
 21
108.4909943564
 31
0.0
  0
LINE
  5
2FF
330
240
100
AcDbEntity
  8
ZUGENTLASTUNG
  6
Continuous
 62
     7
100
AcDbLine
 10
298.7658855195
 20
101.4909943564
 30
0.0
 11
298.7658855195
 21
101.4607509729
 31
0.0
  0
LINE
  5
300
330
240
100
AcDbEntity
  8
ZUGENTLASTUNG
  6
Continuous
 62
     7
100
AcDbLine
 10
298.7658855195
 20
101.2848823008
 30
0.0
 11
298.7658855195
 21
101.4140797551
 31
0.0
  0
SPLINE
  5
301
330
240
100
AcDbEntity
  8
ZUGENTLASTUNG
  6
Continuous
 62
     7
100
AcDbSpline
210
0.0
220
0.0
230
1.0
 70
     8
 71
     3
 72
    14
 73
    10
 74
     0
 42
0.0000000181562718
 43
0.0000000001
 40
0.0
 40
0.0
 40
0.0
 40
0.0
 40
0.3122862852020532
 40
0.3122862852020532
 40
0.6245725704041064
 40
0.6245725704041064
 40
0.9368588556061597
 40
0.9368588556061597
 40
1.0
 40
1.0
 40
1.0
 40
1.0
 10
298.7658855194679
 20
101.2848823007863
 30
0.0
 10
298.8267832298344
 20
101.2409852665868
 30
0.0
 10
298.8848669459359
 20
101.2009639065767
 30
0.0
 10
298.9946453280687
 20
101.1294329779895
 30
0.0
 10
299.0468890642653
 20
101.0976230598165
 30
0.0
 10
299.1406130960658
 20
101.0457689818386
 30
0.0
 10
299.1819547043868
 20
101.0257269094252
 30
0.0
 10
299.2244306452271
 20
101.0092359471261
 30
0.0
 10
299.23133162522
 20
101.0067248642163
 30
0.0
 10
299.2379740176408
 20
101.0044834824117
 30
0.0
  0
LINE
  5
302
330
240
100
AcDbEntity
  8
ZUGENTLASTUNG
  6
Continuous
 62
     7
100
AcDbLine
 10
299.4541151143
 20
108.4909943564
 30
0.0
 11
299.7568032023
 21
108.4909943564
 31
0.0
  0
LINE
  5
303
330
240
100
AcDbEntity
  8
ZUGENTLASTUNG
  6
Continuous
 62
     7
100
AcDbLine
 10
298.7658855195
 20
102.8526808235
 30
0.0
 11
299.3035566583
 21
102.8570702809
 31
0.0
  0
LINE
  5
304
330
240
100
AcDbEntity
  8
ZUGENTLASTUNG
  6
Continuous
 62
     7
100
AcDbLine
 10
298.7658855195
 20
104.4909943564
 30
0.0
 11
298.7658855195
 21
102.8526808349
 31
0.0
  0
LINE
  5
305
330
240
100
AcDbEntity
  8
ZUGENTLASTUNG
  6
Continuous
 62
     7
100
AcDbLine
 10
299.2522364232
 20
104.4909943564
 30
0.0
 11
298.7658855195
 21
104.4909943564
 31
0.0
  0
LINE
  5
306
330
240
100
AcDbEntity
  8
ZUGENTLASTUNG
  6
Continuous
 62
     7
100
AcDbLine
 10
298.7658855195
 20
105.230892091
 30
0.0
 11
298.7658855195
 21
104.9909943564
 31
0.0
  0
ARC
  5
307
330
240
100
AcDbEntity
  8
ZUGENTLASTUNG
  6
Continuous
 62
     7
100
AcDbCircle
 10
295.9428809465
 20
105.9929943502
 30
0.0
 40
2.850892035035755
100
AcDbArc
 50
351.9794084516
 51
8.0205982217
  0
LINE
  5
308
330
240
100
AcDbEntity
  8
ZUGENTLASTUNG
  6
Continuous
 62
     7
100
AcDbLine
 10
298.7658855195
 20
107.9909943564
 30
0.0
 11
298.7658854837
 21
106.7544456007
 31
0.0
  0
LINE
  5
309
330
240
100
AcDbEntity
  8
ZUGENTLASTUNG
  6
Continuous
 62
     7
100
AcDbLine
 10
299.2522364232
 20
107.9909943564
 30
0.0
 11
298.7658855195
 21
107.9909943564
 31
0.0
  0
LINE
  5
30A
330
240
100
AcDbEntity
  8
ZUGENTLASTUNG
  6
Continuous
 62
     7
100
AcDbLine
 10
299.4541151143
 20
101.4909943564
 30
0.0
 11
299.7568032023
 21
101.4909943564
 31
0.0
  0
LINE
  5
30B
330
240
100
AcDbEntity
  8
ZUGENTLASTUNG
  6
Continuous
 62
     7
100
AcDbLine
 10
298.7658855195
 20
101.4909943564
 30
0.0
 11
299.4541151208
 21
101.4909943564
 31
0.0
  0
LINE
  5
30C
330
240
100
AcDbEntity
  8
ZUGENTLASTUNG
  6
Continuous
 62
     7
100
AcDbLine
 10
298.7658855195
 20
108.3811701337
 30
0.0
 11
298.7658855195
 21
107.9909943564
 31
0.0
  0
LINE
  5
30D
330
240
100
AcDbEntity
  8
ZUGENTLASTUNG
  6
Continuous
 62
     7
100
AcDbLine
 10
298.7658855195
 20
104.8811701337
 30
0.0
 11
298.7658855195
 21
104.4909943564
 31
0.0
  0
LINE
  5
30E
330
240
100
AcDbEntity
  8
ZUGENTLASTUNG
  6
Continuous
 62
     7
100
AcDbLine
 10
299.4541151143
 20
104.9909943564
 30
0.0
 11
299.7568032023
 21
104.9909943564
 31
0.0
  0
LINE
  5
30F
330
240
100
AcDbEntity
  8
ZUGENTLASTUNG
  6
Continuous
 62
     7
100
AcDbLine
 10
298.7658855194
 20
104.9909943564
 30
0.0
 11
299.4541151208
 21
104.9909943564
 31
0.0
  0
SPLINE
  5
310
330
240
100
AcDbEntity
  8
ZUGENTLASTUNG
  6
Continuous
 62
     7
100
AcDbSpline
210
0.0
220
0.0
230
1.0
 70
     8
 71
     3
 72
    13
 73
     9
 74
     0
 42
0.0000000078880311
 43
0.0000000001
 40
0.0
 40
0.0
 40
0.0
 40
0.0
 40
0.2453585738594615
 40
0.4926378366954631
 40
0.620607662985938
 40
0.7499245744118692
 40
0.8775208744793914
 40
1.0
 40
1.0
 40
1.0
 40
1.0
 10
299.2580438557859
 20
100.6229943564347
 30
0.0
 10
299.2620174755971
 20
100.504476628985
 30
0.0
 10
299.2737333287208
 20
100.3020996544438
 30
0.0
 10
299.354545924004
 20
100.0368971057445
 30
0.0
 10
299.46682237164
 20
99.85920579975618
 30
0.0
 10
299.5770118533096
 20
99.74819256945578
 30
0.0
 10
299.7113314623278
 20
99.66853135778905
 30
0.0
 10
299.8026479955876
 20
99.65108197681354
 30
0.0
 10
299.8553413835661
 20
99.64205328424336
 30
0.0
  0
SPLINE
  5
311
330
240
100
AcDbEntity
  8
ZUGENTLASTUNG
  6
Continuous
 62
     7
100
AcDbSpline
210
0.0
220
0.0
230
1.0
 70
     8
 71
     3
 72
    14
 73
    10
 74
     0
 42
0.000000007863015
 43
0.0000000001
 40
0.0
 40
0.0
 40
0.0
 40
0.0
 40
0.0913698544243875
 40
0.1931224513377421
 40
0.3060878522131778
 40
0.4292915556072083
 40
0.7004439588194922
 40
0.8468876934785218
 40
1.0
 40
1.0
 40
1.0
 40
1.0
 10
299.855432867439
 20
111.6041955968544
 30
0.0
 10
299.812104170464
 20
111.5996587380341
 30
0.0
 10
299.7339533652682
 20
111.5903133727189
 30
0.0
 10
299.6175452679393
 20
111.5347018641031
 30
0.0
 10
299.5145733759138
 20
111.449707118905
 30
0.0
 10
299.3916435354312
 20
111.2886759765503
 30
0.0
 10
299.310861132634
 20
111.0738053525161
 30
0.0
 10
299.2665878481089
 20
110.8199645531729
 30
0.0
 10
299.2607847680235
 20
110.6968762299653
 30
0.0
 10
299.2580438557858
 20
110.6229943564348
 30
0.0
  0
LINE
  5
312
330
240
100
AcDbEntity
  8
ZUGENTLASTUNG
  6
Continuous
 62
     7
100
AcDbLine
 10
299.2568032023
 20
100.9865833953
 30
0.0
 11
299.2568032023
 21
100.6179933565
 31
0.0
  0
LINE
  5
313
330
240
100
AcDbEntity
  8
ZUGENTLASTUNG
  6
Continuous
 62
     7
100
AcDbLine
 10
299.2568032023
 20
104.4865833957
 30
0.0
 11
299.2568032023
 21
101.4909943564
 31
0.0
  0
LINE
  5
314
330
240
100
AcDbEntity
  8
ZUGENTLASTUNG
  6
Continuous
 62
     7
100
AcDbLine
 10
298.7658855195
 20
104.9607509733
 30
0.0
 11
299.2672760701
 21
104.476467862
 31
0.0
  0
LINE
  5
315
330
240
100
AcDbEntity
  8
ZUGENTLASTUNG
  6
Continuous
 62
     7
100
AcDbLine
 10
299.2568032023
 20
107.9865833957
 30
0.0
 11
299.2568032023
 21
104.9909943564
 31
0.0
  0
LINE
  5
316
330
240
100
AcDbEntity
  8
ZUGENTLASTUNG
  6
Continuous
 62
     7
100
AcDbLine
 10
298.7658855195
 20
108.4607509733
 30
0.0
 11
299.2672760701
 21
107.976467862
 31
0.0
  0
LINE
  5
317
330
240
100
AcDbEntity
  8
ZUGENTLASTUNG
  6
Continuous
 62
     7
100
AcDbLine
 10
299.2568032023
 20
110.6279953563
 30
0.0
 11
299.2568032023
 21
108.4909943564
 31
0.0
  0
LINE
  5
318
330
240
100
AcDbEntity
  8
ZUGENTLASTUNG
  6
Continuous
 62
     7
100
AcDbLine
 10
298.7658855195
 20
101.4607509729
 30
0.0
 11
299.2672760701
 21
100.9764678616
 31
0.0
  0
SPLINE
  5
319
330
240
100
AcDbEntity
  8
SCHRAUBE_ZUGENTL
  6
Continuous
 62
     7
100
AcDbSpline
210
0.0
220
0.0
230
1.0
 70
    12
 71
     2
 72
    12
 73
     9
 74
     0
 42
0.0000000032274961
 43
0.0000000001
 40
0.0
 40
0.0
 40
0.0
 40
0.0291741589598714
 40
0.0291741589598714
 40
0.3527827726399163
 40
0.3527827726399163
 40
0.6763913863199551
 40
0.6763913863199551
 40
1.0
 40
1.0
 40
1.0
 10
298.7188476171095
 20
104.4992269589842
 30
0.0
 41
0.9780214376457047
 10
298.7153952976654
 20
104.4929943564348
 30
0.0
 41
0.9879218413807694
 10
298.7121024239544
 20
104.4929943564348
 30
0.0
 41
1.0
 10
298.6704357572878
 20
104.4929943564348
 30
0.0
 41
0.8660254037844387
 10
298.6287690906211
 20
105.2429943564348
 30
0.0
 41
1.0
 10
298.5871024239545
 20
105.9929943564348
 30
0.0
 41
0.8660254037844387
 10
298.5454357572877
 20
106.7429943564348
 30
0.0
 41
1.0
 10
298.5037690906212
 20
107.4929943564348
 30
0.0
 41
0.8660254037844387
 10
298.4621024239544
 20
107.4929943564348
 30
0.0
 41
1.0
  0
SPLINE
  5
31A
330
240
100
AcDbEntity
  8
SCHRAUBE_ZUGENTL
  6
Continuous
 62
     7
100
AcDbSpline
210
0.0
220
0.0
230
1.0
 70
    12
 71
     2
 72
     8
 73
     5
 74
     0
 42
0.0000000360757253
 43
0.0000000001
 40
0.0
 40
0.0
 40
0.0
 40
0.1346561327301015
 40
0.1346561327301015
 40
1.0
 40
1.0
 40
1.0
 10
298.2185190500032
 20
104.4986473012792
 30
0.0
 41
0.9789604791736584
 10
298.2152381325185
 20
104.4929943564348
 30
0.0
 41
0.9884916839858164
 10
298.2121024239544
 20
104.4929943564348
 30
0.0
 41
1.0
 10
298.1905924567505
 20
104.4929943564348
 30
0.0
 41
0.9260438386015509
 10
298.1657934556855
 20
104.7377542091466
 30
0.0
 41
0.9337376909115688
  0
SPLINE
  5
31B
330
240
100
AcDbEntity
  8
SCHRAUBE_ZUGENTL
  6
Continuous
 62
     7
100
AcDbSpline
210
0.0
220
0.0
230
1.0
 70
    12
 71
     2
 72
    10
 73
     7
 74
     0
 42
0.0000000051680223
 43
0.0000000001
 40
0.0
 40
0.0
 40
0.0
 40
0.4620414668705928
 40
0.4620414668705928
 40
0.9536451341761918
 40
0.9536451341761918
 40
0.9999999999999999
 40
0.9999999999999999
 40
0.9999999999999999
 10
298.1659712859201
 20
106.5731347229704
 30
0.0
 41
0.9848560231997562
 10
298.2060569555393
 20
105.9483131194332
 30
0.0
 41
0.8740818609061497
 10
298.2448570803091
 20
105.3435295045788
 30
0.0
 41
1.0
 10
298.2865237469757
 20
104.6940646527228
 30
0.0
 41
0.8660254037844387
 10
298.3281904136424
 20
104.6940646527228
 30
0.0
 41
1.0
 10
298.3316364586659
 20
104.6940646527228
 30
0.0
 41
0.9873671112638164
 10
298.3352563965622
 20
104.6999744105451
 30
0.0
 41
0.9771166126572365
  0
SPLINE
  5
31C
330
240
100
AcDbEntity
  8
SCHRAUBE_ZUGENTL
  6
Continuous
 62
     7
100
AcDbSpline
210
0.0
220
0.0
230
1.0
 70
    12
 71
     2
 72
    10
 73
     7
 74
     0
 42
0.0000000044703816
 43
0.0000000001
 40
0.0
 40
0.0
 40
0.0
 40
0.4172286618419484
 40
0.4172286618419484
 40
0.8780803427635423
 40
0.8780803427635423
 40
1.0
 40
1.0
 40
1.0
 10
298.5852846591419
 20
107.2859680761153
 30
0.0
 41
0.9770374584699577
 10
298.6243455590336
 20
107.2219614400688
 30
0.0
 41
0.8787070899078633
 10
298.6615237469757
 20
106.6424592082908
 30
0.0
 41
1.0
 10
298.7031904136423
 20
105.9929943564348
 30
0.0
 41
0.8660254037844387
 10
298.7448570803091
 20
105.3435295045789
 30
0.0
 41
1.0
 10
298.7547540950421
 20
105.1892631876
 30
0.0
 41
0.9645566295509016
 10
298.7658240081283
 20
105.0646696843561
 30
0.0
 41
0.9478665532975293
  0
SPLINE
  5
31D
330
240
100
AcDbEntity
  8
SCHRAUBE_ZUGENTL
  6
Continuous
 62
     7
100
AcDbSpline
210
0.0
220
0.0
230
1.0
 70
    12
 71
     2
 72
    12
 73
     9
 74
     0
 42
0.0000000037590581
 43
0.0000000001
 40
0.0
 40
0.0
 40
0.0
 40
0.0316252811638017
 40
0.0316252811638017
 40
0.3649230465596783
 40
0.3649230465596783
 40
0.6982208119555485
 40
0.6982208119555485
 40
1.0
 40
1.0
 40
1.0
 10
298.1923219846649
 20
107.2859389728479
 30
0.0
 41
0.9769878209982594
 10
298.1959659815739
 20
107.2919240601468
 30
0.0
 41
0.9872876907257646
 10
298.1994339701722
 20
107.2919240601468
 30
0.0
 41
1.0
 10
298.2411006368388
 20
107.2919240601468
 30
0.0
 41
0.8660254037844387
 10
298.2827673035056
 20
106.6424592082908
 30
0.0
 41
1.0
 10
298.3244339701722
 20
105.9929943564349
 30
0.0
 41
0.8660254037844387
 10
298.3661006368389
 20
105.3435295045788
 30
0.0
 41
1.0
 10
298.4032831043153
 20
104.7639605670293
 30
0.0
 41
0.8786948216814672
 10
298.4423468308791
 20
104.7000089976913
 30
0.0
 41
0.977057352056232
  0
SPLINE
  5
31E
330
240
100
AcDbEntity
  8
SCHRAUBE_ZUGENTL
  6
Continuous
 62
     7
100
AcDbSpline
210
0.0
220
0.0
230
1.0
 70
    12
 71
     2
 72
    12
 73
     9
 74
     0
 42
0.0000000042097788
 43
0.0000000001
 40
0.0
 40
0.0
 40
0.0
 40
0.0382560112384648
 40
0.0382560112384648
 40
0.4450082638755998
 40
0.4450082638755998
 40
0.8517605165127425
 40
0.8517605165127425
 40
1.0
 40
1.0
 40
1.0
 10
298.6923866684356
 20
107.2860447628887
 30
0.0
 41
0.9771689824577977
 10
298.6959968377641
 20
107.2919240601468
 30
0.0
 41
0.9873993724060245
 10
298.6994339701722
 20
107.2919240601468
 30
0.0
 41
1.0
 10
298.7411006368389
 20
107.2919240601468
 30
0.0
 41
0.8660254037844387
 10
298.7827673035056
 20
106.6424592082908
 30
0.0
 41
1.0
 10
298.8244339701722
 20
105.9929943564348
 30
0.0
 41
0.8660254037844387
 10
298.8661006368389
 20
105.3435295045789
 30
0.0
 41
1.0
 10
298.8799265433081
 20
105.1280229374554
 30
0.0
 41
0.9511734112973044
 10
298.895723717686
 20
104.9737607612203
 30
0.0
 41
0.9379361929929544
  0
SPLINE
  5
31F
330
240
100
AcDbEntity
  8
SCHRAUBE_ZUGENTL
  6
Continuous
 62
     7
100
AcDbSpline
210
0.0
220
0.0
230
1.0
 70
    12
 71
     2
 72
    12
 73
     9
 74
     0
 42
0.0000000032281995
 43
0.0000000001
 40
0.0
 40
0.0
 40
0.0
 40
0.0279653975040424
 40
0.0279653975040424
 40
0.3519769316693636
 40
0.3519769316693636
 40
0.6759884658346788
 40
0.6759884658346788
 40
1.0
 40
1.0
 40
1.0
 10
298.309073654882
 20
107.4872867033925
 30
0.0
 41
0.9788693962364683
 10
298.312371085631
 20
107.4929943564348
 30
0.0
 41
0.9884366683171838
 10
298.3155219598601
 20
107.4929943564348
 30
0.0
 41
1.0
 10
298.3571886265268
 20
107.4929943564348
 30
0.0
 41
0.8660254037844387
 10
298.3988552931935
 20
106.7429943564348
 30
0.0
 41
1.0
 10
298.4405219598602
 20
105.9929943564348
 30
0.0
 41
0.8660254037844387
 10
298.4821886265268
 20
105.2429943564348
 30
0.0
 41
1.0
 10
298.5238552931935
 20
104.4929943564348
 30
0.0
 41
0.8660254037844387
 10
298.5655219598601
 20
104.4929943564348
 30
0.0
 41
1.0
  0
SPLINE
  5
320
330
240
100
AcDbEntity
  8
SCHRAUBE_ZUGENTL
  6
Continuous
 62
     7
100
AcDbSpline
210
0.0
220
0.0
230
1.0
 70
    12
 71
     2
 72
    10
 73
     7
 74
     0
 42
0.0000000039137988
 43
0.0000000001
 40
0.0
 40
0.0
 40
0.0
 40
0.4526201075204939
 40
0.4526201075204939
 40
0.9052402150409877
 40
0.9052402150409877
 40
0.9999999999999999
 40
0.9999999999999999
 40
0.9999999999999999
 10
298.8155219598602
 20
107.4929943564348
 30
0.0
 41
1.0
 10
298.8571886265267
 20
107.4929943564348
 30
0.0
 41
0.8660254037844387
 10
298.8988552931935
 20
106.7429943564348
 30
0.0
 41
1.0
 10
298.9405219598602
 20
105.9929943564348
 30
0.0
 41
0.8660254037844387
 10
298.9821886265268
 20
105.2429943564348
 30
0.0
 41
1.0
 10
298.9899612048379
 20
105.1030879468355
 30
0.0
 41
0.971951303717141
 10
298.9985110620482
 20
104.9835893873392
 30
0.0
 41
0.9556470632548801
  0
LINE
  5
321
330
240
100
AcDbEntity
  8
SCHRAUBE_ZUGENTL
  6
Continuous
 62
     7
100
AcDbLine
 10
298.5655219599
 20
104.4929943564
 30
0.0
 11
298.712102424
 21
104.4929943564
 31
0.0
  0
LINE
  5
322
330
240
100
AcDbEntity
  8
SCHRAUBE_ZUGENTL
  6
Continuous
 62
     7
100
AcDbLine
 10
298.1658855195
 20
104.4929943564
 30
0.0
 11
298.212102424
 21
104.4929943564
 31
0.0
  0
LINE
  5
323
330
240
100
AcDbEntity
  8
SCHRAUBE_ZUGENTL
  6
Continuous
 62
     7
100
AcDbLine
 10
298.462102424
 20
107.4929943564
 30
0.0
 11
298.3155219599
 21
107.4929943564
 31
0.0
  0
ARC
  5
324
330
240
100
AcDbEntity
  8
SCHRAUBE_ZUGENTL
  6
Continuous
 62
     7
100
AcDbCircle
 10
631.2156061152
 20
-88.1826376931
 30
0.0
 40
384.2920678615833
100
AcDbArc
 50
149.8729233107
 51
149.9078401989
  0
ARC
  5
325
330
240
100
AcDbEntity
  8
SCHRAUBE_ZUGENTL
  6
Continuous
 62
     7
100
AcDbCircle
 10
661.5318288844
 20
-106.0491031123
 30
0.0
 40
419.9129869763939
100
AcDbArc
 50
149.8749689523
 51
149.90691857
  0
ARC
  5
326
330
240
100
AcDbEntity
  8
SCHRAUBE_ZUGENTL
  6
Continuous
 62
     7
100
AcDbCircle
 10
661.9278184054
 20
318.1215607756
 30
0.0
 40
420.0826553974402
100
AcDbArc
 50
210.0932913476
 51
210.1252471848
  0
ARC
  5
327
330
240
100
AcDbEntity
  8
SCHRAUBE_ZUGENTL
  6
Continuous
 62
     7
100
AcDbCircle
 10
298.38880611
 20
104.6655416617
 30
0.0
 40
0.0636976953156492
100
AcDbArc
 50
33.3039621308
 51
146.5217605389
  0
ARC
  5
328
330
240
100
AcDbEntity
  8
SCHRAUBE_ZUGENTL
  6
Continuous
 62
     7
100
AcDbCircle
 10
298.1388095187
 20
107.3204391055
 30
0.0
 40
0.0636923369070844
100
AcDbArc
 50
296.6795759769
 51
326.6675781239
  0
ARC
  5
329
330
240
100
AcDbEntity
  8
SCHRAUBE_ZUGENTL
  6
Continuous
 62
     7
100
AcDbCircle
 10
298.6388040697
 20
107.320449917
 30
0.0
 40
0.0636997930339915
100
AcDbArc
 50
213.5150870257
 51
326.7162726312
  0
ARC
  5
32A
330
240
100
AcDbEntity
  8
SCHRAUBE_ZUGENTL
  6
Continuous
 62
     7
100
AcDbCircle
 10
-63.4636686069
 20
-105.3014679916
 30
0.0
 40
418.4215309965443
100
AcDbArc
 50
30.0931099597
 51
30.1251812289
  0
ARC
  5
32B
330
240
100
AcDbEntity
  8
SCHRAUBE_ZUGENTL
  6
Continuous
 62
     7
100
AcDbCircle
 10
-60.9476459558
 20
315.6833449652
 30
0.0
 40
415.2240231085979
100
AcDbArc
 50
329.8747026212
 51
329.9070173517
  0
ARC
  5
32C
330
240
100
AcDbEntity
  8
SCHRAUBE_ZUGENTL
  6
Continuous
 62
     7
100
AcDbCircle
 10
-66.3119502386
 20
319.0832476727
 30
0.0
 40
422.0026223495867
100
AcDbArc
 50
329.8750692949
 51
329.8950381045
  0
LINE
  5
32D
330
240
100
AcDbEntity
  8
SCHRAUBE_S7_SCHI
  6
Continuous
 62
     7
100
AcDbLine
 10
208.8514819841
 20
107.2541917915
 30
0.0
 11
208.925604907
 21
107.5752534438
 31
0.0
  0
SPLINE
  5
32E
330
240
100
AcDbEntity
  8
SCHRAUBE_S7_SCHI
  6
Continuous
 62
     7
100
AcDbSpline
210
0.0
220
0.0
230
1.0
 70
     8
 71
     3
 72
    12
 73
     8
 74
     0
 42
0.0000000242263886
 43
0.0000000001
 40
0.0
 40
0.0
 40
0.0
 40
0.0
 40
0.4450779680190509
 40
0.4450779680190509
 40
0.8901559360381022
 40
0.8901559360381022
 40
1.0
 40
1.0
 40
1.0
 40
1.0
 10
208.9256049070367
 20
107.5752534437916
 30
0.0
 10
208.9129409061548
 20
107.4683032709072
 30
0.0
 10
208.9046768934122
 20
107.3814504298778
 30
0.0
 10
208.8967833989093
 20
107.246994986435
 30
0.0
 10
208.8973504980291
 20
107.2010803769204
 30
0.0
 10
208.9036493408429
 20
107.1725502343717
 30
0.0
 10
208.9051939305632
 20
107.1682770987795
 30
0.0
 10
208.9070451985805
 20
107.1653485641623
 30
0.0
  0
SPLINE
  5
32F
330
240
100
AcDbEntity
  8
SCHRAUBE_S7_SCHI
  6
Continuous
 62
     7
100
AcDbSpline
210
0.0
220
0.0
230
1.0
 70
     8
 71
     3
 72
    10
 73
     6
 74
     0
 42
0.0000002463117853
 43
0.0000000001
 40
0.0
 40
0.0
 40
0.0
 40
0.0
 40
0.8373278913321873
 40
0.8373278913321873
 40
1.0
 40
1.0
 40
1.0
 40
1.0
 10
208.9105978668228
 20
107.1615915232345
 30
0.0
 10
208.9160587716555
 20
107.1582075024433
 30
0.0
 10
208.9234206373346
 20
107.1629137570348
 30
0.0
 10
208.9346431901047
 20
107.1776632255184
 30
0.0
 10
208.9365465405321
 20
107.180366842065
 30
0.0
 10
208.9385254877095
 20
107.1833705027787
 30
0.0
  0
LINE
  5
330
330
240
100
AcDbEntity
  8
SCHRAUBE_S7_SCHI
  6
Continuous
 62
     7
100
AcDbLine
 10
209.5825729107
 20
110.420894502
 30
0.0
 11
209.1238433784
 21
108.4339185999
 31
0.0
  0
LINE
  5
331
330
240
100
AcDbEntity
  8
SCHRAUBE_S7_SCHI
  6
Continuous
 62
     7
100
AcDbLine
 10
208.925604907
 20
107.5752534438
 30
0.0
 11
209.1238433784
 21
108.4339185999
 31
0.0
  0
SPLINE
  5
332
330
240
100
AcDbEntity
  8
SCHRAUBE_S7_SCHI
  6
Continuous
 62
     7
100
AcDbSpline
210
0.0
220
0.0
230
1.0
 70
    12
 71
     2
 72
    12
 73
     9
 74
     0
 42
0.0000000023543753
 43
0.0000000001
 40
0.0
 40
0.0
 40
0.0
 40
0.0653581708492944
 40
0.0653581708492944
 40
0.3769054472328614
 40
0.3769054472328614
 40
0.6884527236164307
 40
0.6884527236164307
 40
1.0
 40
1.0
 40
1.0
 10
210.1445488587959
 20
110.7570369033307
 30
0.0
 41
0.9555805420688833
 10
210.1717749836052
 20
110.7980185391626
 30
0.0
 41
0.9718940423727498
 10
210.1871053206343
 20
110.7944792519833
 30
0.0
 41
1.0
 10
210.2691148010871
 20
110.7755458715761
 30
0.0
 41
0.8660254037844387
 10
210.1261732271959
 20
109.7822424263836
 30
0.0
 41
1.0
 10
209.9832316533048
 20
108.7889389811911
 30
0.0
 41
0.8660254037844387
 10
209.8402900794137
 20
107.7956355359985
 30
0.0
 41
1.0
 10
209.6973485055226
 20
106.802332090806
 30
0.0
 41
0.8660254037844387
 10
209.7793579859754
 20
106.7833987103987
 30
0.0
 41
1.0
  0
SPLINE
  5
333
330
240
100
AcDbEntity
  8
SCHRAUBE_S7_SCHI
  6
Continuous
 62
     7
100
AcDbSpline
210
0.0
220
0.0
230
1.0
 70
    12
 71
     2
 72
    12
 73
     9
 74
     0
 42
0.0000000023535607
 43
0.0000000001
 40
0.0
 40
0.0
 40
0.0
 40
0.0661649042927731
 40
0.0661649042927731
 40
0.3774432695285154
 40
0.3774432695285154
 40
0.6887216347642577
 40
0.6887216347642577
 40
1.0
 40
1.0
 40
1.0
 10
211.1279283717651
 20
110.5287262498316
 30
0.0
 41
0.9551513443725462
 10
211.155680175696
 20
110.5708661272256
 30
0.0
 41
0.9715225427583049
 10
211.1712190860674
 20
110.567278687096
 30
0.0
 41
1.0
 10
211.2532285665202
 20
110.5483453066888
 30
0.0
 41
0.8660254037844387
 10
211.1102869926291
 20
109.5550418614962
 30
0.0
 41
1.0
 10
210.9673454187379
 20
108.5617384163037
 30
0.0
 41
0.8660254037844387
 10
210.8244038448468
 20
107.5684349711112
 30
0.0
 41
1.0
 10
210.6814622709557
 20
106.5751315259187
 30
0.0
 41
0.8660254037844387
 10
210.7634717514085
 20
106.5561981455114
 30
0.0
 41
1.0
  0
SPLINE
  5
334
330
240
100
AcDbEntity
  8
SCHRAUBE_S7_SCHI
  6
Continuous
 62
     7
100
AcDbSpline
210
0.0
220
0.0
230
1.0
 70
    12
 71
     2
 72
    12
 73
     9
 74
     0
 42
0.0000000023526139
 43
0.0000000001
 40
0.0
 40
0.0
 40
0.0
 40
0.0670899903598329
 40
0.0670899903598329
 40
0.3780599935732228
 40
0.3780599935732228
 40
0.6890299967866127
 40
0.6890299967866127
 40
1.0
 40
1.0
 40
1.0
 10
212.1111931130933
 20
110.3002300842496
 30
0.0
 41
0.9546633532708125
 10
212.1395541278617
 20
110.3437209275935
 30
0.0
 41
0.971095751115272
 10
212.1553328515004
 20
110.3400781222088
 30
0.0
 41
1.0
 10
212.2373423319532
 20
110.3211447418015
 30
0.0
 41
0.8660254037844387
 10
212.0944007580621
 20
109.327841296609
 30
0.0
 41
1.0
 10
211.951459184171
 20
108.3345378514164
 30
0.0
 41
0.8660254037844387
 10
211.8085176102799
 20
107.3412344062239
 30
0.0
 41
1.0
 10
211.6655760363888
 20
106.3479309610314
 30
0.0
 41
0.8660254037844387
 10
211.7475855168416
 20
106.3289975806241
 30
0.0
 41
1.0
  0
SPLINE
  5
335
330
240
100
AcDbEntity
  8
SCHRAUBE_S7_SCHI
  6
Continuous
 62
     7
100
AcDbSpline
210
0.0
220
0.0
230
1.0
 70
    12
 71
     2
 72
    12
 73
     9
 74
     0
 42
0.0000000023541968
 43
0.0000000001
 40
0.0
 40
0.0
 40
0.0
 40
0.3114880601886289
 40
0.3114880601886289
 40
0.6229761203772579
 40
0.6229761203772579
 40
0.9344641805658869
 40
0.9344641805658869
 40
1.0
 40
1.0
 40
1.0
 10
210.1968490212822
 20
110.7922297414399
 30
0.0
 41
1.0
 10
210.2788585017349
 20
110.7732963610326
 30
0.0
 41
0.8660254037844387
 10
210.1359169278438
 20
109.7799929158401
 30
0.0
 41
1.0
 10
209.9929753539527
 20
108.7866894706476
 30
0.0
 41
0.8660254037844387
 10
209.8500337800616
 20
107.7933860254551
 30
0.0
 41
1.0
 10
209.7070922061705
 20
106.8000825802626
 30
0.0
 41
0.8660254037844387
 10
209.7891016866232
 20
106.7811491998553
 30
0.0
 41
1.0
 10
209.8044779084181
 20
106.7775993193432
 30
0.0
 41
0.9718122905223905
 10
209.8318193455116
 20
106.818834423143
 30
0.0
 41
0.9554857396231687
  0
SPLINE
  5
336
330
240
100
AcDbEntity
  8
SCHRAUBE_S7_SCHI
  6
Continuous
 62
     7
100
AcDbSpline
210
0.0
220
0.0
230
1.0
 70
    12
 71
     2
 72
    12
 73
     9
 74
     0
 42
0.0000000024215429
 43
0.0000000001
 40
0.0
 40
0.0
 40
0.0
 40
0.261428856779016
 40
0.261428856779016
 40
0.5947005734536063
 40
0.5947005734536063
 40
0.9279722901281965
 40
0.9279722901281965
 40
0.9999999999999999
 40
0.9999999999999999
 40
0.9999999999999999
 10
211.2031564307619
 20
110.5099497982139
 30
0.0
 41
0.9546901451005665
 10
211.2285399502819
 20
110.3068250363666
 30
0.0
 41
0.8949060968163006
 10
211.1200306932769
 20
109.5527923509528
 30
0.0
 41
1.0
 10
210.9770891193858
 20
108.5594889057603
 30
0.0
 41
0.8660254037844387
 10
210.8341475454947
 20
107.5661854605678
 30
0.0
 41
1.0
 10
210.6912059716036
 20
106.5728820153753
 30
0.0
 41
0.8660254037844387
 10
210.7732154520563
 20
106.553948634968
 30
0.0
 41
1.0
 10
210.7890227079899
 20
106.5502992423839
 30
0.0
 41
0.9710449976292809
 10
210.817456545529
 20
106.5939521880747
 30
0.0
 41
0.9546056838438723
  0
SPLINE
  5
337
330
240
100
AcDbEntity
  8
SCHRAUBE_S7_SCHI
  6
Continuous
 62
     7
100
AcDbSpline
210
0.0
220
0.0
230
1.0
 70
    12
 71
     2
 72
    12
 73
     9
 74
     0
 42
0.0000000024224398
 43
0.0000000001
 40
0.0
 40
0.0
 40
0.0
 40
0.2635413148181202
 40
0.2635413148181202
 40
0.5971223204750389
 40
0.5971223204750389
 40
0.9307033261319576
 40
0.9307033261319576
 40
1.0
 40
1.0
 40
1.0
 10
212.1869235814724
 20
110.2854362305701
 30
0.0
 41
0.955552969212397
 10
212.2135208821362
 20
110.0856504257921
 30
0.0
 41
0.8941551208248677
 10
212.10414445871
 20
109.3255917860655
 30
0.0
 41
1.0
 10
211.9612028848189
 20
108.332288340873
 30
0.0
 41
0.8660254037844387
 10
211.8182613109278
 20
107.3389848956805
 30
0.0
 41
1.0
 10
211.6753197370367
 20
106.345681450488
 30
0.0
 41
0.8660254037844387
 10
211.7573292174894
 20
106.3267480700807
 30
0.0
 41
1.0
 10
211.7725054557102
 20
106.3232443594146
 30
0.0
 41
0.9721686974284715
 10
211.7993456973851
 20
106.3633802794436
 30
0.0
 41
0.9559005034567508
  0
SPLINE
  5
338
330
240
100
AcDbEntity
  8
SCHRAUBE_S7_SCHI
  6
Continuous
 62
     7
100
AcDbSpline
210
0.0
220
0.0
230
1.0
 70
    12
 71
     2
 72
     8
 73
     5
 74
     0
 42
0.000000009515146
 43
0.0000000001
 40
0.0
 40
0.0
 40
0.0
 40
0.1326881682312177
 40
0.1326881682312177
 40
1.0
 40
1.0
 40
1.0
 10
209.1238433783987
 20
108.4339185998512
 30
0.0
 41
0.9652784565161308
 10
209.1112065148048
 20
108.3246501062146
 30
0.0
 41
0.9795035152176974
 10
209.0994786285854
 20
108.2232413625647
 30
0.0
 41
1.0
 10
209.0127748182802
 20
107.4735304335685
 30
0.0
 41
0.8660254037844387
 10
209.094784298733
 20
107.4545970531612
 30
0.0
 41
1.0
  0
SPLINE
  5
339
330
240
100
AcDbEntity
  8
SCHRAUBE_S7_SCHI
  6
Continuous
 62
     7
100
AcDbSpline
210
0.0
220
0.0
230
1.0
 70
    12
 71
     2
 72
    10
 73
     7
 74
     0
 42
0.0000000032687418
 43
0.0000000001
 40
0.0
 40
0.0
 40
0.0
 40
0.2689240852562668
 40
0.2689240852562668
 40
0.6344620426281323
 40
0.6344620426281323
 40
1.0
 40
1.0
 40
1.0
 10
210.2904869005361
 20
110.2007326734996
 30
0.0
 41
0.9478977258872531
 10
210.3182817823918
 20
110.0253541434652
 30
0.0
 41
0.9014356922222586
 10
210.2570000146288
 20
109.4954626556698
 30
0.0
 41
1.0
 10
210.1702962043236
 20
108.7457517266736
 30
0.0
 41
0.8660254037844387
 10
210.0835923940185
 20
107.9960407976774
 30
0.0
 41
1.0
 10
209.9968885837133
 20
107.2463298686812
 30
0.0
 41
0.8660254037844387
 10
210.0788980641661
 20
107.2273964882739
 30
0.0
 41
1.0
  0
SPLINE
  5
33A
330
240
100
AcDbEntity
  8
SCHRAUBE_S7_SCHI
  6
Continuous
 62
     7
100
AcDbSpline
210
0.0
220
0.0
230
1.0
 70
    12
 71
     2
 72
    10
 73
     7
 74
     0
 42
0.0000000032779233
 43
0.0000000001
 40
0.0
 40
0.0
 40
0.0
 40
0.2643150599891285
 40
0.2643150599891285
 40
0.6321575299945639
 40
0.6321575299945639
 40
1.0
 40
1.0
 40
1.0
 10
211.2757869731007
 20
109.9655208806941
 30
0.0
 41
0.9458116446371077
 10
211.3008158311384
 20
109.7844940766442
 30
0.0
 41
0.9037318789339033
 10
211.2411137800619
 20
109.2682620907825
 30
0.0
 41
1.0
 10
211.1544099697567
 20
108.5185511617863
 30
0.0
 41
0.8660254037844387
 10
211.0677061594516
 20
107.7688402327901
 30
0.0
 41
1.0
 10
210.9810023491464
 20
107.0191293037939
 30
0.0
 41
0.8660254037844387
 10
211.0630118295992
 20
107.0001959233866
 30
0.0
 41
1.0
  0
SPLINE
  5
33B
330
240
100
AcDbEntity
  8
SCHRAUBE_S7_SCHI
  6
Continuous
 62
     7
100
AcDbSpline
210
0.0
220
0.0
230
1.0
 70
    12
 71
     2
 72
    10
 73
     7
 74
     0
 42
0.0000000032718239
 43
0.0000000001
 40
0.0
 40
0.0
 40
0.0
 40
0.2673570153418943
 40
0.2673570153418943
 40
0.6336785076709457
 40
0.6336785076709457
 40
1.0
 40
1.0
 40
1.0
 10
212.2591296414047
 20
109.7436504593207
 30
0.0
 41
0.9471678151546247
 10
212.2859690750622
 20
109.5662816794306
 30
0.0
 41
0.902219637870298
 10
212.2252275454949
 20
109.0410615258952
 30
0.0
 41
1.0
 10
212.1385237351898
 20
108.291350596899
 30
0.0
 41
0.8660254037844387
 10
212.0518199248847
 20
107.5416396679028
 30
0.0
 41
1.0
 10
211.9651161145795
 20
106.7919287389066
 30
0.0
 41
0.8660254037844387
 10
212.0471255950323
 20
106.7729953584993
 30
0.0
 41
1.0
  0
SPLINE
  5
33C
330
240
100
AcDbEntity
  8
SCHRAUBE_S7_SCHI
  6
Continuous
 62
     7
100
AcDbSpline
210
0.0
220
0.0
230
1.0
 70
    12
 71
     2
 72
    10
 73
     7
 74
     0
 42
0.0000000032741752
 43
0.0000000001
 40
0.0
 40
0.0
 40
0.0
 40
0.3669124029136696
 40
0.3669124029136696
 40
0.733824805827339
 40
0.733824805827339
 40
1.0
 40
1.0
 40
1.0
 10
209.8973089430914
 20
110.3482319635647
 30
0.0
 41
1.0
 10
209.9793184235442
 20
110.3292985831574
 30
0.0
 41
0.8660254037844387
 10
209.8926146132391
 20
109.5795876541612
 30
0.0
 41
1.0
 10
209.8059108029339
 20
108.829876725165
 30
0.0
 41
0.8660254037844387
 10
209.7192069926288
 20
108.0801657961688
 30
0.0
 41
1.0
 10
209.6588707455209
 20
107.5584500409762
 30
0.0
 41
0.9028086434835735
 10
209.6849998740347
 20
107.3796281285763
 30
0.0
 41
0.9466314799310805
  0
SPLINE
  5
33D
330
240
100
AcDbEntity
  8
SCHRAUBE_S7_SCHI
  6
Continuous
 62
     7
100
AcDbSpline
210
0.0
220
0.0
230
1.0
 70
    12
 71
     2
 72
    10
 73
     7
 74
     0
 42
0.0000000032773572
 43
0.0000000001
 40
0.0
 40
0.0
 40
0.0
 40
0.3677029164432291
 40
0.3677029164432291
 40
0.7354058328864581
 40
0.7354058328864581
 40
1.0
 40
1.0
 40
1.0
 10
210.8814227085245
 20
110.1210313986774
 30
0.0
 41
1.0
 10
210.9634321889773
 20
110.1020980182701
 30
0.0
 41
0.8660254037844387
 10
210.8767283786722
 20
109.3523870892739
 30
0.0
 41
1.0
 10
210.790024568367
 20
108.6026761602777
 30
0.0
 41
0.8660254037844387
 10
210.7033207580619
 20
107.8529652312815
 30
0.0
 41
1.0
 10
210.6435238349919
 20
107.335912905806
 30
0.0
 41
0.9035936482557033
 10
210.6687164100329
 20
107.1552105708459
 30
0.0
 41
0.9459327739255124
  0
SPLINE
  5
33E
330
240
100
AcDbEntity
  8
SCHRAUBE_S7_SCHI
  6
Continuous
 62
     7
100
AcDbSpline
210
0.0
220
0.0
230
1.0
 70
    12
 71
     2
 72
    10
 73
     7
 74
     0
 42
0.0000000032780686
 43
0.0000000001
 40
0.0
 40
0.0
 40
0.0
 40
0.3678782448886403
 40
0.3678782448886403
 40
0.7357564897772807
 40
0.7357564897772807
 40
0.9999999999999999
 40
0.9999999999999999
 40
0.9999999999999999
 10
211.8655364739576
 20
109.8938308337901
 30
0.0
 41
1.0
 10
211.9475459544104
 20
109.8748974533828
 30
0.0
 41
0.8660254037844387
 10
211.8608421441052
 20
109.1251865243866
 30
0.0
 41
1.0
 10
211.7741383338001
 20
108.3754755953904
 30
0.0
 41
0.8660254037844387
 10
211.6874345234949
 20
107.6257646663942
 30
0.0
 41
1.0
 10
211.6277567768147
 20
107.1097428359053
 30
0.0
 41
0.9037672978042298
 10
211.6527437435254
 20
106.9286332135732
 30
0.0
 41
0.9457806994742931
  0
LINE
  5
33F
330
240
100
AcDbEntity
  8
SCHRAUBE_S7_SCHI
  6
Continuous
 62
     7
100
AcDbLine
 10
211.7475855168
 20
106.3289975806
 30
0.0
 11
211.7573292175
 21
106.3267480701
 31
0.0
  0
LINE
  5
340
330
240
100
AcDbEntity
  8
SCHRAUBE_S7_SCHI
  6
Continuous
 62
     7
100
AcDbLine
 10
210.7634717514
 20
106.5561981455
 30
0.0
 11
210.7732154521
 21
106.553948635
 31
0.0
  0
LINE
  5
341
330
240
100
AcDbEntity
  8
SCHRAUBE_S7_SCHI
  6
Continuous
 62
     7
100
AcDbLine
 10
209.779357986
 20
106.7833987104
 30
0.0
 11
209.7891016866
 21
106.7811491999
 31
0.0
  0
LINE
  5
342
330
240
100
AcDbEntity
  8
SCHRAUBE_S7_SCHI
  6
Continuous
 62
     7
100
AcDbLine
 10
210.1968490213
 20
110.7922297414
 30
0.0
 11
210.1871053206
 21
110.794479252
 31
0.0
  0
LINE
  5
343
330
240
100
AcDbEntity
  8
SCHRAUBE_S7_SCHI
  6
Continuous
 62
     7
100
AcDbLine
 10
211.1809627867
 20
110.5650291766
 30
0.0
 11
211.1712190861
 21
110.5672786871
 31
0.0
  0
LINE
  5
344
330
240
100
AcDbEntity
  8
SCHRAUBE_S7_SCHI
  6
Continuous
 62
     7
100
AcDbLine
 10
212.1650765521
 20
110.3378286117
 30
0.0
 11
212.1553328515
 21
110.3400781222
 31
0.0
  0
LINE
  5
345
330
240
100
AcDbEntity
  8
SCHRAUBE_S7_SCHI
  6
Continuous
 62
     7
100
AcDbLine
 10
208.8514819841
 20
107.2541917915
 30
0.0
 11
208.9028811713
 21
107.1719358974
 31
0.0
  0
ARC
  5
346
330
240
100
AcDbEntity
  8
SCHRAUBE_S7_SCHI
  6
Continuous
 62
     7
100
AcDbCircle
 10
125.8788723298
 20
95.2092594872
 30
0.0
 40
86.57078424643075
100
AcDbArc
 50
7.4154083555
 51
7.7804200416
  0
ARC
  5
347
330
240
100
AcDbEntity
  8
SCHRAUBE_S7_SCHI
  6
Continuous
 62
     7
100
AcDbCircle
 10
123.7534161381
 20
95.2840406153
 30
0.0
 40
87.72225460991552
100
AcDbArc
 50
7.4172218855
 51
7.7777400538
  0
ARC
  5
348
330
240
100
AcDbEntity
  8
SCHRAUBE_S7_SCHI
  6
Continuous
 62
     7
100
AcDbCircle
 10
119.6233434664
 20
95.0925715985
 30
0.0
 40
90.89594706735453
100
AcDbArc
 50
7.4218894168
 51
7.7690619971
  0
ARC
  5
349
330
240
100
AcDbEntity
  8
SCHRAUBE_S7_SCHI
  6
Continuous
 62
     7
100
AcDbCircle
 10
132.8691897669
 20
161.7582523665
 30
0.0
 40
92.58837703420863
100
AcDbArc
 50
326.2753447204
 51
326.5767569044
  0
ARC
  5
34A
330
240
100
AcDbEntity
  8
SCHRAUBE_S7_SCHI
  6
Continuous
 62
     7
100
AcDbCircle
 10
136.744295929
 20
159.6147245196
 30
0.0
 40
89.119924806081
100
AcDbArc
 50
326.2681102292
 51
326.5804969303
  0
ARC
  5
34B
330
240
100
AcDbEntity
  8
SCHRAUBE_S7_SCHI
  6
Continuous
 62
     7
100
AcDbCircle
 10
139.6232978647
 20
158.1285378793
 30
0.0
 40
86.8449260133846
100
AcDbArc
 50
326.2646651758
 51
326.5842423709
  0
ARC
  5
34C
330
240
100
AcDbEntity
  8
SCHRAUBE_S7_SCHI
  6
Continuous
 62
     7
100
AcDbCircle
 10
290.9469496248
 20
54.1232632324
 30
0.0
 40
94.83341513657669
100
AcDbArc
 50
146.2802369988
 51
146.5750556314
  0
ARC
  5
34D
330
240
100
AcDbEntity
  8
SCHRAUBE_S7_SCHI
  6
Continuous
 62
     7
100
AcDbCircle
 10
283.8421513068
 20
58.409262509
 30
0.0
 40
87.48925255848471
100
AcDbArc
 50
146.2659249914
 51
146.5829799928
  0
ARC
  5
34E
330
240
100
AcDbEntity
  8
SCHRAUBE_S7_SCHI
  6
Continuous
 62
     7
100
AcDbCircle
 10
286.0709537633
 20
56.5030874302
 30
0.0
 40
91.34594791035435
100
AcDbArc
 50
146.2722649454
 51
146.5776364176
  0
ARC
  5
34F
330
240
100
AcDbEntity
  8
SCHRAUBE_S7_SCHI
  6
Continuous
 62
     7
100
AcDbCircle
 10
267.6264913159
 20
68.3760189012
 30
0.0
 40
70.35818438657208
100
AcDbArc
 50
146.2647761457
 51
146.5082687955
  0
ARC
  5
350
330
240
100
AcDbEntity
  8
SCHRAUBE_S7_SCHI
  6
Continuous
 62
     7
100
AcDbCircle
 10
306.3986466687
 20
123.2825205297
 30
0.0
 40
96.99438332288818
100
AcDbArc
 50
187.4272770485
 51
187.7513576753
  0
ARC
  5
351
330
240
100
AcDbEntity
  8
SCHRAUBE_S7_SCHI
  6
Continuous
 62
     7
100
AcDbCircle
 10
297.4466219148
 20
121.7377710892
 30
0.0
 40
86.97125155611016
100
AcDbArc
 50
187.4159719434
 51
187.7795404751
  0
ARC
  5
352
330
240
100
AcDbEntity
  8
SCHRAUBE_S7_SCHI
  6
Continuous
 62
     7
100
AcDbCircle
 10
304.3438228572
 20
122.2946446984
 30
0.0
 40
92.93609355654422
100
AcDbArc
 50
187.4232509211
 51
187.7616554551
  0
LINE
  5
353
330
240
100
AcDbEntity
  8
SCHRAUBE_S7_SCHI
  6
Continuous
 62
     7
100
AcDbLine
 10
209.8973089431
 20
110.3482319636
 30
0.0
 11
209.5825729107
 21
110.420894502
 31
0.0
  0
LINE
  5
354
330
240
100
AcDbEntity
  8
SCHRAUBE_S7_SCHI
  6
Continuous
 62
     7
100
AcDbLine
 10
210.8814227085
 20
110.1210313987
 30
0.0
 11
210.2826081353
 21
110.259278636
 31
0.0
  0
LINE
  5
355
330
240
100
AcDbEntity
  8
SCHRAUBE_S7_SCHI
  6
Continuous
 62
     7
100
AcDbLine
 10
211.865536474
 20
109.8938308338
 30
0.0
 11
211.2668046471
 21
110.0320589676
 31
0.0
  0
LINE
  5
356
330
240
100
AcDbEntity
  8
SCHRAUBE_S7_SCHI
  6
Continuous
 62
     7
100
AcDbLine
 10
212.2658855195
 20
109.8014029738
 30
0.0
 11
212.2508816554
 21
109.8048668888
 31
0.0
  0
LINE
  5
357
330
240
100
AcDbEntity
  8
SCHRAUBE_S7_SCHI
  6
Continuous
 62
     7
100
AcDbLine
 10
212.047125595
 20
106.7729953585
 30
0.0
 11
212.2658855195
 21
106.7224906505
 31
0.0
  0
LINE
  5
358
330
240
100
AcDbEntity
  8
SCHRAUBE_S7_SCHI
  6
Continuous
 62
     7
100
AcDbLine
 10
211.0630118296
 20
107.0001959234
 30
0.0
 11
211.6617440253
 21
106.8619677044
 31
0.0
  0
LINE
  5
359
330
240
100
AcDbEntity
  8
SCHRAUBE_S7_SCHI
  6
Continuous
 62
     7
100
AcDbLine
 10
210.0788980642
 20
107.2273964883
 30
0.0
 11
210.6776301592
 21
107.0891682925
 31
0.0
  0
LINE
  5
35A
330
240
100
AcDbEntity
  8
SCHRAUBE_S7_SCHI
  6
Continuous
 62
     7
100
AcDbLine
 10
209.0947842987
 20
107.4545970532
 30
0.0
 11
209.6935303507
 21
107.3163656352
 31
0.0
  0
LINE
  5
35B
330
240
100
AcDbEntity
  8
SEKUNDÄRKLEMME-D
  6
Continuous
 62
     7
100
AcDbLine
 10
298.1658855195
 20
104.2929943564
 30
0.0
 11
298.7658855195
 21
104.2929943564
 31
0.0
  0
LINE
  5
35C
330
240
100
AcDbEntity
  8
GEHÄUSEHÄLFTE_HI
  6
Continuous
 62
     7
100
AcDbLine
 10
212.2658855195
 20
113.4929943564
 30
0.0
 11
209.9658855195
 21
115.7929943564
 31
0.0
  0
LINE
  5
35D
330
240
100
AcDbEntity
  8
GEHÄUSEHÄLFTE_HI
  6
Continuous
 62
     7
100
AcDbLine
 10
209.9658855195
 20
115.7929943564
 30
0.0
 11
201.7658855195
 21
115.7929943564
 31
0.0
  0
LINE
  5
35E
330
240
100
AcDbEntity
  8
GEHÄUSEHÄLFTE_HI
  6
Continuous
 62
     7
100
AcDbLine
 10
201.7658855195
 20
199.8929943564
 30
0.0
 11
206.3368692004
 21
199.8929943564
 31
0.0
  0
LINE
  5
35F
330
240
100
AcDbEntity
  8
GEHÄUSEHÄLFTE_HI
  6
Continuous
 62
     7
100
AcDbLine
 10
206.3368692004
 20
199.8929943564
 30
0.0
 11
209.0792829791
 21
204.6429943564
 31
0.0
  0
LINE
  5
360
330
240
100
AcDbEntity
  8
GEHÄUSEHÄLFTE_HI
  6
Continuous
 62
     7
100
AcDbLine
 10
212.2658855195
 20
204.7929943564
 30
0.0
 11
212.2658855195
 21
218.4429943564
 31
0.0
  0
ARC
  5
361
330
240
100
AcDbEntity
  8
GEHÄUSEHÄLFTE_HI
  6
Continuous
 62
     7
100
AcDbCircle
 10
210.7158855195
 20
218.4429943564
 30
0.0
 40
1.549999999999996
100
AcDbArc
 50
0.0
 51
180.0
  0
LINE
  5
362
330
240
100
AcDbEntity
  8
GEHÄUSEHÄLFTE_HI
  6
Continuous
 62
     7
100
AcDbLine
 10
209.1658855195
 20
218.4429943564
 30
0.0
 11
209.1658855195
 21
217.8929943564
 31
0.0
  0
LINE
  5
363
330
240
100
AcDbEntity
  8
GEHÄUSEHÄLFTE_HI
  6
Continuous
 62
     7
100
AcDbLine
 10
209.1658855195
 20
217.8929943564
 30
0.0
 11
207.1658855195
 21
217.8929943564
 31
0.0
  0
LINE
  5
364
330
240
100
AcDbEntity
  8
GEHÄUSEHÄLFTE_HI
  6
Continuous
 62
     7
100
AcDbLine
 10
201.7658855195
 20
157.4929943564
 30
0.0
 11
206.1658855195
 21
157.4929943564
 31
0.0
  0
LINE
  5
365
330
240
100
AcDbEntity
  8
GEHÄUSEHÄLFTE_HI
  6
Continuous
 62
     7
100
AcDbLine
 10
206.1658855195
 20
157.4929943564
 30
0.0
 11
206.1658855195
 21
173.4929943564
 31
0.0
  0
LINE
  5
366
330
240
100
AcDbEntity
  8
GEHÄUSEHÄLFTE_HI
  6
Continuous
 62
     7
100
AcDbLine
 10
206.1658855195
 20
173.4929943564
 30
0.0
 11
201.7658855195
 21
173.4929943564
 31
0.0
  0
LINE
  5
367
330
240
100
AcDbEntity
  8
GEHÄUSEHÄLFTE_HI
  6
Continuous
 62
     7
100
AcDbLine
 10
276.7658855195
 20
99.2429943564
 30
0.0
 11
276.7658855195
 21
98.9929943564
 31
0.0
  0
LINE
  5
368
330
240
100
AcDbEntity
  8
GEHÄUSEHÄLFTE_HI
  6
Continuous
 62
     7
100
AcDbLine
 10
275.9658855195
 20
220.9429943564
 30
0.0
 11
275.9658855195
 21
100.0429943564
 31
0.0
  0
LINE
  5
369
330
240
100
AcDbEntity
  8
GEHÄUSEHÄLFTE_HI
  6
Continuous
 62
     7
100
AcDbLine
 10
275.9658855195
 20
100.0429943564
 30
0.0
 11
276.7658855195
 21
99.2429943564
 31
0.0
  0
LINE
  5
36A
330
240
100
AcDbEntity
  8
GEHÄUSEHÄLFTE_HI
  6
Continuous
 62
     7
100
AcDbLine
 10
276.7658855195
 20
221.7429943564
 30
0.0
 11
275.9658855195
 21
220.9429943564
 31
0.0
  0
LINE
  5
36B
330
240
100
AcDbEntity
  8
GEHÄUSEHÄLFTE_HI
  6
Continuous
 62
     7
100
AcDbLine
 10
275.9658855195
 20
143.4929943564
 30
0.0
 11
276.7658855195
 21
143.4929943564
 31
0.0
  0
LINE
  5
36C
330
240
100
AcDbEntity
  8
GEHÄUSEHÄLFTE_HI
  6
Continuous
 62
     7
100
AcDbLine
 10
275.9658855195
 20
173.4929943564
 30
0.0
 11
276.7658855195
 21
173.4929943564
 31
0.0
  0
LINE
  5
36D
330
240
100
AcDbEntity
  8
GEHÄUSEHÄLFTE_HI
  6
Continuous
 62
     7
100
AcDbLine
 10
206.6658855195
 20
222.9929943564
 30
0.0
 11
276.7658855195
 21
222.9929943564
 31
0.0
  0
LINE
  5
36E
330
240
100
AcDbEntity
  8
GEHÄUSEHÄLFTE_HI
  6
Continuous
 62
     7
100
AcDbLine
 10
276.7658855195
 20
221.9929943564
 30
0.0
 11
276.7658855195
 21
221.7429943564
 31
0.0
  0
LINE
  5
36F
330
240
100
AcDbEntity
  8
GEHÄUSEHÄLFTE_HI
  6
Continuous
 62
     7
100
AcDbLine
 10
276.7658855195
 20
222.9929943564
 30
0.0
 11
276.7658855195
 21
221.9929943564
 31
0.0
  0
LINE
  5
370
330
240
100
AcDbEntity
  8
GEHÄUSEHÄLFTE_HI
  6
Continuous
 62
     7
100
AcDbLine
 10
207.1658855195
 20
221.9929943564
 30
0.0
 11
207.1658855195
 21
217.8929943564
 31
0.0
  0
LINE
  5
371
330
240
100
AcDbEntity
  8
GEHÄUSEHÄLFTE_HI
  6
Continuous
 62
     7
100
AcDbLine
 10
276.7658855195
 20
221.9929943564
 30
0.0
 11
207.1658855195
 21
221.9929943564
 31
0.0
  0
ARC
  5
372
330
240
100
AcDbEntity
  8
GEHÄUSEHÄLFTE_HI
  6
Continuous
 62
     7
100
AcDbCircle
 10
206.6658855195
 20
222.4929943564
 30
0.0
 40
0.5000000000000004
100
AcDbArc
 50
90.0
 51
180.0
  0
LINE
  5
373
330
240
100
AcDbEntity
  8
GEHÄUSEHÄLFTE_HI
  6
Continuous
 62
     7
100
AcDbLine
 10
206.1658855195
 20
217.8929943564
 30
0.0
 11
206.1658855195
 21
222.4929943564
 31
0.0
  0
LINE
  5
374
330
240
100
AcDbEntity
  8
GEHÄUSEHÄLFTE_HI
  6
Continuous
 62
     7
100
AcDbLine
 10
207.1658855195
 20
217.8929943564
 30
0.0
 11
206.1658855195
 21
217.8929943564
 31
0.0
  0
LINE
  5
375
330
240
100
AcDbEntity
  8
GEHÄUSEHÄLFTE_HI
  6
Continuous
 62
     7
100
AcDbLine
 10
206.1658855195
 20
222.4929943564
 30
0.0
 11
207.1658855195
 21
221.9929943564
 31
0.0
  0
LINE
  5
376
330
240
100
AcDbEntity
  8
GEHÄUSEHÄLFTE_HI
  6
Continuous
 62
     7
100
AcDbLine
 10
206.6658855195
 20
222.9929943564
 30
0.0
 11
207.1658855195
 21
221.9929943564
 31
0.0
  0
LINE
  5
377
330
240
100
AcDbEntity
  8
GEHÄUSEHÄLFTE_HI
  6
Continuous
 62
     7
100
AcDbLine
 10
212.2658855195
 20
98.9929943564
 30
0.0
 11
212.2658855195
 21
113.4929943564
 31
0.0
  0
LINE
  5
378
330
240
100
AcDbEntity
  8
GEHÄUSEHÄLFTE_HI
  6
Continuous
 62
     7
100
AcDbLine
 10
212.2658855195
 20
98.9929943564
 30
0.0
 11
276.7658855195
 21
98.9929943564
 31
0.0
  0
LINE
  5
379
330
240
100
AcDbEntity
  8
GEHÄUSEHÄLFTE_HI
  6
Continuous
 62
     7
100
AcDbLine
 10
276.7658855195
 20
98.9929943564
 30
0.0
 11
276.7658855195
 21
97.9929943564
 31
0.0
  0
LINE
  5
37A
330
240
100
AcDbEntity
  8
GEHÄUSEHÄLFTE_HI
  6
Continuous
 62
     7
100
AcDbLine
 10
276.7658855195
 20
97.9929943564
 30
0.0
 11
212.2658855195
 21
97.9929943564
 31
0.0
  0
LINE
  5
37B
330
240
100
AcDbEntity
  8
GEHÄUSEHÄLFTE_HI
  6
Continuous
 62
     7
100
AcDbLine
 10
212.2658855195
 20
97.9929943564
 30
0.0
 11
212.2658855195
 21
98.9929943564
 31
0.0
  0
LINE
  5
37C
330
240
100
AcDbEntity
  8
GEHÄUSEHÄLFTE_HI
  6
Continuous
 62
     7
100
AcDbLine
 10
201.7658855195
 20
199.8929943564
 30
0.0
 11
201.7658855195
 21
173.4929943564
 31
0.0
  0
ARC
  5
37D
330
240
100
AcDbEntity
  8
GEHÄUSEHÄLFTE_HI
  6
Continuous
 62
     7
100
AcDbCircle
 10
201.7658855195
 20
174.4929943564
 30
0.0
 40
1.000000000000001
100
AcDbArc
 50
180.0
 51
270.0
  0
LINE
  5
37E
330
240
100
AcDbEntity
  8
GEHÄUSEHÄLFTE_HI
  6
Continuous
 62
     7
100
AcDbLine
 10
200.7658855195
 20
174.4929943564
 30
0.0
 11
200.7658855195
 21
198.8929943564
 31
0.0
  0
ARC
  5
37F
330
240
100
AcDbEntity
  8
GEHÄUSEHÄLFTE_HI
  6
Continuous
 62
     7
100
AcDbCircle
 10
201.7658855195
 20
198.8929943564
 30
0.0
 40
1.000000000000001
100
AcDbArc
 50
90.0
 51
180.0
  0
LINE
  5
380
330
240
100
AcDbEntity
  8
GEHÄUSEHÄLFTE_HI
  6
Continuous
 62
     7
100
AcDbLine
 10
201.7658855195
 20
157.4929943564
 30
0.0
 11
201.7658855195
 21
115.7929943564
 31
0.0
  0
ARC
  5
381
330
240
100
AcDbEntity
  8
GEHÄUSEHÄLFTE_HI
  6
Continuous
 62
     7
100
AcDbCircle
 10
201.7658855195
 20
116.7929943564
 30
0.0
 40
1.000000000000001
100
AcDbArc
 50
180.0
 51
270.0
  0
LINE
  5
382
330
240
100
AcDbEntity
  8
GEHÄUSEHÄLFTE_HI
  6
Continuous
 62
     7
100
AcDbLine
 10
200.7658855195
 20
116.7929943564
 30
0.0
 11
200.7658855195
 21
156.4929943564
 31
0.0
  0
ARC
  5
383
330
240
100
AcDbEntity
  8
GEHÄUSEHÄLFTE_HI
  6
Continuous
 62
     7
100
AcDbCircle
 10
201.7658855195
 20
156.4929943564
 30
0.0
 40
1.000000000000001
100
AcDbArc
 50
90.0
 51
180.0
  0
ARC
  5
384
330
240
100
AcDbEntity
  8
GEHÄUSEHÄLFTE_HI
  6
Continuous
 62
     7
100
AcDbCircle
 10
219.8221355195
 20
211.7929943564
 30
0.0
 40
7.756250000000025
100
AcDbArc
 50
166.9603964967
 51
193.0396035033
  0
LINE
  5
385
330
240
100
AcDbEntity
  8
GEHÄUSEHÄLFTE_HI
  6
Continuous
 62
     7
100
AcDbLine
 10
209.3390906002
 20
204.7929943564
 30
0.0
 11
212.2658855195
 21
204.7929943564
 31
0.0
  0
ARC
  5
386
330
240
100
AcDbEntity
  8
GEHÄUSEHÄLFTE_HI
  6
Continuous
 62
     7
100
AcDbCircle
 10
209.3390906002
 20
204.4929943564
 30
0.0
 40
0.3000000000000017
100
AcDbArc
 50
90.0
 51
150.0
  0
LINE
  5
387
330
240
100
AcDbEntity
  8
DECKEL
  6
Continuous
 62
     7
100
AcDbLine
 10
315.8658855195
 20
149.6884658777
 30
0.0
 11
315.8658855195
 21
98.9897814395
 31
0.0
  0
LINE
  5
388
330
240
100
AcDbEntity
  8
DECKEL
  6
Continuous
 62
     7
100
AcDbLine
 10
315.8658855195
 20
98.9897814395
 30
0.0
 11
315.8658855195
 21
97.9897814395
 31
0.0
  0
LINE
  5
389
330
240
100
AcDbEntity
  8
DECKEL
  6
Continuous
 62
     7
100
AcDbLine
 10
315.8658855195
 20
98.9897814395
 30
0.0
 11
316.6658855195
 21
98.9897814395
 31
0.0
  0
LINE
  5
38A
330
240
100
AcDbEntity
  8
DECKEL
  6
Continuous
 62
     7
100
AcDbLine
 10
315.8658855195
 20
162.0897814395
 30
0.0
 11
316.6658855195
 21
162.0897814395
 31
0.0
  0
LINE
  5
38B
330
240
100
AcDbEntity
  8
DECKEL
  6
Continuous
 62
     7
100
AcDbLine
 10
315.8658855195
 20
163.0897814395
 30
0.0
 11
316.6658855195
 21
163.0897814395
 31
0.0
  0
LINE
  5
38C
330
240
100
AcDbEntity
  8
DECKEL
  6
Continuous
 62
     7
100
AcDbLine
 10
315.8658855195
 20
97.9897814395
 30
0.0
 11
316.6658855195
 21
97.9897814395
 31
0.0
  0
LINE
  5
38D
330
240
100
AcDbEntity
  8
DECKEL
  6
Continuous
 62
     7
100
AcDbLine
 10
316.6658855195
 20
163.6897814395
 30
0.0
 11
315.8658855195
 21
163.6897814395
 31
0.0
  0
LINE
  5
38E
330
240
100
AcDbEntity
  8
DECKEL
  6
Continuous
 62
     7
100
AcDbLine
 10
315.8658855195
 20
163.6897814395
 30
0.0
 11
315.8658855195
 21
162.0897814395
 31
0.0
  0
ARC
  5
38F
330
240
100
AcDbEntity
  8
DECKEL
  6
Continuous
 62
     7
100
AcDbCircle
 10
317.2672437495
 20
172.782261669
 30
0.0
 40
0.9999999999985003
100
AcDbArc
 50
145.0
 51
233.0327642365
  0
LINE
  5
390
330
240
100
AcDbEntity
  8
DECKEL
  6
Continuous
 62
     7
100
AcDbLine
 10
317.6658855195
 20
162.0897814395
 30
0.0
 11
317.6658855195
 21
98.9897814395
 31
0.0
  0
LINE
  5
391
330
240
100
AcDbEntity
  8
DECKEL
  6
Continuous
 62
     7
100
AcDbLine
 10
316.6658855195
 20
97.9897814395
 30
0.0
 11
316.6658855195
 21
98.9897814395
 31
0.0
  0
LINE
  5
392
330
240
100
AcDbEntity
  8
DECKEL
  6
Continuous
 62
     7
100
AcDbLine
 10
316.6658855195
 20
98.9897814395
 30
0.0
 11
316.6658855195
 21
162.0897814395
 31
0.0
  0
LINE
  5
393
330
240
100
AcDbEntity
  8
DECKEL
  6
Continuous
 62
     7
100
AcDbLine
 10
316.6658855195
 20
162.0897814395
 30
0.0
 11
316.6658855195
 21
163.0897814395
 31
0.0
  0
ARC
  5
394
330
240
100
AcDbEntity
  8
DECKEL
  6
Continuous
 62
     7
100
AcDbCircle
 10
316.6658855195
 20
162.0897814395
 30
0.0
 40
1.000000000000001
100
AcDbArc
 50
0.0
 51
90.0
  0
LINE
  5
395
330
240
100
AcDbEntity
  8
DECKEL
  6
Continuous
 62
     7
100
AcDbLine
 10
317.6658855195
 20
162.0897814395
 30
0.0
 11
316.6658855195
 21
162.0897814395
 31
0.0
  0
LINE
  5
396
330
240
100
AcDbEntity
  8
DECKEL
  6
Continuous
 62
     7
100
AcDbLine
 10
317.6658855195
 20
98.9897814395
 30
0.0
 11
316.6658855195
 21
98.9897814395
 31
0.0
  0
ARC
  5
397
330
240
100
AcDbEntity
  8
DECKEL
  6
Continuous
 62
     7
100
AcDbCircle
 10
316.6658855195
 20
98.9897814395
 30
0.0
 40
1.000000000000001
100
AcDbArc
 50
270.0
 51
360.0
  0
LINE
  5
398
330
240
100
AcDbEntity
  8
DECKEL
  6
Continuous
 62
     7
100
AcDbLine
 10
317.6658855195
 20
180.345387271
 30
0.0
 11
317.6658855195
 21
175.0950279139
 31
0.0
  0
LINE
  5
399
330
240
100
AcDbEntity
  8
DECKEL
  6
Continuous
 62
     7
100
AcDbLine
 10
316.6658855195
 20
173.6668799071
 30
0.0
 11
316.4480917052
 21
173.3558381054
 31
0.0
  0
LINE
  5
39A
330
240
100
AcDbEntity
  8
DECKEL
  6
Continuous
 62
     7
100
AcDbLine
 10
317.6658855195
 20
175.0950279139
 30
0.0
 11
316.6658855195
 21
173.6668799071
 31
0.0
  0
LINE
  5
39B
330
240
100
AcDbEntity
  8
DECKEL
  6
Continuous
 62
     7
100
AcDbLine
 10
316.6658855195
 20
173.6668799071
 30
0.0
 11
316.6658855195
 21
180.5892261797
 31
0.0
  0
LINE
  5
39C
330
240
100
AcDbEntity
  8
DECKEL
  6
Continuous
 62
     7
100
AcDbLine
 10
317.6658855195
 20
171.2823551079
 30
0.0
 11
317.6658855195
 21
164.6897814395
 31
0.0
  0
ARC
  5
39D
330
240
100
AcDbEntity
  8
DECKEL
  6
Continuous
 62
     7
100
AcDbCircle
 10
316.6658855195
 20
164.6897814395
 30
0.0
 40
1.000000000000001
100
AcDbArc
 50
270.0
 51
360.0
  0
LINE
  5
39E
330
240
100
AcDbEntity
  8
DECKEL
  6
Continuous
 62
     7
100
AcDbLine
 10
316.6658855195
 20
163.6897814395
 30
0.0
 11
316.6658855195
 21
171.9832821454
 31
0.0
  0
LINE
  5
39F
330
240
100
AcDbEntity
  8
DECKEL
  6
Continuous
 62
     7
100
AcDbLine
 10
316.6658855195
 20
171.9832821454
 30
0.0
 11
316.6936673131
 21
171.9631096247
 31
0.0
  0
LINE
  5
3A0
330
240
100
AcDbEntity
  8
DECKEL
  6
Continuous
 62
     7
100
AcDbLine
 10
316.6936673131
 20
171.9631096247
 30
0.0
 11
317.6658855195
 21
171.2823551079
 31
0.0
  0
LINE
  5
3A1
330
240
100
AcDbEntity
  8
DECKEL
  6
Continuous
 62
     7
100
AcDbLine
 10
315.8658855195
 20
149.1884658777
 30
0.0
 11
314.7658855195
 21
149.1884658777
 31
0.0
  0
ARC
  5
3A2
330
240
100
AcDbEntity
  8
DECKEL
  6
Continuous
 62
     7
100
AcDbCircle
 10
314.7631680009
 20
177.8929943564
 30
0.0
 40
3.300000000000002
100
AcDbArc
 50
54.7895694167
 51
181.6701802863
  0
LINE
  5
3A3
330
240
100
AcDbEntity
  8
DECKEL
  6
Continuous
 62
     7
100
AcDbLine
 10
311.4645699577
 20
177.7968125004
 30
0.0
 11
311.4645699577
 21
152.9897814395
 31
0.0
  0
ARC
  5
3A4
330
240
100
AcDbEntity
  8
DECKEL
  6
Continuous
 62
     7
100
AcDbCircle
 10
314.7658855195
 20
152.9897814395
 30
0.0
 40
3.301315561749632
100
AcDbArc
 50
180.0
 51
270.0
  0
LINE
  5
3A5
330
240
100
AcDbEntity
  8
DECKEL
  6
Continuous
 62
     7
100
AcDbLine
 10
314.7658855195
 20
149.6884658777
 30
0.0
 11
315.8658855195
 21
149.6884658777
 31
0.0
  0
ARC
  5
3A6
330
240
100
AcDbEntity
  8
DECKEL
  6
Continuous
 62
     7
100
AcDbCircle
 10
314.7658855195
 20
152.9897814395
 30
0.0
 40
3.801315561749622
100
AcDbArc
 50
180.0
 51
270.0
  0
LINE
  5
3A7
330
240
100
AcDbEntity
  8
DECKEL
  6
Continuous
 62
     7
100
AcDbLine
 10
310.9645699577
 20
152.9897814395
 30
0.0
 11
310.9645699577
 21
177.7897814395
 31
0.0
  0
ARC
  5
3A8
330
240
100
AcDbEntity
  8
DECKEL
  6
Continuous
 62
     7
100
AcDbCircle
 10
314.8703035959
 20
177.9884866389
 30
0.0
 40
3.656536459687405
100
AcDbArc
 50
40.1335851537
 51
43.2890387108
  0
ARC
  5
3A9
330
240
100
AcDbEntity
  8
DECKEL
  6
Continuous
 62
     7
100
AcDbCircle
 10
314.7631680009
 20
177.8929943564
 30
0.0
 40
3.799999999999999
100
AcDbArc
 50
43.2294596858
 51
181.5564189201
  0
SPLINE
  5
3AA
330
240
100
AcDbEntity
  8
DECKEL
  6
Continuous
 62
     7
100
AcDbSpline
210
0.0
220
0.0
230
1.0
 70
     8
 71
     3
 72
    10
 73
     6
 74
     0
 42
0.0000000109626178
 43
0.0000000001
 40
0.0
 40
0.0
 40
0.0
 40
0.0
 40
0.4999999999999999
 40
0.4999999999999999
 40
1.0
 40
1.0
 40
1.0
 40
1.0
 10
317.5319109232522
 20
180.4956973033728
 30
0.0
 10
317.4524484892144
 20
180.5802290599042
 30
0.0
 10
317.3282066664256
 20
180.618535617044
 30
0.0
 10
317.019588101369
 20
180.6368748556469
 30
0.0
 10
316.8413307923261
 20
180.617130825045
 30
0.0
 10
316.6658855194678
 20
180.5892261796627
 30
0.0
  0
LINE
  5
3AB
330
240
100
AcDbEntity
  8
DECKEL
  6
Continuous
 62
     7
100
AcDbLine
 10
311.4645699577
 20
177.7968125004
 30
0.0
 11
310.9645699577
 21
177.7897814395
 31
0.0
  0
LINE
  5
3AC
330
240
100
AcDbEntity
  8
DECKEL
  6
Continuous
 62
     7
100
AcDbLine
 10
311.4645699577
 20
152.9897814395
 30
0.0
 11
310.9645699577
 21
152.9897814395
 31
0.0
  0
LINE
  5
3AD
330
240
100
AcDbEntity
  8
DECKEL
  6
Continuous
 62
     7
100
AcDbLine
 10
314.7658855195
 20
149.6884658777
 30
0.0
 11
314.7658855195
 21
149.1884658777
 31
0.0
  0
LINE
  5
3AE
330
240
100
AcDbEntity
  8
DECKEL
  6
Continuous
 62
     7
100
AcDbLine
 10
314.1658855195
 20
106.1897814395
 30
0.0
 11
314.1658855195
 21
103.7897814395
 31
0.0
  0
LINE
  5
3AF
330
240
100
AcDbEntity
  8
DECKEL
  6
Continuous
 62
     7
100
AcDbLine
 10
314.6658855195
 20
103.2897814395
 30
0.0
 11
314.6658855195
 21
106.6897814395
 31
0.0
  0
LINE
  5
3B0
330
240
100
AcDbEntity
  8
DECKEL
  6
Continuous
 62
     7
100
AcDbLine
 10
310.5658855195
 20
97.9897814395
 30
0.0
 11
311.0658855195
 21
97.9897814395
 31
0.0
  0
LINE
  5
3B1
330
240
100
AcDbEntity
  8
DECKEL
  6
Continuous
 62
     7
100
AcDbLine
 10
311.0658855195
 20
97.9897814395
 30
0.0
 11
311.3658855195
 21
97.9897814395
 31
0.0
  0
LINE
  5
3B2
330
240
100
AcDbEntity
  8
DECKEL
  6
Continuous
 62
     7
100
AcDbLine
 10
311.0658855195
 20
99.9897814395
 30
0.0
 11
311.0658855195
 21
97.9897814395
 31
0.0
  0
LINE
  5
3B3
330
240
100
AcDbEntity
  8
DECKEL
  6
Continuous
 62
     7
100
AcDbLine
 10
311.3658855195
 20
97.9897814395
 30
0.0
 11
315.8658855195
 21
97.9897814395
 31
0.0
  0
LINE
  5
3B4
330
240
100
AcDbEntity
  8
DECKEL
  6
Continuous
 62
     7
100
AcDbLine
 10
311.3658855195
 20
99.9897814395
 30
0.0
 11
311.3658855195
 21
97.9897814395
 31
0.0
  0
LINE
  5
3B5
330
240
100
AcDbEntity
  8
DECKEL
  6
Continuous
 62
     7
100
AcDbLine
 10
310.5658855195
 20
99.9897814395
 30
0.0
 11
311.0658855195
 21
99.9897814395
 31
0.0
  0
LINE
  5
3B6
330
240
100
AcDbEntity
  8
DECKEL
  6
Continuous
 62
     7
100
AcDbLine
 10
311.0658855195
 20
99.9897814395
 30
0.0
 11
311.3658855195
 21
99.9897814395
 31
0.0
  0
LINE
  5
3B7
330
240
100
AcDbEntity
  8
DECKEL
  6
Continuous
 62
     7
100
AcDbLine
 10
311.3658855195
 20
99.9897814395
 30
0.0
 11
315.8658855195
 21
99.9897814395
 31
0.0
  0
LINE
  5
3B8
330
240
100
AcDbEntity
  8
DECKEL
  6
Continuous
 62
     7
100
AcDbLine
 10
310.7185563342
 20
113.9897814395
 30
0.0
 11
310.5658855195
 21
113.9897814395
 31
0.0
  0
LINE
  5
3B9
330
240
100
AcDbEntity
  8
DECKEL
  6
Continuous
 62
     7
100
AcDbLine
 10
310.7185563342
 20
113.9897814395
 30
0.0
 11
311.8435473461
 21
113.9897814395
 31
0.0
  0
LINE
  5
3BA
330
240
100
AcDbEntity
  8
DECKEL
  6
Continuous
 62
     7
100
AcDbLine
 10
310.7185563342
 20
113.9929943564
 30
0.0
 11
310.7185563342
 21
113.9897814395
 31
0.0
  0
LINE
  5
3BB
330
240
100
AcDbEntity
  8
DECKEL
  6
Continuous
 62
     7
100
AcDbLine
 10
311.8435473461
 20
113.9897814395
 30
0.0
 11
313.9658855195
 21
113.9897814395
 31
0.0
  0
LINE
  5
3BC
330
240
100
AcDbEntity
  8
DECKEL
  6
Continuous
 62
     7
100
AcDbLine
 10
311.8435473461
 20
113.9929943564
 30
0.0
 11
311.8435473461
 21
113.9897814395
 31
0.0
  0
LINE
  5
3BD
330
240
100
AcDbEntity
  8
DECKEL
  6
Continuous
 62
     7
100
AcDbLine
 10
313.9658855195
 20
113.9897814395
 30
0.0
 11
315.8658855195
 21
113.9897814395
 31
0.0
  0
LINE
  5
3BE
330
240
100
AcDbEntity
  8
DECKEL
  6
Continuous
 62
     7
100
AcDbLine
 10
313.9658855195
 20
113.9929943564
 30
0.0
 11
313.9658855195
 21
113.9897814395
 31
0.0
  0
LINE
  5
3BF
330
240
100
AcDbEntity
  8
DECKEL
  6
Continuous
 62
     7
100
AcDbLine
 10
315.8658855195
 20
106.6897814395
 30
0.0
 11
314.6658855195
 21
106.6897814395
 31
0.0
  0
LINE
  5
3C0
330
240
100
AcDbEntity
  8
DECKEL
  6
Continuous
 62
     7
100
AcDbLine
 10
314.6658855195
 20
103.2897814395
 30
0.0
 11
315.8658855195
 21
103.2897814395
 31
0.0
  0
ARC
  5
3C1
330
240
100
AcDbEntity
  8
DECKEL
  6
Continuous
 62
     7
100
AcDbCircle
 10
314.6658855195
 20
103.7897814395
 30
0.0
 40
0.5000000000000004
100
AcDbArc
 50
180.0
 51
270.0
  0
ARC
  5
3C2
330
240
100
AcDbEntity
  8
DECKEL
  6
Continuous
 62
     7
100
AcDbCircle
 10
314.6658855195
 20
106.1897814395
 30
0.0
 40
0.5000000000000004
100
AcDbArc
 50
90.0
 51
180.0
  0
LINE
  5
3C3
330
240
100
AcDbEntity
  8
DECKEL
  6
Continuous
 62
     7
100
AcDbLine
 10
310.5658855195
 20
99.9897814395
 30
0.0
 11
310.5658855195
 21
97.9897814395
 31
0.0
  0
LINE
  5
3C4
330
240
100
AcDbEntity
  8
DECKEL
  6
Continuous
 62
     7
100
AcDbLine
 10
310.5658855195
 20
113.9929943564
 30
0.0
 11
310.5658855195
 21
113.9897814395
 31
0.0
  0
LINE
  5
3C5
330
240
100
AcDbEntity
  8
LICHTLEITER
  6
Continuous
 62
     7
100
AcDbLine
 10
317.6658855195
 20
216.9879943564
 30
0.0
 11
317.8608855195
 21
216.7929943564
 31
0.0
  0
LINE
  5
3C6
330
240
100
AcDbEntity
  8
LICHTLEITER
  6
Continuous
 62
     7
100
AcDbLine
 10
317.8608855195
 20
202.9929943564
 30
0.0
 11
317.8608855195
 21
216.7929943564
 31
0.0
  0
LINE
  5
3C7
330
240
100
AcDbEntity
  8
LICHTLEITER
  6
Continuous
 62
     7
100
AcDbLine
 10
317.6658855195
 20
202.7979943564
 30
0.0
 11
317.8608855195
 21
202.9929943564
 31
0.0
  0
ENDBLK
  5
3C9
330
240
100
AcDbEntity
  8
0
100
AcDbBlockEnd
  0
BLOCK
  5
3CE
330
3CD
100
AcDbEntity
  8
0
100
AcDbBlockBegin
  2
_Oblique
 70
     0
 71
     0
 10
0.0
 20
0.0
 30
0.0
  3
_Oblique
  1

  0
LINE
  5
3D0
330
3CD
100
AcDbEntity
  8
0
  6
ByBlock
 62
     0
370
    -2
100
AcDbLine
 10
-0.5
 20
-0.5
 30
0.0
 11
0.5
 21
0.5
 31
0.0
  0
ENDBLK
  5
3CF
330
3CD
100
AcDbEntity
  8
0
100
AcDbBlockEnd
  0
BLOCK
  5
3D2
330
3D1
100
AcDbEntity
  8
0
100
AcDbBlockBegin
  2
_Dot
 70
     0
 71
     0
 10
0.0
 20
0.0
 30
0.0
  3
_Dot
  1

  0
LWPOLYLINE
  5
3D4
330
3D1
100
AcDbEntity
  8
0
  6
ByBlock
 62
     0
100
AcDbPolyline
 90
        2
 70
     1
 43
0.5
 10
-0.25
 20
0.0
 42
1.0
 10
0.25
 20
0.0
 42
1.0
  0
LINE
  5
3D5
330
3D1
100
AcDbEntity
  8
0
  6
ByBlock
 62
     0
370
    -2
100
AcDbLine
 10
-0.5
 20
0.0
 30
0.0
 11
-1.0
 21
0.0
 31
0.0
  0
ENDBLK
  5
3D3
330
3D1
100
AcDbEntity
  8
0
100
AcDbBlockEnd
  0
BLOCK
  5
3D9
330
3D6
100
AcDbEntity
  8
0
100
AcDbBlockBegin
  2
_SE_FILLED
 70
     0
 71
     0
 10
0.0
 20
0.0
 30
0.0
  3
_SE_FILLED
  1

  0
SOLID
  5
3D7
330
3D6
100
AcDbEntity
  8
0
 62
     0
100
AcDbTrace
 10
0.0
 20
0.0
 30
0.0
 11
-1.0
 21
-0.1665
 31
0.0
 12
-1.0
 22
0.1665
 32
0.0
 13
0.0
 23
0.0
 33
0.0
  0
LINE
  5
3D8
330
3D6
100
AcDbEntity
  8
0
 62
     0
100
AcDbLine
 10
0.0
 20
0.0
 30
0.0
 11
-1.0
 21
0.0
 31
0.0
  0
ENDBLK
  5
3DA
330
3D6
100
AcDbEntity
  8
0
100
AcDbBlockEnd
  0
BLOCK
  5
3E4
330
3DD
100
AcDbEntity
  8
0
100
AcDbBlockBegin
  2
DMBLK6
 70
     0
 71
     0
 10
0.0
 20
0.0
 30
0.0
  3
DMBLK6
  1

  0
HATCH
  5
3DE
330
3DD
100
AcDbEntity
  8
Default
  6
Continuous
 62
     7
370
    30
100
AcDbHatch
 10
0.0
 20
0.0
 30
0.0
210
0.0
220
0.0
230
1.0
  2
SOLID
 70
     1
 71
     0
 91
        1
 92
        1
 93
        3
 72
     1
 10
186.2060332980544
 20
209.6429942446413
 11
187.0393666127613
 21
204.6429943564
 72
     1
 10
187.0393666127613
 20
204.6429943564
 11
187.8726999274682
 21
209.6429942446413
 72
     1
 10
187.8726999274682
 20
209.6429942446413
 11
186.2060332980544
 21
209.6429942446413
 97
        0
 75
     0
 76
     1
 98
        0
  0
HATCH
  5
3DF
330
3DD
100
AcDbEntity
  8
Default
  6
Continuous
 62
     7
370
    30
100
AcDbHatch
 10
0.0
 20
0.0
 30
0.0
210
0.0
220
0.0
230
1.0
  2
SOLID
 70
     1
 71
     0
 91
        1
 92
        1
 93
        3
 72
     1
 10
186.2060332980544
 20
217.9929940300646
 11
187.8726999274682
 21
217.9929940300646
 72
     1
 10
187.8726999274682
 20
217.9929940300646
 11
187.0393666127613
 21
222.9929939183059
 72
     1
 10
187.0393666127613
 20
222.9929939183059
 11
186.2060332980544
 21
217.9929940300646
 97
        0
 75
     0
 76
     1
 98
        0
  0
LINE
  5
3E0
330
3DD
100
AcDbEntity
  8
Default
  6
Continuous
 62
     7
370
    30
100
AcDbLine
 10
206.579283035
 20
204.6429943564
 30
0.0
 11
184.5393666686
 21
204.6429943564
 31
0.0
  0
LINE
  5
3E1
330
3DD
100
AcDbEntity
  8
Default
  6
Continuous
 62
     7
370
    30
100
AcDbLine
 10
204.1658855754
 20
222.9929943564
 30
0.0
 11
184.5393666686
 21
222.9929943564
 31
0.0
  0
LINE
  5
3E2
330
3DD
100
AcDbEntity
  8
Default
  6
Continuous
 62
     7
370
    30
100
AcDbLine
 10
187.0393666128
 20
204.6429943564
 30
0.0
 11
187.0393666128
 21
222.9929939183
 31
0.0
  0
TEXT
  5
3E3
330
3DD
100
AcDbEntity
  8
Default
  6
Continuous
 62
     7
370
    30
100
AcDbText
 10
185.7893666128
 20
211.2043577737
 30
0.0
 40
5.0
  1
18
 50
90.0
  7
SEACAD_seiso_ttf
 11
180.7893666128
 21
211.2043577737
 31
0.0
100
AcDbText
 73
     3
  0
ENDBLK
  5
3E5
330
3DD
100
AcDbEntity
  8
0
100
AcDbBlockEnd
  0
BLOCK
  5
3EE
330
3E7
100
AcDbEntity
  8
0
100
AcDbBlockBegin
  2
DMBLK7
 70
     0
 71
     0
 10
0.0
 20
0.0
 30
0.0
  3
DMBLK7
  1

  0
HATCH
  5
3E8
330
3E7
100
AcDbEntity
  8
Default
  6
Continuous
 62
     7
370
    30
100
AcDbHatch
 10
0.0
 20
0.0
 30
0.0
210
0.0
220
0.0
230
1.0
  2
SOLID
 70
     1
 71
     0
 91
        1
 92
        1
 93
        3
 72
     1
 10
172.7234721583778
 20
217.9929944681587
 11
174.3901387877916
 21
217.9929944681587
 72
     1
 10
174.3901387877916
 20
217.9929944681587
 11
173.5568054730847
 21
222.9929943564
 72
     1
 10
173.5568054730847
 20
222.9929943564
 11
172.7234721583778
 21
217.9929944681587
 97
        0
 75
     0
 76
     1
 98
        0
  0
HATCH
  5
3E9
330
3E7
100
AcDbEntity
  8
Default
  6
Continuous
 62
     7
370
    30
100
AcDbHatch
 10
0.0
 20
0.0
 30
0.0
210
0.0
220
0.0
230
1.0
  2
SOLID
 70
     1
 71
     0
 91
        1
 92
        1
 93
        3
 72
     1
 10
172.7234721583778
 20
102.9929942446413
 11
173.5568054730847
 21
97.99299435640002
 72
     1
 10
173.5568054730847
 20
97.99299435640002
 11
174.3901387877916
 21
102.9929942446413
 72
     1
 10
174.3901387877916
 20
102.9929942446413
 11
172.7234721583778
 21
102.9929942446413
 97
        0
 75
     0
 76
     1
 98
        0
  0
LINE
  5
3EA
330
3E7
100
AcDbEntity
  8
Default
  6
Continuous
 62
     7
370
    30
100
AcDbLine
 10
204.1658855754
 20
222.9929943564
 30
0.0
 11
171.056805529
 21
222.9929943564
 31
0.0
  0
LINE
  5
3EB
330
3E7
100
AcDbEntity
  8
Default
  6
Continuous
 62
     7
370
    30
100
AcDbLine
 10
209.7658855754
 20
97.9929943564
 30
0.0
 11
171.056805529
 21
97.9929943564
 31
0.0
  0
LINE
  5
3EC
330
3E7
100
AcDbEntity
  8
Default
  6
Continuous
 62
     7
370
    30
100
AcDbLine
 10
173.5568054731
 20
222.9929943564
 30
0.0
 11
173.5568054731
 21
97.9929943564
 31
0.0
  0
TEXT
  5
3ED
330
3E7
100
AcDbEntity
  8
Default
  6
Continuous
 62
     7
370
    30
100
AcDbText
 10
172.3068054731
 20
156.5157216291
 30
0.0
 40
5.0
  1
125
 50
90.0
  7
SEACAD_seiso_ttf
 11
167.3068054731
 21
156.5157216291
 31
0.0
100
AcDbText
 73
     3
  0
ENDBLK
  5
3EF
330
3E7
100
AcDbEntity
  8
0
100
AcDbBlockEnd
  0
BLOCK
  5
3F8
330
3F1
100
AcDbEntity
  8
0
100
AcDbBlockBegin
  2
DMBLK8
 70
     0
 71
     0
 10
0.0
 20
0.0
 30
0.0
  3
DMBLK8
  1

  0
HATCH
  5
3F2
330
3F1
100
AcDbEntity
  8
Default
  6
Continuous
 62
     7
370
    30
100
AcDbHatch
 10
0.0
 20
0.0
 30
0.0
210
0.0
220
0.0
230
1.0
  2
SOLID
 70
     1
 71
     0
 91
        1
 92
        1
 93
        3
 72
     1
 10
217.2658854077413
 20
236.3876850202642
 11
212.2658855195
 21
235.5543517055573
 72
     1
 10
212.2658855195
 20
235.5543517055573
 11
217.2658854077413
 21
234.7210183908504
 72
     1
 10
217.2658854077413
 20
234.7210183908504
 11
217.2658854077413
 21
236.3876850202642
 97
        0
 75
     0
 76
     1
 98
        0
  0
HATCH
  5
3F3
330
3F1
100
AcDbEntity
  8
Default
  6
Continuous
 62
     7
370
    30
100
AcDbHatch
 10
0.0
 20
0.0
 30
0.0
210
0.0
220
0.0
230
1.0
  2
SOLID
 70
     1
 71
     0
 91
        1
 92
        1
 93
        3
 72
     1
 10
318.8158889214351
 20
236.3876850202642
 11
318.8158889214351
 21
234.7210183908504
 72
     1
 10
318.8158889214351
 20
234.7210183908504
 11
323.8158888096764
 21
235.5543517055573
 72
     1
 10
323.8158888096764
 20
235.5543517055573
 11
318.8158889214351
 21
236.3876850202642
 97
        0
 75
     0
 76
     1
 98
        0
  0
LINE
  5
3F4
330
3F1
100
AcDbEntity
  8
Default
  6
Continuous
 62
     7
370
    30
100
AcDbLine
 10
212.2658855195
 20
214.1179943005
 30
0.0
 11
212.2658855195
 21
238.0543516497
 31
0.0
  0
LINE
  5
3F5
330
3F1
100
AcDbEntity
  8
Default
  6
Continuous
 62
     7
370
    30
100
AcDbLine
 10
323.8158855195
 20
174.5729943005
 30
0.0
 11
323.8158855195
 21
238.0543516497
 31
0.0
  0
LINE
  5
3F6
330
3F1
100
AcDbEntity
  8
Default
  6
Continuous
 62
     7
370
    30
100
AcDbLine
 10
212.2658855195
 20
235.5543517056
 30
0.0
 11
323.8158888097
 21
235.5543517056
 31
0.0
  0
TEXT
  5
3F7
330
3F1
100
AcDbEntity
  8
Default
  6
Continuous
 62
     7
370
    30
100
AcDbText
 10
264.46134171
 20
236.8043517056
 30
0.0
 40
5.0
  1
112
  7
SEACAD_seiso_ttf
 11
264.46134171
 21
241.8043517056
 31
0.0
100
AcDbText
 73
     3
  0
ENDBLK
  5
3F9
330
3F1
100
AcDbEntity
  8
0
100
AcDbBlockEnd
  0
BLOCK
  5
402
330
3FB
100
AcDbEntity
  8
0
100
AcDbBlockBegin
  2
DMBLK9
 70
     0
 71
     0
 10
0.0
 20
0.0
 30
0.0
  3
DMBLK9
  1

  0
HATCH
  5
3FC
330
3FB
100
AcDbEntity
  8
Default
  6
Continuous
 62
     7
370
    30
100
AcDbHatch
 10
0.0
 20
0.0
 30
0.0
210
0.0
220
0.0
230
1.0
  2
SOLID
 70
     1
 71
     0
 91
        1
 92
        1
 93
        3
 72
     1
 10
205.7658854077413
 20
245.9982441499792
 11
200.7658855195
 21
245.1649108352723
 72
     1
 10
200.7658855195
 20
245.1649108352723
 11
205.7658854077413
 21
244.3315775205654
 72
     1
 10
205.7658854077413
 20
244.3315775205654
 11
205.7658854077413
 21
245.9982441499792
 97
        0
 75
     0
 76
     1
 98
        0
  0
HATCH
  5
3FD
330
3FB
100
AcDbEntity
  8
Default
  6
Continuous
 62
     7
370
    30
100
AcDbHatch
 10
0.0
 20
0.0
 30
0.0
210
0.0
220
0.0
230
1.0
  2
SOLID
 70
     1
 71
     0
 91
        1
 92
        1
 93
        3
 72
     1
 10
318.8158824245289
 20
245.9982441499792
 11
318.8158824245289
 21
244.3315775205654
 72
     1
 10
318.8158824245289
 20
244.3315775205654
 11
323.8158823127702
 21
245.1649108352723
 72
     1
 10
323.8158823127702
 20
245.1649108352723
 11
318.8158824245289
 21
245.9982441499792
 97
        0
 75
     0
 76
     1
 98
        0
  0
LINE
  5
3FE
330
3FB
100
AcDbEntity
  8
Default
  6
Continuous
 62
     7
370
    30
100
AcDbLine
 10
200.7658855195
 20
201.3929943005
 30
0.0
 11
200.7658855195
 21
247.6649107794
 31
0.0
  0
LINE
  5
3FF
330
3FB
100
AcDbEntity
  8
Default
  6
Continuous
 62
     7
370
    30
100
AcDbLine
 10
323.8158855195
 20
174.5729943005
 30
0.0
 11
323.8158855195
 21
247.6649107794
 31
0.0
  0
LINE
  5
400
330
3FB
100
AcDbEntity
  8
Default
  6
Continuous
 62
     7
370
    30
100
AcDbLine
 10
200.7658855195
 20
245.1649108353
 30
0.0
 11
323.8158823128
 21
245.1649108353
 31
0.0
  0
TEXT
  5
401
330
3FB
100
AcDbEntity
  8
Default
  6
Continuous
 62
     7
370
    30
100
AcDbText
 10
258.4272475525
 20
246.4149108353
 30
0.0
 40
5.0
  1
123
  7
SEACAD_seiso_ttf
 11
258.4272475525
 21
251.4149108353
 31
0.0
100
AcDbText
 73
     3
  0
ENDBLK
  5
403
330
3FB
100
AcDbEntity
  8
0
100
AcDbBlockEnd
  0
BLOCK
  5
40C
330
405
100
AcDbEntity
  8
0
100
AcDbBlockBegin
  2
DMBLK10
 70
     0
 71
     0
 10
0.0
 20
0.0
 30
0.0
  3
DMBLK10
  1

  0
HATCH
  5
406
330
405
100
AcDbEntity
  8
Default
  6
Continuous
 62
     7
370
    30
100
AcDbHatch
 10
0.0
 20
0.0
 30
0.0
210
0.0
220
0.0
230
1.0
  2
SOLID
 70
     1
 71
     0
 91
        1
 92
        1
 93
        3
 72
     1
 10
89.8925229349413
 20
235.2960449725352
 11
84.8925230467
 21
234.4627116578284
 72
     1
 10
84.8925230467
 20
234.4627116578284
 11
89.8925229349413
 21
233.6293783431215
 72
     1
 10
89.8925229349413
 20
233.6293783431215
 11
89.8925229349413
 21
235.2960449725352
 97
        0
 75
     0
 76
     1
 98
        0
  0
HATCH
  5
407
330
405
100
AcDbEntity
  8
Default
  6
Continuous
 62
     7
370
    30
100
AcDbHatch
 10
0.0
 20
0.0
 30
0.0
210
0.0
220
0.0
230
1.0
  2
SOLID
 70
     1
 71
     0
 91
        1
 92
        1
 93
        3
 72
     1
 10
119.892522264389
 20
235.2960449725352
 11
119.892522264389
 21
233.6293783431215
 72
     1
 10
119.892522264389
 20
233.6293783431215
 11
124.8925221526303
 21
234.4627116578284
 72
     1
 10
124.8925221526303
 20
234.4627116578284
 11
119.892522264389
 21
235.2960449725352
 97
        0
 75
     0
 76
     1
 98
        0
  0
LINE
  5
408
330
405
100
AcDbEntity
  8
Default
  6
Continuous
 62
     7
370
    30
100
AcDbLine
 10
84.8925230467
 20
224.4929943005
 30
0.0
 11
84.8925230467
 21
236.9627116019
 31
0.0
  0
LINE
  5
409
330
405
100
AcDbEntity
  8
Default
  6
Continuous
 62
     7
370
    30
100
AcDbLine
 10
124.8925230467
 20
224.4929943005
 30
0.0
 11
124.8925230467
 21
236.9627116019
 31
0.0
  0
LINE
  5
40A
330
405
100
AcDbEntity
  8
Default
  6
Continuous
 62
     7
370
    30
100
AcDbLine
 10
84.8925230467
 20
234.4627116578
 30
0.0
 11
124.8925221526
 21
234.4627116578
 31
0.0
  0
TEXT
  5
40B
330
405
100
AcDbEntity
  8
Default
  6
Continuous
 62
     7
370
    30
100
AcDbText
 10
101.9379771451
 20
235.7127116578
 30
0.0
 40
5.0
  1
40
  7
SEACAD_seiso_ttf
 11
101.9379771451
 21
240.7127116578
 31
0.0
100
AcDbText
 73
     3
  0
ENDBLK
  5
40D
330
405
100
AcDbEntity
  8
0
100
AcDbBlockEnd
  0
BLOCK
  5
416
330
40F
100
AcDbEntity
  8
0
100
AcDbBlockBegin
  2
DMBLK11
 70
     0
 71
     0
 10
0.0
 20
0.0
 30
0.0
  3
DMBLK11
  1

  0
HATCH
  5
410
330
40F
100
AcDbEntity
  8
Default
  6
Continuous
 62
     7
370
    30
100
AcDbHatch
 10
0.0
 20
0.0
 30
0.0
210
0.0
220
0.0
230
1.0
  2
SOLID
 70
     1
 71
     0
 91
        1
 92
        1
 93
        3
 72
     1
 10
69.43584841749852
 20
217.9929944681587
 11
71.10251504691227
 21
217.9929944681587
 72
     1
 10
71.10251504691227
 20
217.9929944681587
 11
70.2691817322054
 21
222.9929943564
 72
     1
 10
70.2691817322054
 20
222.9929943564
 11
69.43584841749852
 21
217.9929944681587
 97
        0
 75
     0
 76
     1
 98
        0
  0
HATCH
  5
411
330
40F
100
AcDbEntity
  8
Default
  6
Continuous
 62
     7
370
    30
100
AcDbHatch
 10
0.0
 20
0.0
 30
0.0
210
0.0
220
0.0
230
1.0
  2
SOLID
 70
     1
 71
     0
 91
        1
 92
        1
 93
        3
 72
     1
 10
69.43584841749853
 20
102.9897755938234
 11
70.26918173220541
 21
97.98977570558215
 72
     1
 10
70.26918173220541
 20
97.98977570558215
 11
71.10251504691229
 21
102.9897755938234
 72
     1
 10
71.10251504691229
 20
102.9897755938234
 11
69.43584841749853
 21
102.9897755938234
 97
        0
 75
     0
 76
     1
 98
        0
  0
LINE
  5
412
330
40F
100
AcDbEntity
  8
Default
  6
Continuous
 62
     7
370
    30
100
AcDbLine
 10
83.3925231026
 20
222.9929943564
 30
0.0
 11
67.7691817881
 21
222.9929943564
 31
0.0
  0
LINE
  5
413
330
40F
100
AcDbEntity
  8
Default
  6
Continuous
 62
     7
370
    30
100
AcDbLine
 10
83.3925231026
 20
97.9897814395
 30
0.0
 11
67.7691817881
 21
97.9897814395
 31
0.0
  0
LINE
  5
414
330
40F
100
AcDbEntity
  8
Default
  6
Continuous
 62
     7
370
    30
100
AcDbLine
 10
70.2691817322
 20
222.9929943564
 30
0.0
 11
70.2691817322
 21
97.9897757056
 31
0.0
  0
TEXT
  5
415
330
40F
100
AcDbEntity
  8
Default
  6
Continuous
 62
     7
370
    30
100
AcDbText
 10
69.0191817322
 20
156.5141123037
 30
0.0
 40
5.0
  1
125
 50
90.0
  7
SEACAD_seiso_ttf
 11
64.0191817322
 21
156.5141123037
 31
0.0
100
AcDbText
 73
     3
  0
ENDBLK
  5
417
330
40F
100
AcDbEntity
  8
0
100
AcDbBlockEnd
  0
ENDSEC
  0
SECTION
  2
ENTITIES
  0
CIRCLE
  5
2B
330
1F
100
AcDbEntity
  8
_Übersetzung
  6
Continuous
 62
     7
100
AcDbCircle
 10
209.0792829791
 20
204.6429943564
 30
0.0
 40
0.01
  0
CIRCLE
  5
2C
330
1F
100
AcDbEntity
  8
_Übersetzung
  6
Continuous
 62
     7
100
AcDbCircle
 10
206.6658855195
 20
222.9929943564
 30
0.0
 40
0.01
  0
LINE
  5
2D
330
1F
100
AcDbEntity
  8
_Übersetzung
  6
Continuous
 62
     7
100
AcDbLine
 10
187.0393666128
 20
204.6429943564
 30
0.0
 11
187.0393666128
 21
222.9929943564
 31
0.0
  0
CIRCLE
  5
2E
330
1F
100
AcDbEntity
  8
_Übersetzung
  6
Continuous
 62
     7
100
AcDbCircle
 10
206.6658855195
 20
222.9929943564
 30
0.0
 40
0.01
  0
CIRCLE
  5
2F
330
1F
100
AcDbEntity
  8
_Übersetzung
  6
Continuous
 62
     7
100
AcDbCircle
 10
212.2658855195
 20
97.9929943564
 30
0.0
 40
0.01
  0
LINE
  5
30
330
1F
100
AcDbEntity
  8
_Übersetzung
  6
Continuous
 62
     7
100
AcDbLine
 10
173.5568054731
 20
222.9929943564
 30
0.0
 11
173.5568054731
 21
97.9929943564
 31
0.0
  0
CIRCLE
  5
31
330
1F
100
AcDbEntity
  8
_Übersetzung
  6
Continuous
 62
     7
100
AcDbCircle
 10
212.2658855195
 20
211.6179943564
 30
0.0
 40
0.01
  0
CIRCLE
  5
32
330
1F
100
AcDbEntity
  8
_Übersetzung
  6
Continuous
 62
     7
100
AcDbCircle
 10
323.8158855195
 20
172.0729943564
 30
0.0
 40
0.01
  0
LINE
  5
33
330
1F
100
AcDbEntity
  8
_Übersetzung
  6
Continuous
 62
     7
100
AcDbLine
 10
212.2658855195
 20
235.5543517056
 30
0.0
 11
323.8158855195
 21
235.5543517056
 31
0.0
  0
CIRCLE
  5
34
330
1F
100
AcDbEntity
  8
_Übersetzung
  6
Continuous
 62
     7
100
AcDbCircle
 10
200.7658855195
 20
198.8929943564
 30
0.0
 40
0.01
  0
CIRCLE
  5
35
330
1F
100
AcDbEntity
  8
_Übersetzung
  6
Continuous
 62
     7
100
AcDbCircle
 10
323.8158855195
 20
172.0729943564
 30
0.0
 40
0.01
  0
LINE
  5
36
330
1F
100
AcDbEntity
  8
_Übersetzung
  6
Continuous
 62
     7
100
AcDbLine
 10
200.7658855195
 20
245.1649108353
 30
0.0
 11
323.8158855195
 21
245.1649108353
 31
0.0
  0
CIRCLE
  5
37
330
1F
100
AcDbEntity
  8
_Übersetzung
  6
Continuous
 62
     7
100
AcDbCircle
 10
84.8925230467
 20
221.9929943564
 30
0.0
 40
0.01
  0
CIRCLE
  5
38
330
1F
100
AcDbEntity
  8
_Übersetzung
  6
Continuous
 62
     7
100
AcDbCircle
 10
124.8925230467
 20
221.9929943564
 30
0.0
 40
0.01
  0
LINE
  5
39
330
1F
100
AcDbEntity
  8
_Übersetzung
  6
Continuous
 62
     7
100
AcDbLine
 10
84.8925230467
 20
234.4627116579
 30
0.0
 11
124.8925230467
 21
234.4627116579
 31
0.0
  0
CIRCLE
  5
3A
330
1F
100
AcDbEntity
  8
_Übersetzung
  6
Continuous
 62
     7
100
AcDbCircle
 10
85.8925230467
 20
222.9929943564
 30
0.0
 40
0.01
  0
CIRCLE
  5
3B
330
1F
100
AcDbEntity
  8
_Übersetzung
  6
Continuous
 62
     7
100
AcDbCircle
 10
85.8925230467
 20
97.9897814395
 30
0.0
 40
0.01
  0
LINE
  5
3C
330
1F
100
AcDbEntity
  8
_Übersetzung
  6
Continuous
 62
     7
100
AcDbLine
 10
70.2691817322
 20
222.9929943564
 30
0.0
 11
70.2691817322
 21
97.9897814395
 31
0.0
  0
TEXT
  5
3E
330
1F
100
AcDbEntity
  8
0
  6
Continuous
 62
     7
100
AcDbText
 10
325.66
 20
11.89999
 30
0.0
 40
2.2
  1
Format / Size: DIN A3
  7
SEACAD_seiso_ttf
 11
325.66
 21
14.09999
 31
0.0
100
AcDbText
 73
     3
  0
TEXT
  5
3F
330
1F
100
AcDbEntity
  8
0
  6
Continuous
 62
     7
100
AcDbText
 10
368.16
 20
11.89999
 30
0.0
 40
2.2
  1
Massstab / Scale: 1:1
  7
SEACAD_seiso_ttf
 11
368.16
 21
14.09999
 31
0.0
100
AcDbText
 73
     3
  0
TEXT
  5
40
330
1F
100
AcDbEntity
  8
0
  6
Continuous
 62
     7
100
AcDbText
 10
340.7598684211
 20
20.18749
 30
0.0
 40
3.5
  1
6ES73071BA010AA0
  7
SEACAD_seiso_ttf
 11
340.7598684211
 21
23.68749
 31
0.0
100
AcDbText
 73
     3
  0
LINE
  5
41
330
1F
100
AcDbEntity
  8
0
  6
Continuous
 62
     7
100
AcDbLine
 10
0.0
 20
297.0
 30
0.0
 11
0.0
 21
0.0
 31
0.0
  0
LINE
  5
42
330
1F
100
AcDbEntity
  8
0
  6
Continuous
 62
     7
100
AcDbLine
 10
5.0
 20
292.0
 30
0.0
 11
5.0
 21
5.0
 31
0.0
  0
LINE
  5
43
330
1F
100
AcDbEntity
  8
0
  6
Continuous
 62
     7
100
AcDbLine
 10
0.0
 20
0.0
 30
0.0
 11
420.0
 21
0.0
 31
0.0
  0
LINE
  5
45
330
1F
100
AcDbEntity
  8
91000_TIP
  6
Continuous
 62
     7
100
AcDbLine
 10
249.8659881699
 20
20.5812835243
 30
0.0
 11
259.8659879657
 21
23.0812834733
 31
0.0
  0
LINE
  5
46
330
1F
100
AcDbEntity
  8
0
  6
Continuous
 62
     7
100
AcDbLine
 10
5.0
 20
5.0
 30
0.0
 11
415.0
 21
5.0
 31
0.0
  0
LINE
  5
47
330
1F
100
AcDbEntity
  8
0
  6
Continuous
 62
     7
100
AcDbLine
 10
275.0
 20
10.0
 30
0.0
 11
410.0
 21
10.0
 31
0.0
  0
LINE
  5
48
330
1F
100
AcDbEntity
  8
0
  6
Continuous
 62
     7
100
AcDbLine
 10
325.0
 20
16.0
 30
0.0
 11
410.0
 21
16.0
 31
0.0
  0
LINE
  5
49
330
1F
100
AcDbEntity
  8
0
  6
Continuous
 62
     7
100
AcDbLine
 10
298.2973434565
 20
16.6961097434
 30
0.0
 11
299.1529318914
 21
16.6961097434
 31
0.0
  0
LINE
  5
4A
330
1F
100
AcDbEntity
  8
0
  6
Continuous
 62
     7
100
AcDbLine
 10
311.4876651625
 20
16.7436424342
 30
0.0
 11
309.9666190559
 21
16.7436424342
 31
0.0
  0
LINE
  5
4B
330
1F
100
AcDbEntity
  8
0
  6
Continuous
 62
     7
100
AcDbLine
 10
301.8622952689
 20
16.7436424342
 30
0.0
 11
300.4838472348
 21
16.7436424342
 31
0.0
  0
LINE
  5
4C
330
1F
100
AcDbEntity
  8
0
  6
Continuous
 62
     7
100
AcDbLine
 10
289.1235341257
 20
16.7436424342
 30
0.0
 11
290.5495148507
 21
16.7436424342
 31
0.0
  0
LINE
  5
4D
330
1F
100
AcDbEntity
  8
0
  6
Continuous
 62
     7
100
AcDbLine
 10
291.6427667399
 20
16.7436424342
 30
0.0
 11
295.2077185523
 21
16.7436424342
 31
0.0
  0
LINE
  5
4E
330
1F
100
AcDbEntity
  8
0
  6
Continuous
 62
     7
100
AcDbLine
 10
296.0157742965
 20
16.7436424342
 30
0.0
 11
296.9664281131
 21
16.7436424342
 31
0.0
  0
LINE
  5
4F
330
1F
100
AcDbEntity
  8
0
  6
Continuous
 62
     7
100
AcDbLine
 10
302.9555471581
 20
16.7436424342
 30
0.0
 11
306.5204989705
 21
16.7436424342
 31
0.0
  0
LINE
  5
50
330
1F
100
AcDbEntity
  8
0
  6
Continuous
 62
     7
100
AcDbLine
 10
307.3047883693
 20
16.7436424342
 30
0.0
 11
308.2554421859
 21
16.7436424342
 31
0.0
  0
LINE
  5
51
330
1F
100
AcDbEntity
  8
0
  6
Continuous
 62
     7
100
AcDbLine
 10
306.5204989705
 20
17.64676356
 30
0.0
 11
304.3339951922
 21
17.64676356
 31
0.0
  0
LINE
  5
52
330
1F
100
AcDbEntity
  8
0
  6
Continuous
 62
     7
100
AcDbLine
 10
295.2077185523
 20
17.64676356
 30
0.0
 11
293.021214774
 21
17.64676356
 31
0.0
  0
LINE
  5
54
330
1F
100
AcDbEntity
  8
91000_TIP
  6
CENTER2
 62
     7
100
AcDbLine
 10
248.5864776979
 20
18.0812835754
 30
0.0
 11
272.188466962
 21
18.0812835754
 31
0.0
  0
LINE
  5
55
330
1F
100
AcDbEntity
  8
0
  6
Continuous
 62
     7
100
AcDbLine
 10
306.1877701347
 20
18.7637817946
 30
0.0
 11
304.3339951922
 21
18.7637817946
 31
0.0
  0
LINE
  5
56
330
1F
100
AcDbEntity
  8
0
  6
Continuous
 62
     7
100
AcDbLine
 10
294.8749897165
 20
18.7637817946
 30
0.0
 11
293.021214774
 21
18.7637817946
 31
0.0
  0
LINE
  5
57
330
1F
100
AcDbEntity
  8
0
  6
Continuous
 62
     7
100
AcDbLine
 10
306.1877701347
 20
19.5480711933
 30
0.0
 11
304.3339951922
 21
19.5480711933
 31
0.0
  0
LINE
  5
58
330
1F
100
AcDbEntity
  8
0
  6
Continuous
 62
     7
100
AcDbLine
 10
294.8749897165
 20
19.5480711933
 30
0.0
 11
293.021214774
 21
19.5480711933
 31
0.0
  0
LINE
  5
59
330
1F
100
AcDbEntity
  8
0
  6
Continuous
 62
     7
100
AcDbLine
 10
306.4729662797
 20
20.6175567371
 30
0.0
 11
304.3339951922
 21
20.6175567371
 31
0.0
  0
LINE
  5
5A
330
1F
100
AcDbEntity
  8
0
  6
Continuous
 62
     7
100
AcDbLine
 10
295.1601858615
 20
20.6175567371
 30
0.0
 11
293.021214774
 21
20.6175567371
 31
0.0
  0
LINE
  5
5B
330
1F
100
AcDbEntity
  8
0
  6
Continuous
 62
     7
100
AcDbLine
 10
311.4876651625
 20
21.4969115175
 30
0.0
 11
310.5370113459
 21
21.4969115175
 31
0.0
  0
LINE
  5
5C
330
1F
100
AcDbEntity
  8
0
  6
Continuous
 62
     7
100
AcDbLine
 10
308.8496008213
 20
21.4969115175
 30
0.0
 11
307.3047883693
 21
21.4969115175
 31
0.0
  0
LINE
  5
5D
330
1F
100
AcDbEntity
  8
0
  6
Continuous
 62
     7
100
AcDbLine
 10
306.4729662797
 20
21.4969115175
 30
0.0
 11
302.9555471581
 21
21.4969115175
 31
0.0
  0
LINE
  5
5E
330
1F
100
AcDbEntity
  8
0
  6
Continuous
 62
     7
100
AcDbLine
 10
301.8622952689
 20
21.4969115175
 30
0.0
 11
300.1511183989
 21
21.4969115175
 31
0.0
  0
LINE
  5
5F
330
1F
100
AcDbEntity
  8
0
  6
Continuous
 62
     7
100
AcDbLine
 10
297.7269511665
 20
21.4969115175
 30
0.0
 11
296.0157742965
 21
21.4969115175
 31
0.0
  0
LINE
  5
60
330
1F
100
AcDbEntity
  8
0
  6
Continuous
 62
     7
100
AcDbLine
 10
295.1601858615
 20
21.4969115175
 30
0.0
 11
291.6427667399
 21
21.4969115175
 31
0.0
  0
LINE
  5
61
330
1F
100
AcDbEntity
  8
0
  6
Continuous
 62
     7
100
AcDbLine
 10
289.1235341257
 20
21.4969115175
 30
0.0
 11
290.5495148507
 21
21.4969115175
 31
0.0
  0
LINE
  5
62
330
1F
100
AcDbEntity
  8
0
  6
Continuous
 62
     7
100
AcDbLine
 10
275.0
 20
28.0
 30
0.0
 11
410.0
 21
28.0
 31
0.0
  0
LINE
  5
63
330
1F
100
AcDbEntity
  8
91000_TIP
  6
Continuous
 62
     7
100
AcDbLine
 10
249.8659881699
 20
15.5812836265
 30
0.0
 11
259.8659879657
 21
13.0812836775
 31
0.0
  0
LINE
  5
64
330
1F
100
AcDbEntity
  8
0
  6
Continuous
 62
     7
100
AcDbLine
 10
308.8496008213
 20
21.4969115175
 30
0.0
 11
310.5370113459
 21
18.5498846858
 31
0.0
  0
LINE
  5
65
330
1F
100
AcDbEntity
  8
0
  6
Continuous
 62
     7
100
AcDbLine
 10
309.9666190559
 20
16.7436424342
 30
0.0
 11
308.2554421859
 21
19.7857346475
 31
0.0
  0
LINE
  5
66
330
1F
100
AcDbEntity
  8
0
  6
Continuous
 62
     7
100
AcDbLine
 10
298.2973434565
 20
16.6961097434
 30
0.0
 11
296.9664281131
 21
19.7857346475
 31
0.0
  0
LINE
  5
67
330
1F
100
AcDbEntity
  8
0
  6
Continuous
 62
     7
100
AcDbLine
 10
297.7269511665
 20
21.4969115175
 30
0.0
 11
298.9628011281
 21
18.5974173767
 31
0.0
  0
LINE
  5
68
330
1F
100
AcDbEntity
  8
91000_TIP
  6
Continuous
 62
     7
100
AcDbLine
 10
249.8659881699
 20
20.5812835243
 30
0.0
 11
249.8659881699
 21
15.5812836265
 31
0.0
  0
LINE
  5
69
330
1F
100
AcDbEntity
  8
91000_TIP
  6
Continuous
 62
     7
100
AcDbLine
 10
259.8659879657
 20
23.0812834733
 30
0.0
 11
259.8659879657
 21
13.0812836775
 31
0.0
  0
LINE
  5
6A
330
1F
100
AcDbEntity
  8
91000_TIP
  6
CENTER2
 62
     7
100
AcDbLine
 10
266.3659878329
 20
12.359802369
 30
0.0
 11
266.3659878329
 21
23.643188369
 31
0.0
  0
LINE
  5
6B
330
1F
100
AcDbEntity
  8
0
  6
Continuous
 62
     7
100
AcDbLine
 10
275.0
 20
10.0
 30
0.0
 11
275.0
 21
28.0
 31
0.0
  0
LINE
  5
6C
330
1F
100
AcDbEntity
  8
0
  6
Continuous
 62
     7
100
AcDbLine
 10
284.7029938783
 20
16.8387078159
 30
0.0
 11
284.7029938783
 21
17.7893616325
 31
0.0
  0
LINE
  5
6D
330
1F
100
AcDbEntity
  8
0
  6
Continuous
 62
     7
100
AcDbLine
 10
288.0302822366
 20
20.49872501
 30
0.0
 11
288.0302822366
 21
21.4493788266
 31
0.0
  0
LINE
  5
6E
330
1F
100
AcDbEntity
  8
0
  6
Continuous
 62
     7
100
AcDbLine
 10
289.1235341257
 20
21.4969115175
 30
0.0
 11
289.1235341257
 21
16.7436424342
 31
0.0
  0
LINE
  5
6F
330
1F
100
AcDbEntity
  8
0
  6
Continuous
 62
     7
100
AcDbLine
 10
290.5495148507
 20
21.4969115175
 30
0.0
 11
290.5495148507
 21
16.7436424342
 31
0.0
  0
LINE
  5
70
330
1F
100
AcDbEntity
  8
0
  6
Continuous
 62
     7
100
AcDbLine
 10
291.6427667399
 20
21.4969115175
 30
0.0
 11
291.6427667399
 21
16.7436424342
 31
0.0
  0
LINE
  5
71
330
1F
100
AcDbEntity
  8
0
  6
Continuous
 62
     7
100
AcDbLine
 10
293.021214774
 20
20.6175567371
 30
0.0
 11
293.021214774
 21
19.5480711933
 31
0.0
  0
LINE
  5
72
330
1F
100
AcDbEntity
  8
0
  6
Continuous
 62
     7
100
AcDbLine
 10
293.021214774
 20
18.7637817946
 30
0.0
 11
293.021214774
 21
17.64676356
 31
0.0
  0
LINE
  5
73
330
1F
100
AcDbEntity
  8
0
  6
Continuous
 62
     7
100
AcDbLine
 10
294.8749897165
 20
19.5480711933
 30
0.0
 11
294.8749897165
 21
18.7637817946
 31
0.0
  0
LINE
  5
74
330
1F
100
AcDbEntity
  8
0
  6
Continuous
 62
     7
100
AcDbLine
 10
295.1601858615
 20
21.4969115175
 30
0.0
 11
295.1601858615
 21
20.6175567371
 31
0.0
  0
LINE
  5
75
330
1F
100
AcDbEntity
  8
0
  6
Continuous
 62
     7
100
AcDbLine
 10
295.2077185523
 20
17.64676356
 30
0.0
 11
295.2077185523
 21
16.7436424342
 31
0.0
  0
LINE
  5
76
330
1F
100
AcDbEntity
  8
0
  6
Continuous
 62
     7
100
AcDbLine
 10
296.0157742965
 20
16.7436424342
 30
0.0
 11
296.0157742965
 21
21.4969115175
 31
0.0
  0
LINE
  5
77
330
1F
100
AcDbEntity
  8
0
  6
Continuous
 62
     7
100
AcDbLine
 10
296.9664281131
 20
16.7436424342
 30
0.0
 11
296.9664281131
 21
19.7857346475
 31
0.0
  0
LINE
  5
78
330
1F
100
AcDbEntity
  8
0
  6
Continuous
 62
     7
100
AcDbLine
 10
300.4838472348
 20
19.8332673383
 30
0.0
 11
300.4838472348
 21
16.7436424342
 31
0.0
  0
LINE
  5
79
330
1F
100
AcDbEntity
  8
0
  6
Continuous
 62
     7
100
AcDbLine
 10
301.8622952689
 20
21.4969115175
 30
0.0
 11
301.8622952689
 21
16.7436424342
 31
0.0
  0
LINE
  5
7A
330
1F
100
AcDbEntity
  8
0
  6
Continuous
 62
     7
100
AcDbLine
 10
302.9555471581
 20
21.4969115175
 30
0.0
 11
302.9555471581
 21
16.7436424342
 31
0.0
  0
LINE
  5
7B
330
1F
100
AcDbEntity
  8
0
  6
Continuous
 62
     7
100
AcDbLine
 10
304.3339951922
 20
20.6175567371
 30
0.0
 11
304.3339951922
 21
19.5480711933
 31
0.0
  0
LINE
  5
7C
330
1F
100
AcDbEntity
  8
0
  6
Continuous
 62
     7
100
AcDbLine
 10
304.3339951922
 20
18.7637817946
 30
0.0
 11
304.3339951922
 21
17.64676356
 31
0.0
  0
LINE
  5
7D
330
1F
100
AcDbEntity
  8
0
  6
Continuous
 62
     7
100
AcDbLine
 10
306.1877701347
 20
19.5480711933
 30
0.0
 11
306.1877701347
 21
18.7637817946
 31
0.0
  0
LINE
  5
7E
330
1F
100
AcDbEntity
  8
0
  6
Continuous
 62
     7
100
AcDbLine
 10
306.4729662797
 20
21.4969115175
 30
0.0
 11
306.4729662797
 21
20.6175567371
 31
0.0
  0
LINE
  5
7F
330
1F
100
AcDbEntity
  8
0
  6
Continuous
 62
     7
100
AcDbLine
 10
306.5204989705
 20
17.64676356
 30
0.0
 11
306.5204989705
 21
16.7436424342
 31
0.0
  0
LINE
  5
80
330
1F
100
AcDbEntity
  8
0
  6
Continuous
 62
     7
100
AcDbLine
 10
307.3047883693
 20
16.7436424342
 30
0.0
 11
307.3047883693
 21
21.4969115175
 31
0.0
  0
LINE
  5
81
330
1F
100
AcDbEntity
  8
0
  6
Continuous
 62
     7
100
AcDbLine
 10
308.2554421859
 20
16.7436424342
 30
0.0
 11
308.2554421859
 21
19.7857346475
 31
0.0
  0
LINE
  5
82
330
1F
100
AcDbEntity
  8
0
  6
Continuous
 62
     7
100
AcDbLine
 10
310.5370113459
 20
21.4969115175
 30
0.0
 11
310.5370113459
 21
18.5498846858
 31
0.0
  0
LINE
  5
83
330
1F
100
AcDbEntity
  8
0
  6
Continuous
 62
     7
100
AcDbLine
 10
311.4876651625
 20
21.4969115175
 30
0.0
 11
311.4876651625
 21
16.7436424342
 31
0.0
  0
LINE
  5
84
330
1F
100
AcDbEntity
  8
0
  6
Continuous
 62
     7
100
AcDbLine
 10
312.2957209067
 20
16.8387078159
 30
0.0
 11
312.2957209067
 21
17.7893616325
 31
0.0
  0
LINE
  5
85
330
1F
100
AcDbEntity
  8
0
  6
Continuous
 62
     7
100
AcDbLine
 10
315.623009265
 20
20.49872501
 30
0.0
 11
315.623009265
 21
21.4493788266
 31
0.0
  0
LINE
  5
86
330
1F
100
AcDbEntity
  8
0
  6
Continuous
 62
     7
100
AcDbLine
 10
325.0
 20
10.0
 30
0.0
 11
325.0
 21
28.0
 31
0.0
  0
LINE
  5
87
330
1F
100
AcDbEntity
  8
0
  6
Continuous
 62
     7
100
AcDbLine
 10
300.1511183989
 20
21.4969115175
 30
0.0
 11
298.9628011281
 21
18.5974173767
 31
0.0
  0
LINE
  5
88
330
1F
100
AcDbEntity
  8
0
  6
Continuous
 62
     7
100
AcDbLine
 10
300.4838472348
 20
19.8332673383
 30
0.0
 11
299.1529318914
 21
16.6961097434
 31
0.0
  0
LINE
  5
89
330
1F
100
AcDbEntity
  8
0
  6
Continuous
 62
     7
100
AcDbLine
 10
284.8948224676
 20
20.9161059766
 30
0.0
 11
285.1688882922
 21
21.1901790542
 31
0.0
  0
LINE
  5
8A
330
1F
100
AcDbEntity
  8
0
  6
Continuous
 62
     7
100
AcDbLine
 10
415.0
 20
292.0
 30
0.0
 11
5.0
 21
292.0
 31
0.0
  0
LINE
  5
8B
330
1F
100
AcDbEntity
  8
0
  6
Continuous
 62
     7
100
AcDbLine
 10
420.0
 20
297.0
 30
0.0
 11
0.0
 21
297.0
 31
0.0
  0
LINE
  5
8C
330
1F
100
AcDbEntity
  8
0
  6
Continuous
 62
     7
100
AcDbLine
 10
367.5
 20
10.0
 30
0.0
 11
367.5
 21
16.0
 31
0.0
  0
LINE
  5
8D
330
1F
100
AcDbEntity
  8
0
  6
Continuous
 62
     7
100
AcDbLine
 10
410.0
 20
10.0
 30
0.0
 11
410.0
 21
28.0
 31
0.0
  0
LINE
  5
8E
330
1F
100
AcDbEntity
  8
0
  6
Continuous
 62
     7
100
AcDbLine
 10
415.0
 20
5.0
 30
0.0
 11
415.0
 21
292.0
 31
0.0
  0
LINE
  5
8F
330
1F
100
AcDbEntity
  8
0
  6
Continuous
 62
     7
100
AcDbLine
 10
420.0
 20
0.0
 30
0.0
 11
420.0
 21
297.0
 31
0.0
  0
ARC
  5
90
330
1F
100
AcDbEntity
  8
0
  6
Continuous
 62
     7
100
AcDbCircle
 10
314.0003620317
 20
18.7008009792
 30
0.0
 40
1.1116193606
100
AcDbArc
 50
277.7099956934
 51
295.6884927746
  0
ARC
  5
91
330
1F
100
AcDbEntity
  8
0
  6
Continuous
 62
     7
100
AcDbCircle
 10
314.2846720145
 20
17.9759752156
 30
0.0
 40
0.3401689265
100
AcDbArc
 50
305.503221255
 51
72.4652898523
  0
ARC
  5
92
330
1F
100
AcDbEntity
  8
0
  6
Continuous
 62
     7
100
AcDbCircle
 10
313.7186782063
 20
21.3776821252
 30
0.0
 40
4.7567946411
100
AcDbArc
 50
252.5939200548
 51
280.9816604256
  0
ARC
  5
93
330
1F
100
AcDbEntity
  8
0
  6
Continuous
 62
     7
100
AcDbCircle
 10
314.1735135694
 20
18.7596683887
 30
0.0
 40
2.1007265953
100
AcDbArc
 50
282.405835852
 51
311.8644433928
  0
ARC
  5
94
330
1F
100
AcDbEntity
  8
0
  6
Continuous
 62
     7
100
AcDbCircle
 10
313.8999492223
 20
20.3680101102
 30
0.0
 40
0.3029626476000001
100
AcDbArc
 50
154.4400348282
 51
221.8201698801
  0
ARC
  5
95
330
1F
100
AcDbEntity
  8
0
  6
Continuous
 62
     7
100
AcDbCircle
 10
313.9791703737
 20
20.2887889588
 30
0.0
 40
0.4103089737
100
AcDbArc
 50
102.8287828681
 51
149.2259639003
  0
ARC
  5
96
330
1F
100
AcDbEntity
  8
0
  6
Continuous
 62
     7
100
AcDbCircle
 10
314.3961972093
 20
18.546453629
 30
0.0
 40
2.201836557
100
AcDbArc
 50
84.0400061857
 51
103.3427657871
  0
ARC
  5
97
330
1F
100
AcDbEntity
  8
0
  6
Continuous
 62
     7
100
AcDbCircle
 10
314.0552333846
 20
16.1290897051
 30
0.0
 40
4.642373736500001
100
AcDbArc
 50
70.2625858546
 51
82.952418638
  0
ARC
  5
98
330
1F
100
AcDbEntity
  8
0
  6
Continuous
 62
     7
100
AcDbCircle
 10
313.5412151824
 20
20.8007125947
 30
0.0
 40
3.2587559909
100
AcDbArc
 50
247.5300206145
 51
280.7579522143
  0
ARC
  5
99
330
1F
100
AcDbEntity
  8
0
  6
Continuous
 62
     7
100
AcDbCircle
 10
307.1562487104
 20
2.5491926343
 30
0.0
 40
17.3316084133
100
AcDbArc
 50
65.341467465
 51
67.3997770736
  0
ARC
  5
9A
330
1F
100
AcDbEntity
  8
0
  6
Continuous
 62
     7
100
AcDbCircle
 10
317.9521111158
 20
28.3416189974
 30
0.0
 40
10.6291642039
100
AcDbArc
 50
242.8620101252
 51
247.1042029186
  0
ARC
  5
9B
330
1F
100
AcDbEntity
  8
0
  6
Continuous
 62
     7
100
AcDbCircle
 10
314.0972098893
 20
20.8076875004
 30
0.0
 40
2.1662916292
100
AcDbArc
 50
227.3119280794
 51
242.7040315235
  0
ARC
  5
9C
330
1F
100
AcDbEntity
  8
0
  6
Continuous
 62
     7
100
AcDbCircle
 10
313.4931790796
 20
20.1020098596
 30
0.0
 40
1.238521734
100
AcDbArc
 50
194.7952194236
 51
225.7176549047
  0
ARC
  5
9D
330
1F
100
AcDbEntity
  8
0
  6
Continuous
 62
     7
100
AcDbCircle
 10
313.5553372138
 20
20.1422298287
 30
0.0
 40
1.3090920729
100
AcDbArc
 50
164.1974860461
 51
195.8025139539
  0
ARC
  5
9E
330
1F
100
AcDbEntity
  8
0
  6
Continuous
 62
     7
100
AcDbCircle
 10
314.1123609345
 20
19.2539626688
 30
0.0
 40
2.3669248153
100
AcDbArc
 50
86.2218022928
 51
120.4272602309
  0
ARC
  5
9F
330
1F
100
AcDbEntity
  8
0
  6
Continuous
 62
     7
100
AcDbCircle
 10
313.8435041519
 20
12.5577948477
 30
0.0
 40
9.0679051661
100
AcDbArc
 50
78.6827049226
 51
87.3147599624
  0
ARC
  5
A0
330
1F
100
AcDbEntity
  8
0
  6
Continuous
 62
     7
100
AcDbCircle
 10
313.3874349735
 20
20.2497375912
 30
0.0
 40
1.119747444
100
AcDbArc
 50
142.813917903
 51
167.1522951417
  0
ARC
  5
A1
330
1F
100
AcDbEntity
  8
0
  6
Continuous
 62
     7
100
AcDbCircle
 10
313.7327443151
 20
19.9431558946
 30
0.0
 40
1.5805466845
100
AcDbArc
 50
121.2140948535
 51
141.5254768286
  0
ARC
  5
A2
330
1F
100
AcDbEntity
  8
0
  6
Continuous
 62
     7
100
AcDbCircle
 10
314.3099186807
 20
20.7542132232
 30
0.0
 40
0.8661276052000002
100
AcDbArc
 50
222.7760387596
 51
239.0362434679
  0
ARC
  5
A3
330
1F
100
AcDbEntity
  8
0
  6
Continuous
 62
     7
100
AcDbCircle
 10
311.8032091024
 20
13.4239410246
 30
0.0
 40
6.8587735763
100
AcDbArc
 50
59.902027256
 51
68.2036481279
  0
ARC
  5
A4
330
1F
100
AcDbEntity
  8
0
  6
Continuous
 62
     7
100
AcDbCircle
 10
315.2117035963
 20
22.3498275319
 30
0.0
 40
2.698741017100001
100
AcDbArc
 50
240.0481997804
 51
251.3779673737
  0
ARC
  5
A5
330
1F
100
AcDbEntity
  8
0
  6
Continuous
 62
     7
100
AcDbCircle
 10
314.5462464295
 20
18.1929289165
 30
0.0
 40
1.4334474881
100
AcDbArc
 50
315.8904553224
 51
333.5229264373
  0
ARC
  5
A6
330
1F
100
AcDbEntity
  8
0
  6
Continuous
 62
     7
100
AcDbCircle
 10
314.5508846732
 20
18.1395217664
 30
0.0
 40
1.4062287119
100
AcDbArc
 50
335.3867972702
 51
24.3915119402
  0
ARC
  5
A7
330
1F
100
AcDbEntity
  8
0
  6
Continuous
 62
     7
100
AcDbCircle
 10
314.4786797697
 20
18.0616650746
 30
0.0
 40
1.5047025148
100
AcDbArc
 50
25.9562916605
 51
59.4834829668
  0
ARC
  5
A8
330
1F
100
AcDbEntity
  8
0
  6
Continuous
 62
     7
100
AcDbCircle
 10
286.4076350033
 20
18.7008009792
 30
0.0
 40
1.1116193606
100
AcDbArc
 50
277.7099956934
 51
295.6884927746
  0
ARC
  5
A9
330
1F
100
AcDbEntity
  8
0
  6
Continuous
 62
     7
100
AcDbCircle
 10
286.691944986
 20
17.9759752156
 30
0.0
 40
0.3401689265000001
100
AcDbArc
 50
305.5032212556
 51
72.4652898515
  0
ARC
  5
AA
330
1F
100
AcDbEntity
  8
0
  6
Continuous
 62
     7
100
AcDbCircle
 10
286.1259511779
 20
21.3776821252
 30
0.0
 40
4.756794641099998
100
AcDbArc
 50
252.5939200545
 51
280.9816604253
  0
ARC
  5
AB
330
1F
100
AcDbEntity
  8
0
  6
Continuous
 62
     7
100
AcDbCircle
 10
286.580786541
 20
18.7596683887
 30
0.0
 40
2.1007265953
100
AcDbArc
 50
282.4058358513
 51
311.8644433923
  0
ARC
  5
AC
330
1F
100
AcDbEntity
  8
0
  6
Continuous
 62
     7
100
AcDbCircle
 10
286.3072221939
 20
20.3680101102
 30
0.0
 40
0.3029626476
100
AcDbArc
 50
154.4400348282
 51
221.8201698801
  0
ARC
  5
AD
330
1F
100
AcDbEntity
  8
0
  6
Continuous
 62
     7
100
AcDbCircle
 10
286.3864433453
 20
20.2887889588
 30
0.0
 40
0.4103089737
100
AcDbArc
 50
102.8287828727
 51
149.2259639027
  0
ARC
  5
AE
330
1F
100
AcDbEntity
  8
0
  6
Continuous
 62
     7
100
AcDbCircle
 10
286.8034701809
 20
18.546453629
 30
0.0
 40
2.201836557
100
AcDbArc
 50
84.0400061859
 51
103.3427657872
  0
ARC
  5
AF
330
1F
100
AcDbEntity
  8
0
  6
Continuous
 62
     7
100
AcDbCircle
 10
286.4625063562
 20
16.1290897051
 30
0.0
 40
4.6423737365
100
AcDbArc
 50
70.2625858546
 51
82.9524186379
  0
ARC
  5
B0
330
1F
100
AcDbEntity
  8
0
  6
Continuous
 62
     7
100
AcDbCircle
 10
285.948488154
 20
20.8007125947
 30
0.0
 40
3.258755990900001
100
AcDbArc
 50
247.5300206148
 51
280.7579522145
  0
ARC
  5
B1
330
1F
100
AcDbEntity
  8
0
  6
Continuous
 62
     7
100
AcDbCircle
 10
279.563521682
 20
2.5491926343
 30
0.0
 40
17.3316084133
100
AcDbArc
 50
65.341467465
 51
67.3997770736
  0
ARC
  5
B2
330
1F
100
AcDbEntity
  8
0
  6
Continuous
 62
     7
100
AcDbCircle
 10
290.3593840874
 20
28.3416189974
 30
0.0
 40
10.6291642039
100
AcDbArc
 50
242.8620101252
 51
247.1042029185
  0
ARC
  5
B3
330
1F
100
AcDbEntity
  8
0
  6
Continuous
 62
     7
100
AcDbCircle
 10
286.5044828608
 20
20.8076875004
 30
0.0
 40
2.1662916292
100
AcDbArc
 50
227.3119280794
 51
242.7040315235
  0
ARC
  5
B4
330
1F
100
AcDbEntity
  8
0
  6
Continuous
 62
     7
100
AcDbCircle
 10
285.9004520512
 20
20.1020098596
 30
0.0
 40
1.238521734
100
AcDbArc
 50
194.7952194234
 51
225.7176549042
  0
ARC
  5
B5
330
1F
100
AcDbEntity
  8
0
  6
Continuous
 62
     7
100
AcDbCircle
 10
286.519633906
 20
19.2539626688
 30
0.0
 40
2.3669248153
100
AcDbArc
 50
86.2218022928
 51
120.4272602309
  0
ARC
  5
B6
330
1F
100
AcDbEntity
  8
0
  6
Continuous
 62
     7
100
AcDbCircle
 10
286.2507771235
 20
12.5577948477
 30
0.0
 40
9.0679051661
100
AcDbArc
 50
78.6827049226
 51
87.3147599624
  0
ARC
  5
B7
330
1F
100
AcDbEntity
  8
0
  6
Continuous
 62
     7
100
AcDbCircle
 10
286.1400172867
 20
19.9431558946
 30
0.0
 40
1.5805466846
100
AcDbArc
 50
121.2140948541
 51
141.525476829
  0
ARC
  5
B8
330
1F
100
AcDbEntity
  8
0
  6
Continuous
 62
     7
100
AcDbCircle
 10
286.7171916523
 20
20.7542132232
 30
0.0
 40
0.8661276052000002
100
AcDbArc
 50
222.7760387596
 51
239.0362434679
  0
ARC
  5
B9
330
1F
100
AcDbEntity
  8
0
  6
Continuous
 62
     7
100
AcDbCircle
 10
284.210482074
 20
13.4239410246
 30
0.0
 40
6.8587735763
100
AcDbArc
 50
59.9020272562
 51
68.2036481282
  0
ARC
  5
BA
330
1F
100
AcDbEntity
  8
0
  6
Continuous
 62
     7
100
AcDbCircle
 10
287.6189765678
 20
22.3498275319
 30
0.0
 40
2.698741017100001
100
AcDbArc
 50
240.0481997804
 51
251.3779673734
  0
ARC
  5
BB
330
1F
100
AcDbEntity
  8
0
  6
Continuous
 62
     7
100
AcDbCircle
 10
286.953519401
 20
18.1929289165
 30
0.0
 40
1.4334474881
100
AcDbArc
 50
315.8904553226
 51
333.5229264375
  0
ARC
  5
BC
330
1F
100
AcDbEntity
  8
0
  6
Continuous
 62
     7
100
AcDbCircle
 10
286.9581576447
 20
18.1395217664
 30
0.0
 40
1.4062287119
100
AcDbArc
 50
335.3867972703
 51
24.3915119403
  0
ARC
  5
BD
330
1F
100
AcDbEntity
  8
0
  6
Continuous
 62
     7
100
AcDbCircle
 10
286.8859527412
 20
18.0616650746
 30
0.0
 40
1.5047025147
100
AcDbArc
 50
25.9562916611
 51
59.4834829676
  0
ARC
  5
BE
330
1F
100
AcDbEntity
  8
0
  6
Continuous
 62
     7
100
AcDbCircle
 10
285.9626101853
 20
20.1422298287
 30
0.0
 40
1.3090920729
100
AcDbArc
 50
164.1974860461
 51
195.8025139539
  0
ARC
  5
BF
330
1F
100
AcDbEntity
  8
0
  6
Continuous
 62
     7
100
AcDbCircle
 10
285.7947079451
 20
20.2497375912
 30
0.0
 40
1.119747444
100
AcDbArc
 50
142.813917903
 51
167.1522951417
  0
CIRCLE
  5
C0
330
1F
100
AcDbEntity
  8
91000_TIP
  6
Continuous
 62
     7
100
AcDbCircle
 10
266.3659878329
 20
18.0812835754
 30
0.0
 40
4.999999897900011
  0
CIRCLE
  5
C1
330
1F
100
AcDbEntity
  8
91000_TIP
  6
Continuous
 62
     7
100
AcDbCircle
 10
266.3659878329
 20
18.0812835754
 30
0.0
 40
2.49999994890004
  0
TEXT
  5
C2
330
1F
100
AcDbEntity
  8
0
  6
Continuous
 62
     7
100
AcDbText
 10
9.665252337
 20
13.6558012918
 30
0.0
 40
2.2
  1
Alle Bemassungswerte sind in Millimeter (mm) angegeben.
  7
SEACAD_seiso_ttf
 11
9.665252337
 21
15.8558012918
 31
0.0
100
AcDbText
 73
     3
  0
TEXT
  5
C3
330
1F
100
AcDbEntity
  8
0
  6
Continuous
 62
     7
100
AcDbText
 10
9.665252337
 20
9.9891346252
 30
0.0
 40
2.2
  1
All dimensions are in millimeters (mm).
  7
SEACAD_seiso_ttf
 11
9.665252337
 21
12.1891346252
 31
0.0
100
AcDbText
 73
     3
  0
INSERT
  5
23B
330
1F
100
AcDbEntity
  8
0
 62
     7
100
AcDbBlockReference
  2
SE
 10
0.0
 20
0.0
 30
0.0
  0
INSERT
  5
3CA
330
1F
100
AcDbEntity
  8
0
 62
     7
100
AcDbBlockReference
  2
SE1
 10
0.0
 20
0.0
 30
0.0
  0
DIMENSION
  5
3DC
330
1F
100
AcDbEntity
  8
Default
  6
Continuous
 62
     7
100
AcDbDimension
  2
DMBLK6
 10
187.0393666128
 20
222.9929943564
 30
0.0
 11
187.0393666128
 21
213.8179941374
 31
0.0
 70
   160
  1
\A1;<>
 71
     5
 42
-1.0
  3
Siemens
100
AcDbAlignedDimension
 13
209.0792829791
 23
204.6429943564
 33
0.0
 14
206.6658855195
 24
222.9929943564
 34
0.0
 50
90.0
100
AcDbRotatedDimension
  0
DIMENSION
  5
3E6
330
1F
100
AcDbEntity
  8
Default
  6
Continuous
 62
     7
370
    30
100
AcDbDimension
  2
DMBLK7
 10
173.5568054731
 20
97.9929943564
 30
0.0
 11
173.5568054731
 21
160.4929943564
 31
0.0
 70
   160
  1
\A1;<>
 71
     5
 42
-1.0
  3
Siemens
100
AcDbAlignedDimension
 13
206.6658855195
 23
222.9929943564
 33
0.0
 14
212.2658855195
 24
97.9929943564
 34
0.0
 50
90.0
100
AcDbRotatedDimension
1001
ACAD
1000
DSTYLE
1002
{
1070
   271
1070
     2
1070
   272
1070
     2
1070
     0
1002
}
  0
DIMENSION
  5
3F0
330
1F
100
AcDbEntity
  8
Default
  6
Continuous
 62
     7
370
    30
100
AcDbDimension
  2
DMBLK8
 10
323.8158855195
 20
235.5543517056
 30
0.0
 11
268.0408871646
 21
235.5543517056
 31
0.0
 70
   160
  1
\A1;<>
 71
     5
 42
-1.0
  3
Siemens
100
AcDbAlignedDimension
 13
212.2658855195
 23
211.6179943564
 33
0.0
 14
323.8158855195
 24
172.0729943564
 34
0.0
100
AcDbRotatedDimension
  0
DIMENSION
  5
3FA
330
1F
100
AcDbEntity
  8
Default
  6
Continuous
 62
     7
370
    30
100
AcDbDimension
  2
DMBLK9
 10
323.8158855195
 20
245.1649108353
 30
0.0
 11
262.2908839161
 21
245.1649108353
 31
0.0
 70
   160
  1
\A1;<>
 71
     5
 42
-1.0
  3
Siemens
100
AcDbAlignedDimension
 13
200.7658855195
 23
198.8929943564
 33
0.0
 14
323.8158855195
 24
172.0729943564
 34
0.0
100
AcDbRotatedDimension
  0
DIMENSION
  5
404
330
1F
100
AcDbEntity
  8
Default
  6
Continuous
 62
     7
370
    30
100
AcDbDimension
  2
DMBLK10
 10
84.8925230467
 20
234.4627116578
 30
0.0
 11
104.8925225997
 21
234.4627116578
 31
0.0
 70
   161
  1
\A1;<>
 71
     5
 42
-1.0
  3
Siemens
100
AcDbAlignedDimension
 13
84.8925230467
 23
221.9929943564
 33
0.0
 14
124.8925230467
 24
221.9929943564
 34
0.0
1001
ACAD
1000
DSTYLE
1002
{
1070
   271
1070
     2
1070
   272
1070
     2
1070
     0
1002
}
  0
DIMENSION
  5
40E
330
1F
100
AcDbEntity
  8
Default
  6
Continuous
 62
     7
370
    30
100
AcDbDimension
  2
DMBLK11
 10
70.2691817322
 20
222.9929943564
 30
0.0
 11
70.2691817322
 21
160.491385031
 31
0.0
 70
   161
  1
\A1;<>
 71
     5
 42
-1.0
  3
Siemens
100
AcDbAlignedDimension
 13
85.8925230467
 23
222.9929943564
 33
0.0
 14
85.8925230467
 24
97.9897814395
 34
0.0
1001
ACAD
1000
DSTYLE
1002
{
1070
   271
1070
     2
1070
   272
1070
     2
1070
     0
1002
}
  0
ENDSEC
  0
SECTION
  2
OBJECTS
  0
DICTIONARY
  5
C
330
0
100
AcDbDictionary
281
     1
  3
ACAD_GROUP
350
D
  3
ACAD_LAYOUT
350
1A
  3
ACAD_MLINESTYLE
350
17
  3
ACAD_PLOTSETTINGS
350
19
  3
ACAD_PLOTSTYLENAME
350
E
  0
DICTIONARY
  5
D
102
{ACAD_REACTORS
330
C
102
}
330
C
100
AcDbDictionary
281
     1
  0
DICTIONARY
  5
1A
102
{ACAD_REACTORS
330
C
102
}
330
C
100
AcDbDictionary
281
     1
  3
Layout1
350
1E
  3
Model
350
22
  0
DICTIONARY
  5
17
102
{ACAD_REACTORS
330
C
102
}
330
C
100
AcDbDictionary
281
     1
  3
Standard
350
18
  0
DICTIONARY
  5
19
102
{ACAD_REACTORS
330
C
102
}
330
C
100
AcDbDictionary
281
     1
  0
ACDBDICTIONARYWDFLT
  5
E
102
{ACAD_REACTORS
330
C
102
}
330
C
100
AcDbDictionary
281
     1
  3
Normal
350
F
100
AcDbDictionaryWithDefault
340
F
  0
LAYOUT
  5
1E
102
{ACAD_REACTORS
330
1A
102
}
330
1A
100
AcDbPlotSettings
  1

  2
none_device
  4

  6

 40
0.0
 41
0.0
 42
0.0
 43
0.0
 44
0.0
 45
0.0
 46
0.0
 47
0.0
 48
0.0
 49
0.0
140
0.0
141
0.0
142
1.0
143
1.0
 70
   688
 72
     0
 73
     0
 74
     5
  7

 75
    16
147
1.0
148
0.0
149
0.0
100
AcDbLayout
  1
Layout1
 70
     1
 71
     1
 10
0.0
 20
0.0
 11
594.0
 21
420.0
 12
0.0
 22
0.0
 32
0.0
 14
0.0
 24
0.0
 34
0.0
 15
594.0
 25
420.0
 35
0.0
146
0.0
 13
0.0
 23
0.0
 33
0.0
 16
1.0
 26
0.0
 36
0.0
 17
0.0
 27
1.0
 37
0.0
 76
     0
330
1B
  0
LAYOUT
  5
22
102
{ACAD_REACTORS
330
1A
102
}
330
1A
100
AcDbPlotSettings
  1

  2
none_device
  4

  6

 40
0.0
 41
0.0
 42
0.0
 43
0.0
 44
0.0
 45
0.0
 46
0.0
 47
0.0
 48
0.0
 49
0.0
140
0.0
141
0.0
142
1.0
143
1.0
 70
  1712
 72
     0
 73
     0
 74
     0
  7

 75
     0
147
1.0
148
0.0
149
0.0
100
AcDbLayout
  1
Model
 70
     1
 71
     0
 10
0.0
 20
0.0
 11
594.0
 21
420.0
 12
0.0
 22
0.0
 32
0.0
 14
0.0
 24
0.0
 34
0.0
 15
594.0
 25
420.0
 35
0.0
146
0.0
 13
0.0
 23
0.0
 33
0.0
 16
1.0
 26
0.0
 36
0.0
 17
0.0
 27
1.0
 37
0.0
 76
     0
330
1F
  0
MLINESTYLE
  5
18
102
{ACAD_REACTORS
330
17
102
}
330
17
100
AcDbMlineStyle
  2
Standard
 70
     0
  3

 62
   256
 51
90.0
 52
90.0
 71
     2
 49
0.5
 62
   256
  6
BYLAYER
 49
-0.5
 62
   256
  6
BYLAYER
  0
ACDBPLACEHOLDER
  5
F
102
{ACAD_REACTORS
330
E
102
}
330
E
  0
ENDSEC
  0
EOF
