0
SECTION
2
HEADER
9
$EXTMAX
10
594.0000000000
20
420.0000000000
9
$EXTMIN
10
0.0000000000
20
0.0000000000
9
$LIMMIN
10
0.0000000000
20
0.0000000000
9
$LIMMAX
10
594.0000000000
20
420.0000000000
9
$VIEWCTR
10
297.0000000000
20
210.0000000000
9
$VIEWSIZE
40
420.0000000000
9
$CLAYER
8
0
9
$LTSCALE
40
32.6700000000
9
$CELTYPE
6
BYLAYER
9
$DIMSCALE
40
1
9
$DIMASZ
40
3.5000000000
9
$DIMEXO
40
3.7125000000
9
$DIMDLI
40
22.5720000000
9
$DIMEXE
40
10.6920000000
9
$DIMCEN
40
5.3460000000
9
$DIMLFAC
40
1.0000000000
0
ENDSEC
0
SECTION
2
TABLES
0
TABLE
2
LTYPE
70
6
0
LTYPE
2
BYBLOCK
70
0
3

72
65
73
0
40
0.0
0
LTYPE
2
BYLAYER
70
0
3

72
65
73
0
40
0.0
0
LTYPE
2
CONTINUOUS
70
64
3
Solid line
72
65
73
0
40
0
0
LTYPE
2
CENTER
70
64
3
____ _ ____ _ ____ _ ____ _ ____ _ ____ _ ____
72
65
73
4
40
0.6
49
0.375
49
-0.075
49
0.075
49
-0.075
0
LTYPE
2
HIDDEN
70
64
3
- - - - - - - - - - - - - - - - - - - -
72
65
73
2
40
0.2
49
0.1
49
-0.1
0
LTYPE
2
PHANTOM
70
64
3
_____ _ _ _____ _ _ _____ _ _ _____
72
65
73
6
40
0.8
49
0.45
49
-0.05
49
0.1
49
-0.05
49
0.1
49
-0.05
0
LTYPE
2
DOT
70
64
3
. . . . . . . . . . . . . . . . . . . .
72
65
73
2
40
0.2
49
0.1
49
-0.1
0
LTYPE
2
DASHED
70
64
3
- - - - - - - - - - - - - - - - - - - -
72
65
73
2
40
0.2
49
0.1
49
-0.1
0
ENDTAB
0
TABLE
2
LAYER
70
36
0
LAYER
2
0
70
0
62
7
6
CONTINUOUS
0
LAYER
2
DEFAULT_1
70
0
62
7
6
CENTER
0
LAYER
2
DEFAULT_2
70
0
62
8
6
HIDDEN
0
LAYER
2
DEFAULT_3
70
0
62
7
6
PHANTOM
0
LAYER
2
10000_FRONT
70
0
62
7
6
CONTINUOUS
0
LAYER
2
10100_DIM_FRONT
70
0
62
7
6
CONTINUOUS
0
LAYER
2
10300_FRONT_GERMAN_ENGLISH
70
0
62
7
6
CONTINUOUS
0
LAYER
2
11000_LEFT
70
0
62
7
6
CONTINUOUS
0
LAYER
2
11100_DIM_LEFT
70
0
62
7
6
CONTINUOUS
0
LAYER
2
11300_LEFT_GERMAN_ENGLISH
70
0
62
7
6
CONTINUOUS
0
LAYER
2
12000_RIGHT
70
0
62
7
6
CONTINUOUS
0
LAYER
2
12100_DIM_RIGHT
70
0
62
7
6
CONTINUOUS
0
LAYER
2
12300_RIGHT_GERMAN_ENGLISH
70
0
62
7
6
CONTINUOUS
0
LAYER
2
13000_TOP
70
0
62
7
6
CONTINUOUS
0
LAYER
2
13100_DIM_TOP
70
0
62
7
6
CONTINUOUS
0
LAYER
2
13300_TOP_GERMAN_ENGLISH
70
0
62
7
6
CONTINUOUS
0
LAYER
2
14000_BOTTOM
70
0
62
7
6
CONTINUOUS
0
LAYER
2
14100_DIM_BOTTOM
70
0
62
7
6
CONTINUOUS
0
LAYER
2
14300_BOTTOM_GERMAN_ENGLISH
70
0
62
7
6
CONTINUOUS
0
LAYER
2
15000_BACK
70
0
62
7
6
CONTINUOUS
0
LAYER
2
15100_DIM_BACK
70
0
62
7
6
CONTINUOUS
0
LAYER
2
15300_BACK_GERMAN_ENGLISH
70
0
62
7
6
CONTINUOUS
0
LAYER
2
20000_FRONT_O
70
0
62
7
6
CONTINUOUS
0
LAYER
2
20100_DIM_FRONT_O
70
0
62
7
6
CONTINUOUS
0
LAYER
2
20300_FRONT_O_GERMAN_ENGLISH
70
0
62
7
6
CONTINUOUS
0
LAYER
2
40000_ISO
70
0
62
7
6
CONTINUOUS
0
LAYER
2
40300_ISO_GERMAN_ENGLISH
70
0
62
7
6
CONTINUOUS
0
LAYER
2
50000_WIRING
70
0
62
7
6
CONTINUOUS
0
LAYER
2
50300_WIRING_GERMAN_ENGLISH
70
0
62
7
6
CONTINUOUS
0
LAYER
2
90000_FRAME
70
0
62
7
6
CONTINUOUS
0
LAYER
2
91000_TIP
70
0
62
7
6
CONTINUOUS
0
ENDTAB
0
ENDSEC
0
SECTION
2
BLOCKS
0
BLOCK
8
10100_DIM_FRONT
62
7
6
CONTINUOUS
2
*D0
70
65
10
0.0000000000
20
0.0000000000
0
TEXT
8
10100_DIM_FRONT
62
7
6
CONTINUOUS
10
262.1913416345
20
196.8753491620
40
3.5000000000
1
482.6
72
5
11
275.1913416345
21
196.8753491620
0
LINE
8
10100_DIM_FRONT
62
7
6
CONTINUOUS
10
30.6972773887
20
224.0806203763
11
30.6972773887
21
194.0003491620
0
LINE
8
10100_DIM_FRONT
62
7
6
CONTINUOUS
10
513.2972773887
20
224.0806203763
11
513.2972773887
21
194.0003491620
0
LINE
8
10100_DIM_FRONT
62
7
6
CONTINUOUS
10
30.6972773887
20
196.0003491620
11
271.9972773887
21
196.0003491620
0
LINE
8
10100_DIM_FRONT
62
7
6
CONTINUOUS
10
513.2972773887
20
196.0003491620
11
271.9972773887
21
196.0003491620
0
SOLID
8
10100_DIM_FRONT
62
7
6
CONTINUOUS
10
34.1972773887
20
196.5003491620
11
30.6972773887
21
196.0003491620
12
34.1972773887
22
195.5003491620
13
34.1972773887
23
195.5003491620
0
SOLID
8
10100_DIM_FRONT
62
7
6
CONTINUOUS
10
509.7972773887
20
195.5003491620
11
513.2972773887
21
196.0003491620
12
509.7972773887
22
196.5003491620
13
509.7972773887
23
196.5003491620
0
ENDBLK
8
0
0
BLOCK
8
11100_DIM_LEFT
62
7
6
CONTINUOUS
2
*D1
70
65
10
0.0000000000
20
0.0000000000
0
TEXT
8
11100_DIM_LEFT
62
7
6
CONTINUOUS
10
556.9340965228
20
196.8753491620
40
3.5000000000
1
15
72
5
11
561.4340965228
21
196.8753491620
0
LINE
8
11100_DIM_LEFT
62
7
6
CONTINUOUS
10
566.0825252726
20
213.2999301676
11
566.0825252726
21
194.0003491620
0
LINE
8
11100_DIM_LEFT
62
7
6
CONTINUOUS
10
551.0825252726
20
219.5999301676
11
551.0825252726
21
194.0003491620
0
LINE
8
11100_DIM_LEFT
62
7
6
CONTINUOUS
10
566.0825252726
20
196.0003491620
11
558.5825252726
21
196.0003491620
0
LINE
8
11100_DIM_LEFT
62
7
6
CONTINUOUS
10
551.0825252726
20
196.0003491620
11
558.5825252726
21
196.0003491620
0
SOLID
8
11100_DIM_LEFT
62
7
6
CONTINUOUS
10
562.5825252726
20
195.5003491620
11
566.0825252726
21
196.0003491620
12
562.5825252726
22
196.5003491620
13
562.5825252726
23
196.5003491620
0
SOLID
8
11100_DIM_LEFT
62
7
6
CONTINUOUS
10
554.5825252726
20
196.5003491620
11
551.0825252726
21
196.0003491620
12
554.5825252726
22
195.5003491620
13
554.5825252726
23
195.5003491620
0
ENDBLK
8
0
0
BLOCK
8
10100_DIM_FRONT
62
7
6
CONTINUOUS
2
*D2
70
65
10
0.0000000000
20
0.0000000000
0
TEXT
8
10100_DIM_FRONT
62
7
6
CONTINUOUS
10
523.5426451890
20
267.7702533473
40
3.5000000000
1
122
50
90.0000000000
72
5
11
523.5426451890
21
275.2702533473
0
LINE
8
10100_DIM_FRONT
62
7
6
CONTINUOUS
10
513.2972773887
20
212.7999301676
11
526.4176451890
21
212.7999301676
0
LINE
8
10100_DIM_FRONT
62
7
6
CONTINUOUS
10
513.2972773887
20
334.7999301676
11
526.4176451890
21
334.7999301676
0
LINE
8
10100_DIM_FRONT
62
7
6
CONTINUOUS
10
524.4176451890
20
212.7999301676
11
524.4176451890
21
273.7999301676
0
LINE
8
10100_DIM_FRONT
62
7
6
CONTINUOUS
10
524.4176451890
20
334.7999301676
11
524.4176451890
21
273.7999301676
0
SOLID
8
10100_DIM_FRONT
62
7
6
CONTINUOUS
10
523.9176451890
20
216.2999301676
11
524.4176451890
21
212.7999301676
12
524.9176451890
22
216.2999301676
13
524.9176451890
23
216.2999301676
0
SOLID
8
10100_DIM_FRONT
62
7
6
CONTINUOUS
10
524.9176451890
20
331.2999301676
11
524.4176451890
21
334.7999301676
12
523.9176451890
22
331.2999301676
13
523.9176451890
23
331.2999301676
0
ENDBLK
8
0
0
ENDSEC
0
SECTION
2
ENTITIES
0
DIMENSION
8
10100_DIM_FRONT
62
7
6
CONTINUOUS
2
*D0
10
513.2972773887
20
196.0003491620
11
268.6913416345
21
198.6253491620
70
128
13
30.6972773887
23
224.0806203763
14
513.2972773887
24
224.0806203763
0
DIMENSION
8
11100_DIM_LEFT
62
7
6
CONTINUOUS
2
*D1
10
551.0825252726
20
196.0003491620
11
559.1840965228
21
198.6253491620
70
128
13
566.0825252726
23
213.2999301676
14
551.0825252726
24
219.5999301676
50
180.000000
0
DIMENSION
8
10100_DIM_FRONT
62
7
6
CONTINUOUS
2
*D2
10
524.4176451890
20
334.7999301676
11
521.7926451890
21
271.5202533473
70
128
13
513.2972773887
23
212.7999301676
14
513.2972773887
24
334.7999301676
50
90.000000
0
TEXT
8
90000_FRAME
62
7
6
CONTINUOUS
10
499.6600000000
20
11.9000000000
40
2.2000000000
1
Format / Size: DIN A2
72
5
11
533.2361904762
21
11.9000000000
0
TEXT
8
90000_FRAME
62
7
6
CONTINUOUS
10
542.1600000000
20
11.9000000000
40
2.2000000000
1
Massstab / Scale: 1:1
72
5
11
573.0647619048
21
11.9000000000
0
TEXT
8
90000_FRAME
62
7
6
CONTINUOUS
10
517.3750004470
20
20.2500000324
40
3.5000000000
1
6ES73901AE800AA0_001
72
5
11
570.8750004470
21
20.2500000324
0
TEXT
8
11300_LEFT_GERMAN_ENGLISH
62
7
6
CONTINUOUS
10
545.8766260491
20
349.4079716284
40
3.5000000000
1
Links / Left
72
5
11
574.3766260491
21
349.4079716284
0
TEXT
8
10300_FRONT_GERMAN_ENGLISH
62
7
6
CONTINUOUS
10
30.9149394559
20
346.3632296743
40
3.5000000000
1
Vorne / Front
72
5
11
63.4982727892
21
346.3632296743
0
TEXT
8
13300_TOP_GERMAN_ENGLISH
62
7
6
CONTINUOUS
10
30.7561485689
20
156.7675002231
40
3.5000000000
1
Oben / Top
72
5
11
57.1728152356
21
156.7675002231
0
TEXT
8
91000_TIP
62
7
6
CONTINUOUS
10
11.2756234532
20
15.1898618139
40
3.5000000000
1
Alle Bemassungswerte sind in Millimeter (mm) angegeben.
72
5
11
145.8589567865
21
15.1898618139
0
TEXT
8
91000_TIP
62
7
6
CONTINUOUS
10
11.2756234532
20
9.9398618139
40
3.5000000000
1
All dimensions are in millimeters (mm).
72
5
11
104.4422901199
21
9.9398618139
0
LINE
8
90000_FRAME
62
7
6
CONTINUOUS
10
0.0000000000
20
420.0000000000
11
0.0000000000
21
0.0000000000
0
LINE
8
90000_FRAME
62
7
6
CONTINUOUS
10
5.0000000000
20
415.0000000000
11
5.0000000000
21
5.0000000000
0
LINE
8
10000_FRONT
62
7
6
CONTINUOUS
10
38.4830585065
20
277.6774788864
11
38.5164487784
21
277.2958263319
0
LINE
8
13000_TOP
62
7
6
CONTINUOUS
10
30.6972773887
20
130.5485238200
11
30.6972773887
21
145.5485238200
0
LINE
8
10000_FRONT
62
7
6
CONTINUOUS
10
30.6972773887
20
212.7999301676
11
30.6972773887
21
224.0802219336
0
LINE
8
10000_FRONT
62
7
6
CONTINUOUS
10
30.6972773887
20
224.0806203763
11
30.6972773887
21
334.7995252431
0
LINE
8
10000_FRONT
62
7
6
CONTINUOUS
10
33.9972773887
20
274.6866815136
11
33.9972773887
21
268.9131788217
0
LINE
8
10000_FRONT
62
7
6
CONTINUOUS
10
43.9972773887
20
268.9131788217
11
43.9972773887
21
274.6866815136
0
LINE
8
10000_FRONT
62
7
6
CONTINUOUS
10
39.5114962709
20
277.6774788864
11
39.4781059990
21
277.2958263319
0
LINE
8
91000_TIP
62
7
6
CONTINUOUS
10
422.7797812733
20
20.8043438692
11
432.7797810691
21
23.3043438181
0
LINE
8
90000_FRAME
62
7
6
CONTINUOUS
10
0.0000000000
20
0.0000000000
11
594.0000000000
21
0.0000000000
0
LINE
8
90000_FRAME
62
7
6
CONTINUOUS
10
5.0000000000
20
5.0000000000
11
589.0000000000
21
5.0000000000
0
LINE
8
10000_FRONT
62
7
6
CONTINUOUS
10
38.9972773887
20
277.5734328595
11
33.9972773887
21
274.6866815136
0
LINE
8
90000_FRAME
62
7
6
CONTINUOUS
10
449.0000000000
20
10.0000000000
11
584.0000000000
21
10.0000000000
0
LINE
8
90000_FRAME
62
7
6
CONTINUOUS
10
499.0000000000
20
16.0000000000
11
584.0000000000
21
16.0000000000
0
LINE
8
90000_FRAME
62
7
6
CONTINUOUS
10
472.3969334385
20
16.7492119180
11
473.2525218735
21
16.7492119180
0
LINE
8
90000_FRAME
62
7
6
CONTINUOUS
10
485.5872551446
20
16.7967446088
11
484.0662090379
21
16.7967446088
0
LINE
8
90000_FRAME
62
7
6
CONTINUOUS
10
475.9618852509
20
16.7967446088
11
474.5834372168
21
16.7967446088
0
LINE
8
90000_FRAME
62
7
6
CONTINUOUS
10
463.2231241078
20
16.7967446088
11
464.6491048328
21
16.7967446088
0
LINE
8
90000_FRAME
62
7
6
CONTINUOUS
10
465.7423567219
20
16.7967446088
11
469.3073085344
21
16.7967446088
0
LINE
8
90000_FRAME
62
7
6
CONTINUOUS
10
470.1153642785
20
16.7967446088
11
471.0660180952
21
16.7967446088
0
LINE
8
90000_FRAME
62
7
6
CONTINUOUS
10
477.0551371401
20
16.7967446088
11
480.6200889526
21
16.7967446088
0
LINE
8
90000_FRAME
62
7
6
CONTINUOUS
10
481.4043783513
20
16.7967446088
11
482.3550321680
21
16.7967446088
0
LINE
8
90000_FRAME
62
7
6
CONTINUOUS
10
480.6200889526
20
17.6998657346
11
478.4335851743
21
17.6998657346
0
LINE
8
90000_FRAME
62
7
6
CONTINUOUS
10
469.3073085344
20
17.6998657346
11
467.1208047561
21
17.6998657346
0
LINE
8
91000_TIP
62
7
6
CENTER
10
421.5002708014
20
18.3043439202
11
445.1022600655
21
18.3043439202
0
LINE
8
90000_FRAME
62
7
6
CONTINUOUS
10
480.2873601167
20
18.8168839692
11
478.4335851743
21
18.8168839692
0
LINE
8
90000_FRAME
62
7
6
CONTINUOUS
10
468.9745796985
20
18.8168839692
11
467.1208047561
21
18.8168839692
0
LINE
8
90000_FRAME
62
7
6
CONTINUOUS
10
480.2873601167
20
19.6011733680
11
478.4335851743
21
19.6011733680
0
LINE
8
90000_FRAME
62
7
6
CONTINUOUS
10
468.9745796985
20
19.6011733680
11
467.1208047561
21
19.6011733680
0
LINE
8
90000_FRAME
62
7
6
CONTINUOUS
10
480.5725562617
20
20.6706589117
11
478.4335851743
21
20.6706589117
0
LINE
8
90000_FRAME
62
7
6
CONTINUOUS
10
469.2597758435
20
20.6706589117
11
467.1208047561
21
20.6706589117
0
LINE
8
90000_FRAME
62
7
6
CONTINUOUS
10
485.5872551446
20
21.5500136921
11
484.6366013279
21
21.5500136921
0
LINE
8
90000_FRAME
62
7
6
CONTINUOUS
10
482.9491908034
20
21.5500136921
11
481.4043783513
21
21.5500136921
0
LINE
8
90000_FRAME
62
7
6
CONTINUOUS
10
480.5725562617
20
21.5500136921
11
477.0551371401
21
21.5500136921
0
LINE
8
90000_FRAME
62
7
6
CONTINUOUS
10
475.9618852509
20
21.5500136921
11
474.2507083810
21
21.5500136921
0
LINE
8
90000_FRAME
62
7
6
CONTINUOUS
10
471.8265411485
20
21.5500136921
11
470.1153642785
21
21.5500136921
0
LINE
8
90000_FRAME
62
7
6
CONTINUOUS
10
469.2597758435
20
21.5500136921
11
465.7423567219
21
21.5500136921
0
LINE
8
90000_FRAME
62
7
6
CONTINUOUS
10
463.2231241078
20
21.5500136921
11
464.6491048328
21
21.5500136921
0
LINE
8
10000_FRONT
62
7
6
CONTINUOUS
10
38.9972773887
20
266.0264274757
11
43.9972773887
21
268.9131788217
0
LINE
8
90000_FRAME
62
7
6
CONTINUOUS
10
449.0000000000
20
28.0000000000
11
584.0000000000
21
28.0000000000
0
LINE
8
91000_TIP
62
7
6
CONTINUOUS
10
422.7797812733
20
15.8043439713
11
432.7797810691
21
13.3043440223
0
LINE
8
10000_FRONT
62
7
6
CONTINUOUS
10
33.9972773887
20
268.9131788217
11
38.9972773887
21
266.0264274757
0
LINE
8
13000_TOP
62
7
6
CONTINUOUS
10
513.2972773887
20
130.5485238200
11
30.6972773887
21
130.5485238200
0
LINE
8
13000_TOP
62
7
6
CONTINUOUS
10
513.2972773887
20
133.5485238200
11
30.6972773887
21
133.5485238200
0
LINE
8
13000_TOP
62
7
6
CONTINUOUS
10
30.6972773887
20
144.0485238200
11
513.2972773887
21
144.0485238200
0
LINE
8
13000_TOP
62
7
6
CONTINUOUS
10
30.6972773887
20
145.5485238200
11
513.2972773887
21
145.5485238200
0
LINE
8
10000_FRONT
62
7
6
CONTINUOUS
10
43.9972773887
20
274.6866815136
11
38.9972773887
21
277.5734328595
0
LINE
8
10000_FRONT
62
7
6
CONTINUOUS
10
30.6972773887
20
212.7999301676
11
513.2972773887
21
212.7999301676
0
LINE
8
11000_LEFT
62
7
6
CONTINUOUS
10
551.5825252726
20
212.7999301676
11
555.0325252726
21
212.7999301676
0
LINE
8
11000_LEFT
62
7
6
CONTINUOUS
10
562.1325252726
20
212.7999301676
11
565.5825252726
21
212.7999301676
0
LINE
8
10000_FRONT
62
7
6
CONTINUOUS
10
30.6972773887
20
213.2999301676
11
513.2972773887
21
213.2999301676
0
LINE
8
11000_LEFT
62
7
6
CONTINUOUS
10
563.3325252726
20
215.2999301676
11
561.9325252726
21
215.2999301676
0
LINE
8
11000_LEFT
62
7
6
CONTINUOUS
10
555.2325252726
20
215.2999301676
11
553.8325252726
21
215.2999301676
0
LINE
8
10000_FRONT
62
7
6
CONTINUOUS
10
513.2972773887
20
219.8517701904
11
30.6972773887
21
219.8517701904
0
LINE
8
10000_FRONT
62
7
6
CONTINUOUS
10
30.6972773887
20
220.2870434630
11
513.2972773887
21
220.2870434630
0
LINE
8
10000_FRONT
62
7
6
CONTINUOUS
10
30.6972773887
20
220.6807078081
11
513.2972773887
21
220.6807078081
0
LINE
8
10000_FRONT
62
7
6
CONTINUOUS
10
30.6972773887
20
221.0460965824
11
513.2972773887
21
221.0460965824
0
LINE
8
10000_FRONT
62
7
6
CONTINUOUS
10
30.6972773887
20
221.2859608062
11
513.2972773887
21
221.2859608062
0
LINE
8
10000_FRONT
62
7
6
CONTINUOUS
10
30.6972773887
20
221.3444387431
11
513.2972773887
21
221.3444387431
0
LINE
8
10000_FRONT
62
7
6
CONTINUOUS
10
30.6972773887
20
221.3495647302
11
513.2972773887
21
221.3495647302
0
LINE
8
10000_FRONT
62
7
6
CONTINUOUS
10
30.6972773887
20
221.5334069660
11
513.2972773887
21
221.5334069660
0
LINE
8
10000_FRONT
62
7
6
CONTINUOUS
10
30.6972773887
20
221.5918849029
11
513.2972773887
21
221.5918849029
0
LINE
8
10000_FRONT
62
7
6
CONTINUOUS
10
30.6972773887
20
221.5970108899
11
513.2972773887
21
221.5970108899
0
LINE
8
10000_FRONT
62
7
6
CONTINUOUS
10
30.6972773887
20
221.7808531257
11
513.2972773887
21
221.7808531257
0
LINE
8
10000_FRONT
62
7
6
CONTINUOUS
10
30.6972773887
20
221.8393310627
11
513.2972773887
21
221.8393310627
0
LINE
8
10000_FRONT
62
7
6
CONTINUOUS
10
30.6972773887
20
221.8444570497
11
513.2972773887
21
221.8444570497
0
LINE
8
10000_FRONT
62
7
6
CONTINUOUS
10
30.6972773887
20
222.0282992855
11
513.2972773887
21
222.0282992855
0
LINE
8
10000_FRONT
62
7
6
CONTINUOUS
10
30.6972773887
20
222.0867772225
11
513.2972773887
21
222.0867772225
0
LINE
8
10000_FRONT
62
7
6
CONTINUOUS
10
30.6972773887
20
222.0919032095
11
513.2972773887
21
222.0919032095
0
LINE
8
10000_FRONT
62
7
6
CONTINUOUS
10
30.6972773887
20
222.2757454453
11
513.2972773887
21
222.2757454453
0
LINE
8
10000_FRONT
62
7
6
CONTINUOUS
10
30.6972773887
20
222.3342233822
11
513.2972773887
21
222.3342233822
0
LINE
8
10000_FRONT
62
7
6
CONTINUOUS
10
30.6972773887
20
222.3393493693
11
513.2972773887
21
222.3393493693
0
LINE
8
10000_FRONT
62
7
6
CONTINUOUS
10
30.6972773887
20
222.5231916051
11
513.2972773887
21
222.5231916051
0
LINE
8
10000_FRONT
62
7
6
CONTINUOUS
10
30.6972773887
20
222.5816695420
11
513.2972773887
21
222.5816695420
0
LINE
8
10000_FRONT
62
7
6
CONTINUOUS
10
30.6972773887
20
222.5867955291
11
513.2972773887
21
222.5867955291
0
LINE
8
10000_FRONT
62
7
6
CONTINUOUS
10
30.6972773887
20
222.7706377649
11
513.2972773887
21
222.7706377649
0
LINE
8
10000_FRONT
62
7
6
CONTINUOUS
10
30.6972773887
20
222.8291157018
11
513.2972773887
21
222.8291157018
0
LINE
8
10000_FRONT
62
7
6
CONTINUOUS
10
30.6972773887
20
222.8342416888
11
513.2972773887
21
222.8342416888
0
LINE
8
10000_FRONT
62
7
6
CONTINUOUS
10
30.6972773887
20
223.0180839246
11
513.2972773887
21
223.0180839246
0
LINE
8
10000_FRONT
62
7
6
CONTINUOUS
10
30.6972773887
20
223.0765618616
11
513.2972773887
21
223.0765618616
0
LINE
8
10000_FRONT
62
7
6
CONTINUOUS
10
30.6972773887
20
223.0816878486
11
513.2972773887
21
223.0816878486
0
LINE
8
10000_FRONT
62
7
6
CONTINUOUS
10
30.6972773887
20
223.2655300844
11
513.2972773887
21
223.2655300844
0
LINE
8
10000_FRONT
62
7
6
CONTINUOUS
10
30.6972773887
20
224.0802219336
11
513.2972773887
21
224.0802219336
0
LINE
8
10000_FRONT
62
7
6
CONTINUOUS
10
30.6972773887
20
224.2352317227
11
513.2972773887
21
224.2352317227
0
LINE
8
10000_FRONT
62
7
6
CONTINUOUS
10
30.6972773887
20
224.5670285205
11
513.2972773887
21
224.5670285205
0
LINE
8
10000_FRONT
62
7
6
CONTINUOUS
10
30.6972773887
20
225.0670285205
11
513.2972773887
21
225.0670285205
0
LINE
8
10000_FRONT
62
7
6
CONTINUOUS
10
30.6972773887
20
226.8999301676
11
513.2972773887
21
226.8999301676
0
LINE
8
11000_LEFT
62
7
6
CONTINUOUS
10
565.5825252726
20
227.3999301676
11
561.8123294337
21
227.3999301676
0
LINE
8
10000_FRONT
62
7
6
CONTINUOUS
10
30.6972773887
20
227.3999301676
11
513.2972773887
21
227.3999301676
0
LINE
8
10000_FRONT
62
7
6
CONTINUOUS
10
513.2972773887
20
229.2104630936
11
30.6972773887
21
229.2104630936
0
LINE
8
10000_FRONT
62
7
6
CONTINUOUS
10
513.2972773887
20
229.6976481260
11
30.6972773887
21
229.6976481260
0
LINE
8
10000_FRONT
62
7
6
CONTINUOUS
10
416.2972773887
20
233.2999301676
11
486.2972773887
21
233.2999301676
0
LINE
8
11000_LEFT
62
7
6
CONTINUOUS
10
563.1228556201
20
332.2345397700
11
552.5825252726
21
326.1490772065
0
LINE
8
11000_LEFT
62
7
6
CONTINUOUS
10
553.8325252726
20
323.9840136971
11
557.3227176515
21
325.9990772065
0
LINE
8
11000_LEFT
62
7
6
CONTINUOUS
10
557.8423328937
20
326.2990772065
11
558.3619481360
21
326.5990772065
0
LINE
8
11000_LEFT
62
7
6
CONTINUOUS
10
558.8815633783
20
326.8990772065
11
559.4011786206
21
327.1990772065
0
LINE
8
11000_LEFT
62
7
6
CONTINUOUS
10
559.9207938628
20
327.4990772065
11
562.8325252726
21
329.1801661198
0
LINE
8
10000_FRONT
62
7
6
CONTINUOUS
10
35.1959618269
20
241.8249301676
11
42.7985929504
21
241.8249301676
0
LINE
8
10000_FRONT
62
7
6
CONTINUOUS
10
501.1959618269
20
241.8249301676
11
508.7985929504
21
241.8249301676
0
LINE
8
10000_FRONT
62
7
6
CONTINUOUS
10
513.2972773887
20
244.9249301676
11
510.0884462132
21
244.9249301676
0
LINE
8
10000_FRONT
62
7
6
CONTINUOUS
10
499.9061085641
20
244.9249301676
11
488.2972773887
21
244.9249301676
0
LINE
8
10000_FRONT
62
7
6
CONTINUOUS
10
414.2972773887
20
244.9249301676
11
44.0884462132
21
244.9249301676
0
LINE
8
10000_FRONT
62
7
6
CONTINUOUS
10
33.9061085641
20
244.9249301676
11
30.6972773887
21
244.9249301676
0
LINE
8
10000_FRONT
62
7
6
CONTINUOUS
10
513.2972773887
20
245.2249301676
11
510.0972773887
21
245.2249301676
0
LINE
8
10000_FRONT
62
7
6
CONTINUOUS
10
499.8972773887
20
245.2249301676
11
488.2972773887
21
245.2249301676
0
LINE
8
10000_FRONT
62
7
6
CONTINUOUS
10
414.2972773887
20
245.2249301676
11
44.0972773887
21
245.2249301676
0
LINE
8
10000_FRONT
62
7
6
CONTINUOUS
10
33.8972773887
20
245.2249301676
11
30.6972773887
21
245.2249301676
0
LINE
8
10000_FRONT
62
7
6
CONTINUOUS
10
513.2972773887
20
245.5249301676
11
510.0884462132
21
245.5249301676
0
LINE
8
10000_FRONT
62
7
6
CONTINUOUS
10
499.9061085641
20
245.5249301676
11
488.2972773887
21
245.5249301676
0
LINE
8
10000_FRONT
62
7
6
CONTINUOUS
10
414.2972773887
20
245.5249301676
11
44.0884462132
21
245.5249301676
0
LINE
8
10000_FRONT
62
7
6
CONTINUOUS
10
33.9061085641
20
245.5249301676
11
30.6972773887
21
245.5249301676
0
LINE
8
10000_FRONT
62
7
6
CONTINUOUS
10
508.7985929504
20
248.6249301676
11
501.1959618269
21
248.6249301676
0
LINE
8
10000_FRONT
62
7
6
CONTINUOUS
10
42.7985929504
20
248.6249301676
11
35.1959618269
21
248.6249301676
0
LINE
8
11000_LEFT
62
7
6
CONTINUOUS
10
553.5825252726
20
265.5499301676
11
555.1825252726
21
265.5499301676
0
LINE
8
11000_LEFT
62
7
6
CONTINUOUS
10
555.1845791179
20
265.8999301676
11
556.4845791179
21
265.8999301676
0
LINE
8
11000_LEFT
62
7
6
CONTINUOUS
10
557.5824393691
20
266.0264274757
11
561.5826111761
21
266.0264274757
0
LINE
8
11000_LEFT
62
7
6
CONTINUOUS
10
555.1825252726
20
268.7999301676
11
555.2004001143
21
268.7999301676
0
LINE
8
11000_LEFT
62
7
6
CONTINUOUS
10
556.8972406730
20
268.7999301676
11
557.0825252726
21
268.7999301676
0
LINE
8
11000_LEFT
62
7
6
CONTINUOUS
10
562.0825252726
20
268.7999301676
11
565.4825252726
21
268.7999301676
0
LINE
8
11000_LEFT
62
7
6
CONTINUOUS
10
557.5824393691
20
268.9131788217
11
561.5826111761
21
268.9131788217
0
LINE
8
11000_LEFT
62
7
6
CONTINUOUS
10
557.5824393691
20
274.6866815136
11
561.5826111761
21
274.6866815136
0
LINE
8
11000_LEFT
62
7
6
CONTINUOUS
10
555.1825252726
20
274.7999301676
11
555.3137613102
21
274.7999301676
0
LINE
8
11000_LEFT
62
7
6
CONTINUOUS
10
562.0825252726
20
274.7999301676
11
565.4825252726
21
274.7999301676
0
LINE
8
11000_LEFT
62
7
6
CONTINUOUS
10
555.2528806524
20
220.0444318439
11
555.4138941546
21
220.0205189475
0
LINE
8
11000_LEFT
62
7
6
CONTINUOUS
10
556.0073846440
20
219.9323767956
11
556.6008751335
21
219.8442346437
0
LINE
8
11000_LEFT
62
7
6
CONTINUOUS
10
557.1943656229
20
219.7560924918
11
557.7878561123
21
219.6679503399
0
LINE
8
11000_LEFT
62
7
6
CONTINUOUS
10
558.3813466018
20
219.5798081881
11
558.9748370912
21
219.4916660362
0
LINE
8
11000_LEFT
62
7
6
CONTINUOUS
10
559.5683275807
20
219.4035238843
11
560.1618180701
21
219.3153817324
0
LINE
8
11000_LEFT
62
7
6
CONTINUOUS
10
560.7553085596
20
219.2272395805
11
561.3487990490
21
219.1390974286
0
LINE
8
11000_LEFT
62
7
6
CONTINUOUS
10
561.9422895384
20
219.0509552767
11
562.5357800279
21
218.9628131248
0
LINE
8
11000_LEFT
62
7
6
CONTINUOUS
10
563.1292705173
20
218.8746709729
11
563.6325252726
21
218.7999301676
0
LINE
8
10000_FRONT
62
7
6
CONTINUOUS
10
486.2972773887
20
276.2999301676
11
416.2972773887
21
276.2999301676
0
LINE
8
11000_LEFT
62
7
6
CONTINUOUS
10
557.5824393691
20
277.5734328595
11
561.5826111761
21
277.5734328595
0
LINE
8
11000_LEFT
62
7
6
CONTINUOUS
10
555.1825252726
20
277.6774788864
11
556.4825252726
21
277.6774788864
0
LINE
8
11000_LEFT
62
7
6
CONTINUOUS
10
553.5825252726
20
278.0499301676
11
555.1825252726
21
278.0499301676
0
LINE
8
10000_FRONT
62
7
6
CONTINUOUS
10
513.2972773887
20
279.9999301676
11
30.6972773887
21
279.9999301676
0
LINE
8
10000_FRONT
62
7
6
CONTINUOUS
10
513.2972773887
20
280.2999301676
11
30.6972773887
21
280.2999301676
0
LINE
8
10000_FRONT
62
7
6
CONTINUOUS
10
513.2972773887
20
280.5999301676
11
30.6972773887
21
280.5999301676
0
LINE
8
11000_LEFT
62
7
6
CONTINUOUS
10
565.6157518348
20
220.2870434630
11
563.9106042215
21
220.6807078081
0
LINE
8
11000_LEFT
62
7
6
CONTINUOUS
10
563.1220632047
20
220.8627568462
11
562.8387971502
21
220.9281539678
0
LINE
8
11000_LEFT
62
7
6
CONTINUOUS
10
562.0502561334
20
221.1102030060
11
561.7669900789
21
221.1756001276
0
LINE
8
11000_LEFT
62
7
6
CONTINUOUS
10
560.9784490621
20
221.3576491658
11
560.6951830077
21
221.4230462874
0
LINE
8
11000_LEFT
62
7
6
CONTINUOUS
10
559.9066419909
20
221.6050953256
11
559.6233759364
21
221.6704924472
0
LINE
8
11000_LEFT
62
7
6
CONTINUOUS
10
558.8348349196
20
221.8525414854
11
558.5515688652
21
221.9179386070
0
LINE
8
11000_LEFT
62
7
6
CONTINUOUS
10
557.7630278484
20
222.0999876451
11
557.4797617939
21
222.1653847667
0
LINE
8
11000_LEFT
62
7
6
CONTINUOUS
10
556.6912207771
20
222.3474338049
11
556.4079547226
21
222.4128309265
0
LINE
8
11000_LEFT
62
7
6
CONTINUOUS
10
555.6194137058
20
222.5948799647
11
555.3361476514
21
222.6602770863
0
LINE
8
11000_LEFT
62
7
6
CONTINUOUS
10
563.8450770648
20
221.2859608062
11
563.5917812917
21
221.3444387431
0
LINE
8
11000_LEFT
62
7
6
CONTINUOUS
10
562.7732699935
20
221.5334069660
11
562.5199742205
21
221.5918849029
0
LINE
8
11000_LEFT
62
7
6
CONTINUOUS
10
561.7014629222
20
221.7808531257
11
561.4481671492
21
221.8393310627
0
LINE
8
11000_LEFT
62
7
6
CONTINUOUS
10
560.6296558510
20
222.0282992855
11
560.3763600779
21
222.0867772225
0
LINE
8
11000_LEFT
62
7
6
CONTINUOUS
10
559.5578487797
20
222.2757454453
11
559.3045530067
21
222.3342233822
0
LINE
8
11000_LEFT
62
7
6
CONTINUOUS
10
558.4860417084
20
222.5231916051
11
558.2327459354
21
222.5816695420
0
LINE
8
11000_LEFT
62
7
6
CONTINUOUS
10
557.4142346372
20
222.7706377649
11
557.1609388641
21
222.8291157018
0
LINE
8
11000_LEFT
62
7
6
CONTINUOUS
10
556.3424275659
20
223.0180839246
11
556.0891317929
21
223.0765618616
0
LINE
8
11000_LEFT
62
7
6
CONTINUOUS
10
555.9199518541
20
226.1945324514
11
556.4813771933
21
226.0649171989
0
LINE
8
11000_LEFT
62
7
6
CONTINUOUS
10
557.2998884915
20
225.8759489760
11
557.5531842646
21
225.8174710391
0
LINE
8
11000_LEFT
62
7
6
CONTINUOUS
10
558.3716955628
20
225.6285028163
11
558.6249913358
21
225.5700248793
0
LINE
8
11000_LEFT
62
7
6
CONTINUOUS
10
559.4435026341
20
225.3810566565
11
559.6967984071
21
225.3225787195
0
LINE
8
11000_LEFT
62
7
6
CONTINUOUS
10
560.5153097053
20
225.1336104967
11
560.7686054784
21
225.0751325598
0
LINE
8
11000_LEFT
62
7
6
CONTINUOUS
10
561.5871167766
20
224.8861643369
11
561.8404125496
21
224.8276864000
0
LINE
8
11000_LEFT
62
7
6
CONTINUOUS
10
562.6589238479
20
224.6387181771
11
562.9122196209
21
224.5802402402
0
LINE
8
11000_LEFT
62
7
6
CONTINUOUS
10
563.7307309191
20
224.3912720174
11
563.9840266922
21
224.3327940804
0
LINE
8
11000_LEFT
62
7
6
CONTINUOUS
10
564.8025379904
20
224.1438258576
11
565.0558337634
21
224.0853479206
0
LINE
8
11000_LEFT
62
7
6
CONTINUOUS
10
556.8055980625
20
226.5801897753
11
557.0888641170
21
226.5147926537
0
LINE
8
11000_LEFT
62
7
6
CONTINUOUS
10
557.8774051338
20
226.3327436155
11
558.1606711882
21
226.2673464939
0
LINE
8
11000_LEFT
62
7
6
CONTINUOUS
10
558.9492122050
20
226.0852974557
11
559.2324782595
21
226.0199003341
0
LINE
8
11000_LEFT
62
7
6
CONTINUOUS
10
560.0210192763
20
225.8378512959
11
560.3042853308
21
225.7724541743
0
LINE
8
11000_LEFT
62
7
6
CONTINUOUS
10
561.0928263476
20
225.5904051361
11
561.3760924020
21
225.5250080145
0
LINE
8
11000_LEFT
62
7
6
CONTINUOUS
10
562.1646334188
20
225.3429589764
11
562.4478994733
21
225.2775618548
0
LINE
8
11000_LEFT
62
7
6
CONTINUOUS
10
563.2364404901
20
225.0955128166
11
563.5197065446
21
225.0301156950
0
LINE
8
11000_LEFT
62
7
6
CONTINUOUS
10
564.3082475614
20
224.8480666568
11
564.5915136158
21
224.7826695352
0
LINE
8
11000_LEFT
62
7
6
CONTINUOUS
10
565.3800546326
20
224.6006204970
11
565.4700497454
21
224.5798434881
0
LINE
8
11000_LEFT
62
7
6
CONTINUOUS
10
561.8123294337
20
227.3999301676
11
553.9700497454
21
229.2104630936
0
LINE
8
90000_FRAME
62
7
6
CONTINUOUS
10
482.9491908034
20
21.5500136921
11
484.6366013279
21
18.6029868605
0
LINE
8
90000_FRAME
62
7
6
CONTINUOUS
10
484.0662090379
20
16.7967446088
11
482.3550321680
21
19.8388368221
0
LINE
8
90000_FRAME
62
7
6
CONTINUOUS
10
472.3969334385
20
16.7492119180
11
471.0660180952
21
19.8388368221
0
LINE
8
10000_FRONT
62
7
6
CONTINUOUS
10
35.1959618269
20
298.9749301676
11
42.7985929504
21
298.9749301676
0
LINE
8
10000_FRONT
62
7
6
CONTINUOUS
10
501.1959618269
20
298.9749301676
11
508.7985929504
21
298.9749301676
0
LINE
8
10000_FRONT
62
7
6
CONTINUOUS
10
513.2972773887
20
302.0749301676
11
510.0884462132
21
302.0749301676
0
LINE
8
10000_FRONT
62
7
6
CONTINUOUS
10
499.9061085641
20
302.0749301676
11
44.0884462132
21
302.0749301676
0
LINE
8
10000_FRONT
62
7
6
CONTINUOUS
10
33.9061085641
20
302.0749301676
11
30.6972773887
21
302.0749301676
0
LINE
8
10000_FRONT
62
7
6
CONTINUOUS
10
513.2972773887
20
302.3749301676
11
510.0972773887
21
302.3749301676
0
LINE
8
10000_FRONT
62
7
6
CONTINUOUS
10
499.8972773887
20
302.3749301676
11
44.0972773887
21
302.3749301676
0
LINE
8
10000_FRONT
62
7
6
CONTINUOUS
10
33.8972773887
20
302.3749301676
11
30.6972773887
21
302.3749301676
0
LINE
8
10000_FRONT
62
7
6
CONTINUOUS
10
513.2972773887
20
302.6749301676
11
510.0884462132
21
302.6749301676
0
LINE
8
10000_FRONT
62
7
6
CONTINUOUS
10
499.9061085641
20
302.6749301676
11
44.0884462132
21
302.6749301676
0
LINE
8
10000_FRONT
62
7
6
CONTINUOUS
10
33.9061085641
20
302.6749301676
11
30.6972773887
21
302.6749301676
0
LINE
8
10000_FRONT
62
7
6
CONTINUOUS
10
508.7985929504
20
305.7749301676
11
501.1959618269
21
305.7749301676
0
LINE
8
10000_FRONT
62
7
6
CONTINUOUS
10
42.7985929504
20
305.7749301676
11
35.1959618269
21
305.7749301676
0
LINE
8
90000_FRAME
62
7
6
CONTINUOUS
10
471.8265411485
20
21.5500136921
11
473.0623911102
21
18.6505195513
0
LINE
8
10000_FRONT
62
7
6
CONTINUOUS
10
414.2972773887
20
274.2999301676
11
414.2972773887
21
235.2999301676
0
LINE
8
91000_TIP
62
7
6
CONTINUOUS
10
422.7797812733
20
20.8043438692
11
422.7797812733
21
15.8043439713
0
LINE
8
11000_LEFT
62
7
6
CONTINUOUS
10
553.2825252726
20
302.3749301676
11
553.5825252726
21
302.6749301676
0
LINE
8
10000_FRONT
62
7
6
CONTINUOUS
10
30.6972773887
20
319.7999301676
11
513.2972773887
21
319.7999301676
0
LINE
8
11000_LEFT
62
7
6
CONTINUOUS
10
564.0825252726
20
319.7999301676
11
565.0825252726
21
319.7999301676
0
LINE
8
10000_FRONT
62
7
6
CONTINUOUS
10
30.6972773887
20
320.7999301676
11
513.2972773887
21
320.7999301676
0
LINE
8
10000_FRONT
62
7
6
CONTINUOUS
10
513.2972773887
20
333.2999301676
11
30.6972773887
21
333.2999301676
0
LINE
8
10000_FRONT
62
7
6
CONTINUOUS
10
513.2972773887
20
334.7999301676
11
30.6972773887
21
334.7999301676
0
LINE
8
91000_TIP
62
7
6
CONTINUOUS
10
432.7797810691
20
23.3043438181
11
432.7797810691
21
13.3043440223
0
LINE
8
91000_TIP
62
7
6
CENTER
10
439.2797809364
20
12.5828627138
11
439.2797809364
21
23.8662487138
0
LINE
8
11000_LEFT
62
7
6
CONTINUOUS
10
553.2825252726
20
280.2999301676
11
553.5825252726
21
280.5999301676
0
LINE
8
11000_LEFT
62
7
6
CONTINUOUS
10
555.1825252726
20
274.8383239968
11
555.4081978497
21
274.7723022353
0
LINE
8
90000_FRAME
62
7
6
CONTINUOUS
10
449.0000000000
20
10.0000000000
11
449.0000000000
21
28.0000000000
0
LINE
8
90000_FRAME
62
7
6
CONTINUOUS
10
458.8025838603
20
16.8918099905
11
458.8025838603
21
17.8424638071
0
LINE
8
90000_FRAME
62
7
6
CONTINUOUS
10
462.1298722186
20
20.5518271846
11
462.1298722186
21
21.5024810013
0
LINE
8
90000_FRAME
62
7
6
CONTINUOUS
10
463.2231241078
20
21.5500136921
11
463.2231241078
21
16.7967446088
0
LINE
8
90000_FRAME
62
7
6
CONTINUOUS
10
464.6491048328
20
21.5500136921
11
464.6491048328
21
16.7967446088
0
LINE
8
11000_LEFT
62
7
6
CONTINUOUS
10
565.4825252726
20
268.7999301676
11
566.0825252726
21
269.3999301676
0
LINE
8
11000_LEFT
62
7
6
CONTINUOUS
10
553.2825252726
20
245.2249301676
11
553.5825252726
21
245.5249301676
0
LINE
8
90000_FRAME
62
7
6
CONTINUOUS
10
465.7423567219
20
21.5500136921
11
465.7423567219
21
16.7967446088
0
LINE
8
90000_FRAME
62
7
6
CONTINUOUS
10
467.1208047561
20
20.6706589117
11
467.1208047561
21
19.6011733680
0
LINE
8
90000_FRAME
62
7
6
CONTINUOUS
10
467.1208047561
20
18.8168839692
11
467.1208047561
21
17.6998657346
0
LINE
8
90000_FRAME
62
7
6
CONTINUOUS
10
468.9745796985
20
19.6011733680
11
468.9745796985
21
18.8168839692
0
LINE
8
90000_FRAME
62
7
6
CONTINUOUS
10
469.2597758435
20
21.5500136921
11
469.2597758435
21
20.6706589117
0
LINE
8
90000_FRAME
62
7
6
CONTINUOUS
10
469.3073085344
20
17.6998657346
11
469.3073085344
21
16.7967446088
0
LINE
8
90000_FRAME
62
7
6
CONTINUOUS
10
470.1153642785
20
16.7967446088
11
470.1153642785
21
21.5500136921
0
LINE
8
90000_FRAME
62
7
6
CONTINUOUS
10
471.0660180952
20
16.7967446088
11
471.0660180952
21
19.8388368221
0
LINE
8
90000_FRAME
62
7
6
CONTINUOUS
10
474.5834372168
20
19.8863695130
11
474.5834372168
21
16.7967446088
0
LINE
8
90000_FRAME
62
7
6
CONTINUOUS
10
475.9618852509
20
21.5500136921
11
475.9618852509
21
16.7967446088
0
LINE
8
90000_FRAME
62
7
6
CONTINUOUS
10
477.0551371401
20
21.5500136921
11
477.0551371401
21
16.7967446088
0
LINE
8
90000_FRAME
62
7
6
CONTINUOUS
10
478.4335851743
20
20.6706589117
11
478.4335851743
21
19.6011733680
0
LINE
8
90000_FRAME
62
7
6
CONTINUOUS
10
478.4335851743
20
18.8168839692
11
478.4335851743
21
17.6998657346
0
LINE
8
90000_FRAME
62
7
6
CONTINUOUS
10
480.2873601167
20
19.6011733680
11
480.2873601167
21
18.8168839692
0
LINE
8
90000_FRAME
62
7
6
CONTINUOUS
10
480.5725562617
20
21.5500136921
11
480.5725562617
21
20.6706589117
0
LINE
8
90000_FRAME
62
7
6
CONTINUOUS
10
480.6200889526
20
17.6998657346
11
480.6200889526
21
16.7967446088
0
LINE
8
90000_FRAME
62
7
6
CONTINUOUS
10
481.4043783513
20
16.7967446088
11
481.4043783513
21
21.5500136921
0
LINE
8
90000_FRAME
62
7
6
CONTINUOUS
10
482.3550321680
20
16.7967446088
11
482.3550321680
21
19.8388368221
0
LINE
8
90000_FRAME
62
7
6
CONTINUOUS
10
484.6366013279
20
21.5500136921
11
484.6366013279
21
18.6029868605
0
LINE
8
90000_FRAME
62
7
6
CONTINUOUS
10
485.5872551446
20
21.5500136921
11
485.5872551446
21
16.7967446088
0
LINE
8
11000_LEFT
62
7
6
CONTINUOUS
10
555.1825252726
20
277.6774788864
11
555.3797765702
21
277.5739230208
0
LINE
8
11000_LEFT
62
7
6
CONTINUOUS
10
556.4825252726
20
277.6774788864
11
556.6797765702
21
277.5739230208
0
LINE
8
90000_FRAME
62
7
6
CONTINUOUS
10
486.3953108887
20
16.8918099905
11
486.3953108887
21
17.8424638071
0
LINE
8
10000_FRONT
62
7
6
CONTINUOUS
10
488.2972773887
20
235.2999301676
11
488.2972773887
21
274.2999301676
0
LINE
8
90000_FRAME
62
7
6
CONTINUOUS
10
489.7225992470
20
20.5518271846
11
489.7225992470
21
21.5024810013
0
LINE
8
90000_FRAME
62
7
6
CONTINUOUS
10
499.0000000000
20
10.0000000000
11
499.0000000000
21
28.0000000000
0
LINE
8
90000_FRAME
62
7
6
CONTINUOUS
10
589.0000000000
20
415.0000000000
11
5.0000000000
21
415.0000000000
0
LINE
8
90000_FRAME
62
7
6
CONTINUOUS
10
594.0000000000
20
420.0000000000
11
0.0000000000
21
420.0000000000
0
LINE
8
11000_LEFT
62
7
6
CONTINUOUS
10
555.4081978497
20
274.7723022353
11
555.5919086325
21
274.6490811414
0
LINE
8
11000_LEFT
62
7
6
CONTINUOUS
10
566.0825252726
20
219.8517701904
11
565.6157518348
21
220.2870434630
0
LINE
8
11000_LEFT
62
7
6
CONTINUOUS
10
553.5825252726
20
244.9249301676
11
553.2825252726
21
245.2249301676
0
LINE
8
13000_TOP
62
7
6
CONTINUOUS
10
513.2972773887
20
130.5485238200
11
513.2972773887
21
145.5485238200
0
LINE
8
10000_FRONT
62
7
6
CONTINUOUS
10
513.2972773887
20
212.7999301676
11
513.2972773887
21
221.3494578372
0
LINE
8
10000_FRONT
62
7
6
CONTINUOUS
10
513.2972773887
20
221.3970037603
11
513.2972773887
21
221.5969039970
0
LINE
8
10000_FRONT
62
7
6
CONTINUOUS
10
513.2972773887
20
221.6444499201
11
513.2972773887
21
221.8443501568
0
LINE
8
10000_FRONT
62
7
6
CONTINUOUS
10
513.2972773887
20
221.8918960798
11
513.2972773887
21
222.0917963166
0
LINE
8
10000_FRONT
62
7
6
CONTINUOUS
10
513.2972773887
20
222.1393422396
11
513.2972773887
21
222.3392424763
0
LINE
8
10000_FRONT
62
7
6
CONTINUOUS
10
513.2972773887
20
222.3867883994
11
513.2972773887
21
222.5866886361
0
LINE
8
10000_FRONT
62
7
6
CONTINUOUS
10
513.2972773887
20
222.6342345592
11
513.2972773887
21
222.8341347959
0
LINE
8
10000_FRONT
62
7
6
CONTINUOUS
10
513.2972773887
20
222.8816807190
11
513.2972773887
21
224.0802219336
0
LINE
8
10000_FRONT
62
7
6
CONTINUOUS
10
513.2972773887
20
224.0806203763
11
513.2972773887
21
334.7985007087
0
LINE
8
11000_LEFT
62
7
6
CONTINUOUS
10
555.3299032822
20
269.2082676063
11
555.2700309658
21
269.0106719216
0
LINE
8
11000_LEFT
62
7
6
CONTINUOUS
10
555.2700309658
20
269.0106719216
11
555.2234636086
21
268.8667517881
0
LINE
8
11000_LEFT
62
7
6
CONTINUOUS
10
557.5824393691
20
277.5734328595
11
557.4736320500
21
277.2448189077
0
LINE
8
11000_LEFT
62
7
6
CONTINUOUS
10
557.5824393691
20
268.9131788217
11
557.4736320500
21
268.5845648699
0
LINE
8
11000_LEFT
62
7
6
CONTINUOUS
10
555.2234636086
20
268.8667517881
11
555.1932715858
21
268.7792767567
0
LINE
8
11000_LEFT
62
7
6
CONTINUOUS
10
557.1621911197
20
276.4188102835
11
557.5824393691
21
277.5734328595
0
LINE
8
11000_LEFT
62
7
6
CONTINUOUS
10
561.5826111761
20
266.0264274757
11
562.0825252726
21
267.3999301676
0
LINE
8
11000_LEFT
62
7
6
CONTINUOUS
10
555.8764074684
20
222.9906156556
11
555.6194137058
21
222.5948799647
0
LINE
8
11000_LEFT
62
7
6
CONTINUOUS
10
556.9482145397
20
222.7431694958
11
556.6912207771
21
222.3474338049
0
LINE
8
11000_LEFT
62
7
6
CONTINUOUS
10
558.0200216109
20
222.4957233361
11
557.7630278484
21
222.0999876451
0
LINE
8
11000_LEFT
62
7
6
CONTINUOUS
10
559.0918286822
20
222.2482771763
11
558.8348349196
21
221.8525414854
0
LINE
8
11000_LEFT
62
7
6
CONTINUOUS
10
560.1636357535
20
222.0008310165
11
559.9066419909
21
221.6050953256
0
LINE
8
11000_LEFT
62
7
6
CONTINUOUS
10
561.2354428247
20
221.7533848567
11
560.9784490621
21
221.3576491658
0
LINE
8
11000_LEFT
62
7
6
CONTINUOUS
10
562.3072498960
20
221.5059386969
11
562.0502561334
21
221.1102030060
0
LINE
8
11000_LEFT
62
7
6
CONTINUOUS
10
563.3790569673
20
221.2584925372
11
563.1220632047
21
220.8627568462
0
LINE
8
90000_FRAME
62
7
6
CONTINUOUS
10
541.5000000000
20
10.0000000000
11
541.5000000000
21
16.0000000000
0
LINE
8
11000_LEFT
62
7
6
CONTINUOUS
10
555.7259727252
20
269.9824917135
11
555.6570456787
21
269.3247963071
0
LINE
8
11000_LEFT
62
7
6
CONTINUOUS
10
555.6570456787
20
269.3247963071
11
555.5861469408
21
268.7025683437
0
LINE
8
11000_LEFT
62
7
6
CONTINUOUS
10
555.5861469408
20
268.7025683437
11
555.5152482028
21
268.1247240418
0
LINE
8
11000_LEFT
62
7
6
CONTINUOUS
10
556.8861469408
20
268.7025683437
11
556.8152482028
21
268.1247240418
0
LINE
8
11000_LEFT
62
7
6
CONTINUOUS
10
557.4736320500
20
274.0294536100
11
557.3906651975
21
273.3895496529
0
LINE
8
11000_LEFT
62
7
6
CONTINUOUS
10
555.5152482028
20
268.1247240418
11
555.4463211563
21
267.5995436243
0
LINE
8
11000_LEFT
62
7
6
CONTINUOUS
10
556.8152482028
20
268.1247240418
11
556.7463211563
21
267.5995436243
0
LINE
8
11000_LEFT
62
7
6
CONTINUOUS
10
555.4463211563
20
267.5995436243
11
555.3813374926
21
267.1345526667
0
LINE
8
11000_LEFT
62
7
6
CONTINUOUS
10
556.7463211563
20
267.5995436243
11
556.6813374926
21
267.1345526667
0
LINE
8
11000_LEFT
62
7
6
CONTINUOUS
10
555.8824850745
20
271.7999357097
11
555.8636368376
21
271.6668910362
0
LINE
8
11000_LEFT
62
7
6
CONTINUOUS
10
555.3813374926
20
267.1345526667
11
555.3222689033
21
266.7364142590
0
LINE
8
11000_LEFT
62
7
6
CONTINUOUS
10
556.6813374926
20
267.1345526667
11
556.6222689033
21
266.7364142590
0
LINE
8
11000_LEFT
62
7
6
CONTINUOUS
10
555.3222689033
20
266.7364142590
11
555.2710870797
21
266.4108335277
0
LINE
8
11000_LEFT
62
7
6
CONTINUOUS
10
556.6222689033
20
266.7364142590
11
556.5710870797
21
266.4108335277
0
LINE
8
11000_LEFT
62
7
6
CONTINUOUS
10
555.8636368376
20
271.6668910362
11
555.7966003124
21
271.2464911331
0
LINE
8
11000_LEFT
62
7
6
CONTINUOUS
10
557.5824393691
20
274.6866815136
11
557.4736320500
21
274.0294536100
0
LINE
8
11000_LEFT
62
7
6
CONTINUOUS
10
561.6914018124
20
269.5702941790
11
561.5826111761
21
268.9131788217
0
LINE
8
11000_LEFT
62
7
6
CONTINUOUS
10
555.2710870797
20
266.4108335277
11
555.2297637133
21
266.1624758834
0
LINE
8
11000_LEFT
62
7
6
CONTINUOUS
10
556.5710870797
20
266.4108335277
11
556.5297637133
21
266.1624758834
0
LINE
8
11000_LEFT
62
7
6
CONTINUOUS
10
555.2297637133
20
266.1624758834
11
555.2002704956
21
265.9949001682
0
LINE
8
11000_LEFT
62
7
6
CONTINUOUS
10
556.5297637133
20
266.1624758834
11
556.5002704956
21
265.9949001682
0
LINE
8
11000_LEFT
62
7
6
CONTINUOUS
10
557.3906651975
20
276.9248669292
11
557.3337766907
21
276.6073494029
0
LINE
8
11000_LEFT
62
7
6
CONTINUOUS
10
557.3906651975
20
268.2646128914
11
557.3337766907
21
267.9470953651
0
LINE
8
11000_LEFT
62
7
6
CONTINUOUS
10
561.8312458350
20
275.6525597570
11
561.7743475708
21
275.3350761768
0
LINE
8
11000_LEFT
62
7
6
CONTINUOUS
10
561.8312458350
20
266.9923057191
11
561.7743475708
21
266.6748221389
0
LINE
8
11000_LEFT
62
7
6
CONTINUOUS
10
555.7966003124
20
271.2464911331
11
555.7213761200
21
270.8367414254
0
LINE
8
11000_LEFT
62
7
6
CONTINUOUS
10
555.2002704956
20
265.9949001682
11
555.1826176956
21
265.8999301676
0
LINE
8
11000_LEFT
62
7
6
CONTINUOUS
10
556.5002704956
20
265.9949001682
11
556.4826176956
21
265.8999301676
0
LINE
8
11000_LEFT
62
7
6
CONTINUOUS
10
555.7213761200
20
270.8367414254
11
555.6410346357
21
270.4455269992
0
LINE
8
11000_LEFT
62
7
6
CONTINUOUS
10
555.6410346357
20
270.4455269992
11
555.5586462345
21
270.0803762538
0
LINE
8
11000_LEFT
62
7
6
CONTINUOUS
10
555.3361476514
20
222.6602770863
11
555.4205042967
21
223.0256658606
0
LINE
8
11000_LEFT
62
7
6
CONTINUOUS
10
556.7212414171
20
226.2148010010
11
556.8055980625
21
226.5801897753
0
LINE
8
11000_LEFT
62
7
6
CONTINUOUS
10
556.4079547226
20
222.4128309265
11
556.4923113680
21
222.7782197008
0
LINE
8
11000_LEFT
62
7
6
CONTINUOUS
10
557.7930484884
20
225.9673548412
11
557.8774051338
21
226.3327436155
0
LINE
8
11000_LEFT
62
7
6
CONTINUOUS
10
557.4797617939
20
222.1653847667
11
557.5641184393
21
222.5307735410
0
LINE
8
11000_LEFT
62
7
6
CONTINUOUS
10
555.5586462345
20
270.0803762538
11
555.4772812917
21
269.7483160278
0
LINE
8
11000_LEFT
62
7
6
CONTINUOUS
10
557.4736320500
20
277.2448189077
11
557.3906651975
21
276.9248669292
0
LINE
8
11000_LEFT
62
7
6
CONTINUOUS
10
557.4736320500
20
268.5845648699
11
557.3906651975
21
268.2646128914
0
LINE
8
11000_LEFT
62
7
6
CONTINUOUS
10
561.7743475708
20
275.3350761768
11
561.6914018124
21
275.0152391922
0
LINE
8
11000_LEFT
62
7
6
CONTINUOUS
10
561.7743475708
20
266.6748221389
11
561.6914018124
21
266.3549851544
0
LINE
8
11000_LEFT
62
7
6
CONTINUOUS
10
555.4772812917
20
269.7483160278
11
555.4000101825
21
269.4557363771
0
LINE
8
11000_LEFT
62
7
6
CONTINUOUS
10
555.4000101825
20
269.4557363771
11
555.3299032822
21
269.2082676063
0
LINE
8
11000_LEFT
62
7
6
CONTINUOUS
10
561.6914018124
20
275.0152391922
11
561.5826111761
21
274.6866815136
0
LINE
8
11000_LEFT
62
7
6
CONTINUOUS
10
561.6914018124
20
266.3549851544
11
561.5826111761
21
266.0264274757
0
LINE
8
90000_FRAME
62
7
6
CONTINUOUS
10
474.2507083810
20
21.5500136921
11
473.0623911102
21
18.6505195513
0
LINE
8
90000_FRAME
62
7
6
CONTINUOUS
10
474.5834372168
20
19.8863695130
11
473.2525218735
21
16.7492119180
0
LINE
8
90000_FRAME
62
7
6
CONTINUOUS
10
458.9944124496
20
20.9692081512
11
459.2684782743
21
21.2432812288
0
LINE
8
11000_LEFT
62
7
6
CONTINUOUS
10
553.5825252726
20
279.9999301676
11
553.2825252726
21
280.2999301676
0
LINE
8
11000_LEFT
62
7
6
CONTINUOUS
10
565.4825252726
20
274.7999301676
11
566.0825252726
21
274.1999301676
0
LINE
8
11000_LEFT
62
7
6
CONTINUOUS
10
553.5825252726
20
302.0749301676
11
553.2825252726
21
302.3749301676
0
LINE
8
11000_LEFT
62
7
6
CONTINUOUS
10
555.3797765702
20
277.5739230208
11
555.5454808048
21
277.3876286960
0
LINE
8
11000_LEFT
62
7
6
CONTINUOUS
10
556.6797765702
20
277.5739230208
11
556.8454808048
21
277.3876286960
0
LINE
8
11000_LEFT
62
7
6
CONTINUOUS
10
555.5919086325
20
274.6490811414
11
555.7367279960
21
274.4710319408
0
LINE
8
11000_LEFT
62
7
6
CONTINUOUS
10
557.3046045382
20
267.3103659711
11
557.3338047102
21
266.9923057191
0
LINE
8
11000_LEFT
62
7
6
CONTINUOUS
10
557.3046045382
20
275.9706200090
11
557.3338047102
21
275.6525597570
0
LINE
8
11000_LEFT
62
7
6
CONTINUOUS
10
561.8312738546
20
267.9470953651
11
561.8604559316
21
267.6290259702
0
LINE
8
11000_LEFT
62
7
6
CONTINUOUS
10
561.8312738546
20
276.6073494029
11
561.8604559316
21
276.2892800080
0
LINE
8
11000_LEFT
62
7
6
CONTINUOUS
10
557.3338047102
20
270.8449353085
11
557.3907029744
21
270.2099681481
0
LINE
8
11000_LEFT
62
7
6
CONTINUOUS
10
561.7743853477
20
273.3895496529
11
561.8312738546
21
272.7545146004
0
LINE
8
11000_LEFT
62
7
6
CONTINUOUS
10
555.9322609420
20
275.8853233219
11
555.9698052331
21
275.3474129127
0
LINE
8
11000_LEFT
62
7
6
CONTINUOUS
10
557.2322609420
20
275.8853233219
11
557.2698052331
21
275.3474129127
0
LINE
8
11000_LEFT
62
7
6
CONTINUOUS
10
555.9685413236
20
273.6470397134
11
555.9740594837
21
273.5492570075
0
LINE
8
11000_LEFT
62
7
6
CONTINUOUS
10
557.3046045382
20
271.4810558125
11
557.3338047102
21
270.8449353085
0
LINE
8
11000_LEFT
62
7
6
CONTINUOUS
10
561.8312738546
20
272.7545146004
11
561.8604559316
21
272.1183758105
0
LINE
8
11000_LEFT
62
7
6
CONTINUOUS
10
555.9698052331
20
275.3474129127
11
555.9876326098
21
274.7586688319
0
LINE
8
11000_LEFT
62
7
6
CONTINUOUS
10
557.2698052331
20
275.3474129127
11
557.2876326098
21
274.7586688319
0
LINE
8
11000_LEFT
62
7
6
CONTINUOUS
10
555.9876326098
20
274.7586688319
11
555.9897686089
21
274.4478453308
0
LINE
8
11000_LEFT
62
7
6
CONTINUOUS
10
557.2876326098
20
274.7586688319
11
557.2897686089
21
274.4478453308
0
LINE
8
11000_LEFT
62
7
6
CONTINUOUS
10
551.0825252726
20
323.5510009952
11
551.0825252726
21
222.5999301676
0
LINE
8
11000_LEFT
62
7
6
CONTINUOUS
10
551.0825252726
20
221.9999301676
11
551.0825252726
21
221.3999301676
0
LINE
8
11000_LEFT
62
7
6
CONTINUOUS
10
551.0825252726
20
220.7999301676
11
551.0825252726
21
220.1999301676
0
LINE
8
11000_LEFT
62
7
6
CONTINUOUS
10
551.0825252726
20
219.5999301676
11
551.0825252726
21
218.9999301676
0
LINE
8
11000_LEFT
62
7
6
CONTINUOUS
10
551.0825252726
20
218.3999301676
11
551.0825252726
21
217.7999301676
0
LINE
8
11000_LEFT
62
7
6
CONTINUOUS
10
551.0825252726
20
217.1999301676
11
551.0825252726
21
213.2999301676
0
LINE
8
11000_LEFT
62
7
6
CONTINUOUS
10
553.5325252726
20
215.5999301676
11
553.5325252726
21
218.5607056203
0
LINE
8
11000_LEFT
62
7
6
CONTINUOUS
10
553.5825252726
20
229.6976481260
11
553.5825252726
21
244.9249301676
0
LINE
8
11000_LEFT
62
7
6
CONTINUOUS
10
553.5825252726
20
245.5249301676
11
553.5825252726
21
279.9999301676
0
LINE
8
11000_LEFT
62
7
6
CONTINUOUS
10
553.5825252726
20
280.5999301676
11
553.5825252726
21
302.0749301676
0
LINE
8
11000_LEFT
62
7
6
CONTINUOUS
10
553.5825252726
20
302.6749301676
11
553.5825252726
21
323.5510009952
0
LINE
8
11000_LEFT
62
7
6
CONTINUOUS
10
555.1825252726
20
278.0499301676
11
555.1825252726
21
265.5499301676
0
LINE
8
11000_LEFT
62
7
6
CONTINUOUS
10
555.5325252726
20
213.2999301676
11
555.5325252726
21
214.9999301676
0
LINE
8
11000_LEFT
62
7
6
CONTINUOUS
10
557.0825252726
20
270.5775204649
11
557.0825252726
21
267.3999639885
0
LINE
8
11000_LEFT
62
7
6
CONTINUOUS
10
557.3045946136
20
272.1183758105
11
557.3046045382
21
271.4810558125
0
LINE
8
11000_LEFT
62
7
6
CONTINUOUS
10
557.3045946136
20
267.6290259702
11
557.3046045382
21
267.3103659711
0
LINE
8
11000_LEFT
62
7
6
CONTINUOUS
10
557.3045946136
20
276.2892800080
11
557.3046045382
21
275.9706200090
0
LINE
8
11000_LEFT
62
7
6
CONTINUOUS
10
561.6325252726
20
213.2999301676
11
561.6325252726
21
214.9999301676
0
LINE
8
11000_LEFT
62
7
6
CONTINUOUS
10
561.8604559316
20
276.2892800080
11
561.8604460071
21
275.9706200090
0
LINE
8
11000_LEFT
62
7
6
CONTINUOUS
10
561.8604559316
20
267.6290259702
11
561.8604460071
21
267.3103659711
0
LINE
8
11000_LEFT
62
7
6
CONTINUOUS
10
561.8604559316
20
272.1183758105
11
561.8604460071
21
271.4810558125
0
LINE
8
11000_LEFT
62
7
6
CONTINUOUS
10
562.0825252726
20
276.1998963468
11
562.0825252726
21
267.3999639885
0
LINE
8
11000_LEFT
62
7
6
CONTINUOUS
10
563.5825252726
20
328.7471534179
11
563.5825252726
21
320.2999301676
0
LINE
8
11000_LEFT
62
7
6
CONTINUOUS
10
563.6325252726
20
218.7999301676
11
563.6325252726
21
215.5999301676
0
LINE
8
11000_LEFT
62
7
6
CONTINUOUS
10
565.4825252726
20
274.7999301676
11
565.4825252726
21
268.7999301676
0
LINE
8
11000_LEFT
62
7
6
CONTINUOUS
10
566.0825252726
20
274.1999302630
11
566.0825252726
21
269.3999955846
0
LINE
8
11000_LEFT
62
7
6
CONTINUOUS
10
566.0825252726
20
213.2999301676
11
566.0825252726
21
219.8517701904
0
LINE
8
11000_LEFT
62
7
6
CONTINUOUS
10
566.0825252726
20
225.0670285205
11
566.0825252726
21
226.8999301676
0
LINE
8
11000_LEFT
62
7
6
CONTINUOUS
10
566.0825252726
20
320.7999301676
11
566.0825252726
21
333.2999301676
0
LINE
8
11000_LEFT
62
7
6
CONTINUOUS
10
555.9897686089
20
274.4478453308
11
555.9877147637
21
274.1275274907
0
LINE
8
11000_LEFT
62
7
6
CONTINUOUS
10
557.2897686089
20
274.4478453308
11
557.2877147637
21
274.1275274907
0
LINE
8
11000_LEFT
62
7
6
CONTINUOUS
10
555.9877147637
20
274.1275274907
11
555.9720233860
21
273.4630328322
0
LINE
8
11000_LEFT
62
7
6
CONTINUOUS
10
557.2877147637
20
274.1275274907
11
557.2720233860
21
273.4630328322
0
LINE
8
11000_LEFT
62
7
6
CONTINUOUS
10
555.9720233860
20
273.4630328322
11
555.9425301682
21
272.7747067357
0
LINE
8
11000_LEFT
62
7
6
CONTINUOUS
10
557.2720233860
20
273.4630328322
11
557.2425301682
21
272.7747067357
0
LINE
8
11000_LEFT
62
7
6
CONTINUOUS
10
557.3337766907
20
272.7545146004
11
557.3045946136
21
272.1183758105
0
LINE
8
11000_LEFT
62
7
6
CONTINUOUS
10
561.8604460071
20
271.4810558125
11
561.8312458350
21
270.8449353085
0
LINE
8
11000_LEFT
62
7
6
CONTINUOUS
10
555.9425301682
20
272.7747067357
11
555.9012068018
21
272.0724125736
0
LINE
8
11000_LEFT
62
7
6
CONTINUOUS
10
557.2425301682
20
272.7747067357
11
557.2012068018
21
272.0724125736
0
LINE
8
11000_LEFT
62
7
6
CONTINUOUS
10
555.9012068018
20
272.0724125736
11
555.8825429796
21
271.7999289054
0
LINE
8
11000_LEFT
62
7
6
CONTINUOUS
10
557.2012068018
20
272.0724125736
11
557.1825429796
21
271.7999289054
0
LINE
8
11000_LEFT
62
7
6
CONTINUOUS
10
555.8825429796
20
271.7999289054
11
555.8500249782
21
271.3662138736
0
LINE
8
11000_LEFT
62
7
6
CONTINUOUS
10
557.1825429796
20
271.7999289054
11
557.1500249782
21
271.3662138736
0
LINE
8
11000_LEFT
62
7
6
CONTINUOUS
10
555.8500249782
20
271.3662138736
11
555.7909563889
21
270.6662301133
0
LINE
8
11000_LEFT
62
7
6
CONTINUOUS
10
557.1500249782
20
271.3662138736
11
557.0909563889
21
270.6662301133
0
LINE
8
11000_LEFT
62
7
6
CONTINUOUS
10
557.3906651975
20
273.3895496529
11
557.3337766907
21
272.7545146004
0
LINE
8
11000_LEFT
62
7
6
CONTINUOUS
10
561.8312458350
20
270.8449353085
11
561.7743475708
21
270.2099681481
0
LINE
8
11000_LEFT
62
7
6
CONTINUOUS
10
557.3337766907
20
276.6073494029
11
557.3045946136
21
276.2892800080
0
LINE
8
11000_LEFT
62
7
6
CONTINUOUS
10
557.3337766907
20
267.9470953651
11
557.3045946136
21
267.6290259702
0
LINE
8
11000_LEFT
62
7
6
CONTINUOUS
10
561.8604460071
20
275.9706200090
11
561.8312458350
21
275.6525597570
0
LINE
8
11000_LEFT
62
7
6
CONTINUOUS
10
561.8604460071
20
267.3103659711
11
561.8312458350
21
266.9923057191
0
LINE
8
11000_LEFT
62
7
6
CONTINUOUS
10
555.7909563889
20
270.6662301133
11
555.7259727252
21
269.9824917135
0
LINE
8
11000_LEFT
62
7
6
CONTINUOUS
10
557.0909563889
20
270.6662301133
11
557.0259727252
21
269.9824917135
0
LINE
8
11000_LEFT
62
7
6
CONTINUOUS
10
557.0259727252
20
269.9824917135
11
556.9570456787
21
269.3247963071
0
LINE
8
11000_LEFT
62
7
6
CONTINUOUS
10
556.9570456787
20
269.3247963071
11
556.8861469408
21
268.7025683437
0
LINE
8
11000_LEFT
62
7
6
CONTINUOUS
10
561.7743475708
20
270.2099681481
11
561.6914018124
21
269.5702941790
0
LINE
8
11000_LEFT
62
7
6
CONTINUOUS
10
558.8648555597
20
225.7199086814
11
558.9492122050
21
226.0852974557
0
LINE
8
11000_LEFT
62
7
6
CONTINUOUS
10
558.5515688652
20
221.9179386070
11
558.6359255105
21
222.2833273812
0
LINE
8
11000_LEFT
62
7
6
CONTINUOUS
10
559.9366626309
20
225.4724625216
11
560.0210192763
21
225.8378512959
0
LINE
8
11000_LEFT
62
7
6
CONTINUOUS
10
559.6233759364
20
221.6704924472
11
559.7077325818
21
222.0358812215
0
LINE
8
11000_LEFT
62
7
6
CONTINUOUS
10
561.0084697022
20
225.2250163619
11
561.0928263476
21
225.5904051361
0
LINE
8
11000_LEFT
62
7
6
CONTINUOUS
10
560.6951830077
20
221.4230462874
11
560.7795396531
21
221.7884350617
0
LINE
8
11000_LEFT
62
7
6
CONTINUOUS
10
562.0802767735
20
224.9775702021
11
562.1646334188
21
225.3429589764
0
LINE
8
11000_LEFT
62
7
6
CONTINUOUS
10
561.7669900789
20
221.1756001276
11
561.8513467243
21
221.5409889019
0
LINE
8
11000_LEFT
62
7
6
CONTINUOUS
10
563.1520838447
20
224.7301240423
11
563.2364404901
21
225.0955128166
0
LINE
8
11000_LEFT
62
7
6
CONTINUOUS
10
562.8387971502
20
220.9281539678
11
562.9231537956
21
221.2935427421
0
LINE
8
11000_LEFT
62
7
6
CONTINUOUS
10
564.2238909160
20
224.4826778825
11
564.3082475614
21
224.8480666568
0
LINE
8
11000_LEFT
62
7
6
CONTINUOUS
10
563.9106042215
20
220.6807078081
11
563.9949608668
21
221.0460965824
0
LINE
8
11000_LEFT
62
7
6
CONTINUOUS
10
565.2956979873
20
224.2352317227
11
565.3800546326
21
224.6006204970
0
LINE
8
11000_LEFT
62
7
6
CONTINUOUS
10
555.5454808048
20
277.3876286960
11
555.6816096679
21
277.1212654175
0
LINE
8
11000_LEFT
62
7
6
CONTINUOUS
10
556.8454808048
20
277.3876286960
11
556.9816096679
21
277.1212654175
0
LINE
8
11000_LEFT
62
7
6
CONTINUOUS
10
555.7367279960
20
274.4710319408
11
555.8457263156
21
274.2415809525
0
LINE
8
11000_LEFT
62
7
6
CONTINUOUS
10
557.0825252726
20
267.3999301676
11
557.5824393691
21
266.0264274757
0
LINE
8
11000_LEFT
62
7
6
CONTINUOUS
10
561.5826111761
20
277.5734328595
11
562.0825252726
21
276.1999301676
0
LINE
8
11000_LEFT
62
7
6
CONTINUOUS
10
557.4736487329
20
266.3549851544
11
557.5824393691
21
266.0264274757
0
LINE
8
11000_LEFT
62
7
6
CONTINUOUS
10
557.4736487329
20
275.0152391922
11
557.5824393691
21
274.6866815136
0
LINE
8
11000_LEFT
62
7
6
CONTINUOUS
10
561.5826111761
20
268.9131788217
11
561.6914184952
21
268.5845648699
0
LINE
8
11000_LEFT
62
7
6
CONTINUOUS
10
555.6816096679
20
277.1212654175
11
555.7901348508
21
276.7786500391
0
LINE
8
11000_LEFT
62
7
6
CONTINUOUS
10
556.9816096679
20
277.1212654175
11
557.0901348508
21
276.7786500391
0
LINE
8
11000_LEFT
62
7
6
CONTINUOUS
10
555.8457263156
20
274.2415809525
11
555.9219739664
21
273.9651436544
0
LINE
8
11000_LEFT
62
7
6
CONTINUOUS
10
557.3907029744
20
266.6748221389
11
557.4736487329
21
266.3549851544
0
LINE
8
11000_LEFT
62
7
6
CONTINUOUS
10
557.3907029744
20
275.3350761768
11
557.4736487329
21
275.0152391922
0
LINE
8
11000_LEFT
62
7
6
CONTINUOUS
10
561.6914184952
20
268.5845648699
11
561.7743853477
21
268.2646128914
0
LINE
8
11000_LEFT
62
7
6
CONTINUOUS
10
555.7901348508
20
276.7786500391
11
555.8730280450
21
276.3646920697
0
LINE
8
11000_LEFT
62
7
6
CONTINUOUS
10
557.0901348508
20
276.7786500391
11
557.1730280450
21
276.3646920697
0
LINE
8
11000_LEFT
62
7
6
CONTINUOUS
10
557.3338047102
20
266.9923057191
11
557.3907029744
21
266.6748221389
0
LINE
8
11000_LEFT
62
7
6
CONTINUOUS
10
557.3338047102
20
275.6525597570
11
557.3907029744
21
275.3350761768
0
LINE
8
11000_LEFT
62
7
6
CONTINUOUS
10
561.7743853477
20
268.2646128914
11
561.8312738546
21
267.9470953651
0
LINE
8
11000_LEFT
62
7
6
CONTINUOUS
10
557.4736487329
20
269.5702941790
11
557.5824393691
21
268.9131788217
0
LINE
8
11000_LEFT
62
7
6
CONTINUOUS
10
561.5826111761
20
274.6866815136
11
561.6914184952
21
274.0294536100
0
LINE
8
11000_LEFT
62
7
6
CONTINUOUS
10
555.9219739664
20
273.9651436544
11
555.9685413236
21
273.6470397134
0
LINE
8
11000_LEFT
62
7
6
CONTINUOUS
10
557.3907029744
20
270.2099681481
11
557.4736487329
21
269.5702941790
0
LINE
8
11000_LEFT
62
7
6
CONTINUOUS
10
561.6914184952
20
274.0294536100
11
561.7743853477
21
273.3895496529
0
LINE
8
11000_LEFT
62
7
6
CONTINUOUS
10
555.8730280450
20
276.3646920697
11
555.9322609420
21
275.8853233219
0
LINE
8
11000_LEFT
62
7
6
CONTINUOUS
10
557.1730280450
20
276.3646920697
11
557.2322609420
21
275.8853233219
0
LINE
8
11000_LEFT
62
7
6
CONTINUOUS
10
557.0888641170
20
226.5147926537
11
557.1463694721
21
226.0464491203
0
LINE
8
11000_LEFT
62
7
6
CONTINUOUS
10
558.1606711882
20
226.2673464939
11
558.2181765433
21
225.7990029605
0
LINE
8
11000_LEFT
62
7
6
CONTINUOUS
10
559.2324782595
20
226.0199003341
11
559.2899836146
21
225.5515568008
0
LINE
8
11000_LEFT
62
7
6
CONTINUOUS
10
560.3042853308
20
225.7724541743
11
560.3617906859
21
225.3041106410
0
LINE
8
11000_LEFT
62
7
6
CONTINUOUS
10
561.3760924020
20
225.5250080145
11
561.4335977571
21
225.0566644812
0
LINE
8
11000_LEFT
62
7
6
CONTINUOUS
10
562.4478994733
20
225.2775618548
11
562.5054048284
21
224.8092183214
0
LINE
8
11000_LEFT
62
7
6
CONTINUOUS
10
563.5197065446
20
225.0301156950
11
563.5772118997
21
224.5617721616
0
LINE
8
11000_LEFT
62
7
6
CONTINUOUS
10
564.5915136158
20
224.7826695352
11
564.6490189709
21
224.3143260019
0
LINE
8
90000_FRAME
62
7
6
CONTINUOUS
10
584.0000000000
20
10.0000000000
11
584.0000000000
21
28.0000000000
0
LINE
8
90000_FRAME
62
7
6
CONTINUOUS
10
589.0000000000
20
5.0000000000
11
589.0000000000
21
415.0000000000
0
LINE
8
90000_FRAME
62
7
6
CONTINUOUS
10
594.0000000000
20
0.0000000000
11
594.0000000000
21
420.0000000000
0
LINE
8
11000_LEFT
62
7
6
CONTINUOUS
10
561.5826111761
20
277.5734328595
11
561.6914184952
21
277.2448189077
0
LINE
8
11000_LEFT
62
7
6
CONTINUOUS
10
563.0856629395
20
333.2029602980
11
563.2440631559
21
332.6150119150
0
LINE
8
11000_LEFT
62
7
6
CONTINUOUS
10
561.6914184952
20
277.2448189077
11
561.7743853477
21
276.9248669292
0
LINE
8
11000_LEFT
62
7
6
CONTINUOUS
10
561.7743853477
20
276.9248669292
11
561.8312738546
21
276.6073494029
0
ARC
8
90000_FRAME
62
7
6
CONTINUOUS
10
488.0999520137
20
18.7539031539
40
1.1116193606
50
277.7099956934
51
295.6884927746
0
ARC
8
90000_FRAME
62
7
6
CONTINUOUS
10
488.3842619965
20
18.0290773902
40
0.3401689265
50
305.5032212550
51
72.4652898523
0
ARC
8
90000_FRAME
62
7
6
CONTINUOUS
10
487.8182681884
20
21.4307842998
40
4.7567946411
50
252.5939200548
51
280.9816604256
0
ARC
8
90000_FRAME
62
7
6
CONTINUOUS
10
488.2731035514
20
18.8127705633
40
2.1007265953
50
282.4058358520
51
311.8644433928
0
ARC
8
90000_FRAME
62
7
6
CONTINUOUS
10
487.9995392043
20
20.4211122848
40
0.3029626476
50
154.4400348282
51
221.8201698801
0
ARC
8
90000_FRAME
62
7
6
CONTINUOUS
10
488.0787603557
20
20.3418911335
40
0.4103089737
50
102.8287828681
51
149.2259639003
0
ARC
8
90000_FRAME
62
7
6
CONTINUOUS
10
488.4957871914
20
18.5995558036
40
2.2018365570
50
84.0400061857
51
103.3427657871
0
ARC
8
90000_FRAME
62
7
6
CONTINUOUS
10
488.1548233666
20
16.1821918797
40
4.6423737365
50
70.2625858546
51
82.9524186380
0
ARC
8
90000_FRAME
62
7
6
CONTINUOUS
10
487.6408051645
20
20.8538147693
40
3.2587559909
50
247.5300206145
51
280.7579522143
0
ARC
8
90000_FRAME
62
7
6
CONTINUOUS
10
481.2558386924
20
2.6022948089
40
17.3316084133
50
65.3414674650
51
67.3997770736
0
ARC
8
90000_FRAME
62
7
6
CONTINUOUS
10
492.0517010978
20
28.3947211720
40
10.6291642039
50
242.8620101252
51
247.1042029186
0
ARC
8
90000_FRAME
62
7
6
CONTINUOUS
10
488.1967998713
20
20.8607896750
40
2.1662916292
50
227.3119280794
51
242.7040315235
0
ARC
8
90000_FRAME
62
7
6
CONTINUOUS
10
487.5927690616
20
20.1551120342
40
1.2385217340
50
194.7952194236
51
225.7176549047
0
ARC
8
90000_FRAME
62
7
6
CONTINUOUS
10
487.6549271958
20
20.1953320034
40
1.3090920729
50
164.1974860461
51
195.8025139539
0
ARC
8
90000_FRAME
62
7
6
CONTINUOUS
10
488.2119509165
20
19.3070648434
40
2.3669248153
50
86.2218022928
51
120.4272602309
0
ARC
8
90000_FRAME
62
7
6
CONTINUOUS
10
487.9430941340
20
12.6108970224
40
9.0679051661
50
78.6827049226
51
87.3147599624
0
ARC
8
90000_FRAME
62
7
6
CONTINUOUS
10
487.4870249556
20
20.3028397659
40
1.1197474440
50
142.8139179030
51
167.1522951417
0
ARC
8
90000_FRAME
62
7
6
CONTINUOUS
10
487.8323342971
20
19.9962580692
40
1.5805466845
50
121.2140948535
51
141.5254768286
0
ARC
8
90000_FRAME
62
7
6
CONTINUOUS
10
488.4095086628
20
20.8073153978
40
0.8661276052
50
222.7760387596
51
239.0362434679
0
ARC
8
90000_FRAME
62
7
6
CONTINUOUS
10
485.9027990845
20
13.4770431993
40
6.8587735763
50
59.9020272560
51
68.2036481279
0
ARC
8
90000_FRAME
62
7
6
CONTINUOUS
10
489.3112935783
20
22.4029297065
40
2.6987410171
50
240.0481997804
51
251.3779673737
0
ARC
8
90000_FRAME
62
7
6
CONTINUOUS
10
488.6458364115
20
18.2460310912
40
1.4334474881
50
315.8904553224
51
333.5229264373
0
ARC
8
90000_FRAME
62
7
6
CONTINUOUS
10
488.6504746552
20
18.1926239410
40
1.4062287119
50
335.3867972702
51
24.3915119402
0
ARC
8
90000_FRAME
62
7
6
CONTINUOUS
10
488.5782697517
20
18.1147672492
40
1.5047025148
50
25.9562916605
51
59.4834829668
0
ARC
8
90000_FRAME
62
7
6
CONTINUOUS
10
460.5072249853
20
18.7539031539
40
1.1116193606
50
277.7099956934
51
295.6884927746
0
ARC
8
90000_FRAME
62
7
6
CONTINUOUS
10
460.7915349681
20
18.0290773902
40
0.3401689265
50
305.5032212556
51
72.4652898515
0
ARC
8
90000_FRAME
62
7
6
CONTINUOUS
10
460.2255411600
20
21.4307842998
40
4.7567946411
50
252.5939200545
51
280.9816604253
0
ARC
8
90000_FRAME
62
7
6
CONTINUOUS
10
460.6803765230
20
18.8127705633
40
2.1007265953
50
282.4058358513
51
311.8644433923
0
ARC
8
90000_FRAME
62
7
6
CONTINUOUS
10
460.4068121759
20
20.4211122848
40
0.3029626476
50
154.4400348282
51
221.8201698801
0
ARC
8
90000_FRAME
62
7
6
CONTINUOUS
10
460.4860333273
20
20.3418911335
40
0.4103089737
50
102.8287828726
51
149.2259639027
0
ARC
8
90000_FRAME
62
7
6
CONTINUOUS
10
460.9030601630
20
18.5995558036
40
2.2018365570
50
84.0400061859
51
103.3427657872
0
ARC
8
90000_FRAME
62
7
6
CONTINUOUS
10
460.5620963382
20
16.1821918797
40
4.6423737365
50
70.2625858546
51
82.9524186379
0
ARC
8
90000_FRAME
62
7
6
CONTINUOUS
10
460.0480781360
20
20.8538147693
40
3.2587559909
50
247.5300206148
51
280.7579522145
0
ARC
8
90000_FRAME
62
7
6
CONTINUOUS
10
453.6631116640
20
2.6022948089
40
17.3316084133
50
65.3414674650
51
67.3997770736
0
ARC
8
90000_FRAME
62
7
6
CONTINUOUS
10
464.4589740694
20
28.3947211720
40
10.6291642039
50
242.8620101252
51
247.1042029185
0
ARC
8
90000_FRAME
62
7
6
CONTINUOUS
10
460.6040728429
20
20.8607896750
40
2.1662916292
50
227.3119280794
51
242.7040315235
0
ARC
8
90000_FRAME
62
7
6
CONTINUOUS
10
460.0000420332
20
20.1551120342
40
1.2385217340
50
194.7952194234
51
225.7176549042
0
ARC
8
90000_FRAME
62
7
6
CONTINUOUS
10
460.6192238881
20
19.3070648434
40
2.3669248153
50
86.2218022928
51
120.4272602309
0
ARC
8
90000_FRAME
62
7
6
CONTINUOUS
10
460.3503671056
20
12.6108970224
40
9.0679051661
50
78.6827049226
51
87.3147599624
0
ARC
8
90000_FRAME
62
7
6
CONTINUOUS
10
460.2396072687
20
19.9962580692
40
1.5805466846
50
121.2140948541
51
141.5254768290
0
ARC
8
90000_FRAME
62
7
6
CONTINUOUS
10
460.8167816344
20
20.8073153978
40
0.8661276052
50
222.7760387596
51
239.0362434679
0
ARC
8
90000_FRAME
62
7
6
CONTINUOUS
10
458.3100720561
20
13.4770431993
40
6.8587735763
50
59.9020272562
51
68.2036481282
0
ARC
8
90000_FRAME
62
7
6
CONTINUOUS
10
461.7185665499
20
22.4029297065
40
2.6987410171
50
240.0481997804
51
251.3779673734
0
ARC
8
90000_FRAME
62
7
6
CONTINUOUS
10
461.0531093831
20
18.2460310912
40
1.4334474881
50
315.8904553226
51
333.5229264375
0
ARC
8
90000_FRAME
62
7
6
CONTINUOUS
10
461.0577476268
20
18.1926239410
40
1.4062287119
50
335.3867972703
51
24.3915119403
0
ARC
8
90000_FRAME
62
7
6
CONTINUOUS
10
460.9855427233
20
18.1147672492
40
1.5047025147
50
25.9562916611
51
59.4834829676
0
ARC
8
90000_FRAME
62
7
6
CONTINUOUS
10
460.0622001674
20
20.1953320034
40
1.3090920729
50
164.1974860461
51
195.8025139539
0
ARC
8
90000_FRAME
62
7
6
CONTINUOUS
10
459.8942979271
20
20.3028397659
40
1.1197474440
50
142.8139179030
51
167.1522951417
0
CIRCLE
8
10000_FRONT
62
7
6
CONTINUOUS
10
38.9972773887
20
271.7999301676
40
3.0000000000
0
CIRCLE
8
10000_FRONT
62
7
6
CONTINUOUS
10
38.9972773887
20
271.7999301676
40
2.4000000000
0
CIRCLE
8
10000_FRONT
62
7
6
CONTINUOUS
10
38.9972773887
20
271.7999301676
40
6.2500000000
0
ARC
8
10000_FRONT
62
7
6
CONTINUOUS
10
38.9972773887
20
271.7999301676
40
5.9000000000
50
95.0000000000
51
85.0000000000
0
CIRCLE
8
10000_FRONT
62
7
6
CONTINUOUS
10
38.9972773887
20
271.7999301676
40
4.4000000000
0
ARC
8
10000_FRONT
62
7
6
CONTINUOUS
10
486.2972773887
20
274.2999301676
40
2.0000000000
50
0.0000000000
51
90.0000000000
0
ARC
8
10000_FRONT
62
7
6
CONTINUOUS
10
416.2972773887
20
274.2999301676
40
2.0000000000
50
90.0000000000
51
180.0000000000
0
ARC
8
10000_FRONT
62
7
6
CONTINUOUS
10
416.2972773887
20
235.2999301676
40
2.0000000000
50
180.0000000000
51
270.0000000000
0
ARC
8
10000_FRONT
62
7
6
CONTINUOUS
10
486.2972773887
20
235.2999301676
40
2.0000000000
50
270.0000000000
51
360.0000000000
0
ARC
8
10000_FRONT
62
7
6
CONTINUOUS
10
504.9972773887
20
302.3749301676
40
5.1000000000
50
318.1896851042
51
41.8103148958
0
ARC
8
10000_FRONT
62
7
6
CONTINUOUS
10
38.9972773887
20
302.3749301676
40
5.1000000000
50
138.1896851042
51
221.8103148958
0
ARC
8
10000_FRONT
62
7
6
CONTINUOUS
10
38.9972773887
20
302.3749301676
40
5.1000000000
50
318.1896851042
51
41.8103148958
0
ARC
8
10000_FRONT
62
7
6
CONTINUOUS
10
504.9972773887
20
302.3749301676
40
5.1000000000
50
138.1896851042
51
221.8103148958
0
ARC
8
10000_FRONT
62
7
6
CONTINUOUS
10
504.9972773887
20
245.2249301676
40
5.1000000000
50
318.1896851042
51
41.8103148958
0
ARC
8
10000_FRONT
62
7
6
CONTINUOUS
10
38.9972773887
20
245.2249301676
40
5.1000000000
50
138.1896851042
51
221.8103148958
0
ARC
8
10000_FRONT
62
7
6
CONTINUOUS
10
38.9972773887
20
245.2249301676
40
5.1000000000
50
318.1896851042
51
41.8103148958
0
ARC
8
10000_FRONT
62
7
6
CONTINUOUS
10
504.9972773887
20
245.2249301676
40
5.1000000000
50
138.1896851042
51
221.8103148958
0
ARC
8
11000_LEFT
62
7
6
CONTINUOUS
10
562.9728556201
20
332.4943473911
40
0.3000000000
50
300.0000000000
51
23.9850380713
0
ARC
8
11000_LEFT
62
7
6
CONTINUOUS
10
565.5825252726
20
226.8999301676
40
0.5000000000
50
0.0000000000
51
90.0000000000
0
ARC
8
11000_LEFT
62
7
6
CONTINUOUS
10
554.0825252726
20
229.6976481260
40
0.5000000000
50
180.0000000000
51
257.0000000000
0
ARC
8
11000_LEFT
62
7
6
CONTINUOUS
10
555.2256302838
20
223.0706560715
40
0.2000000000
50
347.0000000000
51
66.2152038646
0
ARC
8
11000_LEFT
62
7
6
CONTINUOUS
10
556.0441415820
20
222.8816878486
40
0.2000000000
50
77.0000000000
51
147.0000000000
0
ARC
8
11000_LEFT
62
7
6
CONTINUOUS
10
556.2974373550
20
222.8232099117
40
0.2000000000
50
347.0000000000
51
77.0000000000
0
ARC
8
11000_LEFT
62
7
6
CONTINUOUS
10
557.1159486533
20
222.6342416888
40
0.2000000000
50
77.0000000000
51
147.0000000000
0
ARC
8
11000_LEFT
62
7
6
CONTINUOUS
10
557.3692444263
20
222.5757637519
40
0.2000000000
50
347.0000000000
51
77.0000000000
0
ARC
8
11000_LEFT
62
7
6
CONTINUOUS
10
558.1877557245
20
222.3867955291
40
0.2000000000
50
77.0000000000
51
147.0000000000
0
ARC
8
11000_LEFT
62
7
6
CONTINUOUS
10
558.4410514976
20
222.3283175921
40
0.2000000000
50
347.0000000000
51
77.0000000000
0
ARC
8
11000_LEFT
62
7
6
CONTINUOUS
10
559.2595627958
20
222.1393493693
40
0.2000000000
50
77.0000000000
51
147.0000000000
0
ARC
8
11000_LEFT
62
7
6
CONTINUOUS
10
559.5128585688
20
222.0808714323
40
0.2000000000
50
347.0000000000
51
77.0000000000
0
ARC
8
11000_LEFT
62
7
6
CONTINUOUS
10
560.3313698671
20
221.8919032095
40
0.2000000000
50
77.0000000000
51
147.0000000000
0
ARC
8
11000_LEFT
62
7
6
CONTINUOUS
10
560.5846656401
20
221.8334252726
40
0.2000000000
50
347.0000000000
51
77.0000000000
0
ARC
8
11000_LEFT
62
7
6
CONTINUOUS
10
561.4031769383
20
221.6444570497
40
0.2000000000
50
77.0000000000
51
147.0000000000
0
ARC
8
11000_LEFT
62
7
6
CONTINUOUS
10
561.6564727114
20
221.5859791128
40
0.2000000000
50
347.0000000000
51
77.0000000000
0
ARC
8
11000_LEFT
62
7
6
CONTINUOUS
10
562.4749840096
20
221.3970108899
40
0.2000000000
50
77.0000000000
51
147.0000000000
0
ARC
8
11000_LEFT
62
7
6
CONTINUOUS
10
562.7282797826
20
221.3385329530
40
0.2000000000
50
347.0000000000
51
77.0000000000
0
ARC
8
11000_LEFT
62
7
6
CONTINUOUS
10
563.5467910809
20
221.1495647302
40
0.2000000000
50
77.0000000000
51
147.0000000000
0
ARC
8
11000_LEFT
62
7
6
CONTINUOUS
10
563.8000868539
20
221.0910867932
40
0.2000000000
50
347.0000000000
51
77.0000000000
0
ARC
8
11000_LEFT
62
7
6
CONTINUOUS
10
556.5263674042
20
226.2597912118
40
0.2000000000
50
257.0000000000
51
347.0000000000
0
ARC
8
11000_LEFT
62
7
6
CONTINUOUS
10
557.3448787024
20
226.0708229890
40
0.2000000000
50
187.0000000000
51
257.0000000000
0
ARC
8
11000_LEFT
62
7
6
CONTINUOUS
10
557.5981744754
20
226.0123450521
40
0.2000000000
50
257.0000000000
51
347.0000000000
0
ARC
8
11000_LEFT
62
7
6
CONTINUOUS
10
558.4166857737
20
225.8233768292
40
0.2000000000
50
187.0000000000
51
257.0000000000
0
ARC
8
11000_LEFT
62
7
6
CONTINUOUS
10
558.6699815467
20
225.7648988923
40
0.2000000000
50
257.0000000000
51
347.0000000000
0
ARC
8
11000_LEFT
62
7
6
CONTINUOUS
10
559.4884928449
20
225.5759306694
40
0.2000000000
50
187.0000000000
51
257.0000000000
0
ARC
8
11000_LEFT
62
7
6
CONTINUOUS
10
559.7417886180
20
225.5174527325
40
0.2000000000
50
257.0000000000
51
347.0000000000
0
ARC
8
11000_LEFT
62
7
6
CONTINUOUS
10
560.5602999162
20
225.3284845097
40
0.2000000000
50
187.0000000000
51
257.0000000000
0
ARC
8
11000_LEFT
62
7
6
CONTINUOUS
10
560.8135956892
20
225.2700065727
40
0.2000000000
50
257.0000000000
51
347.0000000000
0
ARC
8
11000_LEFT
62
7
6
CONTINUOUS
10
561.6321069875
20
225.0810383499
40
0.2000000000
50
187.0000000000
51
257.0000000000
0
ARC
8
11000_LEFT
62
7
6
CONTINUOUS
10
561.8854027605
20
225.0225604129
40
0.2000000000
50
257.0000000000
51
347.0000000000
0
ARC
8
11000_LEFT
62
7
6
CONTINUOUS
10
562.7039140587
20
224.8335921901
40
0.2000000000
50
187.0000000000
51
257.0000000000
0
ARC
8
11000_LEFT
62
7
6
CONTINUOUS
10
562.9572098318
20
224.7751142532
40
0.2000000000
50
257.0000000000
51
347.0000000000
0
ARC
8
11000_LEFT
62
7
6
CONTINUOUS
10
563.7757211300
20
224.5861460303
40
0.2000000000
50
187.0000000000
51
257.0000000000
0
ARC
8
11000_LEFT
62
7
6
CONTINUOUS
10
564.0290169030
20
224.5276680934
40
0.2000000000
50
257.0000000000
51
347.0000000000
0
ARC
8
11000_LEFT
62
7
6
CONTINUOUS
10
564.8475282013
20
224.3386998705
40
0.2000000000
50
187.0000000000
51
257.0000000000
0
ARC
8
11000_LEFT
62
7
6
CONTINUOUS
10
565.1008239743
20
224.2802219336
40
0.2000000000
50
257.0000000000
51
347.0000000000
0
ARC
8
11000_LEFT
62
7
6
CONTINUOUS
10
565.5825252726
20
225.0670285205
40
0.5000000000
50
257.0000000000
51
360.0000000000
0
ARC
8
11000_LEFT
62
7
6
CONTINUOUS
10
565.5825252726
20
213.2999301676
40
0.5000000000
50
270.0000000000
51
360.0000000000
0
ARC
8
11000_LEFT
62
7
6
CONTINUOUS
10
562.1325252726
20
213.2999301676
40
0.5000000000
50
180.0000000000
51
270.0000000000
0
ARC
8
11000_LEFT
62
7
6
CONTINUOUS
10
555.0325252726
20
213.2999301676
40
0.5000000000
50
270.0000000000
51
360.0000000000
0
ARC
8
11000_LEFT
62
7
6
CONTINUOUS
10
551.5825252726
20
213.2999301676
40
0.5000000000
50
180.0000000000
51
270.0000000000
0
ARC
8
11000_LEFT
62
7
6
CONTINUOUS
10
555.0325252726
20
218.5607056203
40
1.5000000000
50
81.5524727521
51
180.0000000000
0
ARC
8
11000_LEFT
62
7
6
CONTINUOUS
10
555.2325252726
20
214.9999301676
40
0.3000000000
50
0.0000000000
51
90.0000000000
0
ARC
8
11000_LEFT
62
7
6
CONTINUOUS
10
561.9325252726
20
214.9999301676
40
0.3000000000
50
90.0000000000
51
180.0000000000
0
ARC
8
11000_LEFT
62
7
6
CONTINUOUS
10
553.8325252726
20
215.5999301676
40
0.3000000000
50
180.0000000000
51
270.0000000000
0
ARC
8
11000_LEFT
62
7
6
CONTINUOUS
10
563.3325252726
20
215.5999301676
40
0.3000000000
50
270.0000000000
51
360.0000000000
0
ARC
8
11000_LEFT
62
7
6
CONTINUOUS
10
564.0825252726
20
320.2999301676
40
0.5000000000
50
180.0000000000
51
270.0000000000
0
ARC
8
11000_LEFT
62
7
6
CONTINUOUS
10
554.0825252726
20
323.5510009952
40
0.5000000000
50
120.0000000000
51
180.0000000000
0
ARC
8
11000_LEFT
62
7
6
CONTINUOUS
10
563.0825252726
20
328.7471534179
40
0.5000000000
50
0.0000000000
51
120.0000000000
0
ARC
8
11000_LEFT
62
7
6
CONTINUOUS
10
565.0825252726
20
320.7999301676
40
1.0000000000
50
270.0000000000
51
360.0000000000
0
ARC
8
11000_LEFT
62
7
6
CONTINUOUS
10
554.0825252726
20
323.5510009952
40
3.0000000000
50
120.0000000000
51
180.0000000000
0
ARC
8
11000_LEFT
62
7
6
CONTINUOUS
10
551.0825252726
20
222.2999301676
40
0.3000000000
50
270.0000000000
51
90.0000000000
0
ARC
8
11000_LEFT
62
7
6
CONTINUOUS
10
551.0825252726
20
221.0999301676
40
0.3000000000
50
270.0000000000
51
90.0000000000
0
ARC
8
11000_LEFT
62
7
6
CONTINUOUS
10
551.0825252726
20
219.8999301676
40
0.3000000000
50
270.0000000000
51
90.0000000000
0
ARC
8
11000_LEFT
62
7
6
CONTINUOUS
10
551.0825252726
20
218.6999301676
40
0.3000000000
50
270.0000000000
51
90.0000000000
0
ARC
8
11000_LEFT
62
7
6
CONTINUOUS
10
551.0825252726
20
217.4999301676
40
0.3000000000
50
270.0000000000
51
90.0000000000
0
ARC
8
11000_LEFT
62
7
6
CONTINUOUS
10
555.7106393993
20
219.9764478716
40
0.3000000000
50
351.5524727521
51
171.5524727521
0
ARC
8
11000_LEFT
62
7
6
CONTINUOUS
10
556.8976203782
20
219.8001635678
40
0.3000000000
50
351.5524727521
51
171.5524727521
0
ARC
8
11000_LEFT
62
7
6
CONTINUOUS
10
558.0846013571
20
219.6238792640
40
0.3000000000
50
351.5524727521
51
171.5524727521
0
ARC
8
11000_LEFT
62
7
6
CONTINUOUS
10
559.2715823360
20
219.4475949602
40
0.3000000000
50
351.5524727521
51
171.5524727521
0
ARC
8
11000_LEFT
62
7
6
CONTINUOUS
10
560.4585633148
20
219.2713106564
40
0.3000000000
50
351.5524727521
51
171.5524727521
0
ARC
8
11000_LEFT
62
7
6
CONTINUOUS
10
561.6455442937
20
219.0950263526
40
0.3000000000
50
351.5524727521
51
171.5524727521
0
ARC
8
11000_LEFT
62
7
6
CONTINUOUS
10
562.8325252726
20
218.9187420488
40
0.3000000000
50
351.5524727521
51
171.5524727521
0
ARC
8
11000_LEFT
62
7
6
CONTINUOUS
10
564.5825252726
20
333.2999301676
40
1.5000000000
50
0.0000000000
51
183.7065609751
0
ARC
8
11000_LEFT
62
7
6
CONTINUOUS
10
559.6609862417
20
327.3490772065
40
0.3000000000
50
210.0000000000
51
30.0000000000
0
ARC
8
11000_LEFT
62
7
6
CONTINUOUS
10
558.6217557571
20
326.7490772065
40
0.3000000000
50
210.0000000000
51
30.0000000000
0
ARC
8
11000_LEFT
62
7
6
CONTINUOUS
10
557.5825252726
20
326.1490772065
40
0.3000000000
50
210.0000000000
51
30.0000000000
0
ARC
8
11000_LEFT
62
7
6
CONTINUOUS
10
555.5825252726
20
224.7329773542
40
1.5000000000
50
77.0000000000
51
259.3683463389
0
CIRCLE
8
91000_TIP
62
7
6
CONTINUOUS
10
439.2797809364
20
18.3043439202
40
4.9999998979
0
CIRCLE
8
91000_TIP
62
7
6
CONTINUOUS
10
439.2797809364
20
18.3043439202
40
2.4999999489
0
ENDSEC
0
EOF
