0
SECTION
2
HEADER
9
$EXTMAX
10
594.0000000000
20
420.0000000000
9
$EXTMIN
10
0.0000000000
20
0.0000000000
9
$LIMMIN
10
0.0000000000
20
0.0000000000
9
$LIMMAX
10
594.0000000000
20
420.0000000000
9
$VIEWCTR
10
297.0000000000
20
210.0000000000
9
$VIEWSIZE
40
420.0000000000
9
$CLAYER
8
0
9
$LTSCALE
40
32.6700000000
9
$CELTYPE
6
BYLAYER
9
$DIMSCALE
40
1
9
$DIMASZ
40
3.5000000000
9
$DIMEXO
40
3.7125000000
9
$DIMDLI
40
22.5720000000
9
$DIMEXE
40
10.6920000000
9
$DIMCEN
40
5.3460000000
9
$DIMLFAC
40
1.0000000000
0
ENDSEC
0
SECTION
2
TABLES
0
TABLE
2
LTYPE
70
6
0
LTYPE
2
BYBLOCK
70
0
3

72
65
73
0
40
0.0
0
LTYPE
2
BYLAYER
70
0
3

72
65
73
0
40
0.0
0
LTYPE
2
CONTINUOUS
70
64
3
Solid line
72
65
73
0
40
0
0
LTYPE
2
CENTER
70
64
3
____ _ ____ _ ____ _ ____ _ ____ _ ____ _ ____
72
65
73
4
40
0.6
49
0.375
49
-0.075
49
0.075
49
-0.075
0
LTYPE
2
HIDDEN
70
64
3
- - - - - - - - - - - - - - - - - - - -
72
65
73
2
40
0.2
49
0.1
49
-0.1
0
LTYPE
2
PHANTOM
70
64
3
_____ _ _ _____ _ _ _____ _ _ _____
72
65
73
6
40
0.8
49
0.45
49
-0.05
49
0.1
49
-0.05
49
0.1
49
-0.05
0
LTYPE
2
DOT
70
64
3
. . . . . . . . . . . . . . . . . . . .
72
65
73
2
40
0.2
49
0.1
49
-0.1
0
LTYPE
2
DASHED
70
64
3
- - - - - - - - - - - - - - - - - - - -
72
65
73
2
40
0.2
49
0.1
49
-0.1
0
ENDTAB
0
TABLE
2
LAYER
70
36
0
LAYER
2
0
70
0
62
7
6
CONTINUOUS
0
LAYER
2
DEFAULT_1
70
0
62
7
6
CENTER
0
LAYER
2
DEFAULT_2
70
0
62
8
6
HIDDEN
0
LAYER
2
DEFAULT_3
70
0
62
7
6
PHANTOM
0
LAYER
2
10000_FRONT
70
0
62
7
6
CONTINUOUS
0
LAYER
2
10100_DIM_FRONT
70
0
62
7
6
CONTINUOUS
0
LAYER
2
10300_FRONT_GERMAN_ENGLISH
70
0
62
7
6
CONTINUOUS
0
LAYER
2
11000_LEFT
70
0
62
7
6
CONTINUOUS
0
LAYER
2
11100_DIM_LEFT
70
0
62
7
6
CONTINUOUS
0
LAYER
2
11300_LEFT_GERMAN_ENGLISH
70
0
62
7
6
CONTINUOUS
0
LAYER
2
12000_RIGHT
70
0
62
7
6
CONTINUOUS
0
LAYER
2
12100_DIM_RIGHT
70
0
62
7
6
CONTINUOUS
0
LAYER
2
12300_RIGHT_GERMAN_ENGLISH
70
0
62
7
6
CONTINUOUS
0
LAYER
2
13000_TOP
70
0
62
7
6
CONTINUOUS
0
LAYER
2
13100_DIM_TOP
70
0
62
7
6
CONTINUOUS
0
LAYER
2
13300_TOP_GERMAN_ENGLISH
70
0
62
7
6
CONTINUOUS
0
LAYER
2
14000_BOTTOM
70
0
62
7
6
CONTINUOUS
0
LAYER
2
14100_DIM_BOTTOM
70
0
62
7
6
CONTINUOUS
0
LAYER
2
14300_BOTTOM_GERMAN_ENGLISH
70
0
62
7
6
CONTINUOUS
0
LAYER
2
15000_BACK
70
0
62
7
6
CONTINUOUS
0
LAYER
2
15100_DIM_BACK
70
0
62
7
6
CONTINUOUS
0
LAYER
2
15300_BACK_GERMAN_ENGLISH
70
0
62
7
6
CONTINUOUS
0
LAYER
2
20000_FRONT_O
70
0
62
7
6
CONTINUOUS
0
LAYER
2
20100_DIM_FRONT_O
70
0
62
7
6
CONTINUOUS
0
LAYER
2
20300_FRONT_O_GERMAN_ENGLISH
70
0
62
7
6
CONTINUOUS
0
LAYER
2
21000_LEFT_O
70
0
62
7
6
CONTINUOUS
0
LAYER
2
21100_DIM_LEFT_O
70
0
62
7
6
CONTINUOUS
0
LAYER
2
21300_LEFT_O_GERMAN_ENGLISH
70
0
62
7
6
CONTINUOUS
0
LAYER
2
40000_ISO
70
0
62
7
6
CONTINUOUS
0
LAYER
2
40300_ISO_GERMAN_ENGLISH
70
0
62
7
6
CONTINUOUS
0
LAYER
2
50000_WIRING
70
0
62
7
6
CONTINUOUS
0
LAYER
2
50300_WIRING_GERMAN_ENGLISH
70
0
62
7
6
CONTINUOUS
0
LAYER
2
90000_FRAME
70
0
62
7
6
CONTINUOUS
0
LAYER
2
91000_TIP
70
0
62
7
6
CONTINUOUS
0
ENDTAB
0
ENDSEC
0
SECTION
2
BLOCKS
0
BLOCK
8
10100_DIM_FRONT
62
7
6
CONTINUOUS
2
*D0
70
65
10
0.0000000000
20
0.0000000000
0
TEXT
8
10100_DIM_FRONT
62
7
6
CONTINUOUS
10
288.5738232270
20
294.2803653445
40
3.5000000000
1
125
50
90.0000000000
72
5
11
288.5738232270
21
301.5303653445
0
LINE
8
10100_DIM_FRONT
62
7
6
CONTINUOUS
10
280.9144810451
20
359.8023343154
11
291.4488232270
21
359.8023343154
0
LINE
8
10100_DIM_FRONT
62
7
6
CONTINUOUS
10
280.9144810451
20
234.8023343154
11
291.4488232270
21
234.8023343154
0
LINE
8
10100_DIM_FRONT
62
7
6
CONTINUOUS
10
289.4488232270
20
359.8023343154
11
289.4488232270
21
297.3023343154
0
LINE
8
10100_DIM_FRONT
62
7
6
CONTINUOUS
10
289.4488232270
20
234.8023343154
11
289.4488232270
21
297.3023343154
0
SOLID
8
10100_DIM_FRONT
62
7
6
CONTINUOUS
10
289.9488232270
20
356.3023343154
11
289.4488232270
21
359.8023343154
12
288.9488232270
22
356.3023343154
13
288.9488232270
23
356.3023343154
0
SOLID
8
10100_DIM_FRONT
62
7
6
CONTINUOUS
10
288.9488232270
20
238.3023343154
11
289.4488232270
21
234.8023343154
12
289.9488232270
22
238.3023343154
13
289.9488232270
23
238.3023343154
0
ENDBLK
8
0
0
BLOCK
8
10100_DIM_FRONT
62
7
6
CONTINUOUS
2
*D1
70
65
10
0.0000000000
20
0.0000000000
0
TEXT
8
10100_DIM_FRONT
62
7
6
CONTINUOUS
10
261.4110998668
20
367.8800548175
40
3.5000000000
1
40
72
5
11
266.9110998668
21
367.8800548175
0
LINE
8
10100_DIM_FRONT
62
7
6
CONTINUOUS
10
280.9144810451
20
359.8023343154
11
280.9144810451
21
369.0050548175
0
LINE
8
10100_DIM_FRONT
62
7
6
CONTINUOUS
10
240.9144810451
20
359.8023343154
11
240.9144810451
21
369.0050548175
0
LINE
8
10100_DIM_FRONT
62
7
6
CONTINUOUS
10
280.9144810451
20
367.0050548175
11
260.9144810451
21
367.0050548175
0
LINE
8
10100_DIM_FRONT
62
7
6
CONTINUOUS
10
240.9144810451
20
367.0050548175
11
260.9144810451
21
367.0050548175
0
SOLID
8
10100_DIM_FRONT
62
7
6
CONTINUOUS
10
277.4144810451
20
366.5050548175
11
280.9144810451
21
367.0050548175
12
277.4144810451
22
367.5050548175
13
277.4144810451
23
367.5050548175
0
SOLID
8
10100_DIM_FRONT
62
7
6
CONTINUOUS
10
244.4144810451
20
367.5050548175
11
240.9144810451
21
367.0050548175
12
244.4144810451
22
366.5050548175
13
244.4144810451
23
366.5050548175
0
ENDBLK
8
0
0
BLOCK
8
11100_DIM_LEFT
62
7
6
CONTINUOUS
2
*D2
70
65
10
0.0000000000
20
0.0000000000
0
TEXT
8
11100_DIM_LEFT
62
7
6
CONTINUOUS
10
452.1973436981
20
369.6145892918
40
3.5000000000
1
116.9
72
5
11
463.6973436981
21
369.6145892918
0
LINE
8
11100_DIM_LEFT
62
7
6
CONTINUOUS
10
392.5845690451
20
334.7023343154
11
392.5845690451
21
370.7395892918
0
LINE
8
11100_DIM_LEFT
62
7
6
CONTINUOUS
10
509.4845690451
20
358.8023343154
11
509.4845690451
21
370.7395892918
0
LINE
8
11100_DIM_LEFT
62
7
6
CONTINUOUS
10
392.5845690451
20
368.7395892918
11
451.0345690451
21
368.7395892918
0
LINE
8
11100_DIM_LEFT
62
7
6
CONTINUOUS
10
509.4845690451
20
368.7395892918
11
451.0345690451
21
368.7395892918
0
SOLID
8
11100_DIM_LEFT
62
7
6
CONTINUOUS
10
396.0845690451
20
369.2395892918
11
392.5845690451
21
368.7395892918
12
396.0845690451
22
368.2395892918
13
396.0845690451
23
368.2395892918
0
SOLID
8
11100_DIM_LEFT
62
7
6
CONTINUOUS
10
505.9845690451
20
368.2395892918
11
509.4845690451
21
368.7395892918
12
505.9845690451
22
369.2395892918
13
505.9845690451
23
369.2395892918
0
ENDBLK
8
0
0
BLOCK
8
11100_DIM_LEFT
62
7
6
CONTINUOUS
2
*D3
70
65
10
0.0000000000
20
0.0000000000
0
TEXT
8
11100_DIM_LEFT
62
7
6
CONTINUOUS
10
447.9343871997
20
377.3905022885
40
3.5000000000
1
122.9
72
5
11
460.1843871997
21
377.3905022885
0
LINE
8
11100_DIM_LEFT
62
7
6
CONTINUOUS
10
392.5845690451
20
334.7023343154
11
392.5845690451
21
378.5155022885
0
LINE
8
11100_DIM_LEFT
62
7
6
CONTINUOUS
10
515.4745695773
20
305.1023343154
11
515.4745695773
21
378.5155022885
0
LINE
8
11100_DIM_LEFT
62
7
6
CONTINUOUS
10
392.5845690451
20
376.5155022885
11
454.0295693112
21
376.5155022885
0
LINE
8
11100_DIM_LEFT
62
7
6
CONTINUOUS
10
515.4745695773
20
376.5155022885
11
454.0295693112
21
376.5155022885
0
SOLID
8
11100_DIM_LEFT
62
7
6
CONTINUOUS
10
396.0845690451
20
377.0155022885
11
392.5845690451
21
376.5155022885
12
396.0845690451
22
376.0155022885
13
396.0845690451
23
376.0155022885
0
SOLID
8
11100_DIM_LEFT
62
7
6
CONTINUOUS
10
511.9745695773
20
376.0155022885
11
515.4745695773
21
376.5155022885
12
511.9745695773
22
377.0155022885
13
511.9745695773
23
377.0155022885
0
ENDBLK
8
0
0
ENDSEC
0
SECTION
2
ENTITIES
0
DIMENSION
8
10100_DIM_FRONT
62
7
6
CONTINUOUS
2
*D0
10
289.4488232270
20
234.8023343154
11
286.8238232270
21
297.9053653445
70
128
13
280.9144810451
23
359.8023343154
14
280.9144810451
24
234.8023343154
50
270.000000
0
DIMENSION
8
10100_DIM_FRONT
62
7
6
CONTINUOUS
2
*D1
10
240.9144810451
20
367.0050548175
11
264.1610998668
21
369.6300548175
70
128
13
280.9144810451
23
359.8023343154
14
240.9144810451
24
359.8023343154
50
180.000000
0
DIMENSION
8
11100_DIM_LEFT
62
7
6
CONTINUOUS
2
*D2
10
509.4845690451
20
368.7395892918
11
457.9473436981
21
371.3645892918
70
128
13
392.5845690451
23
334.7023343154
14
509.4845690451
24
358.8023343154
0
DIMENSION
8
11100_DIM_LEFT
62
7
6
CONTINUOUS
2
*D3
10
515.4745695773
20
376.5155022885
11
454.0593871997
21
379.1405022885
70
128
13
392.5845690451
23
334.7023343154
14
515.4745695773
24
305.1023343154
0
TEXT
8
90000_FRAME
62
7
6
CONTINUOUS
10
499.6600000000
20
11.9000000000
40
2.2000000000
1
Format / Size: DIN A2
51
0.0000187240
72
5
11
533.2361904762
21
11.9000000000
0
TEXT
8
90000_FRAME
62
7
6
CONTINUOUS
10
542.1600000000
20
11.9000000000
40
2.2000000000
1
Massstab / Scale: 1:1
51
0.0000187240
72
5
11
573.0647619048
21
11.9000000000
0
TEXT
8
90000_FRAME
62
7
6
CONTINUOUS
10
515.1250000000
20
20.2500000000
40
3.5000000000
1
6GK73425DA020XE0_001
51
0.0000190000
72
5
11
569.5416666667
21
20.2500000000
0
TEXT
8
10300_FRONT_GERMAN_ENGLISH
62
7
6
CONTINUOUS
10
243.6821808511
20
391.7260247184
40
3.5000000000
1
Vorne / Front
51
0.0000187240
72
5
11
276.2655141844
21
391.7260247184
0
TEXT
8
11300_LEFT_GERMAN_ENGLISH
62
7
6
CONTINUOUS
10
379.1526714707
20
393.5849038676
40
3.5000000000
1
Links / Left
51
0.0000187240
72
5
11
407.6526714707
21
393.5849038676
0
TEXT
8
13300_TOP_GERMAN_ENGLISH
62
7
6
CONTINUOUS
10
240.3862702556
20
189.4146530673
40
3.5000000000
1
Oben / Top
51
0.0000187240
72
5
11
266.8029369222
21
189.4146530673
0
TEXT
8
10000_FRONT
62
7
6
CONTINUOUS
10
263.5504620451
20
353.8011963154
40
2.2000000000
1
CP 342-5
51
0.0000190000
72
5
11
277.0123668070
21
353.8011963154
0
TEXT
8
10000_FRONT
62
7
6
CONTINUOUS
10
253.8558880451
20
281.8240933154
40
3.0000000000
1
SIMATIC NET
51
0.0000187240
72
5
11
279.7130309022
21
281.8240933154
0
TEXT
8
10000_FRONT
62
7
6
CONTINUOUS
10
256.4232070451
20
236.6220193154
40
1.7000000000
1
342-5DA02-0XE0
51
0.0000190000
72
5
11
274.9613022832
21
236.6220193154
0
TEXT
8
91000_TIP
62
7
6
CONTINUOUS
10
11.2756234532
20
15.1898618139
40
3.5000000000
1
Alle Bemassungswerte sind in Millimeter (mm) angegeben.
72
5
11
145.8589567865
21
15.1898618139
0
TEXT
8
91000_TIP
62
7
6
CONTINUOUS
10
11.2756234532
20
9.9398618139
40
3.5000000000
1
All dimensions are in millimeters (mm).
72
5
11
104.4422901199
21
9.9398618139
0
TEXT
8
10000_FRONT
62
7
6
CONTINUOUS
10
248.3310214154
20
351.0271933154
40
1.7000000000
1
SF
51
0.0000187240
72
5
11
250.8810214154
21
351.0271933154
0
TEXT
8
10000_FRONT
62
7
6
CONTINUOUS
10
245.6753034154
20
345.8271933154
40
1.7000000000
1
BUSF
51
0.0000187240
72
5
11
250.8967319868
21
345.8271933154
0
TEXT
8
10000_FRONT
62
7
6
CONTINUOUS
10
246.9048024154
20
330.2271933154
40
1.7000000000
1
RUN
51
0.0000187240
72
5
11
250.9119452725
21
330.2271933154
0
TEXT
8
10000_FRONT
62
7
6
CONTINUOUS
10
245.3802234154
20
325.0271933154
40
1.7000000000
1
STOP
51
0.0000187240
72
5
11
250.8445091296
21
325.0271933154
0
TEXT
8
10000_FRONT
62
7
6
CONTINUOUS
10
243.2378214154
20
311.1791793154
40
1.7000000000
1
RUN
51
0.0000187240
72
5
11
247.2449642725
21
311.1791793154
0
TEXT
8
10000_FRONT
62
7
6
CONTINUOUS
10
241.9591424154
20
297.2743253154
40
1.7000000000
1
STOP
51
0.0000187240
72
5
11
247.4234281296
21
297.2743253154
0
TEXT
8
20000_FRONT_O
62
7
6
CONTINUOUS
10
117.7569650088
20
351.0760653154
40
1.7000000000
1
SF
51
0.0000187240
72
5
11
120.3069650088
21
351.0760653154
0
TEXT
8
20000_FRONT_O
62
7
6
CONTINUOUS
10
115.1012470088
20
345.8760653154
40
1.7000000000
1
BUSF
51
0.0000187240
72
5
11
120.3226755802
21
345.8760653154
0
TEXT
8
20000_FRONT_O
62
7
6
CONTINUOUS
10
116.3307460088
20
330.2760653154
40
1.7000000000
1
RUN
51
0.0000187240
72
5
11
120.3378888660
21
330.2760653154
0
TEXT
8
20000_FRONT_O
62
7
6
CONTINUOUS
10
114.8061670088
20
325.0760653154
40
1.7000000000
1
STOP
51
0.0000187240
72
5
11
120.2704527231
21
325.0760653154
0
TEXT
8
20000_FRONT_O
62
7
6
CONTINUOUS
10
112.6637650088
20
311.2280513154
40
1.7000000000
1
RUN
51
0.0000187240
72
5
11
116.6709078660
21
311.2280513154
0
TEXT
8
20000_FRONT_O
62
7
6
CONTINUOUS
10
111.3850860088
20
297.3231973154
40
1.7000000000
1
STOP
51
0.0000187240
72
5
11
116.8493717231
21
297.3231973154
0
TEXT
8
20000_FRONT_O
62
7
6
CONTINUOUS
10
123.9275910088
20
237.2369633154
40
1.7000000000
1
DC 24V
51
0.0000187240
72
5
11
132.3061624374
21
237.2369633154
0
TEXT
8
20000_FRONT_O
62
7
6
CONTINUOUS
10
135.6126650088
20
255.0124463154
40
1.7000000000
1
M
51
0.0000187240
72
5
11
137.0698078660
21
255.0124463154
0
TEXT
8
20000_FRONT_O
62
7
6
CONTINUOUS
10
135.6126650088
20
249.8124463154
40
1.7000000000
1
L+
51
0.0000187240
72
5
11
137.9198078660
21
249.8124463154
0
TEXT
8
20000_FRONT_O
62
7
6
CONTINUOUS
10
135.6126650088
20
244.6124463154
40
1.7000000000
1
M
51
0.0000187240
72
5
11
137.0698078660
21
244.6124463154
0
TEXT
8
20300_FRONT_O_GERMAN_ENGLISH
62
7
6
CONTINUOUS
10
102.7124409999
20
388.3842778092
40
3.5000000000
1
Vorne offen / Front open
72
5
11
162.2957743332
21
388.3842778092
0
LINE
8
90000_FRAME
62
7
6
CONTINUOUS
10
0.0000000000
20
420.0000000000
11
0.0000000000
21
0.0000000000
0
LINE
8
90000_FRAME
62
7
6
CONTINUOUS
10
5.0000000000
20
415.0000000000
11
5.0000000000
21
5.0000000000
0
LINE
8
20000_FRONT_O
62
7
6
CONTINUOUS
10
116.1669270088
20
357.1685293154
11
116.1849250088
21
357.2081563154
0
LINE
8
20000_FRONT_O
62
7
6
CONTINUOUS
10
116.1849250088
20
357.2081563154
11
116.2116790088
21
357.2513793154
0
LINE
8
20000_FRONT_O
62
7
6
CONTINUOUS
10
116.2116790088
20
357.2513793154
11
116.2481990088
21
357.2981553154
0
LINE
8
20000_FRONT_O
62
7
6
CONTINUOUS
10
115.4869500088
20
358.9026003154
11
115.5792640088
21
359.0023343154
0
LINE
8
20000_FRONT_O
62
7
6
CONTINUOUS
10
116.2481990088
20
357.2981553154
11
116.2956230088
21
357.3484763154
0
LINE
8
20000_FRONT_O
62
7
6
CONTINUOUS
10
116.2956230088
20
357.3484763154
11
116.3552830088
21
357.4023343154
0
LINE
8
20000_FRONT_O
62
7
6
CONTINUOUS
10
115.3895070088
20
358.8156073154
11
115.4869500088
21
358.9026003154
0
LINE
8
20000_FRONT_O
62
7
6
CONTINUOUS
10
115.2886080088
20
358.7409093154
11
115.3895070088
21
358.8156073154
0
LINE
8
20000_FRONT_O
62
7
6
CONTINUOUS
10
116.1567100088
20
357.1325313154
11
116.1669270088
21
357.1685293154
0
LINE
8
20000_FRONT_O
62
7
6
CONTINUOUS
10
130.3269530088
20
357.0425753154
11
130.3427980088
21
357.0884113154
0
LINE
8
20000_FRONT_O
62
7
6
CONTINUOUS
10
130.3427980088
20
357.0884113154
11
130.3635760088
21
357.1335903154
0
LINE
8
20000_FRONT_O
62
7
6
CONTINUOUS
10
116.2742380088
20
309.6460573154
11
116.3223190088
21
309.7480323154
0
LINE
8
20000_FRONT_O
62
7
6
CONTINUOUS
10
130.3635760088
20
357.1335903154
11
130.3898660088
21
357.1781903154
0
LINE
8
20000_FRONT_O
62
7
6
CONTINUOUS
10
116.3223190088
20
309.7480323154
11
116.3800530088
21
309.8446533154
0
LINE
8
20000_FRONT_O
62
7
6
CONTINUOUS
10
148.4701870088
20
359.0120053154
11
148.4427400088
21
358.9679543154
0
LINE
8
20000_FRONT_O
62
7
6
CONTINUOUS
10
148.5465000088
20
359.2296173154
11
148.5944590088
21
359.3016643154
0
LINE
8
20000_FRONT_O
62
7
6
CONTINUOUS
10
142.6346020088
20
347.7273233154
11
142.4661090088
21
347.4742483154
0
LINE
8
20000_FRONT_O
62
7
6
CONTINUOUS
10
148.9524900088
20
358.2781763154
11
148.9201570088
21
358.2302833154
0
LINE
8
20000_FRONT_O
62
7
6
CONTINUOUS
10
148.9862850088
20
358.3254343154
11
148.9524900088
21
358.2781763154
0
LINE
8
20000_FRONT_O
62
7
6
CONTINUOUS
10
116.3800530088
20
309.8446533154
11
116.4468830088
21
309.9350413154
0
LINE
8
20000_FRONT_O
62
7
6
CONTINUOUS
10
130.3898660088
20
357.1781903154
11
130.4221130088
21
357.2216343154
0
LINE
8
20000_FRONT_O
62
7
6
CONTINUOUS
10
149.0213760088
20
358.3720533154
11
148.9862850088
21
358.3254343154
0
LINE
8
20000_FRONT_O
62
7
6
CONTINUOUS
10
148.5944590088
20
359.3016643154
11
148.6482150088
21
359.3716413154
0
LINE
8
20000_FRONT_O
62
7
6
CONTINUOUS
10
149.0575960088
20
358.4180313154
11
149.0213760088
21
358.3720533154
0
LINE
8
20000_FRONT_O
62
7
6
CONTINUOUS
10
149.0947780088
20
358.4633623154
11
149.0575960088
21
358.4180313154
0
LINE
8
20000_FRONT_O
62
7
6
CONTINUOUS
10
149.1327560088
20
358.5080443154
11
149.0947780088
21
358.4633623154
0
LINE
8
20000_FRONT_O
62
7
6
CONTINUOUS
10
149.1713630088
20
358.5520733154
11
149.1327560088
21
358.5080443154
0
LINE
8
20000_FRONT_O
62
7
6
CONTINUOUS
10
148.6482150088
20
359.3716413154
11
148.7071300088
21
359.4387153154
0
LINE
8
20000_FRONT_O
62
7
6
CONTINUOUS
10
149.2104320088
20
358.5954463154
11
149.1713630088
21
358.5520733154
0
LINE
8
20000_FRONT_O
62
7
6
CONTINUOUS
10
149.2497970088
20
358.6381583154
11
149.2104320088
21
358.5954463154
0
LINE
8
20000_FRONT_O
62
7
6
CONTINUOUS
10
148.5049110088
20
359.0495463154
11
148.4701870088
21
359.0120053154
0
LINE
8
20000_FRONT_O
62
7
6
CONTINUOUS
10
130.4221130088
20
357.2216343154
11
130.4605680088
21
357.2629803154
0
LINE
8
20000_FRONT_O
62
7
6
CONTINUOUS
10
149.2892920088
20
358.6802073154
11
149.2497970088
21
358.6381583154
0
LINE
8
20000_FRONT_O
62
7
6
CONTINUOUS
10
149.3287490088
20
358.7215883154
11
149.2892920088
21
358.6802073154
0
LINE
8
20000_FRONT_O
62
7
6
CONTINUOUS
10
149.3680010088
20
358.7622983154
11
149.3287490088
21
358.7215883154
0
LINE
8
20000_FRONT_O
62
7
6
CONTINUOUS
10
149.4068830088
20
358.8023343154
11
149.3680010088
21
358.7622983154
0
LINE
8
20000_FRONT_O
62
7
6
CONTINUOUS
10
148.7071300088
20
359.4387153154
11
148.7705020088
21
359.5020873154
0
LINE
8
20000_FRONT_O
62
7
6
CONTINUOUS
10
148.7705020088
20
359.5020873154
11
148.8375760088
21
359.5610023154
0
LINE
8
20000_FRONT_O
62
7
6
CONTINUOUS
10
130.4605680088
20
357.2629803154
11
130.5055140088
21
357.3013033154
0
LINE
8
20000_FRONT_O
62
7
6
CONTINUOUS
10
148.8375760088
20
359.5610023154
11
148.9075530088
21
359.6147583154
0
LINE
8
20000_FRONT_O
62
7
6
CONTINUOUS
10
148.5465000088
20
359.0801303154
11
148.5049110088
21
359.0495463154
0
LINE
8
20000_FRONT_O
62
7
6
CONTINUOUS
10
148.9075530088
20
359.6147583154
11
148.9796000088
21
359.6627173154
0
LINE
8
20000_FRONT_O
62
7
6
CONTINUOUS
10
130.5055140088
20
357.3013033154
11
130.5568830088
21
357.3353473154
0
LINE
8
20000_FRONT_O
62
7
6
CONTINUOUS
10
115.1855710088
20
358.6778413154
11
115.2886080088
21
358.7409093154
0
LINE
8
20000_FRONT_O
62
7
6
CONTINUOUS
10
115.0813790088
20
358.6256373154
11
115.1855710088
21
358.6778413154
0
LINE
8
20000_FRONT_O
62
7
6
CONTINUOUS
10
114.9767120088
20
358.5835243154
11
115.0813790088
21
358.6256373154
0
LINE
8
91000_TIP
62
7
6
CONTINUOUS
10
417.4291900000
20
22.0428840000
11
427.4291900000
21
24.5428840000
0
LINE
8
90000_FRAME
62
7
6
CONTINUOUS
10
0.0000000000
20
0.0000000000
11
594.0000000000
21
0.0000000000
0
LINE
8
90000_FRAME
62
7
6
CONTINUOUS
10
5.0000000000
20
5.0000000000
11
589.0000000000
21
5.0000000000
0
LINE
8
20000_FRONT_O
62
7
6
CONTINUOUS
10
110.5068830088
20
234.8023343154
11
110.5068830088
21
359.8023343154
0
LINE
8
20000_FRONT_O
62
7
6
CONTINUOUS
10
113.1068830088
20
237.2023343154
11
113.1068830088
21
235.6023343154
0
LINE
8
20000_FRONT_O
62
7
6
CONTINUOUS
10
113.1068830088
20
357.4023343154
11
113.1068830088
21
359.0023343154
0
LINE
8
20000_FRONT_O
62
7
6
CONTINUOUS
10
116.1868830088
20
309.2053663154
11
116.1924150088
21
309.3183233154
0
LINE
8
20000_FRONT_O
62
7
6
CONTINUOUS
10
110.5123660088
20
237.2761753154
11
110.5068830088
21
237.2023343154
0
LINE
8
20000_FRONT_O
62
7
6
CONTINUOUS
10
116.1532900088
20
357.1002583154
11
116.1567100088
21
357.1325313154
0
LINE
8
20000_FRONT_O
62
7
6
CONTINUOUS
10
130.3090740088
20
356.9490933154
11
130.3157250088
21
356.9959483154
0
LINE
8
20000_FRONT_O
62
7
6
CONTINUOUS
10
116.1924150088
20
309.3183233154
11
116.2089510088
21
309.4301503154
0
LINE
8
20000_FRONT_O
62
7
6
CONTINUOUS
10
118.4913510088
20
300.8863453154
11
118.4748140088
21
300.7745183154
0
LINE
8
20000_FRONT_O
62
7
6
CONTINUOUS
10
110.5280630088
20
237.3463173154
11
110.5123660088
21
237.2761753154
0
LINE
8
20000_FRONT_O
62
7
6
CONTINUOUS
10
130.3157250088
20
356.9959483154
11
130.3269530088
21
357.0425753154
0
LINE
8
20000_FRONT_O
62
7
6
CONTINUOUS
10
116.2089510088
20
309.4301503154
11
116.2363230088
21
309.5397633154
0
LINE
8
20000_FRONT_O
62
7
6
CONTINUOUS
10
118.4748140088
20
300.7745183154
11
118.4474430088
21
300.6649053154
0
LINE
8
20000_FRONT_O
62
7
6
CONTINUOUS
10
136.5250840088
20
330.6173343154
11
136.3888980088
21
330.1254313154
0
LINE
8
20000_FRONT_O
62
7
6
CONTINUOUS
10
142.4604480088
20
348.2147373154
11
142.1942380088
21
347.2873343154
0
LINE
8
20000_FRONT_O
62
7
6
CONTINUOUS
10
142.4604480088
20
337.6947373154
11
142.1942380088
21
336.7673343154
0
LINE
8
20000_FRONT_O
62
7
6
CONTINUOUS
10
142.1314380088
20
341.1656253154
11
142.1520860088
21
341.2339793154
0
LINE
8
20000_FRONT_O
62
7
6
CONTINUOUS
10
136.3888980088
20
330.1254313154
11
136.1702610088
21
329.4653423154
0
LINE
8
20000_FRONT_O
62
7
6
CONTINUOUS
10
136.3888980088
20
310.1654313154
11
136.1702610088
21
309.5053423154
0
LINE
8
20000_FRONT_O
62
7
6
CONTINUOUS
10
148.7662010088
20
357.9297953154
11
148.7487700088
21
357.8775593154
0
LINE
8
20000_FRONT_O
62
7
6
CONTINUOUS
10
142.7351400088
20
348.9994693154
11
142.4604480088
21
348.2147373154
0
LINE
8
20000_FRONT_O
62
7
6
CONTINUOUS
10
142.7351400088
20
338.4794693154
11
142.4604480088
21
337.6947373154
0
LINE
8
20000_FRONT_O
62
7
6
CONTINUOUS
10
116.2363230088
20
309.5397633154
11
116.2742380088
21
309.6460573154
0
LINE
8
20000_FRONT_O
62
7
6
CONTINUOUS
10
118.4474430088
20
300.6649053154
11
118.4095280088
21
300.5586113154
0
LINE
8
20000_FRONT_O
62
7
6
CONTINUOUS
10
142.3008020088
20
347.1268753154
11
142.1396680088
21
346.6873343154
0
LINE
8
20000_FRONT_O
62
7
6
CONTINUOUS
10
142.3008020088
20
336.6068753154
11
142.1396680088
21
336.1673343154
0
LINE
8
20000_FRONT_O
62
7
6
CONTINUOUS
10
148.4427400088
20
359.0096963154
11
148.4701870088
21
359.0827583154
0
LINE
8
20000_FRONT_O
62
7
6
CONTINUOUS
10
110.5526670088
20
237.4113493154
11
110.5280630088
21
237.3463173154
0
LINE
8
20000_FRONT_O
62
7
6
CONTINUOUS
10
142.0864590088
20
347.9220743154
11
142.0651270088
21
347.8658313154
0
LINE
8
20000_FRONT_O
62
7
6
CONTINUOUS
10
142.0864590088
20
337.4020743154
11
142.0651270088
21
337.3458313154
0
LINE
8
20000_FRONT_O
62
7
6
CONTINUOUS
10
148.7862600088
20
357.9814213154
11
148.7662010088
21
357.9297953154
0
LINE
8
20000_FRONT_O
62
7
6
CONTINUOUS
10
148.4427400088
20
358.9679543154
11
148.4228990088
21
358.9179173154
0
LINE
8
20000_FRONT_O
62
7
6
CONTINUOUS
10
136.1702610088
20
329.4653423154
11
135.9468840088
21
328.9173343154
0
LINE
8
20000_FRONT_O
62
7
6
CONTINUOUS
10
136.1702610088
20
309.5053423154
11
135.9468840088
21
308.9573343154
0
LINE
8
20000_FRONT_O
62
7
6
CONTINUOUS
10
148.8087820088
20
358.0324353154
11
148.7862600088
21
357.9814213154
0
LINE
8
20000_FRONT_O
62
7
6
CONTINUOUS
10
143.0168840088
20
349.6373343154
11
142.7351400088
21
348.9994693154
0
LINE
8
20000_FRONT_O
62
7
6
CONTINUOUS
10
143.0168840088
20
339.1173343154
11
142.7351400088
21
338.4794693154
0
LINE
8
20000_FRONT_O
62
7
6
CONTINUOUS
10
143.0168840088
20
319.1573343154
11
142.7351400088
21
318.5194693154
0
LINE
8
20000_FRONT_O
62
7
6
CONTINUOUS
10
118.4095280088
20
300.5586113154
11
118.3614460088
21
300.4566363154
0
LINE
8
20000_FRONT_O
62
7
6
CONTINUOUS
10
148.4701870088
20
359.0827583154
11
148.5049110088
21
359.1563583154
0
LINE
8
20000_FRONT_O
62
7
6
CONTINUOUS
10
148.5013580088
20
330.6758823154
11
148.5254950088
21
330.7269533154
0
LINE
8
20000_FRONT_O
62
7
6
CONTINUOUS
10
142.4661090088
20
347.4742483154
11
142.3008020088
21
347.1268753154
0
LINE
8
20000_FRONT_O
62
7
6
CONTINUOUS
10
142.4661090088
20
336.9542483154
11
142.3008020088
21
336.6068753154
0
LINE
8
20000_FRONT_O
62
7
6
CONTINUOUS
10
142.4661090088
20
316.9942483154
11
142.3008020088
21
316.6468753154
0
LINE
8
20000_FRONT_O
62
7
6
CONTINUOUS
10
148.8335990088
20
358.0828313154
11
148.8087820088
21
358.0324353154
0
LINE
8
20000_FRONT_O
62
7
6
CONTINUOUS
10
142.1177890088
20
346.6435433154
11
142.1396680088
21
346.6873343154
0
LINE
8
20000_FRONT_O
62
7
6
CONTINUOUS
10
142.1177890088
20
336.1235433154
11
142.1396680088
21
336.1673343154
0
LINE
8
20000_FRONT_O
62
7
6
CONTINUOUS
10
142.1177890088
20
316.1635433154
11
142.1396680088
21
316.2073343154
0
LINE
8
20000_FRONT_O
62
7
6
CONTINUOUS
10
148.8605450088
20
358.1326073154
11
148.8335990088
21
358.0828313154
0
LINE
8
20000_FRONT_O
62
7
6
CONTINUOUS
10
142.0950930088
20
342.4327893154
11
142.0730960088
21
342.3922073154
0
LINE
8
20000_FRONT_O
62
7
6
CONTINUOUS
10
142.0950930088
20
331.9127893154
11
142.0730960088
21
331.8722073154
0
LINE
8
20000_FRONT_O
62
7
6
CONTINUOUS
10
142.0950930088
20
311.9527893154
11
142.0730960088
21
311.9122073154
0
LINE
8
20000_FRONT_O
62
7
6
CONTINUOUS
10
148.5049110088
20
359.1563583154
11
148.5465000088
21
359.2296173154
0
LINE
8
20000_FRONT_O
62
7
6
CONTINUOUS
10
148.5254950088
20
330.7269533154
11
148.5500880088
21
330.7690123154
0
LINE
8
20000_FRONT_O
62
7
6
CONTINUOUS
10
148.8894530088
20
358.1817593154
11
148.8605450088
21
358.1326073154
0
LINE
8
20000_FRONT_O
62
7
6
CONTINUOUS
10
118.3614460088
20
300.4566363154
11
118.3037120088
21
300.3600153154
0
LINE
8
20000_FRONT_O
62
7
6
CONTINUOUS
10
149.3815870088
20
320.9603523154
11
149.3680460088
21
320.9383343154
0
LINE
8
20000_FRONT_O
62
7
6
CONTINUOUS
10
148.9201570088
20
358.2302833154
11
148.8894530088
21
358.1817593154
0
LINE
8
20000_FRONT_O
62
7
6
CONTINUOUS
10
142.6599940088
20
341.3400693154
11
142.6819700088
21
341.3743803154
0
LINE
8
20000_FRONT_O
62
7
6
CONTINUOUS
10
142.6599940088
20
330.8200693154
11
142.6848360088
21
330.8588553154
0
LINE
8
20000_FRONT_O
62
7
6
CONTINUOUS
10
142.6599940088
20
310.8600693154
11
142.6848360088
21
310.8988553154
0
LINE
8
20000_FRONT_O
62
7
6
CONTINUOUS
10
142.6346020088
20
337.2073233154
11
142.4661090088
21
336.9542483154
0
LINE
8
20000_FRONT_O
62
7
6
CONTINUOUS
10
142.6346020088
20
317.2473233154
11
142.4661090088
21
316.9942483154
0
LINE
8
20000_FRONT_O
62
7
6
CONTINUOUS
10
148.5500880088
20
330.7690123154
11
148.5748210088
21
330.8030503154
0
LINE
8
20000_FRONT_O
62
7
6
CONTINUOUS
10
118.3037120088
20
300.3600153154
11
118.2368820088
21
300.2696273154
0
LINE
8
20000_FRONT_O
62
7
6
CONTINUOUS
10
142.1090660088
20
341.1378423154
11
142.1314380088
21
341.1656253154
0
LINE
8
20000_FRONT_O
62
7
6
CONTINUOUS
10
142.1090660088
20
330.6178423154
11
142.1314380088
21
330.6456253154
0
LINE
8
20000_FRONT_O
62
7
6
CONTINUOUS
10
142.1090660088
20
310.6578423154
11
142.1314380088
21
310.6856253154
0
LINE
8
20000_FRONT_O
62
7
6
CONTINUOUS
10
149.3998040088
20
320.9808003154
11
149.3815870088
21
320.9603523154
0
LINE
8
20000_FRONT_O
62
7
6
CONTINUOUS
10
116.4468830088
20
309.9350413154
11
116.5221030088
21
310.0182893154
0
LINE
8
20000_FRONT_O
62
7
6
CONTINUOUS
10
118.2368820088
20
300.2696273154
11
118.1616620088
21
300.1863793154
0
LINE
8
20000_FRONT_O
62
7
6
CONTINUOUS
10
148.5748210088
20
330.8030503154
11
148.5993300088
21
330.8297923154
0
LINE
8
20000_FRONT_O
62
7
6
CONTINUOUS
10
116.5221030088
20
310.0182893154
11
116.6050030088
21
310.0936563154
0
LINE
8
20000_FRONT_O
62
7
6
CONTINUOUS
10
118.1616620088
20
300.1863793154
11
118.0787630088
21
300.1110123154
0
LINE
8
20000_FRONT_O
62
7
6
CONTINUOUS
10
148.5993300088
20
330.8297923154
11
148.6231310088
21
330.8498433154
0
LINE
8
20000_FRONT_O
62
7
6
CONTINUOUS
10
142.1055840088
20
347.9373153154
11
142.0864590088
21
347.9220743154
0
LINE
8
20000_FRONT_O
62
7
6
CONTINUOUS
10
142.1055840088
20
337.4173153154
11
142.0864590088
21
337.4020743154
0
LINE
8
20000_FRONT_O
62
7
6
CONTINUOUS
10
116.6050030088
20
310.0936563154
11
116.6947280088
21
310.1604053154
0
LINE
8
20000_FRONT_O
62
7
6
CONTINUOUS
10
142.6513440088
20
347.7372943154
11
142.6346020088
21
347.7273233154
0
LINE
8
20000_FRONT_O
62
7
6
CONTINUOUS
10
142.6513440088
20
337.2172943154
11
142.6346020088
21
337.2073233154
0
LINE
8
20000_FRONT_O
62
7
6
CONTINUOUS
10
137.0068840088
20
348.2157103154
11
138.8803130088
21
349.2973343154
0
LINE
8
20000_FRONT_O
62
7
6
CONTINUOUS
10
142.0068840088
20
345.3289583154
11
139.5068840088
21
343.8855833154
0
LINE
8
20000_FRONT_O
62
7
6
CONTINUOUS
10
148.9796000088
20
359.6627173154
11
149.0528590088
21
359.7043063154
0
LINE
8
20000_FRONT_O
62
7
6
CONTINUOUS
10
142.1055560088
20
346.6374043154
11
142.1177890088
21
346.6435433154
0
LINE
8
20000_FRONT_O
62
7
6
CONTINUOUS
10
148.5944590088
20
359.1033923154
11
148.5465000088
21
359.0801303154
0
LINE
8
20000_FRONT_O
62
7
6
CONTINUOUS
10
149.0528590088
20
359.7043063154
11
149.1264590088
21
359.7390303154
0
LINE
8
20000_FRONT_O
62
7
6
CONTINUOUS
10
149.1264590088
20
359.7390303154
11
149.1995210088
21
359.7664773154
0
LINE
8
20000_FRONT_O
62
7
6
CONTINUOUS
10
114.8719910088
20
358.5507813154
11
114.9767120088
21
358.5835243154
0
LINE
8
20000_FRONT_O
62
7
6
CONTINUOUS
10
148.6482150088
20
359.1190563154
11
148.5944590088
21
359.1033923154
0
LINE
8
90000_FRAME
62
7
6
CONTINUOUS
10
449.0000000000
20
10.0000000000
11
584.0000000000
21
10.0000000000
0
LINE
8
90000_FRAME
62
7
6
CONTINUOUS
10
499.0000000000
20
16.0000000000
11
584.0000000000
21
16.0000000000
0
LINE
8
90000_FRAME
62
7
6
CONTINUOUS
10
472.3969330000
20
16.7492120000
11
473.2525220000
21
16.7492120000
0
LINE
8
90000_FRAME
62
7
6
CONTINUOUS
10
485.5872550000
20
16.7967450000
11
484.0662090000
21
16.7967450000
0
LINE
8
90000_FRAME
62
7
6
CONTINUOUS
10
475.9618850000
20
16.7967450000
11
474.5834370000
21
16.7967450000
0
LINE
8
90000_FRAME
62
7
6
CONTINUOUS
10
463.2231240000
20
16.7967450000
11
464.6491050000
21
16.7967450000
0
LINE
8
90000_FRAME
62
7
6
CONTINUOUS
10
465.7423560000
20
16.7967450000
11
469.3073080000
21
16.7967450000
0
LINE
8
90000_FRAME
62
7
6
CONTINUOUS
10
470.1153640000
20
16.7967450000
11
471.0660180000
21
16.7967450000
0
LINE
8
90000_FRAME
62
7
6
CONTINUOUS
10
477.0551370000
20
16.7967450000
11
480.6200890000
21
16.7967450000
0
LINE
8
90000_FRAME
62
7
6
CONTINUOUS
10
481.4043780000
20
16.7967450000
11
482.3550320000
21
16.7967450000
0
LINE
8
90000_FRAME
62
7
6
CONTINUOUS
10
480.6200890000
20
17.6998660000
11
478.4335850000
21
17.6998660000
0
LINE
8
90000_FRAME
62
7
6
CONTINUOUS
10
469.3073080000
20
17.6998660000
11
467.1208040000
21
17.6998660000
0
LINE
8
90000_FRAME
62
7
6
CONTINUOUS
10
480.2873600000
20
18.8168840000
11
478.4335850000
21
18.8168840000
0
LINE
8
90000_FRAME
62
7
6
CONTINUOUS
10
468.9745790000
20
18.8168840000
11
467.1208040000
21
18.8168840000
0
LINE
8
91000_TIP
62
7
6
CENTER
10
416.1496790000
20
19.5428840000
11
439.7516690000
21
19.5428840000
0
LINE
8
90000_FRAME
62
7
6
CONTINUOUS
10
480.2873600000
20
19.6011730000
11
478.4335850000
21
19.6011730000
0
LINE
8
90000_FRAME
62
7
6
CONTINUOUS
10
468.9745790000
20
19.6011730000
11
467.1208040000
21
19.6011730000
0
LINE
8
90000_FRAME
62
7
6
CONTINUOUS
10
480.5725560000
20
20.6706590000
11
478.4335850000
21
20.6706590000
0
LINE
8
90000_FRAME
62
7
6
CONTINUOUS
10
469.2597760000
20
20.6706590000
11
467.1208040000
21
20.6706590000
0
LINE
8
90000_FRAME
62
7
6
CONTINUOUS
10
485.5872550000
20
21.5500140000
11
484.6366010000
21
21.5500140000
0
LINE
8
90000_FRAME
62
7
6
CONTINUOUS
10
482.9491910000
20
21.5500140000
11
481.4043780000
21
21.5500140000
0
LINE
8
90000_FRAME
62
7
6
CONTINUOUS
10
480.5725560000
20
21.5500140000
11
477.0551370000
21
21.5500140000
0
LINE
8
90000_FRAME
62
7
6
CONTINUOUS
10
475.9618850000
20
21.5500140000
11
474.2507080000
21
21.5500140000
0
LINE
8
90000_FRAME
62
7
6
CONTINUOUS
10
471.8265410000
20
21.5500140000
11
470.1153640000
21
21.5500140000
0
LINE
8
90000_FRAME
62
7
6
CONTINUOUS
10
469.2597760000
20
21.5500140000
11
465.7423560000
21
21.5500140000
0
LINE
8
90000_FRAME
62
7
6
CONTINUOUS
10
463.2231240000
20
21.5500140000
11
464.6491050000
21
21.5500140000
0
LINE
8
20000_FRONT_O
62
7
6
CONTINUOUS
10
116.1532900088
20
237.5044103154
11
116.1567100088
21
237.4721373154
0
LINE
8
20000_FRONT_O
62
7
6
CONTINUOUS
10
116.1556540088
20
357.0713883154
11
116.1532900088
21
357.1002583154
0
LINE
8
20000_FRONT_O
62
7
6
CONTINUOUS
10
122.4068830088
20
264.3023343154
11
122.4030380088
21
264.3502133154
0
LINE
8
20000_FRONT_O
62
7
6
CONTINUOUS
10
110.5123660088
20
357.3284923154
11
110.5068830088
21
357.4023343154
0
LINE
8
20000_FRONT_O
62
7
6
CONTINUOUS
10
119.0047240088
20
357.5203603154
11
118.9632530088
21
358.3116913154
0
LINE
8
20000_FRONT_O
62
7
6
CONTINUOUS
10
119.6866200088
20
357.4023343154
11
119.6650120088
21
357.8146333154
0
LINE
8
20000_FRONT_O
62
7
6
CONTINUOUS
10
116.1924150088
20
300.8863453154
11
116.1868830088
21
300.9993023154
0
LINE
8
20000_FRONT_O
62
7
6
CONTINUOUS
10
118.4913510088
20
309.3183233154
11
118.4968830088
21
309.2053663154
0
LINE
8
20000_FRONT_O
62
7
6
CONTINUOUS
10
117.8664390088
20
357.3420663154
11
117.8640960088
21
357.4023343154
0
LINE
8
20000_FRONT_O
62
7
6
CONTINUOUS
10
115.9068830088
20
237.2023343154
11
115.9068830088
21
235.6023343154
0
LINE
8
20000_FRONT_O
62
7
6
CONTINUOUS
10
115.9068830088
20
357.4023343154
11
115.9068830088
21
359.0023343154
0
LINE
8
20000_FRONT_O
62
7
6
CONTINUOUS
10
116.1868830088
20
300.9993023154
11
116.1868830088
21
309.2053663154
0
LINE
8
20000_FRONT_O
62
7
6
CONTINUOUS
10
118.4968830088
20
300.9993023154
11
118.4968830088
21
309.2053663154
0
LINE
8
20000_FRONT_O
62
7
6
CONTINUOUS
10
118.6068840088
20
300.8523343154
11
118.6068840088
21
309.3523343154
0
LINE
8
20000_FRONT_O
62
7
6
CONTINUOUS
10
118.7068840088
20
303.9123343154
11
118.7068840088
21
306.4123343154
0
LINE
8
20000_FRONT_O
62
7
6
CONTINUOUS
10
118.9632530088
20
236.2929763154
11
118.9632530088
21
236.1002503154
0
LINE
8
20000_FRONT_O
62
7
6
CONTINUOUS
10
118.9632530088
20
358.3116913154
11
118.9632530088
21
358.5044173154
0
LINE
8
20000_FRONT_O
62
7
6
CONTINUOUS
10
119.1068840088
20
308.2623343154
11
119.1068840088
21
306.4123343154
0
LINE
8
20000_FRONT_O
62
7
6
CONTINUOUS
10
119.1068840088
20
303.9123343154
11
119.1068840088
21
302.0623343154
0
LINE
8
20000_FRONT_O
62
7
6
CONTINUOUS
10
119.4068840088
20
305.3123343154
11
119.4068840088
21
305.0123343154
0
LINE
8
20000_FRONT_O
62
7
6
CONTINUOUS
10
119.9068830088
20
237.2023343154
11
119.9068830088
21
234.8023343154
0
LINE
8
20000_FRONT_O
62
7
6
CONTINUOUS
10
120.9068830088
20
237.2023343154
11
120.9068830088
21
235.8023343154
0
LINE
8
20000_FRONT_O
62
7
6
CONTINUOUS
10
120.9068830088
20
237.7023343154
11
120.9068830088
21
299.8523343154
0
LINE
8
20000_FRONT_O
62
7
6
CONTINUOUS
10
120.9068830088
20
310.3523343154
11
120.9068830088
21
354.1023343154
0
LINE
8
20000_FRONT_O
62
7
6
CONTINUOUS
10
122.1068830088
20
264.6023343154
11
122.1068830088
21
237.2440763154
0
LINE
8
20000_FRONT_O
62
7
6
CONTINUOUS
10
122.3068840088
20
305.0123343154
11
122.3068840088
21
305.3123343154
0
LINE
8
20000_FRONT_O
62
7
6
CONTINUOUS
10
122.4068830088
20
264.3023343154
11
122.4068830088
21
237.7023343154
0
LINE
8
20000_FRONT_O
62
7
6
CONTINUOUS
10
122.6068840088
20
302.0623343154
11
122.6068840088
21
303.9123343154
0
LINE
8
20000_FRONT_O
62
7
6
CONTINUOUS
10
122.6068840088
20
306.4123343154
11
122.6068840088
21
308.2623343154
0
LINE
8
20000_FRONT_O
62
7
6
CONTINUOUS
10
123.0068840088
20
303.9123343154
11
123.0068840088
21
306.4123343154
0
LINE
8
20000_FRONT_O
62
7
6
CONTINUOUS
10
123.5068830088
20
300.8523343154
11
123.5068830088
21
309.3523343154
0
LINE
8
20000_FRONT_O
62
7
6
CONTINUOUS
10
124.0068830088
20
323.5711013154
11
124.0068830088
21
356.9023343154
0
LINE
8
20000_FRONT_O
62
7
6
CONTINUOUS
10
125.4068840088
20
243.9923343154
11
125.4068840088
21
247.7923343154
0
LINE
8
20000_FRONT_O
62
7
6
CONTINUOUS
10
125.4068840088
20
248.9923343154
11
125.4068840088
21
252.7923343154
0
LINE
8
20000_FRONT_O
62
7
6
CONTINUOUS
10
125.4068840088
20
253.9923343154
11
125.4068840088
21
257.7923343154
0
LINE
8
20000_FRONT_O
62
7
6
CONTINUOUS
10
125.4068840088
20
258.9923343154
11
125.4068840088
21
262.7923343154
0
LINE
8
20000_FRONT_O
62
7
6
CONTINUOUS
10
126.0068830088
20
299.8523343154
11
126.0068830088
21
310.3523343154
0
LINE
8
20000_FRONT_O
62
7
6
CONTINUOUS
10
126.9068840088
20
264.1023343154
11
126.9068840088
21
263.3923343154
0
LINE
8
20000_FRONT_O
62
7
6
CONTINUOUS
10
127.9068840088
20
264.1023343154
11
127.9068840088
21
263.3923343154
0
LINE
8
20000_FRONT_O
62
7
6
CONTINUOUS
10
128.9068840088
20
263.3923343154
11
128.9068840088
21
264.1023343154
0
LINE
8
20000_FRONT_O
62
7
6
CONTINUOUS
10
129.0068840088
20
264.1023343154
11
129.0068840088
21
263.3923343154
0
LINE
8
20000_FRONT_O
62
7
6
CONTINUOUS
10
129.3068830088
20
357.4023343154
11
129.3068830088
21
359.8023343154
0
LINE
8
20000_FRONT_O
62
7
6
CONTINUOUS
10
130.3068830088
20
264.6023343154
11
130.3068830088
21
356.9023343154
0
LINE
8
20000_FRONT_O
62
7
6
CONTINUOUS
10
130.8068830088
20
264.1023343154
11
130.8068830088
21
358.8023343154
0
LINE
8
20000_FRONT_O
62
7
6
CONTINUOUS
10
130.8568840088
20
289.0973343154
11
130.8568840088
21
296.6973343154
0
LINE
8
20000_FRONT_O
62
7
6
CONTINUOUS
10
131.2068840088
20
353.9773343154
11
131.2068840088
21
266.4973343154
0
LINE
8
20000_FRONT_O
62
7
6
CONTINUOUS
10
131.9068840088
20
351.3973343154
11
131.9068840088
21
296.6973343154
0
LINE
8
20000_FRONT_O
62
7
6
CONTINUOUS
10
132.8068840088
20
327.1973343154
11
132.8068840088
21
320.8973343154
0
LINE
8
20000_FRONT_O
62
7
6
CONTINUOUS
10
133.5068830088
20
239.3023343154
11
133.5068830088
21
264.1023343154
0
LINE
8
20000_FRONT_O
62
7
6
CONTINUOUS
10
117.8664390088
20
237.2626023154
11
117.8640960088
21
237.2023343154
0
LINE
8
20000_FRONT_O
62
7
6
CONTINUOUS
10
130.3068830088
20
356.9023343154
11
130.3090740088
21
356.9490933154
0
LINE
8
20000_FRONT_O
62
7
6
CONTINUOUS
10
118.4968830088
20
300.9993023154
11
118.4913510088
21
300.8863453154
0
LINE
8
20000_FRONT_O
62
7
6
CONTINUOUS
10
119.0047240088
20
237.0843083154
11
118.9632530088
21
236.2929763154
0
LINE
8
20000_FRONT_O
62
7
6
CONTINUOUS
10
119.4863450088
20
237.2023343154
11
119.4652860088
21
236.8005023154
0
LINE
8
20000_FRONT_O
62
7
6
CONTINUOUS
10
119.6866200088
20
237.2023343154
11
119.6650120088
21
236.7900353154
0
LINE
8
20000_FRONT_O
62
7
6
CONTINUOUS
10
142.0317030088
20
347.6470663154
11
142.0217290088
21
347.4992283154
0
LINE
8
20000_FRONT_O
62
7
6
CONTINUOUS
10
142.0317030088
20
337.1270663154
11
142.0217290088
21
336.9792283154
0
LINE
8
20000_FRONT_O
62
7
6
CONTINUOUS
10
116.1556540088
20
237.5332803154
11
116.1532900088
21
237.5044103154
0
LINE
8
20000_FRONT_O
62
7
6
CONTINUOUS
10
142.0368660088
20
342.1983743154
11
142.0249550088
21
342.0582683154
0
LINE
8
20000_FRONT_O
62
7
6
CONTINUOUS
10
142.0368660088
20
331.6783743154
11
142.0249550088
21
331.5382683154
0
LINE
8
20000_FRONT_O
62
7
6
CONTINUOUS
10
142.0368660088
20
311.7183743154
11
142.0249550088
21
311.5782683154
0
LINE
8
20000_FRONT_O
62
7
6
CONTINUOUS
10
142.7268120088
20
331.0615263154
11
142.7414000088
21
331.2124013154
0
LINE
8
20000_FRONT_O
62
7
6
CONTINUOUS
10
142.7268120088
20
311.1015263154
11
142.7414000088
21
311.2524013154
0
LINE
8
20000_FRONT_O
62
7
6
CONTINUOUS
10
142.1696570088
20
341.3381523154
11
142.1830350088
21
341.4710963154
0
LINE
8
20000_FRONT_O
62
7
6
CONTINUOUS
10
142.1696570088
20
330.8181523154
11
142.1830350088
21
330.9510963154
0
LINE
8
20000_FRONT_O
62
7
6
CONTINUOUS
10
142.1696570088
20
310.8581523154
11
142.1830350088
21
310.9910963154
0
LINE
8
20000_FRONT_O
62
7
6
CONTINUOUS
10
142.1696570088
20
300.3381523154
11
142.1830350088
21
300.4710963154
0
LINE
8
20000_FRONT_O
62
7
6
CONTINUOUS
10
119.4593120088
20
236.7428483154
11
119.4652860088
21
236.8005023154
0
LINE
8
20000_FRONT_O
62
7
6
CONTINUOUS
10
119.6567660088
20
236.7115723154
11
119.6650120088
21
236.7900353154
0
LINE
8
20000_FRONT_O
62
7
6
CONTINUOUS
10
117.8734350088
20
237.3219923154
11
117.8664390088
21
237.2626023154
0
LINE
8
20000_FRONT_O
62
7
6
CONTINUOUS
10
142.0464760088
20
347.7720273154
11
142.0317030088
21
347.6470663154
0
LINE
8
20000_FRONT_O
62
7
6
CONTINUOUS
10
142.0464760088
20
337.2520273154
11
142.0317030088
21
337.1270663154
0
LINE
8
20000_FRONT_O
62
7
6
CONTINUOUS
10
142.0464760088
20
317.2920273154
11
142.0317030088
21
317.1670663154
0
LINE
8
20000_FRONT_O
62
7
6
CONTINUOUS
10
142.0464760088
20
306.7720273154
11
142.0317030088
21
306.6470663154
0
LINE
8
20000_FRONT_O
62
7
6
CONTINUOUS
10
142.0532580088
20
342.3122303154
11
142.0368660088
21
342.1983743154
0
LINE
8
20000_FRONT_O
62
7
6
CONTINUOUS
10
142.0532580088
20
331.7922303154
11
142.0368660088
21
331.6783743154
0
LINE
8
20000_FRONT_O
62
7
6
CONTINUOUS
10
142.0532580088
20
311.8322303154
11
142.0368660088
21
311.7183743154
0
LINE
8
20000_FRONT_O
62
7
6
CONTINUOUS
10
142.0532580088
20
301.3122303154
11
142.0368660088
21
301.1983743154
0
LINE
8
20000_FRONT_O
62
7
6
CONTINUOUS
10
148.7224620088
20
357.7712723154
11
148.7139180088
21
357.7172283154
0
LINE
8
20000_FRONT_O
62
7
6
CONTINUOUS
10
142.7075740088
20
330.9411293154
11
142.7268120088
21
331.0615263154
0
LINE
8
20000_FRONT_O
62
7
6
CONTINUOUS
10
142.7075740088
20
310.9811293154
11
142.7268120088
21
311.1015263154
0
LINE
8
20000_FRONT_O
62
7
6
CONTINUOUS
10
142.7075740088
20
300.4611293154
11
142.7268120088
21
300.5815263154
0
LINE
8
20000_FRONT_O
62
7
6
CONTINUOUS
10
149.2289790088
20
317.7903163154
11
149.2294160088
21
317.7930143154
0
LINE
8
20000_FRONT_O
62
7
6
CONTINUOUS
10
148.4219580088
20
330.3640573154
11
148.4376090088
21
330.4600133154
0
LINE
8
20000_FRONT_O
62
7
6
CONTINUOUS
10
149.2288500088
20
317.7931693154
11
149.2292790088
21
317.7957943154
0
LINE
8
20000_FRONT_O
62
7
6
CONTINUOUS
10
142.1520860088
20
341.2339793154
11
142.1696570088
21
341.3381523154
0
LINE
8
20000_FRONT_O
62
7
6
CONTINUOUS
10
142.1520860088
20
330.7139793154
11
142.1696570088
21
330.8181523154
0
LINE
8
20000_FRONT_O
62
7
6
CONTINUOUS
10
142.1520860088
20
310.7539793154
11
142.1696570088
21
310.8581523154
0
LINE
8
20000_FRONT_O
62
7
6
CONTINUOUS
10
142.1520860088
20
300.2339793154
11
142.1696570088
21
300.3381523154
0
LINE
8
20000_FRONT_O
62
7
6
CONTINUOUS
10
148.4108990088
20
358.8686443154
11
148.4228990088
21
358.9380403154
0
LINE
8
20000_FRONT_O
62
7
6
CONTINUOUS
10
148.4102960088
20
318.5869763154
11
148.4068830088
21
318.5676903154
0
LINE
8
20000_FRONT_O
62
7
6
CONTINUOUS
10
142.0651270088
20
347.8658313154
11
142.0464760088
21
347.7720273154
0
LINE
8
20000_FRONT_O
62
7
6
CONTINUOUS
10
142.0651270088
20
337.3458313154
11
142.0464760088
21
337.2520273154
0
LINE
8
20000_FRONT_O
62
7
6
CONTINUOUS
10
142.0651270088
20
317.3858313154
11
142.0464760088
21
317.2920273154
0
LINE
8
20000_FRONT_O
62
7
6
CONTINUOUS
10
142.0651270088
20
306.8658313154
11
142.0464760088
21
306.7720273154
0
LINE
8
20000_FRONT_O
62
7
6
CONTINUOUS
10
117.8849810088
20
237.3796363154
11
117.8734350088
21
237.3219923154
0
LINE
8
20000_FRONT_O
62
7
6
CONTINUOUS
10
119.4474110088
20
236.6857773154
11
119.4593120088
21
236.7428483154
0
LINE
8
20000_FRONT_O
62
7
6
CONTINUOUS
10
119.6402230088
20
236.6339163154
11
119.6567660088
21
236.7115723154
0
LINE
8
20000_FRONT_O
62
7
6
CONTINUOUS
10
148.4228990088
20
358.9179173154
11
148.4108990088
21
358.8624903154
0
LINE
8
20000_FRONT_O
62
7
6
CONTINUOUS
10
148.7341350088
20
357.8247163154
11
148.7224620088
21
357.7712723154
0
LINE
8
20000_FRONT_O
62
7
6
CONTINUOUS
10
149.3565660088
20
317.9444013154
11
149.3568830088
21
317.9458323154
0
LINE
8
20000_FRONT_O
62
7
6
CONTINUOUS
10
148.4376090088
20
330.4600133154
11
148.4566810088
21
330.5432513154
0
LINE
8
20000_FRONT_O
62
7
6
CONTINUOUS
10
142.0730960088
20
342.3922073154
11
142.0532580088
21
342.3122303154
0
LINE
8
20000_FRONT_O
62
7
6
CONTINUOUS
10
142.0730960088
20
331.8722073154
11
142.0532580088
21
331.7922303154
0
LINE
8
20000_FRONT_O
62
7
6
CONTINUOUS
10
142.0730960088
20
311.9122073154
11
142.0532580088
21
311.8322303154
0
LINE
8
20000_FRONT_O
62
7
6
CONTINUOUS
10
142.0730960088
20
301.3922073154
11
142.0532580088
21
301.3122303154
0
LINE
8
20000_FRONT_O
62
7
6
CONTINUOUS
10
149.2294160088
20
317.7930143154
11
149.2300360088
21
317.7954173154
0
LINE
8
20000_FRONT_O
62
7
6
CONTINUOUS
10
149.2292790088
20
317.7957943154
11
149.2299430088
21
317.7982523154
0
LINE
8
20000_FRONT_O
62
7
6
CONTINUOUS
10
142.6848360088
20
330.8588553154
11
142.7075740088
21
330.9411293154
0
LINE
8
20000_FRONT_O
62
7
6
CONTINUOUS
10
142.6848360088
20
310.8988553154
11
142.7075740088
21
310.9811293154
0
LINE
8
20000_FRONT_O
62
7
6
CONTINUOUS
10
142.6848360088
20
300.3788553154
11
142.7075740088
21
300.4611293154
0
LINE
8
20000_FRONT_O
62
7
6
CONTINUOUS
10
148.4228990088
20
358.9380403154
11
148.4427400088
21
359.0096963154
0
LINE
8
20000_FRONT_O
62
7
6
CONTINUOUS
10
148.7487700088
20
357.8775593154
11
148.7341350088
21
357.8247163154
0
LINE
8
20000_FRONT_O
62
7
6
CONTINUOUS
10
136.5250840088
20
310.6573343154
11
136.3888980088
21
310.1654313154
0
LINE
8
20000_FRONT_O
62
7
6
CONTINUOUS
10
136.5250840088
20
300.1373343154
11
136.3888980088
21
299.6454313154
0
LINE
8
20000_FRONT_O
62
7
6
CONTINUOUS
10
116.1629650088
20
237.5590643154
11
116.1556540088
21
237.5332803154
0
LINE
8
20000_FRONT_O
62
7
6
CONTINUOUS
10
142.4604480088
20
317.7347373154
11
142.1942380088
21
316.8073343154
0
LINE
8
20000_FRONT_O
62
7
6
CONTINUOUS
10
142.4604480088
20
307.2147373154
11
142.1942380088
21
306.2873343154
0
LINE
8
20000_FRONT_O
62
7
6
CONTINUOUS
10
117.9009090088
20
237.4346963154
11
117.8849810088
21
237.3796363154
0
LINE
8
20000_FRONT_O
62
7
6
CONTINUOUS
10
148.4566810088
20
330.5432513154
11
148.4781870088
21
330.6148873154
0
LINE
8
20000_FRONT_O
62
7
6
CONTINUOUS
10
142.1314380088
20
330.6456253154
11
142.1520860088
21
330.7139793154
0
LINE
8
20000_FRONT_O
62
7
6
CONTINUOUS
10
142.1314380088
20
310.6856253154
11
142.1520860088
21
310.7539793154
0
LINE
8
20000_FRONT_O
62
7
6
CONTINUOUS
10
142.1314380088
20
300.1656253154
11
142.1520860088
21
300.2339793154
0
LINE
8
20000_FRONT_O
62
7
6
CONTINUOUS
10
119.4296260088
20
236.6300663154
11
119.4474110088
21
236.6857773154
0
LINE
8
20000_FRONT_O
62
7
6
CONTINUOUS
10
119.6154390088
20
236.5581223154
11
119.6402230088
21
236.6339163154
0
LINE
8
20000_FRONT_O
62
7
6
CONTINUOUS
10
136.3888980088
20
299.6454313154
11
136.1702610088
21
298.9853423154
0
LINE
8
20000_FRONT_O
62
7
6
CONTINUOUS
10
149.3530530088
20
318.8793423154
11
149.3416980088
21
318.8453133154
0
LINE
8
20000_FRONT_O
62
7
6
CONTINUOUS
10
142.7351400088
20
318.5194693154
11
142.4604480088
21
317.7347373154
0
LINE
8
20000_FRONT_O
62
7
6
CONTINUOUS
10
142.7351400088
20
307.9994693154
11
142.4604480088
21
307.2147373154
0
LINE
8
20000_FRONT_O
62
7
6
CONTINUOUS
10
149.3680460088
20
320.9383343154
11
149.3597070088
21
320.9152353154
0
LINE
8
20000_FRONT_O
62
7
6
CONTINUOUS
10
142.3008020088
20
316.6468753154
11
142.1396680088
21
316.2073343154
0
LINE
8
20000_FRONT_O
62
7
6
CONTINUOUS
10
142.3008020088
20
306.1268753154
11
142.1396680088
21
305.6873343154
0
LINE
8
20000_FRONT_O
62
7
6
CONTINUOUS
10
142.0864590088
20
317.4420743154
11
142.0651270088
21
317.3858313154
0
LINE
8
20000_FRONT_O
62
7
6
CONTINUOUS
10
142.0864590088
20
306.9220743154
11
142.0651270088
21
306.8658313154
0
LINE
8
20000_FRONT_O
62
7
6
CONTINUOUS
10
148.4781870088
20
330.6148873154
11
148.5013580088
21
330.6758823154
0
LINE
8
20000_FRONT_O
62
7
6
CONTINUOUS
10
149.2300360088
20
317.7954173154
11
149.2308550088
21
317.7975573154
0
LINE
8
20000_FRONT_O
62
7
6
CONTINUOUS
10
149.2299430088
20
317.7982523154
11
149.2308370088
21
317.8005613154
0
LINE
8
20000_FRONT_O
62
7
6
CONTINUOUS
10
117.9209870088
20
237.4863663154
11
117.9009090088
21
237.4346963154
0
LINE
8
20000_FRONT_O
62
7
6
CONTINUOUS
10
149.3554870088
20
317.9416473154
11
149.3565660088
21
317.9444013154
0
LINE
8
20000_FRONT_O
62
7
6
CONTINUOUS
10
149.2312230088
20
280.7984393154
11
149.2299090088
21
280.7951483154
0
LINE
8
20000_FRONT_O
62
7
6
CONTINUOUS
10
136.1702610088
20
298.9853423154
11
135.9468840088
21
298.4373343154
0
LINE
8
20000_FRONT_O
62
7
6
CONTINUOUS
10
119.4061190088
20
236.5765233154
11
119.4296260088
21
236.6300663154
0
LINE
8
20000_FRONT_O
62
7
6
CONTINUOUS
10
143.0168840088
20
308.6373343154
11
142.7351400088
21
307.9994693154
0
LINE
8
20000_FRONT_O
62
7
6
CONTINUOUS
10
119.5826410088
20
236.4852923154
11
119.6154390088
21
236.5581223154
0
LINE
8
20000_FRONT_O
62
7
6
CONTINUOUS
10
149.3534800088
20
317.9373873154
11
149.3554870088
21
317.9416473154
0
LINE
8
20000_FRONT_O
62
7
6
CONTINUOUS
10
142.4661090088
20
306.4742483154
11
142.3008020088
21
306.1268753154
0
LINE
8
20000_FRONT_O
62
7
6
CONTINUOUS
10
142.1177890088
20
305.6435433154
11
142.1396680088
21
305.6873343154
0
LINE
8
20000_FRONT_O
62
7
6
CONTINUOUS
10
117.9449230088
20
237.5338953154
11
117.9209870088
21
237.4863663154
0
LINE
8
20000_FRONT_O
62
7
6
CONTINUOUS
10
116.1747280088
20
237.5823353154
11
116.1629650088
21
237.5590643154
0
LINE
8
20000_FRONT_O
62
7
6
CONTINUOUS
10
149.2308370088
20
317.8005613154
11
149.2319600088
21
317.8027453154
0
LINE
8
20000_FRONT_O
62
7
6
CONTINUOUS
10
149.3504180088
20
317.9315533154
11
149.3534800088
21
317.9373873154
0
LINE
8
20000_FRONT_O
62
7
6
CONTINUOUS
10
142.0950930088
20
301.4327893154
11
142.0730960088
21
301.3922073154
0
LINE
8
20000_FRONT_O
62
7
6
CONTINUOUS
10
149.2324650088
20
280.8022423154
11
149.2306970088
21
280.7989863154
0
LINE
8
20000_FRONT_O
62
7
6
CONTINUOUS
10
148.4203600088
20
318.6054883154
11
148.4102960088
21
318.5869763154
0
LINE
8
20000_FRONT_O
62
7
6
CONTINUOUS
10
149.2308550088
20
317.7975573154
11
149.2318850088
21
317.7994483154
0
LINE
8
20000_FRONT_O
62
7
6
CONTINUOUS
10
110.5850140088
20
237.4707113154
11
110.5526670088
21
237.4113493154
0
LINE
8
20000_FRONT_O
62
7
6
CONTINUOUS
10
149.3416980088
20
318.8453133154
11
149.3232150088
21
318.8126923154
0
LINE
8
20000_FRONT_O
62
7
6
CONTINUOUS
10
149.3462150088
20
317.9241833154
11
149.3504180088
21
317.9315533154
0
LINE
8
20000_FRONT_O
62
7
6
CONTINUOUS
10
119.3771810088
20
236.5259493154
11
119.4061190088
21
236.5765233154
0
LINE
8
20000_FRONT_O
62
7
6
CONTINUOUS
10
119.5422340088
20
236.4165123154
11
119.5826410088
21
236.4852923154
0
LINE
8
20000_FRONT_O
62
7
6
CONTINUOUS
10
149.4263270088
20
313.9144163154
11
150.3068830088
21
315.4058343154
0
LINE
8
20000_FRONT_O
62
7
6
CONTINUOUS
10
149.3408330088
20
317.9154183154
11
149.3462150088
21
317.9241833154
0
LINE
8
20000_FRONT_O
62
7
6
CONTINUOUS
10
149.4263040088
20
313.9143783154
11
149.4221630088
21
313.9078283154
0
LINE
8
20000_FRONT_O
62
7
6
CONTINUOUS
10
142.6599940088
20
300.3400693154
11
142.6848360088
21
300.3788553154
0
LINE
8
20000_FRONT_O
62
7
6
CONTINUOUS
10
117.9723660088
20
237.5765893154
11
117.9449230088
21
237.5338953154
0
LINE
8
20000_FRONT_O
62
7
6
CONTINUOUS
10
149.2319600088
20
317.8027453154
11
149.2333240088
21
317.8048543154
0
LINE
8
20000_FRONT_O
62
7
6
CONTINUOUS
10
149.3343040088
20
317.9055223154
11
149.3408330088
21
317.9154183154
0
LINE
8
20000_FRONT_O
62
7
6
CONTINUOUS
10
142.6346020088
20
306.7273233154
11
142.4661090088
21
306.4742483154
0
LINE
8
20000_FRONT_O
62
7
6
CONTINUOUS
10
149.2287090088
20
313.8179583154
11
150.3068830088
21
315.4058343154
0
LINE
8
20000_FRONT_O
62
7
6
CONTINUOUS
10
149.3268060088
20
317.8949663154
11
149.3343040088
21
317.9055223154
0
LINE
8
20000_FRONT_O
62
7
6
CONTINUOUS
10
149.4221630088
20
313.9078283154
11
149.4168060088
21
313.9003553154
0
LINE
8
20000_FRONT_O
62
7
6
CONTINUOUS
10
110.6235080088
20
237.5233073154
11
110.5850140088
21
237.4707113154
0
LINE
8
20000_FRONT_O
62
7
6
CONTINUOUS
10
149.2318850088
20
317.7994483154
11
149.2331350088
21
317.8011043154
0
LINE
8
20000_FRONT_O
62
7
6
CONTINUOUS
10
149.3186730088
20
317.8843523154
11
149.3268060088
21
317.8949663154
0
LINE
8
20000_FRONT_O
62
7
6
CONTINUOUS
10
149.2333240088
20
317.8048543154
11
149.2349660088
21
317.8069513154
0
LINE
8
20000_FRONT_O
62
7
6
CONTINUOUS
10
149.4168060088
20
313.9003553154
11
149.4101120088
21
313.8920273154
0
LINE
8
20000_FRONT_O
62
7
6
CONTINUOUS
10
142.1090660088
20
300.1378423154
11
142.1314380088
21
300.1656253154
0
LINE
8
20000_FRONT_O
62
7
6
CONTINUOUS
10
149.3232150088
20
318.8126923154
11
149.2982100088
21
318.7820693154
0
LINE
8
20000_FRONT_O
62
7
6
CONTINUOUS
10
149.3103320088
20
317.8742793154
11
149.3186730088
21
317.8843523154
0
LINE
8
20000_FRONT_O
62
7
6
CONTINUOUS
10
149.4101120088
20
313.8920273154
11
149.4020270088
21
313.8829733154
0
LINE
8
20000_FRONT_O
62
7
6
CONTINUOUS
10
149.3022000088
20
317.8651833154
11
149.3103320088
21
317.8742793154
0
LINE
8
20000_FRONT_O
62
7
6
CONTINUOUS
10
149.2349660088
20
317.8069513154
11
149.2369310088
21
317.8090893154
0
LINE
8
20000_FRONT_O
62
7
6
CONTINUOUS
10
148.4366310088
20
318.6225583154
11
148.4203600088
21
318.6054883154
0
LINE
8
20000_FRONT_O
62
7
6
CONTINUOUS
10
149.2944490088
20
317.8571293154
11
149.3022000088
21
317.8651833154
0
LINE
8
20000_FRONT_O
62
7
6
CONTINUOUS
10
149.4020270088
20
313.8829733154
11
149.3925590088
21
313.8733623154
0
LINE
8
20000_FRONT_O
62
7
6
CONTINUOUS
10
149.2331350088
20
317.8011043154
11
149.2346310088
21
317.8025563154
0
LINE
8
20000_FRONT_O
62
7
6
CONTINUOUS
10
149.2871320088
20
317.8500363154
11
149.2944490088
21
317.8571293154
0
LINE
8
20000_FRONT_O
62
7
6
CONTINUOUS
10
149.2369310088
20
317.8090893154
11
149.2392600088
21
317.8113133154
0
LINE
8
20000_FRONT_O
62
7
6
CONTINUOUS
10
149.3925590088
20
313.8733623154
11
149.3817780088
21
313.8634033154
0
LINE
8
20000_FRONT_O
62
7
6
CONTINUOUS
10
149.2982100088
20
318.7820693154
11
149.2674380088
21
318.7539213154
0
LINE
8
20000_FRONT_O
62
7
6
CONTINUOUS
10
149.2802610088
20
317.8437933154
11
149.2871320088
21
317.8500363154
0
LINE
8
20000_FRONT_O
62
7
6
CONTINUOUS
10
149.2392600088
20
317.8113133154
11
149.2419830088
21
317.8136633154
0
LINE
8
20000_FRONT_O
62
7
6
CONTINUOUS
10
149.2738440088
20
317.8382963154
11
149.2802610088
21
317.8437933154
0
LINE
8
20000_FRONT_O
62
7
6
CONTINUOUS
10
149.3817780088
20
313.8634033154
11
149.3698310088
21
313.8533483154
0
LINE
8
20000_FRONT_O
62
7
6
CONTINUOUS
10
149.4221040088
20
320.9993503154
11
149.3998040088
21
320.9808003154
0
LINE
8
20000_FRONT_O
62
7
6
CONTINUOUS
10
149.2679010088
20
317.8334613154
11
149.2738440088
21
317.8382963154
0
LINE
8
20000_FRONT_O
62
7
6
CONTINUOUS
10
149.2419830088
20
317.8136633154
11
149.2451290088
21
317.8161873154
0
LINE
8
20000_FRONT_O
62
7
6
CONTINUOUS
10
142.1055840088
20
317.4573153154
11
142.0864590088
21
317.4420743154
0
LINE
8
20000_FRONT_O
62
7
6
CONTINUOUS
10
142.1055840088
20
306.9373153154
11
142.0864590088
21
306.9220743154
0
LINE
8
20000_FRONT_O
62
7
6
CONTINUOUS
10
149.2624270088
20
317.8291943154
11
149.2679010088
21
317.8334613154
0
LINE
8
20000_FRONT_O
62
7
6
CONTINUOUS
10
149.3698310088
20
313.8533483154
11
149.3570620088
21
313.8435743154
0
LINE
8
20000_FRONT_O
62
7
6
CONTINUOUS
10
149.2451290088
20
317.8161873154
11
149.2487350088
21
317.8189423154
0
LINE
8
20000_FRONT_O
62
7
6
CONTINUOUS
10
149.2574020088
20
317.8253973154
11
149.2624270088
21
317.8291943154
0
LINE
8
20000_FRONT_O
62
7
6
CONTINUOUS
10
149.2487350088
20
317.8189423154
11
149.2574020088
21
317.8253973154
0
LINE
8
20000_FRONT_O
62
7
6
CONTINUOUS
10
118.0787630088
20
300.1110123154
11
117.9890380088
21
300.0442633154
0
LINE
8
20000_FRONT_O
62
7
6
CONTINUOUS
10
149.2674380088
20
318.7539213154
11
149.2317310088
21
318.7286003154
0
LINE
8
20000_FRONT_O
62
7
6
CONTINUOUS
10
149.2346310088
20
317.8025563154
11
149.2364220088
21
317.8038263154
0
LINE
8
20000_FRONT_O
62
7
6
CONTINUOUS
10
149.3570620088
20
313.8435743154
11
149.3439980088
21
313.8345103154
0
LINE
8
20000_FRONT_O
62
7
6
CONTINUOUS
10
148.4586660088
20
318.6377273154
11
148.4366310088
21
318.6225583154
0
LINE
8
20000_FRONT_O
62
7
6
CONTINUOUS
10
149.4478060088
20
321.0157383154
11
149.4221040088
21
320.9993503154
0
LINE
8
20000_FRONT_O
62
7
6
CONTINUOUS
10
149.3439980088
20
313.8345103154
11
149.3312370088
21
313.8265243154
0
LINE
8
20000_FRONT_O
62
7
6
CONTINUOUS
10
148.6231310088
20
330.8498433154
11
148.6458980088
21
330.8640123154
0
LINE
8
20000_FRONT_O
62
7
6
CONTINUOUS
10
116.6947280088
20
310.1604053154
11
116.7904430088
21
310.2179503154
0
LINE
8
20000_FRONT_O
62
7
6
CONTINUOUS
10
117.9890380088
20
300.0442633154
11
117.8933220088
21
299.9867183154
0
LINE
8
20000_FRONT_O
62
7
6
CONTINUOUS
10
142.6513440088
20
317.2572943154
11
142.6346020088
21
317.2473233154
0
LINE
8
20000_FRONT_O
62
7
6
CONTINUOUS
10
149.2317310088
20
318.7286003154
11
149.1919340088
21
318.7063393154
0
LINE
8
20000_FRONT_O
62
7
6
CONTINUOUS
10
149.2364220088
20
317.8038263154
11
149.2385680088
21
317.8049163154
0
LINE
8
20000_FRONT_O
62
7
6
CONTINUOUS
10
142.1055560088
20
336.1174043154
11
142.1177890088
21
336.1235433154
0
LINE
8
20000_FRONT_O
62
7
6
CONTINUOUS
10
142.1055560088
20
316.1574043154
11
142.1177890088
21
316.1635433154
0
LINE
8
20000_FRONT_O
62
7
6
CONTINUOUS
10
149.4763180088
20
321.0298433154
11
149.4478060088
21
321.0157383154
0
LINE
8
20000_FRONT_O
62
7
6
CONTINUOUS
10
116.7904430088
20
310.2179503154
11
116.8911890088
21
310.2657453154
0
LINE
8
20000_FRONT_O
62
7
6
CONTINUOUS
10
142.1055560088
20
342.4372643154
11
142.0950930088
21
342.4327893154
0
LINE
8
20000_FRONT_O
62
7
6
CONTINUOUS
10
142.1055560088
20
331.9172643154
11
142.0950930088
21
331.9127893154
0
LINE
8
20000_FRONT_O
62
7
6
CONTINUOUS
10
148.6458980088
20
330.8640123154
11
148.6674610088
21
330.8731763154
0
LINE
8
20000_FRONT_O
62
7
6
CONTINUOUS
10
142.6513440088
20
341.3373743154
11
142.6599940088
21
341.3400693154
0
LINE
8
90000_FRAME
62
7
6
CONTINUOUS
10
449.0000000000
20
28.0000000000
11
584.0000000000
21
28.0000000000
0
LINE
8
20000_FRONT_O
62
7
6
CONTINUOUS
10
116.1567100088
20
237.4721373154
11
116.1669270088
21
237.4361393154
0
LINE
8
20000_FRONT_O
62
7
6
CONTINUOUS
10
116.2089510088
20
300.7745183154
11
116.1924150088
21
300.8863453154
0
LINE
8
20000_FRONT_O
62
7
6
CONTINUOUS
10
119.6567660088
20
357.8930963154
11
119.6650120088
21
357.8146333154
0
LINE
8
20000_FRONT_O
62
7
6
CONTINUOUS
10
142.1830350088
20
306.6035723154
11
142.1696570088
21
306.7365153154
0
LINE
8
20000_FRONT_O
62
7
6
CONTINUOUS
10
142.1830350088
20
317.1235723154
11
142.1696570088
21
317.2565153154
0
LINE
8
20000_FRONT_O
62
7
6
CONTINUOUS
10
148.4219540088
20
264.2406413154
11
148.4110670088
21
264.3506193154
0
LINE
8
20000_FRONT_O
62
7
6
CONTINUOUS
10
142.7414000088
20
306.3422683154
11
142.7268120088
21
306.4931423154
0
LINE
8
20000_FRONT_O
62
7
6
CONTINUOUS
10
142.7414000088
20
316.8622683154
11
142.7268120088
21
317.0131423154
0
LINE
8
20000_FRONT_O
62
7
6
CONTINUOUS
10
142.0249550088
20
306.0164003154
11
142.0368660088
21
305.8762943154
0
LINE
8
20000_FRONT_O
62
7
6
CONTINUOUS
10
142.0249550088
20
316.5364003154
11
142.0368660088
21
316.3962943154
0
LINE
8
20000_FRONT_O
62
7
6
CONTINUOUS
10
142.0249550088
20
336.4964003154
11
142.0368660088
21
336.3562943154
0
LINE
8
20000_FRONT_O
62
7
6
CONTINUOUS
10
142.0249550088
20
347.0164003154
11
142.0368660088
21
346.8762943154
0
LINE
8
20000_FRONT_O
62
7
6
CONTINUOUS
10
142.0217290088
20
300.5754403154
11
142.0317030088
21
300.4276023154
0
LINE
8
20000_FRONT_O
62
7
6
CONTINUOUS
10
142.0217290088
20
311.0954403154
11
142.0317030088
21
310.9476023154
0
LINE
8
20000_FRONT_O
62
7
6
CONTINUOUS
10
142.0217290088
20
331.0554403154
11
142.0317030088
21
330.9076023154
0
LINE
8
20000_FRONT_O
62
7
6
CONTINUOUS
10
142.0217290088
20
341.5754403154
11
142.0317030088
21
341.4276023154
0
LINE
8
20000_FRONT_O
62
7
6
CONTINUOUS
10
149.3594590088
20
280.8501313154
11
149.3568140088
21
280.8900153154
0
LINE
8
20000_FRONT_O
62
7
6
CONTINUOUS
10
142.1913950088
20
306.4505863154
11
142.1830350088
21
306.6035723154
0
LINE
8
20000_FRONT_O
62
7
6
CONTINUOUS
10
142.1913950088
20
316.9705863154
11
142.1830350088
21
317.1235723154
0
LINE
8
20000_FRONT_O
62
7
6
CONTINUOUS
10
142.1913950088
20
336.9305863154
11
142.1830350088
21
337.0835723154
0
LINE
8
20000_FRONT_O
62
7
6
CONTINUOUS
10
142.1913950088
20
347.4505863154
11
142.1830350088
21
347.6035723154
0
LINE
8
20000_FRONT_O
62
7
6
CONTINUOUS
10
142.7504940088
20
306.1702193154
11
142.7414000088
21
306.3422683154
0
LINE
8
20000_FRONT_O
62
7
6
CONTINUOUS
10
142.7504940088
20
316.6902193154
11
142.7414000088
21
316.8622683154
0
LINE
8
20000_FRONT_O
62
7
6
CONTINUOUS
10
142.7504940088
20
336.6502193154
11
142.7414000088
21
336.8222683154
0
LINE
8
20000_FRONT_O
62
7
6
CONTINUOUS
10
142.7504940088
20
347.1702193154
11
142.7414000088
21
347.3422683154
0
LINE
8
20000_FRONT_O
62
7
6
CONTINUOUS
10
142.0182510088
20
306.1736423154
11
142.0249550088
21
306.0164003154
0
LINE
8
20000_FRONT_O
62
7
6
CONTINUOUS
10
142.0182510088
20
316.6936423154
11
142.0249550088
21
316.5364003154
0
LINE
8
20000_FRONT_O
62
7
6
CONTINUOUS
10
142.0182510088
20
336.6536423154
11
142.0249550088
21
336.4964003154
0
LINE
8
20000_FRONT_O
62
7
6
CONTINUOUS
10
142.0182510088
20
347.1736423154
11
142.0249550088
21
347.0164003154
0
LINE
8
20000_FRONT_O
62
7
6
CONTINUOUS
10
148.4110670088
20
264.3506193154
11
148.4068830088
21
264.4755393154
0
LINE
8
20000_FRONT_O
62
7
6
CONTINUOUS
10
142.0171550088
20
300.7366383154
11
142.0217290088
21
300.5754403154
0
LINE
8
20000_FRONT_O
62
7
6
CONTINUOUS
10
142.0171550088
20
311.2566383154
11
142.0217290088
21
311.0954403154
0
LINE
8
20000_FRONT_O
62
7
6
CONTINUOUS
10
142.0171550088
20
331.2166383154
11
142.0217290088
21
331.0554403154
0
LINE
8
20000_FRONT_O
62
7
6
CONTINUOUS
10
142.0171550088
20
341.7366383154
11
142.0217290088
21
341.5754403154
0
LINE
8
20000_FRONT_O
62
7
6
CONTINUOUS
10
149.2287090088
20
276.8174093154
11
149.2288330088
21
276.8127753154
0
LINE
8
20000_FRONT_O
62
7
6
CONTINUOUS
10
142.1942380088
20
306.2873343154
11
142.1913950088
21
306.4505863154
0
LINE
8
20000_FRONT_O
62
7
6
CONTINUOUS
10
142.1942380088
20
316.8073343154
11
142.1913950088
21
316.9705863154
0
LINE
8
20000_FRONT_O
62
7
6
CONTINUOUS
10
142.1942380088
20
336.7673343154
11
142.1913950088
21
336.9305863154
0
LINE
8
20000_FRONT_O
62
7
6
CONTINUOUS
10
142.1942380088
20
347.2873343154
11
142.1913950088
21
347.4505863154
0
LINE
8
20000_FRONT_O
62
7
6
CONTINUOUS
10
142.7535830088
20
305.9873343154
11
142.7504940088
21
306.1702193154
0
LINE
8
20000_FRONT_O
62
7
6
CONTINUOUS
10
142.7535830088
20
316.5073343154
11
142.7504940088
21
316.6902193154
0
LINE
8
20000_FRONT_O
62
7
6
CONTINUOUS
10
142.7535830088
20
336.4673343154
11
142.7504940088
21
336.6502193154
0
LINE
8
20000_FRONT_O
62
7
6
CONTINUOUS
10
142.7535830088
20
346.9873343154
11
142.7504940088
21
347.1702193154
0
LINE
8
20000_FRONT_O
62
7
6
CONTINUOUS
10
149.2287090088
20
317.7872593154
11
149.2286570088
21
317.7903433154
0
LINE
8
20000_FRONT_O
62
7
6
CONTINUOUS
10
142.0171550088
20
306.3380303154
11
142.0182510088
21
306.1736423154
0
LINE
8
20000_FRONT_O
62
7
6
CONTINUOUS
10
142.0171550088
20
316.8580303154
11
142.0182510088
21
316.6936423154
0
LINE
8
20000_FRONT_O
62
7
6
CONTINUOUS
10
142.0171550088
20
336.8180303154
11
142.0182510088
21
336.6536423154
0
LINE
8
20000_FRONT_O
62
7
6
CONTINUOUS
10
142.0171550088
20
347.3380303154
11
142.0182510088
21
347.1736423154
0
LINE
8
20000_FRONT_O
62
7
6
CONTINUOUS
10
134.0068830088
20
298.2973343154
11
134.0068830088
21
319.2973343154
0
LINE
8
20000_FRONT_O
62
7
6
CONTINUOUS
10
134.0068830088
20
328.7973343154
11
134.0068830088
21
349.7973343154
0
LINE
8
20000_FRONT_O
62
7
6
CONTINUOUS
10
134.7068830088
20
328.7973343154
11
134.7068840088
21
332.7973343154
0
LINE
8
20000_FRONT_O
62
7
6
CONTINUOUS
10
134.7068830088
20
298.2973343154
11
134.7068840088
21
302.2973343154
0
LINE
8
20000_FRONT_O
62
7
6
CONTINUOUS
10
134.7068840088
20
303.8973343154
11
134.7068840088
21
314.2973343154
0
LINE
8
20000_FRONT_O
62
7
6
CONTINUOUS
10
134.7068840088
20
334.3973343154
11
134.7068840088
21
344.7973343154
0
LINE
8
20000_FRONT_O
62
7
6
CONTINUOUS
10
134.7068840088
20
315.8973343154
11
134.7068830088
21
319.2973343154
0
LINE
8
20000_FRONT_O
62
7
6
CONTINUOUS
10
134.7068840088
20
346.3973343154
11
134.7068830088
21
349.7973343154
0
LINE
8
20000_FRONT_O
62
7
6
CONTINUOUS
10
135.1068840088
20
339.2924573154
11
135.1068840088
21
334.3973343154
0
LINE
8
20000_FRONT_O
62
7
6
CONTINUOUS
10
135.1068840088
20
332.7973343154
11
135.1068840088
21
329.2522113154
0
LINE
8
20000_FRONT_O
62
7
6
CONTINUOUS
10
135.3068840088
20
298.2973343154
11
135.3068840088
21
302.2973343154
0
LINE
8
20000_FRONT_O
62
7
6
CONTINUOUS
10
135.3068840088
20
303.8973343154
11
135.3068840088
21
314.2973343154
0
LINE
8
20000_FRONT_O
62
7
6
CONTINUOUS
10
135.3068840088
20
315.8973343154
11
135.3068840088
21
317.4573173154
0
LINE
8
20000_FRONT_O
62
7
6
CONTINUOUS
10
135.3068840088
20
330.6173513154
11
135.3068840088
21
331.9172713154
0
LINE
8
20000_FRONT_O
62
7
6
CONTINUOUS
10
135.3068840088
20
336.1173973154
11
135.3068840088
21
337.4173173154
0
LINE
8
20000_FRONT_O
62
7
6
CONTINUOUS
10
135.3068840088
20
340.1482013154
11
135.3068840088
21
342.6137003154
0
LINE
8
20000_FRONT_O
62
7
6
CONTINUOUS
10
135.3068840088
20
346.6373973154
11
135.3068840088
21
347.9373173154
0
LINE
8
20000_FRONT_O
62
7
6
CONTINUOUS
10
135.5068840088
20
346.3973343154
11
135.5068840088
21
344.7973343154
0
LINE
8
20000_FRONT_O
62
7
6
CONTINUOUS
10
135.5068840088
20
334.3973343154
11
135.5068840088
21
332.7973343154
0
LINE
8
20000_FRONT_O
62
7
6
CONTINUOUS
10
135.5068840088
20
315.8973343154
11
135.5068840088
21
314.2973343154
0
LINE
8
20000_FRONT_O
62
7
6
CONTINUOUS
10
135.5068840088
20
303.8973343154
11
135.5068840088
21
302.2973343154
0
LINE
8
20000_FRONT_O
62
7
6
CONTINUOUS
10
135.6068840088
20
338.8729073154
11
135.6068840088
21
337.4173343154
0
LINE
8
20000_FRONT_O
62
7
6
CONTINUOUS
10
135.6068840088
20
336.1173343154
11
135.6068840088
21
331.9173343154
0
LINE
8
20000_FRONT_O
62
7
6
CONTINUOUS
10
135.6068840088
20
330.6173343154
11
135.6068840088
21
329.4032493154
0
LINE
8
20000_FRONT_O
62
7
6
CONTINUOUS
10
135.9468840088
20
342.9591123154
11
135.9468840088
21
342.4373343154
0
LINE
8
20000_FRONT_O
62
7
6
CONTINUOUS
10
135.9468840088
20
341.1373343154
11
135.9468840088
21
340.9127723154
0
LINE
8
20000_FRONT_O
62
7
6
CONTINUOUS
10
135.9468840088
20
298.4373343154
11
135.9468840088
21
299.6873343154
0
LINE
8
20000_FRONT_O
62
7
6
CONTINUOUS
10
135.9468840088
20
307.3873343154
11
135.9468840088
21
308.6373343154
0
LINE
8
20000_FRONT_O
62
7
6
CONTINUOUS
10
135.9468840088
20
308.9573343154
11
135.9468840088
21
310.2073343154
0
LINE
8
20000_FRONT_O
62
7
6
CONTINUOUS
10
135.9468840088
20
317.9073343154
11
135.9468840088
21
319.1573343154
0
LINE
8
20000_FRONT_O
62
7
6
CONTINUOUS
10
135.9468840088
20
328.9173343154
11
135.9468840088
21
330.1673343154
0
LINE
8
20000_FRONT_O
62
7
6
CONTINUOUS
10
135.9468840088
20
337.8673343154
11
135.9468840088
21
339.1173343154
0
LINE
8
20000_FRONT_O
62
7
6
CONTINUOUS
10
135.9468840088
20
348.3873343154
11
135.9468840088
21
349.6373343154
0
LINE
8
20000_FRONT_O
62
7
6
CONTINUOUS
10
136.0496980088
20
262.6263973154
11
136.0496980088
21
260.8952623154
0
LINE
8
20000_FRONT_O
62
7
6
CONTINUOUS
10
136.1859030088
20
301.4373343154
11
136.1859030088
21
305.6373343154
0
LINE
8
20000_FRONT_O
62
7
6
CONTINUOUS
10
136.1859030088
20
311.9573343154
11
136.1859030088
21
316.1573343154
0
LINE
8
20000_FRONT_O
62
7
6
CONTINUOUS
10
136.1859030088
20
331.9173343154
11
136.1859030088
21
336.1173343154
0
LINE
8
20000_FRONT_O
62
7
6
CONTINUOUS
10
136.1859030088
20
342.4373343154
11
136.1859030088
21
346.6373343154
0
LINE
8
20000_FRONT_O
62
7
6
CONTINUOUS
10
136.5068830088
20
263.0023343154
11
136.5068830088
21
266.1023343154
0
LINE
8
20000_FRONT_O
62
7
6
CONTINUOUS
10
137.0068840088
20
345.3289583154
11
137.0068840088
21
346.6373343154
0
LINE
8
20000_FRONT_O
62
7
6
CONTINUOUS
10
137.0068840088
20
347.9373343154
11
137.0068840088
21
348.2157103154
0
LINE
8
20000_FRONT_O
62
7
6
CONTINUOUS
10
137.5068830088
20
265.1023343154
11
137.5068830088
21
263.8023343154
0
LINE
8
20000_FRONT_O
62
7
6
CONTINUOUS
10
137.5068830088
20
235.1023343154
11
137.5068830088
21
238.3023343154
0
LINE
8
20000_FRONT_O
62
7
6
CONTINUOUS
10
137.7068840088
20
318.7973343154
11
137.7068840088
21
320.8973343154
0
LINE
8
20000_FRONT_O
62
7
6
CONTINUOUS
10
137.7068840088
20
349.2973343154
11
137.7068840088
21
351.3973343154
0
LINE
8
20000_FRONT_O
62
7
6
CONTINUOUS
10
137.7568840088
20
266.1023343154
11
137.7568840088
21
266.2973343154
0
LINE
8
20000_FRONT_O
62
7
6
CONTINUOUS
10
138.0068840088
20
266.3556673154
11
138.0068840088
21
266.1023343154
0
LINE
8
20000_FRONT_O
62
7
6
CONTINUOUS
10
138.2068840088
20
329.8973343154
11
138.2068840088
21
327.1973343154
0
LINE
8
20000_FRONT_O
62
7
6
CONTINUOUS
10
138.2068840088
20
299.2973343154
11
138.2068840088
21
296.6973343154
0
LINE
8
20000_FRONT_O
62
7
6
CONTINUOUS
10
138.2568840088
20
266.1023343154
11
138.2568840088
21
266.2973343154
0
LINE
8
20000_FRONT_O
62
7
6
CONTINUOUS
10
139.2068840088
20
329.8973343154
11
139.2068840088
21
328.8073343154
0
LINE
8
20000_FRONT_O
62
7
6
CONTINUOUS
10
139.2068840088
20
299.2973343154
11
139.2068840088
21
298.2973343154
0
LINE
8
20000_FRONT_O
62
7
6
CONTINUOUS
10
139.5068830088
20
263.0023343154
11
139.5068830088
21
239.3023343154
0
LINE
8
20000_FRONT_O
62
7
6
CONTINUOUS
10
140.2068840088
20
298.2973343154
11
140.2068840088
21
299.2973343154
0
LINE
8
20000_FRONT_O
62
7
6
CONTINUOUS
10
140.2068840088
20
328.8073343154
11
140.2068840088
21
329.8973343154
0
LINE
8
20000_FRONT_O
62
7
6
CONTINUOUS
10
141.2068840088
20
296.6973343154
11
141.2068840088
21
299.2973343154
0
LINE
8
20000_FRONT_O
62
7
6
CONTINUOUS
10
141.2068840088
20
327.1973343154
11
141.2068840088
21
329.8973343154
0
LINE
8
20000_FRONT_O
62
7
6
CONTINUOUS
10
141.5408580088
20
240.3773343154
11
141.5408580088
21
240.1523343154
0
LINE
8
20000_FRONT_O
62
7
6
CONTINUOUS
10
141.7068840088
20
351.3973343154
11
141.7068840088
21
349.2973343154
0
LINE
8
20000_FRONT_O
62
7
6
CONTINUOUS
10
141.7068840088
20
320.8973343154
11
141.7068840088
21
318.7973343154
0
LINE
8
20000_FRONT_O
62
7
6
CONTINUOUS
10
142.0068840088
20
348.2157103154
11
142.0068840088
21
347.9373343154
0
LINE
8
20000_FRONT_O
62
7
6
CONTINUOUS
10
142.0068840088
20
346.6373343154
11
142.0068840088
21
345.3289583154
0
LINE
8
20000_FRONT_O
62
7
6
CONTINUOUS
10
142.4068840088
20
355.1023343154
11
142.4068840088
21
353.9773343154
0
LINE
8
20000_FRONT_O
62
7
6
CONTINUOUS
10
142.4068840088
20
240.3773343154
11
142.4068840088
21
239.5023343154
0
LINE
8
20000_FRONT_O
62
7
6
CONTINUOUS
10
142.7535830088
20
301.0873343154
11
142.7535830088
21
305.9873343154
0
LINE
8
20000_FRONT_O
62
7
6
CONTINUOUS
10
142.7535830088
20
311.6073343154
11
142.7535830088
21
316.5073343154
0
LINE
8
20000_FRONT_O
62
7
6
CONTINUOUS
10
142.7535830088
20
331.5673343154
11
142.7535830088
21
336.4673343154
0
LINE
8
20000_FRONT_O
62
7
6
CONTINUOUS
10
142.7535830088
20
342.0873343154
11
142.7535830088
21
346.9873343154
0
LINE
8
20000_FRONT_O
62
7
6
CONTINUOUS
10
143.0168840088
20
343.7840573154
11
143.0168840088
21
341.7998823154
0
LINE
8
20000_FRONT_O
62
7
6
CONTINUOUS
10
143.4068840088
20
328.7991203154
11
143.4068840088
21
340.0673223154
0
LINE
8
20000_FRONT_O
62
7
6
CONTINUOUS
10
143.5068840088
20
302.2973343154
11
143.5068840088
21
303.8973343154
0
LINE
8
20000_FRONT_O
62
7
6
CONTINUOUS
10
143.5068840088
20
314.2973343154
11
143.5068840088
21
315.8973343154
0
LINE
8
20000_FRONT_O
62
7
6
CONTINUOUS
10
143.5068840088
20
332.7973343154
11
143.5068840088
21
334.3973343154
0
LINE
8
20000_FRONT_O
62
7
6
CONTINUOUS
10
143.5068840088
20
344.7973343154
11
143.5068840088
21
346.3973343154
0
LINE
8
20000_FRONT_O
62
7
6
CONTINUOUS
10
143.9068840088
20
328.7973343154
11
143.9068840088
21
332.7973343154
0
LINE
8
20000_FRONT_O
62
7
6
CONTINUOUS
10
143.9068840088
20
334.3973343154
11
143.9068840088
21
340.1388273154
0
LINE
8
20000_FRONT_O
62
7
6
CONTINUOUS
10
144.0068840088
20
239.5023343154
11
144.0068840088
21
240.3773343154
0
LINE
8
20000_FRONT_O
62
7
6
CONTINUOUS
10
144.0068840088
20
353.9773343154
11
144.0068840088
21
355.1023343154
0
LINE
8
20000_FRONT_O
62
7
6
CONTINUOUS
10
144.4568830088
20
239.5023343154
11
144.4568830088
21
240.1523343154
0
LINE
8
20000_FRONT_O
62
7
6
CONTINUOUS
10
144.7068860088
20
349.7973343154
11
144.7068850088
21
346.3973343154
0
LINE
8
20000_FRONT_O
62
7
6
CONTINUOUS
10
144.7068860088
20
319.2973343154
11
144.7068850088
21
315.8973343154
0
LINE
8
20000_FRONT_O
62
7
6
CONTINUOUS
10
144.7068850088
20
344.7973343154
11
144.7068850088
21
334.3973343154
0
LINE
8
20000_FRONT_O
62
7
6
CONTINUOUS
10
144.7068850088
20
314.2973343154
11
144.7068850088
21
303.8973343154
0
LINE
8
20000_FRONT_O
62
7
6
CONTINUOUS
10
144.7068850088
20
302.2973343154
11
144.7068860088
21
298.2973343154
0
LINE
8
20000_FRONT_O
62
7
6
CONTINUOUS
10
144.7068850088
20
332.7973343154
11
144.7068860088
21
328.7973343154
0
LINE
8
20000_FRONT_O
62
7
6
CONTINUOUS
10
144.7775210088
20
240.1523343154
11
144.7775210088
21
240.3773343154
0
LINE
8
20000_FRONT_O
62
7
6
CONTINUOUS
10
145.4068860088
20
349.7973343154
11
145.4068860088
21
328.7973343154
0
LINE
8
20000_FRONT_O
62
7
6
CONTINUOUS
10
145.4068860088
20
319.2973343154
11
145.4068860088
21
298.2973343154
0
LINE
8
20000_FRONT_O
62
7
6
CONTINUOUS
10
146.4068840088
20
320.8973343154
11
146.4068840088
21
327.1973343154
0
LINE
8
20000_FRONT_O
62
7
6
CONTINUOUS
10
146.7362450088
20
240.1523343154
11
146.7362450088
21
240.3773343154
0
LINE
8
20000_FRONT_O
62
7
6
CONTINUOUS
10
147.2684220088
20
239.5023343154
11
147.2684220088
21
240.1523343154
0
LINE
8
20000_FRONT_O
62
7
6
CONTINUOUS
10
147.3068840088
20
296.6973343154
11
147.3068840088
21
351.3973343154
0
LINE
8
20000_FRONT_O
62
7
6
CONTINUOUS
10
147.4068830088
20
239.8623343154
11
147.4068830088
21
240.1523343154
0
LINE
8
20000_FRONT_O
62
7
6
CONTINUOUS
10
147.5729100088
20
239.8623343154
11
147.5729100088
21
239.5023343154
0
LINE
8
20000_FRONT_O
62
7
6
CONTINUOUS
10
147.7068840088
20
355.1023343154
11
147.7068840088
21
353.9773343154
0
LINE
8
20000_FRONT_O
62
7
6
CONTINUOUS
10
147.7068840088
20
239.5023343154
11
147.7068840088
21
240.3773343154
0
LINE
8
20000_FRONT_O
62
7
6
CONTINUOUS
10
148.0068840088
20
240.3773343154
11
148.0068840088
21
264.1023343154
0
LINE
8
20000_FRONT_O
62
7
6
CONTINUOUS
10
148.0068840088
20
266.1023343154
11
148.0068840088
21
353.9773343154
0
LINE
8
20000_FRONT_O
62
7
6
CONTINUOUS
10
148.1068840088
20
355.1023343154
11
148.1068840088
21
266.1023343154
0
LINE
8
20000_FRONT_O
62
7
6
CONTINUOUS
10
148.1068840088
20
239.5023343154
11
148.1068840088
21
264.1023343154
0
LINE
8
20000_FRONT_O
62
7
6
CONTINUOUS
10
148.2068830088
20
256.0383343154
11
148.2068830088
21
264.1023343154
0
LINE
8
20000_FRONT_O
62
7
6
CONTINUOUS
10
148.2068830088
20
266.1023343154
11
148.2068830088
21
290.3063343154
0
LINE
8
20000_FRONT_O
62
7
6
CONTINUOUS
10
148.4068830088
20
235.1023343154
11
148.4068830088
21
359.5023343154
0
LINE
8
20000_FRONT_O
62
7
6
CONTINUOUS
10
148.7068830088
20
318.6591493154
11
148.7068830088
21
357.6073593154
0
LINE
8
20000_FRONT_O
62
7
6
CONTINUOUS
10
149.2287090088
20
317.7872593154
11
149.2287090088
21
313.8179583154
0
LINE
8
20000_FRONT_O
62
7
6
CONTINUOUS
10
149.2287090088
20
280.7867103154
11
149.2287090088
21
276.8174093154
0
LINE
8
20000_FRONT_O
62
7
6
CONTINUOUS
10
149.3568830088
20
320.8915253154
11
149.3568830088
21
317.9458323154
0
LINE
8
20000_FRONT_O
62
7
6
CONTINUOUS
10
149.3568830088
20
313.6602973154
11
149.3568830088
21
280.8898233154
0
LINE
8
20000_FRONT_O
62
7
6
CONTINUOUS
10
149.3568830088
20
276.7135473154
11
149.3568830088
21
273.7131433154
0
LINE
8
20000_FRONT_O
62
7
6
CONTINUOUS
10
149.4068830088
20
359.8023343154
11
149.4068830088
21
358.8023343154
0
LINE
8
20000_FRONT_O
62
7
6
CONTINUOUS
10
150.3068830088
20
316.2058343154
11
150.3068830088
21
315.4058343154
0
LINE
8
20000_FRONT_O
62
7
6
CONTINUOUS
10
150.3068830088
20
278.3988343154
11
150.3068830088
21
279.1988343154
0
LINE
8
20000_FRONT_O
62
7
6
CONTINUOUS
10
150.5068830088
20
234.8023343154
11
150.5068830088
21
359.8023343154
0
LINE
8
20000_FRONT_O
62
7
6
CONTINUOUS
10
142.0182510088
20
341.9010253154
11
142.0171550088
21
341.7366383154
0
LINE
8
20000_FRONT_O
62
7
6
CONTINUOUS
10
142.0182510088
20
331.3810253154
11
142.0171550088
21
331.2166383154
0
LINE
8
20000_FRONT_O
62
7
6
CONTINUOUS
10
142.0182510088
20
311.4210253154
11
142.0171550088
21
311.2566383154
0
LINE
8
20000_FRONT_O
62
7
6
CONTINUOUS
10
142.0182510088
20
300.9010253154
11
142.0171550088
21
300.7366383154
0
LINE
8
20000_FRONT_O
62
7
6
CONTINUOUS
10
149.2286620088
20
313.8147783154
11
149.2287090088
21
313.8179583154
0
LINE
8
20000_FRONT_O
62
7
6
CONTINUOUS
10
142.7512040088
20
341.9464783154
11
142.7535830088
21
342.0873343154
0
LINE
8
20000_FRONT_O
62
7
6
CONTINUOUS
10
142.7504940088
20
331.3844513154
11
142.7535830088
21
331.5673343154
0
LINE
8
20000_FRONT_O
62
7
6
CONTINUOUS
10
142.7504940088
20
311.4244513154
11
142.7535830088
21
311.6073343154
0
LINE
8
20000_FRONT_O
62
7
6
CONTINUOUS
10
142.7504940088
20
300.9044513154
11
142.7535830088
21
301.0873343154
0
LINE
8
20000_FRONT_O
62
7
6
CONTINUOUS
10
142.1913950088
20
341.6240823154
11
142.1942380088
21
341.7873343154
0
LINE
8
20000_FRONT_O
62
7
6
CONTINUOUS
10
142.1913950088
20
331.1040823154
11
142.1942380088
21
331.2673343154
0
LINE
8
20000_FRONT_O
62
7
6
CONTINUOUS
10
142.1913950088
20
311.1440823154
11
142.1942380088
21
311.3073343154
0
LINE
8
20000_FRONT_O
62
7
6
CONTINUOUS
10
142.1913950088
20
300.6240823154
11
142.1942380088
21
300.7873343154
0
LINE
8
20000_FRONT_O
62
7
6
CONTINUOUS
10
149.2288360088
20
280.7913753154
11
149.2287090088
21
280.7867103154
0
LINE
8
20000_FRONT_O
62
7
6
CONTINUOUS
10
142.0217290088
20
347.4992283154
11
142.0171550088
21
347.3380303154
0
LINE
8
20000_FRONT_O
62
7
6
CONTINUOUS
10
142.0217290088
20
336.9792283154
11
142.0171550088
21
336.8180303154
0
LINE
8
20000_FRONT_O
62
7
6
CONTINUOUS
10
142.0217290088
20
317.0192283154
11
142.0171550088
21
316.8580303154
0
LINE
8
20000_FRONT_O
62
7
6
CONTINUOUS
10
142.0217290088
20
306.4992283154
11
142.0171550088
21
306.3380303154
0
LINE
8
20000_FRONT_O
62
7
6
CONTINUOUS
10
148.7086700088
20
357.6625893154
11
148.7068830088
21
357.6073593154
0
LINE
8
20000_FRONT_O
62
7
6
CONTINUOUS
10
148.4068830088
20
330.1291293154
11
148.4110690088
21
330.2540673154
0
LINE
8
20000_FRONT_O
62
7
6
CONTINUOUS
10
142.0249550088
20
342.0582683154
11
142.0182510088
21
341.9010253154
0
LINE
8
20000_FRONT_O
62
7
6
CONTINUOUS
10
142.0249550088
20
331.5382683154
11
142.0182510088
21
331.3810253154
0
LINE
8
20000_FRONT_O
62
7
6
CONTINUOUS
10
142.0249550088
20
311.5782683154
11
142.0182510088
21
311.4210253154
0
LINE
8
20000_FRONT_O
62
7
6
CONTINUOUS
10
142.0249550088
20
301.0582683154
11
142.0182510088
21
300.9010253154
0
LINE
8
20000_FRONT_O
62
7
6
CONTINUOUS
10
150.5068830088
20
274.6946393154
11
150.5016430088
21
274.5765893154
0
LINE
8
20000_FRONT_O
62
7
6
CONTINUOUS
10
142.7414000088
20
331.2124013154
11
142.7504940088
21
331.3844513154
0
LINE
8
20000_FRONT_O
62
7
6
CONTINUOUS
10
142.7414000088
20
311.2524013154
11
142.7504940088
21
311.4244513154
0
LINE
8
20000_FRONT_O
62
7
6
CONTINUOUS
10
142.7414000088
20
300.7324013154
11
142.7504940088
21
300.9044513154
0
LINE
8
20000_FRONT_O
62
7
6
CONTINUOUS
10
142.1830350088
20
341.4710963154
11
142.1913950088
21
341.6240823154
0
LINE
8
20000_FRONT_O
62
7
6
CONTINUOUS
10
142.1830350088
20
330.9510963154
11
142.1913950088
21
331.1040823154
0
LINE
8
20000_FRONT_O
62
7
6
CONTINUOUS
10
142.1830350088
20
310.9910963154
11
142.1913950088
21
311.1440823154
0
LINE
8
20000_FRONT_O
62
7
6
CONTINUOUS
10
142.1830350088
20
300.4710963154
11
142.1913950088
21
300.6240823154
0
LINE
8
20000_FRONT_O
62
7
6
CONTINUOUS
10
150.5068830088
20
264.8796843154
11
150.4989370088
21
264.7344103154
0
LINE
8
20000_FRONT_O
62
7
6
CONTINUOUS
10
148.4068830088
20
358.8023343154
11
148.4108990088
21
358.8686443154
0
LINE
8
20000_FRONT_O
62
7
6
CONTINUOUS
10
149.3594800088
20
276.7533713154
11
149.3568180088
21
276.7133663154
0
LINE
8
20000_FRONT_O
62
7
6
CONTINUOUS
10
148.4108990088
20
358.8624903154
11
148.4068830088
21
358.8023343154
0
LINE
8
20000_FRONT_O
62
7
6
CONTINUOUS
10
142.0317030088
20
317.1670663154
11
142.0217290088
21
317.0192283154
0
LINE
8
20000_FRONT_O
62
7
6
CONTINUOUS
10
142.0317030088
20
306.6470663154
11
142.0217290088
21
306.4992283154
0
LINE
8
20000_FRONT_O
62
7
6
CONTINUOUS
10
149.2286570088
20
317.7903433154
11
149.2288500088
21
317.7931693154
0
LINE
8
20000_FRONT_O
62
7
6
CONTINUOUS
10
149.2290880088
20
280.7913113154
11
149.2287090088
21
280.7867103154
0
LINE
8
20000_FRONT_O
62
7
6
CONTINUOUS
10
142.0368660088
20
301.1983743154
11
142.0249550088
21
301.0582683154
0
LINE
8
20000_FRONT_O
62
7
6
CONTINUOUS
10
149.2287090088
20
317.7872593154
11
149.2289790088
21
317.7903163154
0
LINE
8
20000_FRONT_O
62
7
6
CONTINUOUS
10
148.7139180088
20
357.7172283154
11
148.7086700088
21
357.6625893154
0
LINE
8
20000_FRONT_O
62
7
6
CONTINUOUS
10
142.7268120088
20
300.5815263154
11
142.7414000088
21
300.7324013154
0
LINE
8
20000_FRONT_O
62
7
6
CONTINUOUS
10
148.4110690088
20
330.2540673154
11
148.4219580088
21
330.3640573154
0
LINE
8
20000_FRONT_O
62
7
6
CONTINUOUS
10
149.3568830088
20
318.9141003154
11
149.3530530088
21
318.8793423154
0
LINE
8
20000_FRONT_O
62
7
6
CONTINUOUS
10
149.3597070088
20
320.9152353154
11
149.3568830088
21
320.8915253154
0
LINE
8
20000_FRONT_O
62
7
6
CONTINUOUS
10
150.5016430088
20
274.5765893154
11
150.4861050088
21
274.4604733154
0
LINE
8
20000_FRONT_O
62
7
6
CONTINUOUS
10
149.2294950088
20
280.7953943154
11
149.2288360088
21
280.7913753154
0
LINE
8
20000_FRONT_O
62
7
6
CONTINUOUS
10
150.4989370088
20
264.7344103154
11
150.4756410088
21
264.5933073154
0
LINE
8
20000_FRONT_O
62
7
6
CONTINUOUS
10
149.3674570088
20
276.7926603154
11
149.3594800088
21
276.7533713154
0
LINE
8
20000_FRONT_O
62
7
6
CONTINUOUS
10
149.2299090088
20
280.7951483154
11
149.2290880088
21
280.7913113154
0
LINE
8
20000_FRONT_O
62
7
6
CONTINUOUS
10
148.4110670088
20
264.4947573154
11
148.4068830088
21
264.4755393154
0
LINE
8
20000_FRONT_O
62
7
6
CONTINUOUS
10
150.5068830088
20
264.8796843154
11
150.4989370088
21
264.8433663154
0
LINE
8
20000_FRONT_O
62
7
6
CONTINUOUS
10
150.4861050088
20
274.4604733154
11
150.4607300088
21
274.3478903154
0
LINE
8
20000_FRONT_O
62
7
6
CONTINUOUS
10
150.4756410088
20
264.5933073154
11
150.4382870088
21
264.4593893154
0
LINE
8
20000_FRONT_O
62
7
6
CONTINUOUS
10
150.4607300088
20
274.3478903154
11
150.4262180088
21
274.2402933154
0
LINE
8
20000_FRONT_O
62
7
6
CONTINUOUS
10
149.2306970088
20
280.7989863154
11
149.2294950088
21
280.7953943154
0
LINE
8
20000_FRONT_O
62
7
6
CONTINUOUS
10
149.3806050088
20
276.8305333154
11
149.3674570088
21
276.7926603154
0
LINE
8
20000_FRONT_O
62
7
6
CONTINUOUS
10
149.3568830088
20
276.7135473154
11
149.3568180088
21
276.7133663154
0
LINE
8
20000_FRONT_O
62
7
6
CONTINUOUS
10
150.4382870088
20
264.4593893154
11
150.3887720088
21
264.3352923154
0
LINE
8
20000_FRONT_O
62
7
6
CONTINUOUS
10
150.4262180088
20
274.2402933154
11
150.3829780088
21
274.1379133154
0
LINE
8
20000_FRONT_O
62
7
6
CONTINUOUS
10
149.3986910088
20
276.8663103154
11
149.3806050088
21
276.8305333154
0
LINE
8
20000_FRONT_O
62
7
6
CONTINUOUS
10
150.3887720088
20
264.3352923154
11
150.3295380088
21
264.2231903154
0
LINE
8
20000_FRONT_O
62
7
6
CONTINUOUS
10
150.3829780088
20
274.1379133154
11
150.3316490088
21
274.0416863154
0
LINE
8
20000_FRONT_O
62
7
6
CONTINUOUS
10
149.3986910088
20
276.8663103154
11
150.3068830088
21
278.3988343154
0
LINE
8
20000_FRONT_O
62
7
6
CONTINUOUS
10
148.4219540088
20
264.5116773154
11
148.4110670088
21
264.4947573154
0
LINE
8
20000_FRONT_O
62
7
6
CONTINUOUS
10
150.3316490088
20
274.0416863154
11
150.2732600088
21
273.9528693154
0
LINE
8
20000_FRONT_O
62
7
6
CONTINUOUS
10
150.4989370088
20
264.8433663154
11
150.4756410088
21
264.8080903154
0
LINE
8
20000_FRONT_O
62
7
6
CONTINUOUS
10
149.2330820088
20
280.8012513154
11
149.2312230088
21
280.7984393154
0
LINE
8
20000_FRONT_O
62
7
6
CONTINUOUS
10
149.3947670088
20
276.8603773154
11
149.3986910088
21
276.8663103154
0
LINE
8
20000_FRONT_O
62
7
6
CONTINUOUS
10
150.3295380088
20
264.2231903154
11
150.2630880088
21
264.1241233154
0
LINE
8
20000_FRONT_O
62
7
6
CONTINUOUS
10
149.2287090088
20
276.8174093154
11
150.3068830088
21
278.3988343154
0
LINE
8
20000_FRONT_O
62
7
6
CONTINUOUS
10
119.3432220088
20
236.4790813154
11
119.3771810088
21
236.5259493154
0
LINE
8
20000_FRONT_O
62
7
6
CONTINUOUS
10
119.4947910088
20
236.3527883154
11
119.5422340088
21
236.4165123154
0
LINE
8
20000_FRONT_O
62
7
6
CONTINUOUS
10
116.1908170088
20
237.6035583154
11
116.1747280088
21
237.5823353154
0
LINE
8
20000_FRONT_O
62
7
6
CONTINUOUS
10
149.2347950088
20
280.8052123154
11
149.2324650088
21
280.8022423154
0
LINE
8
20000_FRONT_O
62
7
6
CONTINUOUS
10
150.2732600088
20
273.9528693154
11
150.2090190088
21
273.8724423154
0
LINE
8
20000_FRONT_O
62
7
6
CONTINUOUS
10
149.3895200088
20
276.8538433154
11
149.3947670088
21
276.8603773154
0
LINE
8
20000_FRONT_O
62
7
6
CONTINUOUS
10
118.0029170088
20
237.6138263154
11
117.9723660088
21
237.5765893154
0
LINE
8
20000_FRONT_O
62
7
6
CONTINUOUS
10
150.2630880088
20
264.1241233154
11
150.1915270088
21
264.0380493154
0
LINE
8
20000_FRONT_O
62
7
6
CONTINUOUS
10
119.3047400088
20
236.4365623154
11
119.3432220088
21
236.4790813154
0
LINE
8
20000_FRONT_O
62
7
6
CONTINUOUS
10
113.5268160088
20
235.7020683154
11
113.4345030088
21
235.6023343154
0
LINE
8
20000_FRONT_O
62
7
6
CONTINUOUS
10
119.4410050088
20
236.2949933154
11
119.4947910088
21
236.3527883154
0
LINE
8
20000_FRONT_O
62
7
6
CONTINUOUS
10
110.6661900088
20
237.5682963154
11
110.6235080088
21
237.5233073154
0
LINE
8
20000_FRONT_O
62
7
6
CONTINUOUS
10
149.3828680088
20
276.8468753154
11
149.3895200088
21
276.8538433154
0
LINE
8
20000_FRONT_O
62
7
6
CONTINUOUS
10
150.2090190088
20
273.8724423154
11
150.1394720088
21
273.8003383154
0
LINE
8
20000_FRONT_O
62
7
6
CONTINUOUS
10
149.2355000088
20
280.8035993154
11
149.2330820088
21
280.8012513154
0
LINE
8
20000_FRONT_O
62
7
6
CONTINUOUS
10
149.2376650088
20
280.8079653154
11
149.2347950088
21
280.8052123154
0
LINE
8
20000_FRONT_O
62
7
6
CONTINUOUS
10
116.2111600088
20
237.6228333154
11
116.1908170088
21
237.6035583154
0
LINE
8
20000_FRONT_O
62
7
6
CONTINUOUS
10
118.0361300088
20
237.6450623154
11
118.0029170088
21
237.6138263154
0
LINE
8
10000_FRONT
62
7
6
CONTINUOUS
10
248.0914450451
20
359.5077223154
11
248.1676590451
21
359.5768063154
0
LINE
8
20000_FRONT_O
62
7
6
CONTINUOUS
10
149.3748180088
20
276.8396613154
11
149.3828680088
21
276.8468753154
0
LINE
8
20000_FRONT_O
62
7
6
CONTINUOUS
10
136.5068830088
20
263.0023343154
11
136.6261070088
21
263.1089233154
0
LINE
8
20000_FRONT_O
62
7
6
CONTINUOUS
10
136.6261070088
20
263.1089233154
11
136.7414830088
21
263.2117953154
0
LINE
8
20000_FRONT_O
62
7
6
CONTINUOUS
10
136.7414830088
20
263.2117953154
11
136.8511040088
21
263.3089993154
0
LINE
8
20000_FRONT_O
62
7
6
CONTINUOUS
10
136.8511040088
20
263.3089993154
11
136.9539260088
21
263.3993893154
0
LINE
8
20000_FRONT_O
62
7
6
CONTINUOUS
10
149.3474660088
20
280.8839633154
11
149.3354920088
21
280.8734643154
0
LINE
8
20000_FRONT_O
62
7
6
CONTINUOUS
10
136.9539260088
20
263.3993893154
11
137.0485370088
21
263.4815313154
0
LINE
8
20000_FRONT_O
62
7
6
CONTINUOUS
10
150.1394720088
20
273.8003383154
11
150.0652750088
21
273.7367253154
0
LINE
8
20000_FRONT_O
62
7
6
CONTINUOUS
10
137.0485370088
20
263.4815313154
11
137.1333180088
21
263.5538873154
0
LINE
8
20000_FRONT_O
62
7
6
CONTINUOUS
10
149.3515570088
20
280.8874413154
11
149.3474660088
21
280.8839633154
0
LINE
8
20000_FRONT_O
62
7
6
CONTINUOUS
10
149.3354920088
20
280.8734643154
11
149.3278380088
21
280.8669723154
0
LINE
8
20000_FRONT_O
62
7
6
CONTINUOUS
10
137.1333180088
20
263.5538873154
11
137.2078370088
21
263.6160273154
0
LINE
8
20000_FRONT_O
62
7
6
CONTINUOUS
10
149.3278380088
20
280.8669723154
11
149.3194540088
21
280.8601823154
0
LINE
8
20000_FRONT_O
62
7
6
CONTINUOUS
10
149.2410360088
20
280.8105783154
11
149.2376650088
21
280.8079653154
0
LINE
8
20000_FRONT_O
62
7
6
CONTINUOUS
10
149.3654630088
20
276.8324153154
11
149.3748180088
21
276.8396613154
0
LINE
8
20000_FRONT_O
62
7
6
CONTINUOUS
10
149.3194540088
20
280.8601823154
11
149.3107710088
21
280.8535313154
0
LINE
8
10000_FRONT
62
7
6
CONTINUOUS
10
248.8002670451
20
357.1428033154
11
248.7710910451
21
357.1206933154
0
LINE
8
20000_FRONT_O
62
7
6
CONTINUOUS
10
149.3543960088
20
280.8895703154
11
149.3515570088
21
280.8874413154
0
LINE
8
10000_FRONT
62
7
6
CONTINUOUS
10
248.1676590451
20
359.5768063154
11
248.2537730451
21
359.6397973154
0
LINE
8
20000_FRONT_O
62
7
6
CONTINUOUS
10
149.3107710088
20
280.8535313154
11
149.3022350088
21
280.8473773154
0
LINE
8
10000_FRONT
62
7
6
CONTINUOUS
10
248.7710910451
20
357.1206933154
11
248.7438210451
21
357.1039883154
0
LINE
8
20000_FRONT_O
62
7
6
CONTINUOUS
10
142.6513440088
20
306.7372943154
11
142.6346020088
21
306.7273233154
0
LINE
8
10000_FRONT
62
7
6
CONTINUOUS
10
248.2537730451
20
359.6397973154
11
248.3488990451
21
359.6946723154
0
LINE
8
20000_FRONT_O
62
7
6
CONTINUOUS
10
149.3312370088
20
313.8265243154
11
149.3193400088
21
313.8198383154
0
LINE
8
20000_FRONT_O
62
7
6
CONTINUOUS
10
149.3193400088
20
313.8198383154
11
149.3084730088
21
313.8143813154
0
LINE
8
20000_FRONT_O
62
7
6
CONTINUOUS
10
142.1055560088
20
305.6374043154
11
142.1177890088
21
305.6435433154
0
LINE
8
10000_FRONT
62
7
6
CONTINUOUS
10
248.7438210451
20
357.1039883154
11
248.7177140451
21
357.0912233154
0
LINE
8
20000_FRONT_O
62
7
6
CONTINUOUS
10
117.8933220088
20
299.9867183154
11
117.7925760088
21
299.9389233154
0
LINE
8
20000_FRONT_O
62
7
6
CONTINUOUS
10
148.4856690088
20
318.6504223154
11
148.4586660088
21
318.6377273154
0
LINE
8
20000_FRONT_O
62
7
6
CONTINUOUS
10
149.3084730088
20
313.8143813154
11
149.2986020088
21
313.8099793154
0
LINE
8
20000_FRONT_O
62
7
6
CONTINUOUS
10
149.1919340088
20
318.7063393154
11
149.1488510088
21
318.6872723154
0
LINE
8
10000_FRONT
62
7
6
CONTINUOUS
10
248.3488990451
20
359.6946723154
11
248.4517620451
21
359.7396413154
0
LINE
8
20000_FRONT_O
62
7
6
CONTINUOUS
10
142.1055560088
20
311.9572643154
11
142.0950930088
21
311.9527893154
0
LINE
8
20000_FRONT_O
62
7
6
CONTINUOUS
10
142.1055560088
20
301.4372643154
11
142.0950930088
21
301.4327893154
0
LINE
8
20000_FRONT_O
62
7
6
CONTINUOUS
10
149.2986020088
20
313.8099793154
11
149.2896430088
21
313.8064683154
0
LINE
8
20000_FRONT_O
62
7
6
CONTINUOUS
10
149.5068830088
20
321.0415253154
11
149.4763180088
21
321.0298433154
0
LINE
8
10000_FRONT
62
7
6
CONTINUOUS
10
248.7177140451
20
357.0912233154
11
248.6919030451
21
357.0814753154
0
LINE
8
20000_FRONT_O
62
7
6
CONTINUOUS
10
116.8911890088
20
310.2657453154
11
116.9960380088
21
310.3033753154
0
LINE
8
20000_FRONT_O
62
7
6
CONTINUOUS
10
117.7925760088
20
299.9389233154
11
117.6877270088
21
299.9012933154
0
LINE
8
20000_FRONT_O
62
7
6
CONTINUOUS
10
149.2385680088
20
317.8049163154
11
149.2411220088
21
317.8058103154
0
LINE
8
20000_FRONT_O
62
7
6
CONTINUOUS
10
149.1488510088
20
318.6872723154
11
149.1032110088
21
318.6714483154
0
LINE
8
20000_FRONT_O
62
7
6
CONTINUOUS
10
149.2896430088
20
313.8064683154
11
149.2815180088
21
313.8037143154
0
LINE
8
20000_FRONT_O
62
7
6
CONTINUOUS
10
148.5166940088
20
318.6602223154
11
148.4856690088
21
318.6504223154
0
LINE
8
20000_FRONT_O
62
7
6
CONTINUOUS
10
142.6513440088
20
330.8173743154
11
142.6599940088
21
330.8200693154
0
LINE
8
10000_FRONT
62
7
6
CONTINUOUS
10
248.4517620451
20
359.7396413154
11
248.5620050451
21
359.7735353154
0
LINE
8
13000_TOP
62
7
6
CONTINUOUS
10
247.7554690451
20
58.6649643154
11
247.7434920451
21
58.6649643154
0
LINE
8
13000_TOP
62
7
6
CONTINUOUS
10
253.2126730451
20
59.4387633154
11
249.3162910451
21
59.4387633154
0
LINE
8
13000_TOP
62
7
6
CONTINUOUS
10
249.1144820451
20
62.9387633154
11
253.4144820451
21
62.9387633154
0
LINE
8
13000_TOP
62
7
6
CONTINUOUS
10
249.4144820451
20
63.8387633154
11
253.1144820451
21
63.8387633154
0
LINE
8
13000_TOP
62
7
6
CONTINUOUS
10
241.4144810451
20
64.6549643154
11
279.8144810451
21
64.6549643154
0
LINE
8
13000_TOP
62
7
6
CONTINUOUS
10
263.7491350451
20
67.3549643154
11
280.8144810451
21
67.3549643154
0
LINE
8
91000_TIP
62
7
6
CONTINUOUS
10
417.4291900000
20
17.0428840000
11
427.4291900000
21
14.5428840000
0
LINE
8
20000_FRONT_O
62
7
6
CONTINUOUS
10
116.1669270088
20
237.4361393154
11
116.1849250088
21
237.3965123154
0
LINE
8
20000_FRONT_O
62
7
6
CONTINUOUS
10
116.2363230088
20
300.6649053154
11
116.2089510088
21
300.7745183154
0
LINE
8
20000_FRONT_O
62
7
6
CONTINUOUS
10
118.4474430088
20
309.5397633154
11
118.4748140088
21
309.4301503154
0
LINE
8
20000_FRONT_O
62
7
6
CONTINUOUS
10
122.4030380088
20
264.3502133154
11
122.3918410088
21
264.3961373154
0
LINE
8
20000_FRONT_O
62
7
6
CONTINUOUS
10
110.5280630088
20
357.2583513154
11
110.5123660088
21
357.3284923154
0
LINE
8
20000_FRONT_O
62
7
6
CONTINUOUS
10
119.6402230088
20
357.9707523154
11
119.6567660088
21
357.8930963154
0
LINE
8
20000_FRONT_O
62
7
6
CONTINUOUS
10
117.8849810088
20
357.2250313154
11
117.8734350088
21
357.2826763154
0
LINE
8
20000_FRONT_O
62
7
6
CONTINUOUS
10
118.4748140088
20
309.4301503154
11
118.4913510088
21
309.3183233154
0
LINE
8
20000_FRONT_O
62
7
6
CONTINUOUS
10
142.0317030088
20
300.4276023154
11
142.0464760088
21
300.3026413154
0
LINE
8
20000_FRONT_O
62
7
6
CONTINUOUS
10
117.8734350088
20
357.2826763154
11
117.8664390088
21
357.3420663154
0
LINE
8
20000_FRONT_O
62
7
6
CONTINUOUS
10
142.1830350088
20
337.0835723154
11
142.1696570088
21
337.2165153154
0
LINE
8
20000_FRONT_O
62
7
6
CONTINUOUS
10
142.1830350088
20
347.6035723154
11
142.1696570088
21
347.7365153154
0
LINE
8
20000_FRONT_O
62
7
6
CONTINUOUS
10
142.7414000088
20
336.8222683154
11
142.7268120088
21
336.9731423154
0
LINE
8
20000_FRONT_O
62
7
6
CONTINUOUS
10
142.7414000088
20
347.3422683154
11
142.7268120088
21
347.4931423154
0
LINE
8
20000_FRONT_O
62
7
6
CONTINUOUS
10
149.2289860088
20
313.8148083154
11
149.2287090088
21
313.8179583154
0
LINE
8
20000_FRONT_O
62
7
6
CONTINUOUS
10
149.2287090088
20
276.8174093154
11
149.2290860088
21
276.8128403154
0
LINE
8
20000_FRONT_O
62
7
6
CONTINUOUS
10
149.2288720088
20
313.8118853154
11
149.2286620088
21
313.8147783154
0
LINE
8
20000_FRONT_O
62
7
6
CONTINUOUS
10
150.5068830088
20
329.7249843154
11
150.4989370088
21
329.8702583154
0
LINE
8
20000_FRONT_O
62
7
6
CONTINUOUS
10
150.5068830088
20
319.9100293154
11
150.5016430088
21
320.0280793154
0
LINE
8
10000_FRONT
62
7
6
CONTINUOUS
10
247.9687560451
20
359.3578423154
11
248.0252150451
21
359.4342323154
0
LINE
8
10000_FRONT
62
7
6
CONTINUOUS
10
248.8807580451
20
357.2334073154
11
248.8529590451
21
357.1961803154
0
LINE
8
10000_FRONT
62
7
6
CONTINUOUS
10
248.0252150451
20
359.4342323154
11
248.0914450451
21
359.5077223154
0
LINE
8
10000_FRONT
62
7
6
CONTINUOUS
10
248.8529590451
20
357.1961803154
11
248.8257850451
21
357.1662403154
0
LINE
8
20000_FRONT_O
62
7
6
CONTINUOUS
10
150.1915270088
20
264.0380493154
11
150.1167440088
21
263.9645743154
0
LINE
8
20000_FRONT_O
62
7
6
CONTINUOUS
10
148.4376020088
20
264.5264393154
11
148.4219540088
21
264.5116773154
0
LINE
8
10000_FRONT
62
7
6
CONTINUOUS
10
248.8257850451
20
357.1662403154
11
248.8002670451
21
357.1428033154
0
LINE
8
20000_FRONT_O
62
7
6
CONTINUOUS
10
150.4756410088
20
264.8080903154
11
150.4382870088
21
264.7746103154
0
LINE
8
20000_FRONT_O
62
7
6
CONTINUOUS
10
113.6242590088
20
235.7890603154
11
113.5268160088
21
235.7020683154
0
LINE
8
20000_FRONT_O
62
7
6
CONTINUOUS
10
119.2622880088
20
236.3989233154
11
119.3047400088
21
236.4365623154
0
LINE
8
20000_FRONT_O
62
7
6
CONTINUOUS
10
119.3816550088
20
236.2438483154
11
119.4410050088
21
236.2949933154
0
LINE
8
20000_FRONT_O
62
7
6
CONTINUOUS
10
110.7118630088
20
237.6060213154
11
110.6661900088
21
237.5682963154
0
LINE
8
20000_FRONT_O
62
7
6
CONTINUOUS
10
137.2078370088
20
263.6160273154
11
137.2726230088
21
263.6683803154
0
LINE
8
20000_FRONT_O
62
7
6
CONTINUOUS
10
150.1167440088
20
263.9645743154
11
150.0402700088
21
263.9029563154
0
LINE
8
20000_FRONT_O
62
7
6
CONTINUOUS
10
137.2726230088
20
263.6683803154
11
137.3279470088
21
263.7111923154
0
LINE
8
20000_FRONT_O
62
7
6
CONTINUOUS
10
119.2757650088
20
237.1669333154
11
119.3226850088
21
237.2023343154
0
LINE
8
20000_FRONT_O
62
7
6
CONTINUOUS
10
113.7251590088
20
235.8637583154
11
113.6242590088
21
235.7890603154
0
LINE
8
20000_FRONT_O
62
7
6
CONTINUOUS
10
137.3279470088
20
263.7111923154
11
137.3744230088
21
263.7450133154
0
LINE
8
20000_FRONT_O
62
7
6
CONTINUOUS
10
119.2165060088
20
236.3666173154
11
119.2622880088
21
236.3989233154
0
LINE
8
20000_FRONT_O
62
7
6
CONTINUOUS
10
116.2363440088
20
237.6405533154
11
116.2111600088
21
237.6228333154
0
LINE
8
20000_FRONT_O
62
7
6
CONTINUOUS
10
150.0652750088
20
273.7367253154
11
149.9875060088
21
273.6820503154
0
LINE
8
20000_FRONT_O
62
7
6
CONTINUOUS
10
118.0715220088
20
237.6698423154
11
118.0361300088
21
237.6450623154
0
LINE
8
20000_FRONT_O
62
7
6
CONTINUOUS
10
119.3176300088
20
236.1999693154
11
119.3816550088
21
236.2438483154
0
LINE
8
20000_FRONT_O
62
7
6
CONTINUOUS
10
149.3022350088
20
280.8473773154
11
149.2940460088
21
280.8418193154
0
LINE
8
20000_FRONT_O
62
7
6
CONTINUOUS
10
149.3549920088
20
276.8253643154
11
149.3654630088
21
276.8324153154
0
LINE
8
20000_FRONT_O
62
7
6
CONTINUOUS
10
148.4566710088
20
264.5392443154
11
148.4376020088
21
264.5264393154
0
LINE
8
20000_FRONT_O
62
7
6
CONTINUOUS
10
149.2448900088
20
280.8131433154
11
149.2410360088
21
280.8105783154
0
LINE
8
20000_FRONT_O
62
7
6
CONTINUOUS
10
137.3744230088
20
263.7450133154
11
137.4130130088
21
263.7706253154
0
LINE
8
20000_FRONT_O
62
7
6
CONTINUOUS
10
150.0402700088
20
263.9029563154
11
149.9630980088
21
263.8521513154
0
LINE
8
20000_FRONT_O
62
7
6
CONTINUOUS
10
110.7593290088
20
237.6367503154
11
110.7118630088
21
237.6060213154
0
LINE
8
20000_FRONT_O
62
7
6
CONTINUOUS
10
149.2384720088
20
280.8055103154
11
149.2355000088
21
280.8035993154
0
LINE
8
20000_FRONT_O
62
7
6
CONTINUOUS
10
149.2940460088
20
280.8418193154
11
149.2862760088
21
280.8368443154
0
LINE
8
20000_FRONT_O
62
7
6
CONTINUOUS
10
150.4382870088
20
264.7746103154
11
150.3887720088
21
264.7435863154
0
LINE
8
20000_FRONT_O
62
7
6
CONTINUOUS
10
149.2862760088
20
280.8368443154
11
149.2789490088
21
280.8323973154
0
LINE
8
20000_FRONT_O
62
7
6
CONTINUOUS
10
149.2492820088
20
280.8157773154
11
149.2448900088
21
280.8131433154
0
LINE
8
20000_FRONT_O
62
7
6
CONTINUOUS
10
149.3437360088
20
276.8187713154
11
149.3549920088
21
276.8253643154
0
LINE
8
20000_FRONT_O
62
7
6
CONTINUOUS
10
149.2789490088
20
280.8323973154
11
149.2720820088
21
280.8284163154
0
LINE
8
20000_FRONT_O
62
7
6
CONTINUOUS
10
137.4130130088
20
263.7706253154
11
137.4442020088
21
263.7884363154
0
LINE
8
20000_FRONT_O
62
7
6
CONTINUOUS
10
149.9875060088
20
273.6820503154
11
149.9072890088
21
273.6365433154
0
LINE
8
20000_FRONT_O
62
7
6
CONTINUOUS
10
149.2542510088
20
280.8185753154
11
149.2492820088
21
280.8157773154
0
LINE
8
20000_FRONT_O
62
7
6
CONTINUOUS
10
149.2720820088
20
280.8284163154
11
149.2656840088
21
280.8248373154
0
LINE
8
20000_FRONT_O
62
7
6
CONTINUOUS
10
149.2656840088
20
280.8248373154
11
149.2542510088
21
280.8185753154
0
LINE
8
20000_FRONT_O
62
7
6
CONTINUOUS
10
149.3321620088
20
276.8128953154
11
149.3437360088
21
276.8187713154
0
LINE
8
20000_FRONT_O
62
7
6
CONTINUOUS
10
131.2068840088
20
266.4973343154
11
130.8068840088
21
266.2973343154
0
LINE
8
20000_FRONT_O
62
7
6
CONTINUOUS
10
149.3560890088
20
280.8903773154
11
149.3543960088
21
280.8895703154
0
LINE
8
20000_FRONT_O
62
7
6
CONTINUOUS
10
149.3560900088
20
276.7130373154
11
149.3568180088
21
276.7133663154
0
LINE
8
20000_FRONT_O
62
7
6
CONTINUOUS
10
149.2419730088
20
280.8070153154
11
149.2384720088
21
280.8055103154
0
LINE
8
20000_FRONT_O
62
7
6
CONTINUOUS
10
142.6513440088
20
310.8573743154
11
142.6599940088
21
310.8600693154
0
LINE
8
20000_FRONT_O
62
7
6
CONTINUOUS
10
142.6513440088
20
300.3373743154
11
142.6599940088
21
300.3400693154
0
LINE
8
20000_FRONT_O
62
7
6
CONTINUOUS
10
149.2815180088
20
313.8037143154
11
149.2741900088
21
313.8016163154
0
LINE
8
13000_TOP
62
7
6
CONTINUOUS
10
279.7071940451
20
71.5549643154
11
280.9144810451
21
71.5549643154
0
LINE
8
13000_TOP
62
7
6
CONTINUOUS
10
259.7185044057
20
72.0522375311
11
261.2172646728
21
72.0522375311
0
LINE
8
13000_TOP
62
7
6
CONTINUOUS
10
241.9144810451
20
72.0549643154
11
259.7144810451
21
72.0549643154
0
LINE
8
13000_TOP
62
7
6
CONTINUOUS
10
260.2144810451
20
72.7239583154
11
242.4834750451
21
72.7239583154
0
LINE
8
13000_TOP
62
7
6
CONTINUOUS
10
269.9144810451
20
78.5549643154
11
261.2144810451
21
78.5549643154
0
LINE
8
13000_TOP
62
7
6
CONTINUOUS
10
242.4834750451
20
78.7859703154
11
260.2144810451
21
78.7859703154
0
LINE
8
13000_TOP
62
7
6
CONTINUOUS
10
242.4834750451
20
79.2239583154
11
260.2144810451
21
79.2239583154
0
LINE
8
13000_TOP
62
7
6
CONTINUOUS
10
269.9144810451
20
80.5549643154
11
267.9144810451
21
80.5549643154
0
LINE
8
13000_TOP
62
7
6
CONTINUOUS
10
242.4834750451
20
85.2859703154
11
260.2144810451
21
85.2859703154
0
LINE
8
13000_TOP
62
7
6
CONTINUOUS
10
242.4834750451
20
85.7239583154
11
260.2144810451
21
85.7239583154
0
LINE
8
13000_TOP
62
7
6
CONTINUOUS
10
260.2734380451
20
78.7537113154
11
260.3315980451
21
78.7220813154
0
LINE
8
13000_TOP
62
7
6
CONTINUOUS
10
260.2734380451
20
85.2537113154
11
260.3315980451
21
85.2220813154
0
LINE
8
13000_TOP
62
7
6
CONTINUOUS
10
260.2144810451
20
78.7859703154
11
260.2734380451
21
78.7537113154
0
LINE
8
13000_TOP
62
7
6
CONTINUOUS
10
260.2144810451
20
85.2859703154
11
260.2734380451
21
85.2537113154
0
LINE
8
13000_TOP
62
7
6
CONTINUOUS
10
249.4144820451
20
63.8387633154
11
249.0144820451
21
64.2387633154
0
LINE
8
20000_FRONT_O
62
7
6
CONTINUOUS
10
116.2116790088
20
237.3532893154
11
116.2481990088
21
237.3065123154
0
LINE
8
20000_FRONT_O
62
7
6
CONTINUOUS
10
116.1849250088
20
237.3965123154
11
116.2116790088
21
237.3532893154
0
LINE
8
20000_FRONT_O
62
7
6
CONTINUOUS
10
116.3223190088
20
300.4566363154
11
116.2742380088
21
300.5586113154
0
LINE
8
20000_FRONT_O
62
7
6
CONTINUOUS
10
122.3918410088
20
264.3961373154
11
122.3742160088
21
264.4384703154
0
LINE
8
20000_FRONT_O
62
7
6
CONTINUOUS
10
110.5526670088
20
357.1933193154
11
110.5280630088
21
357.2583513154
0
LINE
8
20000_FRONT_O
62
7
6
CONTINUOUS
10
116.2742380088
20
300.5586113154
11
116.2363230088
21
300.6649053154
0
LINE
8
20000_FRONT_O
62
7
6
CONTINUOUS
10
118.4095280088
20
309.6460573154
11
118.4474430088
21
309.5397633154
0
LINE
8
20000_FRONT_O
62
7
6
CONTINUOUS
10
136.1702610088
20
308.0893263154
11
136.3888980088
21
307.4292373154
0
LINE
8
20000_FRONT_O
62
7
6
CONTINUOUS
10
119.6154390088
20
358.0465463154
11
119.6402230088
21
357.9707523154
0
LINE
8
20000_FRONT_O
62
7
6
CONTINUOUS
10
148.4781740088
20
263.9898193154
11
148.4566710088
21
264.0614563154
0
LINE
8
20000_FRONT_O
62
7
6
CONTINUOUS
10
117.9009090088
20
357.1699723154
11
117.8849810088
21
357.2250313154
0
LINE
8
20000_FRONT_O
62
7
6
CONTINUOUS
10
142.1942380088
20
300.7873343154
11
142.4604480088
21
299.8599313154
0
LINE
8
20000_FRONT_O
62
7
6
CONTINUOUS
10
116.1629650088
20
357.0456043154
11
116.1556540088
21
357.0713883154
0
LINE
8
20000_FRONT_O
62
7
6
CONTINUOUS
10
136.3888980088
20
307.4292373154
11
136.5250840088
21
306.9373343154
0
LINE
8
20000_FRONT_O
62
7
6
CONTINUOUS
10
136.3888980088
20
317.9492373154
11
136.5250840088
21
317.4573343154
0
LINE
8
20000_FRONT_O
62
7
6
CONTINUOUS
10
142.7075740088
20
306.6135383154
11
142.6848360088
21
306.6958123154
0
LINE
8
20000_FRONT_O
62
7
6
CONTINUOUS
10
142.0532580088
20
305.7624383154
11
142.0730960088
21
305.6824613154
0
LINE
8
20000_FRONT_O
62
7
6
CONTINUOUS
10
142.0532580088
20
316.2824383154
11
142.0730960088
21
316.2024613154
0
LINE
8
20000_FRONT_O
62
7
6
CONTINUOUS
10
148.4566710088
20
264.0614563154
11
148.4376020088
21
264.1446923154
0
LINE
8
20000_FRONT_O
62
7
6
CONTINUOUS
10
149.2290860088
20
276.8128403154
11
149.2299090088
21
276.8089963154
0
LINE
8
20000_FRONT_O
62
7
6
CONTINUOUS
10
149.3673870088
20
280.8109563154
11
149.3594590088
21
280.8501313154
0
LINE
8
20000_FRONT_O
62
7
6
CONTINUOUS
10
142.0464760088
20
300.3026413154
11
142.0651270088
21
300.2088373154
0
LINE
8
20000_FRONT_O
62
7
6
CONTINUOUS
10
142.0464760088
20
310.8226413154
11
142.0651270088
21
310.7288373154
0
LINE
8
20000_FRONT_O
62
7
6
CONTINUOUS
10
142.0464760088
20
330.7826413154
11
142.0651270088
21
330.6888373154
0
LINE
8
20000_FRONT_O
62
7
6
CONTINUOUS
10
142.0464760088
20
341.3026413154
11
142.0651270088
21
341.2088373154
0
LINE
8
20000_FRONT_O
62
7
6
CONTINUOUS
10
148.4102960088
20
276.0176913154
11
148.4068830088
21
276.0369783154
0
LINE
8
20000_FRONT_O
62
7
6
CONTINUOUS
10
149.2293280088
20
313.8092123154
11
149.2288720088
21
313.8118853154
0
LINE
8
20000_FRONT_O
62
7
6
CONTINUOUS
10
142.1696570088
20
306.7365153154
11
142.1520860088
21
306.8406893154
0
LINE
8
20000_FRONT_O
62
7
6
CONTINUOUS
10
142.1696570088
20
317.2565153154
11
142.1520860088
21
317.3606893154
0
LINE
8
20000_FRONT_O
62
7
6
CONTINUOUS
10
142.1696570088
20
337.2165153154
11
142.1520860088
21
337.3206893154
0
LINE
8
20000_FRONT_O
62
7
6
CONTINUOUS
10
142.1696570088
20
347.7365153154
11
142.1520860088
21
347.8406893154
0
LINE
8
20000_FRONT_O
62
7
6
CONTINUOUS
10
150.4989370088
20
329.8702583154
11
150.4756410088
21
330.0113603154
0
LINE
8
20000_FRONT_O
62
7
6
CONTINUOUS
10
149.2294400088
20
313.8120483154
11
149.2289860088
21
313.8148083154
0
LINE
8
20000_FRONT_O
62
7
6
CONTINUOUS
10
149.2288330088
20
276.8127753154
11
149.2294920088
21
276.8087493154
0
LINE
8
20000_FRONT_O
62
7
6
CONTINUOUS
10
148.4376020088
20
264.1446923154
11
148.4219540088
21
264.2406413154
0
LINE
8
20000_FRONT_O
62
7
6
CONTINUOUS
10
142.7268120088
20
306.4931423154
11
142.7075740088
21
306.6135383154
0
LINE
8
20000_FRONT_O
62
7
6
CONTINUOUS
10
142.7268120088
20
317.0131423154
11
142.7075740088
21
317.1335383154
0
LINE
8
20000_FRONT_O
62
7
6
CONTINUOUS
10
142.7268120088
20
336.9731423154
11
142.7075740088
21
337.0935383154
0
LINE
8
20000_FRONT_O
62
7
6
CONTINUOUS
10
142.7268120088
20
347.4931423154
11
142.7075740088
21
347.6135383154
0
LINE
8
20000_FRONT_O
62
7
6
CONTINUOUS
10
142.0368660088
20
305.8762943154
11
142.0532580088
21
305.7624383154
0
LINE
8
20000_FRONT_O
62
7
6
CONTINUOUS
10
142.0368660088
20
316.3962943154
11
142.0532580088
21
316.2824383154
0
LINE
8
20000_FRONT_O
62
7
6
CONTINUOUS
10
142.0368660088
20
336.3562943154
11
142.0532580088
21
336.2424383154
0
LINE
8
20000_FRONT_O
62
7
6
CONTINUOUS
10
142.0368660088
20
346.8762943154
11
142.0532580088
21
346.7624383154
0
LINE
8
20000_FRONT_O
62
7
6
CONTINUOUS
10
150.5016430088
20
320.0280793154
11
150.4861050088
21
320.1441953154
0
LINE
8
20000_FRONT_O
62
7
6
CONTINUOUS
10
149.3597070088
20
273.6894333154
11
149.3568830088
21
273.7131433154
0
LINE
8
20000_FRONT_O
62
7
6
CONTINUOUS
10
142.0317030088
20
310.9476023154
11
142.0464760088
21
310.8226413154
0
LINE
8
20000_FRONT_O
62
7
6
CONTINUOUS
10
142.0317030088
20
330.9076023154
11
142.0464760088
21
330.7826413154
0
LINE
8
20000_FRONT_O
62
7
6
CONTINUOUS
10
142.0317030088
20
341.4276023154
11
142.0464760088
21
341.3026413154
0
LINE
8
20000_FRONT_O
62
7
6
CONTINUOUS
10
149.3530530088
20
275.7253263154
11
149.3568830088
21
275.6905683154
0
LINE
8
10000_FRONT
62
7
6
CONTINUOUS
10
248.9349690451
20
357.3354533154
11
248.9215470451
21
357.3052783154
0
LINE
8
10000_FRONT
62
7
6
CONTINUOUS
10
247.8829750451
20
359.2005483154
11
247.9215400451
21
359.2796593154
0
LINE
8
10000_FRONT
62
7
6
CONTINUOUS
10
248.9215470451
20
357.3052783154
11
248.9073740451
21
357.2773963154
0
LINE
8
10000_FRONT
62
7
6
CONTINUOUS
10
247.9215400451
20
359.2796593154
11
247.9687560451
21
359.3578423154
0
LINE
8
10000_FRONT
62
7
6
CONTINUOUS
10
248.9073740451
20
357.2773963154
11
248.8807580451
21
357.2334073154
0
LINE
8
10000_FRONT
62
7
6
CONTINUOUS
10
246.8544810451
20
309.9350413154
11
246.9297010451
21
310.0182893154
0
LINE
8
10000_FRONT
62
7
6
CONTINUOUS
10
246.9297010451
20
310.0182893154
11
247.0126010451
21
310.0936563154
0
LINE
8
10000_FRONT
62
7
6
CONTINUOUS
10
247.0126010451
20
310.0936563154
11
247.1023260451
21
310.1604053154
0
LINE
8
10000_FRONT
62
7
6
CONTINUOUS
10
248.4863610451
20
300.1110123154
11
248.3966360451
21
300.0442633154
0
LINE
8
20000_FRONT_O
62
7
6
CONTINUOUS
10
113.8281960088
20
235.9268273154
11
113.7251590088
21
235.8637583154
0
LINE
8
10000_FRONT
62
7
6
CONTINUOUS
10
247.1023260451
20
310.1604053154
11
247.1980410451
21
310.2179503154
0
LINE
8
10000_FRONT
62
7
6
CONTINUOUS
10
248.3966360451
20
300.0442633154
11
248.3009200451
21
299.9867183154
0
LINE
8
20000_FRONT_O
62
7
6
CONTINUOUS
10
119.2255230088
20
237.1375283154
11
119.2757650088
21
237.1669333154
0
LINE
8
20000_FRONT_O
62
7
6
CONTINUOUS
10
119.1681140088
20
236.3400043154
11
119.2165060088
21
236.3666173154
0
LINE
8
20000_FRONT_O
62
7
6
CONTINUOUS
10
119.2499410088
20
236.1638443154
11
119.3176300088
21
236.1999693154
0
LINE
8
20000_FRONT_O
62
7
6
CONTINUOUS
10
149.9630980088
20
263.8521513154
11
149.8857050088
21
263.8110443154
0
LINE
8
20000_FRONT_O
62
7
6
CONTINUOUS
10
116.2670890088
20
237.6567463154
11
116.2363440088
21
237.6405533154
0
LINE
8
20000_FRONT_O
62
7
6
CONTINUOUS
10
148.4781740088
20
264.5502653154
11
148.4566710088
21
264.5392443154
0
LINE
8
20000_FRONT_O
62
7
6
CONTINUOUS
10
113.9323870088
20
235.9790303154
11
113.8281960088
21
235.9268273154
0
LINE
8
20000_FRONT_O
62
7
6
CONTINUOUS
10
110.8075850088
20
237.6608973154
11
110.7593290088
21
237.6367503154
0
LINE
8
20000_FRONT_O
62
7
6
CONTINUOUS
10
118.1085750088
20
237.6878053154
11
118.0715220088
21
237.6698423154
0
LINE
8
10000_FRONT
62
7
6
CONTINUOUS
10
247.1980410451
20
310.2179503154
11
247.2987870451
21
310.2657453154
0
LINE
8
10000_FRONT
62
7
6
CONTINUOUS
10
248.3009200451
20
299.9867183154
11
248.2001740451
21
299.9389233154
0
LINE
8
20000_FRONT_O
62
7
6
CONTINUOUS
10
150.3887720088
20
264.7435863154
11
150.3295380088
21
264.7155613154
0
LINE
8
20000_FRONT_O
62
7
6
CONTINUOUS
10
149.9072890088
20
273.6365433154
11
149.8252130088
21
273.6000063154
0
LINE
8
20000_FRONT_O
62
7
6
CONTINUOUS
10
149.3208060088
20
276.8079313154
11
149.3321620088
21
276.8128953154
0
LINE
8
20000_FRONT_O
62
7
6
CONTINUOUS
10
137.4442020088
20
263.7884363154
11
137.4686240088
21
263.7989083154
0
LINE
8
20000_FRONT_O
62
7
6
CONTINUOUS
10
149.8857050088
20
263.8110443154
11
149.8083680088
21
263.7787113154
0
LINE
8
20000_FRONT_O
62
7
6
CONTINUOUS
10
148.5013430088
20
264.5596503154
11
148.4781740088
21
264.5502653154
0
LINE
8
20000_FRONT_O
62
7
6
CONTINUOUS
10
149.3101340088
20
276.8039503154
11
149.3208060088
21
276.8079313154
0
LINE
8
20000_FRONT_O
62
7
6
CONTINUOUS
10
150.3295380088
20
264.7155613154
11
150.2630880088
21
264.6907943154
0
LINE
8
10000_FRONT
62
7
6
CONTINUOUS
10
247.2987870451
20
310.2657453154
11
247.4036360451
21
310.3033753154
0
LINE
8
10000_FRONT
62
7
6
CONTINUOUS
10
248.2001740451
20
299.9389233154
11
248.0953250451
21
299.9012933154
0
LINE
8
20000_FRONT_O
62
7
6
CONTINUOUS
10
149.8252130088
20
273.6000063154
11
149.7415790088
21
273.5721903154
0
LINE
8
20000_FRONT_O
62
7
6
CONTINUOUS
10
149.3002520088
20
276.8008443154
11
149.3101340088
21
276.8039503154
0
LINE
8
13000_TOP
62
7
6
CONTINUOUS
10
268.6144820451
20
89.0287633154
11
271.6144820451
21
89.0287633154
0
LINE
8
13000_TOP
62
7
6
CONTINUOUS
10
262.3144820451
20
91.5287633154
11
268.6144820451
21
91.5287633154
0
LINE
8
13000_TOP
62
7
6
CONTINUOUS
10
271.6144820451
20
91.5287633154
11
277.7144820451
21
91.5287633154
0
LINE
8
13000_TOP
62
7
6
CONTINUOUS
10
242.4834750451
20
91.7859703154
11
260.2144810451
21
91.7859703154
0
LINE
8
13000_TOP
62
7
6
CONTINUOUS
10
242.4834750451
20
92.2239583154
11
260.2144810451
21
92.2239583154
0
LINE
8
13000_TOP
62
7
6
CONTINUOUS
10
268.1144820451
20
97.5287633154
11
272.1144820451
21
97.5287633154
0
LINE
8
13000_TOP
62
7
6
CONTINUOUS
10
260.3315980451
20
97.7549643154
11
279.1144810451
21
97.7549643154
0
LINE
8
13000_TOP
62
7
6
CONTINUOUS
10
242.4834750451
20
98.2859703154
11
260.3954870451
21
98.2859703154
0
LINE
8
13000_TOP
62
7
6
CONTINUOUS
10
279.3454870451
20
98.7239583154
11
261.4334750451
21
98.7239583154
0
LINE
8
13000_TOP
62
7
6
CONTINUOUS
10
242.4834750451
20
98.7239583154
11
260.3954870451
21
98.7239583154
0
LINE
8
13000_TOP
62
7
6
CONTINUOUS
10
242.4834750451
20
104.7859703154
11
260.3954870451
21
104.7859703154
0
LINE
8
13000_TOP
62
7
6
CONTINUOUS
10
261.4334750451
20
104.7859703154
11
279.3454870451
21
104.7859703154
0
LINE
8
13000_TOP
62
7
6
CONTINUOUS
10
279.9144810451
20
105.2549643154
11
241.9144810451
21
105.2549643154
0
LINE
8
13000_TOP
62
7
6
CONTINUOUS
10
240.9144810451
20
105.5549643154
11
280.9144810451
21
105.5549643154
0
LINE
8
13000_TOP
62
7
6
CONTINUOUS
10
258.6644810451
20
105.7549643154
11
263.1644810451
21
105.7549643154
0
LINE
8
13000_TOP
62
7
6
CONTINUOUS
10
262.8644810451
20
108.8363353154
11
258.9644810451
21
108.8363353154
0
LINE
8
13000_TOP
62
7
6
CONTINUOUS
10
260.2734380451
20
91.7537113154
11
260.3315980451
21
91.7220813154
0
LINE
8
13000_TOP
62
7
6
CONTINUOUS
10
260.2144810451
20
91.7859703154
11
260.2734380451
21
91.7537113154
0
LINE
8
20000_FRONT_O
62
7
6
CONTINUOUS
10
115.4869500088
20
235.7020683154
11
115.3895070088
21
235.7890603154
0
LINE
8
20000_FRONT_O
62
7
6
CONTINUOUS
10
116.2956230088
20
237.2561923154
11
116.3552830088
21
237.2023343154
0
LINE
8
20000_FRONT_O
62
7
6
CONTINUOUS
10
116.2481990088
20
237.3065123154
11
116.2956230088
21
237.2561923154
0
LINE
8
20000_FRONT_O
62
7
6
CONTINUOUS
10
115.5792640088
20
235.6023343154
11
115.4869500088
21
235.7020683154
0
LINE
8
20000_FRONT_O
62
7
6
CONTINUOUS
10
122.3742160088
20
264.4384703154
11
122.3514530088
21
264.4760743154
0
LINE
8
20000_FRONT_O
62
7
6
CONTINUOUS
10
116.3800530088
20
300.3600153154
11
116.3223190088
21
300.4566363154
0
LINE
8
20000_FRONT_O
62
7
6
CONTINUOUS
10
118.3037120088
20
309.8446533154
11
118.3614460088
21
309.7480323154
0
LINE
8
20000_FRONT_O
62
7
6
CONTINUOUS
10
148.5500720088
20
263.8356803154
11
148.5254790088
21
263.8777463154
0
LINE
8
20000_FRONT_O
62
7
6
CONTINUOUS
10
148.5254790088
20
263.8777463154
11
148.5013430088
21
263.9288213154
0
LINE
8
20000_FRONT_O
62
7
6
CONTINUOUS
10
118.3614460088
20
309.7480323154
11
118.4095280088
21
309.6460573154
0
LINE
8
20000_FRONT_O
62
7
6
CONTINUOUS
10
119.5826410088
20
358.1193763154
11
119.6154390088
21
358.0465463154
0
LINE
8
20000_FRONT_O
62
7
6
CONTINUOUS
10
142.7351400088
20
299.0751993154
11
143.0168840088
21
298.4373343154
0
LINE
8
20000_FRONT_O
62
7
6
CONTINUOUS
10
142.7351400088
20
309.5951993154
11
143.0168840088
21
308.9573343154
0
LINE
8
20000_FRONT_O
62
7
6
CONTINUOUS
10
135.9468840088
20
308.6373343154
11
136.1702610088
21
308.0893263154
0
LINE
8
20000_FRONT_O
62
7
6
CONTINUOUS
10
135.9468840088
20
319.1573343154
11
136.1702610088
21
318.6093263154
0
LINE
8
20000_FRONT_O
62
7
6
CONTINUOUS
10
149.2299090088
20
276.8089963154
11
149.2312370088
21
276.8056813154
0
LINE
8
20000_FRONT_O
62
7
6
CONTINUOUS
10
117.9209870088
20
357.1183023154
11
117.9009090088
21
357.1699723154
0
LINE
8
20000_FRONT_O
62
7
6
CONTINUOUS
10
148.5013430088
20
263.9288213154
11
148.4781740088
21
263.9898193154
0
LINE
8
20000_FRONT_O
62
7
6
CONTINUOUS
10
142.0651270088
20
300.2088373154
11
142.0864590088
21
300.1525933154
0
LINE
8
20000_FRONT_O
62
7
6
CONTINUOUS
10
142.0651270088
20
310.7288373154
11
142.0864590088
21
310.6725933154
0
LINE
8
20000_FRONT_O
62
7
6
CONTINUOUS
10
142.0651270088
20
330.6888373154
11
142.0864590088
21
330.6325933154
0
LINE
8
20000_FRONT_O
62
7
6
CONTINUOUS
10
142.1396680088
20
301.3873343154
11
142.3008020088
21
300.9477933154
0
LINE
8
20000_FRONT_O
62
7
6
CONTINUOUS
10
142.1396680088
20
311.9073343154
11
142.3008020088
21
311.4677933154
0
LINE
8
20000_FRONT_O
62
7
6
CONTINUOUS
10
142.1396680088
20
331.8673343154
11
142.3008020088
21
331.4277933154
0
LINE
8
20000_FRONT_O
62
7
6
CONTINUOUS
10
149.3680460088
20
273.6663343154
11
149.3597070088
21
273.6894333154
0
LINE
8
20000_FRONT_O
62
7
6
CONTINUOUS
10
149.3568830088
20
280.8898233154
11
149.3568140088
21
280.8900153154
0
LINE
8
20000_FRONT_O
62
7
6
CONTINUOUS
10
142.4604480088
20
299.8599313154
11
142.7351400088
21
299.0751993154
0
LINE
8
20000_FRONT_O
62
7
6
CONTINUOUS
10
142.4604480088
20
310.3799313154
11
142.7351400088
21
309.5951993154
0
LINE
8
20000_FRONT_O
62
7
6
CONTINUOUS
10
142.4604480088
20
330.3399313154
11
142.7351400088
21
329.5551993154
0
LINE
8
20000_FRONT_O
62
7
6
CONTINUOUS
10
142.4604480088
20
340.8599313154
11
142.7351400088
21
340.0751993154
0
LINE
8
20000_FRONT_O
62
7
6
CONTINUOUS
10
149.3804560088
20
280.7731853154
11
149.3673870088
21
280.8109563154
0
LINE
8
20000_FRONT_O
62
7
6
CONTINUOUS
10
149.2294920088
20
276.8087493154
11
149.2307050088
21
276.8051273154
0
LINE
8
20000_FRONT_O
62
7
6
CONTINUOUS
10
149.3416980088
20
275.7593553154
11
149.3530530088
21
275.7253263154
0
LINE
8
20000_FRONT_O
62
7
6
CONTINUOUS
10
136.1702610088
20
318.6093263154
11
136.3888980088
21
317.9492373154
0
LINE
8
20000_FRONT_O
62
7
6
CONTINUOUS
10
136.1702610088
20
338.5693263154
11
136.3888980088
21
337.9092373154
0
LINE
8
20000_FRONT_O
62
7
6
CONTINUOUS
10
136.1702610088
20
349.0893263154
11
136.3888980088
21
348.4292373154
0
LINE
8
20000_FRONT_O
62
7
6
CONTINUOUS
10
150.4607300088
20
320.2567773154
11
150.4262180088
21
320.3643753154
0
LINE
8
20000_FRONT_O
62
7
6
CONTINUOUS
10
142.1520860088
20
306.8406893154
11
142.1314380088
21
306.9090433154
0
LINE
8
20000_FRONT_O
62
7
6
CONTINUOUS
10
142.1520860088
20
317.3606893154
11
142.1314380088
21
317.4290433154
0
LINE
8
20000_FRONT_O
62
7
6
CONTINUOUS
10
142.1520860088
20
337.3206893154
11
142.1314380088
21
337.3890433154
0
LINE
8
20000_FRONT_O
62
7
6
CONTINUOUS
10
142.1520860088
20
347.8406893154
11
142.1314380088
21
347.9090433154
0
LINE
8
20000_FRONT_O
62
7
6
CONTINUOUS
10
142.1942380088
20
311.3073343154
11
142.4604480088
21
310.3799313154
0
LINE
8
20000_FRONT_O
62
7
6
CONTINUOUS
10
142.1942380088
20
331.2673343154
11
142.4604480088
21
330.3399313154
0
LINE
8
20000_FRONT_O
62
7
6
CONTINUOUS
10
142.1942380088
20
341.7873343154
11
142.4604480088
21
340.8599313154
0
LINE
8
20000_FRONT_O
62
7
6
CONTINUOUS
10
149.2300250088
20
313.8067253154
11
149.2293280088
21
313.8092123154
0
LINE
8
20000_FRONT_O
62
7
6
CONTINUOUS
10
150.4756410088
20
330.0113603154
11
150.4382870088
21
330.1452793154
0
LINE
8
20000_FRONT_O
62
7
6
CONTINUOUS
10
136.3888980088
20
337.9092373154
11
136.5250840088
21
337.4173343154
0
LINE
8
20000_FRONT_O
62
7
6
CONTINUOUS
10
136.3888980088
20
348.4292373154
11
136.5250840088
21
347.9373343154
0
LINE
8
20000_FRONT_O
62
7
6
CONTINUOUS
10
142.7075740088
20
317.1335383154
11
142.6848360088
21
317.2158123154
0
LINE
8
20000_FRONT_O
62
7
6
CONTINUOUS
10
142.7075740088
20
337.0935383154
11
142.6848360088
21
337.1758123154
0
LINE
8
20000_FRONT_O
62
7
6
CONTINUOUS
10
142.7075740088
20
347.6135383154
11
142.6848360088
21
347.6958123154
0
LINE
8
20000_FRONT_O
62
7
6
CONTINUOUS
10
149.2300850088
20
313.8096063154
11
149.2294400088
21
313.8120483154
0
LINE
8
20000_FRONT_O
62
7
6
CONTINUOUS
10
142.0532580088
20
336.2424383154
11
142.0730960088
21
336.1624613154
0
LINE
8
20000_FRONT_O
62
7
6
CONTINUOUS
10
142.0532580088
20
346.7624383154
11
142.0730960088
21
346.6824613154
0
LINE
8
20000_FRONT_O
62
7
6
CONTINUOUS
10
149.3568830088
20
313.6602973154
11
149.3565670088
21
313.6616803154
0
LINE
8
20000_FRONT_O
62
7
6
CONTINUOUS
10
150.4861050088
20
320.1441953154
11
150.4607300088
21
320.2567773154
0
LINE
8
20000_FRONT_O
62
7
6
CONTINUOUS
10
150.5068830088
20
329.7249843154
11
150.4989370088
21
329.7613023154
0
LINE
8
20000_FRONT_O
62
7
6
CONTINUOUS
10
148.4068830088
20
330.1291293154
11
148.4110690088
21
330.1099083154
0
LINE
8
10000_FRONT
62
7
6
CONTINUOUS
10
247.8292280451
20
359.0412563154
11
247.8524120451
21
359.1210343154
0
LINE
8
10000_FRONT
62
7
6
CONTINUOUS
10
248.9585640451
20
357.4023343154
11
248.9473920451
21
357.3678403154
0
LINE
8
10000_FRONT
62
7
6
CONTINUOUS
10
246.6439210451
20
309.5397633154
11
246.6818360451
21
309.6460573154
0
LINE
8
10000_FRONT
62
7
6
CONTINUOUS
10
248.9473920451
20
357.3678403154
11
248.9349690451
21
357.3354533154
0
LINE
8
10000_FRONT
62
7
6
CONTINUOUS
10
247.8524120451
20
359.1210343154
11
247.8829750451
21
359.2005483154
0
LINE
8
10000_FRONT
62
7
6
CONTINUOUS
10
246.6818360451
20
309.6460573154
11
246.7299170451
21
309.7480323154
0
LINE
8
10000_FRONT
62
7
6
CONTINUOUS
10
248.8171260451
20
300.5586113154
11
248.7690440451
21
300.4566363154
0
LINE
8
10000_FRONT
62
7
6
CONTINUOUS
10
246.7299170451
20
309.7480323154
11
246.7876510451
21
309.8446533154
0
LINE
8
10000_FRONT
62
7
6
CONTINUOUS
10
248.7690440451
20
300.4566363154
11
248.7113100451
21
300.3600153154
0
LINE
8
10000_FRONT
62
7
6
CONTINUOUS
10
246.7876510451
20
309.8446533154
11
246.8544810451
21
309.9350413154
0
LINE
8
10000_FRONT
62
7
6
CONTINUOUS
10
248.7113100451
20
300.3600153154
11
248.6444800451
21
300.2696273154
0
LINE
8
10000_FRONT
62
7
6
CONTINUOUS
10
248.6444800451
20
300.2696273154
11
248.5692600451
21
300.1863793154
0
LINE
8
10000_FRONT
62
7
6
CONTINUOUS
10
248.5692600451
20
300.1863793154
11
248.4863610451
21
300.1110123154
0
LINE
8
20000_FRONT_O
62
7
6
CONTINUOUS
10
119.1725980088
20
237.1143793154
11
119.2255230088
21
237.1375283154
0
LINE
8
20000_FRONT_O
62
7
6
CONTINUOUS
10
119.1178750088
20
236.3193123154
11
119.1681140088
21
236.3400043154
0
LINE
8
20000_FRONT_O
62
7
6
CONTINUOUS
10
114.0370540088
20
236.0211443154
11
113.9323870088
21
235.9790303154
0
LINE
8
20000_FRONT_O
62
7
6
CONTINUOUS
10
119.1796540088
20
236.1357823154
11
119.2499410088
21
236.1638443154
0
LINE
8
20000_FRONT_O
62
7
6
CONTINUOUS
10
116.3045930088
20
237.6713393154
11
116.2670890088
21
237.6567463154
0
LINE
8
20000_FRONT_O
62
7
6
CONTINUOUS
10
110.8565470088
20
237.6791983154
11
110.8075850088
21
237.6608973154
0
LINE
8
20000_FRONT_O
62
7
6
CONTINUOUS
10
148.5254790088
20
264.5675073154
11
148.5013430088
21
264.5596503154
0
LINE
8
20000_FRONT_O
62
7
6
CONTINUOUS
10
149.8083680088
20
263.7787113154
11
149.7315950088
21
263.7545153154
0
LINE
8
20000_FRONT_O
62
7
6
CONTINUOUS
10
150.2630880088
20
264.6907943154
11
150.1915270088
21
264.6692753154
0
LINE
8
13000_TOP
62
7
6
CONTINUOUS
10
255.9144810451
20
109.2549643154
11
251.8144810451
21
109.2549643154
0
LINE
8
13000_TOP
62
7
6
CONTINUOUS
10
265.9144810451
20
109.2549643154
11
270.0144810451
21
109.2549643154
0
LINE
8
13000_TOP
62
7
6
CONTINUOUS
10
262.8644810451
20
109.6363353154
11
258.9644810451
21
109.6363353154
0
LINE
8
13000_TOP
62
7
6
CONTINUOUS
10
243.0144810451
20
111.0549643154
11
280.9144810451
21
111.0549643154
0
LINE
8
13000_TOP
62
7
6
CONTINUOUS
10
270.0144810451
20
111.2549643154
11
265.9144810451
21
111.2549643154
0
LINE
8
13000_TOP
62
7
6
CONTINUOUS
10
251.8144810451
20
111.2549643154
11
255.9144810451
21
111.2549643154
0
LINE
8
13000_TOP
62
7
6
CONTINUOUS
10
280.1644810451
20
111.9549643154
11
261.6644810451
21
111.9549643154
0
LINE
8
13000_TOP
62
7
6
CONTINUOUS
10
242.7144810451
20
111.9549643154
11
260.1644810451
21
111.9549643154
0
LINE
8
13000_TOP
62
7
6
CONTINUOUS
10
260.1644810451
20
117.5549643154
11
242.7144810451
21
117.5549643154
0
LINE
8
13000_TOP
62
7
6
CONTINUOUS
10
261.6644810451
20
117.5549643154
11
280.1644810451
21
117.5549643154
0
LINE
8
13000_TOP
62
7
6
CONTINUOUS
10
280.1644810451
20
118.4549643154
11
261.6644810451
21
118.4549643154
0
LINE
8
13000_TOP
62
7
6
CONTINUOUS
10
242.7144810451
20
118.4549643154
11
260.1644810451
21
118.4549643154
0
LINE
8
13000_TOP
62
7
6
CONTINUOUS
10
260.1644810451
20
124.0549643154
11
242.7144810451
21
124.0549643154
0
LINE
8
13000_TOP
62
7
6
CONTINUOUS
10
261.6644810451
20
124.0549643154
11
280.1644810451
21
124.0549643154
0
LINE
8
13000_TOP
62
7
6
CONTINUOUS
10
280.1644810451
20
124.9549643154
11
261.6644810451
21
124.9549643154
0
LINE
8
13000_TOP
62
7
6
CONTINUOUS
10
242.7144810451
20
124.9549643154
11
260.1644810451
21
124.9549643154
0
LINE
8
20000_FRONT_O
62
7
6
CONTINUOUS
10
115.3895070088
20
235.7890603154
11
115.2886080088
21
235.8637583154
0
LINE
8
20000_FRONT_O
62
7
6
CONTINUOUS
10
122.3514530088
20
264.4760743154
11
122.3249340088
21
264.5083773154
0
LINE
8
20000_FRONT_O
62
7
6
CONTINUOUS
10
116.4468830088
20
300.2696273154
11
116.3800530088
21
300.3600153154
0
LINE
8
20000_FRONT_O
62
7
6
CONTINUOUS
10
118.2368820088
20
309.9350413154
11
118.3037120088
21
309.8446533154
0
LINE
8
20000_FRONT_O
62
7
6
CONTINUOUS
10
148.5748060088
20
263.8016373154
11
148.5500720088
21
263.8356803154
0
LINE
8
20000_FRONT_O
62
7
6
CONTINUOUS
10
149.2287090088
20
280.7867103154
11
150.3068830088
21
279.1988343154
0
LINE
8
20000_FRONT_O
62
7
6
CONTINUOUS
10
149.2312370088
20
276.8056813154
11
149.2331240088
21
276.8028463154
0
LINE
8
20000_FRONT_O
62
7
6
CONTINUOUS
10
149.3984360088
20
280.7374913154
11
149.3945610088
21
280.7433803154
0
LINE
8
20000_FRONT_O
62
7
6
CONTINUOUS
10
149.3815870088
20
273.6443163154
11
149.3680460088
21
273.6663343154
0
LINE
8
13000_TOP
62
7
6
CONTINUOUS
10
262.9176230451
20
109.5490803154
11
262.8644810451
21
109.6363353154
0
LINE
8
13000_TOP
62
7
6
CONTINUOUS
10
262.9646510451
20
109.4694693154
11
262.9176230451
21
109.5490803154
0
LINE
8
20000_FRONT_O
62
7
6
CONTINUOUS
10
149.3984360088
20
280.7374913154
11
150.3068830088
21
279.1988343154
0
LINE
8
20000_FRONT_O
62
7
6
CONTINUOUS
10
149.3232150088
20
275.7919763154
11
149.3416980088
21
275.7593553154
0
LINE
8
20000_FRONT_O
62
7
6
CONTINUOUS
10
149.2307050088
20
276.8051273154
11
149.2325000088
21
276.8018383154
0
LINE
8
20000_FRONT_O
62
7
6
CONTINUOUS
10
110.5850140088
20
357.1339573154
11
110.5526670088
21
357.1933193154
0
LINE
8
20000_FRONT_O
62
7
6
CONTINUOUS
10
148.4203600088
20
275.9991803154
11
148.4102960088
21
276.0176913154
0
LINE
8
20000_FRONT_O
62
7
6
CONTINUOUS
10
142.0730960088
20
305.6824613154
11
142.0950930088
21
305.6418793154
0
LINE
8
20000_FRONT_O
62
7
6
CONTINUOUS
10
142.0730960088
20
316.2024613154
11
142.0950930088
21
316.1618793154
0
LINE
8
20000_FRONT_O
62
7
6
CONTINUOUS
10
149.3534740088
20
313.6686053154
11
149.3503960088
21
313.6744043154
0
LINE
8
20000_FRONT_O
62
7
6
CONTINUOUS
10
149.2321100088
20
313.8022203154
11
149.2309550088
21
313.8044023154
0
LINE
8
20000_FRONT_O
62
7
6
CONTINUOUS
10
116.1747280088
20
357.0223333154
11
116.1629650088
21
357.0456043154
0
LINE
8
20000_FRONT_O
62
7
6
CONTINUOUS
10
149.3984360088
20
280.7374913154
11
149.3804560088
21
280.7731853154
0
LINE
8
20000_FRONT_O
62
7
6
CONTINUOUS
10
117.9449230088
20
357.0707733154
11
117.9209870088
21
357.1183023154
0
LINE
8
20000_FRONT_O
62
7
6
CONTINUOUS
10
142.1396680088
20
301.3873343154
11
142.1177890088
21
301.4311253154
0
LINE
8
20000_FRONT_O
62
7
6
CONTINUOUS
10
142.1396680088
20
311.9073343154
11
142.1177890088
21
311.9511253154
0
LINE
8
20000_FRONT_O
62
7
6
CONTINUOUS
10
142.1396680088
20
331.8673343154
11
142.1177890088
21
331.9111253154
0
LINE
8
20000_FRONT_O
62
7
6
CONTINUOUS
10
149.3554870088
20
313.6643863154
11
149.3534740088
21
313.6686053154
0
LINE
8
20000_FRONT_O
62
7
6
CONTINUOUS
10
142.3008020088
20
300.9477933154
11
142.4661090088
21
300.6004203154
0
LINE
8
20000_FRONT_O
62
7
6
CONTINUOUS
10
142.3008020088
20
311.4677933154
11
142.4661090088
21
311.1204203154
0
LINE
8
20000_FRONT_O
62
7
6
CONTINUOUS
10
142.3008020088
20
331.4277933154
11
142.4661090088
21
331.0804203154
0
LINE
8
20000_FRONT_O
62
7
6
CONTINUOUS
10
142.7351400088
20
329.5551993154
11
143.0168840088
21
328.9173343154
0
LINE
8
20000_FRONT_O
62
7
6
CONTINUOUS
10
142.7351400088
20
340.0751993154
11
143.0168840088
21
339.4373343154
0
LINE
8
20000_FRONT_O
62
7
6
CONTINUOUS
10
150.4262180088
20
320.3643753154
11
150.3829780088
21
320.4667553154
0
LINE
8
20000_FRONT_O
62
7
6
CONTINUOUS
10
135.9468840088
20
339.1173343154
11
136.1702610088
21
338.5693263154
0
LINE
8
20000_FRONT_O
62
7
6
CONTINUOUS
10
135.9468840088
20
349.6373343154
11
136.1702610088
21
349.0893263154
0
LINE
8
20000_FRONT_O
62
7
6
CONTINUOUS
10
149.2309550088
20
313.8044023154
11
149.2300250088
21
313.8067253154
0
LINE
8
20000_FRONT_O
62
7
6
CONTINUOUS
10
149.3565670088
20
313.6616803154
11
149.3554870088
21
313.6643863154
0
LINE
8
20000_FRONT_O
62
7
6
CONTINUOUS
10
150.4382870088
20
330.1452793154
11
150.3887720088
21
330.2693763154
0
LINE
8
20000_FRONT_O
62
7
6
CONTINUOUS
10
149.2309360088
20
313.8074463154
11
149.2300850088
21
313.8096063154
0
LINE
8
20000_FRONT_O
62
7
6
CONTINUOUS
10
142.0651270088
20
341.2088373154
11
142.0864590088
21
341.1525933154
0
LINE
8
20000_FRONT_O
62
7
6
CONTINUOUS
10
142.1396680088
20
342.3873343154
11
142.2436770088
21
342.1036183154
0
LINE
8
10000_FRONT
62
7
6
CONTINUOUS
10
247.8034400451
20
358.8819323154
11
247.8130440451
21
358.9616773154
0
LINE
8
10000_FRONT
62
7
6
CONTINUOUS
10
246.6000130451
20
309.3183233154
11
246.6165490451
21
309.4301503154
0
LINE
8
10000_FRONT
62
7
6
CONTINUOUS
10
248.8989490451
20
300.8863453154
11
248.8824120451
21
300.7745183154
0
LINE
8
10000_FRONT
62
7
6
CONTINUOUS
10
247.8130440451
20
358.9616773154
11
247.8292280451
21
359.0412563154
0
LINE
8
10000_FRONT
62
7
6
CONTINUOUS
10
246.6165490451
20
309.4301503154
11
246.6439210451
21
309.5397633154
0
LINE
8
10000_FRONT
62
7
6
CONTINUOUS
10
248.8824120451
20
300.7745183154
11
248.8550410451
21
300.6649053154
0
LINE
8
10000_FRONT
62
7
6
CONTINUOUS
10
248.8550410451
20
300.6649053154
11
248.8171260451
21
300.5586113154
0
LINE
8
20000_FRONT_O
62
7
6
CONTINUOUS
10
114.1417750088
20
236.0538873154
11
114.0370540088
21
236.0211443154
0
LINE
8
20000_FRONT_O
62
7
6
CONTINUOUS
10
119.1176960088
20
237.0977113154
11
119.1725980088
21
237.1143793154
0
LINE
8
20000_FRONT_O
62
7
6
CONTINUOUS
10
119.0665390088
20
236.3046253154
11
119.1178750088
21
236.3193123154
0
LINE
8
20000_FRONT_O
62
7
6
CONTINUOUS
10
118.1467500088
20
237.6986883154
11
118.1085750088
21
237.6878053154
0
LINE
8
13000_TOP
62
7
6
CONTINUOUS
10
260.1644810451
20
130.5549643154
11
242.7144810451
21
130.5549643154
0
LINE
8
13000_TOP
62
7
6
CONTINUOUS
10
261.6644810451
20
130.5549643154
11
280.1644810451
21
130.5549643154
0
LINE
8
13000_TOP
62
7
6
CONTINUOUS
10
280.1644810451
20
131.4549643154
11
261.6644810451
21
131.4549643154
0
LINE
8
13000_TOP
62
7
6
CONTINUOUS
10
242.7144810451
20
131.4549643154
11
260.1644810451
21
131.4549643154
0
LINE
8
13000_TOP
62
7
6
CONTINUOUS
10
260.1644810451
20
137.0549643154
11
242.7144810451
21
137.0549643154
0
LINE
8
13000_TOP
62
7
6
CONTINUOUS
10
261.6644810451
20
137.0549643154
11
280.1644810451
21
137.0549643154
0
LINE
8
13000_TOP
62
7
6
CONTINUOUS
10
280.1644810451
20
137.9549643154
11
261.6644810451
21
137.9549643154
0
LINE
8
13000_TOP
62
7
6
CONTINUOUS
10
242.7144810451
20
137.9549643154
11
260.1644810451
21
137.9549643154
0
LINE
8
13000_TOP
62
7
6
CONTINUOUS
10
260.1644810451
20
143.5549643154
11
242.7144810451
21
143.5549643154
0
LINE
8
13000_TOP
62
7
6
CONTINUOUS
10
261.6644810451
20
143.5549643154
11
280.1644810451
21
143.5549643154
0
LINE
8
13000_TOP
62
7
6
CONTINUOUS
10
280.1644810451
20
144.4549643154
11
261.6644810451
21
144.4549643154
0
LINE
8
13000_TOP
62
7
6
CONTINUOUS
10
242.7144810451
20
144.4549643154
11
260.1644810451
21
144.4549643154
0
LINE
8
13000_TOP
62
7
6
CONTINUOUS
10
260.1644810451
20
150.0549643154
11
242.7144810451
21
150.0549643154
0
LINE
8
13000_TOP
62
7
6
CONTINUOUS
10
261.6644810451
20
150.0549643154
11
280.1644810451
21
150.0549643154
0
LINE
8
20000_FRONT_O
62
7
6
CONTINUOUS
10
115.2886080088
20
235.8637583154
11
115.1855710088
21
235.9268273154
0
LINE
8
20000_FRONT_O
62
7
6
CONTINUOUS
10
122.3249340088
20
264.5083773154
11
122.2959070088
21
264.5352933154
0
LINE
8
20000_FRONT_O
62
7
6
CONTINUOUS
10
130.8068830088
20
264.1023343154
11
130.3068830088
21
264.6023343154
0
LINE
8
20000_FRONT_O
62
7
6
CONTINUOUS
10
148.4366310088
20
275.9821103154
11
148.4203600088
21
275.9991803154
0
LINE
8
20000_FRONT_O
62
7
6
CONTINUOUS
10
148.5993170088
20
263.7748893154
11
148.5748060088
21
263.8016373154
0
LINE
8
20000_FRONT_O
62
7
6
CONTINUOUS
10
116.5221030088
20
300.1863793154
11
116.4468830088
21
300.2696273154
0
LINE
8
20000_FRONT_O
62
7
6
CONTINUOUS
10
118.1616620088
20
310.0182893154
11
118.2368820088
21
309.9350413154
0
LINE
8
20000_FRONT_O
62
7
6
CONTINUOUS
10
149.3998040088
20
273.6238683154
11
149.3815870088
21
273.6443163154
0
LINE
8
20000_FRONT_O
62
7
6
CONTINUOUS
10
149.2982100088
20
275.8225993154
11
149.3232150088
21
275.7919763154
0
LINE
8
20000_FRONT_O
62
7
6
CONTINUOUS
10
142.1314380088
20
306.9090433154
11
142.1090660088
21
306.9368263154
0
LINE
8
20000_FRONT_O
62
7
6
CONTINUOUS
10
149.3945610088
20
280.7433803154
11
149.3893990088
21
280.7498523154
0
LINE
8
20000_FRONT_O
62
7
6
CONTINUOUS
10
149.2325000088
20
276.8018383154
11
149.2348590088
21
276.7988503154
0
LINE
8
20000_FRONT_O
62
7
6
CONTINUOUS
10
110.6235080088
20
357.0813613154
11
110.5850140088
21
357.1339573154
0
LINE
8
20000_FRONT_O
62
7
6
CONTINUOUS
10
149.3342210088
20
313.7003163154
11
149.3267100088
21
313.7108133154
0
LINE
8
20000_FRONT_O
62
7
6
CONTINUOUS
10
149.2287090088
20
317.7872593154
11
150.3068830088
21
316.2058343154
0
LINE
8
20000_FRONT_O
62
7
6
CONTINUOUS
10
142.4661090088
20
300.6004203154
11
142.6346020088
21
300.3473453154
0
LINE
8
20000_FRONT_O
62
7
6
CONTINUOUS
10
142.4661090088
20
311.1204203154
11
142.6346020088
21
310.8673453154
0
LINE
8
20000_FRONT_O
62
7
6
CONTINUOUS
10
142.4661090088
20
331.0804203154
11
142.6346020088
21
330.8273453154
0
LINE
8
20000_FRONT_O
62
7
6
CONTINUOUS
10
149.3407690088
20
313.6904693154
11
149.3342210088
21
313.7003163154
0
LINE
8
20000_FRONT_O
62
7
6
CONTINUOUS
10
149.2334980088
20
313.8001263154
11
149.2321100088
21
313.8022203154
0
LINE
8
20000_FRONT_O
62
7
6
CONTINUOUS
10
150.3316490088
20
320.5629823154
11
150.2732600088
21
320.6517993154
0
LINE
8
20000_FRONT_O
62
7
6
CONTINUOUS
10
148.4110690088
20
330.1099083154
11
148.4219580088
21
330.0929863154
0
LINE
8
20000_FRONT_O
62
7
6
CONTINUOUS
10
117.9723660088
20
357.0280793154
11
117.9449230088
21
357.0707733154
0
LINE
8
20000_FRONT_O
62
7
6
CONTINUOUS
10
142.6848360088
20
306.6958123154
11
142.6599940088
21
306.7345993154
0
LINE
8
20000_FRONT_O
62
7
6
CONTINUOUS
10
142.6848360088
20
317.2158123154
11
142.6599940088
21
317.2545993154
0
LINE
8
20000_FRONT_O
62
7
6
CONTINUOUS
10
142.6848360088
20
337.1758123154
11
142.6599940088
21
337.2145993154
0
LINE
8
20000_FRONT_O
62
7
6
CONTINUOUS
10
149.4225610088
20
317.6976133154
11
149.4267160088
21
317.6910673154
0
LINE
8
20000_FRONT_O
62
7
6
CONTINUOUS
10
149.3461720088
20
313.6817423154
11
149.3407690088
21
313.6904693154
0
LINE
8
20000_FRONT_O
62
7
6
CONTINUOUS
10
149.4267410088
20
317.6910243154
11
150.3068830088
21
316.2058343154
0
LINE
8
20000_FRONT_O
62
7
6
CONTINUOUS
10
119.5422340088
20
358.1881563154
11
119.5826410088
21
358.1193763154
0
LINE
8
20000_FRONT_O
62
7
6
CONTINUOUS
10
149.3503960088
20
313.6744043154
11
149.3461720088
21
313.6817423154
0
LINE
8
20000_FRONT_O
62
7
6
CONTINUOUS
10
149.2319990088
20
313.8055523154
11
149.2309360088
21
313.8074463154
0
LINE
8
13000_TOP
62
7
6
CONTINUOUS
10
263.0053890451
20
109.3965903154
11
262.9646510451
21
109.4694693154
0
LINE
8
20000_FRONT_O
62
7
6
CONTINUOUS
10
142.0730960088
20
336.1624613154
11
142.0950930088
21
336.1218793154
0
LINE
8
20000_FRONT_O
62
7
6
CONTINUOUS
10
142.0730960088
20
346.6824613154
11
142.0950930088
21
346.6418793154
0
LINE
8
20000_FRONT_O
62
7
6
CONTINUOUS
10
150.3829780088
20
320.4667553154
11
150.3316490088
21
320.5629823154
0
LINE
8
20000_FRONT_O
62
7
6
CONTINUOUS
10
150.3887720088
20
330.2693763154
11
150.3295380088
21
330.3814783154
0
LINE
8
13000_TOP
62
7
6
CONTINUOUS
10
263.0400270451
20
109.3297813154
11
263.0053890451
21
109.3965903154
0
LINE
8
20000_FRONT_O
62
7
6
CONTINUOUS
10
142.1396680088
20
342.3873343154
11
142.1177890088
21
342.4311253154
0
LINE
8
13000_TOP
62
7
6
CONTINUOUS
10
263.0689500451
20
109.2685973154
11
263.0400270451
21
109.3297813154
0
LINE
8
13000_TOP
62
7
6
CONTINUOUS
10
263.0927150451
20
109.2125863154
11
263.0689500451
21
109.2685973154
0
LINE
8
13000_TOP
62
7
6
CONTINUOUS
10
263.1120050451
20
109.1611293154
11
263.0927150451
21
109.2125863154
0
LINE
8
13000_TOP
62
7
6
CONTINUOUS
10
263.1274630451
20
109.1136083154
11
263.1120050451
21
109.1611293154
0
LINE
8
13000_TOP
62
7
6
CONTINUOUS
10
263.1396770451
20
109.0693333154
11
263.1274630451
21
109.1136083154
0
LINE
8
13000_TOP
62
7
6
CONTINUOUS
10
261.8172830451
20
68.8373263154
11
261.1694790451
21
71.2549643154
0
LINE
8
13000_TOP
62
7
6
CONTINUOUS
10
263.1636110451
20
108.9150203154
11
263.1608890451
21
108.9505383154
0
LINE
8
13000_TOP
62
7
6
CONTINUOUS
10
249.3162910451
20
59.4387633154
11
249.1144820451
21
62.9387633154
0
LINE
8
13000_TOP
62
7
6
CONTINUOUS
10
246.5944810451
20
64.6549643154
11
246.8646980451
21
59.4989093154
0
LINE
8
10000_FRONT
62
7
6
CONTINUOUS
10
246.6000130451
20
300.8863453154
11
246.5944810451
21
300.9993023154
0
LINE
8
10000_FRONT
62
7
6
CONTINUOUS
10
248.8989490451
20
309.3183233154
11
248.9044810451
21
309.2053663154
0
LINE
8
10000_FRONT
62
7
6
CONTINUOUS
10
247.8002670451
20
235.8023343154
11
247.8034400451
21
235.7227363154
0
LINE
8
10000_FRONT
62
7
6
CONTINUOUS
10
251.4286940451
20
358.8023343154
11
251.4255210451
21
358.8819323154
0
LINE
8
13000_TOP
62
7
6
CONTINUOUS
10
240.9144810451
20
65.1549643154
11
240.9144810451
21
179.5549643154
0
LINE
8
10000_FRONT
62
7
6
CONTINUOUS
10
240.9144810451
20
234.8023343154
11
240.9144810451
21
359.8023343154
0
LINE
8
13000_TOP
62
7
6
CONTINUOUS
10
241.9144810451
20
105.2549643154
11
241.9144810451
21
72.0549643154
0
LINE
8
13000_TOP
62
7
6
CONTINUOUS
10
242.4834750451
20
72.7239583154
11
242.4834750451
21
78.7859703154
0
LINE
8
13000_TOP
62
7
6
CONTINUOUS
10
242.4834750451
20
79.2239583154
11
242.4834750451
21
85.2859703154
0
LINE
8
13000_TOP
62
7
6
CONTINUOUS
10
242.4834750451
20
85.7239583154
11
242.4834750451
21
91.7859703154
0
LINE
8
13000_TOP
62
7
6
CONTINUOUS
10
242.4834750451
20
92.2239583154
11
242.4834750451
21
98.2859703154
0
LINE
8
13000_TOP
62
7
6
CONTINUOUS
10
242.4834750451
20
98.7239583154
11
242.4834750451
21
104.7859703154
0
LINE
8
13000_TOP
62
7
6
CONTINUOUS
10
242.7144810451
20
163.0549643154
11
242.7144810451
21
157.4549643154
0
LINE
8
13000_TOP
62
7
6
CONTINUOUS
10
242.7144810451
20
156.5549643154
11
242.7144810451
21
150.9549643154
0
LINE
8
13000_TOP
62
7
6
CONTINUOUS
10
242.7144810451
20
150.0549643154
11
242.7144810451
21
144.4549643154
0
LINE
8
13000_TOP
62
7
6
CONTINUOUS
10
242.7144810451
20
143.5549643154
11
242.7144810451
21
137.9549643154
0
LINE
8
13000_TOP
62
7
6
CONTINUOUS
10
242.7144810451
20
137.0549643154
11
242.7144810451
21
131.4549643154
0
LINE
8
13000_TOP
62
7
6
CONTINUOUS
10
242.7144810451
20
130.5549643154
11
242.7144810451
21
124.9549643154
0
LINE
8
13000_TOP
62
7
6
CONTINUOUS
10
242.7144810451
20
124.0549643154
11
242.7144810451
21
118.4549643154
0
LINE
8
13000_TOP
62
7
6
CONTINUOUS
10
242.7144810451
20
117.5549643154
11
242.7144810451
21
111.9549643154
0
LINE
8
13000_TOP
62
7
6
CONTINUOUS
10
242.7144810451
20
163.9549643154
11
242.7144810451
21
169.5549643154
0
LINE
8
13000_TOP
62
7
6
CONTINUOUS
10
243.0144810451
20
105.5549643154
11
243.0144810451
21
111.0549643154
0
LINE
8
13000_TOP
62
7
6
CONTINUOUS
10
243.0144810451
20
170.7549643154
11
243.0144810451
21
174.6549643154
0
LINE
8
10000_FRONT
62
7
6
CONTINUOUS
10
246.5944810451
20
300.9993023154
11
246.5944810451
21
309.2053663154
0
LINE
8
10000_FRONT
62
7
6
CONTINUOUS
10
247.8002670451
20
358.8023343154
11
247.8002670451
21
357.4023343154
0
LINE
8
10000_FRONT
62
7
6
CONTINUOUS
10
247.8002670451
20
235.8023343154
11
247.8002670451
21
237.2023343154
0
LINE
8
10000_FRONT
62
7
6
CONTINUOUS
10
248.9044810451
20
300.9993023154
11
248.9044810451
21
309.2053663154
0
LINE
8
13000_TOP
62
7
6
CONTINUOUS
10
249.0144820451
20
64.2387633154
11
249.0144820451
21
64.6549643154
0
LINE
8
10000_FRONT
62
7
6
CONTINUOUS
10
249.0144820451
20
300.8523343154
11
249.0144820451
21
309.3523343154
0
LINE
8
10000_FRONT
62
7
6
CONTINUOUS
10
249.1144820451
20
303.9123343154
11
249.1144820451
21
306.4123343154
0
LINE
8
10000_FRONT
62
7
6
CONTINUOUS
10
249.5144820451
20
308.2623343154
11
249.5144820451
21
306.4123343154
0
LINE
8
10000_FRONT
62
7
6
CONTINUOUS
10
249.5144820451
20
303.9123343154
11
249.5144820451
21
302.0623343154
0
LINE
8
10000_FRONT
62
7
6
CONTINUOUS
10
249.8144820451
20
305.3123343154
11
249.8144820451
21
305.0123343154
0
LINE
8
13000_TOP
62
7
6
CONTINUOUS
10
249.8144820451
20
63.8387633154
11
249.8144820451
21
62.9387633154
0
LINE
8
10000_FRONT
62
7
6
CONTINUOUS
10
251.3144810451
20
237.7023343154
11
251.3144810451
21
299.8523343154
0
LINE
8
10000_FRONT
62
7
6
CONTINUOUS
10
251.3144810451
20
310.3523343154
11
251.3144810451
21
353.7147673154
0
LINE
8
10000_FRONT
62
7
6
CONTINUOUS
10
251.4286940451
20
358.8023343154
11
251.4286940451
21
357.4023343154
0
LINE
8
10000_FRONT
62
7
6
CONTINUOUS
10
251.4286940451
20
235.8023343154
11
251.4286940451
21
237.2023343154
0
LINE
8
13000_TOP
62
7
6
CONTINUOUS
10
251.6144810451
20
111.0549643154
11
251.6144810451
21
109.4549643154
0
LINE
8
10000_FRONT
62
7
6
CONTINUOUS
10
251.7144810451
20
323.6023343154
11
251.7144810451
21
310.7523343154
0
LINE
8
10000_FRONT
62
7
6
CONTINUOUS
10
251.7144810451
20
299.4523343154
11
251.7144810451
21
238.1023343154
0
LINE
8
13000_TOP
62
7
6
CONTINUOUS
10
252.7144820451
20
63.8387633154
11
252.7144820451
21
62.9387633154
0
LINE
8
10000_FRONT
62
7
6
CONTINUOUS
10
252.7144820451
20
305.0123343154
11
252.7144820451
21
305.3123343154
0
LINE
8
10000_FRONT
62
7
6
CONTINUOUS
10
253.0144820451
20
302.0623343154
11
253.0144820451
21
303.9123343154
0
LINE
8
10000_FRONT
62
7
6
CONTINUOUS
10
253.0144820451
20
306.4123343154
11
253.0144820451
21
308.2623343154
0
LINE
8
10000_FRONT
62
7
6
CONTINUOUS
10
253.4144820451
20
303.9123343154
11
253.4144820451
21
306.4123343154
0
LINE
8
13000_TOP
62
7
6
CONTINUOUS
10
253.5144820451
20
64.2387633154
11
253.5144820451
21
64.6549643154
0
LINE
8
10000_FRONT
62
7
6
CONTINUOUS
10
253.9144810451
20
300.8523343154
11
253.9144810451
21
309.3523343154
0
LINE
8
10000_FRONT
62
7
6
CONTINUOUS
10
254.3144810451
20
353.7147673154
11
254.3144810451
21
323.7147673154
0
LINE
8
10000_FRONT
62
7
6
CONTINUOUS
10
254.9144810451
20
323.6023343154
11
254.9144810451
21
356.9023343154
0
LINE
8
13000_TOP
62
7
6
CONTINUOUS
10
256.1144810451
20
111.0549643154
11
256.1144810451
21
109.4549643154
0
LINE
8
10000_FRONT
62
7
6
CONTINUOUS
10
256.4144810451
20
299.8523343154
11
256.4144810451
21
310.3523343154
0
LINE
8
10000_FRONT
62
7
6
CONTINUOUS
10
256.8144810451
20
244.3523343154
11
256.8144810451
21
239.2523343154
0
LINE
8
10000_FRONT
62
7
6
CONTINUOUS
10
256.8144810451
20
299.4523343154
11
256.8144810451
21
310.7523343154
0
LINE
8
10000_FRONT
62
7
6
CONTINUOUS
10
247.8002670451
20
358.8023343154
11
247.8034400451
21
358.8819323154
0
LINE
8
10000_FRONT
62
7
6
CONTINUOUS
10
251.4286940451
20
235.8023343154
11
251.4255210451
21
235.7227363154
0
LINE
8
10000_FRONT
62
7
6
CONTINUOUS
10
246.5944810451
20
309.2053663154
11
246.6000130451
21
309.3183233154
0
LINE
8
10000_FRONT
62
7
6
CONTINUOUS
10
248.9044810451
20
300.9993023154
11
248.8989490451
21
300.8863453154
0
LINE
8
13000_TOP
62
7
6
CONTINUOUS
10
248.9044810451
20
64.6549643154
11
248.6342630451
21
59.4989093154
0
LINE
8
10000_FRONT
62
7
6
CONTINUOUS
10
251.4255210451
20
235.7227363154
11
251.4159180451
21
235.6429913154
0
LINE
8
10000_FRONT
62
7
6
CONTINUOUS
10
251.4159180451
20
235.6429913154
11
251.3997330451
21
235.5634123154
0
LINE
8
10000_FRONT
62
7
6
CONTINUOUS
10
251.3997330451
20
235.5634123154
11
251.3765500451
21
235.4836343154
0
LINE
8
10000_FRONT
62
7
6
CONTINUOUS
10
248.2569570451
20
237.2023343154
11
248.2764780451
21
237.2604053154
0
LINE
8
10000_FRONT
62
7
6
CONTINUOUS
10
251.3765500451
20
235.4836343154
11
251.3459870451
21
235.4041203154
0
LINE
8
10000_FRONT
62
7
6
CONTINUOUS
10
248.2764780451
20
237.2604053154
11
248.3007890451
21
237.3147373154
0
LINE
8
10000_FRONT
62
7
6
CONTINUOUS
10
251.3459870451
20
235.4041203154
11
251.3074210451
21
235.3250093154
0
LINE
8
10000_FRONT
62
7
6
CONTINUOUS
10
248.3007890451
20
237.3147373154
11
248.3295440451
21
237.3645563154
0
LINE
8
10000_FRONT
62
7
6
CONTINUOUS
10
251.3074210451
20
235.3250093154
11
251.2602050451
21
235.2468263154
0
LINE
8
10000_FRONT
62
7
6
CONTINUOUS
10
248.3295440451
20
237.3645563154
11
248.3617350451
21
237.4084223154
0
LINE
8
10000_FRONT
62
7
6
CONTINUOUS
10
251.2602050451
20
235.2468263154
11
251.2037460451
21
235.1704363154
0
LINE
8
10000_FRONT
62
7
6
CONTINUOUS
10
251.2037460451
20
235.1704363154
11
251.1375160451
21
235.0969463154
0
LINE
8
10000_FRONT
62
7
6
CONTINUOUS
10
248.3617350451
20
237.4084223154
11
248.3943940451
21
237.4437683154
0
LINE
8
10000_FRONT
62
7
6
CONTINUOUS
10
251.1375160451
20
235.0969463154
11
251.0613020451
21
235.0278623154
0
LINE
8
10000_FRONT
62
7
6
CONTINUOUS
10
248.3943940451
20
237.4437683154
11
248.4250560451
21
237.4704213154
0
LINE
8
10000_FRONT
62
7
6
CONTINUOUS
10
251.0613020451
20
235.0278623154
11
250.9751880451
21
234.9648713154
0
LINE
8
10000_FRONT
62
7
6
CONTINUOUS
10
248.4250560451
20
237.4704213154
11
248.4533790451
21
237.4903453154
0
LINE
8
10000_FRONT
62
7
6
CONTINUOUS
10
250.9751880451
20
234.9648713154
11
250.8800620451
21
234.9099963154
0
LINE
8
10000_FRONT
62
7
6
CONTINUOUS
10
248.4533790451
20
237.4903453154
11
248.4801200451
21
237.5055213154
0
LINE
8
10000_FRONT
62
7
6
CONTINUOUS
10
248.4801200451
20
237.5055213154
11
248.5060700451
21
237.5171733154
0
LINE
8
10000_FRONT
62
7
6
CONTINUOUS
10
250.8800620451
20
234.9099963154
11
250.7772000451
21
234.8650273154
0
LINE
8
10000_FRONT
62
7
6
CONTINUOUS
10
248.5060700451
20
237.5171733154
11
248.5319080451
21
237.5259703154
0
LINE
8
13000_TOP
62
7
6
CONTINUOUS
10
280.1644810451
20
150.9549643154
11
261.6644810451
21
150.9549643154
0
LINE
8
13000_TOP
62
7
6
CONTINUOUS
10
242.7144810451
20
150.9549643154
11
260.1644810451
21
150.9549643154
0
LINE
8
13000_TOP
62
7
6
CONTINUOUS
10
260.1644810451
20
156.5549643154
11
242.7144810451
21
156.5549643154
0
LINE
8
13000_TOP
62
7
6
CONTINUOUS
10
261.6644810451
20
156.5549643154
11
280.1644810451
21
156.5549643154
0
LINE
8
13000_TOP
62
7
6
CONTINUOUS
10
280.1644810451
20
157.4549643154
11
261.6644810451
21
157.4549643154
0
LINE
8
13000_TOP
62
7
6
CONTINUOUS
10
242.7144810451
20
157.4549643154
11
260.1644810451
21
157.4549643154
0
LINE
8
13000_TOP
62
7
6
CONTINUOUS
10
260.1644810451
20
163.0549643154
11
242.7144810451
21
163.0549643154
0
LINE
8
13000_TOP
62
7
6
CONTINUOUS
10
261.6644810451
20
163.0549643154
11
280.1644810451
21
163.0549643154
0
LINE
8
13000_TOP
62
7
6
CONTINUOUS
10
280.1644810451
20
163.9549643154
11
261.6644810451
21
163.9549643154
0
LINE
8
13000_TOP
62
7
6
CONTINUOUS
10
260.1644810451
20
163.9549643154
11
242.7144810451
21
163.9549643154
0
LINE
8
13000_TOP
62
7
6
CONTINUOUS
10
242.7144810451
20
169.5549643154
11
260.1644810451
21
169.5549643154
0
LINE
8
13000_TOP
62
7
6
CONTINUOUS
10
261.6644810451
20
169.5549643154
11
280.1644810451
21
169.5549643154
0
LINE
8
13000_TOP
62
7
6
CONTINUOUS
10
261.6644810451
20
170.4549643154
11
280.1644810451
21
170.4549643154
0
LINE
8
13000_TOP
62
7
6
CONTINUOUS
10
259.8644810451
20
170.7549643154
11
243.0144810451
21
170.7549643154
0
LINE
8
20000_FRONT_O
62
7
6
CONTINUOUS
10
115.0813790088
20
235.9790313154
11
114.9767120088
21
236.0211443154
0
LINE
8
20000_FRONT_O
62
7
6
CONTINUOUS
10
115.1855710088
20
235.9268273154
11
115.0813790088
21
235.9790313154
0
LINE
8
20000_FRONT_O
62
7
6
CONTINUOUS
10
122.2959070088
20
264.5352933154
11
122.2653760088
21
264.5570493154
0
LINE
8
20000_FRONT_O
62
7
6
CONTINUOUS
10
149.3188910088
20
276.7440663154
11
149.3273360088
21
276.7371923154
0
LINE
8
20000_FRONT_O
62
7
6
CONTINUOUS
10
149.4221040088
20
273.6053183154
11
149.3998040088
21
273.6238683154
0
LINE
8
20000_FRONT_O
62
7
6
CONTINUOUS
10
148.6231200088
20
263.7548333154
11
148.5993170088
21
263.7748893154
0
LINE
8
20000_FRONT_O
62
7
6
CONTINUOUS
10
149.3273360088
20
276.7371923154
11
149.3350890088
21
276.7305743154
0
LINE
8
20000_FRONT_O
62
7
6
CONTINUOUS
10
149.3472910088
20
276.7197613154
11
149.3514710088
21
276.7161453154
0
LINE
8
20000_FRONT_O
62
7
6
CONTINUOUS
10
149.3350890088
20
276.7305743154
11
149.3418080088
21
276.7246473154
0
LINE
8
20000_FRONT_O
62
7
6
CONTINUOUS
10
149.3418080088
20
276.7246473154
11
149.3472910088
21
276.7197613154
0
LINE
8
20000_FRONT_O
62
7
6
CONTINUOUS
10
149.3828710088
20
280.7567523154
11
149.3749720088
21
280.7639013154
0
LINE
8
20000_FRONT_O
62
7
6
CONTINUOUS
10
116.6050030088
20
300.1110123154
11
116.5221030088
21
300.1863793154
0
LINE
8
20000_FRONT_O
62
7
6
CONTINUOUS
10
118.0787630088
20
310.0936563154
11
118.1616620088
21
310.0182893154
0
LINE
8
20000_FRONT_O
62
7
6
CONTINUOUS
10
149.2674380088
20
275.8507473154
11
149.2982100088
21
275.8225993154
0
LINE
8
20000_FRONT_O
62
7
6
CONTINUOUS
10
149.2348590088
20
276.7988503154
11
149.2377390088
21
276.7960973154
0
LINE
8
20000_FRONT_O
62
7
6
CONTINUOUS
10
149.2331240088
20
276.8028463154
11
149.2355720088
21
276.8004923154
0
LINE
8
20000_FRONT_O
62
7
6
CONTINUOUS
10
149.3893990088
20
280.7498523154
11
149.3828710088
21
280.7567523154
0
LINE
8
20000_FRONT_O
62
7
6
CONTINUOUS
10
149.3102150088
20
313.7313793154
11
149.3020770088
21
313.7404173154
0
LINE
8
20000_FRONT_O
62
7
6
CONTINUOUS
10
149.3185670088
20
313.7213653154
11
149.3102150088
21
313.7313793154
0
LINE
8
20000_FRONT_O
62
7
6
CONTINUOUS
10
118.0029170088
20
356.9908423154
11
117.9723660088
21
357.0280793154
0
LINE
8
20000_FRONT_O
62
7
6
CONTINUOUS
10
149.4105250088
20
317.7133413154
11
149.4172050088
21
317.7050573154
0
LINE
8
20000_FRONT_O
62
7
6
CONTINUOUS
10
142.1314380088
20
317.4290433154
11
142.1090660088
21
317.4568263154
0
LINE
8
20000_FRONT_O
62
7
6
CONTINUOUS
10
142.1314380088
20
337.3890433154
11
142.1090660088
21
337.4168263154
0
LINE
8
20000_FRONT_O
62
7
6
CONTINUOUS
10
149.2351540088
20
313.7980543154
11
149.2334980088
21
313.8001263154
0
LINE
8
20000_FRONT_O
62
7
6
CONTINUOUS
10
150.2732600088
20
320.6517993154
11
150.2090190088
21
320.7322263154
0
LINE
8
20000_FRONT_O
62
7
6
CONTINUOUS
10
149.2332780088
20
313.8039093154
11
149.2319990088
21
313.8055523154
0
LINE
8
20000_FRONT_O
62
7
6
CONTINUOUS
10
149.3267100088
20
313.7108133154
11
149.3185670088
21
313.7213653154
0
LINE
8
20000_FRONT_O
62
7
6
CONTINUOUS
10
116.1908170088
20
357.0011103154
11
116.1747280088
21
357.0223333154
0
LINE
8
20000_FRONT_O
62
7
6
CONTINUOUS
10
119.4947910088
20
358.2518803154
11
119.5422340088
21
358.1881563154
0
LINE
8
20000_FRONT_O
62
7
6
CONTINUOUS
10
149.4172050088
20
317.7050573154
11
149.4225610088
21
317.6976133154
0
LINE
8
20000_FRONT_O
62
7
6
CONTINUOUS
10
150.3295380088
20
330.3814783154
11
150.2630880088
21
330.4805443154
0
LINE
8
20000_FRONT_O
62
7
6
CONTINUOUS
10
142.5649710088
20
341.4519303154
11
142.6346020088
21
341.3473453154
0
LINE
8
20000_FRONT_O
62
7
6
CONTINUOUS
10
150.4989370088
20
329.7613023154
11
150.4756410088
21
329.7965783154
0
LINE
8
20000_FRONT_O
62
7
6
CONTINUOUS
10
142.6848360088
20
347.6958123154
11
142.6599940088
21
347.7345993154
0
LINE
8
10000_FRONT
62
7
6
CONTINUOUS
10
247.8292280451
20
235.5634123154
11
247.8524120451
21
235.4836343154
0
LINE
8
13000_TOP
62
7
6
CONTINUOUS
10
263.1491360451
20
109.0275733154
11
263.1396770451
21
109.0693333154
0
LINE
8
10000_FRONT
62
7
6
CONTINUOUS
10
247.8130440451
20
235.6429913154
11
247.8292280451
21
235.5634123154
0
LINE
8
13000_TOP
62
7
6
CONTINUOUS
10
263.1561340451
20
108.9880033154
11
263.1491360451
21
109.0275733154
0
LINE
8
13000_TOP
62
7
6
CONTINUOUS
10
263.1608890451
20
108.9505383154
11
263.1561340451
21
108.9880033154
0
LINE
8
10000_FRONT
62
7
6
CONTINUOUS
10
247.8034400451
20
235.7227363154
11
247.8130440451
21
235.6429913154
0
LINE
8
13000_TOP
62
7
6
CONTINUOUS
10
263.1644810451
20
108.8813513154
11
263.1636110451
21
108.9150203154
0
LINE
8
13000_TOP
62
7
6
CONTINUOUS
10
258.6644810451
20
105.5549643154
11
258.6644810451
21
108.8813513154
0
LINE
8
13000_TOP
62
7
6
CONTINUOUS
10
259.8644810451
20
170.7549643154
11
259.8644810451
21
174.6549643154
0
LINE
8
13000_TOP
62
7
6
CONTINUOUS
10
260.1644810451
20
111.9549643154
11
260.1644810451
21
117.5549643154
0
LINE
8
13000_TOP
62
7
6
CONTINUOUS
10
260.1644810451
20
118.4549643154
11
260.1644810451
21
124.0549643154
0
LINE
8
13000_TOP
62
7
6
CONTINUOUS
10
260.1644810451
20
124.9549643154
11
260.1644810451
21
130.5549643154
0
LINE
8
13000_TOP
62
7
6
CONTINUOUS
10
260.1644810451
20
131.4549643154
11
260.1644810451
21
137.0549643154
0
LINE
8
13000_TOP
62
7
6
CONTINUOUS
10
260.1644810451
20
137.9549643154
11
260.1644810451
21
143.5549643154
0
LINE
8
13000_TOP
62
7
6
CONTINUOUS
10
260.1644810451
20
144.4549643154
11
260.1644810451
21
150.0549643154
0
LINE
8
13000_TOP
62
7
6
CONTINUOUS
10
260.1644810451
20
150.9549643154
11
260.1644810451
21
156.5549643154
0
LINE
8
13000_TOP
62
7
6
CONTINUOUS
10
260.1644810451
20
157.4549643154
11
260.1644810451
21
163.0549643154
0
LINE
8
13000_TOP
62
7
6
CONTINUOUS
10
260.1644810451
20
163.9549643154
11
260.1644810451
21
169.5549643154
0
LINE
8
13000_TOP
62
7
6
CONTINUOUS
10
260.2144810451
20
78.7859703154
11
260.2144810451
21
79.2239583154
0
LINE
8
13000_TOP
62
7
6
CONTINUOUS
10
260.2144810451
20
85.2859703154
11
260.2144810451
21
85.7239583154
0
LINE
8
13000_TOP
62
7
6
CONTINUOUS
10
260.2144810451
20
91.7859703154
11
260.2144810451
21
92.2239583154
0
LINE
8
13000_TOP
62
7
6
CONTINUOUS
10
260.3315980451
20
97.7549643154
11
260.3315980451
21
92.2878473154
0
LINE
8
13000_TOP
62
7
6
CONTINUOUS
10
260.3315980451
20
91.7220813154
11
260.3315980451
21
85.7878473154
0
LINE
8
13000_TOP
62
7
6
CONTINUOUS
10
260.3315980451
20
85.2220813154
11
260.3315980451
21
79.2878473154
0
LINE
8
13000_TOP
62
7
6
CONTINUOUS
10
260.3315980451
20
78.7220813154
11
260.3315980451
21
72.7878473154
0
LINE
8
13000_TOP
62
7
6
CONTINUOUS
10
260.3942127109
20
98.2747676397
11
260.3942127109
21
97.7527625532
0
LINE
8
13000_TOP
62
7
6
CONTINUOUS
10
260.3954870451
20
104.7859703154
11
260.3954870451
21
98.7239583154
0
LINE
8
13000_TOP
62
7
6
CONTINUOUS
10
261.2144810451
20
97.7549643154
11
261.2144810451
21
71.0870153154
0
LINE
8
13000_TOP
62
7
6
CONTINUOUS
10
261.4334750451
20
98.7239583154
11
261.4334750451
21
104.7859703154
0
LINE
8
13000_TOP
62
7
6
CONTINUOUS
10
261.6144820451
20
92.2287633154
11
261.6144820451
21
97.7549643154
0
LINE
8
13000_TOP
62
7
6
CONTINUOUS
10
261.6498975419
20
150.0571732520
11
261.6498975419
21
144.4458574415
0
LINE
8
13000_TOP
62
7
6
CONTINUOUS
10
261.6644810451
20
174.9549643154
11
261.6644810451
21
170.4549643154
0
LINE
8
13000_TOP
62
7
6
CONTINUOUS
10
261.6644810451
20
163.0549643154
11
261.6644810451
21
157.4549643154
0
LINE
8
13000_TOP
62
7
6
CONTINUOUS
10
261.6644810451
20
156.5549643154
11
261.6644810451
21
150.9549643154
0
LINE
8
13000_TOP
62
7
6
CONTINUOUS
10
261.6644810451
20
143.5549643154
11
261.6644810451
21
137.9549643154
0
LINE
8
13000_TOP
62
7
6
CONTINUOUS
10
261.6644810451
20
137.0549643154
11
261.6644810451
21
131.4549643154
0
LINE
8
13000_TOP
62
7
6
CONTINUOUS
10
261.6644810451
20
130.5549643154
11
261.6644810451
21
124.9549643154
0
LINE
8
13000_TOP
62
7
6
CONTINUOUS
10
261.6644810451
20
124.0549643154
11
261.6644810451
21
118.4549643154
0
LINE
8
13000_TOP
62
7
6
CONTINUOUS
10
261.6644810451
20
117.5549643154
11
261.6644810451
21
111.9549643154
0
LINE
8
13000_TOP
62
7
6
CONTINUOUS
10
261.6644810451
20
163.9549643154
11
261.6644810451
21
169.5549643154
0
LINE
8
10000_FRONT
62
7
6
CONTINUOUS
10
261.9144810451
20
239.2523343154
11
261.9144810451
21
244.3523343154
0
LINE
8
13000_TOP
62
7
6
CONTINUOUS
10
263.1644810451
20
105.5549643154
11
263.1644810451
21
108.8813513154
0
LINE
8
13000_TOP
62
7
6
CONTINUOUS
10
265.7144810451
20
111.0549643154
11
265.7144810451
21
109.4549643154
0
LINE
8
13000_TOP
62
7
6
CONTINUOUS
10
267.9144810451
20
91.5287633154
11
267.9144810451
21
79.5549643154
0
LINE
8
13000_TOP
62
7
6
CONTINUOUS
10
268.1144820451
20
91.5287633154
11
268.1144820451
21
97.5287633154
0
LINE
8
13000_TOP
62
7
6
CONTINUOUS
10
268.6144820451
20
89.0287633154
11
268.6144820451
21
97.5287633154
0
LINE
8
13000_TOP
62
7
6
CONTINUOUS
10
269.9144810451
20
80.5549643154
11
269.9144810451
21
78.5549643154
0
LINE
8
13000_TOP
62
7
6
CONTINUOUS
10
270.2144810451
20
111.0549643154
11
270.2144810451
21
109.4549643154
0
LINE
8
13000_TOP
62
7
6
CONTINUOUS
10
271.6144820451
20
89.0287633154
11
271.6144820451
21
97.5287633154
0
LINE
8
13000_TOP
62
7
6
CONTINUOUS
10
272.1144820451
20
91.5287633154
11
272.1144820451
21
97.5287633154
0
LINE
8
13000_TOP
62
7
6
CONTINUOUS
10
278.4144820451
20
97.7549643154
11
278.4144820451
21
92.2287633154
0
LINE
8
13000_TOP
62
7
6
CONTINUOUS
10
278.8144810451
20
71.0051763154
11
278.8144810451
21
97.7549643154
0
LINE
8
13000_TOP
62
7
6
CONTINUOUS
10
258.6644810451
20
108.8813513154
11
258.6653510451
21
108.9150203154
0
LINE
8
13000_TOP
62
7
6
CONTINUOUS
10
253.2126730451
20
59.4387633154
11
253.4144820451
21
62.9387633154
0
LINE
8
13000_TOP
62
7
6
CONTINUOUS
10
258.6653510451
20
108.9150203154
11
258.6680730451
21
108.9505383154
0
LINE
8
13000_TOP
62
7
6
CONTINUOUS
10
258.6680730451
20
108.9505383154
11
258.6728280451
21
108.9880033154
0
LINE
8
13000_TOP
62
7
6
CONTINUOUS
10
258.6728280451
20
108.9880033154
11
258.6798260451
21
109.0275733154
0
LINE
8
10000_FRONT
62
7
6
CONTINUOUS
10
250.7772000451
20
234.8650273154
11
250.6669570451
21
234.8311333154
0
LINE
8
13000_TOP
62
7
6
CONTINUOUS
10
259.8644810451
20
174.6549643154
11
243.0144810451
21
174.6549643154
0
LINE
8
13000_TOP
62
7
6
CONTINUOUS
10
280.1644810451
20
174.9549643154
11
261.6644810451
21
174.9549643154
0
LINE
8
13000_TOP
62
7
6
CONTINUOUS
10
280.9144810451
20
175.6549643154
11
240.9144810451
21
175.6549643154
0
LINE
8
13000_TOP
62
7
6
CONTINUOUS
10
280.9144810451
20
176.1549643154
11
240.9144810451
21
176.1549643154
0
LINE
8
13000_TOP
62
7
6
CONTINUOUS
10
280.9144810451
20
179.5549643154
11
240.9144810451
21
179.5549643154
0
LINE
8
13000_TOP
62
7
6
CONTINUOUS
10
280.9144810451
20
181.5549643154
11
242.9144810451
21
181.5549643154
0
LINE
8
20000_FRONT_O
62
7
6
CONTINUOUS
10
132.3951290088
20
240.3356773154
11
132.2618070088
21
240.3773343154
0
LINE
8
20000_FRONT_O
62
7
6
CONTINUOUS
10
114.9767120088
20
236.0211443154
11
114.8719910088
21
236.0538873154
0
LINE
8
20000_FRONT_O
62
7
6
CONTINUOUS
10
132.4920540088
20
240.3023343154
11
132.3951290088
21
240.3356773154
0
LINE
8
20000_FRONT_O
62
7
6
CONTINUOUS
10
122.2653760088
20
264.5570493154
11
122.2340890088
21
264.5740303154
0
LINE
8
20000_FRONT_O
62
7
6
CONTINUOUS
10
149.2449000088
20
276.7909613154
11
149.2492440088
21
276.7883443154
0
LINE
8
20000_FRONT_O
62
7
6
CONTINUOUS
10
149.2786150088
20
276.7718063154
11
149.2858720088
21
276.7673833154
0
LINE
8
20000_FRONT_O
62
7
6
CONTINUOUS
10
148.6458900088
20
263.7406593154
11
148.6231200088
21
263.7548333154
0
LINE
8
20000_FRONT_O
62
7
6
CONTINUOUS
10
149.2355720088
20
276.8004923154
11
149.2385560088
21
276.7985913154
0
LINE
8
20000_FRONT_O
62
7
6
CONTINUOUS
10
149.4478060088
20
273.5889303154
11
149.4221040088
21
273.6053183154
0
LINE
8
20000_FRONT_O
62
7
6
CONTINUOUS
10
149.2858720088
20
276.7673833154
11
149.2935740088
21
276.7624333154
0
LINE
8
20000_FRONT_O
62
7
6
CONTINUOUS
10
149.2410870088
20
276.7935043154
11
149.2449000088
21
276.7909613154
0
LINE
8
20000_FRONT_O
62
7
6
CONTINUOUS
10
149.2935740088
20
276.7624333154
11
149.3017050088
21
276.7568953154
0
LINE
8
20000_FRONT_O
62
7
6
CONTINUOUS
10
149.3657840088
20
280.7711013154
11
149.3554710088
21
280.7781353154
0
LINE
8
20000_FRONT_O
62
7
6
CONTINUOUS
10
148.4586660088
20
275.9669403154
11
148.4366310088
21
275.9821103154
0
LINE
8
20000_FRONT_O
62
7
6
CONTINUOUS
10
149.2317310088
20
275.8760683154
11
149.2674380088
21
275.8507473154
0
LINE
8
20000_FRONT_O
62
7
6
CONTINUOUS
10
149.3017050088
20
276.7568953154
11
149.3102020088
21
276.7507473154
0
LINE
8
20000_FRONT_O
62
7
6
CONTINUOUS
10
116.6947280088
20
300.0442633154
11
116.6050030088
21
300.1110123154
0
LINE
8
20000_FRONT_O
62
7
6
CONTINUOUS
10
117.9890380088
20
310.1604053154
11
118.0787630088
21
310.0936563154
0
LINE
8
20000_FRONT_O
62
7
6
CONTINUOUS
10
149.3102020088
20
276.7507473154
11
149.3188910088
21
276.7440663154
0
LINE
8
20000_FRONT_O
62
7
6
CONTINUOUS
10
149.3514710088
20
276.7161453154
11
149.3543690088
21
276.7139103154
0
LINE
8
20000_FRONT_O
62
7
6
CONTINUOUS
10
149.2377390088
20
276.7960973154
11
149.2410870088
21
276.7935043154
0
LINE
8
20000_FRONT_O
62
7
6
CONTINUOUS
10
149.3749720088
20
280.7639013154
11
149.3657840088
21
280.7711013154
0
LINE
8
20000_FRONT_O
62
7
6
CONTINUOUS
10
142.0864590088
20
300.1525933154
11
142.1055840088
21
300.1373533154
0
LINE
8
20000_FRONT_O
62
7
6
CONTINUOUS
10
149.2870310088
20
313.7554403154
11
149.2801810088
21
313.7616263154
0
LINE
8
20000_FRONT_O
62
7
6
CONTINUOUS
10
149.3822600088
20
317.7418183154
11
149.3930200088
21
317.7319013154
0
LINE
8
20000_FRONT_O
62
7
6
CONTINUOUS
10
149.2347960088
20
313.8024823154
11
149.2332780088
21
313.8039093154
0
LINE
8
20000_FRONT_O
62
7
6
CONTINUOUS
10
149.2394460088
20
313.7937533154
11
149.2371230088
21
313.7959453154
0
LINE
8
20000_FRONT_O
62
7
6
CONTINUOUS
10
149.2943310088
20
313.7484093154
11
149.2870310088
21
313.7554403154
0
LINE
8
20000_FRONT_O
62
7
6
CONTINUOUS
10
149.3930200088
20
317.7319013154
11
149.4024630088
21
317.7223423154
0
LINE
8
20000_FRONT_O
62
7
6
CONTINUOUS
10
149.3020770088
20
313.7404173154
11
149.2943310088
21
313.7484093154
0
LINE
8
20000_FRONT_O
62
7
6
CONTINUOUS
10
150.2090190088
20
320.7322263154
11
150.1394720088
21
320.8043303154
0
LINE
8
20000_FRONT_O
62
7
6
CONTINUOUS
10
110.6661900088
20
357.0363723154
11
110.6235080088
21
357.0813613154
0
LINE
8
20000_FRONT_O
62
7
6
CONTINUOUS
10
149.2371230088
20
313.7959453154
11
149.2351540088
21
313.7980543154
0
LINE
8
20000_FRONT_O
62
7
6
CONTINUOUS
10
119.4410050088
20
358.3096753154
11
119.4947910088
21
358.2518803154
0
LINE
8
20000_FRONT_O
62
7
6
CONTINUOUS
10
113.4345030088
20
359.0023343154
11
113.5268160088
21
358.9026003154
0
LINE
8
10000_FRONT
62
7
6
CONTINUOUS
10
248.0252150451
20
235.1704363154
11
248.0914450451
21
235.0969463154
0
LINE
8
20000_FRONT_O
62
7
6
CONTINUOUS
10
149.4024630088
20
317.7223423154
11
149.4105250088
21
317.7133413154
0
LINE
8
20000_FRONT_O
62
7
6
CONTINUOUS
10
150.2630880088
20
330.4805443154
11
150.1915270088
21
330.5666193154
0
LINE
8
20000_FRONT_O
62
7
6
CONTINUOUS
10
142.1314380088
20
347.9090433154
11
142.1090660088
21
347.9368263154
0
LINE
8
10000_FRONT
62
7
6
CONTINUOUS
10
248.8528590451
20
237.4086083154
11
248.8805290451
21
237.3715993154
0
LINE
8
10000_FRONT
62
7
6
CONTINUOUS
10
247.9687560451
20
235.2468263154
11
248.0252150451
21
235.1704363154
0
LINE
8
10000_FRONT
62
7
6
CONTINUOUS
10
248.8805290451
20
237.3715993154
11
248.9073740451
21
237.3272713154
0
LINE
8
10000_FRONT
62
7
6
CONTINUOUS
10
247.9215400451
20
235.3250093154
11
247.9687560451
21
235.2468263154
0
LINE
8
10000_FRONT
62
7
6
CONTINUOUS
10
248.9073740451
20
237.3272713154
11
248.9215460451
21
237.2993933154
0
LINE
8
10000_FRONT
62
7
6
CONTINUOUS
10
247.8829750451
20
235.4041203154
11
247.9215400451
21
235.3250093154
0
LINE
8
10000_FRONT
62
7
6
CONTINUOUS
10
248.9215460451
20
237.2993933154
11
248.9349670451
21
237.2692203154
0
LINE
8
10000_FRONT
62
7
6
CONTINUOUS
10
247.8524120451
20
235.4836343154
11
247.8829750451
21
235.4041203154
0
LINE
8
10000_FRONT
62
7
6
CONTINUOUS
10
248.9349670451
20
237.2692203154
11
248.9473890451
21
237.2368363154
0
LINE
8
10000_FRONT
62
7
6
CONTINUOUS
10
248.9473890451
20
237.2368363154
11
248.9585640451
21
237.2023343154
0
LINE
8
10000_FRONT
62
7
6
CONTINUOUS
10
246.6439210451
20
300.6649053154
11
246.6165490451
21
300.7745183154
0
LINE
8
10000_FRONT
62
7
6
CONTINUOUS
10
248.8550410451
20
309.5397633154
11
248.8824120451
21
309.4301503154
0
LINE
8
10000_FRONT
62
7
6
CONTINUOUS
10
246.6165490451
20
300.7745183154
11
246.6000130451
21
300.8863453154
0
LINE
8
10000_FRONT
62
7
6
CONTINUOUS
10
248.8824120451
20
309.4301503154
11
248.8989490451
21
309.3183233154
0
LINE
8
10000_FRONT
62
7
6
CONTINUOUS
10
251.4255210451
20
358.8819323154
11
251.4159180451
21
358.9616773154
0
LINE
8
13000_TOP
62
7
6
CONTINUOUS
10
279.3454870451
20
104.7859703154
11
279.3454870451
21
98.7239583154
0
LINE
8
13000_TOP
62
7
6
CONTINUOUS
10
279.9144810451
20
71.5549643154
11
279.9144810451
21
105.2549643154
0
LINE
8
10000_FRONT
62
7
6
CONTINUOUS
10
279.9144810451
20
234.8023343154
11
279.9144810451
21
234.8075753154
0
LINE
8
10000_FRONT
62
7
6
CONTINUOUS
10
279.9144810451
20
359.7970933154
11
279.9144810451
21
359.8023343154
0
LINE
8
13000_TOP
62
7
6
CONTINUOUS
10
280.1644810451
20
111.9549643154
11
280.1644810451
21
117.5549643154
0
LINE
8
13000_TOP
62
7
6
CONTINUOUS
10
280.1644810451
20
118.4549643154
11
280.1644810451
21
124.0549643154
0
LINE
8
13000_TOP
62
7
6
CONTINUOUS
10
280.1644810451
20
124.9549643154
11
280.1644810451
21
130.5549643154
0
LINE
8
13000_TOP
62
7
6
CONTINUOUS
10
280.1644810451
20
131.4549643154
11
280.1644810451
21
137.0549643154
0
LINE
8
13000_TOP
62
7
6
CONTINUOUS
10
280.1644810451
20
137.9549643154
11
280.1644810451
21
143.5549643154
0
LINE
8
13000_TOP
62
7
6
CONTINUOUS
10
280.1644810451
20
144.4549643154
11
280.1644810451
21
150.0549643154
0
LINE
8
13000_TOP
62
7
6
CONTINUOUS
10
280.1644810451
20
150.9549643154
11
280.1644810451
21
156.5549643154
0
LINE
8
13000_TOP
62
7
6
CONTINUOUS
10
280.1644810451
20
157.4549643154
11
280.1644810451
21
163.0549643154
0
LINE
8
13000_TOP
62
7
6
CONTINUOUS
10
280.1644810451
20
163.9549643154
11
280.1644810451
21
169.5549643154
0
LINE
8
13000_TOP
62
7
6
CONTINUOUS
10
280.1644810451
20
170.4549643154
11
280.1644810451
21
174.9549643154
0
LINE
8
13000_TOP
62
7
6
CONTINUOUS
10
280.8144810451
20
65.6549643154
11
280.8144810451
21
71.5549643154
0
LINE
8
13000_TOP
62
7
6
CONTINUOUS
10
280.9144810451
20
71.5549643154
11
280.9144810451
21
181.5549643154
0
LINE
8
10000_FRONT
62
7
6
CONTINUOUS
10
280.9144810451
20
234.8023343154
11
280.9144810451
21
359.8023343154
0
LINE
8
13000_TOP
62
7
6
CONTINUOUS
10
258.6798260451
20
109.0275733154
11
258.6892840451
21
109.0693333154
0
LINE
8
13000_TOP
62
7
6
CONTINUOUS
10
258.6892840451
20
109.0693333154
11
258.7014990451
21
109.1136083154
0
LINE
8
13000_TOP
62
7
6
CONTINUOUS
10
258.7014990451
20
109.1136083154
11
258.7169570451
21
109.1611293154
0
LINE
8
13000_TOP
62
7
6
CONTINUOUS
10
258.7169570451
20
109.1611293154
11
258.7362470451
21
109.2125863154
0
LINE
8
20000_FRONT_O
62
7
6
CONTINUOUS
10
114.7674310088
20
236.0778763154
11
114.6630940088
21
236.0935923154
0
LINE
8
20000_FRONT_O
62
7
6
CONTINUOUS
10
114.8719910088
20
236.0538873154
11
114.7674310088
21
236.0778763154
0
LINE
8
20000_FRONT_O
62
7
6
CONTINUOUS
10
122.2340890088
20
264.5740303154
11
122.2023830088
21
264.5867283154
0
LINE
8
20000_FRONT_O
62
7
6
CONTINUOUS
10
148.6674570088
20
263.7314933154
11
148.6458900088
21
263.7406593154
0
LINE
8
20000_FRONT_O
62
7
6
CONTINUOUS
10
149.1488510088
20
275.9173963154
11
149.1919340088
21
275.8983283154
0
LINE
8
20000_FRONT_O
62
7
6
CONTINUOUS
10
148.4856690088
20
275.9542463154
11
148.4586660088
21
275.9669403154
0
LINE
8
20000_FRONT_O
62
7
6
CONTINUOUS
10
149.4763180088
20
273.5748243154
11
149.4478060088
21
273.5889303154
0
LINE
8
20000_FRONT_O
62
7
6
CONTINUOUS
10
149.3568140088
20
280.8900153154
11
149.3560890088
21
280.8903773154
0
LINE
8
20000_FRONT_O
62
7
6
CONTINUOUS
10
149.3543690088
20
276.7139103154
11
149.3560900088
21
276.7130373154
0
LINE
8
20000_FRONT_O
62
7
6
CONTINUOUS
10
149.3443350088
20
280.7847493154
11
149.3328240088
21
280.7906833154
0
LINE
8
20000_FRONT_O
62
7
6
CONTINUOUS
10
149.2541660088
20
276.7855583154
11
149.2654890088
21
276.7793233154
0
LINE
8
20000_FRONT_O
62
7
6
CONTINUOUS
10
149.1919340088
20
275.8983283154
11
149.2317310088
21
275.8760683154
0
LINE
8
20000_FRONT_O
62
7
6
CONTINUOUS
10
149.2654890088
20
276.7793233154
11
149.2718190088
21
276.7757643154
0
LINE
8
20000_FRONT_O
62
7
6
CONTINUOUS
10
149.2492440088
20
276.7883443154
11
149.2541660088
21
276.7855583154
0
LINE
8
10000_FRONT
62
7
6
CONTINUOUS
10
248.2537730451
20
234.9648713154
11
248.3488990451
21
234.9099963154
0
LINE
8
20000_FRONT_O
62
7
6
CONTINUOUS
10
149.2718190088
20
276.7757643154
11
149.2786150088
21
276.7718063154
0
LINE
8
20000_FRONT_O
62
7
6
CONTINUOUS
10
149.3554710088
20
280.7781353154
11
149.3443350088
21
280.7847493154
0
LINE
8
20000_FRONT_O
62
7
6
CONTINUOUS
10
142.6346020088
20
300.3473453154
11
142.6513440088
21
300.3373743154
0
LINE
8
20000_FRONT_O
62
7
6
CONTINUOUS
10
116.7904430088
20
299.9867183154
11
116.6947280088
21
300.0442633154
0
LINE
8
20000_FRONT_O
62
7
6
CONTINUOUS
10
117.8933220088
20
310.2179503154
11
117.9890380088
21
310.1604053154
0
LINE
8
10000_FRONT
62
7
6
CONTINUOUS
10
248.7438210451
20
237.5006803154
11
248.7710910451
21
237.4839743154
0
LINE
8
20000_FRONT_O
62
7
6
CONTINUOUS
10
149.2366000088
20
313.8012433154
11
149.2347960088
21
313.8024823154
0
LINE
8
10000_FRONT
62
7
6
CONTINUOUS
10
248.1676590451
20
235.0278623154
11
248.2537730451
21
234.9648713154
0
LINE
8
20000_FRONT_O
62
7
6
CONTINUOUS
10
149.2574310088
20
313.7798533154
11
149.2488440088
21
313.7862283154
0
LINE
8
20000_FRONT_O
62
7
6
CONTINUOUS
10
149.2624210088
20
313.7760953154
11
149.2574310088
21
313.7798533154
0
LINE
8
10000_FRONT
62
7
6
CONTINUOUS
10
248.7710910451
20
237.4839743154
11
248.8002670451
21
237.4618653154
0
LINE
8
20000_FRONT_O
62
7
6
CONTINUOUS
10
149.2488440088
20
313.7862283154
11
149.2452740088
21
313.7889473154
0
LINE
8
20000_FRONT_O
62
7
6
CONTINUOUS
10
149.3575320088
20
317.7616133154
11
149.3703150088
21
317.7518483154
0
LINE
8
20000_FRONT_O
62
7
6
CONTINUOUS
10
149.2678670088
20
313.7718673154
11
149.2624210088
21
313.7760953154
0
LINE
8
20000_FRONT_O
62
7
6
CONTINUOUS
10
142.0864590088
20
310.6725933154
11
142.1055840088
21
310.6573533154
0
LINE
8
20000_FRONT_O
62
7
6
CONTINUOUS
10
142.0864590088
20
330.6325933154
11
142.1055840088
21
330.6173533154
0
LINE
8
20000_FRONT_O
62
7
6
CONTINUOUS
10
149.2452740088
20
313.7889473154
11
149.2421530088
21
313.7914353154
0
LINE
8
20000_FRONT_O
62
7
6
CONTINUOUS
10
150.1167440088
20
330.6400933154
11
150.0402700088
21
330.7017123154
0
LINE
8
20000_FRONT_O
62
7
6
CONTINUOUS
10
149.2737860088
20
313.7670753154
11
149.2678670088
21
313.7718673154
0
LINE
8
20000_FRONT_O
62
7
6
CONTINUOUS
10
110.7118630088
20
356.9986473154
11
110.6661900088
21
357.0363723154
0
LINE
8
20000_FRONT_O
62
7
6
CONTINUOUS
10
149.3703150088
20
317.7518483154
11
149.3822600088
21
317.7418183154
0
LINE
8
20000_FRONT_O
62
7
6
CONTINUOUS
10
149.2801810088
20
313.7616263154
11
149.2737860088
21
313.7670753154
0
LINE
8
20000_FRONT_O
62
7
6
CONTINUOUS
10
149.2421530088
20
313.7914353154
11
149.2394460088
21
313.7937533154
0
LINE
8
20000_FRONT_O
62
7
6
CONTINUOUS
10
150.1394720088
20
320.8043303154
11
150.0652750088
21
320.8679433154
0
LINE
8
20000_FRONT_O
62
7
6
CONTINUOUS
10
119.3816550088
20
358.3608203154
11
119.4410050088
21
358.3096753154
0
LINE
8
20000_FRONT_O
62
7
6
CONTINUOUS
10
113.5268160088
20
358.9026003154
11
113.6242590088
21
358.8156073154
0
LINE
8
20000_FRONT_O
62
7
6
CONTINUOUS
10
150.4756410088
20
329.7965783154
11
150.4382870088
21
329.8300583154
0
LINE
8
10000_FRONT
62
7
6
CONTINUOUS
10
248.0914450451
20
235.0969463154
11
248.1676590451
21
235.0278623154
0
LINE
8
10000_FRONT
62
7
6
CONTINUOUS
10
248.8002670451
20
237.4618653154
11
248.8259180451
21
237.4382943154
0
LINE
8
20000_FRONT_O
62
7
6
CONTINUOUS
10
118.0361300088
20
356.9596063154
11
118.0029170088
21
356.9908423154
0
LINE
8
20000_FRONT_O
62
7
6
CONTINUOUS
10
148.4219580088
20
330.0929863154
11
148.4376090088
21
330.0782243154
0
LINE
8
20000_FRONT_O
62
7
6
CONTINUOUS
10
116.2111600088
20
356.9818353154
11
116.1908170088
21
357.0011103154
0
LINE
8
20000_FRONT_O
62
7
6
CONTINUOUS
10
150.1915270088
20
330.5666193154
11
150.1167440088
21
330.6400933154
0
LINE
8
10000_FRONT
62
7
6
CONTINUOUS
10
248.8259180451
20
237.4382943154
11
248.8528590451
21
237.4086083154
0
LINE
8
10000_FRONT
62
7
6
CONTINUOUS
10
246.7299170451
20
300.4566363154
11
246.6818360451
21
300.5586113154
0
LINE
8
10000_FRONT
62
7
6
CONTINUOUS
10
248.7690440451
20
309.7480323154
11
248.8171260451
21
309.6460573154
0
LINE
8
10000_FRONT
62
7
6
CONTINUOUS
10
246.6818360451
20
300.5586113154
11
246.6439210451
21
300.6649053154
0
LINE
8
10000_FRONT
62
7
6
CONTINUOUS
10
248.8171260451
20
309.6460573154
11
248.8550410451
21
309.5397633154
0
LINE
8
10000_FRONT
62
7
6
CONTINUOUS
10
248.2764780451
20
357.3442633154
11
248.2569570451
21
357.4023343154
0
LINE
8
10000_FRONT
62
7
6
CONTINUOUS
10
251.3997330451
20
359.0412563154
11
251.3765500451
21
359.1210343154
0
LINE
8
10000_FRONT
62
7
6
CONTINUOUS
10
251.4159180451
20
358.9616773154
11
251.3997330451
21
359.0412563154
0
LINE
8
13000_TOP
62
7
6
CONTINUOUS
10
277.8144810451
20
67.3549643154
11
278.7412690451
21
70.8137833154
0
LINE
8
13000_TOP
62
7
6
CONTINUOUS
10
258.7362470451
20
109.2125863154
11
258.7600120451
21
109.2685973154
0
LINE
8
13000_TOP
62
7
6
CONTINUOUS
10
258.7600120451
20
109.2685973154
11
258.7889340451
21
109.3297813154
0
LINE
8
13000_TOP
62
7
6
CONTINUOUS
10
258.7889340451
20
109.3297813154
11
258.8235720451
21
109.3965903154
0
LINE
8
13000_TOP
62
7
6
CONTINUOUS
10
258.8235720451
20
109.3965903154
11
258.8643110451
21
109.4694693154
0
LINE
8
13000_TOP
62
7
6
CONTINUOUS
10
258.8643110451
20
109.4694693154
11
258.9113390451
21
109.5490803154
0
LINE
8
13000_TOP
62
7
6
CONTINUOUS
10
258.9113390451
20
109.5490803154
11
258.9644810451
21
109.6363353154
0
LINE
8
11000_LEFT
62
7
6
CONTINUOUS
10
392.5845690451
20
253.7113073154
11
395.9845690451
21
254.6223343154
0
LINE
8
11000_LEFT
62
7
6
CONTINUOUS
10
404.9845690451
20
260.5784993154
11
410.9316170451
21
262.1720063154
0
LINE
8
20000_FRONT_O
62
7
6
CONTINUOUS
10
119.6650120088
20
236.7900353154
11
119.4652860088
21
236.8005023154
0
LINE
8
10000_FRONT
62
7
6
CONTINUOUS
10
248.6786880451
20
234.8097523154
11
248.8002670451
21
234.8023343154
0
LINE
8
20000_FRONT_O
62
7
6
CONTINUOUS
10
114.6630940088
20
236.0935923154
11
114.5589320088
21
236.1013663154
0
LINE
8
10000_FRONT
62
7
6
CONTINUOUS
10
248.6392140451
20
237.5348353154
11
248.6658420451
21
237.5302993154
0
LINE
8
10000_FRONT
62
7
6
CONTINUOUS
10
248.5620050451
20
234.8311333154
11
248.6786880451
21
234.8097523154
0
LINE
8
20000_FRONT_O
62
7
6
CONTINUOUS
10
138.2568840088
20
266.2973343154
11
138.0068840088
21
266.3556673154
0
LINE
8
20000_FRONT_O
62
7
6
CONTINUOUS
10
148.6877730088
20
263.7265083154
11
148.6674570088
21
263.7314933154
0
LINE
8
10000_FRONT
62
7
6
CONTINUOUS
10
248.6658420451
20
237.5302993154
11
248.6919030451
21
237.5231933154
0
LINE
8
20000_FRONT_O
62
7
6
CONTINUOUS
10
149.5362060088
20
273.5550663154
11
149.5068830088
21
273.5631433154
0
LINE
8
20000_FRONT_O
62
7
6
CONTINUOUS
10
122.2023830088
20
264.5867283154
11
122.1706530088
21
264.5954783154
0
LINE
8
10000_FRONT
62
7
6
CONTINUOUS
10
248.4517620451
20
234.8650273154
11
248.5620050451
21
234.8311333154
0
LINE
8
20000_FRONT_O
62
7
6
CONTINUOUS
10
148.5166940088
20
275.9444463154
11
148.4856690088
21
275.9542463154
0
LINE
8
20000_FRONT_O
62
7
6
CONTINUOUS
10
149.3107260088
20
280.7998093154
11
149.3007670088
21
280.8029993154
0
LINE
8
20000_FRONT_O
62
7
6
CONTINUOUS
10
149.1032110088
20
275.9332193154
11
149.1488510088
21
275.9173963154
0
LINE
8
10000_FRONT
62
7
6
CONTINUOUS
10
248.6919030451
20
237.5231933154
11
248.7177140451
21
237.5134453154
0
LINE
8
20000_FRONT_O
62
7
6
CONTINUOUS
10
149.3214590088
20
280.7957343154
11
149.3107260088
21
280.7998093154
0
LINE
8
20000_FRONT_O
62
7
6
CONTINUOUS
10
149.5068830088
20
273.5631433154
11
149.4763180088
21
273.5748243154
0
LINE
8
20000_FRONT_O
62
7
6
CONTINUOUS
10
149.2385560088
20
276.7985913154
11
149.2420350088
21
276.7971033154
0
LINE
8
10000_FRONT
62
7
6
CONTINUOUS
10
248.3488990451
20
234.9099963154
11
248.4517620451
21
234.8650273154
0
LINE
8
20000_FRONT_O
62
7
6
CONTINUOUS
10
149.3328240088
20
280.7906833154
11
149.3214590088
21
280.7957343154
0
LINE
8
20000_FRONT_O
62
7
6
CONTINUOUS
10
116.8911890088
20
299.9389233154
11
116.7904430088
21
299.9867183154
0
LINE
8
20000_FRONT_O
62
7
6
CONTINUOUS
10
117.7925760088
20
310.2657453154
11
117.8933220088
21
310.2179503154
0
LINE
8
10000_FRONT
62
7
6
CONTINUOUS
10
248.7177140451
20
237.5134453154
11
248.7438210451
21
237.5006803154
0
LINE
8
20000_FRONT_O
62
7
6
CONTINUOUS
10
142.1177890088
20
301.4311253154
11
142.1055560088
21
301.4372643154
0
LINE
8
20000_FRONT_O
62
7
6
CONTINUOUS
10
142.1177890088
20
311.9511253154
11
142.1055560088
21
311.9572643154
0
LINE
8
20000_FRONT_O
62
7
6
CONTINUOUS
10
149.3197220088
20
317.7853583154
11
149.3316530088
21
317.7786663154
0
LINE
8
20000_FRONT_O
62
7
6
CONTINUOUS
10
142.6346020088
20
310.8673453154
11
142.6513440088
21
310.8573743154
0
LINE
8
20000_FRONT_O
62
7
6
CONTINUOUS
10
149.3316530088
20
317.7786663154
11
149.3444440088
21
317.7706763154
0
LINE
8
20000_FRONT_O
62
7
6
CONTINUOUS
10
110.7593290088
20
356.9679183154
11
110.7118630088
21
356.9986473154
0
LINE
8
20000_FRONT_O
62
7
6
CONTINUOUS
10
150.0402700088
20
330.7017123154
11
149.9630980088
21
330.7525173154
0
LINE
8
20000_FRONT_O
62
7
6
CONTINUOUS
10
148.4376090088
20
330.0782243154
11
148.4566810088
21
330.0654183154
0
LINE
8
20000_FRONT_O
62
7
6
CONTINUOUS
10
119.3176300088
20
358.4046993154
11
119.3816550088
21
358.3608203154
0
LINE
8
20000_FRONT_O
62
7
6
CONTINUOUS
10
149.3444440088
20
317.7706763154
11
149.3575320088
21
317.7616133154
0
LINE
8
20000_FRONT_O
62
7
6
CONTINUOUS
10
118.0715220088
20
356.9348263154
11
118.0361300088
21
356.9596063154
0
LINE
8
20000_FRONT_O
62
7
6
CONTINUOUS
10
150.0652750088
20
320.8679433154
11
149.9875060088
21
320.9226183154
0
LINE
8
20000_FRONT_O
62
7
6
CONTINUOUS
10
116.2363440088
20
356.9641143154
11
116.2111600088
21
356.9818353154
0
LINE
8
20000_FRONT_O
62
7
6
CONTINUOUS
10
113.6242590088
20
358.8156073154
11
113.7251590088
21
358.7409093154
0
LINE
8
20000_FRONT_O
62
7
6
CONTINUOUS
10
119.2757650088
20
357.4377353154
11
119.3226850088
21
357.4023343154
0
LINE
8
20000_FRONT_O
62
7
6
CONTINUOUS
10
142.0864590088
20
341.1525933154
11
142.1055840088
21
341.1373533154
0
LINE
8
20000_FRONT_O
62
7
6
CONTINUOUS
10
149.4068830088
20
358.8023343154
11
149.3405730088
21
358.8624903154
0
LINE
8
10000_FRONT
62
7
6
CONTINUOUS
10
246.9297010451
20
300.1863793154
11
246.8544810451
21
300.2696273154
0
LINE
8
10000_FRONT
62
7
6
CONTINUOUS
10
246.8544810451
20
300.2696273154
11
246.7876510451
21
300.3600153154
0
LINE
8
10000_FRONT
62
7
6
CONTINUOUS
10
248.6444800451
20
309.9350413154
11
248.7113100451
21
309.8446533154
0
LINE
8
10000_FRONT
62
7
6
CONTINUOUS
10
246.7876510451
20
300.3600153154
11
246.7299170451
21
300.4566363154
0
LINE
8
10000_FRONT
62
7
6
CONTINUOUS
10
248.7113100451
20
309.8446533154
11
248.7690440451
21
309.7480323154
0
LINE
8
10000_FRONT
62
7
6
CONTINUOUS
10
248.3007890451
20
357.2899313154
11
248.2764780451
21
357.3442633154
0
LINE
8
10000_FRONT
62
7
6
CONTINUOUS
10
251.3765500451
20
359.1210343154
11
251.3459870451
21
359.2005483154
0
LINE
8
11000_LEFT
62
7
6
CONTINUOUS
10
398.1555530451
20
336.7023343154
11
400.8979670451
21
341.4523343154
0
LINE
8
11000_LEFT
62
7
6
CONTINUOUS
10
397.4845690451
20
258.9185713154
11
398.5845690451
21
260.0185713154
0
LINE
8
10000_FRONT
62
7
6
CONTINUOUS
10
248.5319080451
20
237.5259703154
11
248.5581600451
21
237.5321833154
0
LINE
8
10000_FRONT
62
7
6
CONTINUOUS
10
250.6669570451
20
234.8311333154
11
250.5502740451
21
234.8097523154
0
LINE
8
10000_FRONT
62
7
6
CONTINUOUS
10
248.5581600451
20
237.5321833154
11
248.5849490451
21
237.5357933154
0
LINE
8
11000_LEFT
62
7
6
CONTINUOUS
10
398.5845690451
20
260.0185713154
11
404.9845690451
21
260.5784993154
0
LINE
8
20000_FRONT_O
62
7
6
CONTINUOUS
10
114.4548350088
20
236.1013663154
11
114.3506730088
21
236.0935923154
0
LINE
8
10000_FRONT
62
7
6
CONTINUOUS
10
250.5502740451
20
234.8097523154
11
250.4286940451
21
234.8023343154
0
LINE
8
20000_FRONT_O
62
7
6
CONTINUOUS
10
119.0047240088
20
237.0843083154
11
119.0615290088
21
237.0876653154
0
LINE
8
20000_FRONT_O
62
7
6
CONTINUOUS
10
118.9632530088
20
236.2929763154
11
119.0147990088
21
236.2958953154
0
LINE
8
20000_FRONT_O
62
7
6
CONTINUOUS
10
118.9632530088
20
236.1002503154
11
119.0354060088
21
236.1041173154
0
LINE
8
20000_FRONT_O
62
7
6
CONTINUOUS
10
111.0068830088
20
237.7023343154
11
110.9567170088
21
237.6998113154
0
LINE
8
10000_FRONT
62
7
6
CONTINUOUS
10
248.5849490451
20
237.5357933154
11
248.6121450451
21
237.5366923154
0
LINE
8
20000_FRONT_O
62
7
6
CONTINUOUS
10
116.5372680088
20
237.7023343154
11
116.4660020088
21
237.7000683154
0
LINE
8
11000_LEFT
62
7
6
CONTINUOUS
10
508.4845690451
20
234.8023343154
11
503.3845690451
21
234.8023343154
0
LINE
8
11000_LEFT
62
7
6
CONTINUOUS
10
502.8845690451
20
234.8023343154
11
468.8845690451
21
234.8023343154
0
LINE
8
20000_FRONT_O
62
7
6
CONTINUOUS
10
110.5068830088
20
234.8023343154
11
150.5068830088
21
234.8023343154
0
LINE
8
10000_FRONT
62
7
6
CONTINUOUS
10
240.9144810451
20
234.8023343154
11
280.9144810451
21
234.8023343154
0
LINE
8
11000_LEFT
62
7
6
CONTINUOUS
10
404.2845690451
20
234.8023343154
11
468.5845690451
21
234.8023343154
0
LINE
8
20000_FRONT_O
62
7
6
CONTINUOUS
10
110.7927400088
20
235.1023343154
11
119.9068830088
21
235.1023343154
0
LINE
8
20000_FRONT_O
62
7
6
CONTINUOUS
10
150.5068830088
20
235.2023343154
11
150.3060090088
21
235.2023343154
0
LINE
8
20000_FRONT_O
62
7
6
CONTINUOUS
10
113.1068830088
20
235.6023343154
11
115.9068830088
21
235.6023343154
0
LINE
8
20000_FRONT_O
62
7
6
CONTINUOUS
10
120.9068830088
20
235.8023343154
11
137.5068830088
21
235.8023343154
0
LINE
8
20000_FRONT_O
62
7
6
CONTINUOUS
10
118.9632530088
20
236.1002503154
11
115.9068830088
21
236.1002503154
0
LINE
8
20000_FRONT_O
62
7
6
CONTINUOUS
10
114.5589320088
20
236.1013663154
11
114.4548350088
21
236.1013663154
0
LINE
8
20000_FRONT_O
62
7
6
CONTINUOUS
10
118.9632530088
20
236.2929763154
11
115.9068830088
21
236.2929763154
0
LINE
8
20000_FRONT_O
62
7
6
CONTINUOUS
10
119.0047240088
20
237.0843083154
11
115.9068830088
21
237.0843083154
0
LINE
8
20000_FRONT_O
62
7
6
CONTINUOUS
10
110.5068830088
20
237.2023343154
11
121.9068830088
21
237.2023343154
0
LINE
8
10000_FRONT
62
7
6
CONTINUOUS
10
240.9144810451
20
237.2023343154
11
248.2569570451
21
237.2023343154
0
LINE
8
10000_FRONT
62
7
6
CONTINUOUS
10
248.9585640451
20
237.2023343154
11
254.4644810451
21
237.2023343154
0
LINE
8
11000_LEFT
62
7
6
CONTINUOUS
10
502.3845690451
20
237.2023343154
11
509.4845690451
21
237.2023343154
0
LINE
8
20000_FRONT_O
62
7
6
CONTINUOUS
10
111.0068830088
20
237.7023343154
11
120.9068830088
21
237.7023343154
0
LINE
8
10000_FRONT
62
7
6
CONTINUOUS
10
251.7144810451
20
238.1023343154
11
254.4644810451
21
238.1023343154
0
LINE
8
20000_FRONT_O
62
7
6
CONTINUOUS
10
138.5068830088
20
238.3023343154
11
134.5068830088
21
238.3023343154
0
LINE
8
10000_FRONT
62
7
6
CONTINUOUS
10
256.8144810451
20
239.2523343154
11
261.9144810451
21
239.2523343154
0
LINE
8
20000_FRONT_O
62
7
6
CONTINUOUS
10
133.5068830088
20
239.3023343154
11
139.5068830088
21
239.3023343154
0
LINE
8
20000_FRONT_O
62
7
6
CONTINUOUS
10
139.5068830088
20
239.5023343154
11
148.4068830088
21
239.5023343154
0
LINE
8
20000_FRONT_O
62
7
6
CONTINUOUS
10
147.7068840088
20
239.6623343154
11
148.1068840088
21
239.6623343154
0
LINE
8
20000_FRONT_O
62
7
6
CONTINUOUS
10
147.2684220088
20
239.8623343154
11
147.6166470088
21
239.8623343154
0
LINE
8
20000_FRONT_O
62
7
6
CONTINUOUS
10
139.5068830088
20
240.1523343154
11
142.4063360088
21
240.1523343154
0
LINE
8
20000_FRONT_O
62
7
6
CONTINUOUS
10
144.4068830088
20
240.1523343154
11
147.4068830088
21
240.1523343154
0
LINE
8
20000_FRONT_O
62
7
6
CONTINUOUS
10
122.4068830088
20
240.3023343154
11
133.5068830088
21
240.3023343154
0
LINE
8
20000_FRONT_O
62
7
6
CONTINUOUS
10
129.0068840088
20
240.3773343154
11
133.5068830088
21
240.3773343154
0
LINE
8
20000_FRONT_O
62
7
6
CONTINUOUS
10
139.5068830088
20
240.3773343154
11
142.4068840088
21
240.3773343154
0
LINE
8
20000_FRONT_O
62
7
6
CONTINUOUS
10
144.0068840088
20
240.3773343154
11
148.0068840088
21
240.3773343154
0
LINE
8
20000_FRONT_O
62
7
6
CONTINUOUS
10
133.5068830088
20
240.8923343154
11
122.4068830088
21
240.8923343154
0
LINE
8
20000_FRONT_O
62
7
6
CONTINUOUS
10
122.4068830088
20
243.9923343154
11
125.4068840088
21
243.9923343154
0
LINE
8
10000_FRONT
62
7
6
CONTINUOUS
10
261.9144810451
20
244.3523343154
11
256.8144810451
21
244.3523343154
0
LINE
8
20000_FRONT_O
62
7
6
CONTINUOUS
10
125.4068840088
20
247.7923343154
11
122.4068830088
21
247.7923343154
0
LINE
8
20000_FRONT_O
62
7
6
CONTINUOUS
10
122.4068830088
20
248.9923343154
11
125.4068840088
21
248.9923343154
0
LINE
8
11000_LEFT
62
7
6
CONTINUOUS
10
392.5845690451
20
252.6023343154
11
402.9845690451
21
252.6023343154
0
LINE
8
20000_FRONT_O
62
7
6
CONTINUOUS
10
125.4068840088
20
252.7923343154
11
122.4068830088
21
252.7923343154
0
LINE
8
20000_FRONT_O
62
7
6
CONTINUOUS
10
122.4068830088
20
253.9923343154
11
125.4068840088
21
253.9923343154
0
LINE
8
10000_FRONT
62
7
6
CONTINUOUS
10
248.6121450451
20
237.5366923154
11
248.6392140451
21
237.5348353154
0
LINE
8
20000_FRONT_O
62
7
6
CONTINUOUS
10
148.7068830088
20
263.7249843154
11
148.6877730088
21
263.7265083154
0
LINE
8
20000_FRONT_O
62
7
6
CONTINUOUS
10
122.1706530088
20
264.5954783154
11
122.1387630088
21
264.6006353154
0
LINE
8
20000_FRONT_O
62
7
6
CONTINUOUS
10
149.5658850088
20
273.5501103154
11
149.5362060088
21
273.5550663154
0
LINE
8
20000_FRONT_O
62
7
6
CONTINUOUS
10
149.2460190088
20
276.7959763154
11
149.2505920088
21
276.7951753154
0
LINE
8
20000_FRONT_O
62
7
6
CONTINUOUS
10
149.0067150088
20
275.9551703154
11
149.0556510088
21
275.9458003154
0
LINE
8
20000_FRONT_O
62
7
6
CONTINUOUS
10
148.5511230088
20
275.9377453154
11
148.5166940088
21
275.9444463154
0
LINE
8
20000_FRONT_O
62
7
6
CONTINUOUS
10
149.2915830088
20
280.8054303154
11
149.2831330088
21
280.8072163154
0
LINE
8
20000_FRONT_O
62
7
6
CONTINUOUS
10
117.1039660088
20
299.8741763154
11
116.9960380088
21
299.9012933154
0
LINE
8
20000_FRONT_O
62
7
6
CONTINUOUS
10
149.0556510088
20
275.9458003154
11
149.1032110088
21
275.9332193154
0
LINE
8
20000_FRONT_O
62
7
6
CONTINUOUS
10
149.3007670088
20
280.8029993154
11
149.2915830088
21
280.8054303154
0
LINE
8
20000_FRONT_O
62
7
6
CONTINUOUS
10
149.2420350088
20
276.7971033154
11
149.2460190088
21
276.7959763154
0
LINE
8
20000_FRONT_O
62
7
6
CONTINUOUS
10
116.9960380088
20
299.9012933154
11
116.8911890088
21
299.9389233154
0
LINE
8
20000_FRONT_O
62
7
6
CONTINUOUS
10
117.6877270088
20
310.3033753154
11
117.7925760088
21
310.2657453154
0
LINE
8
20000_FRONT_O
62
7
6
CONTINUOUS
10
142.0950930088
20
305.6418793154
11
142.1055560088
21
305.6374043154
0
LINE
8
20000_FRONT_O
62
7
6
CONTINUOUS
10
142.0950930088
20
316.1618793154
11
142.1055560088
21
316.1574043154
0
LINE
8
20000_FRONT_O
62
7
6
CONTINUOUS
10
149.2988860088
20
317.7952433154
11
149.3088100088
21
317.7908283154
0
LINE
8
20000_FRONT_O
62
7
6
CONTINUOUS
10
149.9072890088
20
320.9681253154
11
149.8252130088
21
321.0046623154
0
LINE
8
20000_FRONT_O
62
7
6
CONTINUOUS
10
149.2387470088
20
313.8001853154
11
149.2366000088
21
313.8012433154
0
LINE
8
20000_FRONT_O
62
7
6
CONTINUOUS
10
149.3088100088
20
317.7908283154
11
149.3197220088
21
317.7853583154
0
LINE
8
20000_FRONT_O
62
7
6
CONTINUOUS
10
142.1177890088
20
331.9111253154
11
142.1055560088
21
331.9172643154
0
LINE
8
20000_FRONT_O
62
7
6
CONTINUOUS
10
148.4566810088
20
330.0654183154
11
148.4781870088
21
330.0543973154
0
LINE
8
20000_FRONT_O
62
7
6
CONTINUOUS
10
149.9630980088
20
330.7525173154
11
149.8857050088
21
330.7936243154
0
LINE
8
20000_FRONT_O
62
7
6
CONTINUOUS
10
149.9875060088
20
320.9226183154
11
149.9072890088
21
320.9681253154
0
LINE
8
20000_FRONT_O
62
7
6
CONTINUOUS
10
139.5068840088
20
343.8855833154
11
137.0068840088
21
345.3289583154
0
LINE
8
20000_FRONT_O
62
7
6
CONTINUOUS
10
140.1334560088
20
349.2973343154
11
142.0068840088
21
348.2157103154
0
LINE
8
20000_FRONT_O
62
7
6
CONTINUOUS
10
119.2255230088
20
357.4671403154
11
119.2757650088
21
357.4377353154
0
LINE
8
20000_FRONT_O
62
7
6
CONTINUOUS
10
142.6346020088
20
330.8273453154
11
142.6513440088
21
330.8173743154
0
LINE
8
20000_FRONT_O
62
7
6
CONTINUOUS
10
142.6346020088
20
341.3473453154
11
142.6513440088
21
341.3373743154
0
LINE
8
20000_FRONT_O
62
7
6
CONTINUOUS
10
113.7251590088
20
358.7409093154
11
113.8281960088
21
358.6778413154
0
LINE
8
20000_FRONT_O
62
7
6
CONTINUOUS
10
150.4382870088
20
329.8300583154
11
150.3887720088
21
329.8610823154
0
LINE
8
20000_FRONT_O
62
7
6
CONTINUOUS
10
149.2711770088
20
358.9179173154
11
149.1995210088
21
358.9679543154
0
LINE
8
10000_FRONT
62
7
6
CONTINUOUS
10
247.1023260451
20
300.0442633154
11
247.0126010451
21
300.1110123154
0
LINE
8
20000_FRONT_O
62
7
6
CONTINUOUS
10
149.3405730088
20
358.8624903154
11
149.2711770088
21
358.9179173154
0
LINE
8
10000_FRONT
62
7
6
CONTINUOUS
10
247.0126010451
20
300.1110123154
11
246.9297010451
21
300.1863793154
0
LINE
8
10000_FRONT
62
7
6
CONTINUOUS
10
248.4863610451
20
310.0936563154
11
248.5692600451
21
310.0182893154
0
LINE
8
10000_FRONT
62
7
6
CONTINUOUS
10
248.5692600451
20
310.0182893154
11
248.6444800451
21
309.9350413154
0
LINE
8
10000_FRONT
62
7
6
CONTINUOUS
10
251.3074210451
20
359.2796593154
11
251.2602050451
21
359.3578423154
0
LINE
8
10000_FRONT
62
7
6
CONTINUOUS
10
248.3295440451
20
357.2401123154
11
248.3007890451
21
357.2899313154
0
LINE
8
10000_FRONT
62
7
6
CONTINUOUS
10
251.3459870451
20
359.2005483154
11
251.3074210451
21
359.2796593154
0
LINE
8
20000_FRONT_O
62
7
6
CONTINUOUS
10
116.4036730088
20
237.6937073154
11
116.3499480088
21
237.6838953154
0
LINE
8
20000_FRONT_O
62
7
6
CONTINUOUS
10
119.0615290088
20
237.0876653154
11
119.1176960088
21
237.0977113154
0
LINE
8
11000_LEFT
62
7
6
CONTINUOUS
10
513.9036710451
20
300.6315413154
11
509.4845690451
21
299.8523343154
0
LINE
8
20000_FRONT_O
62
7
6
CONTINUOUS
10
119.0147990088
20
236.2958953154
11
119.0665390088
21
236.3046253154
0
LINE
8
20000_FRONT_O
62
7
6
CONTINUOUS
10
119.0354060088
20
236.1041173154
11
119.1078190088
21
236.1158953154
0
LINE
8
20000_FRONT_O
62
7
6
CONTINUOUS
10
110.9567170088
20
237.6998113154
11
110.9064640088
21
237.6921463154
0
LINE
8
20000_FRONT_O
62
7
6
CONTINUOUS
10
114.3506730088
20
236.0935923154
11
114.2463350088
21
236.0778763154
0
LINE
8
20000_FRONT_O
62
7
6
CONTINUOUS
10
116.4660020088
20
237.7000683154
11
116.4036730088
21
237.6937073154
0
LINE
8
20000_FRONT_O
62
7
6
CONTINUOUS
10
118.1854890088
20
237.7023343154
11
118.1467500088
21
237.6986883154
0
LINE
8
20000_FRONT_O
62
7
6
CONTINUOUS
10
148.6674570088
20
264.5900083154
11
148.6458900088
21
264.5885973154
0
LINE
8
20000_FRONT_O
62
7
6
CONTINUOUS
10
149.7315950088
20
264.5983923154
11
149.6557210088
21
264.5942243154
0
LINE
8
20000_FRONT_O
62
7
6
CONTINUOUS
10
149.5808490088
20
263.7281473154
11
149.5068830088
21
263.7249843154
0
LINE
8
20000_FRONT_O
62
7
6
CONTINUOUS
10
148.6877730088
20
264.5907753154
11
148.6674570088
21
264.5900083154
0
LINE
8
20000_FRONT_O
62
7
6
CONTINUOUS
10
149.6557210088
20
264.5942243154
11
149.5808490088
21
264.5918003154
0
LINE
8
20000_FRONT_O
62
7
6
CONTINUOUS
10
148.7068830088
20
264.5910093154
11
148.6877730088
21
264.5907753154
0
LINE
8
20000_FRONT_O
62
7
6
CONTINUOUS
10
149.5808490088
20
264.5918003154
11
149.5068830088
21
264.5910093154
0
LINE
8
11000_LEFT
62
7
6
CONTINUOUS
10
395.9845690451
20
254.6223343154
11
397.4845690451
21
254.6223343154
0
LINE
8
20000_FRONT_O
62
7
6
CONTINUOUS
10
125.4068840088
20
257.7923343154
11
122.4068830088
21
257.7923343154
0
LINE
8
11000_LEFT
62
7
6
CONTINUOUS
10
392.5845690451
20
258.1223343154
11
397.4845690451
21
258.1223343154
0
LINE
8
20000_FRONT_O
62
7
6
CONTINUOUS
10
122.4068830088
20
258.9923343154
11
125.4068840088
21
258.9923343154
0
LINE
8
20000_FRONT_O
62
7
6
CONTINUOUS
10
135.8923230088
20
259.6362553154
11
136.2385500088
21
259.6362553154
0
LINE
8
20000_FRONT_O
62
7
6
CONTINUOUS
10
135.4831450088
20
260.2028083154
11
136.6162520088
21
260.2028083154
0
LINE
8
20000_FRONT_O
62
7
6
CONTINUOUS
10
134.8851170088
20
260.8952623154
11
137.2142800088
21
260.8952623154
0
LINE
8
20000_FRONT_O
62
7
6
CONTINUOUS
10
125.4068840088
20
262.7923343154
11
122.4068830088
21
262.7923343154
0
LINE
8
20000_FRONT_O
62
7
6
CONTINUOUS
10
139.5068830088
20
263.0023343154
11
136.5068830088
21
263.0023343154
0
LINE
8
20000_FRONT_O
62
7
6
CONTINUOUS
10
122.4068830088
20
263.3923343154
11
133.5068830088
21
263.3923343154
0
LINE
8
20000_FRONT_O
62
7
6
CONTINUOUS
10
149.5068830088
20
263.7249843154
11
148.7068830088
21
263.7249843154
0
LINE
8
20000_FRONT_O
62
7
6
CONTINUOUS
10
138.7068830088
20
263.8023343154
11
137.4866790088
21
263.8023343154
0
LINE
8
20000_FRONT_O
62
7
6
CONTINUOUS
10
122.4068830088
20
264.1023343154
11
133.5068830088
21
264.1023343154
0
LINE
8
20000_FRONT_O
62
7
6
CONTINUOUS
10
137.5068830088
20
264.1023343154
11
148.4068830088
21
264.1023343154
0
LINE
8
20000_FRONT_O
62
7
6
CONTINUOUS
10
137.5068830088
20
264.4023343154
11
148.4068830088
21
264.4023343154
0
LINE
8
20000_FRONT_O
62
7
6
CONTINUOUS
10
149.5068830088
20
264.5910093154
11
148.7068830088
21
264.5910093154
0
LINE
8
20000_FRONT_O
62
7
6
CONTINUOUS
10
122.1068830088
20
264.6023343154
11
130.3068830088
21
264.6023343154
0
LINE
8
20000_FRONT_O
62
7
6
CONTINUOUS
10
130.8068830088
20
265.1023343154
11
148.4068830088
21
265.1023343154
0
LINE
8
20000_FRONT_O
62
7
6
CONTINUOUS
10
130.8068830088
20
266.1023343154
11
148.4068830088
21
266.1023343154
0
LINE
8
20000_FRONT_O
62
7
6
CONTINUOUS
10
148.0068840088
20
266.2973343154
11
138.2568840088
21
266.2973343154
0
LINE
8
20000_FRONT_O
62
7
6
CONTINUOUS
10
137.7568840088
20
266.2973343154
11
130.8068840088
21
266.2973343154
0
LINE
8
20000_FRONT_O
62
7
6
CONTINUOUS
10
131.2068840088
20
266.4973343154
11
148.0068840088
21
266.4973343154
0
LINE
8
20000_FRONT_O
62
7
6
CONTINUOUS
10
149.2558250088
20
276.7947043154
11
149.2616780088
21
276.7945963154
0
LINE
8
20000_FRONT_O
62
7
6
CONTINUOUS
10
149.2682870088
20
280.8091873154
11
149.2618080088
21
280.8094973154
0
LINE
8
20000_FRONT_O
62
7
6
CONTINUOUS
10
122.1387630088
20
264.6006353154
11
122.1068830088
21
264.6023343154
0
LINE
8
20000_FRONT_O
62
7
6
CONTINUOUS
10
148.9064900088
20
275.9644413154
11
148.9568630088
21
275.9613713154
0
LINE
8
20000_FRONT_O
62
7
6
CONTINUOUS
10
149.5958500088
20
273.5481393154
11
149.5658850088
21
273.5501103154
0
LINE
8
20000_FRONT_O
62
7
6
CONTINUOUS
10
149.2505920088
20
276.7951753154
11
149.2558250088
21
276.7947043154
0
LINE
8
20000_FRONT_O
62
7
6
CONTINUOUS
10
148.5880100088
20
275.9343793154
11
148.5511230088
21
275.9377453154
0
LINE
8
20000_FRONT_O
62
7
6
CONTINUOUS
10
149.2753780088
20
280.8084453154
11
149.2682870088
21
280.8091873154
0
LINE
8
20000_FRONT_O
62
7
6
CONTINUOUS
10
148.9568630088
20
275.9613713154
11
149.0067150088
21
275.9551703154
0
LINE
8
20000_FRONT_O
62
7
6
CONTINUOUS
10
117.2139860088
20
299.8578063154
11
117.1039660088
21
299.8741763154
0
LINE
8
20000_FRONT_O
62
7
6
CONTINUOUS
10
149.2831330088
20
280.8072163154
11
149.2753780088
21
280.8084453154
0
LINE
8
20000_FRONT_O
62
7
6
CONTINUOUS
10
117.5797990088
20
310.3304923154
11
117.6877270088
21
310.3033753154
0
LINE
8
20000_FRONT_O
62
7
6
CONTINUOUS
10
149.2743230088
20
317.8036213154
11
149.2816980088
21
317.8015233154
0
LINE
8
20000_FRONT_O
62
7
6
CONTINUOUS
10
142.6599940088
20
306.7345993154
11
142.6513440088
21
306.7372943154
0
LINE
8
20000_FRONT_O
62
7
6
CONTINUOUS
10
142.6599940088
20
317.2545993154
11
142.6513440088
21
317.2572943154
0
LINE
8
20000_FRONT_O
62
7
6
CONTINUOUS
10
149.8252130088
20
321.0046623154
11
149.7415790088
21
321.0324773154
0
LINE
8
20000_FRONT_O
62
7
6
CONTINUOUS
10
149.2816980088
20
317.8015233154
11
149.2898720088
21
317.7987643154
0
LINE
8
20000_FRONT_O
62
7
6
CONTINUOUS
10
149.2412910088
20
313.7993233154
11
149.2387470088
21
313.8001853154
0
LINE
8
20000_FRONT_O
62
7
6
CONTINUOUS
10
150.3295380088
20
329.8891073154
11
150.2630880088
21
329.9138743154
0
LINE
8
20000_FRONT_O
62
7
6
CONTINUOUS
10
149.2898720088
20
317.7987643154
11
149.2988860088
21
317.7952433154
0
LINE
8
20000_FRONT_O
62
7
6
CONTINUOUS
10
148.4781870088
20
330.0543973154
11
148.5013580088
21
330.0450133154
0
LINE
8
20000_FRONT_O
62
7
6
CONTINUOUS
10
149.8857050088
20
330.7936243154
11
149.8083680088
21
330.8259573154
0
LINE
8
20000_FRONT_O
62
7
6
CONTINUOUS
10
142.0950930088
20
336.1218793154
11
142.1055560088
21
336.1174043154
0
LINE
8
20000_FRONT_O
62
7
6
CONTINUOUS
10
142.0950930088
20
346.6418793154
11
142.1055560088
21
346.6374043154
0
LINE
8
20000_FRONT_O
62
7
6
CONTINUOUS
10
119.1725980088
20
357.4902893154
11
119.2255230088
21
357.4671403154
0
LINE
8
20000_FRONT_O
62
7
6
CONTINUOUS
10
150.3887720088
20
329.8610823154
11
150.3295380088
21
329.8891073154
0
LINE
8
10000_FRONT
62
7
6
CONTINUOUS
10
247.2987870451
20
299.9389233154
11
247.1980410451
21
299.9867183154
0
LINE
8
20000_FRONT_O
62
7
6
CONTINUOUS
10
118.1085750088
20
356.9168633154
11
118.0715220088
21
356.9348263154
0
LINE
8
20000_FRONT_O
62
7
6
CONTINUOUS
10
110.8075850088
20
356.9437713154
11
110.7593290088
21
356.9679183154
0
LINE
8
20000_FRONT_O
62
7
6
CONTINUOUS
10
113.8281960088
20
358.6778413154
11
113.9323870088
21
358.6256373154
0
LINE
8
20000_FRONT_O
62
7
6
CONTINUOUS
10
142.1177890088
20
342.4311253154
11
142.1055560088
21
342.4372643154
0
LINE
8
20000_FRONT_O
62
7
6
CONTINUOUS
10
116.2670890088
20
356.9479223154
11
116.2363440088
21
356.9641143154
0
LINE
8
20000_FRONT_O
62
7
6
CONTINUOUS
10
119.2499410088
20
358.4408243154
11
119.3176300088
21
358.4046993154
0
LINE
8
10000_FRONT
62
7
6
CONTINUOUS
10
247.1980410451
20
299.9867183154
11
247.1023260451
21
300.0442633154
0
LINE
8
10000_FRONT
62
7
6
CONTINUOUS
10
248.3009200451
20
310.2179503154
11
248.3966360451
21
310.1604053154
0
LINE
8
20000_FRONT_O
62
7
6
CONTINUOUS
10
149.1995210088
20
358.9679543154
11
149.1264590088
21
359.0120053154
0
LINE
8
10000_FRONT
62
7
6
CONTINUOUS
10
248.3966360451
20
310.1604053154
11
248.4863610451
21
310.0936563154
0
LINE
8
10000_FRONT
62
7
6
CONTINUOUS
10
248.3943940451
20
357.1609003154
11
248.3617350451
21
357.1962463154
0
LINE
8
10000_FRONT
62
7
6
CONTINUOUS
10
251.2602050451
20
359.3578423154
11
251.2037460451
21
359.4342323154
0
LINE
8
10000_FRONT
62
7
6
CONTINUOUS
10
248.3617350451
20
357.1962463154
11
248.3295440451
21
357.2401123154
0
LINE
8
13000_TOP
62
7
6
CONTINUOUS
10
253.1144820451
20
63.8387633154
11
253.5144820451
21
64.2387633154
0
LINE
8
20000_FRONT_O
62
7
6
CONTINUOUS
10
119.1078190088
20
236.1158953154
11
119.1796540088
21
236.1357823154
0
LINE
8
20000_FRONT_O
62
7
6
CONTINUOUS
10
116.3499480088
20
237.6838953154
11
116.3045930088
21
237.6713393154
0
LINE
8
20000_FRONT_O
62
7
6
CONTINUOUS
10
110.9064640088
20
237.6921463154
11
110.8565470088
21
237.6791983154
0
LINE
8
20000_FRONT_O
62
7
6
CONTINUOUS
10
114.2463350088
20
236.0778763154
11
114.1417750088
21
236.0538873154
0
LINE
8
20000_FRONT_O
62
7
6
CONTINUOUS
10
149.7315950088
20
263.7545153154
11
149.6557210088
21
263.7378453154
0
LINE
8
20000_FRONT_O
62
7
6
CONTINUOUS
10
148.5748060088
20
264.5792163154
11
148.5500720088
21
264.5739793154
0
LINE
8
20000_FRONT_O
62
7
6
CONTINUOUS
10
150.1167440088
20
264.6509073154
11
150.0402700088
21
264.6355023154
0
LINE
8
20000_FRONT_O
62
7
6
CONTINUOUS
10
137.4686240088
20
263.7989083154
11
137.4866790088
21
263.8023343154
0
LINE
8
20000_FRONT_O
62
7
6
CONTINUOUS
10
148.5993170088
20
264.5833313154
11
148.5748060088
21
264.5792163154
0
LINE
8
20000_FRONT_O
62
7
6
CONTINUOUS
10
150.0402700088
20
264.6355023154
11
149.9630980088
21
264.6228013154
0
LINE
8
20000_FRONT_O
62
7
6
CONTINUOUS
10
149.9630980088
20
264.6228013154
11
149.8857050088
21
264.6125243154
0
LINE
8
20000_FRONT_O
62
7
6
CONTINUOUS
10
149.6557210088
20
263.7378453154
11
149.5808490088
21
263.7281473154
0
LINE
8
20000_FRONT_O
62
7
6
CONTINUOUS
10
148.6231200088
20
264.5864173154
11
148.5993170088
21
264.5833313154
0
LINE
8
20000_FRONT_O
62
7
6
CONTINUOUS
10
149.6568830088
20
273.5530033154
11
149.6261460088
21
273.5490913154
0
LINE
8
20000_FRONT_O
62
7
6
CONTINUOUS
10
148.7557820088
20
275.9549693154
11
148.8056060088
21
275.9612503154
0
LINE
8
20000_FRONT_O
62
7
6
CONTINUOUS
10
149.8857050088
20
264.6125243154
11
149.8083680088
21
264.6044413154
0
LINE
8
20000_FRONT_O
62
7
6
CONTINUOUS
10
149.2680930088
20
276.7948773154
11
149.2751110088
21
276.7955813154
0
LINE
8
20000_FRONT_O
62
7
6
CONTINUOUS
10
148.6458900088
20
264.5885973154
11
148.6231200088
21
264.5864173154
0
LINE
8
20000_FRONT_O
62
7
6
CONTINUOUS
10
148.6666690088
20
275.9381723154
11
148.6267020088
21
275.9344763154
0
LINE
8
20000_FRONT_O
62
7
6
CONTINUOUS
10
149.2559020088
20
280.8094093154
11
149.2506210088
21
280.8089513154
0
LINE
8
20000_FRONT_O
62
7
6
CONTINUOUS
10
149.8083680088
20
264.6044413154
11
149.7315950088
21
264.5983923154
0
LINE
8
20000_FRONT_O
62
7
6
CONTINUOUS
10
148.8056060088
20
275.9612503154
11
148.8559580088
21
275.9644013154
0
LINE
8
20000_FRONT_O
62
7
6
CONTINUOUS
10
149.2616780088
20
276.7945963154
11
149.2680930088
21
276.7948773154
0
LINE
8
20000_FRONT_O
62
7
6
CONTINUOUS
10
149.6261460088
20
273.5490913154
11
149.5958500088
21
273.5481393154
0
LINE
8
20000_FRONT_O
62
7
6
CONTINUOUS
10
149.2618080088
20
280.8094973154
11
149.2559020088
21
280.8094093154
0
LINE
8
20000_FRONT_O
62
7
6
CONTINUOUS
10
148.6267020088
20
275.9344763154
11
148.5880100088
21
275.9343793154
0
LINE
8
20000_FRONT_O
62
7
6
CONTINUOUS
10
148.8559580088
20
275.9644013154
11
148.9064900088
21
275.9644413154
0
LINE
8
11000_LEFT
62
7
6
CONTINUOUS
10
392.5845690451
20
288.2223343154
11
397.4845690451
21
288.2223343154
0
LINE
8
11000_LEFT
62
7
6
CONTINUOUS
10
392.5845690451
20
294.3023343154
11
397.9845690451
21
294.3023343154
0
LINE
8
20000_FRONT_O
62
7
6
CONTINUOUS
10
117.3250400088
20
299.8523343154
11
117.2139860088
21
299.8578063154
0
LINE
8
11000_LEFT
62
7
6
CONTINUOUS
10
404.9845690451
20
285.7661693154
11
400.6845690451
21
286.1423703154
0
LINE
8
20000_FRONT_O
62
7
6
CONTINUOUS
10
142.1090660088
20
306.9368263154
11
142.1055840088
21
306.9373153154
0
LINE
8
20000_FRONT_O
62
7
6
CONTINUOUS
10
142.1090660088
20
317.4568263154
11
142.1055840088
21
317.4573153154
0
LINE
8
20000_FRONT_O
62
7
6
CONTINUOUS
10
117.4697800088
20
310.3468623154
11
117.5797990088
21
310.3304923154
0
LINE
8
10000_FRONT
62
7
6
CONTINUOUS
10
247.6215840451
20
299.8578063154
11
247.5115640451
21
299.8741763154
0
LINE
8
20000_FRONT_O
62
7
6
CONTINUOUS
10
149.2617360088
20
317.8061863154
11
149.2676920088
21
317.8051503154
0
LINE
8
20000_FRONT_O
62
7
6
CONTINUOUS
10
148.7068830088
20
318.6591493154
11
148.6666690088
21
318.6664963154
0
LINE
8
20000_FRONT_O
62
7
6
CONTINUOUS
10
148.7557820088
20
318.6496993154
11
148.7068830088
21
318.6591493154
0
LINE
8
20000_FRONT_O
62
7
6
CONTINUOUS
10
149.2442800088
20
313.7986843154
11
149.2412910088
21
313.7993233154
0
LINE
8
20000_FRONT_O
62
7
6
CONTINUOUS
10
149.7415790088
20
321.0324773154
11
149.6568830088
21
321.0516653154
0
LINE
8
20000_FRONT_O
62
7
6
CONTINUOUS
10
149.2676920088
20
317.8051503154
11
149.2743230088
21
317.8036213154
0
LINE
8
20000_FRONT_O
62
7
6
CONTINUOUS
10
150.1915270088
20
329.9353933154
11
150.1167440088
21
329.9537613154
0
LINE
8
10000_FRONT
62
7
6
CONTINUOUS
10
247.5115640451
20
299.8741763154
11
247.4036360451
21
299.9012933154
0
LINE
8
10000_FRONT
62
7
6
CONTINUOUS
10
247.9873970451
20
310.3304923154
11
248.0953250451
21
310.3033753154
0
LINE
8
20000_FRONT_O
62
7
6
CONTINUOUS
10
148.5254950088
20
330.0371563154
11
148.5500880088
21
330.0306853154
0
LINE
8
20000_FRONT_O
62
7
6
CONTINUOUS
10
150.2630880088
20
329.9138743154
11
150.1915270088
21
329.9353933154
0
LINE
8
20000_FRONT_O
62
7
6
CONTINUOUS
10
142.6599940088
20
337.2145993154
11
142.6513440088
21
337.2172943154
0
LINE
8
20000_FRONT_O
62
7
6
CONTINUOUS
10
142.6599940088
20
347.7345993154
11
142.6513440088
21
347.7372943154
0
LINE
8
20000_FRONT_O
62
7
6
CONTINUOUS
10
149.8083680088
20
330.8259573154
11
149.7315950088
21
330.8501533154
0
LINE
8
20000_FRONT_O
62
7
6
CONTINUOUS
10
148.5013580088
20
330.0450133154
11
148.5254950088
21
330.0371563154
0
LINE
8
10000_FRONT
62
7
6
CONTINUOUS
10
247.4036360451
20
299.9012933154
11
247.2987870451
21
299.9389233154
0
LINE
8
10000_FRONT
62
7
6
CONTINUOUS
10
248.0953250451
20
310.3033753154
11
248.2001740451
21
310.2657453154
0
LINE
8
20000_FRONT_O
62
7
6
CONTINUOUS
10
110.8565470088
20
356.9254703154
11
110.8075850088
21
356.9437713154
0
LINE
8
20000_FRONT_O
62
7
6
CONTINUOUS
10
116.3045930088
20
356.9333293154
11
116.2670890088
21
356.9479223154
0
LINE
8
20000_FRONT_O
62
7
6
CONTINUOUS
10
119.1796540088
20
358.4688863154
11
119.2499410088
21
358.4408243154
0
LINE
8
20000_FRONT_O
62
7
6
CONTINUOUS
10
113.9323870088
20
358.6256373154
11
114.0370540088
21
358.5835243154
0
LINE
8
20000_FRONT_O
62
7
6
CONTINUOUS
10
149.0528590088
20
359.0495463154
11
148.9796000088
21
359.0801303154
0
LINE
8
10000_FRONT
62
7
6
CONTINUOUS
10
248.2001740451
20
310.2657453154
11
248.3009200451
21
310.2179503154
0
LINE
8
20000_FRONT_O
62
7
6
CONTINUOUS
10
149.1264590088
20
359.0120053154
11
149.0528590088
21
359.0495463154
0
LINE
8
10000_FRONT
62
7
6
CONTINUOUS
10
248.4250560451
20
357.1342473154
11
248.3943940451
21
357.1609003154
0
LINE
8
10000_FRONT
62
7
6
CONTINUOUS
10
251.1375160451
20
359.5077223154
11
251.0613020451
21
359.5768063154
0
LINE
8
10000_FRONT
62
7
6
CONTINUOUS
10
251.2037460451
20
359.4342323154
11
251.1375160451
21
359.5077223154
0
LINE
8
90000_FRAME
62
7
6
CONTINUOUS
10
482.9491910000
20
21.5500140000
11
484.6366010000
21
18.6029870000
0
LINE
8
90000_FRAME
62
7
6
CONTINUOUS
10
484.0662090000
20
16.7967450000
11
482.3550320000
21
19.8388370000
0
LINE
8
90000_FRAME
62
7
6
CONTINUOUS
10
472.3969330000
20
16.7492120000
11
471.0660180000
21
19.8388370000
0
LINE
8
11000_LEFT
62
7
6
CONTINUOUS
10
392.5845690451
20
334.7023343154
11
392.5845690451
21
312.3023343154
0
LINE
8
11000_LEFT
62
7
6
CONTINUOUS
10
392.5845690451
20
252.6023343154
11
392.5845690451
21
294.3023343154
0
LINE
8
11000_LEFT
62
7
6
CONTINUOUS
10
394.5845690451
20
336.7023343154
11
394.5845690451
21
310.3023343154
0
LINE
8
11000_LEFT
62
7
6
CONTINUOUS
10
397.4845690451
20
254.6223343154
11
397.4845690451
21
292.1723343154
0
LINE
8
11000_LEFT
62
7
6
CONTINUOUS
10
397.9845690451
20
294.3023343154
11
397.9845690451
21
310.3023343154
0
LINE
8
11000_LEFT
62
7
6
CONTINUOUS
10
397.9845690451
20
355.3023343154
11
397.9845690451
21
359.3023343154
0
LINE
8
11000_LEFT
62
7
6
CONTINUOUS
10
400.9845690451
20
355.3023343154
11
400.9845690451
21
355.0523343154
0
LINE
8
11000_LEFT
62
7
6
CONTINUOUS
10
402.9845690451
20
251.3023343154
11
402.9845690451
21
252.6023343154
0
LINE
8
13000_TOP
62
7
6
CONTINUOUS
10
260.2734380451
20
85.7562173154
11
260.2144810451
21
85.7239583154
0
LINE
8
13000_TOP
62
7
6
CONTINUOUS
10
260.2734380451
20
79.2562173154
11
260.2144810451
21
79.2239583154
0
LINE
8
13000_TOP
62
7
6
CONTINUOUS
10
260.2734580451
20
72.7562283154
11
260.2144810451
21
72.7239583154
0
LINE
8
13000_TOP
62
7
6
CONTINUOUS
10
260.3315980451
20
85.7878473154
11
260.2734380451
21
85.7562173154
0
LINE
8
13000_TOP
62
7
6
CONTINUOUS
10
260.3315980451
20
79.2878473154
11
260.2734380451
21
79.2562173154
0
LINE
8
13000_TOP
62
7
6
CONTINUOUS
10
260.3315980451
20
72.7878473154
11
260.2734580451
21
72.7562283154
0
LINE
8
20000_FRONT_O
62
7
6
CONTINUOUS
10
148.5500720088
20
264.5739793154
11
148.5254790088
21
264.5675073154
0
LINE
8
20000_FRONT_O
62
7
6
CONTINUOUS
10
149.2911530088
20
276.7984863154
11
149.3002520088
21
276.8008443154
0
LINE
8
10000_FRONT
62
7
6
CONTINUOUS
10
248.0953250451
20
299.9012933154
11
247.9873970451
21
299.8741763154
0
LINE
8
20000_FRONT_O
62
7
6
CONTINUOUS
10
150.1915270088
20
264.6692753154
11
150.1167440088
21
264.6509073154
0
LINE
8
20000_FRONT_O
62
7
6
CONTINUOUS
10
138.0068840088
20
266.3556673154
11
137.7568840088
21
266.2973343154
0
LINE
8
20000_FRONT_O
62
7
6
CONTINUOUS
10
149.7415790088
20
273.5721903154
11
149.6568830088
21
273.5530033154
0
LINE
8
20000_FRONT_O
62
7
6
CONTINUOUS
10
149.2827840088
20
276.7967603154
11
149.2911530088
21
276.7984863154
0
LINE
8
20000_FRONT_O
62
7
6
CONTINUOUS
10
148.7068830088
20
275.9455193154
11
148.7557820088
21
275.9549693154
0
LINE
8
20000_FRONT_O
62
7
6
CONTINUOUS
10
148.7068830088
20
275.9455193154
11
148.6666690088
21
275.9381723154
0
LINE
8
20000_FRONT_O
62
7
6
CONTINUOUS
10
149.2506210088
20
280.8089513154
11
149.2459990088
21
280.8081513154
0
LINE
8
20000_FRONT_O
62
7
6
CONTINUOUS
10
149.2751110088
20
276.7955813154
11
149.2827840088
21
276.7967603154
0
LINE
8
10000_FRONT
62
7
6
CONTINUOUS
10
247.9873970451
20
299.8741763154
11
247.8773780451
21
299.8578063154
0
LINE
8
10000_FRONT
62
7
6
CONTINUOUS
10
247.8773780451
20
299.8578063154
11
247.7663230451
21
299.8523343154
0
LINE
8
20000_FRONT_O
62
7
6
CONTINUOUS
10
117.4697800088
20
299.8578063154
11
117.3587250088
21
299.8523343154
0
LINE
8
10000_FRONT
62
7
6
CONTINUOUS
10
247.6215840451
20
310.3468623154
11
247.7326380451
21
310.3523343154
0
LINE
8
20000_FRONT_O
62
7
6
CONTINUOUS
10
130.8068840088
20
296.6973343154
11
130.8568840088
21
296.6973343154
0
LINE
8
20000_FRONT_O
62
7
6
CONTINUOUS
10
131.2068840088
20
296.6973343154
11
148.0068840088
21
296.6973343154
0
LINE
8
20000_FRONT_O
62
7
6
CONTINUOUS
10
134.0068840088
20
298.2973343154
11
138.2068840088
21
298.2973343154
0
LINE
8
20000_FRONT_O
62
7
6
CONTINUOUS
10
139.2068840088
20
298.2973343154
11
140.2068840088
21
298.2973343154
0
LINE
8
20000_FRONT_O
62
7
6
CONTINUOUS
10
141.2068840088
20
298.2973343154
11
145.4068840088
21
298.2973343154
0
LINE
8
20000_FRONT_O
62
7
6
CONTINUOUS
10
138.2068840088
20
299.2973343154
11
139.2068840088
21
299.2973343154
0
LINE
8
20000_FRONT_O
62
7
6
CONTINUOUS
10
140.2068840088
20
299.2973343154
11
141.2068840088
21
299.2973343154
0
LINE
8
10000_FRONT
62
7
6
CONTINUOUS
10
251.7144810451
20
299.4523343154
11
256.8144810451
21
299.4523343154
0
LINE
8
10000_FRONT
62
7
6
CONTINUOUS
10
247.7663230451
20
299.8523343154
11
247.7326380451
21
299.8523343154
0
LINE
8
20000_FRONT_O
62
7
6
CONTINUOUS
10
117.3587250088
20
299.8523343154
11
117.3250400088
21
299.8523343154
0
LINE
8
20000_FRONT_O
62
7
6
CONTINUOUS
10
120.9068830088
20
299.8523343154
11
126.0068830088
21
299.8523343154
0
LINE
8
10000_FRONT
62
7
6
CONTINUOUS
10
251.3144810451
20
299.8523343154
11
256.4144810451
21
299.8523343154
0
LINE
8
20000_FRONT_O
62
7
6
CONTINUOUS
10
135.3068840088
20
300.1373343154
11
142.1055840088
21
300.1373343154
0
LINE
8
20000_FRONT_O
62
7
6
CONTINUOUS
10
118.5068830088
20
300.8523343154
11
123.5068830088
21
300.8523343154
0
LINE
8
10000_FRONT
62
7
6
CONTINUOUS
10
248.9144810451
20
300.8523343154
11
253.9144810451
21
300.8523343154
0
LINE
8
20000_FRONT_O
62
7
6
CONTINUOUS
10
142.7535830088
20
301.0873343154
11
142.2496470088
21
301.0873343154
0
LINE
8
20000_FRONT_O
62
7
6
CONTINUOUS
10
135.3068840088
20
301.4373343154
11
142.1055560088
21
301.4373343154
0
LINE
8
20000_FRONT_O
62
7
6
CONTINUOUS
10
119.1068840088
20
302.0623343154
11
122.6068840088
21
302.0623343154
0
LINE
8
10000_FRONT
62
7
6
CONTINUOUS
10
249.5144820451
20
302.0623343154
11
253.0144820451
21
302.0623343154
0
LINE
8
20000_FRONT_O
62
7
6
CONTINUOUS
10
144.7068850088
20
302.2973343154
11
143.5068840088
21
302.2973343154
0
LINE
8
20000_FRONT_O
62
7
6
CONTINUOUS
10
134.7068840088
20
302.2973343154
11
135.5068840088
21
302.2973343154
0
LINE
8
20000_FRONT_O
62
7
6
CONTINUOUS
10
144.7068850088
20
303.8973343154
11
143.5068840088
21
303.8973343154
0
LINE
8
20000_FRONT_O
62
7
6
CONTINUOUS
10
134.7068840088
20
303.8973343154
11
135.5068840088
21
303.8973343154
0
LINE
8
20000_FRONT_O
62
7
6
CONTINUOUS
10
118.7068840088
20
303.9123343154
11
123.0068840088
21
303.9123343154
0
LINE
8
10000_FRONT
62
7
6
CONTINUOUS
10
249.1144820451
20
303.9123343154
11
253.4144820451
21
303.9123343154
0
LINE
8
20000_FRONT_O
62
7
6
CONTINUOUS
10
119.4068840088
20
305.0123343154
11
122.3068840088
21
305.0123343154
0
LINE
8
10000_FRONT
62
7
6
CONTINUOUS
10
249.8144820451
20
305.0123343154
11
252.7144820451
21
305.0123343154
0
LINE
8
10000_FRONT
62
7
6
CONTINUOUS
10
252.7144820451
20
305.3123343154
11
249.8144820451
21
305.3123343154
0
LINE
8
20000_FRONT_O
62
7
6
CONTINUOUS
10
122.3068840088
20
305.3123343154
11
119.4068840088
21
305.3123343154
0
LINE
8
20000_FRONT_O
62
7
6
CONTINUOUS
10
135.3068840088
20
305.6373343154
11
142.1055560088
21
305.6373343154
0
LINE
8
20000_FRONT_O
62
7
6
CONTINUOUS
10
142.7535830088
20
305.9873343154
11
142.2496470088
21
305.9873343154
0
LINE
8
20000_FRONT_O
62
7
6
CONTINUOUS
10
118.7068840088
20
306.4123343154
11
123.0068840088
21
306.4123343154
0
LINE
8
10000_FRONT
62
7
6
CONTINUOUS
10
249.1144820451
20
306.4123343154
11
253.4144820451
21
306.4123343154
0
LINE
8
20000_FRONT_O
62
7
6
CONTINUOUS
10
135.3068840088
20
306.9373343154
11
142.1055840088
21
306.9373343154
0
LINE
8
10000_FRONT
62
7
6
CONTINUOUS
10
253.0144820451
20
308.2623343154
11
249.5144820451
21
308.2623343154
0
LINE
8
20000_FRONT_O
62
7
6
CONTINUOUS
10
122.6068840088
20
308.2623343154
11
119.1068840088
21
308.2623343154
0
LINE
8
10000_FRONT
62
7
6
CONTINUOUS
10
253.9144810451
20
309.3523343154
11
248.9144810451
21
309.3523343154
0
LINE
8
20000_FRONT_O
62
7
6
CONTINUOUS
10
123.5068830088
20
309.3523343154
11
118.5068830088
21
309.3523343154
0
LINE
8
11000_LEFT
62
7
6
CONTINUOUS
10
394.5845690451
20
310.3023343154
11
397.9845690451
21
310.3023343154
0
LINE
8
10000_FRONT
62
7
6
CONTINUOUS
10
256.4144810451
20
310.3523343154
11
251.3144810451
21
310.3523343154
0
LINE
8
10000_FRONT
62
7
6
CONTINUOUS
10
247.7663230451
20
310.3523343154
11
247.7326380451
21
310.3523343154
0
LINE
8
20000_FRONT_O
62
7
6
CONTINUOUS
10
126.0068830088
20
310.3523343154
11
120.9068830088
21
310.3523343154
0
LINE
8
20000_FRONT_O
62
7
6
CONTINUOUS
10
117.3587250088
20
310.3523343154
11
117.3250400088
21
310.3523343154
0
LINE
8
20000_FRONT_O
62
7
6
CONTINUOUS
10
148.4068830088
20
310.5555393154
11
148.1068840088
21
310.5555393154
0
LINE
8
20000_FRONT_O
62
7
6
CONTINUOUS
10
135.3068840088
20
310.6573343154
11
142.1055840088
21
310.6573343154
0
LINE
8
10000_FRONT
62
7
6
CONTINUOUS
10
256.8144810451
20
310.7523343154
11
251.7144810451
21
310.7523343154
0
LINE
8
20000_FRONT_O
62
7
6
CONTINUOUS
10
142.7535830088
20
311.6073343154
11
142.2496470088
21
311.6073343154
0
LINE
8
20000_FRONT_O
62
7
6
CONTINUOUS
10
135.3068840088
20
311.9573343154
11
142.1055560088
21
311.9573343154
0
LINE
8
20000_FRONT_O
62
7
6
CONTINUOUS
10
148.4068830088
20
312.5555393154
11
148.1068840088
21
312.5555393154
0
LINE
8
20000_FRONT_O
62
7
6
CONTINUOUS
10
144.7068850088
20
314.2973343154
11
143.5068840088
21
314.2973343154
0
LINE
8
20000_FRONT_O
62
7
6
CONTINUOUS
10
134.7068840088
20
314.2973343154
11
135.5068840088
21
314.2973343154
0
LINE
8
20000_FRONT_O
62
7
6
CONTINUOUS
10
144.7068850088
20
315.8973343154
11
143.5068840088
21
315.8973343154
0
LINE
8
20000_FRONT_O
62
7
6
CONTINUOUS
10
134.7068840088
20
315.8973343154
11
135.5068840088
21
315.8973343154
0
LINE
8
20000_FRONT_O
62
7
6
CONTINUOUS
10
135.3068840088
20
316.1573343154
11
142.1055560088
21
316.1573343154
0
LINE
8
20000_FRONT_O
62
7
6
CONTINUOUS
10
149.2517910088
20
313.7982003154
11
149.2477600088
21
313.7982983154
0
LINE
8
20000_FRONT_O
62
7
6
CONTINUOUS
10
149.6261460088
20
321.0555773154
11
149.5958500088
21
321.0565283154
0
LINE
8
20000_FRONT_O
62
7
6
CONTINUOUS
10
149.2517200088
20
317.8070063154
11
149.2564110088
21
317.8067883154
0
LINE
8
10000_FRONT
62
7
6
CONTINUOUS
10
247.7326380451
20
299.8523343154
11
247.6215840451
21
299.8578063154
0
LINE
8
20000_FRONT_O
62
7
6
CONTINUOUS
10
117.3587250088
20
310.3523343154
11
117.4697800088
21
310.3468623154
0
LINE
8
10000_FRONT
62
7
6
CONTINUOUS
10
247.7663230451
20
310.3523343154
11
247.8773780451
21
310.3468623154
0
LINE
8
20000_FRONT_O
62
7
6
CONTINUOUS
10
148.8559580088
20
318.6402673154
11
148.8056060088
21
318.6434183154
0
LINE
8
11000_LEFT
62
7
6
CONTINUOUS
10
398.4844440451
20
288.3424963154
11
397.4845690451
21
288.4299743154
0
LINE
8
20000_FRONT_O
62
7
6
CONTINUOUS
10
148.6666690088
20
318.6664963154
11
148.6267020088
21
318.6701923154
0
LINE
8
20000_FRONT_O
62
7
6
CONTINUOUS
10
148.6231310088
20
330.0182503154
11
148.6458980088
21
330.0160703154
0
LINE
8
20000_FRONT_O
62
7
6
CONTINUOUS
10
149.8857050088
20
329.9921443154
11
149.8083680088
21
330.0002273154
0
LINE
8
20000_FRONT_O
62
7
6
CONTINUOUS
10
149.2477600088
20
313.7982983154
11
149.2442800088
21
313.7986843154
0
LINE
8
20000_FRONT_O
62
7
6
CONTINUOUS
10
149.2564110088
20
317.8067883154
11
149.2617360088
21
317.8061863154
0
LINE
8
20000_FRONT_O
62
7
6
CONTINUOUS
10
148.8056060088
20
318.6434183154
11
148.7557820088
21
318.6496993154
0
LINE
8
20000_FRONT_O
62
7
6
CONTINUOUS
10
149.6568830088
20
321.0516653154
11
149.6261460088
21
321.0555773154
0
LINE
8
20000_FRONT_O
62
7
6
CONTINUOUS
10
149.6557210088
20
330.8668233154
11
149.5808490088
21
330.8765213154
0
LINE
8
20000_FRONT_O
62
7
6
CONTINUOUS
10
148.5993300088
20
330.0213353154
11
148.6231310088
21
330.0182503154
0
LINE
8
20000_FRONT_O
62
7
6
CONTINUOUS
10
149.9630980088
20
329.9818673154
11
149.8857050088
21
329.9921443154
0
LINE
8
20000_FRONT_O
62
7
6
CONTINUOUS
10
142.1090660088
20
337.4168263154
11
142.1055840088
21
337.4173153154
0
LINE
8
10000_FRONT
62
7
6
CONTINUOUS
10
247.8773780451
20
310.3468623154
11
247.9873970451
21
310.3304923154
0
LINE
8
20000_FRONT_O
62
7
6
CONTINUOUS
10
150.0402700088
20
329.9691663154
11
149.9630980088
21
329.9818673154
0
LINE
8
20000_FRONT_O
62
7
6
CONTINUOUS
10
148.5748210088
20
330.0254493154
11
148.5993300088
21
330.0213353154
0
LINE
8
20000_FRONT_O
62
7
6
CONTINUOUS
10
150.1167440088
20
329.9537613154
11
150.0402700088
21
329.9691663154
0
LINE
8
20000_FRONT_O
62
7
6
CONTINUOUS
10
148.5500880088
20
330.0306853154
11
148.5748210088
21
330.0254493154
0
LINE
8
11000_LEFT
62
7
6
CONTINUOUS
10
392.5845690451
20
293.2223343154
11
397.4845690451
21
292.1723343154
0
LINE
8
20000_FRONT_O
62
7
6
CONTINUOUS
10
149.7315950088
20
330.8501533154
11
149.6557210088
21
330.8668233154
0
LINE
8
20000_FRONT_O
62
7
6
CONTINUOUS
10
114.1417760088
20
358.5507813154
11
114.2463350088
21
358.5267923154
0
LINE
8
20000_FRONT_O
62
7
6
CONTINUOUS
10
110.9064640088
20
356.9125223154
11
110.8565470088
21
356.9254703154
0
LINE
8
11000_LEFT
62
7
6
CONTINUOUS
10
410.9316170451
20
284.1726623154
11
404.9845690451
21
285.7661693154
0
LINE
8
20000_FRONT_O
62
7
6
CONTINUOUS
10
116.3499480088
20
356.9207733154
11
116.3045930088
21
356.9333293154
0
LINE
8
20000_FRONT_O
62
7
6
CONTINUOUS
10
119.1078190088
20
358.4887733154
11
119.1796540088
21
358.4688863154
0
LINE
8
20000_FRONT_O
62
7
6
CONTINUOUS
10
118.1467500088
20
356.9059803154
11
118.1085750088
21
356.9168633154
0
LINE
8
20000_FRONT_O
62
7
6
CONTINUOUS
10
119.1176960088
20
357.5069573154
11
119.1725980088
21
357.4902893154
0
LINE
8
20000_FRONT_O
62
7
6
CONTINUOUS
10
114.0370540088
20
358.5835243154
11
114.1417760088
21
358.5507813154
0
LINE
8
20000_FRONT_O
62
7
6
CONTINUOUS
10
148.9796000088
20
359.0801303154
11
148.9075530088
21
359.1033923154
0
LINE
8
10000_FRONT
62
7
6
CONTINUOUS
10
248.4801200451
20
357.0991473154
11
248.4533790451
21
357.1143223154
0
LINE
8
10000_FRONT
62
7
6
CONTINUOUS
10
248.4533790451
20
357.1143223154
11
248.4250560451
21
357.1342473154
0
LINE
8
10000_FRONT
62
7
6
CONTINUOUS
10
251.0613020451
20
359.5768063154
11
250.9751880451
21
359.6397973154
0
LINE
8
11000_LEFT
62
7
6
CONTINUOUS
10
404.2845690451
20
250.0023343154
11
402.9845690451
21
251.3023343154
0
LINE
8
90000_FRAME
62
7
6
CONTINUOUS
10
471.8265410000
20
21.5500140000
11
473.0623910000
21
18.6505200000
0
LINE
8
11000_LEFT
62
7
6
CONTINUOUS
10
404.2845690451
20
234.8023343154
11
404.2845690451
21
250.0023343154
0
LINE
8
11000_LEFT
62
7
6
CONTINUOUS
10
404.5845690451
20
341.6023343154
11
404.5845690451
21
355.3023343154
0
LINE
8
11000_LEFT
62
7
6
CONTINUOUS
10
412.7845690451
20
264.5868203154
11
412.7845690451
21
281.7578483154
0
LINE
8
91000_TIP
62
7
6
CONTINUOUS
10
417.4291900000
20
22.0428840000
11
417.4291900000
21
17.0428840000
0
LINE
8
20000_FRONT_O
62
7
6
CONTINUOUS
10
149.2459990088
20
280.8081513154
11
149.2419730088
21
280.8070153154
0
LINE
8
10000_FRONT
62
7
6
CONTINUOUS
10
247.4036360451
20
310.3033753154
11
247.5115640451
21
310.3304923154
0
LINE
8
10000_FRONT
62
7
6
CONTINUOUS
10
247.5115640451
20
310.3304923154
11
247.6215840451
21
310.3468623154
0
LINE
8
20000_FRONT_O
62
7
6
CONTINUOUS
10
117.5797990088
20
299.8741763154
11
117.4697800088
21
299.8578063154
0
LINE
8
20000_FRONT_O
62
7
6
CONTINUOUS
10
117.1039660088
20
310.3304923154
11
117.2139860088
21
310.3468623154
0
LINE
8
20000_FRONT_O
62
7
6
CONTINUOUS
10
142.1055840088
20
300.1373533154
11
142.1090660088
21
300.1378423154
0
LINE
8
20000_FRONT_O
62
7
6
CONTINUOUS
10
142.1055840088
20
310.6573533154
11
142.1090660088
21
310.6578423154
0
LINE
8
20000_FRONT_O
62
7
6
CONTINUOUS
10
149.0067150088
20
318.6494983154
11
148.9568630088
21
318.6432973154
0
LINE
8
20000_FRONT_O
62
7
6
CONTINUOUS
10
149.2441320088
20
317.8064783154
11
149.2476450088
21
317.8068883154
0
LINE
8
20000_FRONT_O
62
7
6
CONTINUOUS
10
149.2617000088
20
313.7990443154
11
149.2564300088
21
313.7984323154
0
LINE
8
20000_FRONT_O
62
7
6
CONTINUOUS
10
148.5880100088
20
318.6702893154
11
148.5511230088
21
318.6669233154
0
LINE
8
20000_FRONT_O
62
7
6
CONTINUOUS
10
149.5958500088
20
321.0565283154
11
149.5658850088
21
321.0545583154
0
LINE
8
20000_FRONT_O
62
7
6
CONTINUOUS
10
148.9568630088
20
318.6432973154
11
148.9064900088
21
318.6402273154
0
LINE
8
20000_FRONT_O
62
7
6
CONTINUOUS
10
149.2564300088
20
313.7984323154
11
149.2517910088
21
313.7982003154
0
LINE
8
20000_FRONT_O
62
7
6
CONTINUOUS
10
117.2139860088
20
310.3468623154
11
117.3250400088
21
310.3523343154
0
LINE
8
20000_FRONT_O
62
7
6
CONTINUOUS
10
149.2476450088
20
317.8068883154
11
149.2517200088
21
317.8070063154
0
LINE
8
20000_FRONT_O
62
7
6
CONTINUOUS
10
142.7535830088
20
316.5073343154
11
142.2496470088
21
316.5073343154
0
LINE
8
20000_FRONT_O
62
7
6
CONTINUOUS
10
135.3068840088
20
317.0773343154
11
134.7068830088
21
317.0773343154
0
LINE
8
20000_FRONT_O
62
7
6
CONTINUOUS
10
135.3068840088
20
317.4573343154
11
142.1055840088
21
317.4573343154
0
LINE
8
20000_FRONT_O
62
7
6
CONTINUOUS
10
148.1068840088
20
318.0555393154
11
148.4068830088
21
318.0555393154
0
LINE
8
20000_FRONT_O
62
7
6
CONTINUOUS
10
141.7068840088
20
318.7973343154
11
137.7068840088
21
318.7973343154
0
LINE
8
20000_FRONT_O
62
7
6
CONTINUOUS
10
134.0068840088
20
319.2973343154
11
137.7068840088
21
319.2973343154
0
LINE
8
20000_FRONT_O
62
7
6
CONTINUOUS
10
141.7068840088
20
319.2973343154
11
145.4068840088
21
319.2973343154
0
LINE
8
20000_FRONT_O
62
7
6
CONTINUOUS
10
148.1068840088
20
319.4555393154
11
148.4068830088
21
319.4555393154
0
LINE
8
20000_FRONT_O
62
7
6
CONTINUOUS
10
132.8068840088
20
320.8973343154
11
146.4068840088
21
320.8973343154
0
LINE
8
20000_FRONT_O
62
7
6
CONTINUOUS
10
120.9068830088
20
323.5711013154
11
124.0068830088
21
323.5711013154
0
LINE
8
10000_FRONT
62
7
6
CONTINUOUS
10
254.9144810451
20
323.6023343154
11
251.7144810451
21
323.6023343154
0
LINE
8
10000_FRONT
62
7
6
CONTINUOUS
10
254.3144810451
20
323.7147673154
11
251.3144810451
21
323.7147673154
0
LINE
8
20000_FRONT_O
62
7
6
CONTINUOUS
10
124.0068830088
20
324.0147673154
11
120.9068830088
21
324.0147673154
0
LINE
8
20000_FRONT_O
62
7
6
CONTINUOUS
10
132.8068840088
20
327.1973343154
11
146.4068840088
21
327.1973343154
0
LINE
8
20000_FRONT_O
62
7
6
CONTINUOUS
10
120.9068830088
20
327.2423293154
11
124.0068830088
21
327.2423293154
0
LINE
8
10000_FRONT
62
7
6
CONTINUOUS
10
251.3144810451
20
327.2423293154
11
254.3144810451
21
327.2423293154
0
LINE
8
20000_FRONT_O
62
7
6
CONTINUOUS
10
134.0068840088
20
328.7973343154
11
138.2068840088
21
328.7973343154
0
LINE
8
20000_FRONT_O
62
7
6
CONTINUOUS
10
141.2068840088
20
328.7973343154
11
145.4068840088
21
328.7973343154
0
LINE
8
20000_FRONT_O
62
7
6
CONTINUOUS
10
139.2068840088
20
328.8073343154
11
140.2068840088
21
328.8073343154
0
LINE
8
20000_FRONT_O
62
7
6
CONTINUOUS
10
120.9068830088
20
329.3872063154
11
124.0068830088
21
329.3872063154
0
LINE
8
10000_FRONT
62
7
6
CONTINUOUS
10
251.3144810451
20
329.3872063154
11
254.3144810451
21
329.3872063154
0
LINE
8
20000_FRONT_O
62
7
6
CONTINUOUS
10
138.2068840088
20
329.8973343154
11
139.2068840088
21
329.8973343154
0
LINE
8
20000_FRONT_O
62
7
6
CONTINUOUS
10
140.2068840088
20
329.8973343154
11
141.2068840088
21
329.8973343154
0
LINE
8
20000_FRONT_O
62
7
6
CONTINUOUS
10
149.5068830088
20
330.0136593154
11
148.7068830088
21
330.0136593154
0
LINE
8
20000_FRONT_O
62
7
6
CONTINUOUS
10
135.3068840088
20
330.6173343154
11
142.1055840088
21
330.6173343154
0
LINE
8
20000_FRONT_O
62
7
6
CONTINUOUS
10
149.5068830088
20
330.8796843154
11
148.7068830088
21
330.8796843154
0
LINE
8
20000_FRONT_O
62
7
6
CONTINUOUS
10
142.7535830088
20
331.5673343154
11
142.2496470088
21
331.5673343154
0
LINE
8
20000_FRONT_O
62
7
6
CONTINUOUS
10
135.3068840088
20
331.9173343154
11
142.1055560088
21
331.9173343154
0
LINE
8
20000_FRONT_O
62
7
6
CONTINUOUS
10
120.9068830088
20
332.4423293154
11
124.0068830088
21
332.4423293154
0
LINE
8
10000_FRONT
62
7
6
CONTINUOUS
10
251.3144810451
20
332.4423293154
11
254.3144810451
21
332.4423293154
0
LINE
8
20000_FRONT_O
62
7
6
CONTINUOUS
10
144.7068850088
20
332.7973343154
11
143.5068840088
21
332.7973343154
0
LINE
8
20000_FRONT_O
62
7
6
CONTINUOUS
10
134.7068840088
20
332.7973343154
11
135.5068840088
21
332.7973343154
0
LINE
8
20000_FRONT_O
62
7
6
CONTINUOUS
10
144.7068850088
20
334.3973343154
11
143.5068840088
21
334.3973343154
0
LINE
8
20000_FRONT_O
62
7
6
CONTINUOUS
10
134.7068840088
20
334.3973343154
11
135.5068840088
21
334.3973343154
0
LINE
8
20000_FRONT_O
62
7
6
CONTINUOUS
10
120.9068830088
20
334.5872063154
11
124.0068830088
21
334.5872063154
0
LINE
8
10000_FRONT
62
7
6
CONTINUOUS
10
251.3144810451
20
334.5872063154
11
254.3144810451
21
334.5872063154
0
LINE
8
20000_FRONT_O
62
7
6
CONTINUOUS
10
135.3068840088
20
336.1173343154
11
142.1055560088
21
336.1173343154
0
LINE
8
20000_FRONT_O
62
7
6
CONTINUOUS
10
142.7535830088
20
336.4673343154
11
142.2496470088
21
336.4673343154
0
LINE
8
11000_LEFT
62
7
6
CONTINUOUS
10
394.5845690451
20
336.7023343154
11
398.1555530451
21
336.7023343154
0
LINE
8
20000_FRONT_O
62
7
6
CONTINUOUS
10
148.9064900088
20
318.6402273154
11
148.8559580088
21
318.6402673154
0
LINE
8
20000_FRONT_O
62
7
6
CONTINUOUS
10
148.6267020088
20
318.6701923154
11
148.5880100088
21
318.6702893154
0
LINE
8
20000_FRONT_O
62
7
6
CONTINUOUS
10
149.5808490088
20
330.0128683154
11
149.5068830088
21
330.0136593154
0
LINE
8
20000_FRONT_O
62
7
6
CONTINUOUS
10
148.6877750088
20
330.0138933154
11
148.7068830088
21
330.0136593154
0
LINE
8
20000_FRONT_O
62
7
6
CONTINUOUS
10
149.6557210088
20
330.0104433154
11
149.5808490088
21
330.0128683154
0
LINE
8
20000_FRONT_O
62
7
6
CONTINUOUS
10
148.6674610088
20
330.0146603154
11
148.6877750088
21
330.0138933154
0
LINE
8
20000_FRONT_O
62
7
6
CONTINUOUS
10
149.5808490088
20
330.8765213154
11
149.5068830088
21
330.8796843154
0
LINE
8
20000_FRONT_O
62
7
6
CONTINUOUS
10
149.7315950088
20
330.0062763154
11
149.6557210088
21
330.0104433154
0
LINE
8
20000_FRONT_O
62
7
6
CONTINUOUS
10
148.6458980088
20
330.0160703154
11
148.6674610088
21
330.0146603154
0
LINE
8
20000_FRONT_O
62
7
6
CONTINUOUS
10
149.8083680088
20
330.0002273154
11
149.7315950088
21
330.0062763154
0
LINE
8
20000_FRONT_O
62
7
6
CONTINUOUS
10
142.1090660088
20
347.9368263154
11
142.1055840088
21
347.9373153154
0
LINE
8
20000_FRONT_O
62
7
6
CONTINUOUS
10
114.2463350088
20
358.5267923154
11
114.3506730088
21
358.5110763154
0
LINE
8
20000_FRONT_O
62
7
6
CONTINUOUS
10
110.9567170088
20
356.9048573154
11
110.9064640088
21
356.9125223154
0
LINE
8
20000_FRONT_O
62
7
6
CONTINUOUS
10
119.0354060088
20
358.5005503154
11
119.1078190088
21
358.4887733154
0
LINE
8
20000_FRONT_O
62
7
6
CONTINUOUS
10
119.0615290088
20
357.5170033154
11
119.1176960088
21
357.5069573154
0
LINE
8
20000_FRONT_O
62
7
6
CONTINUOUS
10
116.4036730088
20
356.9109613154
11
116.3499480088
21
356.9207733154
0
LINE
8
20000_FRONT_O
62
7
6
CONTINUOUS
10
148.9075530088
20
359.1033923154
11
148.8375760088
21
359.1190563154
0
LINE
8
10000_FRONT
62
7
6
CONTINUOUS
10
248.5319080451
20
357.0786983154
11
248.5060700451
21
357.0874953154
0
LINE
8
10000_FRONT
62
7
6
CONTINUOUS
10
250.8800620451
20
359.6946723154
11
250.7772000451
21
359.7396413154
0
LINE
8
10000_FRONT
62
7
6
CONTINUOUS
10
248.5060700451
20
357.0874953154
11
248.4801200451
21
357.0991473154
0
LINE
8
10000_FRONT
62
7
6
CONTINUOUS
10
250.9751880451
20
359.6397973154
11
250.8800620451
21
359.6946723154
0
LINE
8
91000_TIP
62
7
6
CONTINUOUS
10
427.4291900000
20
24.5428840000
11
427.4291900000
21
14.5428840000
0
LINE
8
91000_TIP
62
7
6
CENTER
10
433.9291900000
20
13.8214030000
11
433.9291900000
21
25.1047890000
0
LINE
8
20000_FRONT_O
62
7
6
CONTINUOUS
10
149.5362060088
20
321.0496023154
11
149.5068830088
21
321.0415253154
0
LINE
8
20000_FRONT_O
62
7
6
CONTINUOUS
10
149.1032110088
20
318.6714483154
11
149.0556510088
21
318.6588683154
0
LINE
8
20000_FRONT_O
62
7
6
CONTINUOUS
10
117.6877270088
20
299.9012933154
11
117.5797990088
21
299.8741763154
0
LINE
8
20000_FRONT_O
62
7
6
CONTINUOUS
10
116.9960380088
20
310.3033753154
11
117.1039660088
21
310.3304923154
0
LINE
8
20000_FRONT_O
62
7
6
CONTINUOUS
10
149.2741900088
20
313.8016163154
11
149.2676060088
21
313.8000863154
0
LINE
8
20000_FRONT_O
62
7
6
CONTINUOUS
10
149.2411220088
20
317.8058103154
11
149.2441320088
21
317.8064783154
0
LINE
8
20000_FRONT_O
62
7
6
CONTINUOUS
10
148.5511230088
20
318.6669233154
11
148.5166940088
21
318.6602223154
0
LINE
8
20000_FRONT_O
62
7
6
CONTINUOUS
10
149.0556510088
20
318.6588683154
11
149.0067150088
21
318.6494983154
0
LINE
8
20000_FRONT_O
62
7
6
CONTINUOUS
10
149.2676060088
20
313.8000863154
11
149.2617000088
21
313.7990443154
0
LINE
8
20000_FRONT_O
62
7
6
CONTINUOUS
10
149.5658850088
20
321.0545583154
11
149.5362060088
21
321.0496023154
0
LINE
8
20000_FRONT_O
62
7
6
CONTINUOUS
10
142.1055840088
20
330.6173533154
11
142.1090660088
21
330.6178423154
0
LINE
8
20000_FRONT_O
62
7
6
CONTINUOUS
10
148.6877750088
20
330.8781603154
11
148.7068830088
21
330.8796843154
0
LINE
8
20000_FRONT_O
62
7
6
CONTINUOUS
10
135.3068840088
20
337.4173343154
11
142.1055840088
21
337.4173343154
0
LINE
8
20000_FRONT_O
62
7
6
CONTINUOUS
10
120.9068830088
20
337.6423293154
11
124.0068830088
21
337.6423293154
0
LINE
8
10000_FRONT
62
7
6
CONTINUOUS
10
251.3144810451
20
337.6423293154
11
254.3144810451
21
337.6423293154
0
LINE
8
20000_FRONT_O
62
7
6
CONTINUOUS
10
120.9068830088
20
339.7872063154
11
124.0068830088
21
339.7872063154
0
LINE
8
10000_FRONT
62
7
6
CONTINUOUS
10
251.3144810451
20
339.7872063154
11
254.3144810451
21
339.7872063154
0
LINE
8
20000_FRONT_O
62
7
6
CONTINUOUS
10
135.3068840088
20
340.6873343154
11
135.6794840088
21
340.6873343154
0
LINE
8
20000_FRONT_O
62
7
6
CONTINUOUS
10
135.3068840088
20
341.1373343154
11
142.1055840088
21
341.1373343154
0
LINE
8
11000_LEFT
62
7
6
CONTINUOUS
10
401.1577740451
20
341.6023343154
11
404.5845690451
21
341.6023343154
0
LINE
8
20000_FRONT_O
62
7
6
CONTINUOUS
10
142.7535830088
20
342.0873343154
11
142.3495060088
21
342.0873343154
0
LINE
8
20000_FRONT_O
62
7
6
CONTINUOUS
10
135.3068840088
20
342.4373343154
11
142.1055560088
21
342.4373343154
0
LINE
8
20000_FRONT_O
62
7
6
CONTINUOUS
10
120.9068830088
20
342.8423293154
11
124.0068830088
21
342.8423293154
0
LINE
8
10000_FRONT
62
7
6
CONTINUOUS
10
251.3144810451
20
342.8423293154
11
254.3144810451
21
342.8423293154
0
LINE
8
20000_FRONT_O
62
7
6
CONTINUOUS
10
144.7068850088
20
344.7973343154
11
143.5068840088
21
344.7973343154
0
LINE
8
20000_FRONT_O
62
7
6
CONTINUOUS
10
134.7068840088
20
344.7973343154
11
135.5068840088
21
344.7973343154
0
LINE
8
20000_FRONT_O
62
7
6
CONTINUOUS
10
120.9068830088
20
344.9872063154
11
124.0068830088
21
344.9872063154
0
LINE
8
10000_FRONT
62
7
6
CONTINUOUS
10
251.3144810451
20
344.9872063154
11
254.3144810451
21
344.9872063154
0
LINE
8
20000_FRONT_O
62
7
6
CONTINUOUS
10
144.7068850088
20
346.3973343154
11
143.5068840088
21
346.3973343154
0
LINE
8
20000_FRONT_O
62
7
6
CONTINUOUS
10
134.7068840088
20
346.3973343154
11
135.5068840088
21
346.3973343154
0
LINE
8
20000_FRONT_O
62
7
6
CONTINUOUS
10
135.3068840088
20
346.6373343154
11
142.1055560088
21
346.6373343154
0
LINE
8
20000_FRONT_O
62
7
6
CONTINUOUS
10
142.7535830088
20
346.9873343154
11
142.2496470088
21
346.9873343154
0
LINE
8
20000_FRONT_O
62
7
6
CONTINUOUS
10
135.3068840088
20
347.9373343154
11
142.1055840088
21
347.9373343154
0
LINE
8
20000_FRONT_O
62
7
6
CONTINUOUS
10
120.9068830088
20
348.0423293154
11
124.0068830088
21
348.0423293154
0
LINE
8
10000_FRONT
62
7
6
CONTINUOUS
10
251.3144810451
20
348.0423293154
11
254.3144810451
21
348.0423293154
0
LINE
8
20000_FRONT_O
62
7
6
CONTINUOUS
10
141.7068840088
20
349.2973343154
11
137.7068840088
21
349.2973343154
0
LINE
8
20000_FRONT_O
62
7
6
CONTINUOUS
10
134.0068840088
20
349.7973343154
11
137.7068840088
21
349.7973343154
0
LINE
8
20000_FRONT_O
62
7
6
CONTINUOUS
10
141.7068840088
20
349.7973343154
11
145.4068840088
21
349.7973343154
0
LINE
8
20000_FRONT_O
62
7
6
CONTINUOUS
10
120.9068830088
20
350.1872063154
11
124.0068830088
21
350.1872063154
0
LINE
8
10000_FRONT
62
7
6
CONTINUOUS
10
251.3144810451
20
350.1872063154
11
254.3144810451
21
350.1872063154
0
LINE
8
20000_FRONT_O
62
7
6
CONTINUOUS
10
148.1068840088
20
351.3623343154
11
148.0068840088
21
351.3623343154
0
LINE
8
20000_FRONT_O
62
7
6
CONTINUOUS
10
130.8068840088
20
351.3973343154
11
148.0068840088
21
351.3973343154
0
LINE
8
20000_FRONT_O
62
7
6
CONTINUOUS
10
148.4068830088
20
353.2023343154
11
148.1068840088
21
353.2023343154
0
LINE
8
20000_FRONT_O
62
7
6
CONTINUOUS
10
120.9068830088
20
353.4147673154
11
124.0068830088
21
353.4147673154
0
LINE
8
10000_FRONT
62
7
6
CONTINUOUS
10
251.3144810451
20
353.7147673154
11
254.3144810451
21
353.7147673154
0
LINE
8
20000_FRONT_O
62
7
6
CONTINUOUS
10
148.0068840088
20
353.9773343154
11
144.0068840088
21
353.9773343154
0
LINE
8
20000_FRONT_O
62
7
6
CONTINUOUS
10
142.4068840088
20
353.9773343154
11
131.2068840088
21
353.9773343154
0
LINE
8
20000_FRONT_O
62
7
6
CONTINUOUS
10
120.9068830088
20
354.1023343154
11
124.0068830088
21
354.1023343154
0
LINE
8
20000_FRONT_O
62
7
6
CONTINUOUS
10
130.8068830088
20
354.4523343154
11
142.4063360088
21
354.4523343154
0
LINE
8
20000_FRONT_O
62
7
6
CONTINUOUS
10
144.4068830088
20
354.4523343154
11
147.7068840088
21
354.4523343154
0
LINE
8
20000_FRONT_O
62
7
6
CONTINUOUS
10
148.1068840088
20
354.4523343154
11
148.4068830088
21
354.4523343154
0
LINE
8
11000_LEFT
62
7
6
CONTINUOUS
10
400.7345690451
20
354.8023343154
11
398.4845690451
21
354.8023343154
0
LINE
8
20000_FRONT_O
62
7
6
CONTINUOUS
10
148.4068830088
20
355.1023343154
11
130.8068830088
21
355.1023343154
0
LINE
8
11000_LEFT
62
7
6
CONTINUOUS
10
403.0845690451
20
356.8023343154
11
402.4845690451
21
356.8023343154
0
LINE
8
20000_FRONT_O
62
7
6
CONTINUOUS
10
111.0068830088
20
356.9023343154
11
130.3068830088
21
356.9023343154
0
LINE
8
11000_LEFT
62
7
6
CONTINUOUS
10
509.4845690451
20
357.4023343154
11
502.8843669663
21
357.4023343154
0
LINE
8
20000_FRONT_O
62
7
6
CONTINUOUS
10
110.5068830088
20
357.4023343154
11
130.3068830088
21
357.4023343154
0
LINE
8
10000_FRONT
62
7
6
CONTINUOUS
10
240.9144810451
20
357.4023343154
11
248.2569570451
21
357.4023343154
0
LINE
8
10000_FRONT
62
7
6
CONTINUOUS
10
248.9585640451
20
357.4023343154
11
254.4144810451
21
357.4023343154
0
LINE
8
20000_FRONT_O
62
7
6
CONTINUOUS
10
119.0047240088
20
357.5203603154
11
115.9068830088
21
357.5203603154
0
LINE
8
20000_FRONT_O
62
7
6
CONTINUOUS
10
148.7068830088
20
357.6073593154
11
148.4068830088
21
357.6073593154
0
LINE
8
20000_FRONT_O
62
7
6
CONTINUOUS
10
116.5372680088
20
356.9023343154
11
116.4660020088
21
356.9046003154
0
LINE
8
10000_FRONT
62
7
6
CONTINUOUS
10
248.6121450451
20
357.0679763154
11
248.5849490451
21
357.0688753154
0
LINE
8
20000_FRONT_O
62
7
6
CONTINUOUS
10
111.0068830088
20
356.9023343154
11
110.9567170088
21
356.9048573154
0
LINE
8
20000_FRONT_O
62
7
6
CONTINUOUS
10
118.9632530088
20
358.5044173154
11
119.0354060088
21
358.5005503154
0
LINE
8
20000_FRONT_O
62
7
6
CONTINUOUS
10
119.0047240088
20
357.5203603154
11
119.0615290088
21
357.5170033154
0
LINE
8
10000_FRONT
62
7
6
CONTINUOUS
10
250.5502740451
20
359.7949163154
11
250.4286940451
21
359.8023343154
0
LINE
8
20000_FRONT_O
62
7
6
CONTINUOUS
10
114.3506730088
20
358.5110763154
11
114.4548350088
21
358.5033023154
0
LINE
8
20000_FRONT_O
62
7
6
CONTINUOUS
10
118.1854890088
20
356.9023343154
11
118.1467500088
21
356.9059803154
0
LINE
8
20000_FRONT_O
62
7
6
CONTINUOUS
10
116.4660020088
20
356.9046003154
11
116.4036730088
21
356.9109613154
0
LINE
8
20000_FRONT_O
62
7
6
CONTINUOUS
10
148.8375760088
20
359.1190563154
11
148.7705020088
21
359.1269343154
0
LINE
8
10000_FRONT
62
7
6
CONTINUOUS
10
248.5849490451
20
357.0688753154
11
248.5581600451
21
357.0724843154
0
LINE
8
11000_LEFT
62
7
6
CONTINUOUS
10
509.4845690451
20
310.3523343154
11
513.9036710451
21
309.5731273154
0
LINE
8
10000_FRONT
62
7
6
CONTINUOUS
10
250.6669570451
20
359.7735353154
11
250.5502740451
21
359.7949163154
0
LINE
8
10000_FRONT
62
7
6
CONTINUOUS
10
248.5581600451
20
357.0724843154
11
248.5319080451
21
357.0786983154
0
LINE
8
10000_FRONT
62
7
6
CONTINUOUS
10
250.7772000451
20
359.7396413154
11
250.6669570451
21
359.7735353154
0
LINE
8
11000_LEFT
62
7
6
CONTINUOUS
10
400.6845690451
20
286.1423703154
11
398.4844440451
21
288.3424963154
0
LINE
8
90000_FRAME
62
7
6
CONTINUOUS
10
449.0000000000
20
10.0000000000
11
449.0000000000
21
28.0000000000
0
LINE
8
90000_FRAME
62
7
6
CONTINUOUS
10
458.8025840000
20
16.8918100000
11
458.8025840000
21
17.8424640000
0
LINE
8
90000_FRAME
62
7
6
CONTINUOUS
10
462.1298720000
20
20.5518270000
11
462.1298720000
21
21.5024810000
0
LINE
8
90000_FRAME
62
7
6
CONTINUOUS
10
463.2231240000
20
21.5500140000
11
463.2231240000
21
16.7967450000
0
LINE
8
90000_FRAME
62
7
6
CONTINUOUS
10
464.6491050000
20
21.5500140000
11
464.6491050000
21
16.7967450000
0
LINE
8
11000_LEFT
62
7
6
CONTINUOUS
10
514.5406990451
20
301.1101513154
11
514.5623670451
21
301.1542293154
0
LINE
8
10000_FRONT
62
7
6
CONTINUOUS
10
248.6919030451
20
357.0814753154
11
248.6658420451
21
357.0743693154
0
LINE
8
20000_FRONT_O
62
7
6
CONTINUOUS
10
148.6674610088
20
330.8731763154
11
148.6877750088
21
330.8781603154
0
LINE
8
10000_FRONT
62
7
6
CONTINUOUS
10
248.5620050451
20
359.7735353154
11
248.6786880451
21
359.7949163154
0
LINE
8
20000_FRONT_O
62
7
6
CONTINUOUS
10
138.9315440088
20
341.1373343154
11
137.2595880088
21
340.8425233154
0
LINE
8
20000_FRONT_O
62
7
6
CONTINUOUS
10
141.2164810088
20
343.9706803154
11
137.8269380088
21
343.3730133154
0
LINE
8
10000_FRONT
62
7
6
CONTINUOUS
10
248.6658420451
20
357.0743693154
11
248.6392140451
21
357.0698333154
0
LINE
8
20000_FRONT_O
62
7
6
CONTINUOUS
10
142.1055840088
20
341.1373533154
11
142.1090660088
21
341.1378423154
0
LINE
8
20000_FRONT_O
62
7
6
CONTINUOUS
10
148.7071300088
20
359.1269343154
11
148.6482150088
21
359.1190563154
0
LINE
8
20000_FRONT_O
62
7
6
CONTINUOUS
10
114.5589320088
20
358.5033023154
11
114.6630940088
21
358.5110763154
0
LINE
8
10000_FRONT
62
7
6
CONTINUOUS
10
248.6392140451
20
357.0698333154
11
248.6121450451
21
357.0679763154
0
LINE
8
10000_FRONT
62
7
6
CONTINUOUS
10
248.6786880451
20
359.7949163154
11
248.8002670451
21
359.8023343154
0
LINE
8
20000_FRONT_O
62
7
6
CONTINUOUS
10
149.3405730088
20
359.7983183154
11
149.4068830088
21
359.8023343154
0
LINE
8
20000_FRONT_O
62
7
6
CONTINUOUS
10
114.4548350088
20
358.5033023154
11
114.5589320088
21
358.5033023154
0
LINE
8
20000_FRONT_O
62
7
6
CONTINUOUS
10
118.9632530088
20
358.5044173154
11
115.9068830088
21
358.5044173154
0
LINE
8
20000_FRONT_O
62
7
6
CONTINUOUS
10
113.1068830088
20
359.0023343154
11
115.9068830088
21
359.0023343154
0
LINE
8
20000_FRONT_O
62
7
6
CONTINUOUS
10
148.7705020088
20
359.1269343154
11
148.7071300088
21
359.1269343154
0
LINE
8
20000_FRONT_O
62
7
6
CONTINUOUS
10
150.5068830088
20
359.4023343154
11
150.3060090088
21
359.4023343154
0
LINE
8
20000_FRONT_O
62
7
6
CONTINUOUS
10
110.7927400088
20
359.5023343154
11
129.3068830088
21
359.5023343154
0
LINE
8
11000_LEFT
62
7
6
CONTINUOUS
10
508.4845690451
20
359.8023343154
11
503.3845690451
21
359.8023343154
0
LINE
8
11000_LEFT
62
7
6
CONTINUOUS
10
468.5845690451
20
359.8023343154
11
398.4845690451
21
359.8023343154
0
LINE
8
20000_FRONT_O
62
7
6
CONTINUOUS
10
110.5068830088
20
359.8023343154
11
150.5068830088
21
359.8023343154
0
LINE
8
10000_FRONT
62
7
6
CONTINUOUS
10
240.9144810451
20
359.8023343154
11
280.9144810451
21
359.8023343154
0
LINE
8
11000_LEFT
62
7
6
CONTINUOUS
10
468.8845690451
20
359.8023343154
11
502.8845690451
21
359.8023343154
0
LINE
8
90000_FRAME
62
7
6
CONTINUOUS
10
465.7423560000
20
21.5500140000
11
465.7423560000
21
16.7967450000
0
LINE
8
90000_FRAME
62
7
6
CONTINUOUS
10
467.1208040000
20
20.6706590000
11
467.1208040000
21
19.6011730000
0
LINE
8
90000_FRAME
62
7
6
CONTINUOUS
10
467.1208040000
20
18.8168840000
11
467.1208040000
21
17.6998660000
0
LINE
8
11000_LEFT
62
7
6
CONTINUOUS
10
468.5845690451
20
234.8023343154
11
468.5845690451
21
359.8023343154
0
LINE
8
90000_FRAME
62
7
6
CONTINUOUS
10
468.9745790000
20
19.6011730000
11
468.9745790000
21
18.8168840000
0
LINE
8
90000_FRAME
62
7
6
CONTINUOUS
10
469.2597760000
20
21.5500140000
11
469.2597760000
21
20.6706590000
0
LINE
8
90000_FRAME
62
7
6
CONTINUOUS
10
469.3073080000
20
17.6998660000
11
469.3073080000
21
16.7967450000
0
LINE
8
90000_FRAME
62
7
6
CONTINUOUS
10
470.1153640000
20
16.7967450000
11
470.1153640000
21
21.5500140000
0
LINE
8
90000_FRAME
62
7
6
CONTINUOUS
10
471.0660180000
20
16.7967450000
11
471.0660180000
21
19.8388370000
0
LINE
8
90000_FRAME
62
7
6
CONTINUOUS
10
474.5834370000
20
19.8863700000
11
474.5834370000
21
16.7967450000
0
LINE
8
90000_FRAME
62
7
6
CONTINUOUS
10
475.9618850000
20
21.5500140000
11
475.9618850000
21
16.7967450000
0
LINE
8
90000_FRAME
62
7
6
CONTINUOUS
10
477.0551370000
20
21.5500140000
11
477.0551370000
21
16.7967450000
0
LINE
8
90000_FRAME
62
7
6
CONTINUOUS
10
478.4335850000
20
20.6706590000
11
478.4335850000
21
19.6011730000
0
LINE
8
90000_FRAME
62
7
6
CONTINUOUS
10
478.4335850000
20
18.8168840000
11
478.4335850000
21
17.6998660000
0
LINE
8
90000_FRAME
62
7
6
CONTINUOUS
10
480.2873600000
20
19.6011730000
11
480.2873600000
21
18.8168840000
0
LINE
8
90000_FRAME
62
7
6
CONTINUOUS
10
480.5725560000
20
21.5500140000
11
480.5725560000
21
20.6706590000
0
LINE
8
90000_FRAME
62
7
6
CONTINUOUS
10
480.6200890000
20
17.6998660000
11
480.6200890000
21
16.7967450000
0
LINE
8
90000_FRAME
62
7
6
CONTINUOUS
10
481.4043780000
20
16.7967450000
11
481.4043780000
21
21.5500140000
0
LINE
8
90000_FRAME
62
7
6
CONTINUOUS
10
482.3550320000
20
16.7967450000
11
482.3550320000
21
19.8388370000
0
LINE
8
90000_FRAME
62
7
6
CONTINUOUS
10
484.6366010000
20
21.5500140000
11
484.6366010000
21
18.6029870000
0
LINE
8
90000_FRAME
62
7
6
CONTINUOUS
10
485.5872550000
20
21.5500140000
11
485.5872550000
21
16.7967450000
0
LINE
8
20000_FRONT_O
62
7
6
CONTINUOUS
10
149.1995210088
20
359.7664773154
11
149.2711770088
21
359.7863183154
0
LINE
8
20000_FRONT_O
62
7
6
CONTINUOUS
10
114.7674310088
20
358.5267923154
11
114.8719910088
21
358.5507813154
0
LINE
8
20000_FRONT_O
62
7
6
CONTINUOUS
10
149.2711770088
20
359.7863183154
11
149.3405730088
21
359.7983183154
0
LINE
8
20000_FRONT_O
62
7
6
CONTINUOUS
10
114.6630940088
20
358.5110763154
11
114.7674310088
21
358.5267923154
0
LINE
8
90000_FRAME
62
7
6
CONTINUOUS
10
486.3953110000
20
16.8918100000
11
486.3953110000
21
17.8424640000
0
LINE
8
90000_FRAME
62
7
6
CONTINUOUS
10
489.7225990000
20
20.5518270000
11
489.7225990000
21
21.5024810000
0
LINE
8
90000_FRAME
62
7
6
CONTINUOUS
10
499.0000000000
20
10.0000000000
11
499.0000000000
21
28.0000000000
0
LINE
8
11000_LEFT
62
7
6
CONTINUOUS
10
502.3845690451
20
235.1023343154
11
502.3845690451
21
237.2023343154
0
LINE
8
11000_LEFT
62
7
6
CONTINUOUS
10
502.8843669663
20
358.0577240902
11
502.8843669663
21
357.4023343154
0
LINE
8
11000_LEFT
62
7
6
CONTINUOUS
10
502.8845690451
20
358.0588093154
11
502.8845690451
21
359.8023343154
0
LINE
8
11000_LEFT
62
7
6
CONTINUOUS
10
513.9036710451
20
309.5731273154
11
513.9033170451
21
309.5681373154
0
LINE
8
90000_FRAME
62
7
6
CONTINUOUS
10
589.0000000000
20
415.0000000000
11
5.0000000000
21
415.0000000000
0
LINE
8
90000_FRAME
62
7
6
CONTINUOUS
10
594.0000000000
20
420.0000000000
11
0.0000000000
21
420.0000000000
0
LINE
8
11000_LEFT
62
7
6
CONTINUOUS
10
509.4845690451
20
235.8023343154
11
509.4845690451
21
358.8023343154
0
LINE
8
90000_FRAME
62
7
6
CONTINUOUS
10
541.5000000000
20
10.0000000000
11
541.5000000000
21
16.0000000000
0
LINE
8
90000_FRAME
62
7
6
CONTINUOUS
10
474.2507080000
20
21.5500140000
11
473.0623910000
21
18.6505200000
0
LINE
8
90000_FRAME
62
7
6
CONTINUOUS
10
474.5834370000
20
19.8863700000
11
473.2525220000
21
16.7492120000
0
LINE
8
90000_FRAME
62
7
6
CONTINUOUS
10
458.9944120000
20
20.9692080000
11
459.2684780000
21
21.2432810000
0
LINE
8
11000_LEFT
62
7
6
CONTINUOUS
10
514.5623660451
20
309.0504393154
11
514.5407000451
21
309.0945163154
0
LINE
8
90000_FRAME
62
7
6
CONTINUOUS
10
584.0000000000
20
10.0000000000
11
584.0000000000
21
28.0000000000
0
LINE
8
90000_FRAME
62
7
6
CONTINUOUS
10
589.0000000000
20
5.0000000000
11
589.0000000000
21
415.0000000000
0
LINE
8
90000_FRAME
62
7
6
CONTINUOUS
10
594.0000000000
20
0.0000000000
11
594.0000000000
21
420.0000000000
0
ARC
8
90000_FRAME
62
7
6
CONTINUOUS
10
488.0999520000
20
18.7539030000
40
1.1116192760
50
277.7100057765
51
295.6884726910
0
ARC
8
90000_FRAME
62
7
6
CONTINUOUS
10
488.3842620000
20
18.0290770000
40
0.3401679708
50
305.5031973570
51
72.4653441953
0
ARC
8
90000_FRAME
62
7
6
CONTINUOUS
10
487.8182680000
20
21.4307840000
40
4.7567942563
50
252.5939223839
51
280.9816543880
0
ARC
8
90000_FRAME
62
7
6
CONTINUOUS
10
488.2731030000
20
18.8127710000
40
2.1007270700
50
282.4058277504
51
311.8644322209
0
ARC
8
90000_FRAME
62
7
6
CONTINUOUS
10
487.9995390000
20
20.4211120000
40
0.3029627158
50
154.4400199925
51
221.8202143871
0
ARC
8
90000_FRAME
62
7
6
CONTINUOUS
10
488.0787600000
20
20.3418910000
40
0.4103090826
50
102.8287329930
51
149.2259612026
0
ARC
8
90000_FRAME
62
7
6
CONTINUOUS
10
488.4957870000
20
18.5995560000
40
2.2018366640
50
84.0400208182
51
103.3427626093
0
ARC
8
90000_FRAME
62
7
6
CONTINUOUS
10
488.1548230000
20
16.1821920000
40
4.6423734899
50
70.2625831944
51
82.9524235705
0
ARC
8
90000_FRAME
62
7
6
CONTINUOUS
10
487.6408050000
20
20.8538150000
40
3.2587559205
50
247.5300253488
51
280.7579570700
0
ARC
8
90000_FRAME
62
7
6
CONTINUOUS
10
481.2558380000
20
2.6022950000
40
17.3316081972
50
65.3414656563
51
67.3997748807
0
ARC
8
90000_FRAME
62
7
6
CONTINUOUS
10
492.0517010000
20
28.3947210000
40
10.6291640246
50
242.8620063889
51
247.1042027739
0
ARC
8
90000_FRAME
62
7
6
CONTINUOUS
10
488.1968000000
20
20.8607900000
40
2.1662921027
50
227.3119089283
51
242.7040138812
0
ARC
8
90000_FRAME
62
7
6
CONTINUOUS
10
487.5927690000
20
20.1551120000
40
1.2385215127
50
194.7952119799
51
225.7176167319
0
ARC
8
90000_FRAME
62
7
6
CONTINUOUS
10
487.6549270000
20
20.1953320000
40
1.3090917281
50
164.1974900190
51
195.8025099810
0
ARC
8
90000_FRAME
62
7
6
CONTINUOUS
10
488.2119510000
20
19.3070650000
40
2.3669241985
50
86.2218168765
51
120.4272581801
0
ARC
8
90000_FRAME
62
7
6
CONTINUOUS
10
487.9430940000
20
12.6108970000
40
9.0679051646
50
78.6827056492
51
87.3147625230
0
ARC
8
90000_FRAME
62
7
6
CONTINUOUS
10
487.4870250000
20
20.3028400000
40
1.1197472464
50
142.8139510969
51
167.1523152713
0
ARC
8
90000_FRAME
62
7
6
CONTINUOUS
10
487.8323340000
20
19.9962580000
40
1.5805467308
50
121.2140757147
51
141.5254838653
0
ARC
8
90000_FRAME
62
7
6
CONTINUOUS
10
488.4095080000
20
20.8073150000
40
0.8661270288
50
222.7760696178
51
239.0362321230
0
ARC
8
90000_FRAME
62
7
6
CONTINUOUS
10
485.9027990000
20
13.4770430000
40
6.8587737719
50
59.9020343429
51
68.2036506375
0
ARC
8
90000_FRAME
62
7
6
CONTINUOUS
10
489.3112930000
20
22.4029300000
40
2.6987414150
50
240.0482020042
51
251.3779738584
0
ARC
8
90000_FRAME
62
7
6
CONTINUOUS
10
488.6458360000
20
18.2460310000
40
1.4334474403
50
315.8904489839
51
333.5229137226
0
ARC
8
90000_FRAME
62
7
6
CONTINUOUS
10
488.6504740000
20
18.1926240000
40
1.4062288748
50
335.3867830374
51
24.3915198712
0
ARC
8
90000_FRAME
62
7
6
CONTINUOUS
10
488.5782690000
20
18.1147670000
40
1.5047033159
50
25.9563074160
51
59.4834944026
0
ARC
8
90000_FRAME
62
7
6
CONTINUOUS
10
460.5072250000
20
18.7539030000
40
1.1116192760
50
277.7100057765
51
295.6884726910
0
ARC
8
90000_FRAME
62
7
6
CONTINUOUS
10
460.7915350000
20
18.0290770000
40
0.3401679708
50
305.5031973570
51
72.4653441953
0
ARC
8
90000_FRAME
62
7
6
CONTINUOUS
10
460.2255410000
20
21.4307840000
40
4.7567942563
50
252.5939223839
51
280.9816543880
0
ARC
8
90000_FRAME
62
7
6
CONTINUOUS
10
460.6803760000
20
18.8127710000
40
2.1007270700
50
282.4058277504
51
311.8644322209
0
ARC
8
90000_FRAME
62
7
6
CONTINUOUS
10
460.4068120000
20
20.4211120000
40
0.3029627158
50
154.4400199925
51
221.8202143871
0
ARC
8
90000_FRAME
62
7
6
CONTINUOUS
10
460.4860330000
20
20.3418910000
40
0.4103090826
50
102.8287329929
51
149.2259612026
0
ARC
8
90000_FRAME
62
7
6
CONTINUOUS
10
460.9030600000
20
18.5995560000
40
2.2018366640
50
84.0400208182
51
103.3427626093
0
ARC
8
90000_FRAME
62
7
6
CONTINUOUS
10
460.5620960000
20
16.1821920000
40
4.6423734899
50
70.2625831944
51
82.9524235705
0
ARC
8
90000_FRAME
62
7
6
CONTINUOUS
10
460.0480780000
20
20.8538150000
40
3.2587559205
50
247.5300253488
51
280.7579570700
0
ARC
8
90000_FRAME
62
7
6
CONTINUOUS
10
453.6631110000
20
2.6022950000
40
17.3316081972
50
65.3414656563
51
67.3997748807
0
ARC
8
90000_FRAME
62
7
6
CONTINUOUS
10
464.4589740000
20
28.3947210000
40
10.6291640246
50
242.8620063889
51
247.1042027739
0
ARC
8
90000_FRAME
62
7
6
CONTINUOUS
10
460.6040730000
20
20.8607900000
40
2.1662921027
50
227.3119089283
51
242.7040138812
0
ARC
8
90000_FRAME
62
7
6
CONTINUOUS
10
460.0000420000
20
20.1551120000
40
1.2385215127
50
194.7952119799
51
225.7176167319
0
ARC
8
90000_FRAME
62
7
6
CONTINUOUS
10
460.6192240000
20
19.3070650000
40
2.3669241985
50
86.2218168765
51
120.4272581801
0
ARC
8
90000_FRAME
62
7
6
CONTINUOUS
10
460.3503670000
20
12.6108970000
40
9.0679051646
50
78.6827056492
51
87.3147625230
0
ARC
8
90000_FRAME
62
7
6
CONTINUOUS
10
460.2396070000
20
19.9962580000
40
1.5805467308
50
121.2140757147
51
141.5254838654
0
ARC
8
90000_FRAME
62
7
6
CONTINUOUS
10
460.8167810000
20
20.8073150000
40
0.8661270288
50
222.7760696178
51
239.0362321230
0
ARC
8
90000_FRAME
62
7
6
CONTINUOUS
10
458.3100720000
20
13.4770430000
40
6.8587737719
50
59.9020343429
51
68.2036506375
0
ARC
8
90000_FRAME
62
7
6
CONTINUOUS
10
461.7185660000
20
22.4029300000
40
2.6987414150
50
240.0482020042
51
251.3779738584
0
ARC
8
90000_FRAME
62
7
6
CONTINUOUS
10
461.0531090000
20
18.2460310000
40
1.4334474403
50
315.8904489839
51
333.5229137226
0
ARC
8
90000_FRAME
62
7
6
CONTINUOUS
10
461.0577470000
20
18.1926240000
40
1.4062288748
50
335.3867830374
51
24.3915198712
0
ARC
8
90000_FRAME
62
7
6
CONTINUOUS
10
460.9855420000
20
18.1147670000
40
1.5047033159
50
25.9563074160
51
59.4834944026
0
ARC
8
90000_FRAME
62
7
6
CONTINUOUS
10
460.0622000000
20
20.1953320000
40
1.3090917281
50
164.1974900190
51
195.8025099810
0
ARC
8
90000_FRAME
62
7
6
CONTINUOUS
10
459.8942980000
20
20.3028400000
40
1.1197472464
50
142.8139510969
51
167.1523152713
0
CIRCLE
8
91000_TIP
62
7
6
CONTINUOUS
10
433.9291900000
20
19.5428840000
40
5.0000000000
0
CIRCLE
8
91000_TIP
62
7
6
CONTINUOUS
10
433.9291900000
20
19.5428840000
40
2.5000000000
0
ARC
8
11000_LEFT
62
7
6
CONTINUOUS
10
503.3845690451
20
359.3023343154
40
0.5000000000
50
90.0000000000
51
180.0000000000
0
ARC
8
11000_LEFT
62
7
6
CONTINUOUS
10
508.4845690451
20
235.8023343154
40
1.0000000000
50
270.0000000000
51
360.0000000000
0
ARC
8
11000_LEFT
62
7
6
CONTINUOUS
10
508.4845690451
20
358.8023343154
40
1.0000000000
50
0.0000000000
51
90.0000000000
0
ARC
8
11000_LEFT
62
7
6
CONTINUOUS
10
506.4745690451
20
305.1023343154
40
9.0000000899
50
333.6494261524
51
333.9791336363
0
ARC
8
11000_LEFT
62
7
6
CONTINUOUS
10
513.7508610451
20
301.4981723154
40
0.8800001058
50
279.9999725812
51
333.6494002557
0
ARC
8
11000_LEFT
62
7
6
CONTINUOUS
10
513.7508610451
20
308.7064963154
40
0.8799995362
50
26.3505997443
51
80.0000274188
0
ARC
8
11000_LEFT
62
7
6
CONTINUOUS
10
506.4745690451
20
305.1023343154
40
9.0000005322
50
333.9804176790
51
26.3505738476
0
ARC
8
11000_LEFT
62
7
6
CONTINUOUS
10
468.8845690451
20
235.1023343154
40
0.3000000000
50
180.0000000000
51
270.0000000000
0
ARC
8
11000_LEFT
62
7
6
CONTINUOUS
10
468.8845690451
20
359.5023343154
40
0.3000000000
50
90.0000000000
51
180.0000000000
0
ARC
8
11000_LEFT
62
7
6
CONTINUOUS
10
502.0845690451
20
235.1023343154
40
0.3000000000
50
270.0000000000
51
360.0000000000
0
ARC
8
11000_LEFT
62
7
6
CONTINUOUS
10
410.2845690451
20
264.5868203154
40
2.4999995538
50
285.0000119283
51
360.0000000000
0
ARC
8
11000_LEFT
62
7
6
CONTINUOUS
10
410.2845690451
20
281.7578483154
40
2.5000000000
50
0.0000000000
51
74.9999880717
0
ARC
8
11000_LEFT
62
7
6
CONTINUOUS
10
403.0845690451
20
355.3023343154
40
1.5000000000
50
0.0000000000
51
90.0000000000
0
ARC
8
11000_LEFT
62
7
6
CONTINUOUS
10
402.4845690451
20
355.3023343154
40
1.5000000000
50
90.0000000000
51
180.0000000000
0
ARC
8
11000_LEFT
62
7
6
CONTINUOUS
10
401.1577740451
20
341.3023343154
40
0.3000000000
50
90.0000000000
51
149.9999406858
0
ARC
8
11000_LEFT
62
7
6
CONTINUOUS
10
398.4845690451
20
359.3023343154
40
0.5000000000
50
90.0000000000
51
180.0000000000
0
ARC
8
11000_LEFT
62
7
6
CONTINUOUS
10
394.5845690451
20
334.7023343154
40
2.0000000000
50
90.0000000000
51
180.0000000000
0
ARC
8
11000_LEFT
62
7
6
CONTINUOUS
10
394.5845690451
20
312.3023343154
40
2.0000000000
50
180.0000000000
51
270.0000000000
0
ARC
8
11000_LEFT
62
7
6
CONTINUOUS
10
400.7345690451
20
355.0523343154
40
0.2500000000
50
270.0000000000
51
360.0000000000
0
ARC
8
11000_LEFT
62
7
6
CONTINUOUS
10
398.4845690451
20
355.3023343154
40
0.5000000000
50
180.0000000000
51
270.0000000000
0
ARC
8
10000_FRONT
62
7
6
CONTINUOUS
10
254.4644810451
20
237.6523343154
40
0.4500000000
50
270.0000000000
51
90.0000000000
0
ARC
8
10000_FRONT
62
7
6
CONTINUOUS
10
248.4144810451
20
237.0023343154
40
0.5999996481
50
49.9858299368
51
160.5287976699
0
ARC
8
10000_FRONT
62
7
6
CONTINUOUS
10
254.4144810451
20
356.9023343154
40
0.5000000000
50
0.0000000000
51
90.0000000000
0
CIRCLE
8
10000_FRONT
62
7
6
CONTINUOUS
10
259.3644810451
20
241.8023343154
40
0.9500000000
0
ARC
8
10000_FRONT
62
7
6
CONTINUOUS
10
279.9144810451
20
358.8023343154
40
1.0000000000
50
0.0000000000
51
90.0000000000
0
ARC
8
10000_FRONT
62
7
6
CONTINUOUS
10
250.8144810451
20
237.7023343154
40
0.5000000000
50
270.0000000000
51
360.0000000000
0
ARC
8
10000_FRONT
62
7
6
CONTINUOUS
10
279.9144810451
20
235.8023343154
40
1.0000000000
50
270.0000000000
51
360.0000000000
0
ARC
8
13000_TOP
62
7
6
CONTINUOUS
10
279.8144810451
20
65.6549643154
40
1.0000000000
50
270.0000000000
51
360.0000000000
0
ARC
8
13000_TOP
62
7
6
CONTINUOUS
10
263.7491350451
20
69.3549643154
40
2.0000003122
50
194.9999949279
51
270.0000000000
0
ARC
8
13000_TOP
62
7
6
CONTINUOUS
10
279.7071940451
20
70.5549643154
40
1.0000000000
50
90.0000000000
51
164.9999902429
0
ARC
8
13000_TOP
62
7
6
CONTINUOUS
10
247.7434920451
20
59.5449643154
40
0.8799999758
50
182.9999582582
51
270.0000000000
0
ARC
8
13000_TOP
62
7
6
CONTINUOUS
10
247.7554690451
20
59.5449643154
40
0.8800000000
50
270.0000000000
51
357.0000417418
0
ARC
8
13000_TOP
62
7
6
CONTINUOUS
10
241.4144810451
20
65.1549643154
40
0.5000000000
50
180.0000000000
51
270.0000000000
0
ARC
8
13000_TOP
62
7
6
CONTINUOUS
10
266.9144810451
20
79.5549643154
40
1.0000000000
50
270.0000000000
51
360.0000000000
0
ARC
8
13000_TOP
62
7
6
CONTINUOUS
10
262.3144820451
20
92.2287633154
40
0.7000000000
50
180.0000000000
51
270.0000000000
0
ARC
8
13000_TOP
62
7
6
CONTINUOUS
10
277.7144820451
20
92.2287633154
40
0.7000000000
50
270.0000000000
51
360.0000000000
0
ARC
8
13000_TOP
62
7
6
CONTINUOUS
10
258.9644810451
20
108.5363353154
40
0.3000000000
50
90.0000000000
51
180.0000000000
0
ARC
8
13000_TOP
62
7
6
CONTINUOUS
10
262.8644810451
20
108.5363353154
40
0.3000000000
50
0.0000000000
51
90.0000000000
0
ARC
8
13000_TOP
62
7
6
CONTINUOUS
10
251.8144810451
20
109.4549643154
40
0.2000000000
50
180.0000000000
51
270.0000000000
0
ARC
8
13000_TOP
62
7
6
CONTINUOUS
10
251.8144810451
20
111.0549643154
40
0.2000000000
50
90.0000000000
51
180.0000000000
0
ARC
8
13000_TOP
62
7
6
CONTINUOUS
10
255.9144810451
20
109.4549643154
40
0.2000000000
50
270.0000000000
51
360.0000000000
0
ARC
8
13000_TOP
62
7
6
CONTINUOUS
10
255.9144810451
20
111.0549643154
40
0.2000000000
50
0.0000000000
51
90.0000000000
0
ARC
8
13000_TOP
62
7
6
CONTINUOUS
10
270.0144810451
20
109.4549643154
40
0.2000000000
50
270.0000000000
51
360.0000000000
0
ARC
8
13000_TOP
62
7
6
CONTINUOUS
10
270.0144810451
20
111.0549643154
40
0.2000000000
50
0.0000000000
51
90.0000000000
0
ARC
8
13000_TOP
62
7
6
CONTINUOUS
10
265.9144810451
20
109.4549643154
40
0.2000000000
50
180.0000000000
51
270.0000000000
0
ARC
8
13000_TOP
62
7
6
CONTINUOUS
10
265.9144810451
20
111.0549643154
40
0.2000000000
50
90.0000000000
51
180.0000000000
0
ARC
8
13000_TOP
62
7
6
CONTINUOUS
10
242.9144810451
20
179.5549643154
40
2.0000000000
50
90.0000000000
51
180.0000000000
0
ARC
8
20000_FRONT_O
62
7
6
CONTINUOUS
10
139.5068840088
20
346.7723343154
40
1.4000004595
50
56.6147684045
51
123.3851974231
0
ARC
8
20000_FRONT_O
62
7
6
CONTINUOUS
10
139.5068840088
20
346.7723343154
40
1.3999995381
50
185.5544793045
51
354.4455246568
0
CIRCLE
8
20000_FRONT_O
62
7
6
CONTINUOUS
10
139.5068840088
20
314.0573343154
40
2.0500000000
0
CIRCLE
8
20000_FRONT_O
62
7
6
CONTINUOUS
10
139.5068840088
20
303.5373343154
40
2.0500000000
0
ARC
8
20000_FRONT_O
62
7
6
CONTINUOUS
10
139.5068840088
20
344.5373343154
40
2.0500002089
50
52.2617893981
51
127.7381884993
0
ARC
8
20000_FRONT_O
62
7
6
CONTINUOUS
10
139.5068840088
20
344.5373343154
40
2.0499995257
50
166.0233817130
51
13.9766115365
0
ARC
8
20000_FRONT_O
62
7
6
CONTINUOUS
10
139.5068840088
20
334.0173343154
40
2.0500000788
50
141.4182802856
51
210.7067324492
0
ARC
8
20000_FRONT_O
62
7
6
CONTINUOUS
10
139.5068840088
20
334.0173343154
40
2.0499998104
50
232.9307349800
51
113.9397666543
0
ARC
8
20000_FRONT_O
62
7
6
CONTINUOUS
10
138.2368840088
20
330.1123343154
40
0.5000005105
50
334.1979344877
51
266.4234511842
0
CIRCLE
8
20000_FRONT_O
62
7
6
CONTINUOUS
10
138.2368840088
20
332.8823343154
40
0.5000000000
0
ARC
8
20000_FRONT_O
62
7
6
CONTINUOUS
10
138.2368840088
20
335.6623343154
40
0.4999991751
50
113.1769835472
51
66.8229111095
0
CIRCLE
8
20000_FRONT_O
62
7
6
CONTINUOUS
10
138.2368840088
20
338.4323343154
40
0.5000000000
0
ARC
8
20000_FRONT_O
62
7
6
CONTINUOUS
10
140.7768840088
20
328.7323343154
40
0.5000000889
50
7.5607870678
51
29.5585156664
0
ARC
8
20000_FRONT_O
62
7
6
CONTINUOUS
10
140.7768840088
20
331.5023343154
40
0.4999999916
50
56.6327119771
51
123.3671923203
0
CIRCLE
8
20000_FRONT_O
62
7
6
CONTINUOUS
10
140.7768840088
20
334.2723343154
40
0.5000000000
0
CIRCLE
8
20000_FRONT_O
62
7
6
CONTINUOUS
10
140.7768840088
20
339.8123343154
40
0.5000000000
0
ARC
8
20000_FRONT_O
62
7
6
CONTINUOUS
10
141.8468840088
20
340.0673223154
40
1.5600000000
50
0.0000000000
51
77.2788779061
0
ARC
8
20000_FRONT_O
62
7
6
CONTINUOUS
10
137.2868840088
20
329.4032493154
40
1.6800000000
50
180.0000000000
51
201.1959312563
0
ARC
8
20000_FRONT_O
62
7
6
CONTINUOUS
10
141.9068840088
20
340.1388273154
40
2.0000000000
50
0.0000000000
51
80.2732233510
0
ARC
8
20000_FRONT_O
62
7
6
CONTINUOUS
10
137.1068840088
20
329.2522113154
40
2.0000000000
50
180.0000000000
51
193.1810005919
0
ARC
8
20000_FRONT_O
62
7
6
CONTINUOUS
10
137.1068840088
20
339.2924573154
40
2.0000003486
50
112.4845278072
51
180.0000000000
0
ARC
8
20000_FRONT_O
62
7
6
CONTINUOUS
10
137.6068840088
20
338.8729073154
40
2.0000004248
50
99.9999875177
51
180.0000000000
0
CIRCLE
8
20000_FRONT_O
62
7
6
CONTINUOUS
10
130.9068840088
20
260.8923343154
40
1.7500000000
0
CIRCLE
8
20000_FRONT_O
62
7
6
CONTINUOUS
10
130.9068840088
20
255.8923343154
40
1.7500000000
0
CIRCLE
8
20000_FRONT_O
62
7
6
CONTINUOUS
10
130.9068840088
20
250.8923343154
40
1.7500000000
0
CIRCLE
8
20000_FRONT_O
62
7
6
CONTINUOUS
10
130.9068840088
20
245.8923343154
40
1.7500000000
0
ARC
8
20000_FRONT_O
62
7
6
CONTINUOUS
10
141.8068840088
20
340.6223343154
40
3.3999994278
50
95.4886487192
51
99.9999877101
0
ARC
8
20000_FRONT_O
62
7
6
CONTINUOUS
10
137.2068840088
20
339.8112303154
40
3.3999995056
50
99.9999877101
51
137.5837295291
0
ARC
8
20000_FRONT_O
62
7
6
CONTINUOUS
10
134.5068830088
20
239.3023343154
40
1.0000000000
50
180.0000000000
51
270.0000000000
0
ARC
8
20000_FRONT_O
62
7
6
CONTINUOUS
10
138.5068830088
20
239.3023343154
40
1.0000000000
50
270.0000000000
51
360.0000000000
0
ARC
8
20000_FRONT_O
62
7
6
CONTINUOUS
10
149.5068830088
20
358.8023343154
40
1.0000000000
50
0.0000000000
51
90.0000000000
0
ARC
8
20000_FRONT_O
62
7
6
CONTINUOUS
10
130.3068830088
20
356.9023343154
40
0.5000000000
50
0.0000000000
51
90.0000000000
0
ARC
8
20000_FRONT_O
62
7
6
CONTINUOUS
10
120.4068830088
20
237.7023343154
40
0.5000000000
50
270.0000000000
51
360.0000000000
0
ARC
8
20000_FRONT_O
62
7
6
CONTINUOUS
10
121.9068830088
20
237.7023343154
40
0.5000000000
50
270.0000000000
51
360.0000000000
0
ARC
8
20000_FRONT_O
62
7
6
CONTINUOUS
10
119.9068830088
20
235.8023343154
40
1.0000000000
50
270.0000000000
51
360.0000000000
0
ARC
8
20000_FRONT_O
62
7
6
CONTINUOUS
10
129.8068830088
20
358.8023343154
40
1.0000000000
50
0.0000000000
51
90.0000000000
0
ARC
8
20000_FRONT_O
62
7
6
CONTINUOUS
10
138.7068830088
20
263.0023343154
40
0.8000000000
50
0.0000000000
51
90.0000000000
0
ARC
8
20000_FRONT_O
62
7
6
CONTINUOUS
10
137.2068830088
20
235.1023343154
40
0.3000000000
50
270.0000000000
51
360.0000000000
0
ARC
8
20000_FRONT_O
62
7
6
CONTINUOUS
10
123.5068830088
20
356.9023343154
40
0.5000000000
50
0.0000000000
51
90.0000000000
0
ARC
8
20000_FRONT_O
62
7
6
CONTINUOUS
10
149.8568830088
20
313.6602093154
40
0.4999996680
50
149.4417328266
51
180.0000000000
0
ARC
8
20000_FRONT_O
62
7
6
CONTINUOUS
10
149.8568830088
20
317.9459323154
40
0.5000000000
50
180.0000000000
51
210.6515588472
0
ARC
8
20000_FRONT_O
62
7
6
CONTINUOUS
10
148.7068830088
20
235.1023343154
40
0.3000000000
50
180.0000000000
51
270.0000000000
0
ARC
8
20000_FRONT_O
62
7
6
CONTINUOUS
10
129.9878890088
20
359.5023343154
40
0.3000000000
50
90.0000000000
51
102.2960702615
0
ARC
8
20000_FRONT_O
62
7
6
CONTINUOUS
10
111.5068830088
20
235.8023343154
40
1.0000000000
50
180.0000000000
51
270.0000000000
0
ARC
8
20000_FRONT_O
62
7
6
CONTINUOUS
10
148.7068830088
20
359.5023343154
40
0.3000000000
50
90.0000000000
51
180.0000000000
0
ARC
8
20000_FRONT_O
62
7
6
CONTINUOUS
10
111.5068830088
20
358.8023343154
40
1.0000000000
50
90.0000000000
51
180.0000000000
0
ARC
8
20000_FRONT_O
62
7
6
CONTINUOUS
10
149.6568830088
20
280.8898233154
40
0.3000000000
50
180.0000000000
51
210.5581954413
0
ARC
8
20000_FRONT_O
62
7
6
CONTINUOUS
10
149.7568830088
20
280.9171413154
40
0.3999997178
50
183.9093182968
51
210.5583019465
0
ARC
8
20000_FRONT_O
62
7
6
CONTINUOUS
10
149.7568830088
20
276.6861413154
40
0.4000003231
50
149.3485196537
51
176.0781902627
0
ARC
8
20000_FRONT_O
62
7
6
CONTINUOUS
10
149.6568830088
20
276.7135473154
40
0.2999995573
50
149.3485531211
51
180.0000000000
0
ARC
8
20000_FRONT_O
62
7
6
CONTINUOUS
10
149.5068830088
20
235.8023343154
40
1.0000000000
50
270.0000000000
51
360.0000000000
0
ARC
8
20000_FRONT_O
62
7
6
CONTINUOUS
10
136.5068830088
20
265.1023343154
40
1.0000000000
50
0.0000000000
51
90.0000000000
0
ARC
8
20000_FRONT_O
62
7
6
CONTINUOUS
10
119.0068830088
20
357.4023343154
40
0.5000000000
50
270.0000000000
51
360.0000000000
0
ARC
8
20000_FRONT_O
62
7
6
CONTINUOUS
10
119.0068830088
20
237.2023343154
40
0.5000000000
50
0.0000000000
51
90.0000000000
0
ENDSEC
0
EOF
