0
SECTION
2
HEADER
9
$EXTMAX
10
594.0000000000
20
420.0000000000
9
$EXTMIN
10
0.0000000000
20
0.0000000000
9
$LIMMIN
10
0.0000000000
20
0.0000000000
9
$LIMMAX
10
594.0000000000
20
420.0000000000
9
$VIEWCTR
10
297.0000000000
20
210.0000000000
9
$VIEWSIZE
40
420.0000000000
9
$CLAYER
8
0
9
$LTSCALE
40
32.6700000000
9
$CELTYPE
6
BYLAYER
9
$DIMSCALE
40
1
9
$DIMASZ
40
3.5000000000
9
$DIMEXO
40
3.7125000000
9
$DIMDLI
40
22.5720000000
9
$DIMEXE
40
10.6920000000
9
$DIMCEN
40
5.3460000000
9
$DIMLFAC
40
1.0000000000
0
ENDSEC
0
SECTION
2
TABLES
0
TABLE
2
LTYPE
70
6
0
LTYPE
2
BYBLOCK
70
0
3

72
65
73
0
40
0.0
0
LTYPE
2
BYLAYER
70
0
3

72
65
73
0
40
0.0
0
LTYPE
2
CONTINUOUS
70
64
3
Solid line
72
65
73
0
40
0
0
LTYPE
2
CENTER
70
64
3
____ _ ____ _ ____ _ ____ _ ____ _ ____ _ ____
72
65
73
4
40
0.6
49
0.375
49
-0.075
49
0.075
49
-0.075
0
LTYPE
2
HIDDEN
70
64
3
- - - - - - - - - - - - - - - - - - - -
72
65
73
2
40
0.2
49
0.1
49
-0.1
0
LTYPE
2
PHANTOM
70
64
3
_____ _ _ _____ _ _ _____ _ _ _____
72
65
73
6
40
0.8
49
0.45
49
-0.05
49
0.1
49
-0.05
49
0.1
49
-0.05
0
LTYPE
2
DOT
70
64
3
. . . . . . . . . . . . . . . . . . . .
72
65
73
2
40
0.2
49
0.1
49
-0.1
0
LTYPE
2
DASHED
70
64
3
- - - - - - - - - - - - - - - - - - - -
72
65
73
2
40
0.2
49
0.1
49
-0.1
0
ENDTAB
0
TABLE
2
LAYER
70
36
0
LAYER
2
0
70
0
62
7
6
CONTINUOUS
0
LAYER
2
DEFAULT_1
70
0
62
7
6
CENTER
0
LAYER
2
DEFAULT_2
70
0
62
8
6
HIDDEN
0
LAYER
2
DEFAULT_3
70
0
62
7
6
PHANTOM
0
LAYER
2
10000_FRONT
70
0
62
7
6
CONTINUOUS
0
LAYER
2
10100_DIM_FRONT
70
0
62
7
6
CONTINUOUS
0
LAYER
2
10300_FRONT_GERMAN_ENGLISH
70
0
62
7
6
CONTINUOUS
0
LAYER
2
11000_LEFT
70
0
62
7
6
CONTINUOUS
0
LAYER
2
11100_DIM_LEFT
70
0
62
7
6
CONTINUOUS
0
LAYER
2
11300_LEFT_GERMAN_ENGLISH
70
0
62
7
6
CONTINUOUS
0
LAYER
2
12000_RIGHT
70
0
62
7
6
CONTINUOUS
0
LAYER
2
12100_DIM_RIGHT
70
0
62
7
6
CONTINUOUS
0
LAYER
2
12300_RIGHT_GERMAN_ENGLISH
70
0
62
7
6
CONTINUOUS
0
LAYER
2
13000_TOP
70
0
62
7
6
CONTINUOUS
0
LAYER
2
13100_DIM_TOP
70
0
62
7
6
CONTINUOUS
0
LAYER
2
13300_TOP_GERMAN_ENGLISH
70
0
62
7
6
CONTINUOUS
0
LAYER
2
14000_BOTTOM
70
0
62
7
6
CONTINUOUS
0
LAYER
2
14100_DIM_BOTTOM
70
0
62
7
6
CONTINUOUS
0
LAYER
2
14300_BOTTOM_GERMAN_ENGLISH
70
0
62
7
6
CONTINUOUS
0
LAYER
2
15000_BACK
70
0
62
7
6
CONTINUOUS
0
LAYER
2
15100_DIM_BACK
70
0
62
7
6
CONTINUOUS
0
LAYER
2
15300_BACK_GERMAN_ENGLISH
70
0
62
7
6
CONTINUOUS
0
LAYER
2
20000_FRONT_O
70
0
62
7
6
CONTINUOUS
0
LAYER
2
20100_DIM_FRONT_O
70
0
62
7
6
CONTINUOUS
0
LAYER
2
20300_FRONT_O_GERMAN_ENGLISH
70
0
62
7
6
CONTINUOUS
0
LAYER
2
40000_ISO
70
0
62
7
6
CONTINUOUS
0
LAYER
2
40300_ISO_GERMAN_ENGLISH
70
0
62
7
6
CONTINUOUS
0
LAYER
2
50000_WIRING
70
0
62
7
6
CONTINUOUS
0
LAYER
2
50300_WIRING_GERMAN_ENGLISH
70
0
62
7
6
CONTINUOUS
0
LAYER
2
90000_FRAME
70
0
62
7
6
CONTINUOUS
0
LAYER
2
91000_TIP
70
0
62
7
6
CONTINUOUS
0
ENDTAB
0
ENDSEC
0
SECTION
2
BLOCKS
0
BLOCK
8
10100_DIM_FRONT
62
7
6
CONTINUOUS
2
*D0
70
65
10
0.0000000000
20
0.0000000000
0
TEXT
8
10100_DIM_FRONT
62
7
6
CONTINUOUS
10
216.3219488264
20
243.2955158593
40
3.5000000000
1
40
72
5
11
221.8219488264
21
243.2955158593
0
LINE
8
10100_DIM_FRONT
62
7
6
CONTINUOUS
10
198.9038227097
20
251.7772334362
11
198.9038227097
21
240.4205158755
0
LINE
8
10100_DIM_FRONT
62
7
6
CONTINUOUS
10
238.9038227097
20
251.7772334362
11
238.9038227097
21
240.4205158755
0
LINE
8
10100_DIM_FRONT
62
7
6
CONTINUOUS
10
198.9038227097
20
242.4205158755
11
218.9038227097
21
242.4205158755
0
LINE
8
10100_DIM_FRONT
62
7
6
CONTINUOUS
10
238.9038227097
20
242.4205158755
11
218.9038227097
21
242.4205158755
0
SOLID
8
10100_DIM_FRONT
62
7
6
CONTINUOUS
10
202.4038227097
20
242.9205158755
11
198.9038227097
21
242.4205158755
12
202.4038227097
22
241.9205158755
13
202.4038227097
23
241.9205158755
0
SOLID
8
10100_DIM_FRONT
62
7
6
CONTINUOUS
10
235.4038227097
20
241.9205158755
11
238.9038227097
21
242.4205158755
12
235.4038227097
22
242.9205158755
13
235.4038227097
23
242.9205158755
0
ENDBLK
8
0
0
BLOCK
8
10100_DIM_FRONT
62
7
6
CONTINUOUS
2
*D1
70
65
10
0.0000000000
20
0.0000000000
0
TEXT
8
10100_DIM_FRONT
62
7
6
CONTINUOUS
10
248.1673833796
20
309.1342909670
40
3.5000000000
1
125
50
90.0000000000
72
5
11
248.1673833796
21
316.3842909670
0
LINE
8
10100_DIM_FRONT
62
7
6
CONTINUOUS
10
238.9038227097
20
251.7772334362
11
251.0423833796
21
251.7772334362
0
LINE
8
10100_DIM_FRONT
62
7
6
CONTINUOUS
10
238.9038227097
20
376.7772334362
11
251.0423833796
21
376.7772334362
0
LINE
8
10100_DIM_FRONT
62
7
6
CONTINUOUS
10
249.0423833796
20
251.7772334362
11
249.0423833796
21
314.2772334362
0
LINE
8
10100_DIM_FRONT
62
7
6
CONTINUOUS
10
249.0423833796
20
376.7772334362
11
249.0423833796
21
314.2772334362
0
SOLID
8
10100_DIM_FRONT
62
7
6
CONTINUOUS
10
248.5423833796
20
255.2772334362
11
249.0423833796
21
251.7772334362
12
249.5423833796
22
255.2772334362
13
249.5423833796
23
255.2772334362
0
SOLID
8
10100_DIM_FRONT
62
7
6
CONTINUOUS
10
249.5423833796
20
373.2772334362
11
249.0423833796
21
376.7772334362
12
248.5423833796
22
373.2772334362
13
248.5423833796
23
373.2772334362
0
ENDBLK
8
0
0
BLOCK
8
11100_DIM_LEFT
62
7
6
CONTINUOUS
2
*D2
70
65
10
0.0000000000
20
0.0000000000
0
TEXT
8
11100_DIM_LEFT
62
7
6
CONTINUOUS
10
403.5124155725
20
241.2606165573
40
3.5000000000
1
116.9
72
5
11
415.0124155725
21
241.2606165573
0
LINE
8
11100_DIM_LEFT
62
7
6
CONTINUOUS
10
347.6878491929
20
269.5772334362
11
347.6878491929
21
238.3856165573
0
LINE
8
11100_DIM_LEFT
62
7
6
CONTINUOUS
10
464.5878491929
20
252.7772334362
11
464.5878491929
21
238.3856165573
0
LINE
8
11100_DIM_LEFT
62
7
6
CONTINUOUS
10
347.6878491929
20
240.3856165573
11
406.1378491929
21
240.3856165573
0
LINE
8
11100_DIM_LEFT
62
7
6
CONTINUOUS
10
464.5878491929
20
240.3856165573
11
406.1378491929
21
240.3856165573
0
SOLID
8
11100_DIM_LEFT
62
7
6
CONTINUOUS
10
351.1878491929
20
240.8856165573
11
347.6878491929
21
240.3856165573
12
351.1878491929
22
239.8856165573
13
351.1878491929
23
239.8856165573
0
SOLID
8
11100_DIM_LEFT
62
7
6
CONTINUOUS
10
461.0878491929
20
239.8856165573
11
464.5878491929
21
240.3856165573
12
461.0878491929
22
240.8856165573
13
461.0878491929
23
240.8856165573
0
ENDBLK
8
0
0
ENDSEC
0
SECTION
2
ENTITIES
0
DIMENSION
8
10100_DIM_FRONT
62
7
6
CONTINUOUS
2
*D0
10
238.9038227097
20
242.4205158755
11
219.0719488264
21
245.0455158593
70
128
13
198.9038227097
23
251.7772334362
14
238.9038227097
24
251.7772334362
0
DIMENSION
8
10100_DIM_FRONT
62
7
6
CONTINUOUS
2
*D1
10
249.0423833796
20
376.7772334362
11
246.4173833796
21
312.7592909670
70
128
13
238.9038227097
23
251.7772334362
14
238.9038227097
24
376.7772334362
50
90.000000
0
DIMENSION
8
11100_DIM_LEFT
62
7
6
CONTINUOUS
2
*D2
10
464.5878491929
20
240.3856165573
11
409.2624155725
21
243.0106165573
70
128
13
347.6878491929
23
269.5772334362
14
464.5878491929
24
252.7772334362
0
TEXT
8
90000_FRAME
62
7
6
CONTINUOUS
10
499.6600000000
20
11.9000000000
40
2.2000000000
1
Format / Size: DIN A2
72
5
11
533.2361904762
21
11.9000000000
0
TEXT
8
90000_FRAME
62
7
6
CONTINUOUS
10
542.1600000000
20
11.9000000000
40
2.2000000000
1
Massstab / Scale: 1:1
72
5
11
573.0647619048
21
11.9000000000
0
TEXT
8
90000_FRAME
62
7
6
CONTINUOUS
10
515.1666666667
20
20.2500000000
40
3.5000000000
1
6GK73431CX100XE0_001
72
5
11
567.8333333333
21
20.2500000000
0
TEXT
8
10300_FRONT_GERMAN_ENGLISH
62
7
6
CONTINUOUS
10
198.1390449438
20
384.3851825843
40
3.5000000000
1
Vorne / Front
72
5
11
230.7223782772
21
384.3851825843
0
TEXT
8
11300_LEFT_GERMAN_ENGLISH
62
7
6
CONTINUOUS
10
342.1146438265
20
384.2023931637
40
3.5000000000
1
Links / Left
72
5
11
370.6146438265
21
384.2023931637
0
TEXT
8
13300_TOP_GERMAN_ENGLISH
62
7
6
CONTINUOUS
10
200.0161516854
20
169.7693117978
40
3.5000000000
1
Oben / Top
72
5
11
226.4328183521
21
169.7693117978
0
TEXT
8
91000_TIP
62
7
6
CONTINUOUS
10
11.2756234532
20
15.1898618139
40
3.5000000000
1
Alle Bemassungswerte sind in Millimeter (mm) angegeben.
72
5
11
145.8589567865
21
15.1898618139
0
TEXT
8
91000_TIP
62
7
6
CONTINUOUS
10
11.2756234532
20
9.9398618139
40
3.5000000000
1
All dimensions are in millimeters (mm).
72
5
11
104.4422901199
21
9.9398618139
0
LINE
8
90000_FRAME
62
7
6
CONTINUOUS
10
0.0000000000
20
420.0000000000
11
0.0000000000
21
0.0000000000
0
LINE
8
90000_FRAME
62
7
6
CONTINUOUS
10
5.0000000000
20
415.0000000000
11
5.0000000000
21
5.0000000000
0
LINE
8
91000_TIP
62
7
6
CONTINUOUS
10
420.3560840630
20
22.0989002427
11
430.3560838587
21
24.5989001916
0
LINE
8
90000_FRAME
62
7
6
CONTINUOUS
10
0.0000000000
20
0.0000000000
11
594.0000000000
21
0.0000000000
0
LINE
8
90000_FRAME
62
7
6
CONTINUOUS
10
5.0000000000
20
5.0000000000
11
589.0000000000
21
5.0000000000
0
LINE
8
90000_FRAME
62
7
6
CONTINUOUS
10
449.0000000000
20
10.0000000000
11
584.0000000000
21
10.0000000000
0
LINE
8
90000_FRAME
62
7
6
CONTINUOUS
10
499.0000000000
20
16.0000000000
11
584.0000000000
21
16.0000000000
0
LINE
8
90000_FRAME
62
7
6
CONTINUOUS
10
472.3969334385
20
16.7492119180
11
473.2525218735
21
16.7492119180
0
LINE
8
90000_FRAME
62
7
6
CONTINUOUS
10
485.5872551446
20
16.7967446088
11
484.0662090379
21
16.7967446088
0
LINE
8
90000_FRAME
62
7
6
CONTINUOUS
10
475.9618852509
20
16.7967446088
11
474.5834372168
21
16.7967446088
0
LINE
8
90000_FRAME
62
7
6
CONTINUOUS
10
463.2231241078
20
16.7967446088
11
464.6491048328
21
16.7967446088
0
LINE
8
90000_FRAME
62
7
6
CONTINUOUS
10
465.7423567219
20
16.7967446088
11
469.3073085344
21
16.7967446088
0
LINE
8
90000_FRAME
62
7
6
CONTINUOUS
10
470.1153642785
20
16.7967446088
11
471.0660180952
21
16.7967446088
0
LINE
8
90000_FRAME
62
7
6
CONTINUOUS
10
477.0551371401
20
16.7967446088
11
480.6200889526
21
16.7967446088
0
LINE
8
90000_FRAME
62
7
6
CONTINUOUS
10
481.4043783513
20
16.7967446088
11
482.3550321680
21
16.7967446088
0
LINE
8
90000_FRAME
62
7
6
CONTINUOUS
10
480.6200889526
20
17.6998657346
11
478.4335851743
21
17.6998657346
0
LINE
8
90000_FRAME
62
7
6
CONTINUOUS
10
469.3073085344
20
17.6998657346
11
467.1208047561
21
17.6998657346
0
LINE
8
90000_FRAME
62
7
6
CONTINUOUS
10
480.2873601167
20
18.8168839692
11
478.4335851743
21
18.8168839692
0
LINE
8
90000_FRAME
62
7
6
CONTINUOUS
10
468.9745796985
20
18.8168839692
11
467.1208047561
21
18.8168839692
0
LINE
8
91000_TIP
62
7
6
CENTER
10
419.0765735910
20
19.5989002937
11
442.6785628551
21
19.5989002937
0
LINE
8
90000_FRAME
62
7
6
CONTINUOUS
10
480.2873601167
20
19.6011733680
11
478.4335851743
21
19.6011733680
0
LINE
8
90000_FRAME
62
7
6
CONTINUOUS
10
468.9745796985
20
19.6011733680
11
467.1208047561
21
19.6011733680
0
LINE
8
90000_FRAME
62
7
6
CONTINUOUS
10
480.5725562617
20
20.6706589117
11
478.4335851743
21
20.6706589117
0
LINE
8
90000_FRAME
62
7
6
CONTINUOUS
10
469.2597758435
20
20.6706589117
11
467.1208047561
21
20.6706589117
0
LINE
8
90000_FRAME
62
7
6
CONTINUOUS
10
485.5872551446
20
21.5500136921
11
484.6366013279
21
21.5500136921
0
LINE
8
90000_FRAME
62
7
6
CONTINUOUS
10
482.9491908034
20
21.5500136921
11
481.4043783513
21
21.5500136921
0
LINE
8
90000_FRAME
62
7
6
CONTINUOUS
10
480.5725562617
20
21.5500136921
11
477.0551371401
21
21.5500136921
0
LINE
8
90000_FRAME
62
7
6
CONTINUOUS
10
475.9618852509
20
21.5500136921
11
474.2507083810
21
21.5500136921
0
LINE
8
90000_FRAME
62
7
6
CONTINUOUS
10
471.8265411485
20
21.5500136921
11
470.1153642785
21
21.5500136921
0
LINE
8
90000_FRAME
62
7
6
CONTINUOUS
10
469.2597758435
20
21.5500136921
11
465.7423567219
21
21.5500136921
0
LINE
8
90000_FRAME
62
7
6
CONTINUOUS
10
463.2231241078
20
21.5500136921
11
464.6491048328
21
21.5500136921
0
LINE
8
10000_FRONT
62
7
6
CONTINUOUS
10
215.6223736098
20
374.1368079210
11
215.4660588137
21
373.9495739008
0
LINE
8
10000_FRONT
62
7
6
CONTINUOUS
10
216.6774985181
20
372.2176589678
11
216.8338133980
21
372.4048930044
0
LINE
8
10000_FRONT
62
7
6
CONTINUOUS
10
218.3578826385
20
373.4814887191
11
218.2797253104
21
373.3878717090
0
LINE
8
10000_FRONT
62
7
6
CONTINUOUS
10
221.0543132548
20
374.1368079210
11
220.8979981513
21
373.9495739008
0
LINE
8
10000_FRONT
62
7
6
CONTINUOUS
10
218.3188040863
20
373.1070206786
11
218.4751187426
21
373.2474461938
0
LINE
8
10000_FRONT
62
7
6
CONTINUOUS
10
221.9140445353
20
373.2006376887
11
222.0703591916
21
373.3410632039
0
LINE
8
10000_FRONT
62
7
6
CONTINUOUS
10
225.5092847607
20
373.2006376887
11
225.6655998642
21
373.3410632039
0
LINE
8
10000_FRONT
62
7
6
CONTINUOUS
10
215.7005310218
20
373.8559568907
11
215.8177671258
21
373.9495739008
0
LINE
8
10000_FRONT
62
7
6
CONTINUOUS
10
216.5993411899
20
372.4985100473
11
216.4821050859
21
372.4048930044
0
LINE
8
10000_FRONT
62
7
6
CONTINUOUS
10
221.1324703593
20
373.9027653957
11
221.2497064634
21
373.9963824059
0
LINE
8
10000_FRONT
62
7
6
CONTINUOUS
10
221.9922020870
20
372.2176589678
11
222.1094381911
21
372.3112759943
0
LINE
8
10000_FRONT
62
7
6
CONTINUOUS
10
224.7277110320
20
373.9027653957
11
224.8449471360
21
373.9963824059
0
LINE
8
10000_FRONT
62
7
6
CONTINUOUS
10
225.5874427596
20
372.2176589678
11
225.7046788637
21
372.3112759943
0
LINE
8
10000_FRONT
62
7
6
CONTINUOUS
10
231.6837192747
20
373.4814887191
11
231.5664831707
21
373.3878717090
0
LINE
8
10000_FRONT
62
7
6
CONTINUOUS
10
232.3871358989
20
372.4048930044
11
232.2698997948
21
372.3112759943
0
LINE
8
10000_FRONT
62
7
6
CONTINUOUS
10
234.8881739774
20
373.5282972241
11
234.7709378734
21
373.4346802140
0
LINE
8
10000_FRONT
62
7
6
CONTINUOUS
10
234.7709378734
20
373.2474461938
11
234.8881739774
21
373.3410632039
0
LINE
8
10000_FRONT
62
7
6
CONTINUOUS
10
233.7548910422
20
372.1240419454
11
233.8721271462
21
372.2176589678
0
LINE
8
10000_FRONT
62
7
6
CONTINUOUS
10
215.7786884338
20
374.2304249311
11
215.6223736098
21
374.1368079210
0
LINE
8
10000_FRONT
62
7
6
CONTINUOUS
10
216.5211837500
20
372.1240419454
11
216.6774985181
21
372.2176589678
0
LINE
8
10000_FRONT
62
7
6
CONTINUOUS
10
221.2106279111
20
374.2304249311
11
221.0543132548
21
374.1368079210
0
LINE
8
10000_FRONT
62
7
6
CONTINUOUS
10
224.8058681365
20
374.2304249311
11
224.6495539274
21
374.1368079210
0
LINE
8
10000_FRONT
62
7
6
CONTINUOUS
10
221.9140445353
20
372.4048930044
11
221.8358869835
21
372.3580844993
0
LINE
8
10000_FRONT
62
7
6
CONTINUOUS
10
221.8358869835
20
372.1240419454
11
221.9922020870
21
372.2176589678
0
LINE
8
10000_FRONT
62
7
6
CONTINUOUS
10
225.5092847607
20
372.4048930044
11
225.4311276561
21
372.3580844993
0
LINE
8
10000_FRONT
62
7
6
CONTINUOUS
10
225.4311276561
20
372.1240419454
11
225.5874427596
21
372.2176589678
0
LINE
8
10000_FRONT
62
7
6
CONTINUOUS
10
233.2468685210
20
372.7793610776
11
233.3250247311
21
372.8261695827
0
LINE
8
10000_FRONT
62
7
6
CONTINUOUS
10
232.3089796888
20
372.1240419454
11
232.4652938978
21
372.2176589678
0
LINE
8
10000_FRONT
62
7
6
CONTINUOUS
10
231.7618772737
20
373.2942546988
11
231.8400352726
21
373.3410632039
0
LINE
8
10000_FRONT
62
7
6
CONTINUOUS
10
233.1296324170
20
373.5282972241
11
233.0514744180
21
373.4814887191
0
LINE
8
10000_FRONT
62
7
6
CONTINUOUS
10
233.1687105220
20
373.2942546988
11
233.2468685210
21
373.3410632039
0
LINE
8
10000_FRONT
62
7
6
CONTINUOUS
10
233.2468685210
20
373.0134036685
11
233.0905525230
21
372.9197866584
0
LINE
8
10000_FRONT
62
7
6
CONTINUOUS
10
233.7548910422
20
372.3580844993
11
233.5594969391
21
372.2644674728
0
LINE
8
10000_FRONT
62
7
6
CONTINUOUS
10
218.2797253104
20
373.3878717090
11
218.1624892064
21
373.3410632039
0
LINE
8
10000_FRONT
62
7
6
CONTINUOUS
10
221.8358869835
20
373.3878717090
11
221.6014147755
21
373.2942546988
0
LINE
8
10000_FRONT
62
7
6
CONTINUOUS
10
225.4311276561
20
373.3878717090
11
225.1966554481
21
373.2942546988
0
LINE
8
10000_FRONT
62
7
6
CONTINUOUS
10
231.8009553787
20
373.5282972241
11
231.6837192747
21
373.4814887191
0
LINE
8
10000_FRONT
62
7
6
CONTINUOUS
10
215.8177671258
20
373.9495739008
11
215.9740819498
21
373.9963824059
0
LINE
8
10000_FRONT
62
7
6
CONTINUOUS
10
216.4821050859
20
372.4048930044
11
216.3257902060
21
372.3580844993
0
LINE
8
10000_FRONT
62
7
6
CONTINUOUS
10
221.6795723272
20
372.0772334362
11
221.8358869835
21
372.1240419454
0
LINE
8
10000_FRONT
62
7
6
CONTINUOUS
10
225.2748125526
20
372.0772334362
11
225.4311276561
21
372.1240419454
0
LINE
8
10000_FRONT
62
7
6
CONTINUOUS
10
231.8400352726
20
373.3410632039
11
231.9963494817
21
373.3878717090
0
LINE
8
10000_FRONT
62
7
6
CONTINUOUS
10
233.2468685210
20
373.3410632039
11
233.4031827301
21
373.3878717090
0
LINE
8
10000_FRONT
62
7
6
CONTINUOUS
10
235.0444881865
20
373.5751057292
11
234.8881739774
21
373.5282972241
0
LINE
8
10000_FRONT
62
7
6
CONTINUOUS
10
234.8881739774
20
373.3410632039
11
235.0444881865
21
373.3878717090
0
LINE
8
10000_FRONT
62
7
6
CONTINUOUS
10
233.3250247311
20
372.8261695827
11
233.4813407290
21
372.8729780878
0
LINE
8
90000_FRAME
62
7
6
CONTINUOUS
10
449.0000000000
20
28.0000000000
11
584.0000000000
21
28.0000000000
0
LINE
8
13000_TOP
62
7
6
CONTINUOUS
10
237.9038227097
20
44.1811029412
11
199.9038227097
21
44.1811029412
0
LINE
8
13000_TOP
62
7
6
CONTINUOUS
10
218.3848286423
20
45.6500970085
11
200.7088227097
21
45.6500970085
0
LINE
8
13000_TOP
62
7
6
CONTINUOUS
10
219.4228167770
20
45.6500970085
11
236.8038227097
21
45.6500970085
0
LINE
8
13000_TOP
62
7
6
CONTINUOUS
10
200.7088227097
20
51.8121088738
11
200.8594982668
21
51.6600662886
0
LINE
8
10000_FRONT
62
7
6
CONTINUOUS
10
215.6223736098
20
373.7155312444
11
215.7005310218
21
373.8559568907
0
LINE
8
10000_FRONT
62
7
6
CONTINUOUS
10
221.0543132548
20
373.7623398806
11
221.1324703593
21
373.9027653957
0
LINE
8
10000_FRONT
62
7
6
CONTINUOUS
10
222.0703591916
20
373.3410632039
11
222.1485167433
21
373.4814887191
0
LINE
8
10000_FRONT
62
7
6
CONTINUOUS
10
222.1094381911
20
372.3112759943
11
222.1875952956
21
372.4517015094
0
LINE
8
10000_FRONT
62
7
6
CONTINUOUS
10
224.6495539274
20
373.7623398806
11
224.7277110320
21
373.9027653957
0
LINE
8
10000_FRONT
62
7
6
CONTINUOUS
10
218.4751187426
20
373.2474461938
11
218.5923548466
21
373.4346802140
0
LINE
8
10000_FRONT
62
7
6
CONTINUOUS
10
227.2287482160
20
374.2772334362
11
226.9942760080
21
373.9495739008
0
LINE
8
10000_FRONT
62
7
6
CONTINUOUS
10
226.9942760080
20
373.5751057292
11
227.2287482160
21
373.9027653957
0
LINE
8
10000_FRONT
62
7
6
CONTINUOUS
10
199.2870347775
20
328.5879286700
11
199.1317196407
21
328.3713756667
0
LINE
8
10000_FRONT
62
7
6
CONTINUOUS
10
223.4771928871
20
374.2772334362
11
222.5393036077
21
373.0134036685
0
LINE
8
10000_FRONT
62
7
6
CONTINUOUS
10
222.8128548152
20
373.0134036685
11
223.4771928871
21
373.9027653957
0
LINE
8
10000_FRONT
62
7
6
CONTINUOUS
10
221.9140445353
20
373.4814887191
11
221.8358869835
21
373.3878717090
0
LINE
8
10000_FRONT
62
7
6
CONTINUOUS
10
221.9922020870
20
372.4985100473
11
221.9140445353
21
372.4048930044
0
LINE
8
10000_FRONT
62
7
6
CONTINUOUS
10
224.6495539274
20
374.1368079210
11
224.4932388239
21
373.9495739008
0
LINE
8
10000_FRONT
62
7
6
CONTINUOUS
10
225.5092847607
20
373.4814887191
11
225.4311276561
21
373.3878717090
0
LINE
8
10000_FRONT
62
7
6
CONTINUOUS
10
225.5874427596
20
372.4985100473
11
225.5092847607
21
372.4048930044
0
LINE
8
10000_FRONT
62
7
6
CONTINUOUS
10
231.5664831707
20
373.3878717090
11
231.4883269606
21
373.2942546988
0
LINE
8
10000_FRONT
62
7
6
CONTINUOUS
10
231.6446411696
20
373.1538291837
11
231.7618772737
21
373.2942546988
0
LINE
8
10000_FRONT
62
7
6
CONTINUOUS
10
233.0514744180
20
373.4814887191
11
232.9733164190
21
373.3878717090
0
LINE
8
10000_FRONT
62
7
6
CONTINUOUS
10
232.4652938978
20
372.2176589678
11
232.5825300019
21
372.3580844993
0
LINE
8
10000_FRONT
62
7
6
CONTINUOUS
10
233.0905525230
20
372.9197866584
11
233.0123963129
21
372.8261695827
0
LINE
8
10000_FRONT
62
7
6
CONTINUOUS
10
233.1687105220
20
372.6857440675
11
233.2468685210
21
372.7793610776
0
LINE
8
10000_FRONT
62
7
6
CONTINUOUS
10
233.8721271462
20
372.4985100473
11
233.7548910422
21
372.3580844993
0
LINE
8
10000_FRONT
62
7
6
CONTINUOUS
10
234.7709378734
20
373.4346802140
11
234.6927798744
21
373.3410632039
0
LINE
8
10000_FRONT
62
7
6
CONTINUOUS
10
234.6927798744
20
373.1538291837
11
234.7709378734
21
373.2474461938
0
LINE
8
10000_FRONT
62
7
6
CONTINUOUS
10
199.4733088158
20
328.7528148972
11
199.2870347775
21
328.5879286700
0
LINE
8
10000_FRONT
62
7
6
CONTINUOUS
10
201.5603736436
20
328.3468931691
11
201.4562588462
21
328.2552062915
0
LINE
8
10000_FRONT
62
7
6
CONTINUOUS
10
201.5161999533
20
317.7754366973
11
201.3038227097
21
317.6114149895
0
LINE
8
10000_FRONT
62
7
6
CONTINUOUS
10
201.4244448413
20
330.2484866991
11
201.3038227097
21
330.1665506887
0
LINE
8
10000_FRONT
62
7
6
CONTINUOUS
10
199.6894234624
20
328.8587294374
11
199.4733088158
21
328.7528148972
0
LINE
8
10000_FRONT
62
7
6
CONTINUOUS
10
201.4562588462
20
328.2552062915
11
201.3038227097
21
328.1965310925
0
LINE
8
10000_FRONT
62
7
6
CONTINUOUS
10
201.5374977547
20
330.2869609232
11
201.4244448413
21
330.2484866991
0
LINE
8
13000_TOP
62
7
6
CONTINUOUS
10
200.7088227097
20
51.8121088738
11
218.3848286423
21
51.8121088738
0
LINE
8
13000_TOP
62
7
6
CONTINUOUS
10
219.4228167770
20
51.8121088738
11
236.8038227097
21
51.8121088738
0
LINE
8
13000_TOP
62
7
6
CONTINUOUS
10
236.8038227097
20
52.2500970085
11
219.4228167770
21
52.2500970085
0
LINE
8
13000_TOP
62
7
6
CONTINUOUS
10
218.3848286423
20
52.2500970085
11
200.7088227097
21
52.2500970085
0
LINE
8
13000_TOP
62
7
6
CONTINUOUS
10
200.7088227097
20
58.3121088738
11
218.3848286423
21
58.3121088738
0
LINE
8
13000_TOP
62
7
6
CONTINUOUS
10
219.4228167770
20
58.3121088738
11
236.8038227097
21
58.3121088738
0
LINE
8
13000_TOP
62
7
6
CONTINUOUS
10
218.3848286423
20
58.7500970085
11
200.7088227097
21
58.7500970085
0
LINE
8
13000_TOP
62
7
6
CONTINUOUS
10
219.4228167770
20
58.7500970085
11
236.8038227097
21
58.7500970085
0
LINE
8
13000_TOP
62
7
6
CONTINUOUS
10
200.7088227097
20
64.8121088738
11
218.3848286423
21
64.8121088738
0
LINE
8
13000_TOP
62
7
6
CONTINUOUS
10
219.4228167770
20
64.8121088738
11
236.8038227097
21
64.8121088738
0
LINE
8
13000_TOP
62
7
6
CONTINUOUS
10
218.3848286423
20
65.2500970085
11
200.7088227097
21
65.2500970085
0
LINE
8
13000_TOP
62
7
6
CONTINUOUS
10
219.4228167770
20
65.2500970085
11
236.8038227097
21
65.2500970085
0
LINE
8
91000_TIP
62
7
6
CONTINUOUS
10
420.3560840630
20
17.0989003448
11
430.3560838587
21
14.5989003958
0
LINE
8
10000_FRONT
62
7
6
CONTINUOUS
10
199.0123822802
20
328.1109394232
11
198.9333070289
21
327.8080293548
0
LINE
8
10000_FRONT
62
7
6
CONTINUOUS
10
201.7737187058
20
318.2337139161
11
201.6754102740
21
317.9869935789
0
LINE
8
10000_FRONT
62
7
6
CONTINUOUS
10
215.4660588137
20
373.9495739008
11
215.3879014122
21
373.7623398806
0
LINE
8
10000_FRONT
62
7
6
CONTINUOUS
10
221.9922020870
20
373.6687227393
11
221.9140445353
21
373.4814887191
0
LINE
8
10000_FRONT
62
7
6
CONTINUOUS
10
222.0312806393
20
372.5921270574
11
221.9922020870
21
372.4985100473
0
LINE
8
10000_FRONT
62
7
6
CONTINUOUS
10
225.5874427596
20
373.6687227393
11
225.5092847607
21
373.4814887191
0
LINE
8
10000_FRONT
62
7
6
CONTINUOUS
10
225.6265208647
20
372.5921270574
11
225.5874427596
21
372.4985100473
0
LINE
8
10000_FRONT
62
7
6
CONTINUOUS
10
231.4883269606
20
373.2942546988
11
231.4101689616
21
373.1070206786
0
LINE
8
10000_FRONT
62
7
6
CONTINUOUS
10
231.6055630646
20
373.0602121736
11
231.6446411696
21
373.1538291837
0
LINE
8
10000_FRONT
62
7
6
CONTINUOUS
10
232.9733164190
20
373.3878717090
11
232.9342383140
21
373.2942546988
0
LINE
8
10000_FRONT
62
7
6
CONTINUOUS
10
233.1296324170
20
373.2006376887
11
233.1687105220
21
373.2942546988
0
LINE
8
10000_FRONT
62
7
6
CONTINUOUS
10
233.0123963129
20
372.8261695827
11
232.9342383140
21
372.6389355625
0
LINE
8
10000_FRONT
62
7
6
CONTINUOUS
10
199.1317196407
20
328.3713756667
11
199.0123822802
21
328.1109394232
0
LINE
8
10000_FRONT
62
7
6
CONTINUOUS
10
201.6102136906
20
328.4476750536
11
201.5603736436
21
328.3468931691
0
LINE
8
10000_FRONT
62
7
6
CONTINUOUS
10
205.5092281357
20
309.0177739407
11
205.3362551228
21
308.6718280102
0
LINE
8
10000_FRONT
62
7
6
CONTINUOUS
10
205.7686875359
20
308.5853415752
11
205.8551740662
21
308.7583144451
0
LINE
8
10000_FRONT
62
7
6
CONTINUOUS
10
207.2389577881
20
306.8556118275
11
207.1524713532
21
306.6826388622
0
LINE
8
10000_FRONT
62
7
6
CONTINUOUS
10
225.6655998642
20
373.3410632039
11
225.7437569687
21
373.4814887191
0
LINE
8
10000_FRONT
62
7
6
CONTINUOUS
10
225.7046788637
20
372.3112759943
11
225.7828359682
21
372.4517015094
0
LINE
8
10000_FRONT
62
7
6
CONTINUOUS
10
201.6754102740
20
317.9869935789
11
201.5161999533
21
317.7754366973
0
LINE
8
10000_FRONT
62
7
6
CONTINUOUS
10
236.2282017688
20
328.6920914643
11
236.3039383590
21
328.7772334362
0
LINE
8
10000_FRONT
62
7
6
CONTINUOUS
10
205.8551740662
20
308.7583144451
11
205.9416605011
21
308.8448010708
0
LINE
8
10000_FRONT
62
7
6
CONTINUOUS
10
207.1524713532
20
306.6826388622
11
206.8930118576
21
306.4231793905
0
LINE
8
10000_FRONT
62
7
6
CONTINUOUS
10
207.3254444138
20
306.2502064134
11
207.5849037186
21
306.5096658493
0
LINE
8
10000_FRONT
62
7
6
CONTINUOUS
10
221.2497684494
20
309.1042603756
11
220.9903095261
21
308.8448010708
0
LINE
8
10000_FRONT
62
7
6
CONTINUOUS
10
236.0742731450
20
330.2083416739
11
236.1612936372
21
330.2767500913
0
LINE
8
10000_FRONT
62
7
6
CONTINUOUS
10
236.3039383590
20
328.7772334362
11
236.3605705486
21
328.8163628221
0
LINE
8
10000_FRONT
62
7
6
CONTINUOUS
10
205.7686875359
20
309.1907470013
11
205.5092281357
21
309.0177739407
0
LINE
8
10000_FRONT
62
7
6
CONTINUOUS
10
221.5092273728
20
309.2772334362
11
221.2497684494
21
309.1042603756
0
LINE
8
10000_FRONT
62
7
6
CONTINUOUS
10
221.4227420822
20
308.7583144451
11
221.6822010056
21
308.9312875057
0
LINE
8
10000_FRONT
62
7
6
CONTINUOUS
10
236.3757317947
20
316.8052477656
11
236.3235877611
21
316.7719446917
0
LINE
8
10000_FRONT
62
7
6
CONTINUOUS
10
238.4484067930
20
325.1893149308
11
238.6763257923
21
325.3319438718
0
LINE
8
10000_FRONT
62
7
6
CONTINUOUS
10
205.9416605011
20
309.2772334362
11
205.7686875359
21
309.1907470013
0
LINE
8
10000_FRONT
62
7
6
CONTINUOUS
10
205.9416605011
20
308.8448010708
11
206.1146335617
21
308.9312875057
0
LINE
8
10000_FRONT
62
7
6
CONTINUOUS
10
206.9794982926
20
306.0772334362
11
207.3254444138
21
306.2502064134
0
LINE
8
10000_FRONT
62
7
6
CONTINUOUS
10
236.3605705486
20
328.8163628221
11
236.4284283642
21
328.8482155378
0
LINE
8
10000_FRONT
62
7
6
CONTINUOUS
10
206.1146335617
20
308.9312875057
11
206.3740929619
21
309.0177739407
0
LINE
8
10000_FRONT
62
7
6
CONTINUOUS
10
238.1795170438
20
325.1035121261
11
238.4484067930
21
325.1893149308
0
LINE
8
13000_TOP
62
7
6
CONTINUOUS
10
200.7088227097
20
71.3121088738
11
218.3848286423
21
71.3121088738
0
LINE
8
13000_TOP
62
7
6
CONTINUOUS
10
219.4228167770
20
71.3121088738
11
236.8038227097
21
71.3121088738
0
LINE
8
13000_TOP
62
7
6
CONTINUOUS
10
218.3848286423
20
71.7500970085
11
200.7088227097
21
71.7500970085
0
LINE
8
13000_TOP
62
7
6
CONTINUOUS
10
219.4228167770
20
71.7500970085
11
236.8038227097
21
71.7500970085
0
LINE
8
13000_TOP
62
7
6
CONTINUOUS
10
200.7088227097
20
77.8121088738
11
218.3848286423
21
77.8121088738
0
LINE
8
13000_TOP
62
7
6
CONTINUOUS
10
219.4228167770
20
77.8121088738
11
236.8038227097
21
77.8121088738
0
LINE
8
13000_TOP
62
7
6
CONTINUOUS
10
218.3848286423
20
78.2500970085
11
200.7088227097
21
78.2500970085
0
LINE
8
13000_TOP
62
7
6
CONTINUOUS
10
219.4228167770
20
78.2500970085
11
236.8038227097
21
78.2500970085
0
LINE
8
13000_TOP
62
7
6
CONTINUOUS
10
200.7088227097
20
84.3121088738
11
218.3848286423
21
84.3121088738
0
LINE
8
13000_TOP
62
7
6
CONTINUOUS
10
219.4228167770
20
84.3121088738
11
236.8038227097
21
84.3121088738
0
LINE
8
13000_TOP
62
7
6
CONTINUOUS
10
198.9038227097
20
85.0811029412
11
238.9038227097
21
85.0811029412
0
LINE
8
13000_TOP
62
7
6
CONTINUOUS
10
220.8538227097
20
88.3624737911
11
216.9538227097
21
88.3624737911
0
LINE
8
13000_TOP
62
7
6
CONTINUOUS
10
220.9069646932
20
89.0752190772
11
220.8538227097
21
89.1624737911
0
LINE
8
13000_TOP
62
7
6
CONTINUOUS
10
220.9539924608
20
88.9956079317
11
220.9069646932
21
89.0752190772
0
LINE
8
13000_TOP
62
7
6
CONTINUOUS
10
220.9947311652
20
88.9227285552
11
220.9539924608
21
88.9956079317
0
LINE
8
13000_TOP
62
7
6
CONTINUOUS
10
221.0293689933
20
88.8559203854
11
220.9947311652
21
88.9227285552
0
LINE
8
10000_FRONT
62
7
6
CONTINUOUS
10
198.9333070289
20
327.8080293548
11
198.9038227097
21
327.4637914278
0
LINE
8
10000_FRONT
62
7
6
CONTINUOUS
10
201.6246817037
20
328.5664218299
11
201.6102147703
21
328.4477667659
0
LINE
8
10000_FRONT
62
7
6
CONTINUOUS
10
201.8038227097
20
318.4772334362
11
201.7737187058
21
318.2337139161
0
LINE
8
10000_FRONT
62
7
6
CONTINUOUS
10
215.3879014122
20
373.7623398806
11
215.3488227097
21
373.5282972241
0
LINE
8
10000_FRONT
62
7
6
CONTINUOUS
10
216.8338133980
20
372.4048930044
11
216.8728920620
21
372.6389355625
0
LINE
8
10000_FRONT
62
7
6
CONTINUOUS
10
215.5832949177
20
373.5282972241
11
215.6223736098
21
373.7155312444
0
LINE
8
10000_FRONT
62
7
6
CONTINUOUS
10
220.8979981513
20
373.9495739008
11
220.8589195990
21
373.7623398806
0
LINE
8
10000_FRONT
62
7
6
CONTINUOUS
10
222.1485167433
20
373.4814887191
11
222.1875952956
21
373.6687227393
0
LINE
8
10000_FRONT
62
7
6
CONTINUOUS
10
224.4932388239
20
373.9495739008
11
224.4541598244
21
373.7623398806
0
LINE
8
10000_FRONT
62
7
6
CONTINUOUS
10
225.7437569687
20
373.4814887191
11
225.7828359682
21
373.6687227393
0
LINE
8
10000_FRONT
62
7
6
CONTINUOUS
10
216.6384198540
20
372.6389355625
11
216.5993411899
21
372.4985100473
0
LINE
8
10000_FRONT
62
7
6
CONTINUOUS
10
218.3969614144
20
373.6219142343
11
218.3578826385
21
373.4814887191
0
LINE
8
10000_FRONT
62
7
6
CONTINUOUS
10
218.5923548466
20
373.4346802140
11
218.6314336225
21
373.5751057292
0
LINE
8
10000_FRONT
62
7
6
CONTINUOUS
10
222.1875952956
20
372.4517015094
11
222.2266742951
21
372.5921270574
0
LINE
8
10000_FRONT
62
7
6
CONTINUOUS
10
225.7828359682
20
372.4517015094
11
225.8219149677
21
372.5921270574
0
LINE
8
10000_FRONT
62
7
6
CONTINUOUS
10
232.4262157928
20
372.5453185523
11
232.3871358989
21
372.4048930044
0
LINE
8
10000_FRONT
62
7
6
CONTINUOUS
10
233.1296324170
20
372.5453185523
11
233.1687105220
21
372.6857440675
0
LINE
8
10000_FRONT
62
7
6
CONTINUOUS
10
207.5849037186
20
306.5096658493
11
207.6713903443
21
306.7691253448
0
LINE
8
10000_FRONT
62
7
6
CONTINUOUS
10
212.0822010056
20
309.2772334362
11
211.2173362747
21
306.6826388622
0
LINE
8
10000_FRONT
62
7
6
CONTINUOUS
10
211.4767955795
20
306.0772334362
11
212.4281467453
21
308.9312875057
0
LINE
8
10000_FRONT
62
7
6
CONTINUOUS
10
200.9173362300
20
255.0177739466
11
200.9632821486
21
255.1556118036
0
LINE
8
10000_FRONT
62
7
6
CONTINUOUS
10
201.6524713830
20
254.7880442525
11
201.6984173015
21
254.9258821095
0
LINE
8
10000_FRONT
62
7
6
CONTINUOUS
10
201.6984173015
20
254.0069631557
11
201.7443632201
21
254.1448010127
0
LINE
8
10000_FRONT
62
7
6
CONTINUOUS
10
220.8173358933
20
308.5853415752
11
220.7308490769
21
308.3258820797
0
LINE
8
10000_FRONT
62
7
6
CONTINUOUS
10
221.1632816330
20
308.2393956448
11
221.2497684494
21
308.4988551403
0
LINE
8
10000_FRONT
62
7
6
CONTINUOUS
10
203.5362551585
20
255.0177739466
11
203.5822010771
21
255.1556118036
0
LINE
8
10000_FRONT
62
7
6
CONTINUOUS
10
204.2713904635
20
254.7880442525
11
204.3173361794
21
254.9258821095
0
LINE
8
10000_FRONT
62
7
6
CONTINUOUS
10
204.3173361794
20
254.0069631557
11
204.3632823006
21
254.1448010127
0
LINE
8
10000_FRONT
62
7
6
CONTINUOUS
10
222.7200382248
20
306.9420982624
11
222.6335529343
21
306.6826388622
0
LINE
8
10000_FRONT
62
7
6
CONTINUOUS
10
214.3308498398
20
307.2880442883
11
214.9362552658
21
308.8448010708
0
LINE
8
10000_FRONT
62
7
6
CONTINUOUS
10
213.8119304672
20
306.0772334362
11
214.1578769699
21
306.9420982624
0
LINE
8
10000_FRONT
62
7
6
CONTINUOUS
10
214.6767955795
20
309.2772334362
11
213.3794986740
21
306.0772334362
0
LINE
8
10000_FRONT
62
7
6
CONTINUOUS
10
233.9112052512
20
372.5921270574
11
233.8721271462
21
372.4985100473
0
LINE
8
10000_FRONT
62
7
6
CONTINUOUS
10
233.8721271462
20
372.2176589678
11
233.9112052512
21
372.3112759943
0
LINE
8
10000_FRONT
62
7
6
CONTINUOUS
10
236.1889111642
20
328.5997577329
11
236.2282017688
21
328.6920914643
0
LINE
8
10000_FRONT
62
7
6
CONTINUOUS
10
236.0205947521
20
330.0869589932
11
236.0742731450
21
330.2083416739
0
LINE
8
10000_FRONT
62
7
6
CONTINUOUS
10
200.7794983730
20
255.2934496606
11
200.6876064979
21
255.1096658851
0
LINE
8
10000_FRONT
62
7
6
CONTINUOUS
10
201.4686876074
20
254.8799360896
11
201.4227415875
21
254.7880442525
0
LINE
8
10000_FRONT
62
7
6
CONTINUOUS
10
203.3984174029
20
255.2934496606
11
203.3065253631
21
255.1096658851
0
LINE
8
10000_FRONT
62
7
6
CONTINUOUS
10
204.0876063839
20
254.8799360896
11
204.0416606680
21
254.7880442525
0
LINE
8
10000_FRONT
62
7
6
CONTINUOUS
10
220.9903095261
20
308.8448010708
11
220.8173358933
21
308.5853415752
0
LINE
8
10000_FRONT
62
7
6
CONTINUOUS
10
221.2497684494
20
308.4988551403
11
221.4227420822
21
308.7583144451
0
LINE
8
10000_FRONT
62
7
6
CONTINUOUS
10
201.5146335260
20
254.1448010127
11
201.4227415875
21
254.0069631557
0
LINE
8
10000_FRONT
62
7
6
CONTINUOUS
10
204.1335525051
20
254.1448010127
11
204.0416606680
21
254.0069631557
0
LINE
8
10000_FRONT
62
7
6
CONTINUOUS
10
202.0659848527
20
254.3285847629
11
202.6632820979
21
255.2015577222
0
LINE
8
10000_FRONT
62
7
6
CONTINUOUS
10
202.6173361794
20
255.4312875176
11
201.8822010771
21
254.3745307321
0
LINE
8
10000_FRONT
62
7
6
CONTINUOUS
10
236.4559158117
20
316.8988041206
11
236.4202339792
21
316.8483039760
0
LINE
8
10000_FRONT
62
7
6
CONTINUOUS
10
238.6763257923
20
325.3319438718
11
238.8368070848
21
325.5245668624
0
LINE
8
10000_FRONT
62
7
6
CONTINUOUS
10
222.6335529343
20
306.6826388622
11
222.3740924851
21
306.4231793905
0
LINE
8
10000_FRONT
62
7
6
CONTINUOUS
10
222.8065250412
20
306.2502064134
11
223.0659854904
21
306.5096658493
0
LINE
8
10000_FRONT
62
7
6
CONTINUOUS
10
236.4202339792
20
316.8483039760
11
236.3757317947
21
316.8052477656
0
LINE
8
10000_FRONT
62
7
6
CONTINUOUS
10
222.5470661179
20
306.0772334362
11
222.8065250412
21
306.2502064134
0
LINE
8
10000_FRONT
62
7
6
CONTINUOUS
10
236.3235877611
20
316.7719446917
11
236.2653585030
21
316.7506168027
0
LINE
8
10000_FRONT
62
7
6
CONTINUOUS
10
221.6822010056
20
308.9312875057
11
221.9416599289
21
309.0177739407
0
LINE
8
10000_FRONT
62
7
6
CONTINUOUS
10
222.3740924851
20
306.4231793905
11
222.1146335617
21
306.3366928841
0
LINE
8
13000_TOP
62
7
6
CONTINUOUS
10
213.9038227097
20
88.7811029412
11
209.8038227097
21
88.7811029412
0
LINE
8
13000_TOP
62
7
6
CONTINUOUS
10
223.9038227097
20
88.7811029412
11
228.0038227097
21
88.7811029412
0
LINE
8
13000_TOP
62
7
6
CONTINUOUS
10
220.8538227097
20
89.1624737911
11
216.9538227097
21
89.1624737911
0
LINE
8
13000_TOP
62
7
6
CONTINUOUS
10
201.0038227097
20
90.5811029412
11
238.9038227097
21
90.5811029412
0
LINE
8
13000_TOP
62
7
6
CONTINUOUS
10
228.0038227097
20
90.7811029412
11
223.9038227097
21
90.7811029412
0
LINE
8
13000_TOP
62
7
6
CONTINUOUS
10
209.8038227097
20
90.7811029412
11
213.9038227097
21
90.7811029412
0
LINE
8
13000_TOP
62
7
6
CONTINUOUS
10
238.1538227097
20
91.4811029412
11
219.6538227097
21
91.4811029412
0
LINE
8
13000_TOP
62
7
6
CONTINUOUS
10
200.7038227097
20
91.4811029412
11
218.1538227097
21
91.4811029412
0
LINE
8
13000_TOP
62
7
6
CONTINUOUS
10
218.1538227097
20
97.0811029412
11
200.7038227097
21
97.0811029412
0
LINE
8
13000_TOP
62
7
6
CONTINUOUS
10
219.6538227097
20
97.0811029412
11
238.1538227097
21
97.0811029412
0
LINE
8
13000_TOP
62
7
6
CONTINUOUS
10
238.1538227097
20
97.9811029412
11
219.6538227097
21
97.9811029412
0
LINE
8
13000_TOP
62
7
6
CONTINUOUS
10
200.7038227097
20
97.9811029412
11
218.1538227097
21
97.9811029412
0
LINE
8
13000_TOP
62
7
6
CONTINUOUS
10
218.1538227097
20
103.5811029412
11
200.7038227097
21
103.5811029412
0
LINE
8
13000_TOP
62
7
6
CONTINUOUS
10
219.6538227097
20
103.5811029412
11
238.1538227097
21
103.5811029412
0
LINE
8
13000_TOP
62
7
6
CONTINUOUS
10
238.1538227097
20
104.4811029412
11
219.6538227097
21
104.4811029412
0
LINE
8
13000_TOP
62
7
6
CONTINUOUS
10
200.7038227097
20
104.4811029412
11
218.1538227097
21
104.4811029412
0
LINE
8
13000_TOP
62
7
6
CONTINUOUS
10
238.1538227097
20
104.4811029412
11
237.8538227097
21
104.7811029412
0
LINE
8
13000_TOP
62
7
6
CONTINUOUS
10
238.1538227097
20
117.4811029412
11
237.8538227097
21
117.7811029412
0
LINE
8
13000_TOP
62
7
6
CONTINUOUS
10
221.0582915610
20
88.7947358965
11
221.0293689933
21
88.8559203854
0
LINE
8
13000_TOP
62
7
6
CONTINUOUS
10
221.0820567120
20
88.7387253492
11
221.0582915610
21
88.7947358965
0
LINE
8
13000_TOP
62
7
6
CONTINUOUS
10
221.1013465435
20
88.6872676164
11
221.0820567120
21
88.7387253492
0
LINE
8
13000_TOP
62
7
6
CONTINUOUS
10
221.1168046354
20
88.6397470990
11
221.1013465435
21
88.6872676164
0
LINE
8
13000_TOP
62
7
6
CONTINUOUS
10
221.1290194182
20
88.5954721425
11
221.1168046354
21
88.6397470990
0
LINE
8
10000_FRONT
62
7
6
CONTINUOUS
10
201.8038227097
20
329.9333968596
11
201.7870506672
21
330.0869589932
0
LINE
8
10000_FRONT
62
7
6
CONTINUOUS
10
201.3093172472
20
317.0150678727
11
201.3038227097
21
317.0772334362
0
LINE
8
13000_TOP
62
7
6
CONTINUOUS
10
221.1529527818
20
88.4411585826
11
221.1502308524
21
88.4766769469
0
LINE
8
10000_FRONT
62
7
6
CONTINUOUS
10
198.9039774884
20
325.7643356910
11
198.9041718730
21
325.7580813919
0
LINE
8
10000_FRONT
62
7
6
CONTINUOUS
10
198.9038612999
20
325.7707193250
11
198.9039774884
21
325.7643356910
0
LINE
8
10000_FRONT
62
7
6
CONTINUOUS
10
198.9038227097
20
325.7772334362
11
198.9038612999
21
325.7707193250
0
LINE
8
13000_TOP
62
7
6
CONTINUOUS
10
198.9038227097
20
45.1811029412
11
198.9038227097
21
159.0811029412
0
LINE
8
10000_FRONT
62
7
6
CONTINUOUS
10
198.9038227097
20
251.7772334362
11
198.9038227097
21
376.7772334362
0
LINE
8
10000_FRONT
62
7
6
CONTINUOUS
10
199.0377973059
20
316.7432334362
11
199.0377973059
21
317.6112080324
0
LINE
8
10000_FRONT
62
7
6
CONTINUOUS
10
199.7038227097
20
335.4771956371
11
199.7038227097
21
335.0733218264
0
LINE
8
10000_FRONT
62
7
6
CONTINUOUS
10
200.1538227097
20
371.0772334362
11
200.1538227097
21
340.6772334362
0
LINE
8
10000_FRONT
62
7
6
CONTINUOUS
10
200.3538227097
20
261.3272334362
11
200.3538227097
21
256.2272334362
0
LINE
8
10000_FRONT
62
7
6
CONTINUOUS
10
200.6416605413
20
254.1907469566
11
200.6416605413
21
254.0988550688
0
LINE
8
10000_FRONT
62
7
6
CONTINUOUS
10
200.6876064979
20
255.1096658851
11
200.6876064979
21
255.0177739466
0
LINE
8
13000_TOP
62
7
6
CONTINUOUS
10
200.7038227097
20
142.5811029412
11
200.7038227097
21
136.9811029412
0
LINE
8
13000_TOP
62
7
6
CONTINUOUS
10
200.7038227097
20
136.0811029412
11
200.7038227097
21
130.4811029412
0
LINE
8
13000_TOP
62
7
6
CONTINUOUS
10
200.7038227097
20
129.5811029412
11
200.7038227097
21
123.9811029412
0
LINE
8
13000_TOP
62
7
6
CONTINUOUS
10
200.7038227097
20
123.0811029412
11
200.7038227097
21
117.4811029412
0
LINE
8
13000_TOP
62
7
6
CONTINUOUS
10
200.7038227097
20
116.5811029412
11
200.7038227097
21
110.9811029412
0
LINE
8
13000_TOP
62
7
6
CONTINUOUS
10
200.7038227097
20
110.0811029412
11
200.7038227097
21
104.4811029412
0
LINE
8
13000_TOP
62
7
6
CONTINUOUS
10
200.7038227097
20
103.5811029412
11
200.7038227097
21
97.9811029412
0
LINE
8
13000_TOP
62
7
6
CONTINUOUS
10
200.7038227097
20
97.0811029412
11
200.7038227097
21
91.4811029412
0
LINE
8
13000_TOP
62
7
6
CONTINUOUS
10
200.7038227097
20
143.4811029412
11
200.7038227097
21
149.0811029412
0
LINE
8
13000_TOP
62
7
6
CONTINUOUS
10
200.7088227097
20
84.3121088738
11
200.7088227097
21
78.2500970085
0
LINE
8
13000_TOP
62
7
6
CONTINUOUS
10
200.7088227097
20
77.8121088738
11
200.7088227097
21
71.7500970085
0
LINE
8
13000_TOP
62
7
6
CONTINUOUS
10
200.7088227097
20
71.3121088738
11
200.7088227097
21
65.2500970085
0
LINE
8
13000_TOP
62
7
6
CONTINUOUS
10
200.7088227097
20
64.8121088738
11
200.7088227097
21
58.7500970085
0
LINE
8
13000_TOP
62
7
6
CONTINUOUS
10
200.7088227097
20
58.3121088738
11
200.7088227097
21
52.2500970085
0
LINE
8
13000_TOP
62
7
6
CONTINUOUS
10
200.7088227097
20
51.8121088738
11
200.7088227097
21
45.6500970085
0
LINE
8
10000_FRONT
62
7
6
CONTINUOUS
10
200.8713902861
20
254.0988550688
11
200.8713902861
21
254.1907469566
0
LINE
8
13000_TOP
62
7
6
CONTINUOUS
10
201.0038227097
20
85.0811029412
11
201.0038227097
21
90.5811029412
0
LINE
8
13000_TOP
62
7
6
CONTINUOUS
10
201.0038227097
20
150.2811029412
11
201.0038227097
21
154.1811029412
0
LINE
8
10000_FRONT
62
7
6
CONTINUOUS
10
201.0551740364
20
254.6961523140
11
201.0551740364
21
254.5123685891
0
LINE
8
10000_FRONT
62
7
6
CONTINUOUS
10
201.3038227097
20
317.0772334362
11
201.3038227097
21
328.1965310925
0
LINE
8
10000_FRONT
62
7
6
CONTINUOUS
10
201.3038227097
20
328.8695944438
11
201.3038227097
21
336.1772334362
0
LINE
8
10000_FRONT
62
7
6
CONTINUOUS
10
201.4686876074
20
255.0637199665
11
201.4686876074
21
254.8799360896
0
LINE
8
10000_FRONT
62
7
6
CONTINUOUS
10
201.5146335260
20
254.2826388443
11
201.5146335260
21
254.1448010127
0
LINE
8
10000_FRONT
62
7
6
CONTINUOUS
10
201.6038227097
20
316.7432588400
11
201.6038227097
21
316.8772334362
0
LINE
8
10000_FRONT
62
7
6
CONTINUOUS
10
201.6984173015
20
254.9258821095
11
201.6984173015
21
255.1096658851
0
LINE
8
10000_FRONT
62
7
6
CONTINUOUS
10
201.7443632201
20
254.1448010127
11
201.7443632201
21
254.3285847629
0
LINE
8
10000_FRONT
62
7
6
CONTINUOUS
10
201.8038227097
20
317.4772334362
11
201.8038227097
21
316.8772334362
0
LINE
8
10000_FRONT
62
7
6
CONTINUOUS
10
201.8038227097
20
318.4772334362
11
201.8038227097
21
336.1772334362
0
LINE
8
10000_FRONT
62
7
6
CONTINUOUS
10
201.8822010771
20
254.3745307321
11
201.8822010771
21
254.1448010127
0
LINE
8
10000_FRONT
62
7
6
CONTINUOUS
10
202.6538227097
20
370.8772334362
11
202.6538227097
21
340.8772334362
0
LINE
8
10000_FRONT
62
7
6
CONTINUOUS
10
202.6632820979
20
255.2015577222
11
202.6632820979
21
254.3285847629
0
LINE
8
10000_FRONT
62
7
6
CONTINUOUS
10
202.6632820979
20
254.1448010127
11
202.6632820979
21
253.7772334362
0
LINE
8
10000_FRONT
62
7
6
CONTINUOUS
10
202.7038227097
20
340.6772334362
11
202.7038227097
21
371.0772334362
0
LINE
8
10000_FRONT
62
7
6
CONTINUOUS
10
202.8470659748
20
253.7772334362
11
202.8470659748
21
254.1448010127
0
LINE
8
10000_FRONT
62
7
6
CONTINUOUS
10
202.8470659748
20
254.3285847629
11
202.8470659748
21
255.4312875176
0
LINE
8
10000_FRONT
62
7
6
CONTINUOUS
10
203.1227416888
20
254.1448010127
11
203.1227416888
21
254.3285847629
0
LINE
8
10000_FRONT
62
7
6
CONTINUOUS
10
203.2605794445
20
254.1907469566
11
203.2605794445
21
254.0988550688
0
LINE
8
10000_FRONT
62
7
6
CONTINUOUS
10
203.3065253631
20
255.1096658851
11
203.3065253631
21
255.0177739466
0
LINE
8
10000_FRONT
62
7
6
CONTINUOUS
10
203.4903092400
20
254.0988550688
11
203.4903092400
21
254.1907469566
0
LINE
8
10000_FRONT
62
7
6
CONTINUOUS
10
203.6740929142
20
254.6961523140
11
203.6740929142
21
254.5123685891
0
LINE
8
10000_FRONT
62
7
6
CONTINUOUS
10
204.0876063839
20
255.0637199665
11
204.0876063839
21
254.8799360896
0
LINE
8
10000_FRONT
62
7
6
CONTINUOUS
10
204.1335525051
20
254.2826388443
11
204.1335525051
21
254.1448010127
0
LINE
8
10000_FRONT
62
7
6
CONTINUOUS
10
204.3173361794
20
254.9258821095
11
204.3173361794
21
255.1096658851
0
LINE
8
10000_FRONT
62
7
6
CONTINUOUS
10
204.3632823006
20
254.1448010127
11
204.3632823006
21
254.3285847629
0
LINE
8
10000_FRONT
62
7
6
CONTINUOUS
10
204.5470659748
20
254.4664226199
11
204.5470659748
21
254.3285847629
0
LINE
8
10000_FRONT
62
7
6
CONTINUOUS
10
205.1443631188
20
254.3285847629
11
205.1443631188
21
254.4664226199
0
LINE
8
10000_FRONT
62
7
6
CONTINUOUS
10
205.2497686640
20
307.0285847927
11
205.2497686640
21
306.8556118275
0
LINE
8
10000_FRONT
62
7
6
CONTINUOUS
10
205.3362551228
20
308.6718280102
11
205.3362551228
21
308.2393956448
0
LINE
8
10000_FRONT
62
7
6
CONTINUOUS
10
205.4538227097
20
256.2272334362
11
205.4538227097
21
261.3272334362
0
LINE
8
10000_FRONT
62
7
6
CONTINUOUS
10
205.5119308725
20
255.1556118036
11
205.5119308725
21
254.9258821095
0
LINE
8
10000_FRONT
62
7
6
CONTINUOUS
10
205.6822011009
20
306.9420982624
11
205.6822011009
21
307.0285847927
0
LINE
8
10000_FRONT
62
7
6
CONTINUOUS
10
205.7686875359
20
308.3258820797
11
205.7686875359
21
308.5853415752
0
LINE
8
10000_FRONT
62
7
6
CONTINUOUS
10
205.8794982210
20
255.1556118036
11
205.8794982210
21
253.7772334362
0
LINE
8
10000_FRONT
62
7
6
CONTINUOUS
10
206.1092280165
20
253.7772334362
11
206.1092280165
21
255.4312875176
0
LINE
8
10000_FRONT
62
7
6
CONTINUOUS
10
206.6605794445
20
254.7420983339
11
206.6605794445
21
254.4664226199
0
LINE
8
10000_FRONT
62
7
6
CONTINUOUS
10
206.8903092400
20
254.5123685891
11
206.8903092400
21
254.6961523140
0
LINE
8
10000_FRONT
62
7
6
CONTINUOUS
10
207.1524713532
20
308.5853415752
11
207.1524713532
21
308.4988551403
0
LINE
8
10000_FRONT
62
7
6
CONTINUOUS
10
207.2389577881
20
307.0285847927
11
207.2389577881
21
306.8556118275
0
LINE
8
10000_FRONT
62
7
6
CONTINUOUS
10
207.5849037186
20
308.4988551403
11
207.5849037186
21
308.6718280102
0
LINE
8
10000_FRONT
62
7
6
CONTINUOUS
10
207.6713903443
20
306.7691253448
11
207.6713903443
21
307.2015577579
0
LINE
8
10000_FRONT
62
7
6
CONTINUOUS
10
207.9930120960
20
254.1448010127
11
207.9930120960
21
254.2366928751
0
LINE
8
10000_FRONT
62
7
6
CONTINUOUS
10
207.9930120960
20
255.0177739466
11
207.9930120960
21
255.1096658851
0
LINE
8
10000_FRONT
62
7
6
CONTINUOUS
10
208.3632820145
20
309.2772334362
11
208.3632820145
21
306.0772334362
0
LINE
8
10000_FRONT
62
7
6
CONTINUOUS
10
208.7957145706
20
306.0772334362
11
208.7957145706
21
309.2772334362
0
LINE
8
10000_FRONT
62
7
6
CONTINUOUS
10
209.1038227097
20
337.5272334362
11
209.1038227097
21
322.8272334362
0
LINE
8
10000_FRONT
62
7
6
CONTINUOUS
10
209.5740928665
20
309.2772334362
11
209.5740928665
21
306.0772334362
0
LINE
8
13000_TOP
62
7
6
CONTINUOUS
10
209.6038227097
20
90.5811029412
11
209.6038227097
21
88.9811029412
0
LINE
8
10000_FRONT
62
7
6
CONTINUOUS
10
210.0065254227
20
306.0772334362
11
210.0065254227
21
308.9312875057
0
LINE
8
10000_FRONT
62
7
6
CONTINUOUS
10
210.0605794445
20
255.1556118036
11
210.0605794445
21
254.9258821095
0
LINE
8
10000_FRONT
62
7
6
CONTINUOUS
10
210.4281467930
20
255.1556118036
11
210.4281467930
21
253.7772334362
0
LINE
8
10000_FRONT
62
7
6
CONTINUOUS
10
210.6578765885
20
253.7772334362
11
210.6578765885
21
255.4312875176
0
LINE
8
10000_FRONT
62
7
6
CONTINUOUS
10
211.1632823006
20
254.6961523140
11
211.1632823006
21
254.4664226199
0
LINE
8
10000_FRONT
62
7
6
CONTINUOUS
10
211.3930120960
20
254.4204767014
11
211.3930120960
21
254.7420983339
0
LINE
8
10000_FRONT
62
7
6
CONTINUOUS
10
212.0362553612
20
254.7420983339
11
212.0362553612
21
254.4204767014
0
LINE
8
10000_FRONT
62
7
6
CONTINUOUS
10
212.1038227097
20
323.0272334362
11
212.1038227097
21
337.4272334362
0
LINE
8
10000_FRONT
62
7
6
CONTINUOUS
10
212.2538227097
20
337.5272334362
11
212.2538227097
21
322.8272334362
0
LINE
8
10000_FRONT
62
7
6
CONTINUOUS
10
212.2659851566
20
254.4664226199
11
212.2659851566
21
254.6961523140
0
LINE
8
10000_FRONT
62
7
6
CONTINUOUS
10
212.4281467453
20
308.9312875057
11
212.4281467453
21
306.0772334362
0
LINE
8
10000_FRONT
62
7
6
CONTINUOUS
10
212.4497688309
20
254.4664226199
11
212.4497688309
21
254.3285847629
0
LINE
8
10000_FRONT
62
7
6
CONTINUOUS
10
212.8605793015
20
306.0772334362
11
212.8605793015
21
309.2772334362
0
LINE
8
10000_FRONT
62
7
6
CONTINUOUS
10
213.0470659748
20
254.3285847629
11
213.0470659748
21
254.4664226199
0
LINE
8
10000_FRONT
62
7
6
CONTINUOUS
10
213.2308496491
20
254.6961523140
11
213.2308496491
21
254.4664226199
0
LINE
8
10000_FRONT
62
7
6
CONTINUOUS
10
213.4605794445
20
254.4204767014
11
213.4605794445
21
254.7420983339
0
LINE
8
10000_FRONT
62
7
6
CONTINUOUS
10
214.1038227097
20
254.7420983339
11
214.1038227097
21
254.4204767014
0
LINE
8
13000_TOP
62
7
6
CONTINUOUS
10
214.1038227097
20
90.5811029412
11
214.1038227097
21
88.9811029412
0
LINE
8
10000_FRONT
62
7
6
CONTINUOUS
10
214.3335516945
20
254.4664226199
11
214.3335516945
21
254.6961523140
0
LINE
8
10000_FRONT
62
7
6
CONTINUOUS
10
215.3488227097
20
373.5282972241
11
215.3488227097
21
372.8261695827
0
LINE
8
10000_FRONT
62
7
6
CONTINUOUS
10
215.5832949177
20
372.8261695827
11
215.5832949177
21
373.5282972241
0
LINE
8
10000_FRONT
62
7
6
CONTINUOUS
10
216.3551745430
20
255.4772334362
11
216.3551745430
21
253.7772334362
0
LINE
8
10000_FRONT
62
7
6
CONTINUOUS
10
216.5794986740
20
309.2772334362
11
216.5794986740
21
308.8448010708
0
LINE
8
10000_FRONT
62
7
6
CONTINUOUS
10
216.5849035278
20
253.9610172244
11
216.5849035278
21
254.5583145077
0
LINE
8
10000_FRONT
62
7
6
CONTINUOUS
10
216.5849035278
20
254.7420983339
11
216.5849035278
21
255.2934496606
0
LINE
8
13000_TOP
62
7
6
CONTINUOUS
10
216.6538227097
20
85.0811029412
11
216.6538227097
21
88.4074903475
0
LINE
8
10000_FRONT
62
7
6
CONTINUOUS
10
231.4101689616
20
373.1070206786
11
231.3710908565
21
372.8261695827
0
LINE
8
10000_FRONT
62
7
6
CONTINUOUS
10
211.2092284218
20
254.9718280281
11
211.1632823006
21
254.6961523140
0
LINE
8
10000_FRONT
62
7
6
CONTINUOUS
10
211.3930120960
20
254.7420983339
11
211.4389582173
21
255.0177739466
0
LINE
8
10000_FRONT
62
7
6
CONTINUOUS
10
212.0362553612
20
254.4204767014
11
211.9903092400
21
254.1448010127
0
LINE
8
10000_FRONT
62
7
6
CONTINUOUS
10
212.2200390354
20
254.1907469566
11
212.2659851566
21
254.4664226199
0
LINE
8
10000_FRONT
62
7
6
CONTINUOUS
10
213.2767957703
20
254.9718280281
11
213.2308496491
21
254.6961523140
0
LINE
8
10000_FRONT
62
7
6
CONTINUOUS
10
213.4605794445
20
254.7420983339
11
213.5065255657
21
255.0177739466
0
LINE
8
10000_FRONT
62
7
6
CONTINUOUS
10
214.1038227097
20
254.4204767014
11
214.0578765885
21
254.1448010127
0
LINE
8
10000_FRONT
62
7
6
CONTINUOUS
10
214.2876071945
20
254.1907469566
11
214.3335516945
21
254.4664226199
0
LINE
8
10000_FRONT
62
7
6
CONTINUOUS
10
217.6876071945
20
254.9718280281
11
217.6416610733
21
254.6961523140
0
LINE
8
10000_FRONT
62
7
6
CONTINUOUS
10
217.8713900581
20
254.7420983339
11
217.9173361794
21
255.0177739466
0
LINE
8
10000_FRONT
62
7
6
CONTINUOUS
10
218.5146341339
20
254.4204767014
11
218.4686880127
21
254.1448010127
0
LINE
8
10000_FRONT
62
7
6
CONTINUOUS
10
218.6984169975
20
254.1907469566
11
218.7443631188
21
254.4664226199
0
LINE
8
10000_FRONT
62
7
6
CONTINUOUS
10
206.7065255657
20
254.9718280281
11
206.6605794445
21
254.7420983339
0
LINE
8
10000_FRONT
62
7
6
CONTINUOUS
10
206.8903092400
20
254.6961523140
11
206.9362549559
21
254.9258821095
0
LINE
8
10000_FRONT
62
7
6
CONTINUOUS
10
220.7308490769
20
308.3258820797
11
220.6443637863
21
307.8934497143
0
LINE
8
10000_FRONT
62
7
6
CONTINUOUS
10
221.0767963425
20
307.8069630886
11
221.1632816330
21
308.2393956448
0
LINE
8
10000_FRONT
62
7
6
CONTINUOUS
10
232.5825300019
20
372.3580844993
11
232.6216081069
21
372.5453185523
0
LINE
8
10000_FRONT
62
7
6
CONTINUOUS
10
236.4983115814
20
317.0149745645
11
236.4821524296
21
316.9549464323
0
LINE
8
10000_FRONT
62
7
6
CONTINUOUS
10
238.8368070848
20
325.5245668624
11
238.9034735464
21
325.7580813919
0
LINE
8
10000_FRONT
62
7
6
CONTINUOUS
10
223.0659854904
20
306.5096658493
11
223.1524707810
21
306.7691253448
0
LINE
8
10000_FRONT
62
7
6
CONTINUOUS
10
206.7524712816
20
255.1096658851
11
206.7065255657
21
254.9718280281
0
LINE
8
10000_FRONT
62
7
6
CONTINUOUS
10
206.9362549559
20
254.9258821095
11
206.9822010771
21
255.0637199665
0
LINE
8
10000_FRONT
62
7
6
CONTINUOUS
10
207.7632823006
20
254.2366928751
11
207.7173361794
21
254.0988550688
0
LINE
8
10000_FRONT
62
7
6
CONTINUOUS
10
207.9470659748
20
254.0069631557
11
207.9930120960
21
254.1448010127
0
LINE
8
10000_FRONT
62
7
6
CONTINUOUS
10
236.4821524296
20
316.9549464323
11
236.4559158117
21
316.8988041206
0
LINE
8
10000_FRONT
62
7
6
CONTINUOUS
10
211.3470659748
20
255.2475037421
11
211.2092284218
21
254.9718280281
0
LINE
8
10000_FRONT
62
7
6
CONTINUOUS
10
211.4389582173
20
255.0177739466
11
211.4849035278
21
255.1096658851
0
LINE
8
10000_FRONT
62
7
6
CONTINUOUS
10
211.9903092400
20
254.1448010127
11
211.9443631188
21
254.0529090996
0
LINE
8
10000_FRONT
62
7
6
CONTINUOUS
10
212.0822014824
20
253.9150712679
11
212.2200390354
21
254.1907469566
0
LINE
8
10000_FRONT
62
7
6
CONTINUOUS
10
213.4146333233
20
255.2475037421
11
213.2767957703
21
254.9718280281
0
LINE
8
10000_FRONT
62
7
6
CONTINUOUS
10
213.5065255657
20
255.0177739466
11
213.5524716869
21
255.1096658851
0
LINE
8
10000_FRONT
62
7
6
CONTINUOUS
10
214.0578765885
20
254.1448010127
11
214.0119304672
21
254.0529090996
0
LINE
8
10000_FRONT
62
7
6
CONTINUOUS
10
214.1497688309
20
253.9150712679
11
214.2876071945
21
254.1907469566
0
LINE
8
10000_FRONT
62
7
6
CONTINUOUS
10
217.8254439369
20
255.2475037421
11
217.6876071945
21
254.9718280281
0
LINE
8
10000_FRONT
62
7
6
CONTINUOUS
10
217.9173361794
20
255.0177739466
11
217.9632823006
21
255.1096658851
0
LINE
8
10000_FRONT
62
7
6
CONTINUOUS
10
218.4686880127
20
254.1448010127
11
218.4227418915
21
254.0529090996
0
LINE
8
10000_FRONT
62
7
6
CONTINUOUS
10
218.5605802551
20
253.9150712679
11
218.6984169975
21
254.1907469566
0
LINE
8
10000_FRONT
62
7
6
CONTINUOUS
10
206.8443631188
20
255.2475037421
11
206.7524712816
21
255.1096658851
0
LINE
8
10000_FRONT
62
7
6
CONTINUOUS
10
206.9822010771
20
255.0637199665
11
207.0740929142
21
255.2015577222
0
LINE
8
10000_FRONT
62
7
6
CONTINUOUS
10
209.4173361794
20
255.4772334362
11
208.9578765885
21
254.8339901710
0
LINE
8
10000_FRONT
62
7
6
CONTINUOUS
10
215.7578765885
20
255.4772334362
11
215.2984169975
21
254.8339901710
0
LINE
8
10000_FRONT
62
7
6
CONTINUOUS
10
209.0957149521
20
254.6502063955
11
209.6930120960
21
255.4772334362
0
LINE
8
10000_FRONT
62
7
6
CONTINUOUS
10
215.4362553612
20
254.6502063955
11
216.0335516945
21
255.4772334362
0
LINE
8
10000_FRONT
62
7
6
CONTINUOUS
10
208.4065255657
20
253.7772334362
11
208.9578765885
21
254.5123685891
0
LINE
8
10000_FRONT
62
7
6
CONTINUOUS
10
214.7470651642
20
253.7772334362
11
215.2984169975
21
254.5123685891
0
LINE
8
10000_FRONT
62
7
6
CONTINUOUS
10
208.8200390354
20
254.6502063955
11
208.1308496491
21
253.7772334362
0
LINE
8
10000_FRONT
62
7
6
CONTINUOUS
10
215.1605802551
20
254.6502063955
11
214.4713900581
21
253.7772334362
0
LINE
8
10000_FRONT
62
7
6
CONTINUOUS
10
200.9632821486
20
255.1556118036
11
201.0092281178
21
255.2015577222
0
LINE
8
10000_FRONT
62
7
6
CONTINUOUS
10
201.5146335260
20
254.6502063955
11
201.6524713830
21
254.7880442525
0
LINE
8
10000_FRONT
62
7
6
CONTINUOUS
10
201.5146335260
20
253.8231793833
11
201.6984173015
21
254.0069631557
0
LINE
8
10000_FRONT
62
7
6
CONTINUOUS
10
203.5822010771
20
255.1556118036
11
203.6281469957
21
255.2015577222
0
LINE
8
10000_FRONT
62
7
6
CONTINUOUS
10
204.1335525051
20
254.6502063955
11
204.2713904635
21
254.7880442525
0
LINE
8
10000_FRONT
62
7
6
CONTINUOUS
10
204.1335525051
20
253.8231793833
11
204.3173361794
21
254.0069631557
0
LINE
8
10000_FRONT
62
7
6
CONTINUOUS
10
205.8794982210
20
255.4312875176
11
205.8335525051
21
255.3853414978
0
LINE
8
10000_FRONT
62
7
6
CONTINUOUS
10
206.9822010771
20
255.3853414978
11
206.8443631188
21
255.2475037421
0
LINE
8
10000_FRONT
62
7
6
CONTINUOUS
10
207.7173361794
20
254.0988550688
11
207.5794986263
21
253.9610172244
0
LINE
8
10000_FRONT
62
7
6
CONTINUOUS
10
207.8092284218
20
253.8691253303
11
207.9470659748
21
254.0069631557
0
LINE
8
10000_FRONT
62
7
6
CONTINUOUS
10
210.4281467930
20
255.4312875176
11
210.3822014824
21
255.3853414978
0
LINE
8
10000_FRONT
62
7
6
CONTINUOUS
10
211.4849035278
20
255.3853414978
11
211.3470659748
21
255.2475037421
0
LINE
8
10000_FRONT
62
7
6
CONTINUOUS
10
211.4849035278
20
255.1096658851
11
211.5767957703
21
255.2015577222
0
LINE
8
10000_FRONT
62
7
6
CONTINUOUS
10
211.9443631188
20
254.0529090996
11
211.8524716869
21
253.9610172244
0
LINE
8
10000_FRONT
62
7
6
CONTINUOUS
10
211.9443631188
20
253.7772334362
11
212.0822014824
21
253.9150712679
0
LINE
8
10000_FRONT
62
7
6
CONTINUOUS
10
213.5524716869
20
255.3853414978
11
213.4146333233
21
255.2475037421
0
LINE
8
10000_FRONT
62
7
6
CONTINUOUS
10
213.5524716869
20
255.1096658851
11
213.6443631188
21
255.2015577222
0
LINE
8
10000_FRONT
62
7
6
CONTINUOUS
10
214.0119304672
20
254.0529090996
11
213.9200390354
21
253.9610172244
0
LINE
8
10000_FRONT
62
7
6
CONTINUOUS
10
214.0119304672
20
253.7772334362
11
214.1497688309
21
253.9150712679
0
LINE
8
10000_FRONT
62
7
6
CONTINUOUS
10
217.9632823006
20
255.3853414978
11
217.8254439369
21
255.2475037421
0
LINE
8
10000_FRONT
62
7
6
CONTINUOUS
10
217.9632823006
20
255.1096658851
11
218.0551745430
21
255.2015577222
0
LINE
8
10000_FRONT
62
7
6
CONTINUOUS
10
218.4227418915
20
254.0529090996
11
218.3308496491
21
253.9610172244
0
LINE
8
10000_FRONT
62
7
6
CONTINUOUS
10
218.4227418915
20
253.7772334362
11
218.5605802551
21
253.9150712679
0
LINE
8
10000_FRONT
62
7
6
CONTINUOUS
10
205.8335525051
20
255.3853414978
11
205.6497688309
21
255.2475037421
0
LINE
8
10000_FRONT
62
7
6
CONTINUOUS
10
205.6957145468
20
255.0177739466
11
205.8794982210
21
255.1556118036
0
LINE
8
10000_FRONT
62
7
6
CONTINUOUS
10
210.3822014824
20
255.3853414978
11
210.1984169975
21
255.2475037421
0
LINE
8
10000_FRONT
62
7
6
CONTINUOUS
10
210.2443631188
20
255.0177739466
11
210.4281467930
21
255.1556118036
0
LINE
8
10000_FRONT
62
7
6
CONTINUOUS
10
200.9173362300
20
255.3853414978
11
200.7794983730
21
255.2934496606
0
LINE
8
10000_FRONT
62
7
6
CONTINUOUS
10
201.4227415875
20
254.0069631557
11
201.2849037812
21
253.9150712679
0
LINE
8
10000_FRONT
62
7
6
CONTINUOUS
10
203.5362551585
20
255.3853414978
11
203.3984174029
21
255.2934496606
0
LINE
8
10000_FRONT
62
7
6
CONTINUOUS
10
205.6497688309
20
255.2475037421
11
205.5119308725
21
255.1556118036
0
LINE
8
10000_FRONT
62
7
6
CONTINUOUS
10
204.0416606680
20
254.0069631557
11
203.9038227097
21
253.9150712679
0
LINE
8
10000_FRONT
62
7
6
CONTINUOUS
10
207.1200390354
20
255.4772334362
11
206.9822010771
21
255.3853414978
0
LINE
8
10000_FRONT
62
7
6
CONTINUOUS
10
207.0740929142
20
255.2015577222
11
207.2119308725
21
255.2934496606
0
LINE
8
10000_FRONT
62
7
6
CONTINUOUS
10
207.6713900581
20
253.7772334362
11
207.8092284218
21
253.8691253303
0
LINE
8
10000_FRONT
62
7
6
CONTINUOUS
10
210.1984169975
20
255.2475037421
11
210.0605794445
21
255.1556118036
0
LINE
8
10000_FRONT
62
7
6
CONTINUOUS
10
201.0092281178
20
255.2015577222
11
201.1011200056
21
255.2475037421
0
LINE
8
10000_FRONT
62
7
6
CONTINUOUS
10
201.4227415875
20
254.7880442525
11
201.3308497504
21
254.7420983339
0
LINE
8
10000_FRONT
62
7
6
CONTINUOUS
10
201.4227415875
20
254.6042604769
11
201.5146335260
21
254.6502063955
0
LINE
8
10000_FRONT
62
7
6
CONTINUOUS
10
203.6281469957
20
255.2015577222
11
203.7200388328
21
255.2475037421
0
LINE
8
10000_FRONT
62
7
6
CONTINUOUS
10
204.0416606680
20
254.7880442525
11
203.9497688309
21
254.7420983339
0
LINE
8
10000_FRONT
62
7
6
CONTINUOUS
10
204.0416606680
20
254.6042604769
11
204.1335525051
21
254.6502063955
0
LINE
8
10000_FRONT
62
7
6
CONTINUOUS
10
205.5119308725
20
254.9258821095
11
205.6957145468
21
255.0177739466
0
LINE
8
13000_TOP
62
7
6
CONTINUOUS
10
218.1538227097
20
110.0811029412
11
200.7038227097
21
110.0811029412
0
LINE
8
13000_TOP
62
7
6
CONTINUOUS
10
219.6538227097
20
110.0811029412
11
238.1538227097
21
110.0811029412
0
LINE
8
13000_TOP
62
7
6
CONTINUOUS
10
238.1538227097
20
110.9811029412
11
219.6538227097
21
110.9811029412
0
LINE
8
13000_TOP
62
7
6
CONTINUOUS
10
200.7038227097
20
110.9811029412
11
218.1538227097
21
110.9811029412
0
LINE
8
13000_TOP
62
7
6
CONTINUOUS
10
218.1538227097
20
116.5811029412
11
200.7038227097
21
116.5811029412
0
LINE
8
13000_TOP
62
7
6
CONTINUOUS
10
219.6538227097
20
116.5811029412
11
238.1538227097
21
116.5811029412
0
LINE
8
13000_TOP
62
7
6
CONTINUOUS
10
238.1538227097
20
117.4811029412
11
219.6538227097
21
117.4811029412
0
LINE
8
13000_TOP
62
7
6
CONTINUOUS
10
200.7038227097
20
117.4811029412
11
218.1538227097
21
117.4811029412
0
LINE
8
13000_TOP
62
7
6
CONTINUOUS
10
218.1538227097
20
123.0811029412
11
200.7038227097
21
123.0811029412
0
LINE
8
13000_TOP
62
7
6
CONTINUOUS
10
219.6538227097
20
123.0811029412
11
238.1538227097
21
123.0811029412
0
LINE
8
13000_TOP
62
7
6
CONTINUOUS
10
238.1538227097
20
123.9811029412
11
219.6538227097
21
123.9811029412
0
LINE
8
13000_TOP
62
7
6
CONTINUOUS
10
200.7038227097
20
123.9811029412
11
218.1538227097
21
123.9811029412
0
LINE
8
13000_TOP
62
7
6
CONTINUOUS
10
218.1538227097
20
129.5811029412
11
200.7038227097
21
129.5811029412
0
LINE
8
13000_TOP
62
7
6
CONTINUOUS
10
219.6538227097
20
129.5811029412
11
238.1538227097
21
129.5811029412
0
LINE
8
13000_TOP
62
7
6
CONTINUOUS
10
221.1384776920
20
88.5537115560
11
221.1290194182
21
88.5954721425
0
LINE
8
13000_TOP
62
7
6
CONTINUOUS
10
221.1454756380
20
88.5141423425
11
221.1384776920
21
88.5537115560
0
LINE
8
13000_TOP
62
7
6
CONTINUOUS
10
221.1502308524
20
88.4766769469
11
221.1454756380
21
88.5141423425
0
LINE
8
13000_TOP
62
7
6
CONTINUOUS
10
221.1538227097
20
88.4074903475
11
221.1529527818
21
88.4411585826
0
LINE
8
10000_FRONT
62
7
6
CONTINUOUS
10
217.1855217101
20
374.2772334362
11
217.1855217101
21
372.0772334362
0
LINE
8
10000_FRONT
62
7
6
CONTINUOUS
10
217.3659843460
20
254.5583145077
11
217.3659843460
21
254.7420983339
0
LINE
8
10000_FRONT
62
7
6
CONTINUOUS
10
217.4119304672
20
253.7772334362
11
217.4119304672
21
253.9610172244
0
LINE
8
10000_FRONT
62
7
6
CONTINUOUS
10
217.4119304672
20
255.2934496606
11
217.4119304672
21
255.4772334362
0
LINE
8
10000_FRONT
62
7
6
CONTINUOUS
10
217.4199938063
20
372.0772334362
11
217.4199938063
21
373.0602121736
0
LINE
8
10000_FRONT
62
7
6
CONTINUOUS
10
217.4199938063
20
373.3410632039
11
217.4199938063
21
374.0431909109
0
LINE
8
10000_FRONT
62
7
6
CONTINUOUS
10
217.6173358933
20
308.8448010708
11
217.6173358933
21
306.0772334362
0
LINE
8
10000_FRONT
62
7
6
CONTINUOUS
10
217.6416610733
20
254.6961523140
11
217.6416610733
21
254.4664226199
0
LINE
8
13000_TOP
62
7
6
CONTINUOUS
10
217.8538227097
20
150.2811029412
11
217.8538227097
21
154.1811029412
0
LINE
8
10000_FRONT
62
7
6
CONTINUOUS
10
217.8713900581
20
254.4204767014
11
217.8713900581
21
254.7420983339
0
LINE
8
10000_FRONT
62
7
6
CONTINUOUS
10
218.0497684494
20
306.0772334362
11
218.0497684494
21
308.8448010708
0
LINE
8
13000_TOP
62
7
6
CONTINUOUS
10
218.1538227097
20
91.4811029412
11
218.1538227097
21
97.0811029412
0
LINE
8
13000_TOP
62
7
6
CONTINUOUS
10
218.1538227097
20
97.9811029412
11
218.1538227097
21
103.5811029412
0
LINE
8
13000_TOP
62
7
6
CONTINUOUS
10
218.1538227097
20
104.4811029412
11
218.1538227097
21
110.0811029412
0
LINE
8
13000_TOP
62
7
6
CONTINUOUS
10
218.1538227097
20
110.9811029412
11
218.1538227097
21
116.5811029412
0
LINE
8
13000_TOP
62
7
6
CONTINUOUS
10
218.1538227097
20
117.4811029412
11
218.1538227097
21
123.0811029412
0
LINE
8
13000_TOP
62
7
6
CONTINUOUS
10
218.1538227097
20
123.9811029412
11
218.1538227097
21
129.5811029412
0
LINE
8
13000_TOP
62
7
6
CONTINUOUS
10
218.1538227097
20
130.4811029412
11
218.1538227097
21
136.0811029412
0
LINE
8
13000_TOP
62
7
6
CONTINUOUS
10
218.1538227097
20
136.9811029412
11
218.1538227097
21
142.5811029412
0
LINE
8
13000_TOP
62
7
6
CONTINUOUS
10
218.1538227097
20
143.4811029412
11
218.1538227097
21
149.0811029412
0
LINE
8
13000_TOP
62
7
6
CONTINUOUS
10
218.3848286423
20
45.6500970085
11
218.3848286423
21
51.8121088738
0
LINE
8
13000_TOP
62
7
6
CONTINUOUS
10
218.3848286423
20
52.2500970085
11
218.3848286423
21
58.3121088738
0
LINE
8
13000_TOP
62
7
6
CONTINUOUS
10
218.3848286423
20
58.7500970085
11
218.3848286423
21
64.8121088738
0
LINE
8
13000_TOP
62
7
6
CONTINUOUS
10
218.3848286423
20
65.2500970085
11
218.3848286423
21
71.3121088738
0
LINE
8
13000_TOP
62
7
6
CONTINUOUS
10
218.3848286423
20
71.7500970085
11
218.3848286423
21
77.8121088738
0
LINE
8
13000_TOP
62
7
6
CONTINUOUS
10
218.3848286423
20
78.2500970085
11
218.3848286423
21
84.3121088738
0
LINE
8
10000_FRONT
62
7
6
CONTINUOUS
10
218.3969614144
20
373.7623398806
11
218.3969614144
21
373.6219142343
0
LINE
8
10000_FRONT
62
7
6
CONTINUOUS
10
218.5146341339
20
254.7420983339
11
218.5146341339
21
254.4204767014
0
LINE
8
10000_FRONT
62
7
6
CONTINUOUS
10
218.6314336225
20
373.5751057292
11
218.6314336225
21
373.7623398806
0
LINE
8
10000_FRONT
62
7
6
CONTINUOUS
10
218.7443631188
20
254.4664226199
11
218.7443631188
21
254.6961523140
0
LINE
8
10000_FRONT
62
7
6
CONTINUOUS
10
219.0876071945
20
308.8448010708
11
219.0876071945
21
309.2772334362
0
LINE
8
13000_TOP
62
7
6
CONTINUOUS
10
219.4228167770
20
45.6500970085
11
219.4228167770
21
51.8121088738
0
LINE
8
13000_TOP
62
7
6
CONTINUOUS
10
219.4228167770
20
52.2500970085
11
219.4228167770
21
58.3121088738
0
LINE
8
13000_TOP
62
7
6
CONTINUOUS
10
219.4228167770
20
58.7500970085
11
219.4228167770
21
64.8121088738
0
LINE
8
13000_TOP
62
7
6
CONTINUOUS
10
219.4228167770
20
65.2500970085
11
219.4228167770
21
71.3121088738
0
LINE
8
13000_TOP
62
7
6
CONTINUOUS
10
219.4228167770
20
71.7500970085
11
219.4228167770
21
77.8121088738
0
LINE
8
13000_TOP
62
7
6
CONTINUOUS
10
219.4228167770
20
78.2500970085
11
219.4228167770
21
84.3121088738
0
LINE
8
10000_FRONT
62
7
6
CONTINUOUS
10
219.6065250412
20
309.2772334362
11
219.6065250412
21
306.0772334362
0
LINE
8
13000_TOP
62
7
6
CONTINUOUS
10
219.6538227097
20
154.4811029412
11
219.6538227097
21
149.9811029412
0
LINE
8
13000_TOP
62
7
6
CONTINUOUS
10
219.6538227097
20
142.5811029412
11
219.6538227097
21
136.9811029412
0
LINE
8
13000_TOP
62
7
6
CONTINUOUS
10
219.6538227097
20
136.0811029412
11
219.6538227097
21
130.4811029412
0
LINE
8
13000_TOP
62
7
6
CONTINUOUS
10
219.6538227097
20
129.5811029412
11
219.6538227097
21
123.9811029412
0
LINE
8
13000_TOP
62
7
6
CONTINUOUS
10
219.6538227097
20
123.0811029412
11
219.6538227097
21
117.4811029412
0
LINE
8
13000_TOP
62
7
6
CONTINUOUS
10
219.6538227097
20
116.5811029412
11
219.6538227097
21
110.9811029412
0
LINE
8
13000_TOP
62
7
6
CONTINUOUS
10
219.6538227097
20
110.0811029412
11
219.6538227097
21
104.4811029412
0
LINE
8
13000_TOP
62
7
6
CONTINUOUS
10
219.6538227097
20
103.5811029412
11
219.6538227097
21
97.9811029412
0
LINE
8
13000_TOP
62
7
6
CONTINUOUS
10
219.6538227097
20
97.0811029412
11
219.6538227097
21
91.4811029412
0
LINE
8
13000_TOP
62
7
6
CONTINUOUS
10
219.6538227097
20
143.4811029412
11
219.6538227097
21
149.0811029412
0
LINE
8
10000_FRONT
62
7
6
CONTINUOUS
10
220.0389575974
20
306.0772334362
11
220.0389575974
21
309.2772334362
0
LINE
8
10000_FRONT
62
7
6
CONTINUOUS
10
220.6443637863
20
307.8934497143
11
220.6443637863
21
307.3745307232
0
LINE
8
10000_FRONT
62
7
6
CONTINUOUS
10
221.0767963425
20
307.4610172535
11
221.0767963425
21
307.8069630886
0
LINE
8
13000_TOP
62
7
6
CONTINUOUS
10
221.1538227097
20
85.0811029412
11
221.1538227097
21
88.4074903475
0
LINE
8
10000_FRONT
62
7
6
CONTINUOUS
10
221.4451001192
20
373.2942546988
11
221.4451001192
21
373.1070206786
0
LINE
8
10000_FRONT
62
7
6
CONTINUOUS
10
221.9922020870
20
373.7623398806
11
221.9922020870
21
373.6687227393
0
LINE
8
10000_FRONT
62
7
6
CONTINUOUS
10
222.0312806393
20
372.7793610776
11
222.0312806393
21
372.5921270574
0
LINE
8
10000_FRONT
62
7
6
CONTINUOUS
10
222.1875952956
20
373.6687227393
11
222.1875952956
21
373.7623398806
0
LINE
8
10000_FRONT
62
7
6
CONTINUOUS
10
222.2266742951
20
372.5921270574
11
222.2266742951
21
372.7793610776
0
LINE
8
10000_FRONT
62
7
6
CONTINUOUS
10
222.5393036077
20
373.0134036685
11
222.5393036077
21
372.7325525726
0
LINE
8
10000_FRONT
62
7
6
CONTINUOUS
10
223.1524707810
20
306.7691253448
11
223.1524707810
21
306.9420982624
0
LINE
8
10000_FRONT
62
7
6
CONTINUOUS
10
223.1524707810
20
308.4123685146
11
223.1524707810
21
308.5853415752
0
LINE
8
10000_FRONT
62
7
6
CONTINUOUS
10
223.4771928871
20
373.9027653957
11
223.4771928871
21
373.0134036685
0
LINE
8
10000_FRONT
62
7
6
CONTINUOUS
10
223.4771928871
20
372.7325525726
11
223.4771928871
21
372.0772334362
0
LINE
8
13000_TOP
62
7
6
CONTINUOUS
10
223.7038227097
20
90.5811029412
11
223.7038227097
21
88.9811029412
0
LINE
8
10000_FRONT
62
7
6
CONTINUOUS
10
223.7116650952
20
372.0772334362
11
223.7116650952
21
372.7325525726
0
LINE
8
10000_FRONT
62
7
6
CONTINUOUS
10
223.7116650952
20
373.0134036685
11
223.7116650952
21
374.2772334362
0
LINE
8
10000_FRONT
62
7
6
CONTINUOUS
10
224.1024515123
20
372.7325525726
11
224.1024515123
21
373.0134036685
0
LINE
8
10000_FRONT
62
7
6
CONTINUOUS
10
224.9686878220
20
309.2772334362
11
224.9686878220
21
306.0772334362
0
LINE
8
10000_FRONT
62
7
6
CONTINUOUS
10
225.0403403445
20
373.2942546988
11
225.0403403445
21
373.1070206786
0
LINE
8
10000_FRONT
62
7
6
CONTINUOUS
10
225.4011203781
20
306.0772334362
11
225.4011203781
21
308.7583144451
0
LINE
8
10000_FRONT
62
7
6
CONTINUOUS
10
225.5874427596
20
373.7623398806
11
225.5874427596
21
373.6687227393
0
LINE
8
10000_FRONT
62
7
6
CONTINUOUS
10
225.6265208647
20
372.7793610776
11
225.6265208647
21
372.5921270574
0
LINE
8
10000_FRONT
62
7
6
CONTINUOUS
10
225.7828359682
20
373.6687227393
11
225.7828359682
21
373.7623398806
0
LINE
8
10000_FRONT
62
7
6
CONTINUOUS
10
225.8219149677
20
372.5921270574
11
225.8219149677
21
372.7793610776
0
LINE
8
10000_FRONT
62
7
6
CONTINUOUS
10
226.1345442803
20
373.1070206786
11
226.1345442803
21
372.8729780878
0
LINE
8
10000_FRONT
62
7
6
CONTINUOUS
10
226.6816458009
20
372.8729780878
11
226.6816458009
21
373.1070206786
0
LINE
8
10000_FRONT
62
7
6
CONTINUOUS
10
226.9942760080
20
373.9495739008
11
226.9942760080
21
373.5751057292
0
LINE
8
10000_FRONT
62
7
6
CONTINUOUS
10
227.1308490769
20
309.2772334362
11
227.1308490769
21
306.5961523319
0
LINE
8
10000_FRONT
62
7
6
CONTINUOUS
10
227.2287482160
20
373.9027653957
11
227.2287482160
21
372.0772334362
0
LINE
8
10000_FRONT
62
7
6
CONTINUOUS
10
227.4632204241
20
372.0772334362
11
227.4632204241
21
374.2772334362
0
LINE
8
10000_FRONT
62
7
6
CONTINUOUS
10
227.5632816330
20
306.0772334362
11
227.5632816330
21
309.2772334362
0
LINE
8
13000_TOP
62
7
6
CONTINUOUS
10
228.2038227097
20
90.5811029412
11
228.2038227097
21
88.9811029412
0
LINE
8
10000_FRONT
62
7
6
CONTINUOUS
10
228.3416599289
20
309.2772334362
11
228.3416599289
21
306.0772334362
0
LINE
8
10000_FRONT
62
7
6
CONTINUOUS
10
228.7740924851
20
306.4231793905
11
228.7740924851
21
307.5475036884
0
LINE
8
10000_FRONT
62
7
6
CONTINUOUS
10
228.7740924851
20
307.8934497143
11
228.7740924851
21
308.9312875057
0
LINE
8
10000_FRONT
62
7
6
CONTINUOUS
10
229.6516274012
20
374.2772334362
11
229.6516274012
21
372.0772334362
0
LINE
8
10000_FRONT
62
7
6
CONTINUOUS
10
229.8860996092
20
372.3580844993
11
229.8860996092
21
374.2772334362
0
LINE
8
10000_FRONT
62
7
6
CONTINUOUS
10
230.2443637863
20
307.5475036884
11
230.2443637863
21
307.8934497143
0
LINE
8
10000_FRONT
62
7
6
CONTINUOUS
10
230.3308490769
20
306.0772334362
11
230.3308490769
21
306.4231793905
0
LINE
8
10000_FRONT
62
7
6
CONTINUOUS
10
230.3308490769
20
308.9312875057
11
230.3308490769
21
309.2772334362
0
LINE
8
10000_FRONT
62
7
6
CONTINUOUS
10
230.6767963425
20
309.2772334362
11
230.6767963425
21
308.8448010708
0
LINE
8
10000_FRONT
62
7
6
CONTINUOUS
10
231.0584606495
20
372.0772334362
11
231.0584606495
21
372.3580844993
0
LINE
8
10000_FRONT
62
7
6
CONTINUOUS
10
231.5664831707
20
372.7325525726
11
231.5664831707
21
372.8261695827
0
LINE
8
10000_FRONT
62
7
6
CONTINUOUS
10
231.6055630646
20
373.0134036685
11
231.6055630646
21
373.0602121736
0
LINE
8
10000_FRONT
62
7
6
CONTINUOUS
10
231.7146320358
20
308.8448010708
11
231.7146320358
21
306.0772334362
0
LINE
8
10000_FRONT
62
7
6
CONTINUOUS
10
232.1470661179
20
306.0772334362
11
232.1470661179
21
308.8448010708
0
LINE
8
10000_FRONT
62
7
6
CONTINUOUS
10
232.4262157928
20
373.1070206786
11
232.4262157928
21
373.0134036685
0
LINE
8
10000_FRONT
62
7
6
CONTINUOUS
10
232.6216081069
20
372.8261695827
11
232.6216081069
21
373.0134036685
0
LINE
8
10000_FRONT
62
7
6
CONTINUOUS
10
232.9342383140
20
373.2942546988
11
232.9342383140
21
373.2006376887
0
LINE
8
10000_FRONT
62
7
6
CONTINUOUS
10
232.9342383140
20
372.6389355625
11
232.9342383140
21
372.4985100473
0
LINE
8
10000_FRONT
62
7
6
CONTINUOUS
10
233.1296324170
20
372.4517015094
11
233.1296324170
21
372.5453185523
0
LINE
8
10000_FRONT
62
7
6
CONTINUOUS
10
233.1849048630
20
308.8448010708
11
233.1849048630
21
309.2772334362
0
LINE
8
10000_FRONT
62
7
6
CONTINUOUS
10
233.9112052512
20
372.8729780878
11
233.9112052512
21
372.5921270574
0
LINE
8
10000_FRONT
62
7
6
CONTINUOUS
10
233.9112052512
20
373.2006376887
11
233.9112052512
21
373.0602121736
0
LINE
8
10000_FRONT
62
7
6
CONTINUOUS
10
234.1065993542
20
372.4517015094
11
234.1065993542
21
373.2006376887
0
LINE
8
10000_FRONT
62
7
6
CONTINUOUS
10
234.4973857714
20
373.5751057292
11
234.4973857714
21
372.0772334362
0
LINE
8
10000_FRONT
62
7
6
CONTINUOUS
10
234.6927798744
20
372.0772334362
11
234.6927798744
21
373.1538291837
0
LINE
8
10000_FRONT
62
7
6
CONTINUOUS
10
234.6927798744
20
373.3410632039
11
234.6927798744
21
373.5751057292
0
LINE
8
10000_FRONT
62
7
6
CONTINUOUS
10
235.3961964986
20
372.9665951634
11
235.3961964986
21
372.0772334362
0
LINE
8
10000_FRONT
62
7
6
CONTINUOUS
10
235.5915906016
20
372.0772334362
11
235.5915906016
21
372.9665951634
0
LINE
8
10000_FRONT
62
7
6
CONTINUOUS
10
236.0038227097
20
316.8772334362
11
236.0038227097
21
317.4772334362
0
LINE
8
10000_FRONT
62
7
6
CONTINUOUS
10
236.0038227097
20
318.4772334362
11
236.0038227097
21
336.1772334362
0
LINE
8
10000_FRONT
62
7
6
CONTINUOUS
10
236.2038227097
20
316.8772334362
11
236.2038227097
21
316.7432588400
0
LINE
8
10000_FRONT
62
7
6
CONTINUOUS
10
236.5038227097
20
317.0772334362
11
236.5038227097
21
328.1965310925
0
LINE
8
10000_FRONT
62
7
6
CONTINUOUS
10
236.5038227097
20
328.8695944438
11
236.5038227097
21
336.1772334362
0
LINE
8
13000_TOP
62
7
6
CONTINUOUS
10
236.8038227097
20
45.6500970085
11
236.8038227097
21
51.8121088738
0
LINE
8
13000_TOP
62
7
6
CONTINUOUS
10
236.8038227097
20
52.2500970085
11
236.8038227097
21
58.3121088738
0
LINE
8
13000_TOP
62
7
6
CONTINUOUS
10
236.8038227097
20
58.7500970085
11
236.8038227097
21
64.8121088738
0
LINE
8
13000_TOP
62
7
6
CONTINUOUS
10
236.8038227097
20
65.2500970085
11
236.8038227097
21
71.3121088738
0
LINE
8
13000_TOP
62
7
6
CONTINUOUS
10
236.8038227097
20
71.7500970085
11
236.8038227097
21
77.8121088738
0
LINE
8
13000_TOP
62
7
6
CONTINUOUS
10
236.8038227097
20
78.2500970085
11
236.8038227097
21
84.3121088738
0
LINE
8
10000_FRONT
62
7
6
CONTINUOUS
10
238.9036679309
20
325.7643356910
11
238.9037841194
21
325.7707193250
0
LINE
8
13000_TOP
62
7
6
CONTINUOUS
10
216.6538227097
20
88.4074903475
11
216.6546926376
21
88.4411585826
0
LINE
8
10000_FRONT
62
7
6
CONTINUOUS
10
238.9034735464
20
325.7580813919
11
238.9036679309
21
325.7643356910
0
LINE
8
10000_FRONT
62
7
6
CONTINUOUS
10
236.1823939396
20
328.5049416205
11
236.1889111642
21
328.5997577329
0
LINE
8
13000_TOP
62
7
6
CONTINUOUS
10
216.6546926376
20
88.4411585826
11
216.6574145669
21
88.4766769469
0
LINE
8
10000_FRONT
62
7
6
CONTINUOUS
10
236.5038227097
20
317.0772334362
11
236.4983115814
21
317.0149745645
0
LINE
8
10000_FRONT
62
7
6
CONTINUOUS
10
236.0038227097
20
329.9333968596
11
236.0205947521
21
330.0869589932
0
LINE
8
13000_TOP
62
7
6
CONTINUOUS
10
216.6574145669
20
88.4766769469
11
216.6621697813
21
88.5141423425
0
LINE
8
10000_FRONT
62
7
6
CONTINUOUS
10
210.0605794445
20
254.9258821095
11
210.2443631188
21
255.0177739466
0
LINE
8
10000_FRONT
62
7
6
CONTINUOUS
10
211.5767957703
20
255.2015577222
11
211.6686872021
21
255.2475037421
0
LINE
8
10000_FRONT
62
7
6
CONTINUOUS
10
213.6443631188
20
255.2015577222
11
213.7362553612
21
255.2475037421
0
LINE
8
10000_FRONT
62
7
6
CONTINUOUS
10
211.8524716869
20
253.9610172244
11
211.7605794445
21
253.9150712679
0
LINE
8
10000_FRONT
62
7
6
CONTINUOUS
10
213.9200390354
20
253.9610172244
11
213.8281467930
21
253.9150712679
0
LINE
8
10000_FRONT
62
7
6
CONTINUOUS
10
218.0551745430
20
255.2015577222
11
218.1470651642
21
255.2475037421
0
LINE
8
10000_FRONT
62
7
6
CONTINUOUS
10
218.3308496491
20
253.9610172244
11
218.2389574066
21
253.9150712679
0
LINE
8
10000_FRONT
62
7
6
CONTINUOUS
10
201.2849037812
20
253.7312874891
11
201.5146335260
21
253.8231793833
0
LINE
8
10000_FRONT
62
7
6
CONTINUOUS
10
203.9038227097
20
253.7312874891
11
204.1335525051
21
253.8231793833
0
LINE
8
10000_FRONT
62
7
6
CONTINUOUS
10
201.3308497504
20
254.7420983339
11
201.1930118934
21
254.6961523140
0
LINE
8
10000_FRONT
62
7
6
CONTINUOUS
10
203.9497688309
20
254.7420983339
11
203.8119308725
21
254.6961523140
0
LINE
8
10000_FRONT
62
7
6
CONTINUOUS
10
207.2119308725
20
255.2934496606
11
207.3497688309
21
255.3393955792
0
LINE
8
10000_FRONT
62
7
6
CONTINUOUS
10
211.6227418915
20
255.4312875176
11
211.4849035278
21
255.3853414978
0
LINE
8
10000_FRONT
62
7
6
CONTINUOUS
10
207.5794986263
20
253.9610172244
11
207.4416602627
21
253.9150712679
0
LINE
8
10000_FRONT
62
7
6
CONTINUOUS
10
213.6903092400
20
255.4312875176
11
213.5524716869
21
255.3853414978
0
LINE
8
10000_FRONT
62
7
6
CONTINUOUS
10
211.8065255657
20
253.7312874891
11
211.9443631188
21
253.7772334362
0
LINE
8
10000_FRONT
62
7
6
CONTINUOUS
10
218.1011206642
20
255.4312875176
11
217.9632823006
21
255.3853414978
0
LINE
8
10000_FRONT
62
7
6
CONTINUOUS
10
213.8740929142
20
253.7312874891
11
214.0119304672
21
253.7772334362
0
LINE
8
10000_FRONT
62
7
6
CONTINUOUS
10
218.2849035278
20
253.7312874891
11
218.4227418915
21
253.7772334362
0
LINE
8
13000_TOP
62
7
6
CONTINUOUS
10
238.1538227097
20
130.4811029412
11
219.6538227097
21
130.4811029412
0
LINE
8
13000_TOP
62
7
6
CONTINUOUS
10
200.7038227097
20
130.4811029412
11
218.1538227097
21
130.4811029412
0
LINE
8
13000_TOP
62
7
6
CONTINUOUS
10
218.1538227097
20
136.0811029412
11
200.7038227097
21
136.0811029412
0
LINE
8
13000_TOP
62
7
6
CONTINUOUS
10
219.6538227097
20
136.0811029412
11
238.1538227097
21
136.0811029412
0
LINE
8
13000_TOP
62
7
6
CONTINUOUS
10
238.1538227097
20
136.9811029412
11
219.6538227097
21
136.9811029412
0
LINE
8
13000_TOP
62
7
6
CONTINUOUS
10
200.7038227097
20
136.9811029412
11
218.1538227097
21
136.9811029412
0
LINE
8
13000_TOP
62
7
6
CONTINUOUS
10
218.1538227097
20
142.5811029412
11
200.7038227097
21
142.5811029412
0
LINE
8
13000_TOP
62
7
6
CONTINUOUS
10
219.6538227097
20
142.5811029412
11
238.1538227097
21
142.5811029412
0
LINE
8
13000_TOP
62
7
6
CONTINUOUS
10
238.1538227097
20
143.4811029412
11
219.6538227097
21
143.4811029412
0
LINE
8
13000_TOP
62
7
6
CONTINUOUS
10
218.1538227097
20
143.4811029412
11
200.7038227097
21
143.4811029412
0
LINE
8
13000_TOP
62
7
6
CONTINUOUS
10
200.7038227097
20
149.0811029412
11
218.1538227097
21
149.0811029412
0
LINE
8
13000_TOP
62
7
6
CONTINUOUS
10
219.6538227097
20
149.0811029412
11
238.1538227097
21
149.0811029412
0
LINE
8
13000_TOP
62
7
6
CONTINUOUS
10
219.6538227097
20
149.9811029412
11
238.1538227097
21
149.9811029412
0
LINE
8
13000_TOP
62
7
6
CONTINUOUS
10
217.8538227097
20
150.2811029412
11
201.0038227097
21
150.2811029412
0
LINE
8
10000_FRONT
62
7
6
CONTINUOUS
10
201.4686876074
20
254.3745307321
11
201.5146335260
21
254.2826388443
0
LINE
8
10000_FRONT
62
7
6
CONTINUOUS
10
201.7443632201
20
254.3285847629
11
201.6524713830
21
254.5123685891
0
LINE
8
10000_FRONT
62
7
6
CONTINUOUS
10
201.6984173015
20
255.1096658851
11
201.6065253631
21
255.2934496606
0
LINE
8
10000_FRONT
62
7
6
CONTINUOUS
10
204.0876063839
20
254.3745307321
11
204.1335525051
21
254.2826388443
0
LINE
8
10000_FRONT
62
7
6
CONTINUOUS
10
204.3632823006
20
254.3285847629
11
204.2713904635
21
254.5123685891
0
LINE
8
10000_FRONT
62
7
6
CONTINUOUS
10
204.3173361794
20
255.1096658851
11
204.2254443422
21
255.2934496606
0
LINE
8
10000_FRONT
62
7
6
CONTINUOUS
10
207.0281471983
20
254.0988550688
11
206.9362549559
21
254.2826388443
0
LINE
8
10000_FRONT
62
7
6
CONTINUOUS
10
200.6416605413
20
254.0988550688
11
200.6876064979
21
253.9610172244
0
LINE
8
10000_FRONT
62
7
6
CONTINUOUS
10
203.2605794445
20
254.0988550688
11
203.3065253631
21
253.9610172244
0
LINE
8
10000_FRONT
62
7
6
CONTINUOUS
10
206.7065255657
20
254.2366928751
11
206.7524712816
21
254.0988550688
0
LINE
8
10000_FRONT
62
7
6
CONTINUOUS
10
207.7173361794
20
255.1556118036
11
207.7632823006
21
255.0177739466
0
LINE
8
10000_FRONT
62
7
6
CONTINUOUS
10
207.9930120960
20
255.1096658851
11
207.9470659748
21
255.2475037421
0
LINE
8
10000_FRONT
62
7
6
CONTINUOUS
10
198.9041718730
20
325.7580813919
11
198.9708383346
21
325.5245668624
0
LINE
8
10000_FRONT
62
7
6
CONTINUOUS
10
201.3253926490
20
316.9552217929
11
201.3093172472
21
317.0150678727
0
LINE
8
10000_FRONT
62
7
6
CONTINUOUS
10
205.2497686640
20
306.8556118275
11
205.3362551228
21
306.5096658493
0
LINE
8
10000_FRONT
62
7
6
CONTINUOUS
10
206.6605794445
20
254.4664226199
11
206.7065255657
21
254.2366928751
0
LINE
8
10000_FRONT
62
7
6
CONTINUOUS
10
206.9362549559
20
254.2826388443
11
206.8903092400
21
254.5123685891
0
LINE
8
10000_FRONT
62
7
6
CONTINUOUS
10
211.1632823006
20
254.4664226199
11
211.2092284218
21
254.1907469566
0
LINE
8
10000_FRONT
62
7
6
CONTINUOUS
10
211.4389582173
20
254.1448010127
11
211.3930120960
21
254.4204767014
0
LINE
8
10000_FRONT
62
7
6
CONTINUOUS
10
211.9903092400
20
255.0177739466
11
212.0362553612
21
254.7420983339
0
LINE
8
10000_FRONT
62
7
6
CONTINUOUS
10
212.2659851566
20
254.6961523140
11
212.2200390354
21
254.9718280281
0
LINE
8
10000_FRONT
62
7
6
CONTINUOUS
10
213.2308496491
20
254.4664226199
11
213.2767957703
21
254.1907469566
0
LINE
8
10000_FRONT
62
7
6
CONTINUOUS
10
213.5065255657
20
254.1448010127
11
213.4605794445
21
254.4204767014
0
LINE
8
10000_FRONT
62
7
6
CONTINUOUS
10
214.0578765885
20
255.0177739466
11
214.1038227097
21
254.7420983339
0
LINE
8
10000_FRONT
62
7
6
CONTINUOUS
10
214.3335516945
20
254.6961523140
11
214.2876071945
21
254.9718280281
0
LINE
8
10000_FRONT
62
7
6
CONTINUOUS
10
217.6416610733
20
254.4664226199
11
217.6876071945
21
254.1907469566
0
LINE
8
10000_FRONT
62
7
6
CONTINUOUS
10
217.9173361794
20
254.1448010127
11
217.8713900581
21
254.4204767014
0
LINE
8
10000_FRONT
62
7
6
CONTINUOUS
10
218.4686880127
20
255.0177739466
11
218.5146341339
21
254.7420983339
0
LINE
8
10000_FRONT
62
7
6
CONTINUOUS
10
218.7443631188
20
254.6961523140
11
218.6984169975
21
254.9718280281
0
LINE
8
10000_FRONT
62
7
6
CONTINUOUS
10
238.9038227097
20
327.4637914278
11
238.8743383905
21
327.8080293548
0
LINE
8
10000_FRONT
62
7
6
CONTINUOUS
10
238.1038227097
20
335.0733218264
11
238.1038227097
21
335.4771956371
0
LINE
8
13000_TOP
62
7
6
CONTINUOUS
10
238.1538227097
20
91.4811029412
11
238.1538227097
21
97.0811029412
0
LINE
8
13000_TOP
62
7
6
CONTINUOUS
10
238.1538227097
20
97.9811029412
11
238.1538227097
21
103.5811029412
0
LINE
8
13000_TOP
62
7
6
CONTINUOUS
10
238.1538227097
20
104.4811029412
11
238.1538227097
21
110.0811029412
0
LINE
8
13000_TOP
62
7
6
CONTINUOUS
10
238.1538227097
20
110.9811029412
11
238.1538227097
21
116.5811029412
0
LINE
8
13000_TOP
62
7
6
CONTINUOUS
10
238.1538227097
20
117.4811029412
11
238.1538227097
21
123.0811029412
0
LINE
8
13000_TOP
62
7
6
CONTINUOUS
10
238.1538227097
20
123.9811029412
11
238.1538227097
21
129.5811029412
0
LINE
8
13000_TOP
62
7
6
CONTINUOUS
10
238.1538227097
20
130.4811029412
11
238.1538227097
21
136.0811029412
0
LINE
8
13000_TOP
62
7
6
CONTINUOUS
10
238.1538227097
20
136.9811029412
11
238.1538227097
21
142.5811029412
0
LINE
8
13000_TOP
62
7
6
CONTINUOUS
10
238.1538227097
20
143.4811029412
11
238.1538227097
21
149.0811029412
0
LINE
8
13000_TOP
62
7
6
CONTINUOUS
10
238.1538227097
20
149.9811029412
11
238.1538227097
21
154.4811029412
0
LINE
8
10000_FRONT
62
7
6
CONTINUOUS
10
238.7698481135
20
317.6112080324
11
238.7698481135
21
316.7432588400
0
LINE
8
13000_TOP
62
7
6
CONTINUOUS
10
238.9038227097
20
45.1811029412
11
238.9038227097
21
161.0811029412
0
LINE
8
10000_FRONT
62
7
6
CONTINUOUS
10
238.9038227097
20
251.7772334362
11
238.9038227097
21
376.7772334362
0
LINE
8
10000_FRONT
62
7
6
CONTINUOUS
10
238.9037841194
20
325.7707193250
11
238.9038227097
21
325.7772334362
0
LINE
8
13000_TOP
62
7
6
CONTINUOUS
10
216.6621697813
20
88.5141423425
11
216.6691677274
21
88.5537115560
0
LINE
8
13000_TOP
62
7
6
CONTINUOUS
10
216.6691677274
20
88.5537115560
11
216.6786260012
21
88.5954721425
0
LINE
8
13000_TOP
62
7
6
CONTINUOUS
10
216.6786260012
20
88.5954721425
11
216.6908407840
21
88.6397470990
0
LINE
8
13000_TOP
62
7
6
CONTINUOUS
10
216.6908407840
20
88.6397470990
11
216.7062988759
21
88.6872676164
0
LINE
8
13000_TOP
62
7
6
CONTINUOUS
10
217.8538227097
20
154.1811029412
11
201.0038227097
21
154.1811029412
0
LINE
8
13000_TOP
62
7
6
CONTINUOUS
10
238.1538227097
20
154.4811029412
11
219.6538227097
21
154.4811029412
0
LINE
8
13000_TOP
62
7
6
CONTINUOUS
10
238.9038227097
20
155.6811029412
11
198.9038227097
21
155.6811029412
0
LINE
8
13000_TOP
62
7
6
CONTINUOUS
10
238.9038227097
20
161.0811029412
11
200.9038227097
21
161.0811029412
0
LINE
8
10000_FRONT
62
7
6
CONTINUOUS
10
208.9578765885
20
254.8339901710
11
208.4524716869
21
255.4772334362
0
LINE
8
10000_FRONT
62
7
6
CONTINUOUS
10
208.1767957703
20
255.4772334362
11
208.8200390354
21
254.6502063955
0
LINE
8
10000_FRONT
62
7
6
CONTINUOUS
10
209.7389582173
20
253.7772334362
11
209.0957149521
21
254.6502063955
0
LINE
8
10000_FRONT
62
7
6
CONTINUOUS
10
216.0794978157
20
253.7772334362
11
215.4362553612
21
254.6502063955
0
LINE
8
10000_FRONT
62
7
6
CONTINUOUS
10
208.9578765885
20
254.5123685891
11
209.4632823006
21
253.7772334362
0
LINE
8
10000_FRONT
62
7
6
CONTINUOUS
10
215.2984169975
20
254.5123685891
11
215.8038227097
21
253.7772334362
0
LINE
8
10000_FRONT
62
7
6
CONTINUOUS
10
200.9632821486
20
253.9610172244
11
200.8713902861
21
254.0988550688
0
LINE
8
10000_FRONT
62
7
6
CONTINUOUS
10
201.3767956689
20
255.2015577222
11
201.4686876074
21
255.0637199665
0
LINE
8
10000_FRONT
62
7
6
CONTINUOUS
10
203.5822010771
20
253.9610172244
11
203.4903092400
21
254.0988550688
0
LINE
8
10000_FRONT
62
7
6
CONTINUOUS
10
203.9957145468
20
255.2015577222
11
204.0876063839
21
255.0637199665
0
LINE
8
10000_FRONT
62
7
6
CONTINUOUS
10
206.7524712816
20
254.0988550688
11
206.8443631188
21
253.9610172244
0
LINE
8
10000_FRONT
62
7
6
CONTINUOUS
10
207.9470659748
20
255.2475037421
11
207.8551737324
21
255.3853414978
0
LINE
8
10000_FRONT
62
7
6
CONTINUOUS
10
211.2092284218
20
254.1907469566
11
211.3470659748
21
253.9150712679
0
LINE
8
10000_FRONT
62
7
6
CONTINUOUS
10
211.4849035278
20
254.0529090996
11
211.4389582173
21
254.1448010127
0
LINE
8
10000_FRONT
62
7
6
CONTINUOUS
10
211.9443631188
20
255.1096658851
11
211.9903092400
21
255.0177739466
0
LINE
8
10000_FRONT
62
7
6
CONTINUOUS
10
212.2200390354
20
254.9718280281
11
212.0822014824
21
255.2475037421
0
LINE
8
10000_FRONT
62
7
6
CONTINUOUS
10
213.2767957703
20
254.1907469566
11
213.4146333233
21
253.9150712679
0
LINE
8
10000_FRONT
62
7
6
CONTINUOUS
10
213.5524716869
20
254.0529090996
11
213.5065255657
21
254.1448010127
0
LINE
8
10000_FRONT
62
7
6
CONTINUOUS
10
214.0119304672
20
255.1096658851
11
214.0578765885
21
255.0177739466
0
LINE
8
10000_FRONT
62
7
6
CONTINUOUS
10
214.2876071945
20
254.9718280281
11
214.1497688309
21
255.2475037421
0
LINE
8
10000_FRONT
62
7
6
CONTINUOUS
10
217.6876071945
20
254.1907469566
11
217.8254439369
21
253.9150712679
0
LINE
8
10000_FRONT
62
7
6
CONTINUOUS
10
217.9632823006
20
254.0529090996
11
217.9173361794
21
254.1448010127
0
LINE
8
10000_FRONT
62
7
6
CONTINUOUS
10
218.4227418915
20
255.1096658851
11
218.4686880127
21
255.0177739466
0
LINE
8
10000_FRONT
62
7
6
CONTINUOUS
10
218.6984169975
20
254.9718280281
11
218.5605802551
21
255.2475037421
0
LINE
8
10000_FRONT
62
7
6
CONTINUOUS
10
201.3514819288
20
316.8992322618
11
201.3253926490
21
316.9552217929
0
LINE
8
10000_FRONT
62
7
6
CONTINUOUS
10
215.6281467453
20
306.9420982624
11
215.9740932480
21
306.0772334362
0
LINE
8
10000_FRONT
62
7
6
CONTINUOUS
10
216.4065250412
20
306.0772334362
11
215.1957149521
21
309.2772334362
0
LINE
8
10000_FRONT
62
7
6
CONTINUOUS
10
205.7686875359
20
306.6826388622
11
205.6822011009
21
306.9420982624
0
LINE
8
10000_FRONT
62
7
6
CONTINUOUS
10
205.3362551228
20
308.2393956448
11
205.4227416054
21
307.9799361492
0
LINE
8
10000_FRONT
62
7
6
CONTINUOUS
10
207.5849037186
20
308.6718280102
11
207.4984172836
21
308.9312875057
0
LINE
8
10000_FRONT
62
7
6
CONTINUOUS
10
210.0065254227
20
308.9312875057
11
210.9578765885
21
306.0772334362
0
LINE
8
10000_FRONT
62
7
6
CONTINUOUS
10
211.2173362747
20
306.6826388622
11
210.3524715439
21
309.2772334362
0
LINE
8
10000_FRONT
62
7
6
CONTINUOUS
10
214.9362552658
20
308.8448010708
11
215.4551738754
21
307.2880442883
0
LINE
8
10000_FRONT
62
7
6
CONTINUOUS
10
220.7308490769
20
306.9420982624
11
220.8173358933
21
306.6826388622
0
LINE
8
10000_FRONT
62
7
6
CONTINUOUS
10
222.6335529343
20
308.6718280102
11
222.7200382248
21
308.4123685146
0
LINE
8
10000_FRONT
62
7
6
CONTINUOUS
10
223.1524707810
20
308.5853415752
11
223.0659854904
21
308.8448010708
0
LINE
8
10000_FRONT
62
7
6
CONTINUOUS
10
201.5884488553
20
328.6769247506
11
201.6246817037
21
328.5664218299
0
LINE
8
10000_FRONT
62
7
6
CONTINUOUS
10
215.6223736098
20
372.6389355625
11
215.5832949177
21
372.8261695827
0
LINE
8
10000_FRONT
62
7
6
CONTINUOUS
10
222.2266742951
20
372.7793610776
11
222.1875952956
21
372.9665951634
0
LINE
8
10000_FRONT
62
7
6
CONTINUOUS
10
222.1875952956
20
373.7623398806
11
222.1485167433
21
373.9495739008
0
LINE
8
10000_FRONT
62
7
6
CONTINUOUS
10
220.6443637863
20
307.3745307232
11
220.7308490769
21
306.9420982624
0
LINE
8
10000_FRONT
62
7
6
CONTINUOUS
10
221.1632816330
20
307.0285847927
11
221.0767963425
21
307.4610172535
0
LINE
8
10000_FRONT
62
7
6
CONTINUOUS
10
215.3488227097
20
372.8261695827
11
215.3879014122
21
372.5921270574
0
LINE
8
10000_FRONT
62
7
6
CONTINUOUS
10
216.8728920620
20
373.7155312444
11
216.8338133980
21
373.9495739008
0
LINE
8
10000_FRONT
62
7
6
CONTINUOUS
10
231.3710908565
20
372.8261695827
11
231.4101689616
21
372.5453185523
0
LINE
8
10000_FRONT
62
7
6
CONTINUOUS
10
236.0038227097
20
318.4772334362
11
236.0339267135
21
318.2337139161
0
LINE
8
13000_TOP
62
7
6
CONTINUOUS
10
216.7062988759
20
88.6872676164
11
216.7255887074
21
88.7387253492
0
LINE
8
13000_TOP
62
7
6
CONTINUOUS
10
216.7255887074
20
88.7387253492
11
216.7493538584
21
88.7947358965
0
LINE
8
13000_TOP
62
7
6
CONTINUOUS
10
216.7493538584
20
88.7947358965
11
216.7782764260
21
88.8559203854
0
LINE
8
11000_LEFT
62
7
6
CONTINUOUS
10
353.2588328738
20
353.6772334362
11
356.0012466525
21
358.4272334362
0
LINE
8
11000_LEFT
62
7
6
CONTINUOUS
10
423.6878491929
20
375.5272334362
11
422.8878491929
21
374.7272334362
0
LINE
8
10000_FRONT
62
7
6
CONTINUOUS
10
200.6876064979
20
253.9610172244
11
200.7794983730
21
253.8691253303
0
LINE
8
10000_FRONT
62
7
6
CONTINUOUS
10
201.3767956689
20
254.4664226199
11
201.4686876074
21
254.3745307321
0
LINE
8
10000_FRONT
62
7
6
CONTINUOUS
10
203.3065253631
20
253.9610172244
11
203.3984174029
21
253.8691253303
0
LINE
8
10000_FRONT
62
7
6
CONTINUOUS
10
203.9957145468
20
254.4664226199
11
204.0876063839
21
254.3745307321
0
LINE
8
10000_FRONT
62
7
6
CONTINUOUS
10
206.8443631188
20
253.9610172244
11
206.9362549559
21
253.8691253303
0
LINE
8
10000_FRONT
62
7
6
CONTINUOUS
10
207.1200390354
20
254.0069631557
11
207.0281471983
21
254.0988550688
0
LINE
8
10000_FRONT
62
7
6
CONTINUOUS
10
207.5794986263
20
255.2934496606
11
207.7173361794
21
255.1556118036
0
LINE
8
10000_FRONT
62
7
6
CONTINUOUS
10
211.3470659748
20
253.9150712679
11
211.4849035278
21
253.7772334362
0
LINE
8
10000_FRONT
62
7
6
CONTINUOUS
10
211.5767957703
20
253.9610172244
11
211.4849035278
21
254.0529090996
0
LINE
8
10000_FRONT
62
7
6
CONTINUOUS
10
211.8524716869
20
255.2015577222
11
211.9443631188
21
255.1096658851
0
LINE
8
10000_FRONT
62
7
6
CONTINUOUS
10
213.4146333233
20
253.9150712679
11
213.5524716869
21
253.7772334362
0
LINE
8
10000_FRONT
62
7
6
CONTINUOUS
10
212.0822014824
20
255.2475037421
11
211.9443631188
21
255.3853414978
0
LINE
8
10000_FRONT
62
7
6
CONTINUOUS
10
213.6443631188
20
253.9610172244
11
213.5524716869
21
254.0529090996
0
LINE
8
10000_FRONT
62
7
6
CONTINUOUS
10
213.9200390354
20
255.2015577222
11
214.0119304672
21
255.1096658851
0
LINE
8
10000_FRONT
62
7
6
CONTINUOUS
10
214.1497688309
20
255.2475037421
11
214.0119304672
21
255.3853414978
0
LINE
8
10000_FRONT
62
7
6
CONTINUOUS
10
217.8254439369
20
253.9150712679
11
217.9632823006
21
253.7772334362
0
LINE
8
10000_FRONT
62
7
6
CONTINUOUS
10
218.0551745430
20
253.9610172244
11
217.9632823006
21
254.0529090996
0
LINE
8
10000_FRONT
62
7
6
CONTINUOUS
10
218.3308496491
20
255.2015577222
11
218.4227418915
21
255.1096658851
0
LINE
8
10000_FRONT
62
7
6
CONTINUOUS
10
218.5605802551
20
255.2475037421
11
218.4227418915
21
255.3853414978
0
LINE
8
10000_FRONT
62
7
6
CONTINUOUS
10
215.2984169975
20
254.8339901710
11
214.7930112854
21
255.4772334362
0
LINE
8
10000_FRONT
62
7
6
CONTINUOUS
10
214.5173361794
20
255.4772334362
11
215.1605802551
21
254.6502063955
0
LINE
8
10000_FRONT
62
7
6
CONTINUOUS
10
205.3362551228
20
306.5096658493
11
205.5092281357
21
306.2502064134
0
LINE
8
10000_FRONT
62
7
6
CONTINUOUS
10
205.8551740662
20
308.1529090191
11
205.7686875359
21
308.3258820797
0
LINE
8
10000_FRONT
62
7
6
CONTINUOUS
10
207.1524713532
20
307.2015577579
11
207.2389577881
21
307.0285847927
0
LINE
8
10000_FRONT
62
7
6
CONTINUOUS
10
207.6713903443
20
307.2015577579
11
207.4984172836
21
307.5475036884
0
LINE
8
10000_FRONT
62
7
6
CONTINUOUS
10
207.0659849182
20
308.7583144451
11
207.1524713532
21
308.5853415752
0
LINE
8
10000_FRONT
62
7
6
CONTINUOUS
10
221.3362552658
20
306.6826388622
11
221.1632816330
21
307.0285847927
0
LINE
8
10000_FRONT
62
7
6
CONTINUOUS
10
201.7870506672
20
330.0869589932
11
201.7333722743
21
330.2083416739
0
LINE
8
10000_FRONT
62
7
6
CONTINUOUS
10
216.5993411899
20
373.8559568907
11
216.6384198540
21
373.7155312444
0
LINE
8
10000_FRONT
62
7
6
CONTINUOUS
10
218.3578826385
20
373.9027653957
11
218.3969614144
21
373.7623398806
0
LINE
8
10000_FRONT
62
7
6
CONTINUOUS
10
218.6314336225
20
373.7623398806
11
218.5923548466
21
373.9027653957
0
LINE
8
10000_FRONT
62
7
6
CONTINUOUS
10
220.8198410467
20
372.5921270574
11
220.8589195990
21
372.4517015094
0
LINE
8
10000_FRONT
62
7
6
CONTINUOUS
10
224.4150817194
20
372.5921270574
11
224.4541598244
21
372.4517015094
0
LINE
8
10000_FRONT
62
7
6
CONTINUOUS
10
231.6055630646
20
372.5921270574
11
231.5664831707
21
372.7325525726
0
LINE
8
10000_FRONT
62
7
6
CONTINUOUS
10
236.2083001427
20
328.4106204222
11
236.1823939396
21
328.5049416205
0
LINE
8
10000_FRONT
62
7
6
CONTINUOUS
10
238.8743383905
20
327.8080293548
11
238.7952631391
21
328.1109394232
0
LINE
8
10000_FRONT
62
7
6
CONTINUOUS
10
225.8219149677
20
372.7793610776
11
225.7828359682
21
372.9665951634
0
LINE
8
10000_FRONT
62
7
6
CONTINUOUS
10
225.7828359682
20
373.7623398806
11
225.7437569687
21
373.9495739008
0
LINE
8
10000_FRONT
62
7
6
CONTINUOUS
10
232.6216081069
20
373.0134036685
11
232.5825300019
21
373.2006376887
0
LINE
8
10000_FRONT
62
7
6
CONTINUOUS
10
232.9342383140
20
372.4985100473
11
232.9733164190
21
372.3112759943
0
LINE
8
10000_FRONT
62
7
6
CONTINUOUS
10
234.1456774593
20
372.2176589678
11
234.1065993542
21
372.4517015094
0
LINE
8
10000_FRONT
62
7
6
CONTINUOUS
10
235.3571183935
20
373.2006376887
11
235.3961964986
21
372.9665951634
0
LINE
8
10000_FRONT
62
7
6
CONTINUOUS
10
235.5915906016
20
372.9665951634
11
235.5525107076
21
373.2006376887
0
LINE
8
13000_TOP
62
7
6
CONTINUOUS
10
216.7782764260
20
88.8559203854
11
216.8129142542
21
88.9227285552
0
LINE
8
13000_TOP
62
7
6
CONTINUOUS
10
216.8129142542
20
88.9227285552
11
216.8536529585
21
88.9956079317
0
LINE
8
13000_TOP
62
7
6
CONTINUOUS
10
216.8536529585
20
88.9956079317
11
216.9006807261
21
89.0752190772
0
LINE
8
13000_TOP
62
7
6
CONTINUOUS
10
216.9006807261
20
89.0752190772
11
216.9538227097
21
89.1624737911
0
LINE
8
11000_LEFT
62
7
6
CONTINUOUS
10
352.5878491929
20
275.8934709661
11
353.6878491929
21
276.9934709661
0
LINE
8
10000_FRONT
62
7
6
CONTINUOUS
10
201.6524713830
20
254.5123685891
11
201.5605794445
21
254.5583145077
0
LINE
8
10000_FRONT
62
7
6
CONTINUOUS
10
201.2849037812
20
255.2475037421
11
201.3767956689
21
255.2015577222
0
LINE
8
10000_FRONT
62
7
6
CONTINUOUS
10
204.2713904635
20
254.5123685891
11
204.1794982210
21
254.5583145077
0
LINE
8
10000_FRONT
62
7
6
CONTINUOUS
10
203.9038227097
20
255.2475037421
11
203.9957145468
21
255.2015577222
0
LINE
8
10000_FRONT
62
7
6
CONTINUOUS
10
206.9362549559
20
253.8691253303
11
207.1200390354
21
253.7772334362
0
LINE
8
10000_FRONT
62
7
6
CONTINUOUS
10
207.2119308725
20
253.9610172244
11
207.1200390354
21
254.0069631557
0
LINE
8
10000_FRONT
62
7
6
CONTINUOUS
10
207.8551737324
20
255.3853414978
11
207.6713900581
21
255.4772334362
0
LINE
8
10000_FRONT
62
7
6
CONTINUOUS
10
211.6686872021
20
253.9150712679
11
211.5767957703
21
253.9610172244
0
LINE
8
10000_FRONT
62
7
6
CONTINUOUS
10
213.7362553612
20
253.9150712679
11
213.6443631188
21
253.9610172244
0
LINE
8
10000_FRONT
62
7
6
CONTINUOUS
10
211.7605794445
20
255.2475037421
11
211.8524716869
21
255.2015577222
0
LINE
8
10000_FRONT
62
7
6
CONTINUOUS
10
200.7794983730
20
253.8691253303
11
200.9173362300
21
253.7772334362
0
LINE
8
10000_FRONT
62
7
6
CONTINUOUS
10
203.3984174029
20
253.8691253303
11
203.5362551585
21
253.7772334362
0
LINE
8
10000_FRONT
62
7
6
CONTINUOUS
10
201.6065253631
20
255.2934496606
11
201.4686876074
21
255.3853414978
0
LINE
8
10000_FRONT
62
7
6
CONTINUOUS
10
204.2254443422
20
255.2934496606
11
204.0876063839
21
255.3853414978
0
LINE
8
10000_FRONT
62
7
6
CONTINUOUS
10
198.9708383346
20
325.5245668624
11
199.1313196271
21
325.3319438718
0
LINE
8
10000_FRONT
62
7
6
CONTINUOUS
10
201.3870348754
20
316.8487459342
11
201.3514819288
21
316.8992322618
0
LINE
8
10000_FRONT
62
7
6
CONTINUOUS
10
220.8173358933
20
306.6826388622
11
220.9903095261
21
306.4231793905
0
LINE
8
10000_FRONT
62
7
6
CONTINUOUS
10
223.0659854904
20
308.8448010708
11
222.8930118576
21
309.1042603756
0
LINE
8
10000_FRONT
62
7
6
CONTINUOUS
10
225.4011203781
20
308.7583144451
11
226.9578769699
21
306.0772334362
0
LINE
8
10000_FRONT
62
7
6
CONTINUOUS
10
227.1308490769
20
306.5961523319
11
225.5740924851
21
309.2772334362
0
LINE
8
10000_FRONT
62
7
6
CONTINUOUS
10
238.7952631391
20
328.1109394232
11
238.6759257786
21
328.3713756667
0
LINE
8
10000_FRONT
62
7
6
CONTINUOUS
10
221.0543132548
20
372.4985100473
11
221.0152342553
21
372.5921270574
0
LINE
8
10000_FRONT
62
7
6
CONTINUOUS
10
224.6495539274
20
372.4985100473
11
224.6104749279
21
372.5921270574
0
LINE
8
10000_FRONT
62
7
6
CONTINUOUS
10
231.4101689616
20
372.5453185523
11
231.4883269606
21
372.3580844993
0
LINE
8
10000_FRONT
62
7
6
CONTINUOUS
10
215.3879014122
20
372.5921270574
11
215.4660588137
21
372.4048930044
0
LINE
8
10000_FRONT
62
7
6
CONTINUOUS
10
221.9531230875
20
372.9665951634
11
222.0312806393
21
372.7793610776
0
LINE
8
10000_FRONT
62
7
6
CONTINUOUS
10
225.5483637602
20
372.9665951634
11
225.6265208647
21
372.7793610776
0
LINE
8
10000_FRONT
62
7
6
CONTINUOUS
10
231.6446411696
20
372.4985100473
11
231.6055630646
21
372.5921270574
0
LINE
8
10000_FRONT
62
7
6
CONTINUOUS
10
236.0339267135
20
318.2337139161
11
236.1322351453
21
317.9869935789
0
LINE
8
10000_FRONT
62
7
6
CONTINUOUS
10
233.9112052512
20
372.3112759943
11
233.9502851452
21
372.1708504545
0
LINE
8
10000_FRONT
62
7
6
CONTINUOUS
10
234.1847573532
20
372.0772334362
11
234.1456774593
21
372.2176589678
0
LINE
8
10000_FRONT
62
7
6
CONTINUOUS
10
234.1065993542
20
373.2006376887
11
234.0675212492
21
373.3410632039
0
LINE
8
10000_FRONT
62
7
6
CONTINUOUS
10
235.5525107076
20
373.2006376887
11
235.5134326026
21
373.3410632039
0
LINE
8
11000_LEFT
62
7
6
CONTINUOUS
10
458.2762791816
20
251.8197324484
11
457.9878491929
21
251.7772334362
0
LINE
8
10000_FRONT
62
7
6
CONTINUOUS
10
200.9173362300
20
253.7772334362
11
201.1011200056
21
253.7312874891
0
LINE
8
10000_FRONT
62
7
6
CONTINUOUS
10
203.5362551585
20
253.7772334362
11
203.7200388328
21
253.7312874891
0
LINE
8
10000_FRONT
62
7
6
CONTINUOUS
10
207.1200390354
20
253.7772334362
11
207.3038227097
21
253.7312874891
0
LINE
8
10000_FRONT
62
7
6
CONTINUOUS
10
207.6713900581
20
255.4772334362
11
207.4876063839
21
255.5231793548
0
LINE
8
10000_FRONT
62
7
6
CONTINUOUS
10
201.1011200056
20
253.9150712679
11
200.9632821486
21
253.9610172244
0
LINE
8
10000_FRONT
62
7
6
CONTINUOUS
10
201.2389578626
20
254.5123685891
11
201.3767956689
21
254.4664226199
0
LINE
8
10000_FRONT
62
7
6
CONTINUOUS
10
201.5605794445
20
254.5583145077
11
201.4227415875
21
254.6042604769
0
LINE
8
10000_FRONT
62
7
6
CONTINUOUS
10
203.7200388328
20
253.9150712679
11
203.5822010771
21
253.9610172244
0
LINE
8
10000_FRONT
62
7
6
CONTINUOUS
10
203.8578767911
20
254.5123685891
11
203.9957145468
21
254.4664226199
0
LINE
8
10000_FRONT
62
7
6
CONTINUOUS
10
201.4686876074
20
255.3853414978
11
201.3308497504
21
255.4312875176
0
LINE
8
10000_FRONT
62
7
6
CONTINUOUS
10
204.1794982210
20
254.5583145077
11
204.0416606680
21
254.6042604769
0
LINE
8
10000_FRONT
62
7
6
CONTINUOUS
10
207.3497688309
20
253.9150712679
11
207.2119308725
21
253.9610172244
0
LINE
8
10000_FRONT
62
7
6
CONTINUOUS
10
204.0876063839
20
255.3853414978
11
203.9497688309
21
255.4312875176
0
LINE
8
10000_FRONT
62
7
6
CONTINUOUS
10
211.4849035278
20
253.7772334362
11
211.6227418915
21
253.7312874891
0
LINE
8
10000_FRONT
62
7
6
CONTINUOUS
10
207.4416602627
20
255.3393955792
11
207.5794986263
21
255.2934496606
0
LINE
8
10000_FRONT
62
7
6
CONTINUOUS
10
213.5524716869
20
253.7772334362
11
213.6903092400
21
253.7312874891
0
LINE
8
10000_FRONT
62
7
6
CONTINUOUS
10
211.9443631188
20
255.3853414978
11
211.8065255657
21
255.4312875176
0
LINE
8
10000_FRONT
62
7
6
CONTINUOUS
10
217.9632823006
20
253.7772334362
11
218.1011206642
21
253.7312874891
0
LINE
8
10000_FRONT
62
7
6
CONTINUOUS
10
214.0119304672
20
255.3853414978
11
213.8740929142
21
255.4312875176
0
LINE
8
10000_FRONT
62
7
6
CONTINUOUS
10
218.4227418915
20
255.3853414978
11
218.2849035278
21
255.4312875176
0
LINE
8
10000_FRONT
62
7
6
CONTINUOUS
10
213.8281467930
20
255.2475037421
11
213.9200390354
21
255.2015577222
0
LINE
8
10000_FRONT
62
7
6
CONTINUOUS
10
218.1470651642
20
253.9150712679
11
218.0551745430
21
253.9610172244
0
LINE
8
10000_FRONT
62
7
6
CONTINUOUS
10
218.2389574066
20
255.2475037421
11
218.3308496491
21
255.2015577222
0
LINE
8
10000_FRONT
62
7
6
CONTINUOUS
10
201.4315257070
20
316.8055563735
11
201.3870348754
21
316.8487459342
0
LINE
8
10000_FRONT
62
7
6
CONTINUOUS
10
206.0281470314
20
306.4231793905
11
205.7686875359
21
306.6826388622
0
LINE
8
10000_FRONT
62
7
6
CONTINUOUS
10
205.4227416054
20
307.9799361492
11
205.6822011009
21
307.7204766537
0
LINE
8
10000_FRONT
62
7
6
CONTINUOUS
10
207.0659849182
20
307.2880442883
11
207.1524713532
21
307.2015577579
0
LINE
8
10000_FRONT
62
7
6
CONTINUOUS
10
206.8930118576
20
308.9312875057
11
207.0659849182
21
308.7583144451
0
LINE
8
10000_FRONT
62
7
6
CONTINUOUS
10
207.4984172836
20
308.9312875057
11
207.3254444138
21
309.1042603756
0
LINE
8
10000_FRONT
62
7
6
CONTINUOUS
10
220.9903095261
20
306.4231793905
11
221.1632816330
21
306.2502064134
0
LINE
8
10000_FRONT
62
7
6
CONTINUOUS
10
221.5092273728
20
306.5096658493
11
221.3362552658
21
306.6826388622
0
LINE
8
10000_FRONT
62
7
6
CONTINUOUS
10
222.3740924851
20
308.9312875057
11
222.6335529343
21
308.6718280102
0
LINE
8
10000_FRONT
62
7
6
CONTINUOUS
10
201.5037070603
20
328.7772334362
11
201.5884488553
21
328.6769247506
0
LINE
8
10000_FRONT
62
7
6
CONTINUOUS
10
236.1322351453
20
317.9869935789
11
236.2914454661
21
317.7754366973
0
LINE
8
10000_FRONT
62
7
6
CONTINUOUS
10
238.6759257786
20
328.3713756667
11
238.5206106418
21
328.5879286700
0
LINE
8
10000_FRONT
62
7
6
CONTINUOUS
10
236.2693195422
20
328.3212072446
11
236.2083001427
21
328.4106204222
0
LINE
8
10000_FRONT
62
7
6
CONTINUOUS
10
218.5923548466
20
373.9027653957
11
218.4751187426
21
374.0899994160
0
LINE
8
10000_FRONT
62
7
6
CONTINUOUS
10
215.7005310218
20
372.4985100473
11
215.6223736098
21
372.6389355625
0
LINE
8
10000_FRONT
62
7
6
CONTINUOUS
10
220.8589195990
20
372.4517015094
11
220.9370771508
21
372.3112759943
0
LINE
8
10000_FRONT
62
7
6
CONTINUOUS
10
222.1875952956
20
372.9665951634
11
222.1094381911
21
373.1070206786
0
LINE
8
10000_FRONT
62
7
6
CONTINUOUS
10
221.9140445353
20
373.9027653957
11
221.9922020870
21
373.7623398806
0
LINE
8
10000_FRONT
62
7
6
CONTINUOUS
10
224.4541598244
20
372.4517015094
11
224.5323178234
21
372.3112759943
0
LINE
8
10000_FRONT
62
7
6
CONTINUOUS
10
225.7828359682
20
372.9665951634
11
225.7046788637
21
373.1070206786
0
LINE
8
10000_FRONT
62
7
6
CONTINUOUS
10
225.5092847607
20
373.9027653957
11
225.5874427596
21
373.7623398806
0
LINE
8
10000_FRONT
62
7
6
CONTINUOUS
10
232.3480577938
20
373.2474461938
11
232.4262157928
21
373.1070206786
0
LINE
8
10000_FRONT
62
7
6
CONTINUOUS
10
233.1687105220
20
372.3580844993
11
233.1296324170
21
372.4517015094
0
LINE
8
10000_FRONT
62
7
6
CONTINUOUS
10
233.9502851452
20
372.1708504545
11
233.9893632502
21
372.0772334362
0
LINE
8
10000_FRONT
62
7
6
CONTINUOUS
10
233.8721271462
20
373.2942546988
11
233.9112052512
21
373.2006376887
0
LINE
8
13000_TOP
62
7
6
CONTINUOUS
10
200.8594982668
20
52.4021395937
11
200.7088227097
21
52.2500970085
0
LINE
8
13000_TOP
62
7
6
CONTINUOUS
10
237.8538227097
20
116.2811029412
11
238.1538227097
21
116.5811029412
0
LINE
8
11000_LEFT
62
7
6
CONTINUOUS
10
458.5229611614
20
251.9324522923
11
458.2762791816
21
251.8197324484
0
LINE
8
11000_LEFT
62
7
6
CONTINUOUS
10
463.5878491929
20
251.7772334362
11
457.9878491929
21
251.7772334362
0
LINE
8
10000_FRONT
62
7
6
CONTINUOUS
10
198.9038227097
20
251.7772334362
11
238.9038227097
21
251.7772334362
0
LINE
8
11000_LEFT
62
7
6
CONTINUOUS
10
359.3878491929
20
251.7772334362
11
457.7878491929
21
251.7772334362
0
LINE
8
10000_FRONT
62
7
6
CONTINUOUS
10
238.9038227097
20
252.1772334362
11
238.7006249563
21
252.1772334362
0
LINE
8
10000_FRONT
62
7
6
CONTINUOUS
10
201.1011200056
20
253.7312874891
11
201.2849037812
21
253.7312874891
0
LINE
8
10000_FRONT
62
7
6
CONTINUOUS
10
203.7200388328
20
253.7312874891
11
203.9038227097
21
253.7312874891
0
LINE
8
10000_FRONT
62
7
6
CONTINUOUS
10
207.3038227097
20
253.7312874891
11
207.4416602627
21
253.7312874891
0
LINE
8
10000_FRONT
62
7
6
CONTINUOUS
10
211.6227418915
20
253.7312874891
11
211.8065255657
21
253.7312874891
0
LINE
8
10000_FRONT
62
7
6
CONTINUOUS
10
213.6903092400
20
253.7312874891
11
213.8740929142
21
253.7312874891
0
LINE
8
10000_FRONT
62
7
6
CONTINUOUS
10
218.1011206642
20
253.7312874891
11
218.2849035278
21
253.7312874891
0
LINE
8
10000_FRONT
62
7
6
CONTINUOUS
10
202.6632820979
20
253.7772334362
11
202.8470659748
21
253.7772334362
0
LINE
8
10000_FRONT
62
7
6
CONTINUOUS
10
205.8794982210
20
253.7772334362
11
206.1092280165
21
253.7772334362
0
LINE
8
10000_FRONT
62
7
6
CONTINUOUS
10
208.1308496491
20
253.7772334362
11
208.4065255657
21
253.7772334362
0
LINE
8
10000_FRONT
62
7
6
CONTINUOUS
10
209.4632823006
20
253.7772334362
11
209.7389582173
21
253.7772334362
0
LINE
8
10000_FRONT
62
7
6
CONTINUOUS
10
210.4281467930
20
253.7772334362
11
210.6578765885
21
253.7772334362
0
LINE
8
10000_FRONT
62
7
6
CONTINUOUS
10
214.4713900581
20
253.7772334362
11
214.7470651642
21
253.7772334362
0
LINE
8
10000_FRONT
62
7
6
CONTINUOUS
10
215.8038227097
20
253.7772334362
11
216.0794978157
21
253.7772334362
0
LINE
8
10000_FRONT
62
7
6
CONTINUOUS
10
216.3551745430
20
253.7772334362
11
217.4119304672
21
253.7772334362
0
LINE
8
10000_FRONT
62
7
6
CONTINUOUS
10
218.2389574066
20
253.9150712679
11
218.1470651642
21
253.9150712679
0
LINE
8
10000_FRONT
62
7
6
CONTINUOUS
10
213.8281467930
20
253.9150712679
11
213.7362553612
21
253.9150712679
0
LINE
8
10000_FRONT
62
7
6
CONTINUOUS
10
211.7605794445
20
253.9150712679
11
211.6686872021
21
253.9150712679
0
LINE
8
10000_FRONT
62
7
6
CONTINUOUS
10
207.4416602627
20
253.9150712679
11
207.3497688309
21
253.9150712679
0
LINE
8
10000_FRONT
62
7
6
CONTINUOUS
10
203.9038227097
20
253.9150712679
11
203.7200388328
21
253.9150712679
0
LINE
8
10000_FRONT
62
7
6
CONTINUOUS
10
201.2849037812
20
253.9150712679
11
201.1011200056
21
253.9150712679
0
LINE
8
10000_FRONT
62
7
6
CONTINUOUS
10
217.4119304672
20
253.9610172244
11
216.5849035278
21
253.9610172244
0
LINE
8
11000_LEFT
62
7
6
CONTINUOUS
10
423.1878491929
20
254.0772334362
11
422.8878491929
21
254.0772334362
0
LINE
8
10000_FRONT
62
7
6
CONTINUOUS
10
201.8822010771
20
254.1448010127
11
202.6632820979
21
254.1448010127
0
LINE
8
10000_FRONT
62
7
6
CONTINUOUS
10
202.8470659748
20
254.1448010127
11
203.1227416888
21
254.1448010127
0
LINE
8
10000_FRONT
62
7
6
CONTINUOUS
10
203.4903092400
20
254.1907469566
11
203.2605794445
21
254.1907469566
0
LINE
8
10000_FRONT
62
7
6
CONTINUOUS
10
200.8713902861
20
254.1907469566
11
200.6416605413
21
254.1907469566
0
LINE
8
10000_FRONT
62
7
6
CONTINUOUS
10
201.4837965630
20
316.7720750921
11
201.4315257070
21
316.8055563735
0
LINE
8
10000_FRONT
62
7
6
CONTINUOUS
10
207.4984172836
20
307.5475036884
11
207.2389577881
21
307.7204766537
0
LINE
8
10000_FRONT
62
7
6
CONTINUOUS
10
207.3254444138
20
309.1042603756
11
207.0659849182
21
309.2772334362
0
LINE
8
10000_FRONT
62
7
6
CONTINUOUS
10
201.4467092261
20
328.8165732535
11
201.5037070603
21
328.7772334362
0
LINE
8
10000_FRONT
62
7
6
CONTINUOUS
10
201.7333722743
20
330.2083416739
11
201.6463517821
21
330.2767500913
0
LINE
8
10000_FRONT
62
7
6
CONTINUOUS
10
215.4660588137
20
372.4048930044
11
215.6223736098
21
372.2176589678
0
LINE
8
10000_FRONT
62
7
6
CONTINUOUS
10
216.8338133980
20
373.9495739008
11
216.6774985181
21
374.1368079210
0
LINE
8
10000_FRONT
62
7
6
CONTINUOUS
10
232.5825300019
20
373.2006376887
11
232.4652938978
21
373.3878717090
0
LINE
8
11000_LEFT
62
7
6
CONTINUOUS
10
347.6878491929
20
351.6772334362
11
347.6878491929
21
329.2772334362
0
LINE
8
11000_LEFT
62
7
6
CONTINUOUS
10
347.6878491929
20
269.5772334362
11
347.6878491929
21
311.2772334362
0
LINE
8
11000_LEFT
62
7
6
CONTINUOUS
10
348.5538745966
20
305.1972334362
11
348.5538745966
21
275.0972334362
0
LINE
8
11000_LEFT
62
7
6
CONTINUOUS
10
352.5878491929
20
271.5972334362
11
352.5878491929
21
309.1472334362
0
LINE
8
11000_LEFT
62
7
6
CONTINUOUS
10
353.0878491929
20
311.2772334362
11
353.0878491929
21
327.2772334362
0
LINE
8
11000_LEFT
62
7
6
CONTINUOUS
10
353.0878491929
20
372.2772334362
11
353.0878491929
21
376.2772334362
0
LINE
8
11000_LEFT
62
7
6
CONTINUOUS
10
353.5878491929
20
276.8934709661
11
353.5878491929
21
305.3173844478
0
LINE
8
11000_LEFT
62
7
6
CONTINUOUS
10
356.0878491929
20
372.2772334362
11
356.0878491929
21
372.0272334362
0
LINE
8
11000_LEFT
62
7
6
CONTINUOUS
10
358.0878491929
20
268.2772334362
11
358.0878491929
21
269.5772334362
0
LINE
8
11000_LEFT
62
7
6
CONTINUOUS
10
359.3878491929
20
251.7772334362
11
359.3878491929
21
266.9772334362
0
LINE
8
11000_LEFT
62
7
6
CONTINUOUS
10
359.6878491929
20
358.5772334362
11
359.6878491929
21
372.2772334362
0
LINE
8
11000_LEFT
62
7
6
CONTINUOUS
10
347.6878491929
20
270.6862061819
11
351.0878491929
21
271.5972334362
0
LINE
8
11000_LEFT
62
7
6
CONTINUOUS
10
360.0878491929
20
277.5533984126
11
366.0348968056
21
279.1469050178
0
LINE
8
10000_FRONT
62
7
6
CONTINUOUS
10
207.4416602627
20
253.7312874891
11
207.6713900581
21
253.7772334362
0
LINE
8
10000_FRONT
62
7
6
CONTINUOUS
10
207.3497688309
20
255.5231793548
11
207.1200390354
21
255.4772334362
0
LINE
8
11000_LEFT
62
7
6
CONTINUOUS
10
353.6878491929
20
276.9934709661
11
360.0878491929
21
277.5533984126
0
LINE
8
10000_FRONT
62
7
6
CONTINUOUS
10
207.9930120960
20
254.2366928751
11
207.7632823006
21
254.2366928751
0
LINE
8
10000_FRONT
62
7
6
CONTINUOUS
10
203.1227416888
20
254.3285847629
11
202.8470659748
21
254.3285847629
0
LINE
8
10000_FRONT
62
7
6
CONTINUOUS
10
202.6632820979
20
254.3285847629
11
202.0659848527
21
254.3285847629
0
LINE
8
10000_FRONT
62
7
6
CONTINUOUS
10
204.5470659748
20
254.3285847629
11
205.1443631188
21
254.3285847629
0
LINE
8
10000_FRONT
62
7
6
CONTINUOUS
10
212.4497688309
20
254.3285847629
11
213.0470659748
21
254.3285847629
0
LINE
8
10000_FRONT
62
7
6
CONTINUOUS
10
213.0470659748
20
254.4664226199
11
212.4497688309
21
254.4664226199
0
LINE
8
10000_FRONT
62
7
6
CONTINUOUS
10
205.1443631188
20
254.4664226199
11
204.5470659748
21
254.4664226199
0
LINE
8
10000_FRONT
62
7
6
CONTINUOUS
10
201.0551740364
20
254.5123685891
11
201.2389578626
21
254.5123685891
0
LINE
8
10000_FRONT
62
7
6
CONTINUOUS
10
203.6740929142
20
254.5123685891
11
203.8578767911
21
254.5123685891
0
LINE
8
10000_FRONT
62
7
6
CONTINUOUS
10
216.5849035278
20
254.5583145077
11
217.3659843460
21
254.5583145077
0
LINE
8
10000_FRONT
62
7
6
CONTINUOUS
10
203.8119308725
20
254.6961523140
11
203.6740929142
21
254.6961523140
0
LINE
8
10000_FRONT
62
7
6
CONTINUOUS
10
201.1930118934
20
254.6961523140
11
201.0551740364
21
254.6961523140
0
LINE
8
10000_FRONT
62
7
6
CONTINUOUS
10
217.3659843460
20
254.7420983339
11
216.5849035278
21
254.7420983339
0
LINE
8
10000_FRONT
62
7
6
CONTINUOUS
10
200.6876064979
20
255.0177739466
11
200.9173362300
21
255.0177739466
0
LINE
8
10000_FRONT
62
7
6
CONTINUOUS
10
203.3065253631
20
255.0177739466
11
203.5362551585
21
255.0177739466
0
LINE
8
10000_FRONT
62
7
6
CONTINUOUS
10
207.7632823006
20
255.0177739466
11
207.9930120960
21
255.0177739466
0
LINE
8
11000_LEFT
62
7
6
CONTINUOUS
10
461.4878491929
20
255.0772334362
11
461.9878491929
21
255.0772334362
0
LINE
8
10000_FRONT
62
7
6
CONTINUOUS
10
201.1011200056
20
255.2475037421
11
201.2849037812
21
255.2475037421
0
LINE
8
10000_FRONT
62
7
6
CONTINUOUS
10
203.7200388328
20
255.2475037421
11
203.9038227097
21
255.2475037421
0
LINE
8
10000_FRONT
62
7
6
CONTINUOUS
10
211.6686872021
20
255.2475037421
11
211.7605794445
21
255.2475037421
0
LINE
8
10000_FRONT
62
7
6
CONTINUOUS
10
213.7362553612
20
255.2475037421
11
213.8281467930
21
255.2475037421
0
LINE
8
10000_FRONT
62
7
6
CONTINUOUS
10
218.1470651642
20
255.2475037421
11
218.2389574066
21
255.2475037421
0
LINE
8
11000_LEFT
62
7
6
CONTINUOUS
10
461.2878491929
20
255.2772334362
11
461.7878491929
21
255.2772334362
0
LINE
8
10000_FRONT
62
7
6
CONTINUOUS
10
216.5849035278
20
255.2934496606
11
217.4119304672
21
255.2934496606
0
LINE
8
10000_FRONT
62
7
6
CONTINUOUS
10
207.3497688309
20
255.3393955792
11
207.4416602627
21
255.3393955792
0
LINE
8
10000_FRONT
62
7
6
CONTINUOUS
10
218.2849035278
20
255.4312875176
11
218.1011206642
21
255.4312875176
0
LINE
8
10000_FRONT
62
7
6
CONTINUOUS
10
213.8740929142
20
255.4312875176
11
213.6903092400
21
255.4312875176
0
LINE
8
10000_FRONT
62
7
6
CONTINUOUS
10
211.8065255657
20
255.4312875176
11
211.6227418915
21
255.4312875176
0
LINE
8
10000_FRONT
62
7
6
CONTINUOUS
10
210.6578765885
20
255.4312875176
11
210.4281467930
21
255.4312875176
0
LINE
8
10000_FRONT
62
7
6
CONTINUOUS
10
206.1092280165
20
255.4312875176
11
205.8794982210
21
255.4312875176
0
LINE
8
10000_FRONT
62
7
6
CONTINUOUS
10
203.9497688309
20
255.4312875176
11
203.7200388328
21
255.4312875176
0
LINE
8
10000_FRONT
62
7
6
CONTINUOUS
10
202.8470659748
20
255.4312875176
11
202.6173361794
21
255.4312875176
0
LINE
8
10000_FRONT
62
7
6
CONTINUOUS
10
201.3308497504
20
255.4312875176
11
201.1011200056
21
255.4312875176
0
LINE
8
10000_FRONT
62
7
6
CONTINUOUS
10
217.4119304672
20
255.4772334362
11
216.3551745430
21
255.4772334362
0
LINE
8
10000_FRONT
62
7
6
CONTINUOUS
10
216.0335516945
20
255.4772334362
11
215.7578765885
21
255.4772334362
0
LINE
8
10000_FRONT
62
7
6
CONTINUOUS
10
214.7930112854
20
255.4772334362
11
214.5173361794
21
255.4772334362
0
LINE
8
10000_FRONT
62
7
6
CONTINUOUS
10
209.6930120960
20
255.4772334362
11
209.4173361794
21
255.4772334362
0
LINE
8
10000_FRONT
62
7
6
CONTINUOUS
10
208.4524716869
20
255.4772334362
11
208.1767957703
21
255.4772334362
0
LINE
8
10000_FRONT
62
7
6
CONTINUOUS
10
207.4876063839
20
255.5231793548
11
207.3497688309
21
255.5231793548
0
LINE
8
11000_LEFT
62
7
6
CONTINUOUS
10
458.9878491929
20
255.6772334362
11
460.4736356305
21
255.6772334362
0
LINE
8
11000_LEFT
62
7
6
CONTINUOUS
10
459.0020627552
20
256.0772334362
11
460.0736356305
21
256.0772334362
0
LINE
8
10000_FRONT
62
7
6
CONTINUOUS
10
200.3538227097
20
256.2272334362
11
205.4538227097
21
256.2272334362
0
LINE
8
10000_FRONT
62
7
6
CONTINUOUS
10
205.4538227097
20
261.3272334362
11
200.3538227097
21
261.3272334362
0
LINE
8
11000_LEFT
62
7
6
CONTINUOUS
10
347.6878491929
20
269.5772334362
11
358.0878491929
21
269.5772334362
0
LINE
8
11000_LEFT
62
7
6
CONTINUOUS
10
351.0878491929
20
271.5972334362
11
352.5878491929
21
271.5972334362
0
LINE
8
10000_FRONT
62
7
6
CONTINUOUS
10
205.6822011009
20
307.7204766537
11
205.9416605011
21
307.6339902187
0
LINE
8
10000_FRONT
62
7
6
CONTINUOUS
10
205.5092281357
20
306.2502064134
11
205.8551740662
21
306.0772334362
0
LINE
8
10000_FRONT
62
7
6
CONTINUOUS
10
206.8930118576
20
307.3745307232
11
207.0659849182
21
307.2880442883
0
LINE
8
10000_FRONT
62
7
6
CONTINUOUS
10
206.0281470314
20
308.0664225842
11
205.8551740662
21
308.1529090191
0
LINE
8
10000_FRONT
62
7
6
CONTINUOUS
10
221.1632816330
20
306.2502064134
11
221.5092273728
21
306.0772334362
0
LINE
8
10000_FRONT
62
7
6
CONTINUOUS
10
221.6822010056
20
306.4231793905
11
221.5092273728
21
306.5096658493
0
LINE
8
10000_FRONT
62
7
6
CONTINUOUS
10
222.8930118576
20
309.1042603756
11
222.5470661179
21
309.2772334362
0
LINE
8
10000_FRONT
62
7
6
CONTINUOUS
10
199.1313196271
20
325.3319438718
11
199.3592386264
21
325.1893149308
0
LINE
8
10000_FRONT
62
7
6
CONTINUOUS
10
236.3684740084
20
328.2453179418
11
236.2693195422
21
328.3212072446
0
LINE
8
10000_FRONT
62
7
6
CONTINUOUS
10
236.2914454661
20
317.7754366973
11
236.5038227097
21
317.6114149895
0
LINE
8
10000_FRONT
62
7
6
CONTINUOUS
10
238.5206106418
20
328.5879286700
11
238.3343366035
21
328.7528148972
0
LINE
8
10000_FRONT
62
7
6
CONTINUOUS
10
234.0675212492
20
373.3410632039
11
233.9893632502
21
373.4346802140
0
LINE
8
10000_FRONT
62
7
6
CONTINUOUS
10
235.2789603945
20
373.2942546988
11
235.3571183935
21
373.2006376887
0
LINE
8
10000_FRONT
62
7
6
CONTINUOUS
10
235.5134326026
20
373.3410632039
11
235.4352746036
21
373.4346802140
0
LINE
8
10000_FRONT
62
7
6
CONTINUOUS
10
218.2797253104
20
373.9963824059
11
218.3578826385
21
373.9027653957
0
LINE
8
10000_FRONT
62
7
6
CONTINUOUS
10
221.1324703593
20
372.4048930044
11
221.0543132548
21
372.4985100473
0
LINE
8
10000_FRONT
62
7
6
CONTINUOUS
10
222.1485167433
20
373.9495739008
11
221.9922020870
21
374.1368079210
0
LINE
8
10000_FRONT
62
7
6
CONTINUOUS
10
224.7277110320
20
372.4048930044
11
224.6495539274
21
372.4985100473
0
LINE
8
10000_FRONT
62
7
6
CONTINUOUS
10
225.7437569687
20
373.9495739008
11
225.5874427596
21
374.1368079210
0
LINE
8
10000_FRONT
62
7
6
CONTINUOUS
10
231.4883269606
20
372.3580844993
11
231.5664831707
21
372.2644674728
0
LINE
8
10000_FRONT
62
7
6
CONTINUOUS
10
231.7618772737
20
372.3580844993
11
231.6446411696
21
372.4985100473
0
LINE
8
10000_FRONT
62
7
6
CONTINUOUS
10
232.9733164190
20
372.3112759943
11
233.0905525230
21
372.1708504545
0
LINE
8
11000_LEFT
62
7
6
CONTINUOUS
10
367.8878491929
20
281.5617195836
11
367.8878491929
21
298.7327472888
0
LINE
8
11000_LEFT
62
7
6
CONTINUOUS
10
464.5878491929
20
328.8919394345
11
463.3686971486
21
327.1508098726
0
LINE
8
11000_LEFT
62
7
6
CONTINUOUS
10
457.7878491929
20
255.2772334362
11
458.2949559740
21
255.7843402174
0
LINE
8
11000_LEFT
62
7
6
CONTINUOUS
10
461.7878491929
20
255.2772334362
11
462.7878491929
21
256.2772334362
0
LINE
8
11000_LEFT
62
7
6
CONTINUOUS
10
458.7236700462
20
252.1000571875
11
458.5229611614
21
251.9324522923
0
LINE
8
10000_FRONT
62
7
6
CONTINUOUS
10
203.7200388328
20
255.4312875176
11
203.5362551585
21
255.3853414978
0
LINE
8
10000_FRONT
62
7
6
CONTINUOUS
10
201.1011200056
20
255.4312875176
11
200.9173362300
21
255.3853414978
0
LINE
8
11000_LEFT
62
7
6
CONTINUOUS
10
347.6878491929
20
275.0972334362
11
352.5878491929
21
275.0972334362
0
LINE
8
11000_LEFT
62
7
6
CONTINUOUS
10
358.0878491929
20
268.2772334362
11
350.7151828273
21
269.5772334362
0
LINE
8
10000_FRONT
62
7
6
CONTINUOUS
10
205.8551740662
20
306.0772334362
11
206.2011199967
21
305.9907469476
0
LINE
8
10000_FRONT
62
7
6
CONTINUOUS
10
206.3740929619
20
306.3366928841
11
206.0281470314
21
306.4231793905
0
LINE
8
10000_FRONT
62
7
6
CONTINUOUS
10
207.0659849182
20
309.2772334362
11
206.7200389877
21
309.3637198711
0
LINE
8
10000_FRONT
62
7
6
CONTINUOUS
10
221.5092273728
20
306.0772334362
11
221.8551746384
21
305.9907469476
0
LINE
8
10000_FRONT
62
7
6
CONTINUOUS
10
222.5470661179
20
309.2772334362
11
222.2011203781
21
309.3637198711
0
LINE
8
10000_FRONT
62
7
6
CONTINUOUS
10
205.9416605011
20
307.6339902187
11
206.8930118576
21
307.3745307232
0
LINE
8
10000_FRONT
62
7
6
CONTINUOUS
10
207.2389577881
20
307.7204766537
11
206.0281470314
21
308.0664225842
0
LINE
8
10000_FRONT
62
7
6
CONTINUOUS
10
199.3592386264
20
325.1893149308
11
199.6281283756
21
325.1035121261
0
LINE
8
10000_FRONT
62
7
6
CONTINUOUS
10
206.6335523621
20
309.0177739407
11
206.8930118576
21
308.9312875057
0
LINE
8
10000_FRONT
62
7
6
CONTINUOUS
10
221.9416599289
20
306.3366928841
11
221.6822010056
21
306.4231793905
0
LINE
8
10000_FRONT
62
7
6
CONTINUOUS
10
222.1146335617
20
309.0177739407
11
222.3740924851
21
308.9312875057
0
LINE
8
10000_FRONT
62
7
6
CONTINUOUS
10
201.5421960967
20
316.7506387514
11
201.4837965630
21
316.7720750921
0
LINE
8
10000_FRONT
62
7
6
CONTINUOUS
10
201.3787916797
20
328.8483741584
11
201.4467092261
21
328.8165732535
0
LINE
8
10000_FRONT
62
7
6
CONTINUOUS
10
238.3343366035
20
328.7528148972
11
238.1182219570
21
328.8587294374
0
LINE
8
10000_FRONT
62
7
6
CONTINUOUS
10
236.3832005781
20
330.2484866991
11
236.5038227097
21
330.1665506887
0
LINE
8
10000_FRONT
62
7
6
CONTINUOUS
10
215.8177671258
20
372.4048930044
11
215.7005310218
21
372.4985100473
0
LINE
8
10000_FRONT
62
7
6
CONTINUOUS
10
216.4821050859
20
373.9495739008
11
216.5993411899
21
373.8559568907
0
LINE
8
10000_FRONT
62
7
6
CONTINUOUS
10
220.9370771508
20
372.3112759943
11
221.0543132548
21
372.2176589678
0
LINE
8
10000_FRONT
62
7
6
CONTINUOUS
10
221.8358869835
20
373.0602121736
11
221.9531230875
21
372.9665951634
0
LINE
8
10000_FRONT
62
7
6
CONTINUOUS
10
221.7968084312
20
373.9963824059
11
221.9140445353
21
373.9027653957
0
LINE
8
10000_FRONT
62
7
6
CONTINUOUS
10
224.5323178234
20
372.3112759943
11
224.6495539274
21
372.2176589678
0
LINE
8
10000_FRONT
62
7
6
CONTINUOUS
10
225.4311276561
20
373.0602121736
11
225.5483637602
21
372.9665951634
0
LINE
8
10000_FRONT
62
7
6
CONTINUOUS
10
225.3920486566
20
373.9963824059
11
225.5092847607
21
373.9027653957
0
LINE
8
10000_FRONT
62
7
6
CONTINUOUS
10
218.4751187426
20
374.0899994160
11
218.3188040863
21
374.2304249311
0
LINE
8
11000_LEFT
62
7
6
CONTINUOUS
10
359.3878491929
20
266.9772334362
11
358.0878491929
21
268.2772334362
0
LINE
8
90000_FRAME
62
7
6
CONTINUOUS
10
482.9491908034
20
21.5500136921
11
484.6366013279
21
18.6029868605
0
LINE
8
90000_FRAME
62
7
6
CONTINUOUS
10
484.0662090379
20
16.7967446088
11
482.3550321680
21
19.8388368221
0
LINE
8
90000_FRAME
62
7
6
CONTINUOUS
10
472.3969334385
20
16.7492119180
11
471.0660180952
21
19.8388368221
0
LINE
8
11000_LEFT
62
7
6
CONTINUOUS
10
423.6878491929
20
296.4772334362
11
422.8878491929
21
296.4772334362
0
LINE
8
11000_LEFT
62
7
6
CONTINUOUS
10
423.6878491929
20
297.2772334362
11
422.8878491929
21
297.2772334362
0
LINE
8
11000_LEFT
62
7
6
CONTINUOUS
10
423.6878491929
20
297.7772334362
11
422.8878491929
21
297.7772334362
0
LINE
8
11000_LEFT
62
7
6
CONTINUOUS
10
461.6878491929
20
302.2772334362
11
462.7878491929
21
302.2772334362
0
LINE
8
11000_LEFT
62
7
6
CONTINUOUS
10
461.8878491929
20
302.6772334362
11
462.7878491929
21
302.6772334362
0
LINE
8
11000_LEFT
62
7
6
CONTINUOUS
10
347.6878491929
20
305.1972334362
11
352.5878491929
21
305.1972334362
0
LINE
8
10000_FRONT
62
7
6
CONTINUOUS
10
206.2011199967
20
305.9907469476
11
206.6335523621
21
305.9907469476
0
LINE
8
10000_FRONT
62
7
6
CONTINUOUS
10
221.8551746384
20
305.9907469476
11
222.1146335617
21
305.9907469476
0
LINE
8
10000_FRONT
62
7
6
CONTINUOUS
10
208.3632820145
20
306.0772334362
11
208.7957145706
21
306.0772334362
0
LINE
8
10000_FRONT
62
7
6
CONTINUOUS
10
209.5740928665
20
306.0772334362
11
210.0065254227
21
306.0772334362
0
LINE
8
10000_FRONT
62
7
6
CONTINUOUS
10
210.9578765885
20
306.0772334362
11
211.4767955795
21
306.0772334362
0
LINE
8
10000_FRONT
62
7
6
CONTINUOUS
10
212.4281467453
20
306.0772334362
11
212.8605793015
21
306.0772334362
0
LINE
8
10000_FRONT
62
7
6
CONTINUOUS
10
213.3794986740
20
306.0772334362
11
213.8119304672
21
306.0772334362
0
LINE
8
10000_FRONT
62
7
6
CONTINUOUS
10
215.9740932480
20
306.0772334362
11
216.4065250412
21
306.0772334362
0
LINE
8
10000_FRONT
62
7
6
CONTINUOUS
10
217.6173358933
20
306.0772334362
11
218.0497684494
21
306.0772334362
0
LINE
8
10000_FRONT
62
7
6
CONTINUOUS
10
219.6065250412
20
306.0772334362
11
220.0389575974
21
306.0772334362
0
LINE
8
10000_FRONT
62
7
6
CONTINUOUS
10
224.9686878220
20
306.0772334362
11
225.4011203781
21
306.0772334362
0
LINE
8
10000_FRONT
62
7
6
CONTINUOUS
10
226.9578769699
20
306.0772334362
11
227.5632816330
21
306.0772334362
0
LINE
8
10000_FRONT
62
7
6
CONTINUOUS
10
228.3416599289
20
306.0772334362
11
230.3308490769
21
306.0772334362
0
LINE
8
10000_FRONT
62
7
6
CONTINUOUS
10
231.7146320358
20
306.0772334362
11
232.1470661179
21
306.0772334362
0
LINE
8
10000_FRONT
62
7
6
CONTINUOUS
10
222.1146335617
20
306.3366928841
11
221.9416599289
21
306.3366928841
0
LINE
8
10000_FRONT
62
7
6
CONTINUOUS
10
206.5470659271
20
306.3366928841
11
206.3740929619
21
306.3366928841
0
LINE
8
10000_FRONT
62
7
6
CONTINUOUS
10
230.3308490769
20
306.4231793905
11
228.7740924851
21
306.4231793905
0
LINE
8
10000_FRONT
62
7
6
CONTINUOUS
10
223.1524707810
20
306.9420982624
11
222.7200382248
21
306.9420982624
0
LINE
8
10000_FRONT
62
7
6
CONTINUOUS
10
214.1578769699
20
306.9420982624
11
215.6281467453
21
306.9420982624
0
LINE
8
10000_FRONT
62
7
6
CONTINUOUS
10
205.6822011009
20
307.0285847927
11
205.2497686640
21
307.0285847927
0
LINE
8
10000_FRONT
62
7
6
CONTINUOUS
10
215.4551738754
20
307.2880442883
11
214.3308498398
21
307.2880442883
0
LINE
8
10000_FRONT
62
7
6
CONTINUOUS
10
228.7740924851
20
307.5475036884
11
230.2443637863
21
307.5475036884
0
LINE
8
10000_FRONT
62
7
6
CONTINUOUS
10
230.2443637863
20
307.8934497143
11
228.7740924851
21
307.8934497143
0
LINE
8
10000_FRONT
62
7
6
CONTINUOUS
10
222.7200382248
20
308.4123685146
11
223.1524707810
21
308.4123685146
0
LINE
8
10000_FRONT
62
7
6
CONTINUOUS
10
207.1524713532
20
308.4988551403
11
207.5849037186
21
308.4988551403
0
LINE
8
10000_FRONT
62
7
6
CONTINUOUS
10
216.5794986740
20
308.8448010708
11
217.6173358933
21
308.8448010708
0
LINE
8
10000_FRONT
62
7
6
CONTINUOUS
10
218.0497684494
20
308.8448010708
11
219.0876071945
21
308.8448010708
0
LINE
8
10000_FRONT
62
7
6
CONTINUOUS
10
230.6767963425
20
308.8448010708
11
231.7146320358
21
308.8448010708
0
LINE
8
10000_FRONT
62
7
6
CONTINUOUS
10
232.1470661179
20
308.8448010708
11
233.1849048630
21
308.8448010708
0
LINE
8
10000_FRONT
62
7
6
CONTINUOUS
10
228.7740924851
20
308.9312875057
11
230.3308490769
21
308.9312875057
0
LINE
8
10000_FRONT
62
7
6
CONTINUOUS
10
206.3740929619
20
309.0177739407
11
206.6335523621
21
309.0177739407
0
LINE
8
10000_FRONT
62
7
6
CONTINUOUS
10
221.9416599289
20
309.0177739407
11
222.1146335617
21
309.0177739407
0
LINE
8
10000_FRONT
62
7
6
CONTINUOUS
10
233.1849048630
20
309.2772334362
11
230.6767963425
21
309.2772334362
0
LINE
8
10000_FRONT
62
7
6
CONTINUOUS
10
230.3308490769
20
309.2772334362
11
228.3416599289
21
309.2772334362
0
LINE
8
10000_FRONT
62
7
6
CONTINUOUS
10
227.5632816330
20
309.2772334362
11
227.1308490769
21
309.2772334362
0
LINE
8
10000_FRONT
62
7
6
CONTINUOUS
10
225.5740924851
20
309.2772334362
11
224.9686878220
21
309.2772334362
0
LINE
8
10000_FRONT
62
7
6
CONTINUOUS
10
220.0389575974
20
309.2772334362
11
219.6065250412
21
309.2772334362
0
LINE
8
10000_FRONT
62
7
6
CONTINUOUS
10
219.0876071945
20
309.2772334362
11
216.5794986740
21
309.2772334362
0
LINE
8
10000_FRONT
62
7
6
CONTINUOUS
10
215.1957149521
20
309.2772334362
11
214.6767955795
21
309.2772334362
0
LINE
8
10000_FRONT
62
7
6
CONTINUOUS
10
212.8605793015
20
309.2772334362
11
212.0822010056
21
309.2772334362
0
LINE
8
10000_FRONT
62
7
6
CONTINUOUS
10
210.3524715439
20
309.2772334362
11
209.5740928665
21
309.2772334362
0
LINE
8
10000_FRONT
62
7
6
CONTINUOUS
10
208.7957145706
20
309.2772334362
11
208.3632820145
21
309.2772334362
0
LINE
8
10000_FRONT
62
7
6
CONTINUOUS
10
222.2011203781
20
309.3637198711
11
221.9416599289
21
309.3637198711
0
LINE
8
10000_FRONT
62
7
6
CONTINUOUS
10
206.7200389877
20
309.3637198711
11
206.2876065270
21
309.3637198711
0
LINE
8
11000_LEFT
62
7
6
CONTINUOUS
10
347.6878491929
20
311.2772334362
11
353.0878491929
21
311.2772334362
0
LINE
8
11000_LEFT
62
7
6
CONTINUOUS
10
360.0878491929
20
302.7410684598
11
355.7878491929
21
303.1172697129
0
LINE
8
11000_LEFT
62
7
6
CONTINUOUS
10
353.5877234576
20
305.3173954482
11
352.5878491929
21
305.4048731113
0
LINE
8
10000_FRONT
62
7
6
CONTINUOUS
10
199.6281283756
20
325.1035121261
11
199.9038227097
21
325.0763758322
0
LINE
8
10000_FRONT
62
7
6
CONTINUOUS
10
201.6038227097
20
316.7432588400
11
201.5421960967
21
316.7506387514
0
LINE
8
11000_LEFT
62
7
6
CONTINUOUS
10
366.0348968056
20
301.1475618546
11
360.0878491929
21
302.7410684598
0
LINE
8
10000_FRONT
62
7
6
CONTINUOUS
10
201.3038227097
20
328.8695944438
11
201.3787916797
21
328.8483741584
0
LINE
8
10000_FRONT
62
7
6
CONTINUOUS
10
236.2701476647
20
330.2869609232
11
236.3832005781
21
330.2484866991
0
LINE
8
10000_FRONT
62
7
6
CONTINUOUS
10
236.5038227097
20
328.1965310925
11
236.3684740084
21
328.2453179418
0
LINE
8
10000_FRONT
62
7
6
CONTINUOUS
10
215.6223736098
20
372.2176589678
11
215.7786884338
21
372.1240419454
0
LINE
8
10000_FRONT
62
7
6
CONTINUOUS
10
216.6774985181
20
374.1368079210
11
216.5211837500
21
374.2304249311
0
LINE
8
10000_FRONT
62
7
6
CONTINUOUS
10
221.0543132548
20
372.2176589678
11
221.2106279111
21
372.1240419454
0
LINE
8
10000_FRONT
62
7
6
CONTINUOUS
10
221.2106279111
20
372.3580844993
11
221.1324703593
21
372.4048930044
0
LINE
8
10000_FRONT
62
7
6
CONTINUOUS
10
224.6495539274
20
372.2176589678
11
224.8058681365
21
372.1240419454
0
LINE
8
10000_FRONT
62
7
6
CONTINUOUS
10
224.8058681365
20
372.3580844993
11
224.7277110320
21
372.4048930044
0
LINE
8
10000_FRONT
62
7
6
CONTINUOUS
10
221.9922020870
20
374.1368079210
11
221.8358869835
21
374.2304249311
0
LINE
8
10000_FRONT
62
7
6
CONTINUOUS
10
225.5874427596
20
374.1368079210
11
225.4311276561
21
374.2304249311
0
LINE
8
10000_FRONT
62
7
6
CONTINUOUS
10
231.8400352726
20
372.3112759943
11
231.7618772737
21
372.3580844993
0
LINE
8
10000_FRONT
62
7
6
CONTINUOUS
10
233.0905525230
20
372.1708504545
11
233.1687105220
21
372.1240419454
0
LINE
8
10000_FRONT
62
7
6
CONTINUOUS
10
232.4652938978
20
373.3878717090
11
232.2698997948
21
373.5282972241
0
LINE
8
10000_FRONT
62
7
6
CONTINUOUS
10
231.5664831707
20
372.2644674728
11
231.6837192747
21
372.1708504545
0
LINE
8
10000_FRONT
62
7
6
CONTINUOUS
10
232.2308216898
20
373.3410632039
11
232.3480577938
21
373.2474461938
0
LINE
8
10000_FRONT
62
7
6
CONTINUOUS
10
233.9893632502
20
373.4346802140
11
233.8721271462
21
373.5282972241
0
LINE
8
10000_FRONT
62
7
6
CONTINUOUS
10
235.4352746036
20
373.4346802140
11
235.3180384996
21
373.5282972241
0
LINE
8
90000_FRAME
62
7
6
CONTINUOUS
10
471.8265411485
20
21.5500136921
11
473.0623911102
21
18.6505195513
0
LINE
8
91000_TIP
62
7
6
CONTINUOUS
10
420.3560840630
20
22.0989002427
11
420.3560840630
21
17.0989003448
0
LINE
8
11000_LEFT
62
7
6
CONTINUOUS
10
422.8878491929
20
253.8272334362
11
422.8878491929
21
374.7272334362
0
LINE
8
11000_LEFT
62
7
6
CONTINUOUS
10
423.6878491929
20
251.7772334362
11
423.6878491929
21
376.7772334362
0
LINE
8
11000_LEFT
62
7
6
CONTINUOUS
10
458.8705320598
20
252.3072643346
11
458.7236700462
21
252.1000571875
0
LINE
8
10000_FRONT
62
7
6
CONTINUOUS
10
206.6335523621
20
305.9907469476
11
206.9794982926
21
306.0772334362
0
LINE
8
10000_FRONT
62
7
6
CONTINUOUS
10
206.8930118576
20
306.4231793905
11
206.5470659271
21
306.3366928841
0
LINE
8
10000_FRONT
62
7
6
CONTINUOUS
10
206.2876065270
20
309.3637198711
11
205.9416605011
21
309.2772334362
0
LINE
8
10000_FRONT
62
7
6
CONTINUOUS
10
222.1146335617
20
305.9907469476
11
222.5470661179
21
306.0772334362
0
LINE
8
10000_FRONT
62
7
6
CONTINUOUS
10
221.9416599289
20
309.3637198711
11
221.5092273728
21
309.2772334362
0
LINE
8
10000_FRONT
62
7
6
CONTINUOUS
10
236.2653585030
20
316.7506168027
11
236.2038227097
21
316.7432588400
0
LINE
8
10000_FRONT
62
7
6
CONTINUOUS
10
237.9038227097
20
325.0763758322
11
238.1795170438
21
325.1035121261
0
LINE
8
10000_FRONT
62
7
6
CONTINUOUS
10
236.1612936372
20
330.2767500913
11
236.2701476647
21
330.2869609232
0
LINE
8
10000_FRONT
62
7
6
CONTINUOUS
10
238.7698481135
20
316.7432588400
11
236.2038227097
21
316.7432588400
0
LINE
8
10000_FRONT
62
7
6
CONTINUOUS
10
201.6038227097
20
316.7432588400
11
199.0377973059
21
316.7432334362
0
LINE
8
10000_FRONT
62
7
6
CONTINUOUS
10
236.2038227097
20
316.8772334362
11
201.6038227097
21
316.8772334362
0
LINE
8
10000_FRONT
62
7
6
CONTINUOUS
10
201.3038227097
20
317.4772334362
11
236.5038227097
21
317.4772334362
0
LINE
8
10000_FRONT
62
7
6
CONTINUOUS
10
201.3038227097
20
317.6112080324
11
199.0377973059
21
317.6112080324
0
LINE
8
10000_FRONT
62
7
6
CONTINUOUS
10
236.5038227097
20
317.6112080324
11
238.7698481135
21
317.6112080324
0
LINE
8
10000_FRONT
62
7
6
CONTINUOUS
10
212.2538227097
20
322.8272334362
11
209.1038227097
21
322.8272334362
0
LINE
8
10000_FRONT
62
7
6
CONTINUOUS
10
209.1038227097
20
323.0272334362
11
212.1038227097
21
323.0272334362
0
LINE
8
10000_FRONT
62
7
6
CONTINUOUS
10
199.9038227097
20
325.0763758322
11
201.3038227097
21
325.0763758322
0
LINE
8
10000_FRONT
62
7
6
CONTINUOUS
10
236.5038227097
20
325.0763758322
11
237.9038227097
21
325.0763758322
0
LINE
8
11000_LEFT
62
7
6
CONTINUOUS
10
349.6878491929
20
327.2772334362
11
353.0878491929
21
327.2772334362
0
LINE
8
11000_LEFT
62
7
6
CONTINUOUS
10
423.6878491929
20
327.7772334362
11
422.8878491929
21
327.7772334362
0
LINE
8
11000_LEFT
62
7
6
CONTINUOUS
10
422.8878491929
20
328.2772334362
11
423.6878491929
21
328.2772334362
0
LINE
8
10000_FRONT
62
7
6
CONTINUOUS
10
199.9038227097
20
328.8919394345
11
201.3038227097
21
328.8919394345
0
LINE
8
10000_FRONT
62
7
6
CONTINUOUS
10
236.5038227097
20
328.8919394345
11
237.9038227097
21
328.8919394345
0
LINE
8
11000_LEFT
62
7
6
CONTINUOUS
10
422.8878491929
20
329.0772334362
11
423.6878491929
21
329.0772334362
0
LINE
8
10000_FRONT
62
7
6
CONTINUOUS
10
238.1038227097
20
335.0733218264
11
236.5038227097
21
335.0733218264
0
LINE
8
10000_FRONT
62
7
6
CONTINUOUS
10
199.7038227097
20
335.0733218264
11
201.3038227097
21
335.0733218264
0
LINE
8
10000_FRONT
62
7
6
CONTINUOUS
10
238.4038227097
20
335.4772334362
11
238.1038227097
21
335.4772334362
0
LINE
8
10000_FRONT
62
7
6
CONTINUOUS
10
199.4038227097
20
335.4772334362
11
199.7038227097
21
335.4772334362
0
LINE
8
11000_LEFT
62
7
6
CONTINUOUS
10
464.5878491929
20
336.1772334362
11
461.6878491929
21
336.1772334362
0
LINE
8
10000_FRONT
62
7
6
CONTINUOUS
10
238.9038227097
20
336.1772334362
11
236.0038227097
21
336.1772334362
0
LINE
8
10000_FRONT
62
7
6
CONTINUOUS
10
198.9038227097
20
336.1772334362
11
201.8038227097
21
336.1772334362
0
LINE
8
10000_FRONT
62
7
6
CONTINUOUS
10
201.6463517821
20
330.2767500913
11
201.5374977547
21
330.2869609232
0
LINE
8
10000_FRONT
62
7
6
CONTINUOUS
10
238.1182219570
20
328.8587294374
11
237.9038227097
21
328.8919394345
0
LINE
8
11000_LEFT
62
7
6
CONTINUOUS
10
347.6878491929
20
310.1972334362
11
352.5878491929
21
309.1472334362
0
LINE
8
10000_FRONT
62
7
6
CONTINUOUS
10
218.1624892064
20
374.0431909109
11
218.2797253104
21
373.9963824059
0
LINE
8
10000_FRONT
62
7
6
CONTINUOUS
10
231.6837192747
20
372.1708504545
11
231.8009553787
21
372.1240419454
0
LINE
8
10000_FRONT
62
7
6
CONTINUOUS
10
222.1094381911
20
373.1070206786
11
221.9140445353
21
373.2006376887
0
LINE
8
10000_FRONT
62
7
6
CONTINUOUS
10
225.7046788637
20
373.1070206786
11
225.5092847607
21
373.2006376887
0
LINE
8
10000_FRONT
62
7
6
CONTINUOUS
10
233.3250247311
20
372.2644674728
11
233.1687105220
21
372.3580844993
0
LINE
8
10000_FRONT
62
7
6
CONTINUOUS
10
233.7939691472
20
373.3410632039
11
233.8721271462
21
373.2942546988
0
LINE
8
10000_FRONT
62
7
6
CONTINUOUS
10
235.2008023955
20
373.3410632039
11
235.2789603945
21
373.2942546988
0
LINE
8
11000_LEFT
62
7
6
CONTINUOUS
10
355.7878491929
20
303.1172697129
11
353.5877234576
21
305.3173954482
0
LINE
8
11000_LEFT
62
7
6
CONTINUOUS
10
423.6878491929
20
253.0272334362
11
422.8878491929
21
253.8272334362
0
LINE
8
91000_TIP
62
7
6
CONTINUOUS
10
430.3560838587
20
24.5989001916
11
430.3560838587
21
14.5989003958
0
LINE
8
91000_TIP
62
7
6
CENTER
10
436.8560837260
20
13.8774190873
11
436.8560837260
21
25.1608050873
0
LINE
8
11000_LEFT
62
7
6
CONTINUOUS
10
458.9603702548
20
252.5444185226
11
458.8705320598
21
252.3072643346
0
LINE
8
10000_FRONT
62
7
6
CONTINUOUS
10
236.4284283642
20
328.8482155378
11
236.5038227097
21
328.8695944438
0
LINE
8
10000_FRONT
62
7
6
CONTINUOUS
10
199.9038227097
20
328.8919394345
11
199.6894234624
21
328.8587294374
0
LINE
8
10000_FRONT
62
7
6
CONTINUOUS
10
212.1038227097
20
337.4272334362
11
209.1038227097
21
337.4272334362
0
LINE
8
10000_FRONT
62
7
6
CONTINUOUS
10
209.1038227097
20
337.5272334362
11
212.2538227097
21
337.5272334362
0
LINE
8
10000_FRONT
62
7
6
CONTINUOUS
10
200.1538227097
20
340.6772334362
11
202.7038227097
21
340.6772334362
0
LINE
8
10000_FRONT
62
7
6
CONTINUOUS
10
202.6538227097
20
340.8772334362
11
200.1538227097
21
340.8772334362
0
LINE
8
10000_FRONT
62
7
6
CONTINUOUS
10
200.1538227097
20
341.3772334362
11
202.6538227097
21
341.3772334362
0
LINE
8
10000_FRONT
62
7
6
CONTINUOUS
10
200.1538227097
20
344.3772334362
11
202.6538227097
21
344.3772334362
0
LINE
8
10000_FRONT
62
7
6
CONTINUOUS
10
200.1538227097
20
346.5772334362
11
202.6538227097
21
346.5772334362
0
LINE
8
10000_FRONT
62
7
6
CONTINUOUS
10
200.1538227097
20
349.5772334362
11
202.6538227097
21
349.5772334362
0
LINE
8
10000_FRONT
62
7
6
CONTINUOUS
10
200.1538227097
20
351.7772334362
11
202.6538227097
21
351.7772334362
0
LINE
8
11000_LEFT
62
7
6
CONTINUOUS
10
349.6878491929
20
353.6772334362
11
353.2588328738
21
353.6772334362
0
LINE
8
10000_FRONT
62
7
6
CONTINUOUS
10
200.1538227097
20
354.7772334362
11
202.6538227097
21
354.7772334362
0
LINE
8
10000_FRONT
62
7
6
CONTINUOUS
10
200.1538227097
20
356.9772334362
11
202.6538227097
21
356.9772334362
0
LINE
8
10000_FRONT
62
7
6
CONTINUOUS
10
221.6014147755
20
373.1070206786
11
221.8358869835
21
373.0602121736
0
LINE
8
10000_FRONT
62
7
6
CONTINUOUS
10
225.1966554481
20
373.1070206786
11
225.4311276561
21
373.0602121736
0
LINE
8
10000_FRONT
62
7
6
CONTINUOUS
10
231.8009553787
20
372.1240419454
11
232.0354275868
21
372.0772334362
0
LINE
8
10000_FRONT
62
7
6
CONTINUOUS
10
231.9963494817
20
373.3878717090
11
232.2308216898
21
373.3410632039
0
LINE
8
10000_FRONT
62
7
6
CONTINUOUS
10
232.2698997948
20
373.5282972241
11
232.0354275868
21
373.5751057292
0
LINE
8
10000_FRONT
62
7
6
CONTINUOUS
10
215.7786884338
20
372.1240419454
11
215.9740819498
21
372.0772334362
0
LINE
8
10000_FRONT
62
7
6
CONTINUOUS
10
221.4060215669
20
372.3112759943
11
221.2106279111
21
372.3580844993
0
LINE
8
10000_FRONT
62
7
6
CONTINUOUS
10
216.5211837500
20
374.2304249311
11
216.3257902060
21
374.2772334362
0
LINE
8
10000_FRONT
62
7
6
CONTINUOUS
10
225.0012622395
20
372.3112759943
11
224.8058681365
21
372.3580844993
0
LINE
8
10000_FRONT
62
7
6
CONTINUOUS
10
218.3188040863
20
374.2304249311
11
218.1234104305
21
374.2772334362
0
LINE
8
10000_FRONT
62
7
6
CONTINUOUS
10
221.6014147755
20
374.0431909109
11
221.7968084312
21
373.9963824059
0
LINE
8
10000_FRONT
62
7
6
CONTINUOUS
10
225.1966554481
20
374.0431909109
11
225.3920486566
21
373.9963824059
0
LINE
8
10000_FRONT
62
7
6
CONTINUOUS
10
215.9740819498
20
372.3580844993
11
215.8177671258
21
372.4048930044
0
LINE
8
10000_FRONT
62
7
6
CONTINUOUS
10
221.2106279111
20
372.1240419454
11
221.3669425674
21
372.0772334362
0
LINE
8
10000_FRONT
62
7
6
CONTINUOUS
10
216.3257902060
20
373.9963824059
11
216.4821050859
21
373.9495739008
0
LINE
8
10000_FRONT
62
7
6
CONTINUOUS
10
224.8058681365
20
372.1240419454
11
224.9621832400
21
372.0772334362
0
LINE
8
10000_FRONT
62
7
6
CONTINUOUS
10
231.9963494817
20
372.2644674728
11
231.8400352726
21
372.3112759943
0
LINE
8
10000_FRONT
62
7
6
CONTINUOUS
10
233.1687105220
20
372.1240419454
11
233.3250247311
21
372.0772334362
0
LINE
8
10000_FRONT
62
7
6
CONTINUOUS
10
233.6376549381
20
373.3878717090
11
233.7939691472
21
373.3410632039
0
LINE
8
10000_FRONT
62
7
6
CONTINUOUS
10
235.0444881865
20
373.3878717090
11
235.2008023955
21
373.3410632039
0
LINE
8
10000_FRONT
62
7
6
CONTINUOUS
10
235.3180384996
20
373.5282972241
11
235.2008023955
21
373.5751057292
0
LINE
8
90000_FRAME
62
7
6
CONTINUOUS
10
449.0000000000
20
10.0000000000
11
449.0000000000
21
28.0000000000
0
LINE
8
11000_LEFT
62
7
6
CONTINUOUS
10
457.1878491929
20
331.6772334362
11
457.1878491929
21
306.7772334362
0
LINE
8
11000_LEFT
62
7
6
CONTINUOUS
10
457.7878491929
20
251.7772334362
11
457.7878491929
21
255.2772334362
0
LINE
8
11000_LEFT
62
7
6
CONTINUOUS
10
457.8878491929
20
331.4772334362
11
457.8878491929
21
306.6772334362
0
LINE
8
11000_LEFT
62
7
6
CONTINUOUS
10
457.9878491929
20
251.7772334362
11
457.9878491929
21
254.6772334362
0
LINE
8
90000_FRAME
62
7
6
CONTINUOUS
10
458.8025838603
20
16.8918099905
11
458.8025838603
21
17.8424638071
0
LINE
8
11000_LEFT
62
7
6
CONTINUOUS
10
458.9878491929
20
252.7772334362
11
458.9878491929
21
255.6772334362
0
LINE
8
90000_FRAME
62
7
6
CONTINUOUS
10
462.1298722186
20
20.5518271846
11
462.1298722186
21
21.5024810013
0
LINE
8
11000_LEFT
62
7
6
CONTINUOUS
10
462.7878491929
20
302.6772334362
11
462.7878491929
21
255.8772334362
0
LINE
8
90000_FRAME
62
7
6
CONTINUOUS
10
463.2231241078
20
21.5500136921
11
463.2231241078
21
16.7967446088
0
LINE
8
11000_LEFT
62
7
6
CONTINUOUS
10
464.0878491929
20
316.7432334362
11
464.0878491929
21
317.6112080324
0
LINE
8
11000_LEFT
62
7
6
CONTINUOUS
10
464.5878491929
20
315.8772080324
11
464.5878491929
21
252.7772334362
0
LINE
8
11000_LEFT
62
7
6
CONTINUOUS
10
464.5878491929
20
318.4772334362
11
464.5878491929
21
375.7772334362
0
LINE
8
90000_FRAME
62
7
6
CONTINUOUS
10
464.6491048328
20
21.5500136921
11
464.6491048328
21
16.7967446088
0
LINE
8
11000_LEFT
62
7
6
CONTINUOUS
10
458.9878491929
20
252.7772334362
11
458.9603702548
21
252.5444185226
0
LINE
8
10000_FRONT
62
7
6
CONTINUOUS
10
202.6538227097
20
358.5772334362
11
202.7038227097
21
358.5772334362
0
LINE
8
11000_LEFT
62
7
6
CONTINUOUS
10
356.2610542736
20
358.5772334362
11
359.6878491929
21
358.5772334362
0
LINE
8
10000_FRONT
62
7
6
CONTINUOUS
10
200.1538227097
20
359.9772334362
11
202.6538227097
21
359.9772334362
0
LINE
8
10000_FRONT
62
7
6
CONTINUOUS
10
200.1538227097
20
362.1772334362
11
202.6538227097
21
362.1772334362
0
LINE
8
10000_FRONT
62
7
6
CONTINUOUS
10
200.1538227097
20
365.1772334362
11
202.6538227097
21
365.1772334362
0
LINE
8
10000_FRONT
62
7
6
CONTINUOUS
10
200.1538227097
20
367.3772334362
11
202.6538227097
21
367.3772334362
0
LINE
8
10000_FRONT
62
7
6
CONTINUOUS
10
200.1538227097
20
370.3772334362
11
202.6538227097
21
370.3772334362
0
LINE
8
10000_FRONT
62
7
6
CONTINUOUS
10
202.6538227097
20
370.8772334362
11
200.1538227097
21
370.8772334362
0
LINE
8
10000_FRONT
62
7
6
CONTINUOUS
10
202.7038227097
20
371.0772334362
11
200.1538227097
21
371.0772334362
0
LINE
8
11000_LEFT
62
7
6
CONTINUOUS
10
355.8378491929
20
371.7772334362
11
353.5878491929
21
371.7772334362
0
LINE
8
10000_FRONT
62
7
6
CONTINUOUS
10
215.9740819498
20
372.0772334362
11
216.3257902060
21
372.0772334362
0
LINE
8
10000_FRONT
62
7
6
CONTINUOUS
10
217.1855217101
20
372.0772334362
11
217.4199938063
21
372.0772334362
0
LINE
8
10000_FRONT
62
7
6
CONTINUOUS
10
221.3669425674
20
372.0772334362
11
221.6795723272
21
372.0772334362
0
LINE
8
10000_FRONT
62
7
6
CONTINUOUS
10
223.4771928871
20
372.0772334362
11
223.7116650952
21
372.0772334362
0
LINE
8
10000_FRONT
62
7
6
CONTINUOUS
10
224.9621832400
20
372.0772334362
11
225.2748125526
21
372.0772334362
0
LINE
8
10000_FRONT
62
7
6
CONTINUOUS
10
227.2287482160
20
372.0772334362
11
227.4632204241
21
372.0772334362
0
LINE
8
10000_FRONT
62
7
6
CONTINUOUS
10
229.6516274012
20
372.0772334362
11
231.0584606495
21
372.0772334362
0
LINE
8
10000_FRONT
62
7
6
CONTINUOUS
10
233.3250247311
20
372.0772334362
11
233.5594969391
21
372.0772334362
0
LINE
8
10000_FRONT
62
7
6
CONTINUOUS
10
233.9893632502
20
372.0772334362
11
234.1847573532
21
372.0772334362
0
LINE
8
10000_FRONT
62
7
6
CONTINUOUS
10
234.4973857714
20
372.0772334362
11
234.6927798744
21
372.0772334362
0
LINE
8
10000_FRONT
62
7
6
CONTINUOUS
10
235.3961964986
20
372.0772334362
11
235.5915906016
21
372.0772334362
0
LINE
8
10000_FRONT
62
7
6
CONTINUOUS
10
233.5594969391
20
372.2644674728
11
233.3250247311
21
372.2644674728
0
LINE
8
10000_FRONT
62
7
6
CONTINUOUS
10
225.2357344476
20
372.3112759943
11
225.0012622395
21
372.3112759943
0
LINE
8
10000_FRONT
62
7
6
CONTINUOUS
10
221.6404937749
20
372.3112759943
11
221.4060215669
21
372.3112759943
0
LINE
8
10000_FRONT
62
7
6
CONTINUOUS
10
231.0584606495
20
372.3580844993
11
229.8860996092
21
372.3580844993
0
LINE
8
10000_FRONT
62
7
6
CONTINUOUS
10
216.3257902060
20
372.3580844993
11
215.9740819498
21
372.3580844993
0
LINE
8
10000_FRONT
62
7
6
CONTINUOUS
10
232.6216081069
20
372.5453185523
11
232.4262157928
21
372.5453185523
0
LINE
8
10000_FRONT
62
7
6
CONTINUOUS
10
224.6104749279
20
372.5921270574
11
224.4150817194
21
372.5921270574
0
LINE
8
10000_FRONT
62
7
6
CONTINUOUS
10
221.0152342553
20
372.5921270574
11
220.8198410467
21
372.5921270574
0
LINE
8
10000_FRONT
62
7
6
CONTINUOUS
10
216.8728920620
20
372.6389355625
11
216.6384198540
21
372.6389355625
0
LINE
8
10000_FRONT
62
7
6
CONTINUOUS
10
222.5393036077
20
372.7325525726
11
223.4771928871
21
372.7325525726
0
LINE
8
10000_FRONT
62
7
6
CONTINUOUS
10
223.7116650952
20
372.7325525726
11
224.1024515123
21
372.7325525726
0
LINE
8
10000_FRONT
62
7
6
CONTINUOUS
10
231.5664831707
20
372.8261695827
11
232.6216081069
21
372.8261695827
0
LINE
8
10000_FRONT
62
7
6
CONTINUOUS
10
226.1345442803
20
372.8729780878
11
226.6816458009
21
372.8729780878
0
LINE
8
10000_FRONT
62
7
6
CONTINUOUS
10
233.4813407290
20
372.8729780878
11
233.9112052512
21
372.8729780878
0
LINE
8
10000_FRONT
62
7
6
CONTINUOUS
10
232.4262157928
20
373.0134036685
11
231.6055630646
21
373.0134036685
0
LINE
8
10000_FRONT
62
7
6
CONTINUOUS
10
224.1024515123
20
373.0134036685
11
223.7116650952
21
373.0134036685
0
LINE
8
10000_FRONT
62
7
6
CONTINUOUS
10
223.4771928871
20
373.0134036685
11
222.8128548152
21
373.0134036685
0
LINE
8
10000_FRONT
62
7
6
CONTINUOUS
10
233.9112052512
20
373.0602121736
11
233.4813407290
21
373.0602121736
0
LINE
8
10000_FRONT
62
7
6
CONTINUOUS
10
217.4199938063
20
373.0602121736
11
218.1234104305
21
373.0602121736
0
LINE
8
10000_FRONT
62
7
6
CONTINUOUS
10
226.6816458009
20
373.1070206786
11
226.1345442803
21
373.1070206786
0
LINE
8
10000_FRONT
62
7
6
CONTINUOUS
10
221.4451001192
20
373.1070206786
11
221.6014147755
21
373.1070206786
0
LINE
8
10000_FRONT
62
7
6
CONTINUOUS
10
225.0403403445
20
373.1070206786
11
225.1966554481
21
373.1070206786
0
LINE
8
10000_FRONT
62
7
6
CONTINUOUS
10
232.9342383140
20
373.2006376887
11
233.1296324170
21
373.2006376887
0
LINE
8
10000_FRONT
62
7
6
CONTINUOUS
10
225.1966554481
20
373.2942546988
11
225.0403403445
21
373.2942546988
0
LINE
8
10000_FRONT
62
7
6
CONTINUOUS
10
221.6014147755
20
373.2942546988
11
221.4451001192
21
373.2942546988
0
LINE
8
10000_FRONT
62
7
6
CONTINUOUS
10
218.1624892064
20
373.3410632039
11
217.4199938063
21
373.3410632039
0
LINE
8
10000_FRONT
62
7
6
CONTINUOUS
10
233.4031827301
20
373.3878717090
11
233.6376549381
21
373.3878717090
0
LINE
8
10000_FRONT
62
7
6
CONTINUOUS
10
235.2008023955
20
373.5751057292
11
235.0444881865
21
373.5751057292
0
LINE
8
10000_FRONT
62
7
6
CONTINUOUS
10
234.6927798744
20
373.5751057292
11
234.4973857714
21
373.5751057292
0
LINE
8
10000_FRONT
62
7
6
CONTINUOUS
10
233.6376549381
20
373.5751057292
11
233.4031827301
21
373.5751057292
0
LINE
8
10000_FRONT
62
7
6
CONTINUOUS
10
216.6384198540
20
373.7155312444
11
216.8728920620
21
373.7155312444
0
LINE
8
10000_FRONT
62
7
6
CONTINUOUS
10
220.8589195990
20
373.7623398806
11
221.0543132548
21
373.7623398806
0
LINE
8
10000_FRONT
62
7
6
CONTINUOUS
10
224.4541598244
20
373.7623398806
11
224.6495539274
21
373.7623398806
0
LINE
8
11000_LEFT
62
7
6
CONTINUOUS
10
358.1878491929
20
373.7772334362
11
357.5878491929
21
373.7772334362
0
LINE
8
10000_FRONT
62
7
6
CONTINUOUS
10
215.9740819498
20
373.9963824059
11
216.3257902060
21
373.9963824059
0
LINE
8
10000_FRONT
62
7
6
CONTINUOUS
10
217.4199938063
20
374.0431909109
11
218.1624892064
21
374.0431909109
0
LINE
8
10000_FRONT
62
7
6
CONTINUOUS
10
221.4451001192
20
374.0431909109
11
221.6014147755
21
374.0431909109
0
LINE
8
10000_FRONT
62
7
6
CONTINUOUS
10
225.0403403445
20
374.0431909109
11
225.1966554481
21
374.0431909109
0
LINE
8
10000_FRONT
62
7
6
CONTINUOUS
10
229.8860996092
20
374.2772334362
11
229.6516274012
21
374.2772334362
0
LINE
8
10000_FRONT
62
7
6
CONTINUOUS
10
227.4632204241
20
374.2772334362
11
227.2287482160
21
374.2772334362
0
LINE
8
10000_FRONT
62
7
6
CONTINUOUS
10
225.1575764486
20
374.2772334362
11
225.0794193440
21
374.2772334362
0
LINE
8
10000_FRONT
62
7
6
CONTINUOUS
10
223.7116650952
20
374.2772334362
11
223.4771928871
21
374.2772334362
0
LINE
8
10000_FRONT
62
7
6
CONTINUOUS
10
221.5623362232
20
374.2772334362
11
221.4841786714
21
374.2772334362
0
LINE
8
10000_FRONT
62
7
6
CONTINUOUS
10
218.1234104305
20
374.2772334362
11
217.1855217101
21
374.2772334362
0
LINE
8
10000_FRONT
62
7
6
CONTINUOUS
10
216.3257902060
20
374.2772334362
11
215.9740819498
21
374.2772334362
0
LINE
8
11000_LEFT
62
7
6
CONTINUOUS
10
422.8878491929
20
374.4772334362
11
423.1878491929
21
374.4772334362
0
LINE
8
10000_FRONT
62
7
6
CONTINUOUS
10
238.9038227097
20
376.3772334362
11
238.6824959540
21
376.3772334362
0
LINE
8
10000_FRONT
62
7
6
CONTINUOUS
10
198.9038227097
20
376.7772334362
11
238.9038227097
21
376.7772334362
0
LINE
8
11000_LEFT
62
7
6
CONTINUOUS
10
353.5878491929
20
376.7772334362
11
463.5878491929
21
376.7772334362
0
LINE
8
10000_FRONT
62
7
6
CONTINUOUS
10
221.8358869835
20
374.2304249311
11
221.5623362232
21
374.2772334362
0
LINE
8
10000_FRONT
62
7
6
CONTINUOUS
10
225.4311276561
20
374.2304249311
11
225.1575764486
21
374.2772334362
0
LINE
8
10000_FRONT
62
7
6
CONTINUOUS
10
233.8721271462
20
373.5282972241
11
233.6376549381
21
373.5751057292
0
LINE
8
11000_LEFT
62
7
6
CONTINUOUS
10
460.7807424117
20
255.7843402174
11
461.4878491929
21
255.0772334362
0
LINE
8
90000_FRAME
62
7
6
CONTINUOUS
10
465.7423567219
20
21.5500136921
11
465.7423567219
21
16.7967446088
0
LINE
8
90000_FRAME
62
7
6
CONTINUOUS
10
467.1208047561
20
20.6706589117
11
467.1208047561
21
19.6011733680
0
LINE
8
90000_FRAME
62
7
6
CONTINUOUS
10
467.1208047561
20
18.8168839692
11
467.1208047561
21
17.6998657346
0
LINE
8
90000_FRAME
62
7
6
CONTINUOUS
10
468.9745796985
20
19.6011733680
11
468.9745796985
21
18.8168839692
0
LINE
8
90000_FRAME
62
7
6
CONTINUOUS
10
469.2597758435
20
21.5500136921
11
469.2597758435
21
20.6706589117
0
LINE
8
90000_FRAME
62
7
6
CONTINUOUS
10
469.3073085344
20
17.6998657346
11
469.3073085344
21
16.7967446088
0
LINE
8
90000_FRAME
62
7
6
CONTINUOUS
10
470.1153642785
20
16.7967446088
11
470.1153642785
21
21.5500136921
0
LINE
8
90000_FRAME
62
7
6
CONTINUOUS
10
471.0660180952
20
16.7967446088
11
471.0660180952
21
19.8388368221
0
LINE
8
90000_FRAME
62
7
6
CONTINUOUS
10
474.5834372168
20
19.8863695130
11
474.5834372168
21
16.7967446088
0
LINE
8
90000_FRAME
62
7
6
CONTINUOUS
10
475.9618852509
20
21.5500136921
11
475.9618852509
21
16.7967446088
0
LINE
8
90000_FRAME
62
7
6
CONTINUOUS
10
477.0551371401
20
21.5500136921
11
477.0551371401
21
16.7967446088
0
LINE
8
90000_FRAME
62
7
6
CONTINUOUS
10
478.4335851743
20
20.6706589117
11
478.4335851743
21
19.6011733680
0
LINE
8
90000_FRAME
62
7
6
CONTINUOUS
10
478.4335851743
20
18.8168839692
11
478.4335851743
21
17.6998657346
0
LINE
8
90000_FRAME
62
7
6
CONTINUOUS
10
480.2873601167
20
19.6011733680
11
480.2873601167
21
18.8168839692
0
LINE
8
90000_FRAME
62
7
6
CONTINUOUS
10
480.5725562617
20
21.5500136921
11
480.5725562617
21
20.6706589117
0
LINE
8
90000_FRAME
62
7
6
CONTINUOUS
10
480.6200889526
20
17.6998657346
11
480.6200889526
21
16.7967446088
0
LINE
8
90000_FRAME
62
7
6
CONTINUOUS
10
481.4043783513
20
16.7967446088
11
481.4043783513
21
21.5500136921
0
LINE
8
90000_FRAME
62
7
6
CONTINUOUS
10
482.3550321680
20
16.7967446088
11
482.3550321680
21
19.8388368221
0
LINE
8
90000_FRAME
62
7
6
CONTINUOUS
10
484.6366013279
20
21.5500136921
11
484.6366013279
21
18.6029868605
0
LINE
8
90000_FRAME
62
7
6
CONTINUOUS
10
485.5872551446
20
21.5500136921
11
485.5872551446
21
16.7967446088
0
LINE
8
10000_FRONT
62
7
6
CONTINUOUS
10
233.5594969391
20
372.0772334362
11
233.7548910422
21
372.1240419454
0
LINE
8
10000_FRONT
62
7
6
CONTINUOUS
10
225.4311276561
20
372.3580844993
11
225.2357344476
21
372.3112759943
0
LINE
8
10000_FRONT
62
7
6
CONTINUOUS
10
221.8358869835
20
372.3580844993
11
221.6404937749
21
372.3112759943
0
LINE
8
10000_FRONT
62
7
6
CONTINUOUS
10
224.8449471360
20
373.9963824059
11
225.0403403445
21
374.0431909109
0
LINE
8
10000_FRONT
62
7
6
CONTINUOUS
10
216.3257902060
20
372.0772334362
11
216.5211837500
21
372.1240419454
0
LINE
8
10000_FRONT
62
7
6
CONTINUOUS
10
218.1234104305
20
373.0602121736
11
218.3188040863
21
373.1070206786
0
LINE
8
10000_FRONT
62
7
6
CONTINUOUS
10
221.2497064634
20
373.9963824059
11
221.4451001192
21
374.0431909109
0
LINE
8
10000_FRONT
62
7
6
CONTINUOUS
10
215.9740819498
20
374.2772334362
11
215.7786884338
21
374.2304249311
0
LINE
8
10000_FRONT
62
7
6
CONTINUOUS
10
233.4813407290
20
373.0602121736
11
233.2468685210
21
373.0134036685
0
LINE
8
10000_FRONT
62
7
6
CONTINUOUS
10
232.0354275868
20
373.5751057292
11
231.8009553787
21
373.5282972241
0
LINE
8
10000_FRONT
62
7
6
CONTINUOUS
10
232.0354275868
20
372.0772334362
11
232.3089796888
21
372.1240419454
0
LINE
8
10000_FRONT
62
7
6
CONTINUOUS
10
232.2698997948
20
372.3112759943
11
231.9963494817
21
372.2644674728
0
LINE
8
10000_FRONT
62
7
6
CONTINUOUS
10
233.4031827301
20
373.5751057292
11
233.1296324170
21
373.5282972241
0
LINE
8
10000_FRONT
62
7
6
CONTINUOUS
10
225.0794193440
20
374.2772334362
11
224.8058681365
21
374.2304249311
0
LINE
8
10000_FRONT
62
7
6
CONTINUOUS
10
221.4841786714
20
374.2772334362
11
221.2106279111
21
374.2304249311
0
LINE
8
90000_FRAME
62
7
6
CONTINUOUS
10
486.3953108887
20
16.8918099905
11
486.3953108887
21
17.8424638071
0
LINE
8
90000_FRAME
62
7
6
CONTINUOUS
10
489.7225992470
20
20.5518271846
11
489.7225992470
21
21.5024810013
0
LINE
8
90000_FRAME
62
7
6
CONTINUOUS
10
499.0000000000
20
10.0000000000
11
499.0000000000
21
28.0000000000
0
LINE
8
90000_FRAME
62
7
6
CONTINUOUS
10
589.0000000000
20
415.0000000000
11
5.0000000000
21
415.0000000000
0
LINE
8
90000_FRAME
62
7
6
CONTINUOUS
10
594.0000000000
20
420.0000000000
11
0.0000000000
21
420.0000000000
0
LINE
8
11000_LEFT
62
7
6
CONTINUOUS
10
463.6142727565
20
325.7580813919
11
464.5878491929
21
325.0763758322
0
LINE
8
90000_FRAME
62
7
6
CONTINUOUS
10
541.5000000000
20
10.0000000000
11
541.5000000000
21
16.0000000000
0
LINE
8
90000_FRAME
62
7
6
CONTINUOUS
10
474.2507083810
20
21.5500136921
11
473.0623911102
21
18.6505195513
0
LINE
8
90000_FRAME
62
7
6
CONTINUOUS
10
474.5834372168
20
19.8863695130
11
473.2525218735
21
16.7492119180
0
LINE
8
90000_FRAME
62
7
6
CONTINUOUS
10
458.9944124496
20
20.9692081512
11
459.2684782743
21
21.2432812288
0
LINE
8
90000_FRAME
62
7
6
CONTINUOUS
10
584.0000000000
20
10.0000000000
11
584.0000000000
21
28.0000000000
0
LINE
8
90000_FRAME
62
7
6
CONTINUOUS
10
589.0000000000
20
5.0000000000
11
589.0000000000
21
415.0000000000
0
LINE
8
90000_FRAME
62
7
6
CONTINUOUS
10
594.0000000000
20
0.0000000000
11
594.0000000000
21
420.0000000000
0
ARC
8
90000_FRAME
62
7
6
CONTINUOUS
10
488.0999507856
20
18.7539072470
40
1.1116235816
50
277.7100301192
51
295.6884583677
0
ARC
8
90000_FRAME
62
7
6
CONTINUOUS
10
488.3842620429
20
18.0290773976
40
0.3401689055
50
305.5032141630
51
72.4652969321
0
ARC
8
90000_FRAME
62
7
6
CONTINUOUS
10
487.8182687495
20
21.4307942980
40
4.7568043493
50
252.5939496302
51
280.9816308490
0
ARC
8
90000_FRAME
62
7
6
CONTINUOUS
10
488.2731033567
20
18.8127709435
40
2.1007270084
50
282.4058388107
51
311.8644404278
0
ARC
8
90000_FRAME
62
7
6
CONTINUOUS
10
487.9995388455
20
20.4211122335
40
0.3029623460
50
154.4399967965
51
221.8202079021
0
ARC
8
90000_FRAME
62
7
6
CONTINUOUS
10
488.0787600053
20
20.3418916153
40
0.4103084260
50
102.8287501026
51
149.2259966754
0
ARC
8
90000_FRAME
62
7
6
CONTINUOUS
10
488.4957870206
20
18.5995584535
40
2.2018339392
50
84.0399946066
51
103.3427773768
0
ARC
8
90000_FRAME
62
7
6
CONTINUOUS
10
488.1548137630
20
16.1821515454
40
4.6424149444
50
70.2626424040
51
82.9523620849
0
ARC
8
90000_FRAME
62
7
6
CONTINUOUS
10
487.6408044669
20
20.8538079686
40
3.2587494400
50
247.5299862484
51
280.7579865828
0
ARC
8
90000_FRAME
62
7
6
CONTINUOUS
10
481.2555978214
20
2.6017442482
40
17.3322092623
50
65.3415031440
51
67.3997413904
0
ARC
8
90000_FRAME
62
7
6
CONTINUOUS
10
492.0517429126
20
28.3948107760
40
10.6292630166
50
242.8620298548
51
247.1041831934
0
ARC
8
90000_FRAME
62
7
6
CONTINUOUS
10
488.1967976741
20
20.8607865361
40
2.1662878322
50
227.3119145096
51
242.7040450949
0
ARC
8
90000_FRAME
62
7
6
CONTINUOUS
10
487.5927717053
20
20.1551135764
40
1.2385246839
50
194.7952571731
51
225.7176171639
0
ARC
8
90000_FRAME
62
7
6
CONTINUOUS
10
487.6549255707
20
20.1953320034
40
1.3090905092
50
164.1974666764
51
195.8025333236
0
ARC
8
90000_FRAME
62
7
6
CONTINUOUS
10
488.2119495640
20
19.3070705540
40
2.3669192063
50
86.2217605153
51
120.4273020074
0
ARC
8
90000_FRAME
62
7
6
CONTINUOUS
10
487.9430863341
20
12.6108335084
40
9.0679689757
50
78.6827353519
51
87.3147295340
0
ARC
8
90000_FRAME
62
7
6
CONTINUOUS
10
487.4870271207
20
20.3028387555
40
1.1197497796
50
142.8139436741
51
167.1522693697
0
ARC
8
90000_FRAME
62
7
6
CONTINUOUS
10
487.8323329670
20
19.9962595795
40
1.5805447036
50
121.2140819868
51
141.5254896919
0
ARC
8
90000_FRAME
62
7
6
CONTINUOUS
10
488.4095072169
20
20.8073136182
40
0.8661253353
50
222.7760173059
51
239.0362649148
0
ARC
8
90000_FRAME
62
7
6
CONTINUOUS
10
485.9028400734
20
13.4771274356
40
6.8586801425
50
59.9019706136
51
68.2037047745
0
ARC
8
90000_FRAME
62
7
6
CONTINUOUS
10
489.3112879146
20
22.4029171545
40
2.6987273137
50
240.0481709151
51
251.3779962270
0
ARC
8
90000_FRAME
62
7
6
CONTINUOUS
10
488.6458314201
20
18.2460346243
40
1.4334535311
50
315.8904927870
51
333.5228889790
0
ARC
8
90000_FRAME
62
7
6
CONTINUOUS
10
488.6504757883
20
18.1926239388
40
1.4062276809
50
335.3867781270
51
24.3915310868
0
ARC
8
90000_FRAME
62
7
6
CONTINUOUS
10
488.5782731085
20
18.1147703488
40
1.5046981399
50
25.9562414820
51
59.4835331468
0
ARC
8
90000_FRAME
62
7
6
CONTINUOUS
10
460.5072237572
20
18.7539072470
40
1.1116235816
50
277.7100301192
51
295.6884583677
0
ARC
8
90000_FRAME
62
7
6
CONTINUOUS
10
460.7915350145
20
18.0290773976
40
0.3401689055
50
305.5032141630
51
72.4652969321
0
ARC
8
90000_FRAME
62
7
6
CONTINUOUS
10
460.2255417211
20
21.4307942980
40
4.7568043493
50
252.5939496302
51
280.9816308490
0
ARC
8
90000_FRAME
62
7
6
CONTINUOUS
10
460.6803763283
20
18.8127709435
40
2.1007270084
50
282.4058388107
51
311.8644404278
0
ARC
8
90000_FRAME
62
7
6
CONTINUOUS
10
460.4068118171
20
20.4211122336
40
0.3029623460
50
154.4399968134
51
221.8202079190
0
ARC
8
90000_FRAME
62
7
6
CONTINUOUS
10
460.4860329768
20
20.3418916152
40
0.4103084261
50
102.8287500922
51
149.2259966650
0
ARC
8
90000_FRAME
62
7
6
CONTINUOUS
10
460.9030599922
20
18.5995584535
40
2.2018339392
50
84.0399946066
51
103.3427773768
0
ARC
8
90000_FRAME
62
7
6
CONTINUOUS
10
460.5620867346
20
16.1821515454
40
4.6424149444
50
70.2626424040
51
82.9523620849
0
ARC
8
90000_FRAME
62
7
6
CONTINUOUS
10
460.0480774385
20
20.8538079686
40
3.2587494400
50
247.5299862484
51
280.7579865828
0
ARC
8
90000_FRAME
62
7
6
CONTINUOUS
10
453.6628707930
20
2.6017442482
40
17.3322092623
50
65.3415031440
51
67.3997413904
0
ARC
8
90000_FRAME
62
7
6
CONTINUOUS
10
464.4590158842
20
28.3948107760
40
10.6292630166
50
242.8620298548
51
247.1041831934
0
ARC
8
90000_FRAME
62
7
6
CONTINUOUS
10
460.6040706456
20
20.8607865365
40
2.1662878325
50
227.3119145152
51
242.7040451006
0
ARC
8
90000_FRAME
62
7
6
CONTINUOUS
10
460.0000446769
20
20.1551135763
40
1.2385246838
50
194.7952571656
51
225.7176171564
0
ARC
8
90000_FRAME
62
7
6
CONTINUOUS
10
460.6192225356
20
19.3070705538
40
2.3669192065
50
86.2217605144
51
120.4273020065
0
ARC
8
90000_FRAME
62
7
6
CONTINUOUS
10
460.3503593057
20
12.6108335084
40
9.0679689757
50
78.6827353519
51
87.3147295340
0
ARC
8
90000_FRAME
62
7
6
CONTINUOUS
10
460.2396059386
20
19.9962595798
40
1.5805447034
50
121.2140819936
51
141.5254896987
0
ARC
8
90000_FRAME
62
7
6
CONTINUOUS
10
460.8167801885
20
20.8073136182
40
0.8661253353
50
222.7760173059
51
239.0362649148
0
ARC
8
90000_FRAME
62
7
6
CONTINUOUS
10
458.3101130450
20
13.4771274363
40
6.8586801419
50
59.9019706110
51
68.2037047720
0
ARC
8
90000_FRAME
62
7
6
CONTINUOUS
10
461.7185608862
20
22.4029171545
40
2.6987273137
50
240.0481709151
51
251.3779962270
0
ARC
8
90000_FRAME
62
7
6
CONTINUOUS
10
461.0531043917
20
18.2460346240
40
1.4334535310
50
315.8904927976
51
333.5228889896
0
ARC
8
90000_FRAME
62
7
6
CONTINUOUS
10
461.0577487598
20
18.1926239389
40
1.4062276809
50
335.3867781220
51
24.3915310818
0
ARC
8
90000_FRAME
62
7
6
CONTINUOUS
10
460.9855460800
20
18.1147703488
40
1.5046981399
50
25.9562414820
51
59.4835331468
0
ARC
8
90000_FRAME
62
7
6
CONTINUOUS
10
460.0621985423
20
20.1953320034
40
1.3090905092
50
164.1974666764
51
195.8025333236
0
ARC
8
90000_FRAME
62
7
6
CONTINUOUS
10
459.8943000923
20
20.3028387555
40
1.1197497796
50
142.8139436741
51
167.1522693697
0
CIRCLE
8
10000_FRONT
62
7
6
CONTINUOUS
10
210.6038227097
20
330.2272334362
40
0.5500000000
0
CIRCLE
8
10000_FRONT
62
7
6
CONTINUOUS
10
210.6038227097
20
335.4272334362
40
0.5500000000
0
CIRCLE
8
10000_FRONT
62
7
6
CONTINUOUS
10
210.6038227097
20
325.0272334362
40
0.5500000000
0
CIRCLE
8
10000_FRONT
62
7
6
CONTINUOUS
10
201.4038227097
20
368.8772334362
40
0.5500000000
0
CIRCLE
8
10000_FRONT
62
7
6
CONTINUOUS
10
201.4038227097
20
363.6772334362
40
0.5500000000
0
CIRCLE
8
10000_FRONT
62
7
6
CONTINUOUS
10
201.4038227097
20
358.4772334362
40
0.5500000000
0
CIRCLE
8
10000_FRONT
62
7
6
CONTINUOUS
10
201.4038227097
20
353.2772334362
40
0.5500000000
0
CIRCLE
8
10000_FRONT
62
7
6
CONTINUOUS
10
201.4038227097
20
348.0772334362
40
0.5500000000
0
CIRCLE
8
10000_FRONT
62
7
6
CONTINUOUS
10
201.4038227097
20
342.8772334362
40
0.5500000000
0
ARC
8
10000_FRONT
62
7
6
CONTINUOUS
10
238.4038227097
20
334.9772334362
40
0.5000000000
50
0.0000000000
51
90.0000000000
0
ARC
8
10000_FRONT
62
7
6
CONTINUOUS
10
199.4038227097
20
334.9772334362
40
0.5000000000
50
90.0000000000
51
180.0000000000
0
ARC
8
10000_FRONT
62
7
6
CONTINUOUS
10
236.6038227097
20
328.7772334362
40
0.6000000000
50
180.0000000000
51
260.4059317731
0
ARC
8
10000_FRONT
62
7
6
CONTINUOUS
10
201.6038227097
20
317.1772334362
40
0.3000000000
50
198.8525230955
51
270.0000000000
0
ARC
8
10000_FRONT
62
7
6
CONTINUOUS
10
236.2038227097
20
317.1772334362
40
0.3000000000
50
270.0000000000
51
341.1474204329
0
CIRCLE
8
10000_FRONT
62
7
6
CONTINUOUS
10
202.9038227097
20
258.7772334362
40
0.6500000000
0
CIRCLE
8
10000_FRONT
62
7
6
CONTINUOUS
10
202.9038227097
20
258.7772334362
40
0.9500000000
0
ARC
8
10000_FRONT
62
7
6
CONTINUOUS
10
201.3038227097
20
328.2772334362
40
0.5000000000
50
270.0000000000
51
360.0000000000
0
ARC
8
10000_FRONT
62
7
6
CONTINUOUS
10
236.5038227097
20
328.2772334362
40
0.5000000000
50
180.0000000000
51
270.0000000000
0
ARC
8
10000_FRONT
62
7
6
CONTINUOUS
10
199.9038227097
20
375.7772334362
40
1.0000000000
50
90.0000000000
51
180.0000000000
0
ARC
8
10000_FRONT
62
7
6
CONTINUOUS
10
237.9038227097
20
375.7772334362
40
1.0000000000
50
0.0000000000
51
90.0000000000
0
ARC
8
10000_FRONT
62
7
6
CONTINUOUS
10
237.9038227097
20
252.7772334362
40
1.0000000000
50
270.0000000000
51
360.0000000000
0
ARC
8
10000_FRONT
62
7
6
CONTINUOUS
10
199.9038227097
20
252.7772334362
40
1.0000000000
50
180.0000000000
51
270.0000000000
0
ARC
8
11000_LEFT
62
7
6
CONTINUOUS
10
460.4736356305
20
254.6772334362
40
1.0000000000
50
45.0000000000
51
90.0000000000
0
ARC
8
11000_LEFT
62
7
6
CONTINUOUS
10
463.5878491929
20
315.8772334362
40
1.0000000000
50
0.0000000000
51
60.0000000000
0
ARC
8
11000_LEFT
62
7
6
CONTINUOUS
10
458.9878491929
20
254.6772334362
40
1.0000000000
50
90.0000000000
51
180.0000000000
0
ARC
8
11000_LEFT
62
7
6
CONTINUOUS
10
461.9878491929
20
255.8772334362
40
0.8000000000
50
270.0000000000
51
360.0000000000
0
ARC
8
11000_LEFT
62
7
6
CONTINUOUS
10
461.8878491929
20
331.4772334362
40
4.0000000000
50
51.0551964059
51
180.0000000000
0
ARC
8
11000_LEFT
62
7
6
CONTINUOUS
10
461.8878491929
20
306.6772334362
40
4.0000000000
50
180.0000000000
51
270.0000000000
0
ARC
8
11000_LEFT
62
7
6
CONTINUOUS
10
463.5878491929
20
318.4772334362
40
1.0000000000
50
300.0000000000
51
360.0000000000
0
ARC
8
11000_LEFT
62
7
6
CONTINUOUS
10
464.1878491929
20
326.5772334362
40
1.0000000000
50
145.0000000000
51
235.0000000000
0
ARC
8
11000_LEFT
62
7
6
CONTINUOUS
10
463.5878491929
20
252.7772334362
40
1.0000000000
50
270.0000000000
51
360.0000000000
0
ARC
8
11000_LEFT
62
7
6
CONTINUOUS
10
460.0736356305
20
255.0772334362
40
1.0000000000
50
45.0000000000
51
90.0000000000
0
ARC
8
11000_LEFT
62
7
6
CONTINUOUS
10
459.0020627552
20
255.0772334362
40
1.0000000000
50
90.0000000000
51
135.0000000000
0
ARC
8
11000_LEFT
62
7
6
CONTINUOUS
10
461.6878491929
20
331.6772334362
40
4.5000000000
50
90.0000000000
51
180.0000000000
0
ARC
8
11000_LEFT
62
7
6
CONTINUOUS
10
461.6878491929
20
306.7772334362
40
4.5000000000
50
180.0000000000
51
270.0000000000
0
ARC
8
11000_LEFT
62
7
6
CONTINUOUS
10
423.1878491929
20
374.9772334362
40
0.5000000000
50
270.0000000000
51
360.0000000000
0
ARC
8
11000_LEFT
62
7
6
CONTINUOUS
10
423.1878491929
20
253.5772334362
40
0.5000000000
50
0.0000000000
51
90.0000000000
0
ARC
8
11000_LEFT
62
7
6
CONTINUOUS
10
463.5878491929
20
375.7772334362
40
1.0000000000
50
0.0000000000
51
90.0000000000
0
ARC
8
11000_LEFT
62
7
6
CONTINUOUS
10
365.3878491929
20
281.5617195836
40
2.5000000000
50
285.0000000000
51
360.0000000000
0
ARC
8
11000_LEFT
62
7
6
CONTINUOUS
10
365.3878491929
20
298.7327472888
40
2.5000000000
50
0.0000000000
51
75.0000000000
0
ARC
8
11000_LEFT
62
7
6
CONTINUOUS
10
358.1878491929
20
372.2772334362
40
1.5000000000
50
0.0000000000
51
90.0000000000
0
ARC
8
11000_LEFT
62
7
6
CONTINUOUS
10
357.5878491929
20
372.2772334362
40
1.5000000000
50
90.0000000000
51
180.0000000000
0
ARC
8
11000_LEFT
62
7
6
CONTINUOUS
10
356.2610542736
20
358.2772334362
40
0.3000000000
50
90.0000000000
51
150.0000000000
0
ARC
8
11000_LEFT
62
7
6
CONTINUOUS
10
353.5878491929
20
376.2772334362
40
0.5000000000
50
90.0000000000
51
180.0000000000
0
ARC
8
11000_LEFT
62
7
6
CONTINUOUS
10
349.6878491929
20
351.6772334362
40
2.0000000000
50
90.0000000000
51
180.0000000000
0
ARC
8
11000_LEFT
62
7
6
CONTINUOUS
10
349.6878491929
20
329.2772334362
40
2.0000000000
50
180.0000000000
51
270.0000000000
0
ARC
8
11000_LEFT
62
7
6
CONTINUOUS
10
355.8378491929
20
372.0272334362
40
0.2500000000
50
270.0000000000
51
360.0000000000
0
ARC
8
11000_LEFT
62
7
6
CONTINUOUS
10
353.5878491929
20
372.2772334362
40
0.5000000000
50
180.0000000000
51
270.0000000000
0
ARC
8
13000_TOP
62
7
6
CONTINUOUS
10
199.9038227097
20
45.1811029412
40
1.0000000000
50
180.0000000000
51
270.0000000000
0
ARC
8
13000_TOP
62
7
6
CONTINUOUS
10
237.9038227097
20
45.1811029412
40
1.0000000000
50
270.0000000000
51
360.0000000000
0
ARC
8
13000_TOP
62
7
6
CONTINUOUS
10
216.9538227097
20
88.0624737911
40
0.3000000000
50
90.0000000000
51
180.0000000000
0
ARC
8
13000_TOP
62
7
6
CONTINUOUS
10
220.8538227097
20
88.0624737911
40
0.3000000000
50
0.0000000000
51
90.0000000000
0
ARC
8
13000_TOP
62
7
6
CONTINUOUS
10
209.8038227097
20
88.9811029412
40
0.2000000000
50
180.0000000000
51
270.0000000000
0
ARC
8
13000_TOP
62
7
6
CONTINUOUS
10
209.8038227097
20
90.5811029412
40
0.2000000000
50
90.0000000000
51
180.0000000000
0
ARC
8
13000_TOP
62
7
6
CONTINUOUS
10
213.9038227097
20
88.9811029412
40
0.2000000000
50
270.0000000000
51
360.0000000000
0
ARC
8
13000_TOP
62
7
6
CONTINUOUS
10
213.9038227097
20
90.5811029412
40
0.2000000000
50
0.0000000000
51
90.0000000000
0
ARC
8
13000_TOP
62
7
6
CONTINUOUS
10
228.0038227097
20
88.9811029412
40
0.2000000000
50
270.0000000000
51
360.0000000000
0
ARC
8
13000_TOP
62
7
6
CONTINUOUS
10
228.0038227097
20
90.5811029412
40
0.2000000000
50
0.0000000000
51
90.0000000000
0
ARC
8
13000_TOP
62
7
6
CONTINUOUS
10
223.9038227097
20
88.9811029412
40
0.2000000000
50
180.0000000000
51
270.0000000000
0
ARC
8
13000_TOP
62
7
6
CONTINUOUS
10
223.9038227097
20
90.5811029412
40
0.2000000000
50
90.0000000000
51
180.0000000000
0
ARC
8
13000_TOP
62
7
6
CONTINUOUS
10
200.9038227097
20
159.0811029412
40
2.0000000000
50
90.0000000000
51
180.0000000000
0
CIRCLE
8
91000_TIP
62
7
6
CONTINUOUS
10
436.8560837260
20
19.5989002937
40
4.9999998979
0
CIRCLE
8
91000_TIP
62
7
6
CONTINUOUS
10
436.8560837260
20
19.5989002937
40
2.4999999489
0
ENDSEC
0
EOF
