0
SECTION
2
HEADER
9
$EXTMAX
10
594.0000000000
20
420.0000000000
9
$EXTMIN
10
0.0000000000
20
0.0000000000
9
$LIMMIN
10
0.0000000000
20
0.0000000000
9
$LIMMAX
10
594.0000000000
20
420.0000000000
9
$VIEWCTR
10
297.0000000000
20
210.0000000000
9
$VIEWSIZE
40
420.0000000000
9
$CLAYER
8
0
9
$LTSCALE
40
32.6700000000
9
$CELTYPE
6
BYLAYER
9
$DIMSCALE
40
1
9
$DIMASZ
40
3.5000000000
9
$DIMEXO
40
3.7125000000
9
$DIMDLI
40
22.5720000000
9
$DIMEXE
40
10.6920000000
9
$DIMCEN
40
5.3460000000
9
$DIMLFAC
40
1.0000000000
0
ENDSEC
0
SECTION
2
TABLES
0
TABLE
2
LTYPE
70
6
0
LTYPE
2
BYBLOCK
70
0
3

72
65
73
0
40
0.0
0
LTYPE
2
BYLAYER
70
0
3

72
65
73
0
40
0.0
0
LTYPE
2
CONTINUOUS
70
64
3
Solid line
72
65
73
0
40
0
0
LTYPE
2
CENTER
70
64
3
____ _ ____ _ ____ _ ____ _ ____ _ ____ _ ____
72
65
73
4
40
0.6
49
0.375
49
-0.075
49
0.075
49
-0.075
0
LTYPE
2
HIDDEN
70
64
3
- - - - - - - - - - - - - - - - - - - -
72
65
73
2
40
0.2
49
0.1
49
-0.1
0
LTYPE
2
PHANTOM
70
64
3
_____ _ _ _____ _ _ _____ _ _ _____
72
65
73
6
40
0.8
49
0.45
49
-0.05
49
0.1
49
-0.05
49
0.1
49
-0.05
0
LTYPE
2
DOT
70
64
3
. . . . . . . . . . . . . . . . . . . .
72
65
73
2
40
0.2
49
0.1
49
-0.1
0
LTYPE
2
DASHED
70
64
3
- - - - - - - - - - - - - - - - - - - -
72
65
73
2
40
0.2
49
0.1
49
-0.1
0
ENDTAB
0
TABLE
2
LAYER
70
36
0
LAYER
2
0
70
0
62
7
6
CONTINUOUS
0
LAYER
2
DEFAULT_1
70
0
62
7
6
CENTER
0
LAYER
2
DEFAULT_2
70
0
62
8
6
HIDDEN
0
LAYER
2
DEFAULT_3
70
0
62
7
6
PHANTOM
0
LAYER
2
10000_FRONT
70
0
62
7
6
CONTINUOUS
0
LAYER
2
10100_DIM_FRONT
70
0
62
7
6
CONTINUOUS
0
LAYER
2
10300_FRONT_GERMAN_ENGLISH
70
0
62
7
6
CONTINUOUS
0
LAYER
2
11000_LEFT
70
0
62
7
6
CONTINUOUS
0
LAYER
2
11100_DIM_LEFT
70
0
62
7
6
CONTINUOUS
0
LAYER
2
11300_LEFT_GERMAN_ENGLISH
70
0
62
7
6
CONTINUOUS
0
LAYER
2
12000_RIGHT
70
0
62
7
6
CONTINUOUS
0
LAYER
2
12100_DIM_RIGHT
70
0
62
7
6
CONTINUOUS
0
LAYER
2
12300_RIGHT_GERMAN_ENGLISH
70
0
62
7
6
CONTINUOUS
0
LAYER
2
13000_TOP
70
0
62
7
6
CONTINUOUS
0
LAYER
2
13100_DIM_TOP
70
0
62
7
6
CONTINUOUS
0
LAYER
2
13300_TOP_GERMAN_ENGLISH
70
0
62
7
6
CONTINUOUS
0
LAYER
2
14000_BOTTOM
70
0
62
7
6
CONTINUOUS
0
LAYER
2
14100_DIM_BOTTOM
70
0
62
7
6
CONTINUOUS
0
LAYER
2
14300_BOTTOM_GERMAN_ENGLISH
70
0
62
7
6
CONTINUOUS
0
LAYER
2
15000_BACK
70
0
62
7
6
CONTINUOUS
0
LAYER
2
15100_DIM_BACK
70
0
62
7
6
CONTINUOUS
0
LAYER
2
15300_BACK_GERMAN_ENGLISH
70
0
62
7
6
CONTINUOUS
0
LAYER
2
20000_FRONT_O
70
0
62
7
6
CONTINUOUS
0
LAYER
2
20100_DIM_FRONT_O
70
0
62
7
6
CONTINUOUS
0
LAYER
2
20300_FRONT_O_GERMAN_ENGLISH
70
0
62
7
6
CONTINUOUS
0
LAYER
2
40000_ISO
70
0
62
7
6
CONTINUOUS
0
LAYER
2
40300_ISO_GERMAN_ENGLISH
70
0
62
7
6
CONTINUOUS
0
LAYER
2
50000_WIRING
70
0
62
7
6
CONTINUOUS
0
LAYER
2
50300_WIRING_GERMAN_ENGLISH
70
0
62
7
6
CONTINUOUS
0
LAYER
2
90000_FRAME
70
0
62
7
6
CONTINUOUS
0
LAYER
2
91000_TIP
70
0
62
7
6
CONTINUOUS
0
ENDTAB
0
ENDSEC
0
SECTION
2
BLOCKS
0
BLOCK
8
10100_DIM_FRONT
62
7
6
CONTINUOUS
2
*D0
70
65
10
0.0000000000
20
0.0000000000
0
TEXT
8
10100_DIM_FRONT
62
7
6
CONTINUOUS
10
200.5519673294
20
218.9914434583
40
3.5000000000
1
40
72
5
11
206.0519672275
21
218.9914434583
0
LINE
8
10100_DIM_FRONT
62
7
6
CONTINUOUS
10
182.8130895843
20
227.5643334944
11
182.8130895843
21
216.1164434583
0
LINE
8
10100_DIM_FRONT
62
7
6
CONTINUOUS
10
222.8130895843
20
227.5643334944
11
222.8130895843
21
216.1164434583
0
LINE
8
10100_DIM_FRONT
62
7
6
CONTINUOUS
10
182.8130895843
20
218.1164434583
11
202.8130895843
21
218.1164434583
0
LINE
8
10100_DIM_FRONT
62
7
6
CONTINUOUS
10
222.8130895843
20
218.1164434583
11
202.8130895843
21
218.1164434583
0
SOLID
8
10100_DIM_FRONT
62
7
6
CONTINUOUS
10
186.3130895843
20
218.6164434583
11
182.8130895843
21
218.1164434583
12
186.3130895843
22
217.6164434583
13
186.3130895843
23
217.6164434583
0
SOLID
8
10100_DIM_FRONT
62
7
6
CONTINUOUS
10
219.3130895843
20
217.6164434583
11
222.8130895843
21
218.1164434583
12
219.3130895843
22
218.6164434583
13
219.3130895843
23
218.6164434583
0
ENDBLK
8
0
0
BLOCK
8
10100_DIM_FRONT
62
7
6
CONTINUOUS
2
*D1
70
65
10
0.0000000000
20
0.0000000000
0
TEXT
8
10100_DIM_FRONT
62
7
6
CONTINUOUS
10
233.5994685843
20
285.3710004944
40
3.5000000000
1
125
50
90.0000000000
72
5
11
233.5994685843
21
292.6210004944
0
LINE
8
10100_DIM_FRONT
62
7
6
CONTINUOUS
10
222.8130895843
20
227.5643334944
11
236.4744685843
21
227.5643334944
0
LINE
8
10100_DIM_FRONT
62
7
6
CONTINUOUS
10
222.8130895843
20
352.5643334944
11
236.4744685843
21
352.5643334944
0
LINE
8
10100_DIM_FRONT
62
7
6
CONTINUOUS
10
234.4744685843
20
227.5643334944
11
234.4744685843
21
290.0643334944
0
LINE
8
10100_DIM_FRONT
62
7
6
CONTINUOUS
10
234.4744685843
20
352.5643334944
11
234.4744685843
21
290.0643334944
0
SOLID
8
10100_DIM_FRONT
62
7
6
CONTINUOUS
10
233.9744685843
20
231.0643334944
11
234.4744685843
21
227.5643334944
12
234.9744685843
22
231.0643334944
13
234.9744685843
23
231.0643334944
0
SOLID
8
10100_DIM_FRONT
62
7
6
CONTINUOUS
10
234.9744685843
20
349.0643334944
11
234.4744685843
21
352.5643334944
12
233.9744685843
22
349.0643334944
13
233.9744685843
23
349.0643334944
0
ENDBLK
8
0
0
BLOCK
8
11100_DIM_LEFT
62
7
6
CONTINUOUS
2
*D2
70
65
10
0.0000000000
20
0.0000000000
0
TEXT
8
11100_DIM_LEFT
62
7
6
CONTINUOUS
10
368.2500795843
20
217.7788954944
40
3.5000000000
1
117
72
5
11
375.0000795843
21
217.7788954944
0
LINE
8
11100_DIM_LEFT
62
7
6
CONTINUOUS
10
311.0010815843
20
305.0643334944
11
311.0010815843
21
214.9038954944
0
LINE
8
11100_DIM_LEFT
62
7
6
CONTINUOUS
10
427.9010815843
20
282.8936394944
11
427.9010815843
21
214.9038954944
0
LINE
8
11100_DIM_LEFT
62
7
6
CONTINUOUS
10
311.0010815843
20
216.9038954944
11
369.4510815843
21
216.9038954944
0
LINE
8
11100_DIM_LEFT
62
7
6
CONTINUOUS
10
427.9010815843
20
216.9038954944
11
369.4510815843
21
216.9038954944
0
SOLID
8
11100_DIM_LEFT
62
7
6
CONTINUOUS
10
314.5010815843
20
217.4038954944
11
311.0010815843
21
216.9038954944
12
314.5010815843
22
216.4038954944
13
314.5010815843
23
216.4038954944
0
SOLID
8
11100_DIM_LEFT
62
7
6
CONTINUOUS
10
424.4010815843
20
216.4038954944
11
427.9010815843
21
216.9038954944
12
424.4010815843
22
217.4038954944
13
424.4010815843
23
217.4038954944
0
ENDBLK
8
0
0
ENDSEC
0
SECTION
2
ENTITIES
0
DIMENSION
8
10100_DIM_FRONT
62
7
6
CONTINUOUS
2
*D0
10
222.8130895843
20
218.1164434583
11
203.3019672784
21
220.7414434583
70
128
13
182.8130895843
23
227.5643334944
14
222.8130895843
24
227.5643334944
0
DIMENSION
8
10100_DIM_FRONT
62
7
6
CONTINUOUS
2
*D1
10
234.4744685843
20
352.5643334944
11
231.8494685843
21
288.9960004944
70
128
13
222.8130895843
23
227.5643334944
14
222.8130895843
24
352.5643334944
50
90.000000
0
DIMENSION
8
11100_DIM_LEFT
62
7
6
CONTINUOUS
2
*D2
10
427.9010815843
20
216.9038954944
11
371.6250795843
21
219.5288954944
70
128
13
311.0010815843
23
305.0643334944
14
427.9010815843
24
282.8936394944
0
TEXT
8
90000_FRAME
62
7
6
CONTINUOUS
10
499.6600000000
20
11.9000000000
40
2.2000000000
1
Format / Size: DIN A2
51
0.0000190000
72
5
11
533.2361904762
21
11.9000000000
0
TEXT
8
90000_FRAME
62
7
6
CONTINUOUS
10
542.1600000000
20
11.9000000000
40
2.2000000000
1
Massstab / Scale: 1:1
51
0.0000190000
72
5
11
573.0647619048
21
11.9000000000
0
TEXT
8
90000_FRAME
62
7
6
CONTINUOUS
10
514.0362190000
20
20.3282990000
40
3.5000000000
1
6GK73431EX300XE0_001
51
0.0000190000
72
5
11
566.7862190000
21
20.3282990000
0
TEXT
8
10300_FRONT_GERMAN_ENGLISH
62
7
6
CONTINUOUS
10
175.0219505843
20
363.0975224944
40
3.5000000000
1
Vorne / Front
51
0.0000190000
72
5
11
207.6052839176
21
363.0975224944
0
TEXT
8
11300_LEFT_GERMAN_ENGLISH
62
7
6
CONTINUOUS
10
308.1921695843
20
365.2113354944
40
3.5000000000
1
Links / Left
51
0.0000190000
72
5
11
336.6921695843
21
365.2113354944
0
TEXT
8
13300_TOP_GERMAN_ENGLISH
62
7
6
CONTINUOUS
10
177.6642165843
20
183.9518714944
40
3.5000000000
1
Oben / Top
51
0.0000190000
72
5
11
204.0808832509
21
183.9518714944
0
TEXT
8
91000_TIP
62
7
6
CONTINUOUS
10
11.2756234532
20
15.1898618139
40
3.5000000000
1
Alle Bemassungswerte sind in Millimeter (mm) angegeben.
72
5
11
145.8589567865
21
15.1898618139
0
TEXT
8
91000_TIP
62
7
6
CONTINUOUS
10
11.2756234532
20
9.9398618139
40
3.5000000000
1
All dimensions are in millimeters (mm).
72
5
11
104.4422901199
21
9.9398618139
0
LINE
8
90000_FRAME
62
7
6
CONTINUOUS
10
0.0000000000
20
420.0000000000
11
0.0000000000
21
0.0000000000
0
LINE
8
90000_FRAME
62
7
6
CONTINUOUS
10
5.0000000000
20
415.0000000000
11
5.0000000000
21
5.0000000000
0
LINE
8
91000_TIP
62
7
6
CONTINUOUS
10
420.4356590000
20
21.3638180000
11
430.4356580000
21
23.8638180000
0
LINE
8
90000_FRAME
62
7
6
CONTINUOUS
10
0.0000000000
20
0.0000000000
11
594.0000000000
21
0.0000000000
0
LINE
8
90000_FRAME
62
7
6
CONTINUOUS
10
5.0000000000
20
5.0000000000
11
589.0000000000
21
5.0000000000
0
LINE
8
90000_FRAME
62
7
6
CONTINUOUS
10
449.0000000000
20
10.0000000000
11
584.0000000000
21
10.0000000000
0
LINE
8
90000_FRAME
62
7
6
CONTINUOUS
10
499.0000000000
20
16.0000000000
11
584.0000000000
21
16.0000000000
0
LINE
8
90000_FRAME
62
7
6
CONTINUOUS
10
472.3969330000
20
16.7492120000
11
473.2525220000
21
16.7492120000
0
LINE
8
90000_FRAME
62
7
6
CONTINUOUS
10
485.5872550000
20
16.7967450000
11
484.0662090000
21
16.7967450000
0
LINE
8
90000_FRAME
62
7
6
CONTINUOUS
10
475.9618850000
20
16.7967450000
11
474.5834370000
21
16.7967450000
0
LINE
8
90000_FRAME
62
7
6
CONTINUOUS
10
463.2231240000
20
16.7967450000
11
464.6491050000
21
16.7967450000
0
LINE
8
90000_FRAME
62
7
6
CONTINUOUS
10
465.7423560000
20
16.7967450000
11
469.3073080000
21
16.7967450000
0
LINE
8
90000_FRAME
62
7
6
CONTINUOUS
10
470.1153640000
20
16.7967450000
11
471.0660180000
21
16.7967450000
0
LINE
8
90000_FRAME
62
7
6
CONTINUOUS
10
477.0551370000
20
16.7967450000
11
480.6200890000
21
16.7967450000
0
LINE
8
90000_FRAME
62
7
6
CONTINUOUS
10
481.4043780000
20
16.7967450000
11
482.3550320000
21
16.7967450000
0
LINE
8
90000_FRAME
62
7
6
CONTINUOUS
10
480.6200890000
20
17.6998660000
11
478.4335850000
21
17.6998660000
0
LINE
8
90000_FRAME
62
7
6
CONTINUOUS
10
469.3073080000
20
17.6998660000
11
467.1208040000
21
17.6998660000
0
LINE
8
90000_FRAME
62
7
6
CONTINUOUS
10
480.2873600000
20
18.8168840000
11
478.4335850000
21
18.8168840000
0
LINE
8
90000_FRAME
62
7
6
CONTINUOUS
10
468.9745790000
20
18.8168840000
11
467.1208040000
21
18.8168840000
0
LINE
8
91000_TIP
62
7
6
CENTER
10
419.1561480000
20
18.8638180000
11
442.7581370000
21
18.8638180000
0
LINE
8
90000_FRAME
62
7
6
CONTINUOUS
10
480.2873600000
20
19.6011730000
11
478.4335850000
21
19.6011730000
0
LINE
8
90000_FRAME
62
7
6
CONTINUOUS
10
468.9745790000
20
19.6011730000
11
467.1208040000
21
19.6011730000
0
LINE
8
90000_FRAME
62
7
6
CONTINUOUS
10
480.5725560000
20
20.6706590000
11
478.4335850000
21
20.6706590000
0
LINE
8
90000_FRAME
62
7
6
CONTINUOUS
10
469.2597760000
20
20.6706590000
11
467.1208040000
21
20.6706590000
0
LINE
8
90000_FRAME
62
7
6
CONTINUOUS
10
485.5872550000
20
21.5500140000
11
484.6366010000
21
21.5500140000
0
LINE
8
90000_FRAME
62
7
6
CONTINUOUS
10
482.9491910000
20
21.5500140000
11
481.4043780000
21
21.5500140000
0
LINE
8
90000_FRAME
62
7
6
CONTINUOUS
10
480.5725560000
20
21.5500140000
11
477.0551370000
21
21.5500140000
0
LINE
8
90000_FRAME
62
7
6
CONTINUOUS
10
475.9618850000
20
21.5500140000
11
474.2507080000
21
21.5500140000
0
LINE
8
90000_FRAME
62
7
6
CONTINUOUS
10
471.8265410000
20
21.5500140000
11
470.1153640000
21
21.5500140000
0
LINE
8
90000_FRAME
62
7
6
CONTINUOUS
10
469.2597760000
20
21.5500140000
11
465.7423560000
21
21.5500140000
0
LINE
8
90000_FRAME
62
7
6
CONTINUOUS
10
463.2231240000
20
21.5500140000
11
464.6491050000
21
21.5500140000
0
LINE
8
13000_TOP
62
7
6
CONTINUOUS
10
187.5678155843
20
58.8439914944
11
187.4130895843
21
58.9987174944
0
LINE
8
10000_FRONT
62
7
6
CONTINUOUS
10
208.2185225843
20
350.1053244944
11
208.0401435843
21
349.9864054944
0
LINE
8
10000_FRONT
62
7
6
CONTINUOUS
10
208.1590625843
20
349.7485674944
11
208.3374415843
21
349.8674864944
0
LINE
8
10000_FRONT
62
7
6
CONTINUOUS
10
208.9320355843
20
347.9053244944
11
209.1104135843
21
348.0242424944
0
LINE
8
10000_FRONT
62
7
6
CONTINUOUS
10
210.8941975843
20
348.9755944944
11
211.0725765843
21
349.0945134944
0
LINE
8
10000_FRONT
62
7
6
CONTINUOUS
10
212.6185225843
20
349.9864054944
11
212.4401435843
21
349.8674864944
0
LINE
8
10000_FRONT
62
7
6
CONTINUOUS
10
186.5781795843
20
342.5143334944
11
186.5630895843
21
342.5067894944
0
LINE
8
90000_FRAME
62
7
6
CONTINUOUS
10
449.0000000000
20
28.0000000000
11
584.0000000000
21
28.0000000000
0
LINE
8
13000_TOP
62
7
6
CONTINUOUS
10
213.8678155843
20
54.6639684944
11
213.7130895843
21
54.6897334944
0
LINE
8
13000_TOP
62
7
6
CONTINUOUS
10
221.2628795843
20
53.2487174944
11
221.1477825843
21
53.2716764944
0
LINE
8
13000_TOP
62
7
6
CONTINUOUS
10
187.6292425843
20
58.8284554944
11
187.5678155843
21
58.8439914944
0
LINE
8
13000_TOP
62
7
6
CONTINUOUS
10
191.7583645843
20
64.1534424944
11
191.6969365843
21
64.1689784944
0
LINE
8
13000_TOP
62
7
6
CONTINUOUS
10
187.6292425843
20
65.3284554944
11
187.5678155843
21
65.3439914944
0
LINE
8
13000_TOP
62
7
6
CONTINUOUS
10
213.9292425843
20
58.8284554944
11
213.8678155843
21
58.8439914944
0
LINE
8
13000_TOP
62
7
6
CONTINUOUS
10
221.1477825843
20
53.2716764944
11
221.0507425843
21
53.3365934944
0
LINE
8
13000_TOP
62
7
6
CONTINUOUS
10
187.5678155843
20
65.3439914944
11
187.4130895843
21
65.4987174944
0
LINE
8
13000_TOP
62
7
6
CONTINUOUS
10
191.9130895843
20
63.9987174944
11
191.7583645843
21
64.1534424944
0
LINE
8
13000_TOP
62
7
6
CONTINUOUS
10
187.5678155843
20
71.8439914944
11
187.4130895843
21
71.9987174944
0
LINE
8
13000_TOP
62
7
6
CONTINUOUS
10
191.9130895843
20
70.4987174944
11
191.7583645843
21
70.6534424944
0
LINE
8
13000_TOP
62
7
6
CONTINUOUS
10
187.5678155843
20
78.3439914944
11
187.4130895843
21
78.4987174944
0
LINE
8
13000_TOP
62
7
6
CONTINUOUS
10
191.9130895843
20
76.9987174944
11
191.7583645843
21
77.1534424944
0
LINE
8
13000_TOP
62
7
6
CONTINUOUS
10
187.5678155843
20
84.8439914944
11
187.4130895843
21
84.9987174944
0
LINE
8
13000_TOP
62
7
6
CONTINUOUS
10
213.8678155843
20
58.8439914944
11
213.7130895843
21
58.9987174944
0
LINE
8
13000_TOP
62
7
6
CONTINUOUS
10
221.0507425843
20
53.3365934944
11
220.9386185843
21
53.4487174944
0
LINE
8
13000_TOP
62
7
6
CONTINUOUS
10
191.9130895843
20
83.4987174944
11
191.7583645843
21
83.6534424944
0
LINE
8
13000_TOP
62
7
6
CONTINUOUS
10
220.7065445843
20
54.6727164944
11
220.7130895843
21
54.6661704944
0
LINE
8
13000_TOP
62
7
6
CONTINUOUS
10
220.7085775843
20
53.6816334944
11
220.9386185843
21
53.4487174944
0
LINE
8
10000_FRONT
62
7
6
CONTINUOUS
10
207.8617655843
20
349.8080264944
11
207.7428465843
21
349.6296484944
0
LINE
8
10000_FRONT
62
7
6
CONTINUOUS
10
208.0401435843
20
349.5701884944
11
208.1590625843
21
349.7485674944
0
LINE
8
10000_FRONT
62
7
6
CONTINUOUS
10
213.3914945843
20
348.3809994944
11
213.2725765843
21
348.2026214944
0
LINE
8
10000_FRONT
62
7
6
CONTINUOUS
10
216.7806845843
20
348.3809994944
11
216.6617655843
21
348.2026214944
0
LINE
8
10000_FRONT
62
7
6
CONTINUOUS
10
214.1050085843
20
348.6188374944
11
214.8779815843
21
349.7485674944
0
LINE
8
10000_FRONT
62
7
6
CONTINUOUS
10
214.8185225843
20
350.0458644944
11
213.8671705843
21
348.6782964944
0
LINE
8
10000_FRONT
62
7
6
CONTINUOUS
10
208.0401435843
20
349.9864054944
11
207.8617655843
21
349.8080264944
0
LINE
8
10000_FRONT
62
7
6
CONTINUOUS
10
208.9914955843
20
348.3215404944
11
208.8131165843
21
348.1431614944
0
LINE
8
10000_FRONT
62
7
6
CONTINUOUS
10
209.1104135843
20
348.0242424944
11
209.2887925843
21
348.2026214944
0
LINE
8
10000_FRONT
62
7
6
CONTINUOUS
10
210.8347385843
20
349.2728914944
11
210.7752785843
21
349.2134324944
0
LINE
8
10000_FRONT
62
7
6
CONTINUOUS
10
212.6779815843
20
349.6891074944
11
212.7374405843
21
349.7485674944
0
LINE
8
10000_FRONT
62
7
6
CONTINUOUS
10
213.3914945843
20
349.0350534944
11
213.5698735843
21
349.2134324944
0
LINE
8
10000_FRONT
62
7
6
CONTINUOUS
10
213.3914945843
20
347.9647834944
11
213.6293335843
21
348.2026214944
0
LINE
8
10000_FRONT
62
7
6
CONTINUOUS
10
216.0671705843
20
349.6891074944
11
216.1266295843
21
349.7485674944
0
LINE
8
10000_FRONT
62
7
6
CONTINUOUS
10
216.7806845843
20
349.0350534944
11
216.9590625843
21
349.2134324944
0
LINE
8
10000_FRONT
62
7
6
CONTINUOUS
10
216.7806845843
20
347.9647834944
11
217.0185225843
21
348.2026214944
0
LINE
8
10000_FRONT
62
7
6
CONTINUOUS
10
219.0401445843
20
350.0458644944
11
218.9806845843
21
349.9864054944
0
LINE
8
10000_FRONT
62
7
6
CONTINUOUS
10
218.9806845843
20
349.9864054944
11
218.7428465843
21
349.8080264944
0
LINE
8
10000_FRONT
62
7
6
CONTINUOUS
10
218.8023055843
20
349.5107294944
11
219.0401445843
21
349.6891074944
0
LINE
8
10000_FRONT
62
7
6
CONTINUOUS
10
213.2725765843
20
348.2026214944
11
213.0941975843
21
348.0837024944
0
LINE
8
10000_FRONT
62
7
6
CONTINUOUS
10
216.0077115843
20
349.9864054944
11
215.8293335843
21
349.8674864944
0
LINE
8
10000_FRONT
62
7
6
CONTINUOUS
10
218.7428465843
20
349.8080264944
11
218.5644675843
21
349.6891074944
0
LINE
8
10000_FRONT
62
7
6
CONTINUOUS
10
216.6617655843
20
348.2026214944
11
216.4833875843
21
348.0837024944
0
LINE
8
10000_FRONT
62
7
6
CONTINUOUS
10
212.7374405843
20
349.7485674944
11
212.8563595843
21
349.8080264944
0
LINE
8
10000_FRONT
62
7
6
CONTINUOUS
10
186.5630895843
20
336.3393354944
11
186.5904435843
21
336.3530114944
0
LINE
8
10000_FRONT
62
7
6
CONTINUOUS
10
213.2725765843
20
349.2134324944
11
213.1536575843
21
349.1539724944
0
LINE
8
10000_FRONT
62
7
6
CONTINUOUS
10
213.2725765843
20
348.9755944944
11
213.3914945843
21
349.0350534944
0
LINE
8
10000_FRONT
62
7
6
CONTINUOUS
10
216.1266295843
20
349.7485674944
11
216.2455495843
21
349.8080264944
0
LINE
8
10000_FRONT
62
7
6
CONTINUOUS
10
216.6617655843
20
349.2134324944
11
216.5428465843
21
349.1539724944
0
LINE
8
10000_FRONT
62
7
6
CONTINUOUS
10
216.6617655843
20
348.9755944944
11
216.7806845843
21
349.0350534944
0
LINE
8
10000_FRONT
62
7
6
CONTINUOUS
10
218.5644675843
20
349.3918104944
11
218.8023055843
21
349.5107294944
0
LINE
8
10000_FRONT
62
7
6
CONTINUOUS
10
186.5630895843
20
331.1393354944
11
186.5781795843
21
331.1468804944
0
LINE
8
10000_FRONT
62
7
6
CONTINUOUS
10
186.5630895843
20
325.9393354944
11
186.5904435843
21
325.9530114944
0
LINE
8
10000_FRONT
62
7
6
CONTINUOUS
10
186.5781795843
20
321.7143334944
11
186.5630895843
21
321.7067894944
0
LINE
8
10000_FRONT
62
7
6
CONTINUOUS
10
213.0941975843
20
347.8458644944
11
213.3914945843
21
347.9647834944
0
LINE
8
10000_FRONT
62
7
6
CONTINUOUS
10
216.4833875843
20
347.8458644944
11
216.7806845843
21
347.9647834944
0
LINE
8
10000_FRONT
62
7
6
CONTINUOUS
10
208.3374415843
20
349.8674864944
11
208.5158195843
21
349.9269454944
0
LINE
8
10000_FRONT
62
7
6
CONTINUOUS
10
208.8131165843
20
348.1431614944
11
208.6347385843
21
348.0837024944
0
LINE
8
10000_FRONT
62
7
6
CONTINUOUS
10
213.1536575843
20
349.1539724944
11
212.9752785843
21
349.0945134944
0
LINE
8
10000_FRONT
62
7
6
CONTINUOUS
10
216.5428465843
20
349.1539724944
11
216.3644675843
21
349.0945134944
0
LINE
8
13000_TOP
62
7
6
CONTINUOUS
10
214.0765125843
20
57.6828354944
11
213.9292425843
21
57.6689784944
0
LINE
8
13000_TOP
62
7
6
CONTINUOUS
10
217.9969365843
20
58.8284554944
11
217.8496665843
21
58.8145984944
0
LINE
8
13000_TOP
62
7
6
CONTINUOUS
10
214.2960265843
20
57.6937454944
11
214.0765125843
21
57.6828354944
0
LINE
8
13000_TOP
62
7
6
CONTINUOUS
10
217.8496665843
20
58.8145984944
11
217.6301525843
21
58.8036894944
0
LINE
8
13000_TOP
62
7
6
CONTINUOUS
10
191.5496665843
20
58.8145984944
11
191.3301525843
21
58.8036894944
0
LINE
8
13000_TOP
62
7
6
CONTINUOUS
10
183.0044475843
20
58.0705384944
11
182.8618265843
21
58.0656524944
0
LINE
8
13000_TOP
62
7
6
CONTINUOUS
10
214.5676145843
20
57.7007124944
11
214.2960265843
21
57.6937454944
0
LINE
8
13000_TOP
62
7
6
CONTINUOUS
10
217.6301525843
20
58.8036894944
11
217.3585645843
21
58.7967214944
0
LINE
8
13000_TOP
62
7
6
CONTINUOUS
10
191.3301525843
20
58.8036894944
11
191.0585645843
21
58.7967214944
0
LINE
8
13000_TOP
62
7
6
CONTINUOUS
10
214.5676145843
20
64.2007124944
11
214.2960265843
21
64.1937454944
0
LINE
8
13000_TOP
62
7
6
CONTINUOUS
10
188.2676145843
20
64.2007124944
11
187.9960265843
21
64.1937454944
0
LINE
8
13000_TOP
62
7
6
CONTINUOUS
10
217.6301525843
20
65.3036894944
11
217.3585645843
21
65.2967214944
0
LINE
8
13000_TOP
62
7
6
CONTINUOUS
10
183.2252505843
20
58.0743904944
11
183.0044475843
21
58.0705384944
0
LINE
8
13000_TOP
62
7
6
CONTINUOUS
10
183.5044575843
20
58.0768724944
11
183.2252505843
21
58.0743904944
0
LINE
8
13000_TOP
62
7
6
CONTINUOUS
10
214.8664445843
20
57.7031074944
11
214.5676145843
21
57.7007124944
0
LINE
8
13000_TOP
62
7
6
CONTINUOUS
10
217.3585645843
20
58.7967214944
11
217.0597345843
21
58.7943264944
0
LINE
8
13000_TOP
62
7
6
CONTINUOUS
10
191.0585645843
20
58.7967214944
11
190.7597345843
21
58.7943264944
0
LINE
8
13000_TOP
62
7
6
CONTINUOUS
10
214.8664445843
20
64.2031074944
11
214.5676145843
21
64.2007124944
0
LINE
8
13000_TOP
62
7
6
CONTINUOUS
10
188.5664445843
20
64.2031074944
11
188.2676145843
21
64.2007124944
0
LINE
8
13000_TOP
62
7
6
CONTINUOUS
10
217.3585645843
20
65.2967214944
11
217.0597345843
21
65.2943264944
0
LINE
8
13000_TOP
62
7
6
CONTINUOUS
10
191.0585645843
20
65.2967214944
11
190.7597345843
21
65.2943264944
0
LINE
8
13000_TOP
62
7
6
CONTINUOUS
10
183.8130895843
20
58.0777244944
11
183.5044575843
21
58.0768724944
0
LINE
8
13000_TOP
62
7
6
CONTINUOUS
10
183.8130895843
20
50.3987174944
11
221.7566065843
21
50.3987174944
0
LINE
8
13000_TOP
62
7
6
CONTINUOUS
10
184.1685735843
20
52.9987174944
11
222.8130895843
21
52.9987174944
0
LINE
8
13000_TOP
62
7
6
CONTINUOUS
10
221.2628795843
20
53.2487174944
11
222.8130895843
21
53.2487174944
0
LINE
8
13000_TOP
62
7
6
CONTINUOUS
10
214.8275975843
20
53.2967184944
11
204.2940955843
21
53.2967184944
0
LINE
8
13000_TOP
62
7
6
CONTINUOUS
10
220.9386185843
20
53.4487174944
11
220.1130895843
21
53.4487174944
0
LINE
8
13000_TOP
62
7
6
CONTINUOUS
10
216.2130195843
20
53.4487174944
11
215.0900765843
21
53.4487174944
0
LINE
8
13000_TOP
62
7
6
CONTINUOUS
10
215.4239975843
20
54.1987174944
11
216.5462355843
21
54.1987174944
0
LINE
8
13000_TOP
62
7
6
CONTINUOUS
10
220.1130895843
20
54.1987174944
11
220.7130895843
21
54.1987174944
0
LINE
8
13000_TOP
62
7
6
CONTINUOUS
10
203.8630895843
20
54.6487174944
11
215.6243505843
21
54.6487174944
0
LINE
8
13000_TOP
62
7
6
CONTINUOUS
10
215.6351015843
20
54.6556984944
11
214.8664445843
21
54.6556984944
0
LINE
8
13000_TOP
62
7
6
CONTINUOUS
10
215.6512275843
20
54.6661704944
11
216.7539195843
21
54.6661704944
0
LINE
8
13000_TOP
62
7
6
CONTINUOUS
10
220.1130895843
20
54.6661704944
11
220.7130895843
21
54.6661704944
0
LINE
8
13000_TOP
62
7
6
CONTINUOUS
10
220.5130895843
20
54.6727164944
11
220.7065445843
21
54.6727164944
0
LINE
8
13000_TOP
62
7
6
CONTINUOUS
10
220.3165545843
20
54.6897334944
11
220.5130895843
21
54.6897334944
0
LINE
8
13000_TOP
62
7
6
CONTINUOUS
10
220.3168135843
20
54.7194214944
11
220.1130895843
21
54.7194214944
0
LINE
8
13000_TOP
62
7
6
CONTINUOUS
10
187.7361235843
20
57.0987174944
11
199.3947565843
21
57.0987174944
0
LINE
8
13000_TOP
62
7
6
CONTINUOUS
10
219.9524525843
20
57.3638224944
11
217.9524525843
21
57.3638224944
0
LINE
8
13000_TOP
62
7
6
CONTINUOUS
10
220.6895275843
20
57.4987174944
11
216.9381505843
21
57.4987174944
0
LINE
8
13000_TOP
62
7
6
CONTINUOUS
10
203.8630895843
20
57.4987174944
11
213.7130895843
21
57.4987174944
0
LINE
8
13000_TOP
62
7
6
CONTINUOUS
10
220.7130895843
20
57.6402184944
11
216.9753585843
21
57.6402184944
0
LINE
8
13000_TOP
62
7
6
CONTINUOUS
10
216.9918955843
20
57.7031074944
11
214.8664445843
21
57.7031074944
0
LINE
8
13000_TOP
62
7
6
CONTINUOUS
10
191.3130895843
20
57.9134964944
11
188.3130895843
21
57.9134964944
0
LINE
8
13000_TOP
62
7
6
CONTINUOUS
10
191.3049345843
20
58.0460344944
11
188.3212445843
21
58.0460344944
0
LINE
8
13000_TOP
62
7
6
CONTINUOUS
10
183.8130895843
20
58.0777244944
11
202.3875515843
21
58.0777244944
0
LINE
8
13000_TOP
62
7
6
CONTINUOUS
10
217.0597345843
20
58.7943264944
11
214.8664445843
21
58.7943264944
0
LINE
8
13000_TOP
62
7
6
CONTINUOUS
10
190.7597345843
20
58.7943264944
11
188.5664445843
21
58.7943264944
0
LINE
8
13000_TOP
62
7
6
CONTINUOUS
10
184.9130895843
20
58.9987174944
11
187.4130895843
21
58.9987174944
0
LINE
8
13000_TOP
62
7
6
CONTINUOUS
10
191.9130895843
20
58.9987174944
11
201.7630895843
21
58.9987174944
0
LINE
8
13000_TOP
62
7
6
CONTINUOUS
10
203.8630895843
20
58.9987174944
11
213.7130895843
21
58.9987174944
0
LINE
8
13000_TOP
62
7
6
CONTINUOUS
10
218.2130895843
20
58.9987174944
11
220.6895275843
21
58.9987174944
0
LINE
8
13000_TOP
62
7
6
CONTINUOUS
10
187.4130895843
20
63.9987174944
11
184.9130895843
21
63.9987174944
0
LINE
8
13000_TOP
62
7
6
CONTINUOUS
10
191.9130895843
20
63.9987174944
11
201.7630895843
21
63.9987174944
0
LINE
8
13000_TOP
62
7
6
CONTINUOUS
10
203.8630895843
20
63.9987174944
11
213.7130895843
21
63.9987174944
0
LINE
8
13000_TOP
62
7
6
CONTINUOUS
10
218.2130895843
20
63.9987174944
11
220.6895275843
21
63.9987174944
0
LINE
8
13000_TOP
62
7
6
CONTINUOUS
10
217.0597345843
20
64.2031074944
11
214.8664445843
21
64.2031074944
0
LINE
8
13000_TOP
62
7
6
CONTINUOUS
10
190.7597345843
20
64.2031074944
11
188.5664445843
21
64.2031074944
0
LINE
8
13000_TOP
62
7
6
CONTINUOUS
10
217.0597345843
20
65.2943264944
11
214.8664445843
21
65.2943264944
0
LINE
8
13000_TOP
62
7
6
CONTINUOUS
10
190.7597345843
20
65.2943264944
11
188.5664445843
21
65.2943264944
0
LINE
8
13000_TOP
62
7
6
CONTINUOUS
10
184.9130895843
20
65.4987174944
11
187.4130895843
21
65.4987174944
0
LINE
8
13000_TOP
62
7
6
CONTINUOUS
10
191.9130895843
20
65.4987174944
11
201.7630895843
21
65.4987174944
0
LINE
8
13000_TOP
62
7
6
CONTINUOUS
10
203.8630895843
20
65.4987174944
11
213.7130895843
21
65.4987174944
0
LINE
8
13000_TOP
62
7
6
CONTINUOUS
10
218.2130895843
20
65.4987174944
11
220.6895275843
21
65.4987174944
0
LINE
8
13000_TOP
62
7
6
CONTINUOUS
10
214.8664445843
20
54.6556984944
11
214.6777745843
21
54.6558554944
0
LINE
8
13000_TOP
62
7
6
CONTINUOUS
10
214.6777745843
20
54.6558554944
11
214.4958815843
21
54.6563204944
0
LINE
8
13000_TOP
62
7
6
CONTINUOUS
10
214.4958815843
20
54.6563204944
11
214.3272995843
21
54.6570754944
0
LINE
8
13000_TOP
62
7
6
CONTINUOUS
10
214.3272995843
20
54.6570754944
11
214.1780835843
21
54.6580954944
0
LINE
8
13000_TOP
62
7
6
CONTINUOUS
10
188.5664445843
20
58.7943264944
11
188.2676145843
21
58.7967214944
0
LINE
8
13000_TOP
62
7
6
CONTINUOUS
10
214.8664445843
20
58.7943264944
11
214.5676145843
21
58.7967214944
0
LINE
8
13000_TOP
62
7
6
CONTINUOUS
10
191.0585645843
20
64.2007124944
11
190.7597345843
21
64.2031074944
0
LINE
8
13000_TOP
62
7
6
CONTINUOUS
10
217.3585645843
20
64.2007124944
11
217.0597345843
21
64.2031074944
0
LINE
8
13000_TOP
62
7
6
CONTINUOUS
10
188.5664445843
20
65.2943264944
11
188.2676145843
21
65.2967214944
0
LINE
8
13000_TOP
62
7
6
CONTINUOUS
10
214.8664445843
20
65.2943264944
11
214.5676145843
21
65.2967214944
0
LINE
8
13000_TOP
62
7
6
CONTINUOUS
10
214.1780835843
20
54.6580954944
11
214.0535935843
21
54.6593424944
0
LINE
8
13000_TOP
62
7
6
CONTINUOUS
10
214.0535935843
20
54.6593424944
11
213.9582985843
21
54.6607724944
0
LINE
8
13000_TOP
62
7
6
CONTINUOUS
10
213.9582985843
20
54.6607724944
11
213.8956225843
21
54.6623324944
0
LINE
8
13000_TOP
62
7
6
CONTINUOUS
10
188.2676145843
20
58.7967214944
11
187.9960265843
21
58.8036894944
0
LINE
8
13000_TOP
62
7
6
CONTINUOUS
10
214.5676145843
20
58.7967214944
11
214.2960265843
21
58.8036894944
0
LINE
8
13000_TOP
62
7
6
CONTINUOUS
10
191.3301525843
20
64.1937454944
11
191.0585645843
21
64.2007124944
0
LINE
8
13000_TOP
62
7
6
CONTINUOUS
10
217.6301525843
20
64.1937454944
11
217.3585645843
21
64.2007124944
0
LINE
8
13000_TOP
62
7
6
CONTINUOUS
10
188.2676145843
20
65.2967214944
11
187.9960265843
21
65.3036894944
0
LINE
8
13000_TOP
62
7
6
CONTINUOUS
10
214.5676145843
20
65.2967214944
11
214.2960265843
21
65.3036894944
0
LINE
8
13000_TOP
62
7
6
CONTINUOUS
10
187.9960265843
20
58.8036894944
11
187.7765125843
21
58.8145984944
0
LINE
8
13000_TOP
62
7
6
CONTINUOUS
10
214.2960265843
20
58.8036894944
11
214.0765125843
21
58.8145984944
0
LINE
8
13000_TOP
62
7
6
CONTINUOUS
10
191.5496665843
20
64.1828354944
11
191.3301525843
21
64.1937454944
0
LINE
8
13000_TOP
62
7
6
CONTINUOUS
10
187.9960265843
20
65.3036894944
11
187.7765125843
21
65.3145984944
0
LINE
8
13000_TOP
62
7
6
CONTINUOUS
10
217.8496665843
20
64.1828354944
11
217.6301525843
21
64.1937454944
0
LINE
8
13000_TOP
62
7
6
CONTINUOUS
10
214.2960265843
20
65.3036894944
11
214.0765125843
21
65.3145984944
0
LINE
8
13000_TOP
62
7
6
CONTINUOUS
10
191.5496665843
20
70.6828354944
11
191.3301525843
21
70.6937454944
0
LINE
8
13000_TOP
62
7
6
CONTINUOUS
10
187.9960265843
20
71.8036894944
11
187.7765125843
21
71.8145984944
0
LINE
8
13000_TOP
62
7
6
CONTINUOUS
10
217.8496665843
20
70.6828354944
11
217.6301525843
21
70.6937454944
0
LINE
8
13000_TOP
62
7
6
CONTINUOUS
10
213.8956225843
20
54.6623324944
11
213.8678155843
21
54.6639684944
0
LINE
8
13000_TOP
62
7
6
CONTINUOUS
10
187.7765125843
20
58.8145984944
11
187.6292425843
21
58.8284554944
0
LINE
8
13000_TOP
62
7
6
CONTINUOUS
10
214.0765125843
20
58.8145984944
11
213.9292425843
21
58.8284554944
0
LINE
8
13000_TOP
62
7
6
CONTINUOUS
10
191.6969365843
20
64.1689784944
11
191.5496665843
21
64.1828354944
0
LINE
8
13000_TOP
62
7
6
CONTINUOUS
10
187.7765125843
20
65.3145984944
11
187.6292425843
21
65.3284554944
0
LINE
8
13000_TOP
62
7
6
CONTINUOUS
10
217.9969365843
20
64.1689784944
11
217.8496665843
21
64.1828354944
0
LINE
8
13000_TOP
62
7
6
CONTINUOUS
10
214.0765125843
20
65.3145984944
11
213.9292425843
21
65.3284554944
0
LINE
8
13000_TOP
62
7
6
CONTINUOUS
10
191.6969365843
20
70.6689784944
11
191.5496665843
21
70.6828354944
0
LINE
8
13000_TOP
62
7
6
CONTINUOUS
10
187.7765125843
20
71.8145984944
11
187.6292425843
21
71.8284554944
0
LINE
8
13000_TOP
62
7
6
CONTINUOUS
10
217.9969365843
20
70.6689784944
11
217.8496665843
21
70.6828354944
0
LINE
8
13000_TOP
62
7
6
CONTINUOUS
10
214.0765125843
20
71.8145984944
11
213.9292425843
21
71.8284554944
0
LINE
8
91000_TIP
62
7
6
CONTINUOUS
10
420.4356590000
20
16.3638180000
11
430.4356580000
21
13.8638180000
0
LINE
8
13000_TOP
62
7
6
CONTINUOUS
10
191.7583645843
20
70.6534424944
11
191.6969365843
21
70.6689784944
0
LINE
8
13000_TOP
62
7
6
CONTINUOUS
10
187.6292425843
20
71.8284554944
11
187.5678155843
21
71.8439914944
0
LINE
8
13000_TOP
62
7
6
CONTINUOUS
10
218.0583645843
20
64.1534424944
11
217.9969365843
21
64.1689784944
0
LINE
8
13000_TOP
62
7
6
CONTINUOUS
10
213.9292425843
20
65.3284554944
11
213.8678155843
21
65.3439914944
0
LINE
8
13000_TOP
62
7
6
CONTINUOUS
10
191.7583645843
20
77.1534424944
11
191.6969365843
21
77.1689784944
0
LINE
8
13000_TOP
62
7
6
CONTINUOUS
10
187.6292425843
20
78.3284554944
11
187.5678155843
21
78.3439914944
0
LINE
8
13000_TOP
62
7
6
CONTINUOUS
10
218.0583645843
20
70.6534424944
11
217.9969365843
21
70.6689784944
0
LINE
8
13000_TOP
62
7
6
CONTINUOUS
10
213.9292425843
20
71.8284554944
11
213.8678155843
21
71.8439914944
0
LINE
8
13000_TOP
62
7
6
CONTINUOUS
10
191.7583645843
20
83.6534424944
11
191.6969365843
21
83.6689784944
0
LINE
8
13000_TOP
62
7
6
CONTINUOUS
10
187.6292425843
20
84.8284554944
11
187.5678155843
21
84.8439914944
0
LINE
8
13000_TOP
62
7
6
CONTINUOUS
10
218.0583645843
20
77.1534424944
11
217.9969365843
21
77.1689784944
0
LINE
8
13000_TOP
62
7
6
CONTINUOUS
10
213.9292425843
20
78.3284554944
11
213.8678155843
21
78.3439914944
0
LINE
8
13000_TOP
62
7
6
CONTINUOUS
10
213.8678155843
20
65.3439914944
11
213.7130895843
21
65.4987174944
0
LINE
8
13000_TOP
62
7
6
CONTINUOUS
10
191.9130895843
20
89.9987174944
11
191.7583645843
21
90.1534424944
0
LINE
8
13000_TOP
62
7
6
CONTINUOUS
10
218.2130895843
20
63.9987174944
11
218.0583645843
21
64.1534424944
0
LINE
8
13000_TOP
62
7
6
CONTINUOUS
10
213.8678155843
20
71.8439914944
11
213.7130895843
21
71.9987174944
0
LINE
8
13000_TOP
62
7
6
CONTINUOUS
10
218.2130895843
20
70.4987174944
11
218.0583645843
21
70.6534424944
0
LINE
8
13000_TOP
62
7
6
CONTINUOUS
10
213.8678155843
20
78.3439914944
11
213.7130895843
21
78.4987174944
0
LINE
8
13000_TOP
62
7
6
CONTINUOUS
10
218.2130895843
20
76.9987174944
11
218.0583645843
21
77.1534424944
0
LINE
8
13000_TOP
62
7
6
CONTINUOUS
10
213.8678155843
20
84.8439914944
11
213.7130895843
21
84.9987174944
0
LINE
8
13000_TOP
62
7
6
CONTINUOUS
10
218.2130895843
20
83.4987174944
11
218.0583645843
21
83.6534424944
0
LINE
8
13000_TOP
62
7
6
CONTINUOUS
10
191.3130895843
20
58.0297234944
11
191.3049345843
21
58.0460344944
0
LINE
8
10000_FRONT
62
7
6
CONTINUOUS
10
207.7428465843
20
349.6296484944
11
207.6833865843
21
349.4512694944
0
LINE
8
10000_FRONT
62
7
6
CONTINUOUS
10
207.9806845843
20
349.3918104944
11
208.0401435843
21
349.5701884944
0
LINE
8
10000_FRONT
62
7
6
CONTINUOUS
10
209.0509545843
20
348.4999184944
11
208.9914955843
21
348.3215404944
0
LINE
8
10000_FRONT
62
7
6
CONTINUOUS
10
209.2887925843
20
348.2026214944
11
209.3482515843
21
348.3809994944
0
LINE
8
10000_FRONT
62
7
6
CONTINUOUS
10
212.6185225843
20
349.5107294944
11
212.6779815843
21
349.6891074944
0
LINE
8
10000_FRONT
62
7
6
CONTINUOUS
10
213.5698735843
20
349.2134324944
11
213.6293335843
21
349.3918104944
0
LINE
8
10000_FRONT
62
7
6
CONTINUOUS
10
213.6293335843
20
348.2026214944
11
213.6887925843
21
348.3809994944
0
LINE
8
10000_FRONT
62
7
6
CONTINUOUS
10
210.8941975843
20
349.3918104944
11
210.8347385843
21
349.2728914944
0
LINE
8
10000_FRONT
62
7
6
CONTINUOUS
10
211.0725765843
20
349.0945134944
11
211.1914955843
21
349.3323504944
0
LINE
8
10000_FRONT
62
7
6
CONTINUOUS
10
212.4401435843
20
349.8674864944
11
212.3212245843
21
349.6296484944
0
LINE
8
10000_FRONT
62
7
6
CONTINUOUS
10
213.3320355843
20
349.3323504944
11
213.2725765843
21
349.2134324944
0
LINE
8
10000_FRONT
62
7
6
CONTINUOUS
10
215.8293335843
20
349.8674864944
11
215.7104135843
21
349.6296484944
0
LINE
8
10000_FRONT
62
7
6
CONTINUOUS
10
216.7212245843
20
349.3323504944
11
216.6617655843
21
349.2134324944
0
LINE
8
10000_FRONT
62
7
6
CONTINUOUS
10
192.8550485843
20
284.9029564944
11
192.6820755843
21
284.5570104944
0
LINE
8
10000_FRONT
62
7
6
CONTINUOUS
10
193.1145075843
20
284.4705244944
11
193.2009945843
21
284.6434964944
0
LINE
8
10000_FRONT
62
7
6
CONTINUOUS
10
194.5847785843
20
282.7407944944
11
194.4982915843
21
282.5678214944
0
LINE
8
10000_FRONT
62
7
6
CONTINUOUS
10
193.2009945843
20
284.6434964944
11
193.2874805843
21
284.7299834944
0
LINE
8
10000_FRONT
62
7
6
CONTINUOUS
10
194.4982915843
20
282.5678214944
11
194.2388325843
21
282.3083614944
0
LINE
8
10000_FRONT
62
7
6
CONTINUOUS
10
194.6712645843
20
282.1353884944
11
194.9307245843
21
282.3948484944
0
LINE
8
13000_TOP
62
7
6
CONTINUOUS
10
213.9292425843
20
57.6689784944
11
213.8678155843
21
57.6534424944
0
LINE
8
13000_TOP
62
7
6
CONTINUOUS
10
218.0583645843
20
58.8439914944
11
217.9969365843
21
58.8284554944
0
LINE
8
13000_TOP
62
7
6
CONTINUOUS
10
214.8275975843
20
53.2967184944
11
214.9401265843
21
53.3186264944
0
LINE
8
13000_TOP
62
7
6
CONTINUOUS
10
182.8618265843
20
58.0656524944
11
182.8130895843
21
58.0602694944
0
LINE
8
13000_TOP
62
7
6
CONTINUOUS
10
191.6969365843
20
58.8284554944
11
191.5496665843
21
58.8145984944
0
LINE
8
13000_TOP
62
7
6
CONTINUOUS
10
214.0765125843
20
64.1828354944
11
213.9292425843
21
64.1689784944
0
LINE
8
13000_TOP
62
7
6
CONTINUOUS
10
217.9969365843
20
65.3284554944
11
217.8496665843
21
65.3145984944
0
LINE
8
13000_TOP
62
7
6
CONTINUOUS
10
187.7765125843
20
64.1828354944
11
187.6292425843
21
64.1689784944
0
LINE
8
13000_TOP
62
7
6
CONTINUOUS
10
191.6969365843
20
65.3284554944
11
191.5496665843
21
65.3145984944
0
LINE
8
13000_TOP
62
7
6
CONTINUOUS
10
214.0765125843
20
70.6828354944
11
213.9292425843
21
70.6689784944
0
LINE
8
13000_TOP
62
7
6
CONTINUOUS
10
217.9969365843
20
71.8284554944
11
217.8496665843
21
71.8145984944
0
LINE
8
13000_TOP
62
7
6
CONTINUOUS
10
187.7765125843
20
70.6828354944
11
187.6292425843
21
70.6689784944
0
LINE
8
13000_TOP
62
7
6
CONTINUOUS
10
191.6969365843
20
71.8284554944
11
191.5496665843
21
71.8145984944
0
LINE
8
13000_TOP
62
7
6
CONTINUOUS
10
214.0765125843
20
77.1828354944
11
213.9292425843
21
77.1689784944
0
LINE
8
13000_TOP
62
7
6
CONTINUOUS
10
217.9969365843
20
78.3284554944
11
217.8496665843
21
78.3145984944
0
LINE
8
13000_TOP
62
7
6
CONTINUOUS
10
187.7765125843
20
77.1828354944
11
187.6292425843
21
77.1689784944
0
LINE
8
13000_TOP
62
7
6
CONTINUOUS
10
214.2960265843
20
64.1937454944
11
214.0765125843
21
64.1828354944
0
LINE
8
13000_TOP
62
7
6
CONTINUOUS
10
217.8496665843
20
65.3145984944
11
217.6301525843
21
65.3036894944
0
LINE
8
13000_TOP
62
7
6
CONTINUOUS
10
187.9960265843
20
64.1937454944
11
187.7765125843
21
64.1828354944
0
LINE
8
13000_TOP
62
7
6
CONTINUOUS
10
191.5496665843
20
65.3145984944
11
191.3301525843
21
65.3036894944
0
LINE
8
13000_TOP
62
7
6
CONTINUOUS
10
214.2960265843
20
70.6937454944
11
214.0765125843
21
70.6828354944
0
LINE
8
13000_TOP
62
7
6
CONTINUOUS
10
217.8496665843
20
71.8145984944
11
217.6301525843
21
71.8036894944
0
LINE
8
13000_TOP
62
7
6
CONTINUOUS
10
187.9960265843
20
70.6937454944
11
187.7765125843
21
70.6828354944
0
LINE
8
13000_TOP
62
7
6
CONTINUOUS
10
191.5496665843
20
71.8145984944
11
191.3301525843
21
71.8036894944
0
LINE
8
13000_TOP
62
7
6
CONTINUOUS
10
214.2960265843
20
77.1937454944
11
214.0765125843
21
77.1828354944
0
LINE
8
13000_TOP
62
7
6
CONTINUOUS
10
217.8496665843
20
78.3145984944
11
217.6301525843
21
78.3036894944
0
LINE
8
13000_TOP
62
7
6
CONTINUOUS
10
187.9960265843
20
77.1937454944
11
187.7765125843
21
77.1828354944
0
LINE
8
13000_TOP
62
7
6
CONTINUOUS
10
191.5496665843
20
78.3145984944
11
191.3301525843
21
78.3036894944
0
LINE
8
13000_TOP
62
7
6
CONTINUOUS
10
214.2960265843
20
83.6937454944
11
214.0765125843
21
83.6828354944
0
LINE
8
13000_TOP
62
7
6
CONTINUOUS
10
191.3301525843
20
65.3036894944
11
191.0585645843
21
65.2967214944
0
LINE
8
13000_TOP
62
7
6
CONTINUOUS
10
214.5676145843
20
70.7007124944
11
214.2960265843
21
70.6937454944
0
LINE
8
13000_TOP
62
7
6
CONTINUOUS
10
188.2676145843
20
70.7007124944
11
187.9960265843
21
70.6937454944
0
LINE
8
13000_TOP
62
7
6
CONTINUOUS
10
217.6301525843
20
71.8036894944
11
217.3585645843
21
71.7967214944
0
LINE
8
13000_TOP
62
7
6
CONTINUOUS
10
191.3301525843
20
71.8036894944
11
191.0585645843
21
71.7967214944
0
LINE
8
13000_TOP
62
7
6
CONTINUOUS
10
214.5676145843
20
77.2007124944
11
214.2960265843
21
77.1937454944
0
LINE
8
13000_TOP
62
7
6
CONTINUOUS
10
188.2676145843
20
77.2007124944
11
187.9960265843
21
77.1937454944
0
LINE
8
13000_TOP
62
7
6
CONTINUOUS
10
217.6301525843
20
78.3036894944
11
217.3585645843
21
78.2967214944
0
LINE
8
13000_TOP
62
7
6
CONTINUOUS
10
191.3301525843
20
78.3036894944
11
191.0585645843
21
78.2967214944
0
LINE
8
13000_TOP
62
7
6
CONTINUOUS
10
214.5676145843
20
83.7007124944
11
214.2960265843
21
83.6937454944
0
LINE
8
13000_TOP
62
7
6
CONTINUOUS
10
188.2676145843
20
83.7007124944
11
187.9960265843
21
83.6937454944
0
LINE
8
13000_TOP
62
7
6
CONTINUOUS
10
217.6301525843
20
84.8036894944
11
217.3585645843
21
84.7967214944
0
LINE
8
13000_TOP
62
7
6
CONTINUOUS
10
191.3301525843
20
84.8036894944
11
191.0585645843
21
84.7967214944
0
LINE
8
13000_TOP
62
7
6
CONTINUOUS
10
214.8664445843
20
70.7031074944
11
214.5676145843
21
70.7007124944
0
LINE
8
13000_TOP
62
7
6
CONTINUOUS
10
188.5664445843
20
70.7031074944
11
188.2676145843
21
70.7007124944
0
LINE
8
13000_TOP
62
7
6
CONTINUOUS
10
217.3585645843
20
71.7967214944
11
217.0597345843
21
71.7943264944
0
LINE
8
13000_TOP
62
7
6
CONTINUOUS
10
191.0585645843
20
71.7967214944
11
190.7597345843
21
71.7943264944
0
LINE
8
13000_TOP
62
7
6
CONTINUOUS
10
214.8664445843
20
77.2031074944
11
214.5676145843
21
77.2007124944
0
LINE
8
13000_TOP
62
7
6
CONTINUOUS
10
188.5664445843
20
77.2031074944
11
188.2676145843
21
77.2007124944
0
LINE
8
13000_TOP
62
7
6
CONTINUOUS
10
217.3585645843
20
78.2967214944
11
217.0597345843
21
78.2943264944
0
LINE
8
13000_TOP
62
7
6
CONTINUOUS
10
191.0585645843
20
78.2967214944
11
190.7597345843
21
78.2943264944
0
LINE
8
13000_TOP
62
7
6
CONTINUOUS
10
214.8664445843
20
83.7031074944
11
214.5676145843
21
83.7007124944
0
LINE
8
13000_TOP
62
7
6
CONTINUOUS
10
188.5664445843
20
83.7031074944
11
188.2676145843
21
83.7007124944
0
LINE
8
13000_TOP
62
7
6
CONTINUOUS
10
217.3585645843
20
84.7967214944
11
217.0597345843
21
84.7943264944
0
LINE
8
13000_TOP
62
7
6
CONTINUOUS
10
191.0585645843
20
84.7967214944
11
190.7597345843
21
84.7943264944
0
LINE
8
13000_TOP
62
7
6
CONTINUOUS
10
187.4130895843
20
70.4987174944
11
184.9130895843
21
70.4987174944
0
LINE
8
13000_TOP
62
7
6
CONTINUOUS
10
191.9130895843
20
70.4987174944
11
201.7630895843
21
70.4987174944
0
LINE
8
13000_TOP
62
7
6
CONTINUOUS
10
203.8630895843
20
70.4987174944
11
213.7130895843
21
70.4987174944
0
LINE
8
13000_TOP
62
7
6
CONTINUOUS
10
218.2130895843
20
70.4987174944
11
220.6895275843
21
70.4987174944
0
LINE
8
13000_TOP
62
7
6
CONTINUOUS
10
217.0597345843
20
70.7031074944
11
214.8664445843
21
70.7031074944
0
LINE
8
13000_TOP
62
7
6
CONTINUOUS
10
190.7597345843
20
70.7031074944
11
188.5664445843
21
70.7031074944
0
LINE
8
13000_TOP
62
7
6
CONTINUOUS
10
217.0597345843
20
71.7943264944
11
214.8664445843
21
71.7943264944
0
LINE
8
13000_TOP
62
7
6
CONTINUOUS
10
190.7597345843
20
71.7943264944
11
188.5664445843
21
71.7943264944
0
LINE
8
13000_TOP
62
7
6
CONTINUOUS
10
184.9130895843
20
71.9987174944
11
187.4130895843
21
71.9987174944
0
LINE
8
13000_TOP
62
7
6
CONTINUOUS
10
191.9130895843
20
71.9987174944
11
201.7630895843
21
71.9987174944
0
LINE
8
13000_TOP
62
7
6
CONTINUOUS
10
203.8630895843
20
71.9987174944
11
213.7130895843
21
71.9987174944
0
LINE
8
13000_TOP
62
7
6
CONTINUOUS
10
218.2130895843
20
71.9987174944
11
220.6895275843
21
71.9987174944
0
LINE
8
13000_TOP
62
7
6
CONTINUOUS
10
187.4130895843
20
76.9987174944
11
184.9130895843
21
76.9987174944
0
LINE
8
13000_TOP
62
7
6
CONTINUOUS
10
191.9130895843
20
76.9987174944
11
201.7630895843
21
76.9987174944
0
LINE
8
13000_TOP
62
7
6
CONTINUOUS
10
203.8630895843
20
76.9987174944
11
213.7130895843
21
76.9987174944
0
LINE
8
13000_TOP
62
7
6
CONTINUOUS
10
218.2130895843
20
76.9987174944
11
220.6895275843
21
76.9987174944
0
LINE
8
13000_TOP
62
7
6
CONTINUOUS
10
217.0597345843
20
77.2031074944
11
214.8664445843
21
77.2031074944
0
LINE
8
13000_TOP
62
7
6
CONTINUOUS
10
190.7597345843
20
77.2031074944
11
188.5664445843
21
77.2031074944
0
LINE
8
13000_TOP
62
7
6
CONTINUOUS
10
217.0597345843
20
78.2943264944
11
214.8664445843
21
78.2943264944
0
LINE
8
13000_TOP
62
7
6
CONTINUOUS
10
190.7597345843
20
78.2943264944
11
188.5664445843
21
78.2943264944
0
LINE
8
13000_TOP
62
7
6
CONTINUOUS
10
184.9130895843
20
78.4987174944
11
187.4130895843
21
78.4987174944
0
LINE
8
13000_TOP
62
7
6
CONTINUOUS
10
191.9130895843
20
78.4987174944
11
201.7630895843
21
78.4987174944
0
LINE
8
13000_TOP
62
7
6
CONTINUOUS
10
203.8630895843
20
78.4987174944
11
213.7130895843
21
78.4987174944
0
LINE
8
13000_TOP
62
7
6
CONTINUOUS
10
218.2130895843
20
78.4987174944
11
220.6895275843
21
78.4987174944
0
LINE
8
13000_TOP
62
7
6
CONTINUOUS
10
187.4130895843
20
83.4987174944
11
184.9130895843
21
83.4987174944
0
LINE
8
13000_TOP
62
7
6
CONTINUOUS
10
191.9130895843
20
83.4987174944
11
201.7630895843
21
83.4987174944
0
LINE
8
13000_TOP
62
7
6
CONTINUOUS
10
203.8630895843
20
83.4987174944
11
213.7130895843
21
83.4987174944
0
LINE
8
13000_TOP
62
7
6
CONTINUOUS
10
218.2130895843
20
83.4987174944
11
220.6895275843
21
83.4987174944
0
LINE
8
13000_TOP
62
7
6
CONTINUOUS
10
217.0597345843
20
83.7031074944
11
214.8664445843
21
83.7031074944
0
LINE
8
13000_TOP
62
7
6
CONTINUOUS
10
190.7597345843
20
83.7031074944
11
188.5664445843
21
83.7031074944
0
LINE
8
13000_TOP
62
7
6
CONTINUOUS
10
217.0597345843
20
84.7943264944
11
214.8664445843
21
84.7943264944
0
LINE
8
13000_TOP
62
7
6
CONTINUOUS
10
190.7597345843
20
84.7943264944
11
188.5664445843
21
84.7943264944
0
LINE
8
13000_TOP
62
7
6
CONTINUOUS
10
184.9130895843
20
84.9987174944
11
187.4130895843
21
84.9987174944
0
LINE
8
13000_TOP
62
7
6
CONTINUOUS
10
191.9130895843
20
84.9987174944
11
201.7630895843
21
84.9987174944
0
LINE
8
13000_TOP
62
7
6
CONTINUOUS
10
203.8630895843
20
84.9987174944
11
213.7130895843
21
84.9987174944
0
LINE
8
13000_TOP
62
7
6
CONTINUOUS
10
218.2130895843
20
84.9987174944
11
220.6895275843
21
84.9987174944
0
LINE
8
13000_TOP
62
7
6
CONTINUOUS
10
191.0585645843
20
70.7007124944
11
190.7597345843
21
70.7031074944
0
LINE
8
13000_TOP
62
7
6
CONTINUOUS
10
217.3585645843
20
70.7007124944
11
217.0597345843
21
70.7031074944
0
LINE
8
13000_TOP
62
7
6
CONTINUOUS
10
188.5664445843
20
71.7943264944
11
188.2676145843
21
71.7967214944
0
LINE
8
13000_TOP
62
7
6
CONTINUOUS
10
214.8664445843
20
71.7943264944
11
214.5676145843
21
71.7967214944
0
LINE
8
13000_TOP
62
7
6
CONTINUOUS
10
191.0585645843
20
77.2007124944
11
190.7597345843
21
77.2031074944
0
LINE
8
13000_TOP
62
7
6
CONTINUOUS
10
217.3585645843
20
77.2007124944
11
217.0597345843
21
77.2031074944
0
LINE
8
13000_TOP
62
7
6
CONTINUOUS
10
188.5664445843
20
78.2943264944
11
188.2676145843
21
78.2967214944
0
LINE
8
13000_TOP
62
7
6
CONTINUOUS
10
214.8664445843
20
78.2943264944
11
214.5676145843
21
78.2967214944
0
LINE
8
13000_TOP
62
7
6
CONTINUOUS
10
191.0585645843
20
83.7007124944
11
190.7597345843
21
83.7031074944
0
LINE
8
13000_TOP
62
7
6
CONTINUOUS
10
217.3585645843
20
83.7007124944
11
217.0597345843
21
83.7031074944
0
LINE
8
13000_TOP
62
7
6
CONTINUOUS
10
188.5664445843
20
84.7943264944
11
188.2676145843
21
84.7967214944
0
LINE
8
13000_TOP
62
7
6
CONTINUOUS
10
214.8664445843
20
84.7943264944
11
214.5676145843
21
84.7967214944
0
LINE
8
13000_TOP
62
7
6
CONTINUOUS
10
191.3301525843
20
70.6937454944
11
191.0585645843
21
70.7007124944
0
LINE
8
13000_TOP
62
7
6
CONTINUOUS
10
217.6301525843
20
70.6937454944
11
217.3585645843
21
70.7007124944
0
LINE
8
13000_TOP
62
7
6
CONTINUOUS
10
188.2676145843
20
71.7967214944
11
187.9960265843
21
71.8036894944
0
LINE
8
13000_TOP
62
7
6
CONTINUOUS
10
214.5676145843
20
71.7967214944
11
214.2960265843
21
71.8036894944
0
LINE
8
13000_TOP
62
7
6
CONTINUOUS
10
191.3301525843
20
77.1937454944
11
191.0585645843
21
77.2007124944
0
LINE
8
13000_TOP
62
7
6
CONTINUOUS
10
217.6301525843
20
77.1937454944
11
217.3585645843
21
77.2007124944
0
LINE
8
13000_TOP
62
7
6
CONTINUOUS
10
188.2676145843
20
78.2967214944
11
187.9960265843
21
78.3036894944
0
LINE
8
13000_TOP
62
7
6
CONTINUOUS
10
214.5676145843
20
78.2967214944
11
214.2960265843
21
78.3036894944
0
LINE
8
13000_TOP
62
7
6
CONTINUOUS
10
191.3301525843
20
83.6937454944
11
191.0585645843
21
83.7007124944
0
LINE
8
13000_TOP
62
7
6
CONTINUOUS
10
217.6301525843
20
83.6937454944
11
217.3585645843
21
83.7007124944
0
LINE
8
13000_TOP
62
7
6
CONTINUOUS
10
188.2676145843
20
84.7967214944
11
187.9960265843
21
84.8036894944
0
LINE
8
13000_TOP
62
7
6
CONTINUOUS
10
214.5676145843
20
84.7967214944
11
214.2960265843
21
84.8036894944
0
LINE
8
13000_TOP
62
7
6
CONTINUOUS
10
191.3301525843
20
90.1937454944
11
191.0585645843
21
90.2007124944
0
LINE
8
13000_TOP
62
7
6
CONTINUOUS
10
217.6301525843
20
90.1937454944
11
217.3585645843
21
90.2007124944
0
LINE
8
13000_TOP
62
7
6
CONTINUOUS
10
214.2960265843
20
71.8036894944
11
214.0765125843
21
71.8145984944
0
LINE
8
13000_TOP
62
7
6
CONTINUOUS
10
191.5496665843
20
77.1828354944
11
191.3301525843
21
77.1937454944
0
LINE
8
13000_TOP
62
7
6
CONTINUOUS
10
187.9960265843
20
78.3036894944
11
187.7765125843
21
78.3145984944
0
LINE
8
13000_TOP
62
7
6
CONTINUOUS
10
217.8496665843
20
77.1828354944
11
217.6301525843
21
77.1937454944
0
LINE
8
13000_TOP
62
7
6
CONTINUOUS
10
214.2960265843
20
78.3036894944
11
214.0765125843
21
78.3145984944
0
LINE
8
13000_TOP
62
7
6
CONTINUOUS
10
191.5496665843
20
83.6828354944
11
191.3301525843
21
83.6937454944
0
LINE
8
13000_TOP
62
7
6
CONTINUOUS
10
187.9960265843
20
84.8036894944
11
187.7765125843
21
84.8145984944
0
LINE
8
13000_TOP
62
7
6
CONTINUOUS
10
217.8496665843
20
83.6828354944
11
217.6301525843
21
83.6937454944
0
LINE
8
13000_TOP
62
7
6
CONTINUOUS
10
214.2960265843
20
84.8036894944
11
214.0765125843
21
84.8145984944
0
LINE
8
13000_TOP
62
7
6
CONTINUOUS
10
191.5496665843
20
90.1828354944
11
191.3301525843
21
90.1937454944
0
LINE
8
13000_TOP
62
7
6
CONTINUOUS
10
217.8496665843
20
90.1828354944
11
217.6301525843
21
90.1937454944
0
LINE
8
13000_TOP
62
7
6
CONTINUOUS
10
191.6969365843
20
77.1689784944
11
191.5496665843
21
77.1828354944
0
LINE
8
13000_TOP
62
7
6
CONTINUOUS
10
187.7765125843
20
78.3145984944
11
187.6292425843
21
78.3284554944
0
LINE
8
13000_TOP
62
7
6
CONTINUOUS
10
217.9969365843
20
77.1689784944
11
217.8496665843
21
77.1828354944
0
LINE
8
13000_TOP
62
7
6
CONTINUOUS
10
214.0765125843
20
78.3145984944
11
213.9292425843
21
78.3284554944
0
LINE
8
13000_TOP
62
7
6
CONTINUOUS
10
191.6969365843
20
83.6689784944
11
191.5496665843
21
83.6828354944
0
LINE
8
13000_TOP
62
7
6
CONTINUOUS
10
187.7765125843
20
84.8145984944
11
187.6292425843
21
84.8284554944
0
LINE
8
13000_TOP
62
7
6
CONTINUOUS
10
217.9969365843
20
83.6689784944
11
217.8496665843
21
83.6828354944
0
LINE
8
13000_TOP
62
7
6
CONTINUOUS
10
214.0765125843
20
84.8145984944
11
213.9292425843
21
84.8284554944
0
LINE
8
13000_TOP
62
7
6
CONTINUOUS
10
191.6969365843
20
90.1689784944
11
191.5496665843
21
90.1828354944
0
LINE
8
13000_TOP
62
7
6
CONTINUOUS
10
217.9969365843
20
90.1689784944
11
217.8496665843
21
90.1828354944
0
LINE
8
13000_TOP
62
7
6
CONTINUOUS
10
191.7583645843
20
90.1534424944
11
191.6969365843
21
90.1689784944
0
LINE
8
13000_TOP
62
7
6
CONTINUOUS
10
218.0583645843
20
83.6534424944
11
217.9969365843
21
83.6689784944
0
LINE
8
13000_TOP
62
7
6
CONTINUOUS
10
213.9292425843
20
84.8284554944
11
213.8678155843
21
84.8439914944
0
LINE
8
13000_TOP
62
7
6
CONTINUOUS
10
218.0583645843
20
90.1534424944
11
217.9969365843
21
90.1689784944
0
LINE
8
13000_TOP
62
7
6
CONTINUOUS
10
218.2130895843
20
89.9987174944
11
218.0583645843
21
90.1534424944
0
LINE
8
13000_TOP
62
7
6
CONTINUOUS
10
204.8162315843
20
95.2928334944
11
204.7630895843
21
95.3800884944
0
LINE
8
13000_TOP
62
7
6
CONTINUOUS
10
204.8632595843
20
95.2132224944
11
204.8162315843
21
95.2928334944
0
LINE
8
13000_TOP
62
7
6
CONTINUOUS
10
204.9039985843
20
95.1403424944
11
204.8632595843
21
95.2132224944
0
LINE
8
13000_TOP
62
7
6
CONTINUOUS
10
204.9386355843
20
95.0735344944
11
204.9039985843
21
95.1403424944
0
LINE
8
13000_TOP
62
7
6
CONTINUOUS
10
204.9675585843
20
95.0123504944
11
204.9386355843
21
95.0735344944
0
LINE
8
13000_TOP
62
7
6
CONTINUOUS
10
204.9913235843
20
94.9563394944
11
204.9675585843
21
95.0123504944
0
LINE
8
13000_TOP
62
7
6
CONTINUOUS
10
205.0106135843
20
94.9048814944
11
204.9913235843
21
94.9563394944
0
LINE
8
13000_TOP
62
7
6
CONTINUOUS
10
205.0260715843
20
94.8573614944
11
205.0106135843
21
94.9048814944
0
LINE
8
10000_FRONT
62
7
6
CONTINUOUS
10
185.4716155843
20
228.6618064944
11
185.4941475843
21
228.3476704944
0
LINE
8
10000_FRONT
62
7
6
CONTINUOUS
10
184.9157075843
20
227.5643334944
11
184.9147145843
21
227.5867804944
0
LINE
8
10000_FRONT
62
7
6
CONTINUOUS
10
186.5924175843
20
326.9524644944
11
186.5941095843
21
326.8873124944
0
LINE
8
10000_FRONT
62
7
6
CONTINUOUS
10
186.5924175843
20
337.3524644944
11
186.5941095843
21
337.2873124944
0
LINE
8
10000_FRONT
62
7
6
CONTINUOUS
10
184.9147145843
20
227.5867804944
11
184.9139445843
21
227.6453754944
0
LINE
8
10000_FRONT
62
7
6
CONTINUOUS
10
186.5941095843
20
326.8873124944
11
186.5952435843
21
326.7894724944
0
LINE
8
10000_FRONT
62
7
6
CONTINUOUS
10
186.5941095843
20
337.2873124944
11
186.5952435843
21
337.1894724944
0
LINE
8
10000_FRONT
62
7
6
CONTINUOUS
10
186.5952435843
20
326.7894724944
11
186.5956345843
21
326.6756674944
0
LINE
8
10000_FRONT
62
7
6
CONTINUOUS
10
186.5952435843
20
337.1894724944
11
186.5956345843
21
337.0756674944
0
LINE
8
13000_TOP
62
7
6
CONTINUOUS
10
182.8130895843
20
51.3987174944
11
182.8130895843
21
165.2987174944
0
LINE
8
10000_FRONT
62
7
6
CONTINUOUS
10
182.8130895843
20
227.5643334944
11
182.8130895843
21
352.5643334944
0
LINE
8
13000_TOP
62
7
6
CONTINUOUS
10
183.8130895843
20
91.2987174944
11
183.8130895843
21
58.0777244944
0
LINE
8
10000_FRONT
62
7
6
CONTINUOUS
10
183.8130895843
20
282.8936394944
11
183.8130895843
21
349.8143334944
0
LINE
8
10000_FRONT
62
7
6
CONTINUOUS
10
184.0630895843
20
346.8643334944
11
184.0630895843
21
316.8643334944
0
LINE
8
10000_FRONT
62
7
6
CONTINUOUS
10
184.1685735843
20
352.6053244944
11
184.1685735843
21
351.8014184944
0
LINE
8
10000_FRONT
62
7
6
CONTINUOUS
10
184.1685735843
20
280.8588634944
11
184.1685735843
21
228.6040204944
0
LINE
8
10000_FRONT
62
7
6
CONTINUOUS
10
184.5776405843
20
282.8936394944
11
184.5776405843
21
281.1059694944
0
LINE
8
10000_FRONT
62
7
6
CONTINUOUS
10
184.5776405843
20
350.0553244944
11
184.5776405843
21
351.5287494944
0
LINE
8
10000_FRONT
62
7
6
CONTINUOUS
10
184.6748185843
20
227.5643334944
11
184.6748185843
21
227.7481424944
0
LINE
8
13000_TOP
62
7
6
CONTINUOUS
10
184.9130895843
20
148.4987174944
11
184.9130895843
21
143.4987174944
0
LINE
8
13000_TOP
62
7
6
CONTINUOUS
10
184.9130895843
20
141.9987174944
11
184.9130895843
21
136.9987174944
0
LINE
8
13000_TOP
62
7
6
CONTINUOUS
10
184.9130895843
20
135.4987174944
11
184.9130895843
21
130.4987174944
0
LINE
8
13000_TOP
62
7
6
CONTINUOUS
10
184.9130895843
20
128.9987174944
11
184.9130895843
21
123.9987174944
0
LINE
8
13000_TOP
62
7
6
CONTINUOUS
10
184.9130895843
20
122.4987174944
11
184.9130895843
21
117.4987174944
0
LINE
8
13000_TOP
62
7
6
CONTINUOUS
10
184.9130895843
20
115.9987174944
11
184.9130895843
21
110.9987174944
0
LINE
8
13000_TOP
62
7
6
CONTINUOUS
10
184.9130895843
20
109.4987174944
11
184.9130895843
21
104.4987174944
0
LINE
8
13000_TOP
62
7
6
CONTINUOUS
10
184.9130895843
20
102.9987174944
11
184.9130895843
21
97.9987174944
0
LINE
8
13000_TOP
62
7
6
CONTINUOUS
10
184.9130895843
20
58.9987174944
11
184.9130895843
21
63.9987174944
0
LINE
8
13000_TOP
62
7
6
CONTINUOUS
10
184.9130895843
20
65.4987174944
11
184.9130895843
21
70.4987174944
0
LINE
8
13000_TOP
62
7
6
CONTINUOUS
10
184.9130895843
20
71.9987174944
11
184.9130895843
21
76.9987174944
0
LINE
8
13000_TOP
62
7
6
CONTINUOUS
10
184.9130895843
20
78.4987174944
11
184.9130895843
21
83.4987174944
0
LINE
8
13000_TOP
62
7
6
CONTINUOUS
10
184.9130895843
20
84.9987174944
11
184.9130895843
21
89.9987174944
0
LINE
8
13000_TOP
62
7
6
CONTINUOUS
10
184.9130895843
20
91.2987174944
11
184.9130895843
21
96.7987174944
0
LINE
8
13000_TOP
62
7
6
CONTINUOUS
10
184.9130895843
20
149.9987174944
11
184.9130895843
21
154.9987174944
0
LINE
8
13000_TOP
62
7
6
CONTINUOUS
10
184.9130895843
20
156.4987174944
11
184.9130895843
21
160.3987174944
0
LINE
8
10000_FRONT
62
7
6
CONTINUOUS
10
185.4716155843
20
282.6053244944
11
185.4716155843
21
228.6618064944
0
LINE
8
10000_FRONT
62
7
6
CONTINUOUS
10
185.4716155843
20
350.0553244944
11
185.4716155843
21
351.5488414944
0
LINE
8
10000_FRONT
62
7
6
CONTINUOUS
10
186.5630895843
20
346.8643334944
11
186.5630895843
21
316.8643334944
0
LINE
8
10000_FRONT
62
7
6
CONTINUOUS
10
186.5781795843
20
321.7143334944
11
186.5781795843
21
325.9468804944
0
LINE
8
10000_FRONT
62
7
6
CONTINUOUS
10
186.5781795843
20
326.9817874944
11
186.5781795843
21
331.1468804944
0
LINE
8
10000_FRONT
62
7
6
CONTINUOUS
10
186.5781795843
20
332.1817874944
11
186.5781795843
21
336.3468804944
0
LINE
8
10000_FRONT
62
7
6
CONTINUOUS
10
186.5781795843
20
337.3817874944
11
186.5781795843
21
341.6143334944
0
LINE
8
10000_FRONT
62
7
6
CONTINUOUS
10
186.5781795843
20
342.5143334944
11
186.5781795843
21
346.8468804944
0
LINE
8
10000_FRONT
62
7
6
CONTINUOUS
10
186.5889605843
20
331.1522704944
11
186.5889605843
21
332.1763974944
0
LINE
8
10000_FRONT
62
7
6
CONTINUOUS
10
186.5956345843
20
326.2530004944
11
186.5956345843
21
326.6756674944
0
LINE
8
10000_FRONT
62
7
6
CONTINUOUS
10
186.5956345843
20
336.6530004944
11
186.5956345843
21
337.0756674944
0
LINE
8
10000_FRONT
62
7
6
CONTINUOUS
10
186.9033445843
20
230.0759294944
11
186.9033445843
21
229.9840374944
0
LINE
8
10000_FRONT
62
7
6
CONTINUOUS
10
186.9155065843
20
237.2185244944
11
186.9155065843
21
232.1063074944
0
LINE
8
10000_FRONT
62
7
6
CONTINUOUS
10
186.9492905843
20
230.9948484944
11
186.9492905843
21
230.9029564944
0
LINE
8
10000_FRONT
62
7
6
CONTINUOUS
10
187.1330745843
20
229.9840374944
11
187.1330745843
21
230.0759294944
0
LINE
8
13000_TOP
62
7
6
CONTINUOUS
10
187.3130895843
20
154.9987174944
11
187.3130895843
21
149.9987174944
0
LINE
8
13000_TOP
62
7
6
CONTINUOUS
10
187.3130895843
20
148.4987174944
11
187.3130895843
21
143.4987174944
0
LINE
8
10000_FRONT
62
7
6
CONTINUOUS
10
187.3168585843
20
230.5813344944
11
187.3168585843
21
230.3975514944
0
LINE
8
13000_TOP
62
7
6
CONTINUOUS
10
187.4130895843
20
141.9987174944
11
187.4130895843
21
136.9987174944
0
LINE
8
13000_TOP
62
7
6
CONTINUOUS
10
187.4130895843
20
135.4987174944
11
187.4130895843
21
130.4987174944
0
LINE
8
13000_TOP
62
7
6
CONTINUOUS
10
187.4130895843
20
128.9987174944
11
187.4130895843
21
123.9987174944
0
LINE
8
13000_TOP
62
7
6
CONTINUOUS
10
187.4130895843
20
122.4987174944
11
187.4130895843
21
117.4987174944
0
LINE
8
13000_TOP
62
7
6
CONTINUOUS
10
187.4130895843
20
115.9987174944
11
187.4130895843
21
110.9987174944
0
LINE
8
13000_TOP
62
7
6
CONTINUOUS
10
187.4130895843
20
109.4987174944
11
187.4130895843
21
104.4987174944
0
LINE
8
13000_TOP
62
7
6
CONTINUOUS
10
187.4130895843
20
102.9987174944
11
187.4130895843
21
97.9987174944
0
LINE
8
13000_TOP
62
7
6
CONTINUOUS
10
187.4130895843
20
89.9987174944
11
187.4130895843
21
84.9987174944
0
LINE
8
13000_TOP
62
7
6
CONTINUOUS
10
187.4130895843
20
83.4987174944
11
187.4130895843
21
78.4987174944
0
LINE
8
13000_TOP
62
7
6
CONTINUOUS
10
187.4130895843
20
76.9987174944
11
187.4130895843
21
71.9987174944
0
LINE
8
13000_TOP
62
7
6
CONTINUOUS
10
187.4130895843
20
70.4987174944
11
187.4130895843
21
65.4987174944
0
LINE
8
13000_TOP
62
7
6
CONTINUOUS
10
187.4130895843
20
63.9987174944
11
187.4130895843
21
58.9987174944
0
LINE
8
10000_FRONT
62
7
6
CONTINUOUS
10
187.7303715843
20
230.9489024944
11
187.7303715843
21
230.7651184944
0
LINE
8
10000_FRONT
62
7
6
CONTINUOUS
10
187.7763175843
20
230.1678214944
11
187.7763175843
21
230.0299834944
0
LINE
8
10000_FRONT
62
7
6
CONTINUOUS
10
187.9601015843
20
230.8110644944
11
187.9601015843
21
230.9948484944
0
LINE
8
10000_FRONT
62
7
6
CONTINUOUS
10
188.0060475843
20
230.0299834944
11
188.0060475843
21
230.2137674944
0
LINE
8
10000_FRONT
62
7
6
CONTINUOUS
10
188.1438855843
20
230.2597134944
11
188.1438855843
21
230.0299834944
0
LINE
8
13000_TOP
62
7
6
CONTINUOUS
10
188.3130895843
20
58.0297234944
11
188.3130895843
21
57.0987174944
0
LINE
8
10000_FRONT
62
7
6
CONTINUOUS
10
188.9249665843
20
231.0867404944
11
188.9249665843
21
230.2137674944
0
LINE
8
10000_FRONT
62
7
6
CONTINUOUS
10
188.9249665843
20
230.0299834944
11
188.9249665843
21
229.6624154944
0
LINE
8
10000_FRONT
62
7
6
CONTINUOUS
10
189.1087505843
20
229.6624154944
11
189.1087505843
21
230.0299834944
0
LINE
8
10000_FRONT
62
7
6
CONTINUOUS
10
189.1087505843
20
230.2137674944
11
189.1087505843
21
231.3164704944
0
LINE
8
10000_FRONT
62
7
6
CONTINUOUS
10
189.3844255843
20
230.0299834944
11
189.3844255843
21
230.2137674944
0
LINE
8
10000_FRONT
62
7
6
CONTINUOUS
10
189.5222635843
20
230.0759294944
11
189.5222635843
21
229.9840374944
0
LINE
8
10000_FRONT
62
7
6
CONTINUOUS
10
189.5682095843
20
230.9948484944
11
189.5682095843
21
230.9029564944
0
LINE
8
10000_FRONT
62
7
6
CONTINUOUS
10
189.7519935843
20
229.9840374944
11
189.7519935843
21
230.0759294944
0
LINE
8
10000_FRONT
62
7
6
CONTINUOUS
10
189.9357775843
20
230.5813344944
11
189.9357775843
21
230.3975514944
0
LINE
8
10000_FRONT
62
7
6
CONTINUOUS
10
190.3492905843
20
230.9489024944
11
190.3492905843
21
230.7651184944
0
LINE
8
10000_FRONT
62
7
6
CONTINUOUS
10
190.3952365843
20
230.1678214944
11
190.3952365843
21
230.0299834944
0
LINE
8
10000_FRONT
62
7
6
CONTINUOUS
10
190.5790205843
20
230.8110644944
11
190.5790205843
21
230.9948484944
0
LINE
8
10000_FRONT
62
7
6
CONTINUOUS
10
190.6249665843
20
230.0299834944
11
190.6249665843
21
230.2137674944
0
LINE
8
10000_FRONT
62
7
6
CONTINUOUS
10
190.8087505843
20
230.3516054944
11
190.8087505843
21
230.2137674944
0
LINE
8
10000_FRONT
62
7
6
CONTINUOUS
10
190.8607015843
20
314.7053244944
11
190.8607015843
21
282.8936394944
0
LINE
8
10000_FRONT
62
7
6
CONTINUOUS
10
191.2496435843
20
282.6053244944
11
191.2496435843
21
314.4405124944
0
LINE
8
13000_TOP
62
7
6
CONTINUOUS
10
191.3130895843
20
58.0297234944
11
191.3130895843
21
57.0987174944
0
LINE
8
10000_FRONT
62
7
6
CONTINUOUS
10
191.4060475843
20
230.2137674944
11
191.4060475843
21
230.3516054944
0
LINE
8
13000_TOP
62
7
6
CONTINUOUS
10
191.4130895843
20
154.9987174944
11
191.4130895843
21
149.9987174944
0
LINE
8
13000_TOP
62
7
6
CONTINUOUS
10
191.4130895843
20
148.4987174944
11
191.4130895843
21
143.4987174944
0
LINE
8
10000_FRONT
62
7
6
CONTINUOUS
10
191.7736155843
20
231.0407944944
11
191.7736155843
21
230.8110644944
0
LINE
8
13000_TOP
62
7
6
CONTINUOUS
10
191.9130895843
20
141.9987174944
11
191.9130895843
21
136.9987174944
0
LINE
8
13000_TOP
62
7
6
CONTINUOUS
10
191.9130895843
20
135.4987174944
11
191.9130895843
21
130.4987174944
0
LINE
8
13000_TOP
62
7
6
CONTINUOUS
10
191.9130895843
20
128.9987174944
11
191.9130895843
21
123.9987174944
0
LINE
8
13000_TOP
62
7
6
CONTINUOUS
10
191.9130895843
20
122.4987174944
11
191.9130895843
21
117.4987174944
0
LINE
8
13000_TOP
62
7
6
CONTINUOUS
10
191.9130895843
20
115.9987174944
11
191.9130895843
21
110.9987174944
0
LINE
8
13000_TOP
62
7
6
CONTINUOUS
10
191.9130895843
20
109.4987174944
11
191.9130895843
21
104.4987174944
0
LINE
8
13000_TOP
62
7
6
CONTINUOUS
10
191.9130895843
20
102.9987174944
11
191.9130895843
21
97.9987174944
0
LINE
8
13000_TOP
62
7
6
CONTINUOUS
10
191.9130895843
20
89.9987174944
11
191.9130895843
21
84.9987174944
0
LINE
8
13000_TOP
62
7
6
CONTINUOUS
10
191.9130895843
20
83.4987174944
11
191.9130895843
21
78.4987174944
0
LINE
8
13000_TOP
62
7
6
CONTINUOUS
10
191.9130895843
20
76.9987174944
11
191.9130895843
21
71.9987174944
0
LINE
8
13000_TOP
62
7
6
CONTINUOUS
10
191.9130895843
20
70.4987174944
11
191.9130895843
21
65.4987174944
0
LINE
8
13000_TOP
62
7
6
CONTINUOUS
10
191.9130895843
20
63.9987174944
11
191.9130895843
21
58.9987174944
0
LINE
8
10000_FRONT
62
7
6
CONTINUOUS
10
192.0277245843
20
232.1063074944
11
192.0277245843
21
237.2185244944
0
LINE
8
10000_FRONT
62
7
6
CONTINUOUS
10
192.1411825843
20
231.0407944944
11
192.1411825843
21
229.6624154944
0
LINE
8
10000_FRONT
62
7
6
CONTINUOUS
10
192.3709125843
20
229.6624154944
11
192.3709125843
21
231.3164704944
0
LINE
8
10000_FRONT
62
7
6
CONTINUOUS
10
192.5955895843
20
282.9137674944
11
192.5955895843
21
282.7407944944
0
LINE
8
10000_FRONT
62
7
6
CONTINUOUS
10
192.6820755843
20
284.5570104944
11
192.6820755843
21
284.1245784944
0
LINE
8
10000_FRONT
62
7
6
CONTINUOUS
10
192.7465885843
20
231.3624154944
11
192.7465885843
21
229.6624154944
0
LINE
8
10000_FRONT
62
7
6
CONTINUOUS
10
192.9763175843
20
229.8461994944
11
192.9763175843
21
230.4434974944
0
LINE
8
10000_FRONT
62
7
6
CONTINUOUS
10
192.9763175843
20
230.6272804944
11
192.9763175843
21
231.1786324944
0
LINE
8
10000_FRONT
62
7
6
CONTINUOUS
10
193.0280215843
20
282.8272804944
11
193.0280215843
21
282.9137674944
0
LINE
8
10000_FRONT
62
7
6
CONTINUOUS
10
193.1145075843
20
284.2110644944
11
193.1145075843
21
284.4705244944
0
LINE
8
13000_TOP
62
7
6
CONTINUOUS
10
193.5130895843
20
96.7987174944
11
193.5130895843
21
95.1987174944
0
LINE
8
10000_FRONT
62
7
6
CONTINUOUS
10
193.7573985843
20
230.4434974944
11
193.7573985843
21
230.6272804944
0
LINE
8
10000_FRONT
62
7
6
CONTINUOUS
10
193.8033445843
20
229.6624154944
11
193.8033445843
21
229.8461994944
0
LINE
8
10000_FRONT
62
7
6
CONTINUOUS
10
193.8033445843
20
231.1786324944
11
193.8033445843
21
231.3624154944
0
LINE
8
10000_FRONT
62
7
6
CONTINUOUS
10
194.4982915843
20
284.4705244944
11
194.4982915843
21
284.3840374944
0
LINE
8
10000_FRONT
62
7
6
CONTINUOUS
10
194.5847785843
20
282.9137674944
11
194.5847785843
21
282.7407944944
0
LINE
8
10000_FRONT
62
7
6
CONTINUOUS
10
194.9307245843
20
284.3840374944
11
194.9307245843
21
284.5570104944
0
LINE
8
10000_FRONT
62
7
6
CONTINUOUS
10
195.0172105843
20
282.6543074944
11
195.0172105843
21
283.0867404944
0
LINE
8
10000_FRONT
62
7
6
CONTINUOUS
10
195.7091025843
20
285.1624154944
11
195.7091025843
21
281.9624154944
0
LINE
8
10000_FRONT
62
7
6
CONTINUOUS
10
196.1396839031
20
230.0759294944
11
196.1396839031
21
229.9840374944
0
LINE
8
10000_FRONT
62
7
6
CONTINUOUS
10
196.1415345843
20
281.9624154944
11
196.1415345843
21
285.1624154944
0
LINE
8
10000_FRONT
62
7
6
CONTINUOUS
10
186.5956345843
20
336.6530004944
11
186.5952435843
21
336.5391954944
0
LINE
8
10000_FRONT
62
7
6
CONTINUOUS
10
186.5956345843
20
326.2530004944
11
186.5952435843
21
326.1391954944
0
LINE
8
10000_FRONT
62
7
6
CONTINUOUS
10
186.5952435843
20
336.5391954944
11
186.5941095843
21
336.4413544944
0
LINE
8
10000_FRONT
62
7
6
CONTINUOUS
10
186.5952435843
20
326.1391954944
11
186.5941095843
21
326.0413544944
0
LINE
8
10000_FRONT
62
7
6
CONTINUOUS
10
186.5941095843
20
336.4413544944
11
186.5924175843
21
336.3762024944
0
LINE
8
10000_FRONT
62
7
6
CONTINUOUS
10
186.5941095843
20
326.0413544944
11
186.5924175843
21
325.9762024944
0
LINE
8
10000_FRONT
62
7
6
CONTINUOUS
10
186.5924175843
20
336.3762024944
11
186.5904435843
21
336.3530114944
0
LINE
8
10000_FRONT
62
7
6
CONTINUOUS
10
186.5924175843
20
325.9762024944
11
186.5904435843
21
325.9530114944
0
LINE
8
10000_FRONT
62
7
6
CONTINUOUS
10
197.4709125843
20
230.8570104944
11
197.4249665843
21
230.5813344944
0
LINE
8
10000_FRONT
62
7
6
CONTINUOUS
10
197.6546965843
20
230.6272804944
11
197.7006425843
21
230.9029564944
0
LINE
8
10000_FRONT
62
7
6
CONTINUOUS
10
207.6833865843
20
349.4512694944
11
207.6239275843
21
349.1539724944
0
LINE
8
10000_FRONT
62
7
6
CONTINUOUS
10
207.9212245843
20
349.0945134944
11
207.9806845843
21
349.3918104944
0
LINE
8
10000_FRONT
62
7
6
CONTINUOUS
10
208.0766695843
20
284.2110644944
11
207.9901845843
21
283.7786324944
0
LINE
8
10000_FRONT
62
7
6
CONTINUOUS
10
208.4226165843
20
283.6921454944
11
208.5091025843
21
284.1245784944
0
LINE
8
10000_FRONT
62
7
6
CONTINUOUS
10
216.0077115843
20
349.5107294944
11
216.0671705843
21
349.6891074944
0
LINE
8
10000_FRONT
62
7
6
CONTINUOUS
10
216.9590625843
20
349.2134324944
11
217.0185225843
21
349.3918104944
0
LINE
8
10000_FRONT
62
7
6
CONTINUOUS
10
194.9307245843
20
282.3948484944
11
195.0172105843
21
282.6543074944
0
LINE
8
10000_FRONT
62
7
6
CONTINUOUS
10
217.0185225843
20
348.2026214944
11
217.0779815843
21
348.3809994944
0
LINE
8
10000_FRONT
62
7
6
CONTINUOUS
10
199.4280215843
20
285.1624154944
11
198.5631565843
21
282.5678214944
0
LINE
8
10000_FRONT
62
7
6
CONTINUOUS
10
198.8226155843
20
281.9624154944
11
199.7739675843
21
284.8164704944
0
LINE
8
10000_FRONT
62
7
6
CONTINUOUS
10
187.1790205843
20
230.9029564944
11
187.2249665843
21
231.0407944944
0
LINE
8
10000_FRONT
62
7
6
CONTINUOUS
10
187.9141555843
20
230.6732264944
11
187.9601015843
21
230.8110644944
0
LINE
8
10000_FRONT
62
7
6
CONTINUOUS
10
187.9601015843
20
229.8921454944
11
188.0060475843
21
230.0299834944
0
LINE
8
10000_FRONT
62
7
6
CONTINUOUS
10
189.7979395843
20
230.9029564944
11
189.8438855843
21
231.0407944944
0
LINE
8
10000_FRONT
62
7
6
CONTINUOUS
10
208.1631565843
20
284.4705244944
11
208.0766695843
21
284.2110644944
0
LINE
8
10000_FRONT
62
7
6
CONTINUOUS
10
190.5330745843
20
230.6732264944
11
190.5790205843
21
230.8110644944
0
LINE
8
10000_FRONT
62
7
6
CONTINUOUS
10
208.5091025843
20
284.1245784944
11
208.5955885843
21
284.3840374944
0
LINE
8
10000_FRONT
62
7
6
CONTINUOUS
10
190.5790205843
20
229.8921454944
11
190.6249665843
21
230.0299834944
0
LINE
8
10000_FRONT
62
7
6
CONTINUOUS
10
210.0658585843
20
282.8272804944
11
209.9793735843
21
282.5678214944
0
LINE
8
10000_FRONT
62
7
6
CONTINUOUS
10
210.4118055843
20
282.3948484944
11
210.4982915843
21
282.6543074944
0
LINE
8
10000_FRONT
62
7
6
CONTINUOUS
10
196.4153599031
20
230.9029564944
11
196.4613059031
21
231.0407944944
0
LINE
8
10000_FRONT
62
7
6
CONTINUOUS
10
197.1504949031
20
230.6732264944
11
197.1964409031
21
230.8110644944
0
LINE
8
10000_FRONT
62
7
6
CONTINUOUS
10
197.1964409031
20
229.8921454944
11
197.2423869031
21
230.0299834944
0
LINE
8
10000_FRONT
62
7
6
CONTINUOUS
10
201.6766705843
20
283.1732264944
11
202.2820755843
21
284.7299834944
0
LINE
8
10000_FRONT
62
7
6
CONTINUOUS
10
201.1577505843
20
281.9624154944
11
201.5036975843
21
282.8272804944
0
LINE
8
10000_FRONT
62
7
6
CONTINUOUS
10
202.0226155843
20
285.1624154944
11
200.7253195843
21
281.9624154944
0
LINE
8
10000_FRONT
62
7
6
CONTINUOUS
10
187.0411825843
20
231.1786324944
11
186.9492905843
21
230.9948484944
0
LINE
8
10000_FRONT
62
7
6
CONTINUOUS
10
187.7303715843
20
230.7651184944
11
187.6844255843
21
230.6732264944
0
LINE
8
10000_FRONT
62
7
6
CONTINUOUS
10
189.6601015843
20
231.1786324944
11
189.5682095843
21
230.9948484944
0
LINE
8
10000_FRONT
62
7
6
CONTINUOUS
10
190.3492905843
20
230.7651184944
11
190.3033445843
21
230.6732264944
0
LINE
8
10000_FRONT
62
7
6
CONTINUOUS
10
208.3361295843
20
284.7299834944
11
208.1631565843
21
284.4705244944
0
LINE
8
10000_FRONT
62
7
6
CONTINUOUS
10
208.5955885843
20
284.3840374944
11
208.7685625843
21
284.6434964944
0
LINE
8
10000_FRONT
62
7
6
CONTINUOUS
10
187.7763175843
20
230.0299834944
11
187.6844255843
21
229.8921454944
0
LINE
8
10000_FRONT
62
7
6
CONTINUOUS
10
188.3276695843
20
230.2137674944
11
188.9249665843
21
231.0867404944
0
LINE
8
10000_FRONT
62
7
6
CONTINUOUS
10
188.8790205843
20
231.3164704944
11
188.1438855843
21
230.2597134944
0
LINE
8
10000_FRONT
62
7
6
CONTINUOUS
10
208.5955885843
20
284.9894424944
11
208.3361295843
21
284.7299834944
0
LINE
8
10000_FRONT
62
7
6
CONTINUOUS
10
209.9793735843
20
282.5678214944
11
209.7199125843
21
282.3083614944
0
LINE
8
10000_FRONT
62
7
6
CONTINUOUS
10
210.1523455843
20
282.1353884944
11
210.4118055843
21
282.3948484944
0
LINE
8
10000_FRONT
62
7
6
CONTINUOUS
10
193.1145075843
20
285.0759294944
11
192.8550485843
21
284.9029564944
0
LINE
8
10000_FRONT
62
7
6
CONTINUOUS
10
208.8550475843
20
285.1624154944
11
208.5955885843
21
284.9894424944
0
LINE
8
10000_FRONT
62
7
6
CONTINUOUS
10
208.7685625843
20
284.6434964944
11
209.0280215843
21
284.8164704944
0
LINE
8
10000_FRONT
62
7
6
CONTINUOUS
10
209.8928865843
20
281.9624154944
11
210.1523455843
21
282.1353884944
0
LINE
8
10000_FRONT
62
7
6
CONTINUOUS
10
184.1626385843
20
280.8552784944
11
184.5776405843
21
281.1059694944
0
LINE
8
10000_FRONT
62
7
6
CONTINUOUS
10
193.2874805843
20
285.1624154944
11
193.1145075843
21
285.0759294944
0
LINE
8
10000_FRONT
62
7
6
CONTINUOUS
10
193.2874805843
20
284.7299834944
11
193.4604535843
21
284.8164704944
0
LINE
8
10000_FRONT
62
7
6
CONTINUOUS
10
194.3253185843
20
281.9624154944
11
194.6712645843
21
282.1353884944
0
LINE
8
10000_FRONT
62
7
6
CONTINUOUS
10
193.4604535843
20
284.8164704944
11
193.7199135843
21
284.9029564944
0
LINE
8
13000_TOP
62
7
6
CONTINUOUS
10
213.9292425843
20
64.1689784944
11
213.8678155843
21
64.1534424944
0
LINE
8
13000_TOP
62
7
6
CONTINUOUS
10
218.0583645843
20
65.3439914944
11
217.9969365843
21
65.3284554944
0
LINE
8
13000_TOP
62
7
6
CONTINUOUS
10
191.7583645843
20
58.8439914944
11
191.6969365843
21
58.8284554944
0
LINE
8
13000_TOP
62
7
6
CONTINUOUS
10
213.9292425843
20
70.6689784944
11
213.8678155843
21
70.6534424944
0
LINE
8
13000_TOP
62
7
6
CONTINUOUS
10
218.0583645843
20
71.8439914944
11
217.9969365843
21
71.8284554944
0
LINE
8
13000_TOP
62
7
6
CONTINUOUS
10
187.6292425843
20
64.1689784944
11
187.5678155843
21
64.1534424944
0
LINE
8
13000_TOP
62
7
6
CONTINUOUS
10
191.7583645843
20
65.3439914944
11
191.6969365843
21
65.3284554944
0
LINE
8
13000_TOP
62
7
6
CONTINUOUS
10
213.9292425843
20
77.1689784944
11
213.8678155843
21
77.1534424944
0
LINE
8
13000_TOP
62
7
6
CONTINUOUS
10
218.0583645843
20
78.3439914944
11
217.9969365843
21
78.3284554944
0
LINE
8
13000_TOP
62
7
6
CONTINUOUS
10
187.6292425843
20
70.6689784944
11
187.5678155843
21
70.6534424944
0
LINE
8
13000_TOP
62
7
6
CONTINUOUS
10
191.7583645843
20
71.8439914944
11
191.6969365843
21
71.8284554944
0
LINE
8
13000_TOP
62
7
6
CONTINUOUS
10
213.9292425843
20
83.6689784944
11
213.8678155843
21
83.6534424944
0
LINE
8
13000_TOP
62
7
6
CONTINUOUS
10
218.0583645843
20
84.8439914944
11
217.9969365843
21
84.8284554944
0
LINE
8
13000_TOP
62
7
6
CONTINUOUS
10
187.6292425843
20
77.1689784944
11
187.5678155843
21
77.1534424944
0
LINE
8
13000_TOP
62
7
6
CONTINUOUS
10
191.7583645843
20
78.3439914944
11
191.6969365843
21
78.3284554944
0
LINE
8
13000_TOP
62
7
6
CONTINUOUS
10
191.6969365843
20
78.3284554944
11
191.5496665843
21
78.3145984944
0
LINE
8
13000_TOP
62
7
6
CONTINUOUS
10
214.0765125843
20
83.6828354944
11
213.9292425843
21
83.6689784944
0
LINE
8
13000_TOP
62
7
6
CONTINUOUS
10
217.9969365843
20
84.8284554944
11
217.8496665843
21
84.8145984944
0
LINE
8
13000_TOP
62
7
6
CONTINUOUS
10
187.7765125843
20
83.6828354944
11
187.6292425843
21
83.6689784944
0
LINE
8
13000_TOP
62
7
6
CONTINUOUS
10
191.6969365843
20
84.8284554944
11
191.5496665843
21
84.8145984944
0
LINE
8
13000_TOP
62
7
6
CONTINUOUS
10
214.0765125843
20
90.1828354944
11
213.9292425843
21
90.1689784944
0
LINE
8
13000_TOP
62
7
6
CONTINUOUS
10
187.7765125843
20
90.1828354944
11
187.6292425843
21
90.1689784944
0
LINE
8
13000_TOP
62
7
6
CONTINUOUS
10
217.8496665843
20
84.8145984944
11
217.6301525843
21
84.8036894944
0
LINE
8
13000_TOP
62
7
6
CONTINUOUS
10
187.9960265843
20
83.6937454944
11
187.7765125843
21
83.6828354944
0
LINE
8
13000_TOP
62
7
6
CONTINUOUS
10
191.5496665843
20
84.8145984944
11
191.3301525843
21
84.8036894944
0
LINE
8
13000_TOP
62
7
6
CONTINUOUS
10
214.2960265843
20
90.1937454944
11
214.0765125843
21
90.1828354944
0
LINE
8
13000_TOP
62
7
6
CONTINUOUS
10
187.9960265843
20
90.1937454944
11
187.7765125843
21
90.1828354944
0
LINE
8
13000_TOP
62
7
6
CONTINUOUS
10
214.5676145843
20
90.2007124944
11
214.2960265843
21
90.1937454944
0
LINE
8
13000_TOP
62
7
6
CONTINUOUS
10
188.2676145843
20
90.2007124944
11
187.9960265843
21
90.1937454944
0
LINE
8
13000_TOP
62
7
6
CONTINUOUS
10
214.8664445843
20
90.2031074944
11
214.5676145843
21
90.2007124944
0
LINE
8
13000_TOP
62
7
6
CONTINUOUS
10
188.5664445843
20
90.2031074944
11
188.2676145843
21
90.2007124944
0
LINE
8
13000_TOP
62
7
6
CONTINUOUS
10
187.4130895843
20
89.9987174944
11
184.9130895843
21
89.9987174944
0
LINE
8
13000_TOP
62
7
6
CONTINUOUS
10
191.9130895843
20
89.9987174944
11
201.7630895843
21
89.9987174944
0
LINE
8
13000_TOP
62
7
6
CONTINUOUS
10
203.8630895843
20
89.9987174944
11
213.7130895843
21
89.9987174944
0
LINE
8
13000_TOP
62
7
6
CONTINUOUS
10
218.2130895843
20
89.9987174944
11
220.6895275843
21
89.9987174944
0
LINE
8
13000_TOP
62
7
6
CONTINUOUS
10
217.0597345843
20
90.2031074944
11
214.8664445843
21
90.2031074944
0
LINE
8
13000_TOP
62
7
6
CONTINUOUS
10
190.7597345843
20
90.2031074944
11
188.5664445843
21
90.2031074944
0
LINE
8
13000_TOP
62
7
6
CONTINUOUS
10
182.8130895843
20
91.2987174944
11
222.8130895843
21
91.2987174944
0
LINE
8
13000_TOP
62
7
6
CONTINUOUS
10
204.7630895843
20
94.5800884944
11
200.8630895843
21
94.5800884944
0
LINE
8
13000_TOP
62
7
6
CONTINUOUS
10
197.8130895843
20
94.9987174944
11
193.7130895843
21
94.9987174944
0
LINE
8
13000_TOP
62
7
6
CONTINUOUS
10
207.8130895843
20
94.9987174944
11
211.9130895843
21
94.9987174944
0
LINE
8
13000_TOP
62
7
6
CONTINUOUS
10
204.7630895843
20
95.3800884944
11
200.8630895843
21
95.3800884944
0
LINE
8
13000_TOP
62
7
6
CONTINUOUS
10
184.9130895843
20
96.7987174944
11
222.8130895843
21
96.7987174944
0
LINE
8
13000_TOP
62
7
6
CONTINUOUS
10
211.9130895843
20
96.9987174944
11
207.8130895843
21
96.9987174944
0
LINE
8
13000_TOP
62
7
6
CONTINUOUS
10
193.7130895843
20
96.9987174944
11
197.8130895843
21
96.9987174944
0
LINE
8
13000_TOP
62
7
6
CONTINUOUS
10
221.7630895843
20
97.9987174944
11
203.8630895843
21
97.9987174944
0
LINE
8
13000_TOP
62
7
6
CONTINUOUS
10
201.7630895843
20
97.9987174944
11
184.9130895843
21
97.9987174944
0
LINE
8
13000_TOP
62
7
6
CONTINUOUS
10
221.7630895843
20
102.9987174944
11
203.8630895843
21
102.9987174944
0
LINE
8
13000_TOP
62
7
6
CONTINUOUS
10
201.7630895843
20
102.9987174944
11
184.9130895843
21
102.9987174944
0
LINE
8
13000_TOP
62
7
6
CONTINUOUS
10
221.7630895843
20
104.4987174944
11
203.8630895843
21
104.4987174944
0
LINE
8
13000_TOP
62
7
6
CONTINUOUS
10
201.7630895843
20
104.4987174944
11
184.9130895843
21
104.4987174944
0
LINE
8
13000_TOP
62
7
6
CONTINUOUS
10
191.0585645843
20
90.2007124944
11
190.7597345843
21
90.2031074944
0
LINE
8
13000_TOP
62
7
6
CONTINUOUS
10
217.3585645843
20
90.2007124944
11
217.0597345843
21
90.2031074944
0
LINE
8
13000_TOP
62
7
6
CONTINUOUS
10
205.0382865843
20
94.8130864944
11
205.0260715843
21
94.8573614944
0
LINE
8
13000_TOP
62
7
6
CONTINUOUS
10
205.0477445843
20
94.7713254944
11
205.0382865843
21
94.8130864944
0
LINE
8
10000_FRONT
62
7
6
CONTINUOUS
10
185.4941475843
20
228.3476704944
11
185.5513245843
21
228.0685814944
0
LINE
8
13000_TOP
62
7
6
CONTINUOUS
10
205.0547425843
20
94.7317564944
11
205.0477445843
21
94.7713254944
0
LINE
8
10000_FRONT
62
7
6
CONTINUOUS
10
184.2171115843
20
228.2964114944
11
184.1685735843
21
228.6040204944
0
LINE
8
13000_TOP
62
7
6
CONTINUOUS
10
205.0594975843
20
94.6942914944
11
205.0547425843
21
94.7317564944
0
LINE
8
10000_FRONT
62
7
6
CONTINUOUS
10
186.5904435843
20
326.9756554944
11
186.5924175843
21
326.9524644944
0
LINE
8
10000_FRONT
62
7
6
CONTINUOUS
10
186.5904435843
20
337.3756554944
11
186.5924175843
21
337.3524644944
0
LINE
8
13000_TOP
62
7
6
CONTINUOUS
10
205.0622195843
20
94.6587724944
11
205.0594975843
21
94.6942914944
0
LINE
8
13000_TOP
62
7
6
CONTINUOUS
10
205.0630895843
20
94.6251044944
11
205.0622195843
21
94.6587724944
0
LINE
8
10000_FRONT
62
7
6
CONTINUOUS
10
196.1856299031
20
230.9948484944
11
196.1856299031
21
230.9029564944
0
LINE
8
10000_FRONT
62
7
6
CONTINUOUS
10
196.3694139031
20
229.9840374944
11
196.3694139031
21
230.0759294944
0
LINE
8
10000_FRONT
62
7
6
CONTINUOUS
10
196.5531979031
20
230.5813344944
11
196.5531979031
21
230.3975514944
0
LINE
8
10000_FRONT
62
7
6
CONTINUOUS
10
196.9199135843
20
285.1624154944
11
196.9199135843
21
281.9624154944
0
LINE
8
10000_FRONT
62
7
6
CONTINUOUS
10
196.9667109031
20
230.9489024944
11
196.9667109031
21
230.7651184944
0
LINE
8
10000_FRONT
62
7
6
CONTINUOUS
10
197.0126569031
20
230.1678214944
11
197.0126569031
21
230.0299834944
0
LINE
8
10000_FRONT
62
7
6
CONTINUOUS
10
197.1964409031
20
230.8110644944
11
197.1964409031
21
230.9948484944
0
LINE
8
10000_FRONT
62
7
6
CONTINUOUS
10
197.2423869031
20
230.0299834944
11
197.2423869031
21
230.2137674944
0
LINE
8
10000_FRONT
62
7
6
CONTINUOUS
10
197.3523455843
20
281.9624154944
11
197.3523455843
21
284.8164704944
0
LINE
8
10000_FRONT
62
7
6
CONTINUOUS
10
197.4249665843
20
230.5813344944
11
197.4249665843
21
230.3516054944
0
LINE
8
10000_FRONT
62
7
6
CONTINUOUS
10
197.6546965843
20
230.3056594944
11
197.6546965843
21
230.6272804944
0
LINE
8
13000_TOP
62
7
6
CONTINUOUS
10
198.0130895843
20
96.7987174944
11
198.0130895843
21
95.1987174944
0
LINE
8
10000_FRONT
62
7
6
CONTINUOUS
10
198.2979395843
20
230.6272804944
11
198.2979395843
21
230.3056594944
0
LINE
8
10000_FRONT
62
7
6
CONTINUOUS
10
198.5276695843
20
230.3516054944
11
198.5276695843
21
230.5813344944
0
LINE
8
10000_FRONT
62
7
6
CONTINUOUS
10
198.7114535843
20
230.3516054944
11
198.7114535843
21
230.2137674944
0
LINE
8
10000_FRONT
62
7
6
CONTINUOUS
10
199.3087505843
20
230.2137674944
11
199.3087505843
21
230.3516054944
0
LINE
8
10000_FRONT
62
7
6
CONTINUOUS
10
199.4925335843
20
230.5813344944
11
199.4925335843
21
230.3516054944
0
LINE
8
10000_FRONT
62
7
6
CONTINUOUS
10
199.7222635843
20
230.3056594944
11
199.7222635843
21
230.6272804944
0
LINE
8
10000_FRONT
62
7
6
CONTINUOUS
10
199.7739675843
20
284.8164704944
11
199.7739675843
21
281.9624154944
0
LINE
8
10000_FRONT
62
7
6
CONTINUOUS
10
200.2063995843
20
281.9624154944
11
200.2063995843
21
285.1624154944
0
LINE
8
10000_FRONT
62
7
6
CONTINUOUS
10
200.3655065843
20
230.6272804944
11
200.3655065843
21
230.3056594944
0
LINE
8
13000_TOP
62
7
6
CONTINUOUS
10
200.5630895843
20
91.2987174944
11
200.5630895843
21
94.6251044944
0
LINE
8
10000_FRONT
62
7
6
CONTINUOUS
10
200.5952355843
20
230.3516054944
11
200.5952355843
21
230.5813344944
0
LINE
8
13000_TOP
62
7
6
CONTINUOUS
10
200.8630895843
20
94.5800884944
11
200.8630895843
21
95.3800884944
0
LINE
8
10000_FRONT
62
7
6
CONTINUOUS
10
201.4289715843
20
349.8143334944
11
201.4289715843
21
314.7053244944
0
LINE
8
10000_FRONT
62
7
6
CONTINUOUS
10
201.4520985843
20
349.8143334944
11
201.4520985843
21
342.5573524944
0
LINE
8
10000_FRONT
62
7
6
CONTINUOUS
10
201.6130895843
20
350.0553244944
11
201.6130895843
21
314.4405124944
0
LINE
8
13000_TOP
62
7
6
CONTINUOUS
10
201.7630895843
20
122.4987174944
11
201.7630895843
21
117.4987174944
0
LINE
8
13000_TOP
62
7
6
CONTINUOUS
10
201.7630895843
20
115.9987174944
11
201.7630895843
21
110.9987174944
0
LINE
8
13000_TOP
62
7
6
CONTINUOUS
10
201.7630895843
20
109.4987174944
11
201.7630895843
21
104.4987174944
0
LINE
8
13000_TOP
62
7
6
CONTINUOUS
10
201.7630895843
20
102.9987174944
11
201.7630895843
21
97.9987174944
0
LINE
8
13000_TOP
62
7
6
CONTINUOUS
10
201.7630895843
20
58.9987174944
11
201.7630895843
21
63.9987174944
0
LINE
8
13000_TOP
62
7
6
CONTINUOUS
10
201.7630895843
20
65.4987174944
11
201.7630895843
21
70.4987174944
0
LINE
8
13000_TOP
62
7
6
CONTINUOUS
10
201.7630895843
20
71.9987174944
11
201.7630895843
21
76.9987174944
0
LINE
8
13000_TOP
62
7
6
CONTINUOUS
10
201.7630895843
20
78.4987174944
11
201.7630895843
21
83.4987174944
0
LINE
8
13000_TOP
62
7
6
CONTINUOUS
10
201.7630895843
20
84.9987174944
11
201.7630895843
21
89.9987174944
0
LINE
8
13000_TOP
62
7
6
CONTINUOUS
10
201.7630895843
20
123.9987174944
11
201.7630895843
21
128.9987174944
0
LINE
8
13000_TOP
62
7
6
CONTINUOUS
10
201.7630895843
20
130.4987174944
11
201.7630895843
21
135.4987174944
0
LINE
8
13000_TOP
62
7
6
CONTINUOUS
10
201.7630895843
20
136.9987174944
11
201.7630895843
21
141.9987174944
0
LINE
8
13000_TOP
62
7
6
CONTINUOUS
10
201.7630895843
20
143.4987174944
11
201.7630895843
21
148.4987174944
0
LINE
8
13000_TOP
62
7
6
CONTINUOUS
10
201.7630895843
20
149.9987174944
11
201.7630895843
21
154.9987174944
0
LINE
8
13000_TOP
62
7
6
CONTINUOUS
10
201.7630895843
20
156.4987174944
11
201.7630895843
21
160.3987174944
0
LINE
8
13000_TOP
62
7
6
CONTINUOUS
10
202.3875515843
20
54.5135684944
11
202.3875515843
21
58.0777244944
0
LINE
8
10000_FRONT
62
7
6
CONTINUOUS
10
202.6168585843
20
231.3624154944
11
202.6168585843
21
229.6624154944
0
LINE
8
10000_FRONT
62
7
6
CONTINUOUS
10
202.8465875843
20
229.8461994944
11
202.8465875843
21
230.4434974944
0
LINE
8
10000_FRONT
62
7
6
CONTINUOUS
10
202.8465875843
20
230.6272804944
11
202.8465875843
21
231.1786324944
0
LINE
8
10000_FRONT
62
7
6
CONTINUOUS
10
203.6276685843
20
230.4434974944
11
203.6276685843
21
230.6272804944
0
LINE
8
10000_FRONT
62
7
6
CONTINUOUS
10
203.6736145843
20
229.6624154944
11
203.6736145843
21
229.8461994944
0
LINE
8
10000_FRONT
62
7
6
CONTINUOUS
10
203.6736145843
20
231.1786324944
11
203.6736145843
21
231.3624154944
0
LINE
8
13000_TOP
62
7
6
CONTINUOUS
10
203.8630895843
20
160.3987174944
11
203.8630895843
21
156.4987174944
0
LINE
8
13000_TOP
62
7
6
CONTINUOUS
10
203.8630895843
20
148.4987174944
11
203.8630895843
21
143.4987174944
0
LINE
8
13000_TOP
62
7
6
CONTINUOUS
10
203.8630895843
20
141.9987174944
11
203.8630895843
21
136.9987174944
0
LINE
8
13000_TOP
62
7
6
CONTINUOUS
10
203.8630895843
20
135.4987174944
11
203.8630895843
21
130.4987174944
0
LINE
8
13000_TOP
62
7
6
CONTINUOUS
10
203.8630895843
20
128.9987174944
11
203.8630895843
21
123.9987174944
0
LINE
8
13000_TOP
62
7
6
CONTINUOUS
10
203.8630895843
20
122.4987174944
11
203.8630895843
21
117.4987174944
0
LINE
8
13000_TOP
62
7
6
CONTINUOUS
10
203.8630895843
20
115.9987174944
11
203.8630895843
21
110.9987174944
0
LINE
8
13000_TOP
62
7
6
CONTINUOUS
10
203.8630895843
20
109.4987174944
11
203.8630895843
21
104.4987174944
0
LINE
8
13000_TOP
62
7
6
CONTINUOUS
10
203.8630895843
20
102.9987174944
11
203.8630895843
21
97.9987174944
0
LINE
8
13000_TOP
62
7
6
CONTINUOUS
10
203.8630895843
20
54.6487174944
11
203.8630895843
21
57.4987174944
0
LINE
8
13000_TOP
62
7
6
CONTINUOUS
10
203.8630895843
20
58.9987174944
11
203.8630895843
21
63.9987174944
0
LINE
8
13000_TOP
62
7
6
CONTINUOUS
10
203.8630895843
20
65.4987174944
11
203.8630895843
21
70.4987174944
0
LINE
8
13000_TOP
62
7
6
CONTINUOUS
10
203.8630895843
20
71.9987174944
11
203.8630895843
21
76.9987174944
0
LINE
8
13000_TOP
62
7
6
CONTINUOUS
10
203.8630895843
20
78.4987174944
11
203.8630895843
21
83.4987174944
0
LINE
8
13000_TOP
62
7
6
CONTINUOUS
10
203.8630895843
20
84.9987174944
11
203.8630895843
21
89.9987174944
0
LINE
8
13000_TOP
62
7
6
CONTINUOUS
10
203.8630895843
20
149.9987174944
11
203.8630895843
21
154.9987174944
0
LINE
8
10000_FRONT
62
7
6
CONTINUOUS
10
203.9033455843
20
230.5813344944
11
203.9033455843
21
230.3516054944
0
LINE
8
10000_FRONT
62
7
6
CONTINUOUS
10
203.9253195843
20
285.1624154944
11
203.9253195843
21
284.7299834944
0
LINE
8
10000_FRONT
62
7
6
CONTINUOUS
10
204.1330745843
20
230.3056594944
11
204.1330745843
21
230.6272804944
0
LINE
8
13000_TOP
62
7
6
CONTINUOUS
10
204.7630895843
20
94.5800884944
11
204.7630895843
21
95.3800884944
0
LINE
8
10000_FRONT
62
7
6
CONTINUOUS
10
204.7763185843
20
230.6272804944
11
204.7763185843
21
230.3056594944
0
LINE
8
10000_FRONT
62
7
6
CONTINUOUS
10
204.9631565843
20
284.7299834944
11
204.9631565843
21
281.9624154944
0
LINE
8
10000_FRONT
62
7
6
CONTINUOUS
10
205.0060475843
20
230.3516054944
11
205.0060475843
21
230.5813344944
0
LINE
8
13000_TOP
62
7
6
CONTINUOUS
10
205.0630895843
20
91.2987174944
11
205.0630895843
21
94.6251044944
0
LINE
8
10000_FRONT
62
7
6
CONTINUOUS
10
205.3955885843
20
281.9624154944
11
205.3955885843
21
284.7299834944
0
LINE
8
10000_FRONT
62
7
6
CONTINUOUS
10
206.4334275843
20
284.7299834944
11
206.4334275843
21
285.1624154944
0
LINE
8
10000_FRONT
62
7
6
CONTINUOUS
10
206.9523455843
20
285.1624154944
11
206.9523455843
21
281.9624154944
0
LINE
8
10000_FRONT
62
7
6
CONTINUOUS
10
207.3847775843
20
281.9624154944
11
207.3847775843
21
285.1624154944
0
LINE
8
13000_TOP
62
7
6
CONTINUOUS
10
207.6130895843
20
96.7987174944
11
207.6130895843
21
95.1987174944
0
LINE
8
10000_FRONT
62
7
6
CONTINUOUS
10
207.6239275843
20
349.1539724944
11
207.6239275843
21
348.7972154944
0
LINE
8
10000_FRONT
62
7
6
CONTINUOUS
10
207.9212245843
20
348.8566754944
11
207.9212245843
21
349.0945134944
0
LINE
8
10000_FRONT
62
7
6
CONTINUOUS
10
207.9901845843
20
283.7786324944
11
207.9901845843
21
283.2597134944
0
LINE
8
10000_FRONT
62
7
6
CONTINUOUS
10
208.4226165843
20
283.3461994944
11
208.4226165843
21
283.6921454944
0
LINE
8
10000_FRONT
62
7
6
CONTINUOUS
10
209.3482515843
20
348.3809994944
11
209.3482515843
21
348.4999184944
0
LINE
8
10000_FRONT
62
7
6
CONTINUOUS
10
209.3482515843
20
349.5107294944
11
209.3482515843
21
349.6296484944
0
LINE
8
10000_FRONT
62
7
6
CONTINUOUS
10
209.7644675843
20
350.1053244944
11
209.7644675843
21
347.9053244944
0
LINE
8
10000_FRONT
62
7
6
CONTINUOUS
10
210.0617655843
20
347.9053244944
11
210.0617655843
21
348.9161344944
0
LINE
8
10000_FRONT
62
7
6
CONTINUOUS
10
210.0617655843
20
349.1539724944
11
210.0617655843
21
349.8674864944
0
LINE
8
10000_FRONT
62
7
6
CONTINUOUS
10
210.4982915843
20
282.6543074944
11
210.4982915843
21
282.8272804944
0
LINE
8
10000_FRONT
62
7
6
CONTINUOUS
10
210.4982915843
20
284.2975514944
11
210.4982915843
21
284.4705244944
0
LINE
8
10000_FRONT
62
7
6
CONTINUOUS
10
210.8941975843
20
349.5701884944
11
210.8941975843
21
349.3918104944
0
LINE
8
10000_FRONT
62
7
6
CONTINUOUS
10
211.1914955843
20
349.3323504944
11
211.1914955843
21
349.6296484944
0
LINE
8
13000_TOP
62
7
6
CONTINUOUS
10
212.1130895843
20
96.7987174944
11
212.1130895843
21
95.1987174944
0
LINE
8
10000_FRONT
62
7
6
CONTINUOUS
10
212.2617655843
20
348.4404594944
11
212.2617655843
21
348.3215404944
0
LINE
8
10000_FRONT
62
7
6
CONTINUOUS
10
212.3145085843
20
285.1624154944
11
212.3145085843
21
281.9624154944
0
LINE
8
10000_FRONT
62
7
6
CONTINUOUS
10
212.3212245843
20
349.6296484944
11
212.3212245843
21
349.5107294944
0
LINE
8
10000_FRONT
62
7
6
CONTINUOUS
10
212.5590625843
20
348.3215404944
11
212.5590625843
21
348.4404594944
0
LINE
8
10000_FRONT
62
7
6
CONTINUOUS
10
212.7469405843
20
281.9624154944
11
212.7469405843
21
284.6434964944
0
LINE
8
10000_FRONT
62
7
6
CONTINUOUS
10
212.7969005843
20
349.0945134944
11
212.7969005843
21
348.8566754944
0
LINE
8
10000_FRONT
62
7
6
CONTINUOUS
10
213.3320355843
20
349.5701884944
11
213.3320355843
21
349.3323504944
0
LINE
8
10000_FRONT
62
7
6
CONTINUOUS
10
213.3914945843
20
348.5593784944
11
213.3914945843
21
348.3809994944
0
LINE
8
10000_FRONT
62
7
6
CONTINUOUS
10
213.6293335843
20
349.3918104944
11
213.6293335843
21
349.6296484944
0
LINE
8
10000_FRONT
62
7
6
CONTINUOUS
10
213.6887925843
20
348.3809994944
11
213.6887925843
21
348.6188374944
0
LINE
8
13000_TOP
62
7
6
CONTINUOUS
10
213.7130895843
20
89.9987174944
11
213.7130895843
21
84.9987174944
0
LINE
8
13000_TOP
62
7
6
CONTINUOUS
10
213.7130895843
20
83.4987174944
11
213.7130895843
21
78.4987174944
0
LINE
8
13000_TOP
62
7
6
CONTINUOUS
10
213.7130895843
20
76.9987174944
11
213.7130895843
21
71.9987174944
0
LINE
8
13000_TOP
62
7
6
CONTINUOUS
10
213.7130895843
20
70.4987174944
11
213.7130895843
21
65.4987174944
0
LINE
8
13000_TOP
62
7
6
CONTINUOUS
10
213.7130895843
20
63.9987174944
11
213.7130895843
21
58.9987174944
0
LINE
8
13000_TOP
62
7
6
CONTINUOUS
10
213.7130895843
20
57.4987174944
11
213.7130895843
21
54.6897334944
0
LINE
8
13000_TOP
62
7
6
CONTINUOUS
10
213.7130895843
20
97.9987174944
11
213.7130895843
21
102.9987174944
0
LINE
8
13000_TOP
62
7
6
CONTINUOUS
10
213.7130895843
20
104.4987174944
11
213.7130895843
21
109.4987174944
0
LINE
8
13000_TOP
62
7
6
CONTINUOUS
10
213.7130895843
20
110.9987174944
11
213.7130895843
21
115.9987174944
0
LINE
8
13000_TOP
62
7
6
CONTINUOUS
10
213.7130895843
20
117.4987174944
11
213.7130895843
21
122.4987174944
0
LINE
8
13000_TOP
62
7
6
CONTINUOUS
10
213.7130895843
20
123.9987174944
11
213.7130895843
21
128.9987174944
0
LINE
8
13000_TOP
62
7
6
CONTINUOUS
10
213.7130895843
20
130.4987174944
11
213.7130895843
21
135.4987174944
0
LINE
8
13000_TOP
62
7
6
CONTINUOUS
10
213.7130895843
20
136.9987174944
11
213.7130895843
21
141.9987174944
0
LINE
8
10000_FRONT
62
7
6
CONTINUOUS
10
213.8671705843
20
348.6782964944
11
213.8671705843
21
348.3809994944
0
LINE
8
13000_TOP
62
7
6
CONTINUOUS
10
214.2130895843
20
154.9987174944
11
214.2130895843
21
149.9987174944
0
LINE
8
13000_TOP
62
7
6
CONTINUOUS
10
214.2130895843
20
143.4987174944
11
214.2130895843
21
148.4987174944
0
LINE
8
10000_FRONT
62
7
6
CONTINUOUS
10
214.4766695843
20
285.1624154944
11
214.4766695843
21
282.4813344944
0
LINE
8
10000_FRONT
62
7
6
CONTINUOUS
10
214.8779815843
20
349.7485674944
11
214.8779815843
21
348.6188374944
0
LINE
8
10000_FRONT
62
7
6
CONTINUOUS
10
214.8779815843
20
348.3809994944
11
214.8779815843
21
347.9053244944
0
LINE
8
10000_FRONT
62
7
6
CONTINUOUS
10
214.9091025843
20
281.9624154944
11
214.9091025843
21
285.1624154944
0
LINE
8
10000_FRONT
62
7
6
CONTINUOUS
10
215.1158195843
20
347.9053244944
11
215.1158195843
21
348.3809994944
0
LINE
8
10000_FRONT
62
7
6
CONTINUOUS
10
215.1158195843
20
348.6188374944
11
215.1158195843
21
350.0458644944
0
LINE
8
10000_FRONT
62
7
6
CONTINUOUS
10
215.4725765843
20
348.3809994944
11
215.4725765843
21
348.6188374944
0
LINE
8
10000_FRONT
62
7
6
CONTINUOUS
10
215.6509545843
20
348.4404594944
11
215.6509545843
21
348.3215404944
0
LINE
8
10000_FRONT
62
7
6
CONTINUOUS
10
215.6874805843
20
285.1624154944
11
215.6874805843
21
281.9624154944
0
LINE
8
10000_FRONT
62
7
6
CONTINUOUS
10
215.7104135843
20
349.6296484944
11
215.7104135843
21
349.5107294944
0
LINE
8
10000_FRONT
62
7
6
CONTINUOUS
10
215.9482515843
20
348.3215404944
11
215.9482515843
21
348.4404594944
0
LINE
8
10000_FRONT
62
7
6
CONTINUOUS
10
216.1199125843
20
282.3083614944
11
216.1199125843
21
283.4326864944
0
LINE
8
10000_FRONT
62
7
6
CONTINUOUS
10
216.1199125843
20
283.7786324944
11
216.1199125843
21
284.8164704944
0
LINE
8
10000_FRONT
62
7
6
CONTINUOUS
10
216.1860895843
20
349.0945134944
11
216.1860895843
21
348.8566754944
0
LINE
8
10000_FRONT
62
7
6
CONTINUOUS
10
216.7212245843
20
349.5701884944
11
216.7212245843
21
349.3323504944
0
LINE
8
10000_FRONT
62
7
6
CONTINUOUS
10
216.7806845843
20
348.5593784944
11
216.7806845843
21
348.3809994944
0
LINE
8
13000_TOP
62
7
6
CONTINUOUS
10
200.5630895843
20
94.6251044944
11
200.5639595843
21
94.6587724944
0
LINE
8
13000_TOP
62
7
6
CONTINUOUS
10
200.5639595843
20
94.6587724944
11
200.5666815843
21
94.6942914944
0
LINE
8
13000_TOP
62
7
6
CONTINUOUS
10
200.5666815843
20
94.6942914944
11
200.5714365843
21
94.7317564944
0
LINE
8
10000_FRONT
62
7
6
CONTINUOUS
10
198.2979395843
20
230.3056594944
11
198.2519935843
21
230.0299834944
0
LINE
8
10000_FRONT
62
7
6
CONTINUOUS
10
198.4817235843
20
230.0759294944
11
198.5276695843
21
230.3516054944
0
LINE
8
10000_FRONT
62
7
6
CONTINUOUS
10
199.5384795843
20
230.8570104944
11
199.4925335843
21
230.5813344944
0
LINE
8
10000_FRONT
62
7
6
CONTINUOUS
10
199.7222635843
20
230.6272804944
11
199.7682095843
21
230.9029564944
0
LINE
8
10000_FRONT
62
7
6
CONTINUOUS
10
200.3655065843
20
230.3056594944
11
200.3195605843
21
230.0299834944
0
LINE
8
10000_FRONT
62
7
6
CONTINUOUS
10
200.5492915843
20
230.0759294944
11
200.5952355843
21
230.3516054944
0
LINE
8
10000_FRONT
62
7
6
CONTINUOUS
10
203.9492915843
20
230.8570104944
11
203.9033455843
21
230.5813344944
0
LINE
8
10000_FRONT
62
7
6
CONTINUOUS
10
204.1330745843
20
230.6272804944
11
204.1790205843
21
230.9029564944
0
LINE
8
10000_FRONT
62
7
6
CONTINUOUS
10
204.7763185843
20
230.3056594944
11
204.7303725843
21
230.0299834944
0
LINE
8
10000_FRONT
62
7
6
CONTINUOUS
10
204.9601015843
20
230.0759294944
11
205.0060475843
21
230.3516054944
0
LINE
8
10000_FRONT
62
7
6
CONTINUOUS
10
196.2775219031
20
231.1786324944
11
196.1856299031
21
230.9948484944
0
LINE
8
10000_FRONT
62
7
6
CONTINUOUS
10
196.9667109031
20
230.7651184944
11
196.9207649031
21
230.6732264944
0
LINE
8
10000_FRONT
62
7
6
CONTINUOUS
10
197.6087505843
20
231.1326864944
11
197.4709125843
21
230.8570104944
0
LINE
8
10000_FRONT
62
7
6
CONTINUOUS
10
197.7006425843
20
230.9029564944
11
197.7465875843
21
230.9948484944
0
LINE
8
10000_FRONT
62
7
6
CONTINUOUS
10
198.2519935843
20
230.0299834944
11
198.2060475843
21
229.9380914944
0
LINE
8
10000_FRONT
62
7
6
CONTINUOUS
10
198.3438855843
20
229.8002534944
11
198.4817235843
21
230.0759294944
0
LINE
8
10000_FRONT
62
7
6
CONTINUOUS
10
199.6763175843
20
231.1326864944
11
199.5384795843
21
230.8570104944
0
LINE
8
10000_FRONT
62
7
6
CONTINUOUS
10
199.7682095843
20
230.9029564944
11
199.8141555843
21
230.9948484944
0
LINE
8
10000_FRONT
62
7
6
CONTINUOUS
10
200.3195605843
20
230.0299834944
11
200.2736145843
21
229.9380914944
0
LINE
8
10000_FRONT
62
7
6
CONTINUOUS
10
200.4114535843
20
229.8002534944
11
200.5492915843
21
230.0759294944
0
LINE
8
10000_FRONT
62
7
6
CONTINUOUS
10
204.0871285843
20
231.1326864944
11
203.9492915843
21
230.8570104944
0
LINE
8
10000_FRONT
62
7
6
CONTINUOUS
10
204.1790205843
20
230.9029564944
11
204.2249665843
21
230.9948484944
0
LINE
8
10000_FRONT
62
7
6
CONTINUOUS
10
204.7303725843
20
230.0299834944
11
204.6844265843
21
229.9380914944
0
LINE
8
10000_FRONT
62
7
6
CONTINUOUS
10
204.8222645843
20
229.8002534944
11
204.9601015843
21
230.0759294944
0
LINE
8
10000_FRONT
62
7
6
CONTINUOUS
10
190.3952365843
20
230.0299834944
11
190.3033445843
21
229.8921454944
0
LINE
8
10000_FRONT
62
7
6
CONTINUOUS
10
197.0126569031
20
230.0299834944
11
196.9207649031
21
229.8921454944
0
LINE
8
10000_FRONT
62
7
6
CONTINUOUS
10
195.4790205843
20
231.3624154944
11
195.0195605843
21
230.7191724944
0
LINE
8
10000_FRONT
62
7
6
CONTINUOUS
10
202.0195605843
20
231.3624154944
11
201.5601015843
21
230.7191724944
0
LINE
8
10000_FRONT
62
7
6
CONTINUOUS
10
195.1573995843
20
230.5353884944
11
195.7546965843
21
231.3624154944
0
LINE
8
10000_FRONT
62
7
6
CONTINUOUS
10
201.6979395843
20
230.5353884944
11
202.2952355843
21
231.3624154944
0
LINE
8
10000_FRONT
62
7
6
CONTINUOUS
10
194.4682095843
20
229.6624154944
11
195.0195605843
21
230.3975514944
0
LINE
8
10000_FRONT
62
7
6
CONTINUOUS
10
201.0087495843
20
229.6624154944
11
201.5601015843
21
230.3975514944
0
LINE
8
10000_FRONT
62
7
6
CONTINUOUS
10
194.8817235843
20
230.5353884944
11
194.1925335843
21
229.6624154944
0
LINE
8
10000_FRONT
62
7
6
CONTINUOUS
10
201.4222645843
20
230.5353884944
11
200.7330745843
21
229.6624154944
0
LINE
8
10000_FRONT
62
7
6
CONTINUOUS
10
187.2249665843
20
231.0407944944
11
187.2709125843
21
231.0867404944
0
LINE
8
10000_FRONT
62
7
6
CONTINUOUS
10
187.7763175843
20
230.5353884944
11
187.9141555843
21
230.6732264944
0
LINE
8
10000_FRONT
62
7
6
CONTINUOUS
10
187.7763175843
20
229.7083614944
11
187.9601015843
21
229.8921454944
0
LINE
8
10000_FRONT
62
7
6
CONTINUOUS
10
189.8438855843
20
231.0407944944
11
189.8898315843
21
231.0867404944
0
LINE
8
10000_FRONT
62
7
6
CONTINUOUS
10
190.3952365843
20
230.5353884944
11
190.5330745843
21
230.6732264944
0
LINE
8
10000_FRONT
62
7
6
CONTINUOUS
10
190.3952365843
20
229.7083614944
11
190.5790205843
21
229.8921454944
0
LINE
8
10000_FRONT
62
7
6
CONTINUOUS
10
192.1411825843
20
231.3164704944
11
192.0952365843
21
231.2705244944
0
LINE
8
10000_FRONT
62
7
6
CONTINUOUS
10
196.4613059031
20
231.0407944944
11
196.5072519031
21
231.0867404944
0
LINE
8
10000_FRONT
62
7
6
CONTINUOUS
10
197.7465875843
20
231.2705244944
11
197.6087505843
21
231.1326864944
0
LINE
8
10000_FRONT
62
7
6
CONTINUOUS
10
197.0126569031
20
230.5353884944
11
197.1504949031
21
230.6732264944
0
LINE
8
10000_FRONT
62
7
6
CONTINUOUS
10
197.7465875843
20
230.9948484944
11
197.8384795843
21
231.0867404944
0
LINE
8
10000_FRONT
62
7
6
CONTINUOUS
10
197.0126569031
20
229.7083614944
11
197.1964409031
21
229.8921454944
0
LINE
8
10000_FRONT
62
7
6
CONTINUOUS
10
198.2060475843
20
229.9380914944
11
198.1141555843
21
229.8461994944
0
LINE
8
10000_FRONT
62
7
6
CONTINUOUS
10
199.8141555843
20
231.2705244944
11
199.6763175843
21
231.1326864944
0
LINE
8
10000_FRONT
62
7
6
CONTINUOUS
10
198.2060475843
20
229.6624154944
11
198.3438855843
21
229.8002534944
0
LINE
8
10000_FRONT
62
7
6
CONTINUOUS
10
199.8141555843
20
230.9948484944
11
199.9060475843
21
231.0867404944
0
LINE
8
10000_FRONT
62
7
6
CONTINUOUS
10
200.2736145843
20
229.9380914944
11
200.1817235843
21
229.8461994944
0
LINE
8
10000_FRONT
62
7
6
CONTINUOUS
10
200.2736145843
20
229.6624154944
11
200.4114535843
21
229.8002534944
0
LINE
8
10000_FRONT
62
7
6
CONTINUOUS
10
204.2249665843
20
231.2705244944
11
204.0871285843
21
231.1326864944
0
LINE
8
10000_FRONT
62
7
6
CONTINUOUS
10
204.2249665843
20
230.9948484944
11
204.3168585843
21
231.0867404944
0
LINE
8
10000_FRONT
62
7
6
CONTINUOUS
10
209.0280215843
20
284.8164704944
11
209.2874805843
21
284.9029564944
0
LINE
8
10000_FRONT
62
7
6
CONTINUOUS
10
209.7199125843
20
282.3083614944
11
209.4604535843
21
282.2218754944
0
LINE
8
13000_TOP
62
7
6
CONTINUOUS
10
213.9292425843
20
90.1689784944
11
213.8678155843
21
90.1534424944
0
LINE
8
13000_TOP
62
7
6
CONTINUOUS
10
187.6292425843
20
83.6689784944
11
187.5678155843
21
83.6534424944
0
LINE
8
13000_TOP
62
7
6
CONTINUOUS
10
191.7583645843
20
84.8439914944
11
191.6969365843
21
84.8284554944
0
LINE
8
13000_TOP
62
7
6
CONTINUOUS
10
187.6292425843
20
90.1689784944
11
187.5678155843
21
90.1534424944
0
LINE
8
13000_TOP
62
7
6
CONTINUOUS
10
221.7630895843
20
109.4987174944
11
203.8630895843
21
109.4987174944
0
LINE
8
13000_TOP
62
7
6
CONTINUOUS
10
201.7630895843
20
109.4987174944
11
184.9130895843
21
109.4987174944
0
LINE
8
13000_TOP
62
7
6
CONTINUOUS
10
221.7630895843
20
110.9987174944
11
203.8630895843
21
110.9987174944
0
LINE
8
13000_TOP
62
7
6
CONTINUOUS
10
201.7630895843
20
110.9987174944
11
184.9130895843
21
110.9987174944
0
LINE
8
13000_TOP
62
7
6
CONTINUOUS
10
221.7630895843
20
115.9987174944
11
203.8630895843
21
115.9987174944
0
LINE
8
13000_TOP
62
7
6
CONTINUOUS
10
201.7630895843
20
115.9987174944
11
184.9130895843
21
115.9987174944
0
LINE
8
13000_TOP
62
7
6
CONTINUOUS
10
221.7630895843
20
117.4987174944
11
203.8630895843
21
117.4987174944
0
LINE
8
13000_TOP
62
7
6
CONTINUOUS
10
201.7630895843
20
117.4987174944
11
184.9130895843
21
117.4987174944
0
LINE
8
13000_TOP
62
7
6
CONTINUOUS
10
221.7630895843
20
122.4987174944
11
203.8630895843
21
122.4987174944
0
LINE
8
13000_TOP
62
7
6
CONTINUOUS
10
201.7630895843
20
122.4987174944
11
184.9130895843
21
122.4987174944
0
LINE
8
13000_TOP
62
7
6
CONTINUOUS
10
221.7630895843
20
123.9987174944
11
203.8630895843
21
123.9987174944
0
LINE
8
13000_TOP
62
7
6
CONTINUOUS
10
201.7630895843
20
123.9987174944
11
184.9130895843
21
123.9987174944
0
LINE
8
13000_TOP
62
7
6
CONTINUOUS
10
221.7630895843
20
128.9987174944
11
203.8630895843
21
128.9987174944
0
LINE
8
13000_TOP
62
7
6
CONTINUOUS
10
201.7630895843
20
128.9987174944
11
184.9130895843
21
128.9987174944
0
LINE
8
10000_FRONT
62
7
6
CONTINUOUS
10
187.2249665843
20
229.8461994944
11
187.1330745843
21
229.9840374944
0
LINE
8
10000_FRONT
62
7
6
CONTINUOUS
10
184.3593255843
20
228.0169754944
11
184.2171115843
21
228.2964114944
0
LINE
8
10000_FRONT
62
7
6
CONTINUOUS
10
187.7303715843
20
230.2597134944
11
187.7763175843
21
230.1678214944
0
LINE
8
10000_FRONT
62
7
6
CONTINUOUS
10
188.0060475843
20
230.2137674944
11
187.9141555843
21
230.3975514944
0
LINE
8
10000_FRONT
62
7
6
CONTINUOUS
10
187.9601015843
20
230.9948484944
11
187.8682095843
21
231.1786324944
0
LINE
8
10000_FRONT
62
7
6
CONTINUOUS
10
190.3492905843
20
230.2597134944
11
190.3952365843
21
230.1678214944
0
LINE
8
10000_FRONT
62
7
6
CONTINUOUS
10
190.6249665843
20
230.2137674944
11
190.5330745843
21
230.3975514944
0
LINE
8
10000_FRONT
62
7
6
CONTINUOUS
10
190.5790205843
20
230.9948484944
11
190.4871285843
21
231.1786324944
0
LINE
8
10000_FRONT
62
7
6
CONTINUOUS
10
196.9667109031
20
230.2597134944
11
197.0126569031
21
230.1678214944
0
LINE
8
10000_FRONT
62
7
6
CONTINUOUS
10
197.2423869031
20
230.2137674944
11
197.1504949031
21
230.3975514944
0
LINE
8
10000_FRONT
62
7
6
CONTINUOUS
10
185.5513245843
20
228.0685814944
11
185.6375005843
21
227.8526524944
0
LINE
8
10000_FRONT
62
7
6
CONTINUOUS
10
186.9033445843
20
229.9840374944
11
186.9492905843
21
229.8461994944
0
LINE
8
10000_FRONT
62
7
6
CONTINUOUS
10
189.5222635843
20
229.9840374944
11
189.5682095843
21
229.8461994944
0
LINE
8
10000_FRONT
62
7
6
CONTINUOUS
10
196.1396839031
20
229.9840374944
11
196.1856299031
21
229.8461994944
0
LINE
8
10000_FRONT
62
7
6
CONTINUOUS
10
192.5955895843
20
282.7407944944
11
192.6820755843
21
282.3948484944
0
LINE
8
10000_FRONT
62
7
6
CONTINUOUS
10
197.4249665843
20
230.3516054944
11
197.4709125843
21
230.0759294944
0
LINE
8
10000_FRONT
62
7
6
CONTINUOUS
10
197.7006425843
20
230.0299834944
11
197.6546965843
21
230.3056594944
0
LINE
8
10000_FRONT
62
7
6
CONTINUOUS
10
198.2519935843
20
230.9029564944
11
198.2979395843
21
230.6272804944
0
LINE
8
10000_FRONT
62
7
6
CONTINUOUS
10
198.5276695843
20
230.5813344944
11
198.4817235843
21
230.8570104944
0
LINE
8
10000_FRONT
62
7
6
CONTINUOUS
10
199.4925335843
20
230.3516054944
11
199.5384795843
21
230.0759294944
0
LINE
8
10000_FRONT
62
7
6
CONTINUOUS
10
199.7682095843
20
230.0299834944
11
199.7222635843
21
230.3056594944
0
LINE
8
10000_FRONT
62
7
6
CONTINUOUS
10
200.3195605843
20
230.9029564944
11
200.3655065843
21
230.6272804944
0
LINE
8
10000_FRONT
62
7
6
CONTINUOUS
10
200.5952355843
20
230.5813344944
11
200.5492915843
21
230.8570104944
0
LINE
8
10000_FRONT
62
7
6
CONTINUOUS
10
203.9033455843
20
230.3516054944
11
203.9492915843
21
230.0759294944
0
LINE
8
10000_FRONT
62
7
6
CONTINUOUS
10
204.1790205843
20
230.0299834944
11
204.1330745843
21
230.3056594944
0
LINE
8
10000_FRONT
62
7
6
CONTINUOUS
10
204.7303725843
20
230.9029564944
11
204.7763185843
21
230.6272804944
0
LINE
8
10000_FRONT
62
7
6
CONTINUOUS
10
205.0060475843
20
230.5813344944
11
204.9601015843
21
230.8570104944
0
LINE
8
10000_FRONT
62
7
6
CONTINUOUS
10
185.4716155843
20
351.5488414944
11
185.4408105843
21
351.7756094944
0
LINE
8
10000_FRONT
62
7
6
CONTINUOUS
10
217.0185225843
20
349.3918104944
11
217.0185225843
21
349.6296484944
0
LINE
8
10000_FRONT
62
7
6
CONTINUOUS
10
217.0779815843
20
348.3809994944
11
217.0779815843
21
348.6188374944
0
LINE
8
10000_FRONT
62
7
6
CONTINUOUS
10
217.3158195843
20
348.7972154944
11
217.3158195843
21
348.6188374944
0
LINE
8
10000_FRONT
62
7
6
CONTINUOUS
10
217.5901845843
20
283.4326864944
11
217.5901845843
21
283.7786324944
0
LINE
8
10000_FRONT
62
7
6
CONTINUOUS
10
217.6766695843
20
281.9624154944
11
217.6766695843
21
282.3083614944
0
LINE
8
10000_FRONT
62
7
6
CONTINUOUS
10
217.6766695843
20
284.8164704944
11
217.6766695843
21
285.1624154944
0
LINE
8
10000_FRONT
62
7
6
CONTINUOUS
10
218.0226165843
20
285.1624154944
11
218.0226165843
21
284.7299834944
0
LINE
8
10000_FRONT
62
7
6
CONTINUOUS
10
218.0887925843
20
348.6188374944
11
218.0887925843
21
348.7972154944
0
LINE
8
13000_TOP
62
7
6
CONTINUOUS
10
218.2130895843
20
89.9987174944
11
218.2130895843
21
84.9987174944
0
LINE
8
13000_TOP
62
7
6
CONTINUOUS
10
218.2130895843
20
83.4987174944
11
218.2130895843
21
78.4987174944
0
LINE
8
13000_TOP
62
7
6
CONTINUOUS
10
218.2130895843
20
76.9987174944
11
218.2130895843
21
71.9987174944
0
LINE
8
13000_TOP
62
7
6
CONTINUOUS
10
218.2130895843
20
70.4987174944
11
218.2130895843
21
65.4987174944
0
LINE
8
13000_TOP
62
7
6
CONTINUOUS
10
218.2130895843
20
63.9987174944
11
218.2130895843
21
58.9987174944
0
LINE
8
13000_TOP
62
7
6
CONTINUOUS
10
218.2130895843
20
97.9987174944
11
218.2130895843
21
102.9987174944
0
LINE
8
13000_TOP
62
7
6
CONTINUOUS
10
218.2130895843
20
104.4987174944
11
218.2130895843
21
109.4987174944
0
LINE
8
13000_TOP
62
7
6
CONTINUOUS
10
218.2130895843
20
110.9987174944
11
218.2130895843
21
115.9987174944
0
LINE
8
13000_TOP
62
7
6
CONTINUOUS
10
218.2130895843
20
117.4987174944
11
218.2130895843
21
122.4987174944
0
LINE
8
13000_TOP
62
7
6
CONTINUOUS
10
218.2130895843
20
123.9987174944
11
218.2130895843
21
128.9987174944
0
LINE
8
13000_TOP
62
7
6
CONTINUOUS
10
218.2130895843
20
130.4987174944
11
218.2130895843
21
135.4987174944
0
LINE
8
13000_TOP
62
7
6
CONTINUOUS
10
218.2130895843
20
136.9987174944
11
218.2130895843
21
141.9987174944
0
LINE
8
13000_TOP
62
7
6
CONTINUOUS
10
218.3130895843
20
154.9987174944
11
218.3130895843
21
149.9987174944
0
LINE
8
13000_TOP
62
7
6
CONTINUOUS
10
218.3130895843
20
143.4987174944
11
218.3130895843
21
148.4987174944
0
LINE
8
10000_FRONT
62
7
6
CONTINUOUS
10
218.5644675843
20
349.6891074944
11
218.5644675843
21
349.3918104944
0
LINE
8
10000_FRONT
62
7
6
CONTINUOUS
10
219.0401445843
20
349.6891074944
11
219.0401445843
21
347.9053244944
0
LINE
8
10000_FRONT
62
7
6
CONTINUOUS
10
219.0604525843
20
284.7299834944
11
219.0604525843
21
281.9624154944
0
LINE
8
10000_FRONT
62
7
6
CONTINUOUS
10
219.3374415843
20
347.9053244944
11
219.3374415843
21
350.0458644944
0
LINE
8
10000_FRONT
62
7
6
CONTINUOUS
10
219.4928865843
20
281.9624154944
11
219.4928865843
21
284.7299834944
0
LINE
8
13000_TOP
62
7
6
CONTINUOUS
10
220.1130895843
20
54.8987174944
11
220.1130895843
21
52.9987174944
0
LINE
8
13000_TOP
62
7
6
CONTINUOUS
10
220.5130895843
20
54.6727164944
11
220.5130895843
21
55.4967184944
0
LINE
8
10000_FRONT
62
7
6
CONTINUOUS
10
220.5307255843
20
284.7299834944
11
220.5307255843
21
285.1624154944
0
LINE
8
13000_TOP
62
7
6
CONTINUOUS
10
220.6895275843
20
89.9987174944
11
220.6895275843
21
84.9987174944
0
LINE
8
13000_TOP
62
7
6
CONTINUOUS
10
220.6895275843
20
83.4987174944
11
220.6895275843
21
78.4987174944
0
LINE
8
13000_TOP
62
7
6
CONTINUOUS
10
220.6895275843
20
76.9987174944
11
220.6895275843
21
71.9987174944
0
LINE
8
13000_TOP
62
7
6
CONTINUOUS
10
220.6895275843
20
70.4987174944
11
220.6895275843
21
65.4987174944
0
LINE
8
13000_TOP
62
7
6
CONTINUOUS
10
220.6895275843
20
63.9987174944
11
220.6895275843
21
58.9987174944
0
LINE
8
13000_TOP
62
7
6
CONTINUOUS
10
220.6895275843
20
57.4987174944
11
220.6895275843
21
56.0282314944
0
LINE
8
13000_TOP
62
7
6
CONTINUOUS
10
220.7065445843
20
56.0282314944
11
220.7065445843
21
54.6727164944
0
LINE
8
13000_TOP
62
7
6
CONTINUOUS
10
220.7130895843
20
54.6661704944
11
220.7130895843
21
54.1987174944
0
LINE
8
13000_TOP
62
7
6
CONTINUOUS
10
220.7130895843
20
57.6402184944
11
220.7130895843
21
58.8572164944
0
LINE
8
13000_TOP
62
7
6
CONTINUOUS
10
221.7566065843
20
50.3987174944
11
221.7566065843
21
51.3638174944
0
LINE
8
13000_TOP
62
7
6
CONTINUOUS
10
221.7630895843
20
122.4987174944
11
221.7630895843
21
117.4987174944
0
LINE
8
13000_TOP
62
7
6
CONTINUOUS
10
221.7630895843
20
115.9987174944
11
221.7630895843
21
110.9987174944
0
LINE
8
13000_TOP
62
7
6
CONTINUOUS
10
221.7630895843
20
102.9987174944
11
221.7630895843
21
97.9987174944
0
LINE
8
13000_TOP
62
7
6
CONTINUOUS
10
221.7630895843
20
104.4987174944
11
221.7630895843
21
109.4987174944
0
LINE
8
13000_TOP
62
7
6
CONTINUOUS
10
221.7630895843
20
123.9987174944
11
221.7630895843
21
128.9987174944
0
LINE
8
13000_TOP
62
7
6
CONTINUOUS
10
221.7630895843
20
130.4987174944
11
221.7630895843
21
135.4987174944
0
LINE
8
13000_TOP
62
7
6
CONTINUOUS
10
221.7630895843
20
136.9987174944
11
221.7630895843
21
141.9987174944
0
LINE
8
13000_TOP
62
7
6
CONTINUOUS
10
221.7630895843
20
143.4987174944
11
221.7630895843
21
148.4987174944
0
LINE
8
13000_TOP
62
7
6
CONTINUOUS
10
221.7630895843
20
149.9987174944
11
221.7630895843
21
154.9987174944
0
LINE
8
13000_TOP
62
7
6
CONTINUOUS
10
221.7630895843
20
156.4987174944
11
221.7630895843
21
160.3987174944
0
LINE
8
13000_TOP
62
7
6
CONTINUOUS
10
221.8130895843
20
91.2987174944
11
221.8130895843
21
53.2487174944
0
LINE
8
13000_TOP
62
7
6
CONTINUOUS
10
222.8130895843
20
52.9987174944
11
222.8130895843
21
167.2987174944
0
LINE
8
10000_FRONT
62
7
6
CONTINUOUS
10
222.8130895843
20
227.5643334944
11
222.8130895843
21
352.5643334944
0
LINE
8
13000_TOP
62
7
6
CONTINUOUS
10
220.3165545843
20
54.6897334944
11
220.3219905843
21
55.3126594944
0
LINE
8
13000_TOP
62
7
6
CONTINUOUS
10
220.3339625843
20
56.6845404944
11
220.3410685843
21
57.4987174944
0
LINE
8
13000_TOP
62
7
6
CONTINUOUS
10
220.7130895843
20
54.1987174944
11
220.7085775843
21
53.6816334944
0
LINE
8
13000_TOP
62
7
6
CONTINUOUS
10
221.7566065843
20
51.3638174944
11
221.8136985843
21
52.9987174944
0
LINE
8
13000_TOP
62
7
6
CONTINUOUS
10
222.7559975843
20
51.3638174944
11
222.8130895843
21
52.9987174944
0
LINE
8
13000_TOP
62
7
6
CONTINUOUS
10
200.5714365843
20
94.7317564944
11
200.5784345843
21
94.7713254944
0
LINE
8
13000_TOP
62
7
6
CONTINUOUS
10
200.5784345843
20
94.7713254944
11
200.5878925843
21
94.8130864944
0
LINE
8
13000_TOP
62
7
6
CONTINUOUS
10
200.5878925843
20
94.8130864944
11
200.6001075843
21
94.8573614944
0
LINE
8
10000_FRONT
62
7
6
CONTINUOUS
10
204.6844265843
20
229.9380914944
11
204.5925335843
21
229.8461994944
0
LINE
8
10000_FRONT
62
7
6
CONTINUOUS
10
204.6844265843
20
229.6624154944
11
204.8222645843
21
229.8002534944
0
LINE
8
10000_FRONT
62
7
6
CONTINUOUS
10
192.0952365843
20
231.2705244944
11
191.9114535843
21
231.1326864944
0
LINE
8
10000_FRONT
62
7
6
CONTINUOUS
10
191.9573985843
20
230.9029564944
11
192.1411825843
21
231.0407944944
0
LINE
8
10000_FRONT
62
7
6
CONTINUOUS
10
187.1790205843
20
231.2705244944
11
187.0411825843
21
231.1786324944
0
LINE
8
10000_FRONT
62
7
6
CONTINUOUS
10
187.6844255843
20
229.8921454944
11
187.5465885843
21
229.8002534944
0
LINE
8
10000_FRONT
62
7
6
CONTINUOUS
10
189.7979395843
20
231.2705244944
11
189.6601015843
21
231.1786324944
0
LINE
8
10000_FRONT
62
7
6
CONTINUOUS
10
191.9114535843
20
231.1326864944
11
191.7736155843
21
231.0407944944
0
LINE
8
10000_FRONT
62
7
6
CONTINUOUS
10
190.3033445843
20
229.8921454944
11
190.1655065843
21
229.8002534944
0
LINE
8
10000_FRONT
62
7
6
CONTINUOUS
10
196.4153599031
20
231.2705244944
11
196.2775219031
21
231.1786324944
0
LINE
8
10000_FRONT
62
7
6
CONTINUOUS
10
196.9207649031
20
229.8921454944
11
196.7829279031
21
229.8002534944
0
LINE
8
10000_FRONT
62
7
6
CONTINUOUS
10
187.2709125843
20
231.0867404944
11
187.3628045843
21
231.1326864944
0
LINE
8
10000_FRONT
62
7
6
CONTINUOUS
10
187.6844255843
20
230.6732264944
11
187.5925335843
21
230.6272804944
0
LINE
8
10000_FRONT
62
7
6
CONTINUOUS
10
187.6844255843
20
230.4894424944
11
187.7763175843
21
230.5353884944
0
LINE
8
10000_FRONT
62
7
6
CONTINUOUS
10
189.8898315843
20
231.0867404944
11
189.9817235843
21
231.1326864944
0
LINE
8
10000_FRONT
62
7
6
CONTINUOUS
10
190.3033445843
20
230.6732264944
11
190.2114535843
21
230.6272804944
0
LINE
8
10000_FRONT
62
7
6
CONTINUOUS
10
190.3033445843
20
230.4894424944
11
190.3952365843
21
230.5353884944
0
LINE
8
10000_FRONT
62
7
6
CONTINUOUS
10
191.7736155843
20
230.8110644944
11
191.9573985843
21
230.9029564944
0
LINE
8
10000_FRONT
62
7
6
CONTINUOUS
10
196.5072519031
20
231.0867404944
11
196.5991439031
21
231.1326864944
0
LINE
8
10000_FRONT
62
7
6
CONTINUOUS
10
196.9207649031
20
230.6732264944
11
196.8288729031
21
230.6272804944
0
LINE
8
10000_FRONT
62
7
6
CONTINUOUS
10
197.8384795843
20
231.0867404944
11
197.9303715843
21
231.1326864944
0
LINE
8
10000_FRONT
62
7
6
CONTINUOUS
10
196.9207649031
20
230.4894424944
11
197.0126569031
21
230.5353884944
0
LINE
8
10000_FRONT
62
7
6
CONTINUOUS
10
199.9060475843
20
231.0867404944
11
199.9979395843
21
231.1326864944
0
LINE
8
10000_FRONT
62
7
6
CONTINUOUS
10
198.1141555843
20
229.8461994944
11
198.0222635843
21
229.8002534944
0
LINE
8
10000_FRONT
62
7
6
CONTINUOUS
10
200.1817235843
20
229.8461994944
11
200.0898315843
21
229.8002534944
0
LINE
8
10000_FRONT
62
7
6
CONTINUOUS
10
204.3168585843
20
231.0867404944
11
204.4087495843
21
231.1326864944
0
LINE
8
13000_TOP
62
7
6
CONTINUOUS
10
221.7630895843
20
130.4987174944
11
203.8630895843
21
130.4987174944
0
LINE
8
13000_TOP
62
7
6
CONTINUOUS
10
201.7630895843
20
130.4987174944
11
184.9130895843
21
130.4987174944
0
LINE
8
13000_TOP
62
7
6
CONTINUOUS
10
221.7630895843
20
135.4987174944
11
203.8630895843
21
135.4987174944
0
LINE
8
13000_TOP
62
7
6
CONTINUOUS
10
201.7630895843
20
135.4987174944
11
184.9130895843
21
135.4987174944
0
LINE
8
13000_TOP
62
7
6
CONTINUOUS
10
221.7630895843
20
136.9987174944
11
203.8630895843
21
136.9987174944
0
LINE
8
13000_TOP
62
7
6
CONTINUOUS
10
201.7630895843
20
136.9987174944
11
184.9130895843
21
136.9987174944
0
LINE
8
13000_TOP
62
7
6
CONTINUOUS
10
221.7630895843
20
141.9987174944
11
203.8630895843
21
141.9987174944
0
LINE
8
13000_TOP
62
7
6
CONTINUOUS
10
201.7630895843
20
141.9987174944
11
184.9130895843
21
141.9987174944
0
LINE
8
13000_TOP
62
7
6
CONTINUOUS
10
221.7630895843
20
143.4987174944
11
203.8630895843
21
143.4987174944
0
LINE
8
13000_TOP
62
7
6
CONTINUOUS
10
201.7630895843
20
143.4987174944
11
184.9130895843
21
143.4987174944
0
LINE
8
13000_TOP
62
7
6
CONTINUOUS
10
221.7630895843
20
148.4987174944
11
203.8630895843
21
148.4987174944
0
LINE
8
13000_TOP
62
7
6
CONTINUOUS
10
201.7630895843
20
148.4987174944
11
184.9130895843
21
148.4987174944
0
LINE
8
13000_TOP
62
7
6
CONTINUOUS
10
221.7630895843
20
149.9987174944
11
203.8630895843
21
149.9987174944
0
LINE
8
13000_TOP
62
7
6
CONTINUOUS
10
201.7630895843
20
149.9987174944
11
184.9130895843
21
149.9987174944
0
LINE
8
10000_FRONT
62
7
6
CONTINUOUS
10
186.9492905843
20
229.8461994944
11
187.0411825843
21
229.7543074944
0
LINE
8
10000_FRONT
62
7
6
CONTINUOUS
10
187.6384795843
20
230.3516054944
11
187.7303715843
21
230.2597134944
0
LINE
8
10000_FRONT
62
7
6
CONTINUOUS
10
189.5682095843
20
229.8461994944
11
189.6601015843
21
229.7543074944
0
LINE
8
10000_FRONT
62
7
6
CONTINUOUS
10
190.2573985843
20
230.3516054944
11
190.3492905843
21
230.2597134944
0
LINE
8
10000_FRONT
62
7
6
CONTINUOUS
10
184.5797525843
20
227.7965044944
11
184.3593255843
21
228.0169754944
0
LINE
8
10000_FRONT
62
7
6
CONTINUOUS
10
185.6375005843
20
227.8526524944
11
185.7457445843
21
227.7151284944
0
LINE
8
10000_FRONT
62
7
6
CONTINUOUS
10
195.0195605843
20
230.7191724944
11
194.5141555843
21
231.3624154944
0
LINE
8
10000_FRONT
62
7
6
CONTINUOUS
10
201.5601015843
20
230.7191724944
11
201.0546955843
21
231.3624154944
0
LINE
8
10000_FRONT
62
7
6
CONTINUOUS
10
194.2384795843
20
231.3624154944
11
194.8817235843
21
230.5353884944
0
LINE
8
10000_FRONT
62
7
6
CONTINUOUS
10
200.7790205843
20
231.3624154944
11
201.4222645843
21
230.5353884944
0
LINE
8
10000_FRONT
62
7
6
CONTINUOUS
10
195.8006425843
20
229.6624154944
11
195.1573995843
21
230.5353884944
0
LINE
8
10000_FRONT
62
7
6
CONTINUOUS
10
202.3411825843
20
229.6624154944
11
201.6979395843
21
230.5353884944
0
LINE
8
10000_FRONT
62
7
6
CONTINUOUS
10
195.0195605843
20
230.3975514944
11
195.5249665843
21
229.6624154944
0
LINE
8
10000_FRONT
62
7
6
CONTINUOUS
10
201.5601015843
20
230.3975514944
11
202.0655065843
21
229.6624154944
0
LINE
8
10000_FRONT
62
7
6
CONTINUOUS
10
187.6384795843
20
231.0867404944
11
187.7303715843
21
230.9489024944
0
LINE
8
10000_FRONT
62
7
6
CONTINUOUS
10
189.8438855843
20
229.8461994944
11
189.7519935843
21
229.9840374944
0
LINE
8
10000_FRONT
62
7
6
CONTINUOUS
10
190.2573985843
20
231.0867404944
11
190.3492905843
21
230.9489024944
0
LINE
8
10000_FRONT
62
7
6
CONTINUOUS
10
196.4613059031
20
229.8461994944
11
196.3694139031
21
229.9840374944
0
LINE
8
10000_FRONT
62
7
6
CONTINUOUS
10
196.8748189031
20
231.0867404944
11
196.9667109031
21
230.9489024944
0
LINE
8
10000_FRONT
62
7
6
CONTINUOUS
10
197.4709125843
20
230.0759294944
11
197.6087505843
21
229.8002534944
0
LINE
8
10000_FRONT
62
7
6
CONTINUOUS
10
197.1964409031
20
230.9948484944
11
197.1045489031
21
231.1786324944
0
LINE
8
10000_FRONT
62
7
6
CONTINUOUS
10
197.7465875843
20
229.9380914944
11
197.7006425843
21
230.0299834944
0
LINE
8
10000_FRONT
62
7
6
CONTINUOUS
10
198.2060475843
20
230.9948484944
11
198.2519935843
21
230.9029564944
0
LINE
8
10000_FRONT
62
7
6
CONTINUOUS
10
198.4817235843
20
230.8570104944
11
198.3438855843
21
231.1326864944
0
LINE
8
10000_FRONT
62
7
6
CONTINUOUS
10
199.5384795843
20
230.0759294944
11
199.6763175843
21
229.8002534944
0
LINE
8
10000_FRONT
62
7
6
CONTINUOUS
10
199.8141555843
20
229.9380914944
11
199.7682095843
21
230.0299834944
0
LINE
8
10000_FRONT
62
7
6
CONTINUOUS
10
200.2736145843
20
230.9948484944
11
200.3195605843
21
230.9029564944
0
LINE
8
10000_FRONT
62
7
6
CONTINUOUS
10
200.5492915843
20
230.8570104944
11
200.4114535843
21
231.1326864944
0
LINE
8
10000_FRONT
62
7
6
CONTINUOUS
10
203.9492915843
20
230.0759294944
11
204.0871285843
21
229.8002534944
0
LINE
8
10000_FRONT
62
7
6
CONTINUOUS
10
204.2249665843
20
229.9380914944
11
204.1790205843
21
230.0299834944
0
LINE
8
10000_FRONT
62
7
6
CONTINUOUS
10
204.6844265843
20
230.9948484944
11
204.7303725843
21
230.9029564944
0
LINE
8
10000_FRONT
62
7
6
CONTINUOUS
10
204.9601015843
20
230.8570104944
11
204.8222645843
21
231.1326864944
0
LINE
8
10000_FRONT
62
7
6
CONTINUOUS
10
193.2009945843
20
284.0380914944
11
193.1145075843
21
284.2110644944
0
LINE
8
10000_FRONT
62
7
6
CONTINUOUS
10
202.9739675843
20
282.8272804944
11
203.3199135843
21
281.9624154944
0
LINE
8
10000_FRONT
62
7
6
CONTINUOUS
10
203.7523455843
20
281.9624154944
11
202.5415355843
21
285.1624154944
0
LINE
8
10000_FRONT
62
7
6
CONTINUOUS
10
193.1145075843
20
282.5678214944
11
193.0280215843
21
282.8272804944
0
LINE
8
10000_FRONT
62
7
6
CONTINUOUS
10
192.6820755843
20
284.1245784944
11
192.7685615843
21
283.8651184944
0
LINE
8
10000_FRONT
62
7
6
CONTINUOUS
10
194.9307245843
20
284.5570104944
11
194.8442375843
21
284.8164704944
0
LINE
8
10000_FRONT
62
7
6
CONTINUOUS
10
197.3523455843
20
284.8164704944
11
198.3036965843
21
281.9624154944
0
LINE
8
10000_FRONT
62
7
6
CONTINUOUS
10
198.5631565843
20
282.5678214944
11
197.6982915843
21
285.1624154944
0
LINE
8
10000_FRONT
62
7
6
CONTINUOUS
10
202.2820755843
20
284.7299834944
11
202.8009945843
21
283.1732264944
0
LINE
8
10000_FRONT
62
7
6
CONTINUOUS
10
208.0766695843
20
282.8272804944
11
208.1631565843
21
282.5678214944
0
LINE
8
10000_FRONT
62
7
6
CONTINUOUS
10
207.9901845843
20
283.2597134944
11
208.0766695843
21
282.8272804944
0
LINE
8
10000_FRONT
62
7
6
CONTINUOUS
10
208.5091025843
20
282.9137674944
11
208.4226165843
21
283.3461994944
0
LINE
8
10000_FRONT
62
7
6
CONTINUOUS
10
207.6239275843
20
348.7972154944
11
207.6833865843
21
348.4999184944
0
LINE
8
10000_FRONT
62
7
6
CONTINUOUS
10
207.9806845843
20
348.5593784944
11
207.9212245843
21
348.8566754944
0
LINE
8
13000_TOP
62
7
6
CONTINUOUS
10
220.6895275843
20
57.4987174944
11
220.7130895843
21
57.6402184944
0
LINE
8
13000_TOP
62
7
6
CONTINUOUS
10
200.6001075843
20
94.8573614944
11
200.6155655843
21
94.9048814944
0
LINE
8
13000_TOP
62
7
6
CONTINUOUS
10
200.6155655843
20
94.9048814944
11
200.6348555843
21
94.9563394944
0
LINE
8
13000_TOP
62
7
6
CONTINUOUS
10
200.6348555843
20
94.9563394944
11
200.6586205843
21
95.0123504944
0
LINE
8
11000_LEFT
62
7
6
CONTINUOUS
10
316.5720655843
20
329.4643334944
11
319.3144795843
21
334.2143334944
0
LINE
8
10000_FRONT
62
7
6
CONTINUOUS
10
204.5925335843
20
229.8461994944
11
204.5006415843
21
229.8002534944
0
LINE
8
10000_FRONT
62
7
6
CONTINUOUS
10
187.5465885843
20
229.6164704944
11
187.7763175843
21
229.7083614944
0
LINE
8
10000_FRONT
62
7
6
CONTINUOUS
10
190.1655065843
20
229.6164704944
11
190.3952365843
21
229.7083614944
0
LINE
8
10000_FRONT
62
7
6
CONTINUOUS
10
196.7829279031
20
229.6164704944
11
197.0126569031
21
229.7083614944
0
LINE
8
10000_FRONT
62
7
6
CONTINUOUS
10
187.5925335843
20
230.6272804944
11
187.4546965843
21
230.5813344944
0
LINE
8
10000_FRONT
62
7
6
CONTINUOUS
10
190.2114535843
20
230.6272804944
11
190.0736155843
21
230.5813344944
0
LINE
8
10000_FRONT
62
7
6
CONTINUOUS
10
197.8844265843
20
231.3164704944
11
197.7465875843
21
231.2705244944
0
LINE
8
10000_FRONT
62
7
6
CONTINUOUS
10
196.8288729031
20
230.6272804944
11
196.6910359031
21
230.5813344944
0
LINE
8
10000_FRONT
62
7
6
CONTINUOUS
10
199.9519935843
20
231.3164704944
11
199.8141555843
21
231.2705244944
0
LINE
8
10000_FRONT
62
7
6
CONTINUOUS
10
198.0682095843
20
229.6164704944
11
198.2060475843
21
229.6624154944
0
LINE
8
10000_FRONT
62
7
6
CONTINUOUS
10
204.3628045843
20
231.3164704944
11
204.2249665843
21
231.2705244944
0
LINE
8
10000_FRONT
62
7
6
CONTINUOUS
10
200.1357775843
20
229.6164704944
11
200.2736145843
21
229.6624154944
0
LINE
8
10000_FRONT
62
7
6
CONTINUOUS
10
204.5465875843
20
229.6164704944
11
204.6844265843
21
229.6624154944
0
LINE
8
10000_FRONT
62
7
6
CONTINUOUS
10
185.1682195843
20
227.6053244944
11
185.1937795843
21
227.6136014944
0
LINE
8
13000_TOP
62
7
6
CONTINUOUS
10
221.7630895843
20
154.9987174944
11
203.8630895843
21
154.9987174944
0
LINE
8
13000_TOP
62
7
6
CONTINUOUS
10
201.7630895843
20
154.9987174944
11
184.9130895843
21
154.9987174944
0
LINE
8
13000_TOP
62
7
6
CONTINUOUS
10
221.7630895843
20
156.4987174944
11
203.8630895843
21
156.4987174944
0
LINE
8
13000_TOP
62
7
6
CONTINUOUS
10
201.7630895843
20
156.4987174944
11
184.9130895843
21
156.4987174944
0
LINE
8
13000_TOP
62
7
6
CONTINUOUS
10
221.7630895843
20
160.3987174944
11
203.8630895843
21
160.3987174944
0
LINE
8
13000_TOP
62
7
6
CONTINUOUS
10
201.7630895843
20
160.3987174944
11
184.9130895843
21
160.3987174944
0
LINE
8
13000_TOP
62
7
6
CONTINUOUS
10
222.8130895843
20
161.3987174944
11
182.8130895843
21
161.3987174944
0
LINE
8
13000_TOP
62
7
6
CONTINUOUS
10
222.8130895843
20
161.8987174944
11
182.8130895843
21
161.8987174944
0
LINE
8
13000_TOP
62
7
6
CONTINUOUS
10
222.8130895843
20
165.2987174944
11
182.8130895843
21
165.2987174944
0
LINE
8
13000_TOP
62
7
6
CONTINUOUS
10
222.8130895843
20
167.2987174944
11
184.8130895843
21
167.2987174944
0
LINE
8
10000_FRONT
62
7
6
CONTINUOUS
10
187.0411825843
20
229.7543074944
11
187.1790205843
21
229.6624154944
0
LINE
8
10000_FRONT
62
7
6
CONTINUOUS
10
189.6601015843
20
229.7543074944
11
189.7979395843
21
229.6624154944
0
LINE
8
10000_FRONT
62
7
6
CONTINUOUS
10
187.8682095843
20
231.1786324944
11
187.7303715843
21
231.2705244944
0
LINE
8
10000_FRONT
62
7
6
CONTINUOUS
10
190.4871285843
20
231.1786324944
11
190.3492905843
21
231.2705244944
0
LINE
8
10000_FRONT
62
7
6
CONTINUOUS
10
196.2775219031
20
229.7543074944
11
196.4153599031
21
229.6624154944
0
LINE
8
10000_FRONT
62
7
6
CONTINUOUS
10
186.9155065843
20
237.2185244944
11
186.9216155843
21
237.2124154944
0
LINE
8
10000_FRONT
62
7
6
CONTINUOUS
10
196.1856299031
20
229.8461994944
11
196.2775219031
21
229.7543074944
0
LINE
8
10000_FRONT
62
7
6
CONTINUOUS
10
196.8748189031
20
230.3516054944
11
196.9667109031
21
230.2597134944
0
LINE
8
10000_FRONT
62
7
6
CONTINUOUS
10
197.6087505843
20
229.8002534944
11
197.7465875843
21
229.6624154944
0
LINE
8
10000_FRONT
62
7
6
CONTINUOUS
10
197.8384795843
20
229.8461994944
11
197.7465875843
21
229.9380914944
0
LINE
8
10000_FRONT
62
7
6
CONTINUOUS
10
198.1141555843
20
231.0867404944
11
198.2060475843
21
230.9948484944
0
LINE
8
10000_FRONT
62
7
6
CONTINUOUS
10
199.6763175843
20
229.8002534944
11
199.8141555843
21
229.6624154944
0
LINE
8
10000_FRONT
62
7
6
CONTINUOUS
10
198.3438855843
20
231.1326864944
11
198.2060475843
21
231.2705244944
0
LINE
8
10000_FRONT
62
7
6
CONTINUOUS
10
199.9060475843
20
229.8461994944
11
199.8141555843
21
229.9380914944
0
LINE
8
10000_FRONT
62
7
6
CONTINUOUS
10
200.1817235843
20
231.0867404944
11
200.2736145843
21
230.9948484944
0
LINE
8
10000_FRONT
62
7
6
CONTINUOUS
10
200.4114535843
20
231.1326864944
11
200.2736145843
21
231.2705244944
0
LINE
8
10000_FRONT
62
7
6
CONTINUOUS
10
204.0871285843
20
229.8002534944
11
204.2249665843
21
229.6624154944
0
LINE
8
10000_FRONT
62
7
6
CONTINUOUS
10
204.3168585843
20
229.8461994944
11
204.2249665843
21
229.9380914944
0
LINE
8
10000_FRONT
62
7
6
CONTINUOUS
10
204.5925335843
20
231.0867404944
11
204.6844265843
21
230.9948484944
0
LINE
8
10000_FRONT
62
7
6
CONTINUOUS
10
204.8222645843
20
231.1326864944
11
204.6844265843
21
231.2705244944
0
LINE
8
10000_FRONT
62
7
6
CONTINUOUS
10
192.6820755843
20
282.3948484944
11
192.8550485843
21
282.1353884944
0
LINE
8
10000_FRONT
62
7
6
CONTINUOUS
10
194.4982915843
20
283.0867404944
11
194.5847785843
21
282.9137674944
0
LINE
8
10000_FRONT
62
7
6
CONTINUOUS
10
195.0172105843
20
283.0867404944
11
194.8442375843
21
283.4326864944
0
LINE
8
10000_FRONT
62
7
6
CONTINUOUS
10
194.4118055843
20
284.6434964944
11
194.4982915843
21
284.4705244944
0
LINE
8
10000_FRONT
62
7
6
CONTINUOUS
10
208.6820755843
20
282.5678214944
11
208.5091025843
21
282.9137674944
0
LINE
8
10000_FRONT
62
7
6
CONTINUOUS
10
185.4408105843
20
351.7756094944
11
185.3502205843
21
351.9972264944
0
LINE
8
10000_FRONT
62
7
6
CONTINUOUS
10
209.9793735843
20
284.5570104944
11
210.0658585843
21
284.2975514944
0
LINE
8
10000_FRONT
62
7
6
CONTINUOUS
10
210.4982915843
20
284.4705244944
11
210.4118055843
21
284.7299834944
0
LINE
8
10000_FRONT
62
7
6
CONTINUOUS
10
207.6833865843
20
348.4999184944
11
207.7428465843
21
348.3215404944
0
LINE
8
10000_FRONT
62
7
6
CONTINUOUS
10
208.9914955843
20
349.6891074944
11
209.0509545843
21
349.5107294944
0
LINE
8
10000_FRONT
62
7
6
CONTINUOUS
10
209.3482515843
20
349.6296484944
11
209.2887925843
21
349.8080264944
0
LINE
8
10000_FRONT
62
7
6
CONTINUOUS
10
222.7645985843
20
351.9135904944
11
222.8130895843
21
351.6059334944
0
LINE
8
13000_TOP
62
7
6
CONTINUOUS
10
216.9381505843
20
57.4987174944
11
216.9753585843
21
57.6402184944
0
LINE
8
13000_TOP
62
7
6
CONTINUOUS
10
220.5130895843
20
55.4967184944
11
220.7065445843
21
56.0282314944
0
LINE
8
13000_TOP
62
7
6
CONTINUOUS
10
200.6586205843
20
95.0123504944
11
200.6875435843
21
95.0735344944
0
LINE
8
13000_TOP
62
7
6
CONTINUOUS
10
188.3130895843
20
58.0297234944
11
188.3212445843
21
58.0460344944
0
LINE
8
13000_TOP
62
7
6
CONTINUOUS
10
200.6875435843
20
95.0735344944
11
200.7221815843
21
95.1403424944
0
LINE
8
13000_TOP
62
7
6
CONTINUOUS
10
200.7221815843
20
95.1403424944
11
200.7629195843
21
95.2132224944
0
LINE
8
13000_TOP
62
7
6
CONTINUOUS
10
200.7629195843
20
95.2132224944
11
200.8099475843
21
95.2928334944
0
LINE
8
13000_TOP
62
7
6
CONTINUOUS
10
200.8099475843
20
95.2928334944
11
200.8630895843
21
95.3800884944
0
LINE
8
10000_FRONT
62
7
6
CONTINUOUS
10
185.7457445843
20
227.7151284944
11
185.8682265843
21
227.6624154944
0
LINE
8
10000_FRONT
62
7
6
CONTINUOUS
10
187.9141555843
20
230.3975514944
11
187.8222635843
21
230.4434974944
0
LINE
8
10000_FRONT
62
7
6
CONTINUOUS
10
187.5465885843
20
231.1326864944
11
187.6384795843
21
231.0867404944
0
LINE
8
10000_FRONT
62
7
6
CONTINUOUS
10
190.5330745843
20
230.3975514944
11
190.4411825843
21
230.4434974944
0
LINE
8
10000_FRONT
62
7
6
CONTINUOUS
10
190.1655065843
20
231.1326864944
11
190.2573985843
21
231.0867404944
0
LINE
8
10000_FRONT
62
7
6
CONTINUOUS
10
197.9303715843
20
229.8002534944
11
197.8384795843
21
229.8461994944
0
LINE
8
10000_FRONT
62
7
6
CONTINUOUS
10
197.1504949031
20
230.3975514944
11
197.0586029031
21
230.4434974944
0
LINE
8
10000_FRONT
62
7
6
CONTINUOUS
10
196.7829279031
20
231.1326864944
11
196.8748189031
21
231.0867404944
0
LINE
8
10000_FRONT
62
7
6
CONTINUOUS
10
199.9979395843
20
229.8002534944
11
199.9060475843
21
229.8461994944
0
LINE
8
10000_FRONT
62
7
6
CONTINUOUS
10
198.0222635843
20
231.1326864944
11
198.1141555843
21
231.0867404944
0
LINE
8
10000_FRONT
62
7
6
CONTINUOUS
10
200.0898315843
20
231.1326864944
11
200.1817235843
21
231.0867404944
0
LINE
8
10000_FRONT
62
7
6
CONTINUOUS
10
204.4087495843
20
229.8002534944
11
204.3168585843
21
229.8461994944
0
LINE
8
10000_FRONT
62
7
6
CONTINUOUS
10
204.5006415843
20
231.1326864944
11
204.5925335843
21
231.0867404944
0
LINE
8
10000_FRONT
62
7
6
CONTINUOUS
10
184.8601795843
20
227.6538434944
11
184.5797525843
21
227.7965044944
0
LINE
8
10000_FRONT
62
7
6
CONTINUOUS
10
197.1045489031
20
231.1786324944
11
196.9667109031
21
231.2705244944
0
LINE
8
10000_FRONT
62
7
6
CONTINUOUS
10
193.3739675843
20
282.3083614944
11
193.1145075843
21
282.5678214944
0
LINE
8
10000_FRONT
62
7
6
CONTINUOUS
10
192.7685615843
20
283.8651184944
11
193.0280215843
21
283.6056594944
0
LINE
8
10000_FRONT
62
7
6
CONTINUOUS
10
194.4118055843
20
283.1732264944
11
194.4982915843
21
283.0867404944
0
LINE
8
10000_FRONT
62
7
6
CONTINUOUS
10
194.2388325843
20
284.8164704944
11
194.4118055843
21
284.6434964944
0
LINE
8
10000_FRONT
62
7
6
CONTINUOUS
10
194.8442375843
20
284.8164704944
11
194.6712645843
21
284.9894424944
0
LINE
8
10000_FRONT
62
7
6
CONTINUOUS
10
208.1631565843
20
282.5678214944
11
208.3361295843
21
282.3083614944
0
LINE
8
10000_FRONT
62
7
6
CONTINUOUS
10
210.4118055843
20
284.7299834944
11
210.2388325843
21
284.9894424944
0
LINE
8
10000_FRONT
62
7
6
CONTINUOUS
10
212.7469405843
20
284.6434964944
11
214.3036975843
21
281.9624154944
0
LINE
8
10000_FRONT
62
7
6
CONTINUOUS
10
214.4766695843
20
282.4813344944
11
212.9199125843
21
285.1624154944
0
LINE
8
10000_FRONT
62
7
6
CONTINUOUS
10
210.8347385843
20
349.7485674944
11
210.8941975843
21
349.5701884944
0
LINE
8
10000_FRONT
62
7
6
CONTINUOUS
10
211.1914955843
20
349.6296484944
11
211.1320355843
21
349.8080264944
0
LINE
8
10000_FRONT
62
7
6
CONTINUOUS
10
212.2617655843
20
348.3215404944
11
212.3212245843
21
348.1431614944
0
LINE
8
10000_FRONT
62
7
6
CONTINUOUS
10
215.6509545843
20
348.3215404944
11
215.7104135843
21
348.1431614944
0
LINE
8
13000_TOP
62
7
6
CONTINUOUS
10
216.0130895843
20
52.9987174944
11
217.9524525843
21
57.3638224944
0
LINE
8
13000_TOP
62
7
6
CONTINUOUS
10
215.6243505843
20
54.6487174944
11
215.1016455843
21
53.4747024944
0
LINE
8
13000_TOP
62
7
6
CONTINUOUS
10
216.9918955843
20
57.7031074944
11
215.6351015843
21
54.6556984944
0
LINE
8
11000_LEFT
62
7
6
CONTINUOUS
10
315.9010815843
20
251.6805714944
11
317.0010815843
21
252.7805714944
0
LINE
8
10000_FRONT
62
7
6
CONTINUOUS
10
185.1682375843
20
227.6053244944
11
184.8601795843
21
227.6538434944
0
LINE
8
10000_FRONT
62
7
6
CONTINUOUS
10
187.1790205843
20
229.6624154944
11
187.3628045843
21
229.6164704944
0
LINE
8
10000_FRONT
62
7
6
CONTINUOUS
10
189.7979395843
20
229.6624154944
11
189.9817235843
21
229.6164704944
0
LINE
8
10000_FRONT
62
7
6
CONTINUOUS
10
196.4153599031
20
229.6624154944
11
196.5991439031
21
229.6164704944
0
LINE
8
10000_FRONT
62
7
6
CONTINUOUS
10
187.3628045843
20
229.8002534944
11
187.2249665843
21
229.8461994944
0
LINE
8
10000_FRONT
62
7
6
CONTINUOUS
10
187.5006425843
20
230.3975514944
11
187.6384795843
21
230.3516054944
0
LINE
8
10000_FRONT
62
7
6
CONTINUOUS
10
187.8222635843
20
230.4434974944
11
187.6844255843
21
230.4894424944
0
LINE
8
10000_FRONT
62
7
6
CONTINUOUS
10
189.9817235843
20
229.8002534944
11
189.8438855843
21
229.8461994944
0
LINE
8
10000_FRONT
62
7
6
CONTINUOUS
10
190.1195615843
20
230.3975514944
11
190.2573985843
21
230.3516054944
0
LINE
8
10000_FRONT
62
7
6
CONTINUOUS
10
187.7303715843
20
231.2705244944
11
187.5925335843
21
231.3164704944
0
LINE
8
10000_FRONT
62
7
6
CONTINUOUS
10
190.4411825843
20
230.4434974944
11
190.3033445843
21
230.4894424944
0
LINE
8
10000_FRONT
62
7
6
CONTINUOUS
10
190.3492905843
20
231.2705244944
11
190.2114535843
21
231.3164704944
0
LINE
8
10000_FRONT
62
7
6
CONTINUOUS
10
196.5991439031
20
229.8002534944
11
196.4613059031
21
229.8461994944
0
LINE
8
10000_FRONT
62
7
6
CONTINUOUS
10
197.7465875843
20
229.6624154944
11
197.8844265843
21
229.6164704944
0
LINE
8
10000_FRONT
62
7
6
CONTINUOUS
10
196.7369819031
20
230.3975514944
11
196.8748189031
21
230.3516054944
0
LINE
8
10000_FRONT
62
7
6
CONTINUOUS
10
197.0586029031
20
230.4434974944
11
196.9207649031
21
230.4894424944
0
LINE
8
10000_FRONT
62
7
6
CONTINUOUS
10
199.8141555843
20
229.6624154944
11
199.9519935843
21
229.6164704944
0
LINE
8
10000_FRONT
62
7
6
CONTINUOUS
10
196.9667109031
20
231.2705244944
11
196.8288729031
21
231.3164704944
0
LINE
8
10000_FRONT
62
7
6
CONTINUOUS
10
198.2060475843
20
231.2705244944
11
198.0682095843
21
231.3164704944
0
LINE
8
10000_FRONT
62
7
6
CONTINUOUS
10
204.2249665843
20
229.6624154944
11
204.3628045843
21
229.6164704944
0
LINE
8
10000_FRONT
62
7
6
CONTINUOUS
10
200.2736145843
20
231.2705244944
11
200.1357775843
21
231.3164704944
0
LINE
8
10000_FRONT
62
7
6
CONTINUOUS
10
204.6844265843
20
231.2705244944
11
204.5465875843
21
231.3164704944
0
LINE
8
10000_FRONT
62
7
6
CONTINUOUS
10
184.1685735843
20
280.7553244944
11
184.1632135843
21
280.7591114944
0
LINE
8
10000_FRONT
62
7
6
CONTINUOUS
10
208.3361295843
20
282.3083614944
11
208.5091025843
21
282.1353884944
0
LINE
8
10000_FRONT
62
7
6
CONTINUOUS
10
208.8550475843
20
282.3948484944
11
208.6820755843
21
282.5678214944
0
LINE
8
10000_FRONT
62
7
6
CONTINUOUS
10
209.7199125843
20
284.8164704944
11
209.9793735843
21
284.5570104944
0
LINE
8
10000_FRONT
62
7
6
CONTINUOUS
10
185.3502205843
20
351.9972264944
11
185.2097465843
21
352.2007004944
0
LINE
8
10000_FRONT
62
7
6
CONTINUOUS
10
207.7428465843
20
348.3215404944
11
207.8617655843
21
348.1431614944
0
LINE
8
10000_FRONT
62
7
6
CONTINUOUS
10
222.6219225843
20
352.1939374944
11
222.7645985843
21
351.9135904944
0
LINE
8
10000_FRONT
62
7
6
CONTINUOUS
10
208.0996035843
20
348.3215404944
11
207.9806845843
21
348.5593784944
0
LINE
8
10000_FRONT
62
7
6
CONTINUOUS
10
213.3320355843
20
348.6782964944
11
213.3914945843
21
348.5593784944
0
LINE
8
10000_FRONT
62
7
6
CONTINUOUS
10
213.6887925843
20
348.6188374944
11
213.5698735843
21
348.8566754944
0
LINE
8
10000_FRONT
62
7
6
CONTINUOUS
10
213.6293335843
20
349.6296484944
11
213.5104135843
21
349.8674864944
0
LINE
8
10000_FRONT
62
7
6
CONTINUOUS
10
216.7212245843
20
348.6782964944
11
216.7806845843
21
348.5593784944
0
LINE
8
10000_FRONT
62
7
6
CONTINUOUS
10
217.0779815843
20
348.6188374944
11
216.9590625843
21
348.8566754944
0
LINE
8
10000_FRONT
62
7
6
CONTINUOUS
10
217.0185225843
20
349.6296484944
11
216.8996025843
21
349.8674864944
0
LINE
8
11000_LEFT
62
7
6
CONTINUOUS
10
311.0010815843
20
327.4643334944
11
311.0010815843
21
305.0643334944
0
LINE
8
11000_LEFT
62
7
6
CONTINUOUS
10
311.0010815843
20
245.3643334944
11
311.0010815843
21
287.0643334944
0
LINE
8
11000_LEFT
62
7
6
CONTINUOUS
10
311.8671075843
20
280.9843334944
11
311.8671075843
21
250.8843334944
0
LINE
8
11000_LEFT
62
7
6
CONTINUOUS
10
313.0010815843
20
329.4643334944
11
313.0010815843
21
303.0643334944
0
LINE
8
11000_LEFT
62
7
6
CONTINUOUS
10
313.0010815843
20
287.0643334944
11
313.0010815843
21
285.5557624944
0
LINE
8
11000_LEFT
62
7
6
CONTINUOUS
10
313.0010815843
20
247.0092044944
11
313.0010815843
21
245.3643334944
0
LINE
8
11000_LEFT
62
7
6
CONTINUOUS
10
315.9010815843
20
247.3843334944
11
315.9010815843
21
284.9343334944
0
LINE
8
11000_LEFT
62
7
6
CONTINUOUS
10
316.4010815843
20
287.0643334944
11
316.4010815843
21
303.0643334944
0
LINE
8
11000_LEFT
62
7
6
CONTINUOUS
10
316.4010815843
20
348.0643334944
11
316.4010815843
21
352.0643334944
0
LINE
8
11000_LEFT
62
7
6
CONTINUOUS
10
316.9010815843
20
252.6805714944
11
316.9010815843
21
281.1044844944
0
LINE
8
11000_LEFT
62
7
6
CONTINUOUS
10
319.4010815843
20
348.0643334944
11
319.4010815843
21
347.8143334944
0
LINE
8
13000_TOP
62
7
6
CONTINUOUS
10
215.0363225843
20
53.3812484944
11
215.1016455843
21
53.4747024944
0
LINE
8
13000_TOP
62
7
6
CONTINUOUS
10
187.4130895843
20
89.9987174944
11
187.5678155843
21
90.1534424944
0
LINE
8
13000_TOP
62
7
6
CONTINUOUS
10
187.4130895843
20
83.4987174944
11
187.5678155843
21
83.6534424944
0
LINE
8
13000_TOP
62
7
6
CONTINUOUS
10
191.9130895843
20
84.9987174944
11
191.7583645843
21
84.8439914944
0
LINE
8
13000_TOP
62
7
6
CONTINUOUS
10
187.4130895843
20
76.9987174944
11
187.5678155843
21
77.1534424944
0
LINE
8
13000_TOP
62
7
6
CONTINUOUS
10
191.9130895843
20
78.4987174944
11
191.7583645843
21
78.3439914944
0
LINE
8
13000_TOP
62
7
6
CONTINUOUS
10
187.4130895843
20
70.4987174944
11
187.5678155843
21
70.6534424944
0
LINE
8
13000_TOP
62
7
6
CONTINUOUS
10
191.9130895843
20
71.9987174944
11
191.7583645843
21
71.8439914944
0
LINE
8
10000_FRONT
62
7
6
CONTINUOUS
10
185.6274215843
20
227.6518854944
11
185.8675925843
21
227.6624154944
0
LINE
8
10000_FRONT
62
7
6
CONTINUOUS
10
184.7543505843
20
228.6494444944
11
185.0624865843
21
228.6597804944
0
LINE
8
10000_FRONT
62
7
6
CONTINUOUS
10
185.0624865843
20
228.6597804944
11
185.4716155843
21
228.6699524944
0
LINE
8
10000_FRONT
62
7
6
CONTINUOUS
10
182.8130895843
20
227.5643334944
11
183.7886575843
21
227.5643334944
0
LINE
8
10000_FRONT
62
7
6
CONTINUOUS
10
183.8130895843
20
227.5643334944
11
222.8130895843
21
227.5643334944
0
LINE
8
11000_LEFT
62
7
6
CONTINUOUS
10
322.7010815843
20
227.5643334944
11
427.9007835843
21
227.5643334944
0
LINE
8
10000_FRONT
62
7
6
CONTINUOUS
10
187.3628045843
20
229.6164704944
11
187.5465885843
21
229.6164704944
0
LINE
8
10000_FRONT
62
7
6
CONTINUOUS
10
189.9817235843
20
229.6164704944
11
190.1655065843
21
229.6164704944
0
LINE
8
10000_FRONT
62
7
6
CONTINUOUS
10
196.5991439031
20
229.6164704944
11
196.7829279031
21
229.6164704944
0
LINE
8
10000_FRONT
62
7
6
CONTINUOUS
10
197.8844265843
20
229.6164704944
11
198.0682095843
21
229.6164704944
0
LINE
8
10000_FRONT
62
7
6
CONTINUOUS
10
199.9519935843
20
229.6164704944
11
200.1357775843
21
229.6164704944
0
LINE
8
10000_FRONT
62
7
6
CONTINUOUS
10
204.3628045843
20
229.6164704944
11
204.5465875843
21
229.6164704944
0
LINE
8
10000_FRONT
62
7
6
CONTINUOUS
10
188.9249665843
20
229.6624154944
11
189.1087505843
21
229.6624154944
0
LINE
8
10000_FRONT
62
7
6
CONTINUOUS
10
192.1411825843
20
229.6624154944
11
192.3709125843
21
229.6624154944
0
LINE
8
10000_FRONT
62
7
6
CONTINUOUS
10
192.7465885843
20
229.6624154944
11
193.8033445843
21
229.6624154944
0
LINE
8
10000_FRONT
62
7
6
CONTINUOUS
10
194.1925335843
20
229.6624154944
11
194.4682095843
21
229.6624154944
0
LINE
8
10000_FRONT
62
7
6
CONTINUOUS
10
195.5249665843
20
229.6624154944
11
195.8006425843
21
229.6624154944
0
LINE
8
10000_FRONT
62
7
6
CONTINUOUS
10
200.7330745843
20
229.6624154944
11
201.0087495843
21
229.6624154944
0
LINE
8
10000_FRONT
62
7
6
CONTINUOUS
10
202.0655065843
20
229.6624154944
11
202.3411825843
21
229.6624154944
0
LINE
8
10000_FRONT
62
7
6
CONTINUOUS
10
202.6168585843
20
229.6624154944
11
203.6736145843
21
229.6624154944
0
LINE
8
10000_FRONT
62
7
6
CONTINUOUS
10
204.5006415843
20
229.8002534944
11
204.4087495843
21
229.8002534944
0
LINE
8
10000_FRONT
62
7
6
CONTINUOUS
10
200.0898315843
20
229.8002534944
11
199.9979395843
21
229.8002534944
0
LINE
8
10000_FRONT
62
7
6
CONTINUOUS
10
198.0222635843
20
229.8002534944
11
197.9303715843
21
229.8002534944
0
LINE
8
10000_FRONT
62
7
6
CONTINUOUS
10
196.7829279031
20
229.8002534944
11
196.5991439031
21
229.8002534944
0
LINE
8
10000_FRONT
62
7
6
CONTINUOUS
10
190.1655065843
20
229.8002534944
11
189.9817235843
21
229.8002534944
0
LINE
8
10000_FRONT
62
7
6
CONTINUOUS
10
187.5465885843
20
229.8002534944
11
187.3628045843
21
229.8002534944
0
LINE
8
10000_FRONT
62
7
6
CONTINUOUS
10
203.6736145843
20
229.8461994944
11
202.8465875843
21
229.8461994944
0
LINE
8
10000_FRONT
62
7
6
CONTINUOUS
10
193.8033445843
20
229.8461994944
11
192.9763175843
21
229.8461994944
0
LINE
8
10000_FRONT
62
7
6
CONTINUOUS
10
188.1438855843
20
230.0299834944
11
188.9249665843
21
230.0299834944
0
LINE
8
10000_FRONT
62
7
6
CONTINUOUS
10
189.1087505843
20
230.0299834944
11
189.3844255843
21
230.0299834944
0
LINE
8
10000_FRONT
62
7
6
CONTINUOUS
10
196.3694139031
20
230.0759294944
11
196.1396839031
21
230.0759294944
0
LINE
8
10000_FRONT
62
7
6
CONTINUOUS
10
189.7519935843
20
230.0759294944
11
189.5222635843
21
230.0759294944
0
LINE
8
10000_FRONT
62
7
6
CONTINUOUS
10
187.1330745843
20
230.0759294944
11
186.9033445843
21
230.0759294944
0
LINE
8
10000_FRONT
62
7
6
CONTINUOUS
10
189.3844255843
20
230.2137674944
11
189.1087505843
21
230.2137674944
0
LINE
8
10000_FRONT
62
7
6
CONTINUOUS
10
188.9249665843
20
230.2137674944
11
188.3276695843
21
230.2137674944
0
LINE
8
10000_FRONT
62
7
6
CONTINUOUS
10
190.8087505843
20
230.2137674944
11
191.4060475843
21
230.2137674944
0
LINE
8
10000_FRONT
62
7
6
CONTINUOUS
10
198.7114535843
20
230.2137674944
11
199.3087505843
21
230.2137674944
0
LINE
8
10000_FRONT
62
7
6
CONTINUOUS
10
199.3087505843
20
230.3516054944
11
198.7114535843
21
230.3516054944
0
LINE
8
10000_FRONT
62
7
6
CONTINUOUS
10
191.4060475843
20
230.3516054944
11
190.8087505843
21
230.3516054944
0
LINE
8
10000_FRONT
62
7
6
CONTINUOUS
10
187.3168585843
20
230.3975514944
11
187.5006425843
21
230.3975514944
0
LINE
8
10000_FRONT
62
7
6
CONTINUOUS
10
189.9357775843
20
230.3975514944
11
190.1195615843
21
230.3975514944
0
LINE
8
10000_FRONT
62
7
6
CONTINUOUS
10
196.5531979031
20
230.3975514944
11
196.7369819031
21
230.3975514944
0
LINE
8
10000_FRONT
62
7
6
CONTINUOUS
10
192.9763175843
20
230.4434974944
11
193.7573985843
21
230.4434974944
0
LINE
8
10000_FRONT
62
7
6
CONTINUOUS
10
202.8465875843
20
230.4434974944
11
203.6276685843
21
230.4434974944
0
LINE
8
10000_FRONT
62
7
6
CONTINUOUS
10
196.6910359031
20
230.5813344944
11
196.5531979031
21
230.5813344944
0
LINE
8
10000_FRONT
62
7
6
CONTINUOUS
10
190.0736155843
20
230.5813344944
11
189.9357775843
21
230.5813344944
0
LINE
8
10000_FRONT
62
7
6
CONTINUOUS
10
187.4546965843
20
230.5813344944
11
187.3168585843
21
230.5813344944
0
LINE
8
10000_FRONT
62
7
6
CONTINUOUS
10
203.6276685843
20
230.6272804944
11
202.8465875843
21
230.6272804944
0
LINE
8
10000_FRONT
62
7
6
CONTINUOUS
10
193.7573985843
20
230.6272804944
11
192.9763175843
21
230.6272804944
0
LINE
8
10000_FRONT
62
7
6
CONTINUOUS
10
186.9492905843
20
230.9029564944
11
187.1790205843
21
230.9029564944
0
LINE
8
10000_FRONT
62
7
6
CONTINUOUS
10
189.5682095843
20
230.9029564944
11
189.7979395843
21
230.9029564944
0
LINE
8
10000_FRONT
62
7
6
CONTINUOUS
10
196.1856299031
20
230.9029564944
11
196.4153599031
21
230.9029564944
0
LINE
8
10000_FRONT
62
7
6
CONTINUOUS
10
187.3628045843
20
231.1326864944
11
187.5465885843
21
231.1326864944
0
LINE
8
10000_FRONT
62
7
6
CONTINUOUS
10
189.9817235843
20
231.1326864944
11
190.1655065843
21
231.1326864944
0
LINE
8
10000_FRONT
62
7
6
CONTINUOUS
10
196.5991439031
20
231.1326864944
11
196.7829279031
21
231.1326864944
0
LINE
8
10000_FRONT
62
7
6
CONTINUOUS
10
197.9303715843
20
231.1326864944
11
198.0222635843
21
231.1326864944
0
LINE
8
10000_FRONT
62
7
6
CONTINUOUS
10
199.9979395843
20
231.1326864944
11
200.0898315843
21
231.1326864944
0
LINE
8
10000_FRONT
62
7
6
CONTINUOUS
10
204.4087495843
20
231.1326864944
11
204.5006415843
21
231.1326864944
0
LINE
8
10000_FRONT
62
7
6
CONTINUOUS
10
192.9763175843
20
231.1786324944
11
193.8033445843
21
231.1786324944
0
LINE
8
10000_FRONT
62
7
6
CONTINUOUS
10
202.8465875843
20
231.1786324944
11
203.6736145843
21
231.1786324944
0
LINE
8
10000_FRONT
62
7
6
CONTINUOUS
10
204.5465875843
20
231.3164704944
11
204.3628045843
21
231.3164704944
0
LINE
8
10000_FRONT
62
7
6
CONTINUOUS
10
200.1357775843
20
231.3164704944
11
199.9519935843
21
231.3164704944
0
LINE
8
10000_FRONT
62
7
6
CONTINUOUS
10
198.0682095843
20
231.3164704944
11
197.8844265843
21
231.3164704944
0
LINE
8
10000_FRONT
62
7
6
CONTINUOUS
10
196.8288729031
20
231.3164704944
11
196.5991439031
21
231.3164704944
0
LINE
8
10000_FRONT
62
7
6
CONTINUOUS
10
192.3709125843
20
231.3164704944
11
192.1411825843
21
231.3164704944
0
LINE
8
10000_FRONT
62
7
6
CONTINUOUS
10
190.2114535843
20
231.3164704944
11
189.9817235843
21
231.3164704944
0
LINE
8
10000_FRONT
62
7
6
CONTINUOUS
10
189.1087505843
20
231.3164704944
11
188.8790205843
21
231.3164704944
0
LINE
8
10000_FRONT
62
7
6
CONTINUOUS
10
187.5925335843
20
231.3164704944
11
187.3628045843
21
231.3164704944
0
LINE
8
10000_FRONT
62
7
6
CONTINUOUS
10
203.6736145843
20
231.3624154944
11
202.6168585843
21
231.3624154944
0
LINE
8
10000_FRONT
62
7
6
CONTINUOUS
10
202.2952355843
20
231.3624154944
11
202.0195605843
21
231.3624154944
0
LINE
8
10000_FRONT
62
7
6
CONTINUOUS
10
201.0546955843
20
231.3624154944
11
200.7790205843
21
231.3624154944
0
LINE
8
10000_FRONT
62
7
6
CONTINUOUS
10
195.7546965843
20
231.3624154944
11
195.4790205843
21
231.3624154944
0
LINE
8
10000_FRONT
62
7
6
CONTINUOUS
10
194.5141555843
20
231.3624154944
11
194.2384795843
21
231.3624154944
0
LINE
8
10000_FRONT
62
7
6
CONTINUOUS
10
193.8033445843
20
231.3624154944
11
192.7465885843
21
231.3624154944
0
LINE
8
10000_FRONT
62
7
6
CONTINUOUS
10
186.9155065843
20
232.1063074944
11
192.0277245843
21
232.1063074944
0
LINE
8
10000_FRONT
62
7
6
CONTINUOUS
10
192.8550485843
20
282.1353884944
11
193.2009945843
21
281.9624154944
0
LINE
8
10000_FRONT
62
7
6
CONTINUOUS
10
194.2388325843
20
283.2597134944
11
194.4118055843
21
283.1732264944
0
LINE
8
10000_FRONT
62
7
6
CONTINUOUS
10
193.3739675843
20
283.9516054944
11
193.2009945843
21
284.0380914944
0
LINE
8
10000_FRONT
62
7
6
CONTINUOUS
10
194.8442375843
20
283.4326864944
11
194.5847785843
21
283.6056594944
0
LINE
8
10000_FRONT
62
7
6
CONTINUOUS
10
194.6712645843
20
284.9894424944
11
194.4118055843
21
285.1624154944
0
LINE
8
10000_FRONT
62
7
6
CONTINUOUS
10
185.2097465843
20
352.2007004944
11
185.0354975843
21
352.3718604944
0
LINE
8
10000_FRONT
62
7
6
CONTINUOUS
10
209.2887925843
20
349.8080264944
11
209.1698735843
21
349.9864054944
0
LINE
8
10000_FRONT
62
7
6
CONTINUOUS
10
211.1320355843
20
349.8080264944
11
211.0131165843
21
349.9864054944
0
LINE
8
10000_FRONT
62
7
6
CONTINUOUS
10
212.6779815843
20
348.1431614944
11
212.5590625843
21
348.3215404944
0
LINE
8
10000_FRONT
62
7
6
CONTINUOUS
10
213.2131165843
20
349.7485674944
11
213.3320355843
21
349.5701884944
0
LINE
8
10000_FRONT
62
7
6
CONTINUOUS
10
216.0671705843
20
348.1431614944
11
215.9482515843
21
348.3215404944
0
LINE
8
10000_FRONT
62
7
6
CONTINUOUS
10
216.6023055843
20
349.7485674944
11
216.7212245843
21
349.5701884944
0
LINE
8
11000_LEFT
62
7
6
CONTINUOUS
10
321.4010815843
20
244.0643334944
11
321.4010815843
21
245.3643334944
0
LINE
8
11000_LEFT
62
7
6
CONTINUOUS
10
322.7010815843
20
227.5643334944
11
322.7010815843
21
242.7643334944
0
LINE
8
11000_LEFT
62
7
6
CONTINUOUS
10
323.0010815843
20
334.3643334944
11
323.0010815843
21
348.0643334944
0
LINE
8
11000_LEFT
62
7
6
CONTINUOUS
10
331.2010815843
20
257.3488194944
11
331.2010815843
21
274.5198474944
0
LINE
8
13000_TOP
62
7
6
CONTINUOUS
10
187.4130895843
20
63.9987174944
11
187.5678155843
21
64.1534424944
0
LINE
8
13000_TOP
62
7
6
CONTINUOUS
10
213.7130895843
20
89.9987174944
11
213.8678155843
21
90.1534424944
0
LINE
8
13000_TOP
62
7
6
CONTINUOUS
10
191.9130895843
20
65.4987174944
11
191.7583645843
21
65.3439914944
0
LINE
8
13000_TOP
62
7
6
CONTINUOUS
10
213.7130895843
20
83.4987174944
11
213.8678155843
21
83.6534424944
0
LINE
8
13000_TOP
62
7
6
CONTINUOUS
10
191.9130895843
20
58.9987174944
11
191.7583645843
21
58.8439914944
0
LINE
8
13000_TOP
62
7
6
CONTINUOUS
10
218.2130895843
20
84.9987174944
11
218.0583645843
21
84.8439914944
0
LINE
8
13000_TOP
62
7
6
CONTINUOUS
10
213.7130895843
20
76.9987174944
11
213.8678155843
21
77.1534424944
0
LINE
8
13000_TOP
62
7
6
CONTINUOUS
10
218.2130895843
20
78.4987174944
11
218.0583645843
21
78.3439914944
0
LINE
8
13000_TOP
62
7
6
CONTINUOUS
10
213.7130895843
20
70.4987174944
11
213.8678155843
21
70.6534424944
0
LINE
8
13000_TOP
62
7
6
CONTINUOUS
10
218.2130895843
20
71.9987174944
11
218.0583645843
21
71.8439914944
0
LINE
8
11000_LEFT
62
7
6
CONTINUOUS
10
311.0010815843
20
246.4733064944
11
314.4010815843
21
247.3843334944
0
LINE
8
11000_LEFT
62
7
6
CONTINUOUS
10
323.4010815843
20
253.3404984944
11
329.3481295843
21
254.9340054944
0
LINE
8
10000_FRONT
62
7
6
CONTINUOUS
10
185.1937795843
20
227.6136014944
11
185.2448345843
21
227.6223664944
0
LINE
8
10000_FRONT
62
7
6
CONTINUOUS
10
184.2002075843
20
228.6121134944
11
184.2649955843
21
228.6206634944
0
LINE
8
10000_FRONT
62
7
6
CONTINUOUS
10
185.2448345843
20
227.6223664944
11
185.3278085843
21
227.6316754944
0
LINE
8
11000_LEFT
62
7
6
CONTINUOUS
10
317.0010815843
20
252.7805714944
11
323.4010815843
21
253.3404984944
0
LINE
8
10000_FRONT
62
7
6
CONTINUOUS
10
184.2649955843
20
228.6206634944
11
184.3709925843
21
228.6297354944
0
LINE
8
10000_FRONT
62
7
6
CONTINUOUS
10
185.3278085843
20
227.6316754944
11
185.4516035843
21
227.6415484944
0
LINE
8
10000_FRONT
62
7
6
CONTINUOUS
10
184.3709925843
20
228.6297354944
11
184.5293785843
21
228.6393544944
0
LINE
8
10000_FRONT
62
7
6
CONTINUOUS
10
185.4516035843
20
227.6415484944
11
185.6274215843
21
227.6518854944
0
LINE
8
10000_FRONT
62
7
6
CONTINUOUS
10
184.5293785843
20
228.6393544944
11
184.7543505843
21
228.6494444944
0
LINE
8
11000_LEFT
62
7
6
CONTINUOUS
10
427.8976985843
20
247.4651134944
11
427.9007835843
21
247.4651304944
0
LINE
8
10000_FRONT
62
7
6
CONTINUOUS
10
192.0277245843
20
237.2185244944
11
186.9155065843
21
237.2185244944
0
LINE
8
11000_LEFT
62
7
6
CONTINUOUS
10
311.0010815843
20
245.3643334944
11
321.4010815843
21
245.3643334944
0
LINE
8
11000_LEFT
62
7
6
CONTINUOUS
10
314.4010815843
20
247.3843334944
11
315.9010815843
21
247.3843334944
0
LINE
8
11000_LEFT
62
7
6
CONTINUOUS
10
311.0010815843
20
250.8843334944
11
315.9010815843
21
250.8843334944
0
LINE
8
11000_LEFT
62
7
6
CONTINUOUS
10
427.8976985843
20
235.4635534944
11
427.9007835843
21
235.4635374944
0
LINE
8
11000_LEFT
62
7
6
CONTINUOUS
10
321.4010815843
20
244.0643334944
11
314.0284155843
21
245.3643334944
0
LINE
8
11000_LEFT
62
7
6
CONTINUOUS
10
321.4010815843
20
245.0797604944
11
319.7871855843
21
245.3643334944
0
LINE
8
10000_FRONT
62
7
6
CONTINUOUS
10
193.2874805843
20
283.5191724944
11
194.2388325843
21
283.2597134944
0
LINE
8
10000_FRONT
62
7
6
CONTINUOUS
10
194.5847785843
20
283.6056594944
11
193.3739675843
21
283.9516054944
0
LINE
8
10000_FRONT
62
7
6
CONTINUOUS
10
193.0280215843
20
283.6056594944
11
193.2874805843
21
283.5191724944
0
LINE
8
10000_FRONT
62
7
6
CONTINUOUS
10
193.9793725843
20
284.9029564944
11
194.2388325843
21
284.8164704944
0
LINE
8
10000_FRONT
62
7
6
CONTINUOUS
10
209.2874805843
20
282.2218754944
11
209.0280215843
21
282.3083614944
0
LINE
8
10000_FRONT
62
7
6
CONTINUOUS
10
209.4604535843
20
284.9029564944
11
209.7199125843
21
284.8164704944
0
LINE
8
10000_FRONT
62
7
6
CONTINUOUS
10
208.5091025843
20
282.1353884944
11
208.8550475843
21
281.9624154944
0
LINE
8
10000_FRONT
62
7
6
CONTINUOUS
10
209.0280215843
20
282.3083614944
11
208.8550475843
21
282.3948484944
0
LINE
8
10000_FRONT
62
7
6
CONTINUOUS
10
210.2388325843
20
284.9894424944
11
209.8928865843
21
285.1624154944
0
LINE
8
10000_FRONT
62
7
6
CONTINUOUS
10
207.8617655843
20
348.1431614944
11
207.9806845843
21
348.0242424944
0
LINE
8
10000_FRONT
62
7
6
CONTINUOUS
10
208.2185225843
20
348.2026214944
11
208.0996035843
21
348.3215404944
0
LINE
8
10000_FRONT
62
7
6
CONTINUOUS
10
208.8131165843
20
349.8674864944
11
208.9914955843
21
349.6891074944
0
LINE
8
10000_FRONT
62
7
6
CONTINUOUS
10
212.3212245843
20
348.1431614944
11
212.4401435843
21
348.0242424944
0
LINE
8
10000_FRONT
62
7
6
CONTINUOUS
10
210.7752785843
20
349.8080264944
11
210.8347385843
21
349.7485674944
0
LINE
8
10000_FRONT
62
7
6
CONTINUOUS
10
213.2131165843
20
348.7972154944
11
213.3320355843
21
348.6782964944
0
LINE
8
10000_FRONT
62
7
6
CONTINUOUS
10
215.7104135843
20
348.1431614944
11
215.8293335843
21
348.0242424944
0
LINE
8
10000_FRONT
62
7
6
CONTINUOUS
10
216.6023055843
20
348.7972154944
11
216.7212245843
21
348.6782964944
0
LINE
8
11000_LEFT
62
7
6
CONTINUOUS
10
322.7010815843
20
242.7643334944
11
321.4010815843
21
244.0643334944
0
LINE
8
13000_TOP
62
7
6
CONTINUOUS
10
213.7130895843
20
63.9987174944
11
213.8678155843
21
64.1534424944
0
LINE
8
13000_TOP
62
7
6
CONTINUOUS
10
218.2130895843
20
65.4987174944
11
218.0583645843
21
65.3439914944
0
LINE
8
13000_TOP
62
7
6
CONTINUOUS
10
213.7130895843
20
57.4987174944
11
213.8678155843
21
57.6534424944
0
LINE
8
13000_TOP
62
7
6
CONTINUOUS
10
218.2130895843
20
58.9987174944
11
218.0583645843
21
58.8439914944
0
LINE
8
10000_FRONT
62
7
6
CONTINUOUS
10
184.1685735843
20
228.6040194944
11
184.2002075843
21
228.6121134944
0
LINE
8
10000_FRONT
62
7
6
CONTINUOUS
10
196.5991439031
20
231.3164704944
11
196.4153599031
21
231.2705244944
0
LINE
8
10000_FRONT
62
7
6
CONTINUOUS
10
189.9817235843
20
231.3164704944
11
189.7979395843
21
231.2705244944
0
LINE
8
10000_FRONT
62
7
6
CONTINUOUS
10
187.3628045843
20
231.3164704944
11
187.1790205843
21
231.2705244944
0
LINE
8
10000_FRONT
62
7
6
CONTINUOUS
10
190.9305435843
20
282.8761854944
11
190.8607015843
21
282.8936394944
0
LINE
8
10000_FRONT
62
7
6
CONTINUOUS
10
193.2009945843
20
281.9624154944
11
193.5469405843
21
281.8759294944
0
LINE
8
10000_FRONT
62
7
6
CONTINUOUS
10
193.7199135843
20
282.2218754944
11
193.3739675843
21
282.3083614944
0
LINE
8
10000_FRONT
62
7
6
CONTINUOUS
10
194.4118055843
20
285.1624154944
11
194.0658595843
21
285.2489024944
0
LINE
8
10000_FRONT
62
7
6
CONTINUOUS
10
208.8550475843
20
281.9624154944
11
209.2009955843
21
281.8759294944
0
LINE
8
10000_FRONT
62
7
6
CONTINUOUS
10
209.8928865843
20
285.1624154944
11
209.5469405843
21
285.2489024944
0
LINE
8
10000_FRONT
62
7
6
CONTINUOUS
10
186.5630895843
20
332.1893314944
11
186.5889605843
21
332.1763974944
0
LINE
8
10000_FRONT
62
7
6
CONTINUOUS
10
186.5781795843
20
320.8143334944
11
186.5630895843
21
320.8218784944
0
LINE
8
10000_FRONT
62
7
6
CONTINUOUS
10
186.5630895843
20
326.9893314944
11
186.5904435843
21
326.9756554944
0
LINE
8
10000_FRONT
62
7
6
CONTINUOUS
10
186.5630895843
20
337.3893314944
11
186.5904435843
21
337.3756554944
0
LINE
8
10000_FRONT
62
7
6
CONTINUOUS
10
185.0354975843
20
352.3718604944
11
184.8440615843
21
352.4952204944
0
LINE
8
10000_FRONT
62
7
6
CONTINUOUS
10
184.5776405843
20
351.5287494944
11
184.1685735843
21
351.8014184944
0
LINE
8
10000_FRONT
62
7
6
CONTINUOUS
10
222.4013145843
20
352.4144384944
11
222.6219225843
21
352.1939374944
0
LINE
8
11000_LEFT
62
7
6
CONTINUOUS
10
319.1010815843
20
278.9043704944
11
316.9009565843
21
281.1044954944
0
LINE
8
11000_LEFT
62
7
6
CONTINUOUS
10
427.9007835843
20
282.8936364944
11
427.9010815843
21
282.8936394944
0
LINE
8
11000_LEFT
62
7
6
CONTINUOUS
10
311.0010815843
20
280.9843334944
11
315.9010815843
21
280.9843334944
0
LINE
8
10000_FRONT
62
7
6
CONTINUOUS
10
193.5469405843
20
281.8759294944
11
193.9793725843
21
281.8759294944
0
LINE
8
10000_FRONT
62
7
6
CONTINUOUS
10
209.2009955843
20
281.8759294944
11
209.4604535843
21
281.8759294944
0
LINE
8
10000_FRONT
62
7
6
CONTINUOUS
10
195.7091025843
20
281.9624154944
11
196.1415345843
21
281.9624154944
0
LINE
8
10000_FRONT
62
7
6
CONTINUOUS
10
196.9199135843
20
281.9624154944
11
197.3523455843
21
281.9624154944
0
LINE
8
10000_FRONT
62
7
6
CONTINUOUS
10
198.3036965843
20
281.9624154944
11
198.8226155843
21
281.9624154944
0
LINE
8
10000_FRONT
62
7
6
CONTINUOUS
10
199.7739675843
20
281.9624154944
11
200.2063995843
21
281.9624154944
0
LINE
8
10000_FRONT
62
7
6
CONTINUOUS
10
200.7253195843
20
281.9624154944
11
201.1577505843
21
281.9624154944
0
LINE
8
10000_FRONT
62
7
6
CONTINUOUS
10
203.3199135843
20
281.9624154944
11
203.7523455843
21
281.9624154944
0
LINE
8
10000_FRONT
62
7
6
CONTINUOUS
10
204.9631565843
20
281.9624154944
11
205.3955885843
21
281.9624154944
0
LINE
8
10000_FRONT
62
7
6
CONTINUOUS
10
206.9523455843
20
281.9624154944
11
207.3847775843
21
281.9624154944
0
LINE
8
10000_FRONT
62
7
6
CONTINUOUS
10
212.3145085843
20
281.9624154944
11
212.7469405843
21
281.9624154944
0
LINE
8
10000_FRONT
62
7
6
CONTINUOUS
10
214.3036975843
20
281.9624154944
11
214.9091025843
21
281.9624154944
0
LINE
8
10000_FRONT
62
7
6
CONTINUOUS
10
215.6874805843
20
281.9624154944
11
217.6766695843
21
281.9624154944
0
LINE
8
10000_FRONT
62
7
6
CONTINUOUS
10
219.0604525843
20
281.9624154944
11
219.4928865843
21
281.9624154944
0
LINE
8
10000_FRONT
62
7
6
CONTINUOUS
10
209.4604535843
20
282.2218754944
11
209.2874805843
21
282.2218754944
0
LINE
8
10000_FRONT
62
7
6
CONTINUOUS
10
193.8928865843
20
282.2218754944
11
193.7199135843
21
282.2218754944
0
LINE
8
10000_FRONT
62
7
6
CONTINUOUS
10
217.6766695843
20
282.3083614944
11
216.1199125843
21
282.3083614944
0
LINE
8
10000_FRONT
62
7
6
CONTINUOUS
10
184.5776405843
20
282.6053244944
11
191.2496435843
21
282.6053244944
0
LINE
8
10000_FRONT
62
7
6
CONTINUOUS
10
210.4982915843
20
282.8272804944
11
210.0658585843
21
282.8272804944
0
LINE
8
10000_FRONT
62
7
6
CONTINUOUS
10
201.5036975843
20
282.8272804944
11
202.9739675843
21
282.8272804944
0
LINE
8
10000_FRONT
62
7
6
CONTINUOUS
10
191.2496435843
20
282.8761854944
11
190.9305435843
21
282.8761854944
0
LINE
8
10000_FRONT
62
7
6
CONTINUOUS
10
183.8130895843
20
282.8936394944
11
190.8607015843
21
282.8936394944
0
LINE
8
10000_FRONT
62
7
6
CONTINUOUS
10
193.0280215843
20
282.9137674944
11
192.5955895843
21
282.9137674944
0
LINE
8
10000_FRONT
62
7
6
CONTINUOUS
10
202.8009945843
20
283.1732264944
11
201.6766705843
21
283.1732264944
0
LINE
8
10000_FRONT
62
7
6
CONTINUOUS
10
216.1199125843
20
283.4326864944
11
217.5901845843
21
283.4326864944
0
LINE
8
10000_FRONT
62
7
6
CONTINUOUS
10
217.5901845843
20
283.7786324944
11
216.1199125843
21
283.7786324944
0
LINE
8
10000_FRONT
62
7
6
CONTINUOUS
10
210.0658585843
20
284.2975514944
11
210.4982915843
21
284.2975514944
0
LINE
8
10000_FRONT
62
7
6
CONTINUOUS
10
194.4982915843
20
284.3840374944
11
194.9307245843
21
284.3840374944
0
LINE
8
10000_FRONT
62
7
6
CONTINUOUS
10
203.9253195843
20
284.7299834944
11
204.9631565843
21
284.7299834944
0
LINE
8
10000_FRONT
62
7
6
CONTINUOUS
10
205.3955885843
20
284.7299834944
11
206.4334275843
21
284.7299834944
0
LINE
8
10000_FRONT
62
7
6
CONTINUOUS
10
218.0226165843
20
284.7299834944
11
219.0604525843
21
284.7299834944
0
LINE
8
10000_FRONT
62
7
6
CONTINUOUS
10
219.4928865843
20
284.7299834944
11
220.5307255843
21
284.7299834944
0
LINE
8
10000_FRONT
62
7
6
CONTINUOUS
10
216.1199125843
20
284.8164704944
11
217.6766695843
21
284.8164704944
0
LINE
8
10000_FRONT
62
7
6
CONTINUOUS
10
193.7199135843
20
284.9029564944
11
193.9793725843
21
284.9029564944
0
LINE
8
10000_FRONT
62
7
6
CONTINUOUS
10
209.2874805843
20
284.9029564944
11
209.4604535843
21
284.9029564944
0
LINE
8
10000_FRONT
62
7
6
CONTINUOUS
10
220.5307255843
20
285.1624154944
11
218.0226165843
21
285.1624154944
0
LINE
8
10000_FRONT
62
7
6
CONTINUOUS
10
217.6766695843
20
285.1624154944
11
215.6874805843
21
285.1624154944
0
LINE
8
10000_FRONT
62
7
6
CONTINUOUS
10
214.9091025843
20
285.1624154944
11
214.4766695843
21
285.1624154944
0
LINE
8
10000_FRONT
62
7
6
CONTINUOUS
10
212.9199125843
20
285.1624154944
11
212.3145085843
21
285.1624154944
0
LINE
8
10000_FRONT
62
7
6
CONTINUOUS
10
207.3847775843
20
285.1624154944
11
206.9523455843
21
285.1624154944
0
LINE
8
10000_FRONT
62
7
6
CONTINUOUS
10
206.4334275843
20
285.1624154944
11
203.9253195843
21
285.1624154944
0
LINE
8
10000_FRONT
62
7
6
CONTINUOUS
10
202.5415355843
20
285.1624154944
11
202.0226155843
21
285.1624154944
0
LINE
8
10000_FRONT
62
7
6
CONTINUOUS
10
200.2063995843
20
285.1624154944
11
199.4280215843
21
285.1624154944
0
LINE
8
10000_FRONT
62
7
6
CONTINUOUS
10
197.6982915843
20
285.1624154944
11
196.9199135843
21
285.1624154944
0
LINE
8
10000_FRONT
62
7
6
CONTINUOUS
10
196.1415345843
20
285.1624154944
11
195.7091025843
21
285.1624154944
0
LINE
8
10000_FRONT
62
7
6
CONTINUOUS
10
209.5469405843
20
285.2489024944
11
209.2874805843
21
285.2489024944
0
LINE
8
10000_FRONT
62
7
6
CONTINUOUS
10
194.0658595843
20
285.2489024944
11
193.6334265843
21
285.2489024944
0
LINE
8
11000_LEFT
62
7
6
CONTINUOUS
10
311.0010815843
20
287.0643334944
11
316.4010815843
21
287.0643334944
0
LINE
8
11000_LEFT
62
7
6
CONTINUOUS
10
323.4010815843
20
278.5281684944
11
319.1010815843
21
278.9043704944
0
LINE
8
11000_LEFT
62
7
6
CONTINUOUS
10
316.9009565843
20
281.1044954944
11
315.9010815843
21
281.1919734944
0
LINE
8
11000_LEFT
62
7
6
CONTINUOUS
10
311.0010815843
20
285.9843334944
11
315.9010815843
21
284.9343334944
0
LINE
8
11000_LEFT
62
7
6
CONTINUOUS
10
329.3481295843
20
276.9346624944
11
323.4010815843
21
278.5281684944
0
LINE
8
10000_FRONT
62
7
6
CONTINUOUS
10
186.5781795843
20
341.6143334944
11
186.5630895843
21
341.6218784944
0
LINE
8
10000_FRONT
62
7
6
CONTINUOUS
10
207.9806845843
20
348.0242424944
11
208.2185225843
21
347.9053244944
0
LINE
8
10000_FRONT
62
7
6
CONTINUOUS
10
208.3374415843
20
348.1431614944
11
208.2185225843
21
348.2026214944
0
LINE
8
10000_FRONT
62
7
6
CONTINUOUS
10
212.4401435843
20
348.0242424944
11
212.6185225843
21
347.9053244944
0
LINE
8
10000_FRONT
62
7
6
CONTINUOUS
10
215.8293335843
20
348.0242424944
11
216.0077115843
21
347.9053244944
0
LINE
8
10000_FRONT
62
7
6
CONTINUOUS
10
213.5104135843
20
349.8674864944
11
213.3320355843
21
349.9864054944
0
LINE
8
10000_FRONT
62
7
6
CONTINUOUS
10
216.8996025843
20
349.8674864944
11
216.7212245843
21
349.9864054944
0
LINE
8
90000_FRAME
62
7
6
CONTINUOUS
10
482.9491910000
20
21.5500140000
11
484.6366010000
21
18.6029870000
0
LINE
8
90000_FRAME
62
7
6
CONTINUOUS
10
484.0662090000
20
16.7967450000
11
482.3550320000
21
19.8388370000
0
LINE
8
90000_FRAME
62
7
6
CONTINUOUS
10
472.3969330000
20
16.7492120000
11
471.0660180000
21
19.8388370000
0
LINE
8
11000_LEFT
62
7
6
CONTINUOUS
10
387.0010815843
20
227.5643334944
11
387.0010815843
21
352.5643334944
0
LINE
8
11000_LEFT
62
7
6
CONTINUOUS
10
426.4404805843
20
350.2053244944
11
426.7905685843
21
351.5287494944
0
LINE
8
13000_TOP
62
7
6
CONTINUOUS
10
214.9401265843
20
53.3186264944
11
215.0363225843
21
53.3812484944
0
LINE
8
13000_TOP
62
7
6
CONTINUOUS
10
215.6243505843
20
54.6487174944
11
215.6351015843
21
54.6556984944
0
LINE
8
10000_FRONT
62
7
6
CONTINUOUS
10
193.9793725843
20
281.8759294944
11
194.3253185843
21
281.9624154944
0
LINE
8
10000_FRONT
62
7
6
CONTINUOUS
10
194.2388325843
20
282.3083614944
11
193.8928865843
21
282.2218754944
0
LINE
8
10000_FRONT
62
7
6
CONTINUOUS
10
193.6334265843
20
285.2489024944
11
193.2874805843
21
285.1624154944
0
LINE
8
10000_FRONT
62
7
6
CONTINUOUS
10
209.4604535843
20
281.8759294944
11
209.8928865843
21
281.9624154944
0
LINE
8
10000_FRONT
62
7
6
CONTINUOUS
10
209.2874805843
20
285.2489024944
11
208.8550475843
21
285.1624154944
0
LINE
8
11000_LEFT
62
7
6
CONTINUOUS
10
313.0010815843
20
303.0643334944
11
316.4010815843
21
303.0643334944
0
LINE
8
10000_FRONT
62
7
6
CONTINUOUS
10
191.2496435843
20
314.4405124944
11
201.6130895843
21
314.4405124944
0
LINE
8
10000_FRONT
62
7
6
CONTINUOUS
10
201.4289715843
20
314.7053244944
11
190.8607015843
21
314.7053244944
0
LINE
8
10000_FRONT
62
7
6
CONTINUOUS
10
184.8440615843
20
352.4952204944
11
184.6578335843
21
352.5482324944
0
LINE
8
10000_FRONT
62
7
6
CONTINUOUS
10
208.5158195843
20
348.0837024944
11
208.3374415843
21
348.1431614944
0
LINE
8
10000_FRONT
62
7
6
CONTINUOUS
10
212.8563595843
20
348.0837024944
11
212.6779815843
21
348.1431614944
0
LINE
8
10000_FRONT
62
7
6
CONTINUOUS
10
208.6347385843
20
349.9269454944
11
208.8131165843
21
349.8674864944
0
LINE
8
10000_FRONT
62
7
6
CONTINUOUS
10
213.0347385843
20
348.8566754944
11
213.2131165843
21
348.7972154944
0
LINE
8
10000_FRONT
62
7
6
CONTINUOUS
10
213.4509545843
20
348.9161344944
11
213.2725765843
21
348.9755944944
0
LINE
8
10000_FRONT
62
7
6
CONTINUOUS
10
216.2455495843
20
348.0837024944
11
216.0671705843
21
348.1431614944
0
LINE
8
10000_FRONT
62
7
6
CONTINUOUS
10
216.4239275843
20
348.8566754944
11
216.6023055843
21
348.7972154944
0
LINE
8
10000_FRONT
62
7
6
CONTINUOUS
10
213.3320355843
20
349.9864054944
11
213.1536575843
21
350.0458644944
0
LINE
8
10000_FRONT
62
7
6
CONTINUOUS
10
209.1698735843
20
349.9864054944
11
208.9320355843
21
350.1053244944
0
LINE
8
10000_FRONT
62
7
6
CONTINUOUS
10
211.0131165843
20
349.9864054944
11
210.8941975843
21
350.0458644944
0
LINE
8
10000_FRONT
62
7
6
CONTINUOUS
10
213.5698735843
20
348.8566754944
11
213.4509545843
21
348.9161344944
0
LINE
8
10000_FRONT
62
7
6
CONTINUOUS
10
213.0941975843
20
349.8080264944
11
213.2131165843
21
349.7485674944
0
LINE
8
10000_FRONT
62
7
6
CONTINUOUS
10
216.9590625843
20
348.8566754944
11
216.8401445843
21
348.9161344944
0
LINE
8
10000_FRONT
62
7
6
CONTINUOUS
10
216.4833875843
20
349.8080264944
11
216.6023055843
21
349.7485674944
0
LINE
8
10000_FRONT
62
7
6
CONTINUOUS
10
222.1216295843
20
352.5567444944
11
222.4013145843
21
352.4144384944
0
LINE
8
90000_FRAME
62
7
6
CONTINUOUS
10
471.8265410000
20
21.5500140000
11
473.0623910000
21
18.6505200000
0
LINE
8
11000_LEFT
62
7
6
CONTINUOUS
10
420.2220745843
20
352.5643334944
11
420.2700755843
21
349.8143334944
0
LINE
8
91000_TIP
62
7
6
CONTINUOUS
10
420.4356590000
20
21.3638180000
11
420.4356590000
21
16.3638180000
0
LINE
8
11000_LEFT
62
7
6
CONTINUOUS
10
421.2010815843
20
352.5337584944
11
421.2010815843
21
350.7053244944
0
LINE
8
11000_LEFT
62
7
6
CONTINUOUS
10
423.4056525843
20
350.0553244944
11
423.4056525843
21
351.5512144944
0
LINE
8
11000_LEFT
62
7
6
CONTINUOUS
10
423.8510815843
20
350.0553244944
11
423.8510815843
21
350.2053244944
0
LINE
8
11000_LEFT
62
7
6
CONTINUOUS
10
423.9510815843
20
349.8143334944
11
423.9544855843
21
350.2044214944
0
LINE
8
11000_LEFT
62
7
6
CONTINUOUS
10
424.0251675843
20
351.7070454944
11
423.4056525843
21
351.5512144944
0
LINE
8
11000_LEFT
62
7
6
CONTINUOUS
10
424.6606175843
20
351.7897124944
11
424.0251675843
21
351.7070454944
0
LINE
8
10000_FRONT
62
7
6
CONTINUOUS
10
186.5889605843
20
331.1522704944
11
186.5630895843
21
331.1520444944
0
LINE
8
10000_FRONT
62
7
6
CONTINUOUS
10
186.5630895843
20
316.8643334944
11
184.0630895843
21
316.8643334944
0
LINE
8
10000_FRONT
62
7
6
CONTINUOUS
10
184.0630895843
20
317.3643334944
11
186.5630895843
21
317.3643334944
0
LINE
8
10000_FRONT
62
7
6
CONTINUOUS
10
184.0630895843
20
320.3643334944
11
186.5630895843
21
320.3643334944
0
LINE
8
10000_FRONT
62
7
6
CONTINUOUS
10
186.5630895843
20
322.2175384944
11
186.5781795843
21
322.2175384944
0
LINE
8
10000_FRONT
62
7
6
CONTINUOUS
10
184.0630895843
20
322.5643334944
11
186.5630895843
21
322.5643334944
0
LINE
8
10000_FRONT
62
7
6
CONTINUOUS
10
184.0630895843
20
325.5643334944
11
186.5630895843
21
325.5643334944
0
LINE
8
10000_FRONT
62
7
6
CONTINUOUS
10
186.5904435843
20
325.9530114944
11
186.5630895843
21
325.9530114944
0
LINE
8
10000_FRONT
62
7
6
CONTINUOUS
10
186.5956345843
20
326.2530004944
11
186.5630895843
21
326.2530004944
0
LINE
8
10000_FRONT
62
7
6
CONTINUOUS
10
186.5630895843
20
326.6756674944
11
186.5956345843
21
326.6756674944
0
LINE
8
10000_FRONT
62
7
6
CONTINUOUS
10
186.5630895843
20
326.9756554944
11
186.5904435843
21
326.9756554944
0
LINE
8
10000_FRONT
62
7
6
CONTINUOUS
10
186.5781795843
20
327.7175384944
11
186.5630895843
21
327.7175384944
0
LINE
8
10000_FRONT
62
7
6
CONTINUOUS
10
184.0630895843
20
327.7643334944
11
186.5630895843
21
327.7643334944
0
LINE
8
10000_FRONT
62
7
6
CONTINUOUS
10
186.5781795843
20
329.3175384944
11
186.5630895843
21
329.3175384944
0
LINE
8
11000_LEFT
62
7
6
CONTINUOUS
10
313.0010815843
20
329.4643334944
11
316.5720655843
21
329.4643334944
0
LINE
8
10000_FRONT
62
7
6
CONTINUOUS
10
184.0630895843
20
330.7643334944
11
186.5630895843
21
330.7643334944
0
LINE
8
10000_FRONT
62
7
6
CONTINUOUS
10
186.5781795843
20
332.3843334944
11
186.5630895843
21
332.3843334944
0
LINE
8
10000_FRONT
62
7
6
CONTINUOUS
10
186.5781795843
20
332.8843334944
11
186.5630895843
21
332.8843334944
0
LINE
8
10000_FRONT
62
7
6
CONTINUOUS
10
184.0630895843
20
332.9643334944
11
186.5630895843
21
332.9643334944
0
LINE
8
10000_FRONT
62
7
6
CONTINUOUS
10
186.5630895843
20
334.3643334944
11
186.5781795843
21
334.3643334944
0
LINE
8
11000_LEFT
62
7
6
CONTINUOUS
10
319.5742865843
20
334.3643334944
11
323.0010815843
21
334.3643334944
0
LINE
8
10000_FRONT
62
7
6
CONTINUOUS
10
184.0630895843
20
335.9643334944
11
186.5781795843
21
335.9643334944
0
LINE
8
10000_FRONT
62
7
6
CONTINUOUS
10
186.5904435843
20
336.3530114944
11
186.5630895843
21
336.3530114944
0
LINE
8
10000_FRONT
62
7
6
CONTINUOUS
10
186.5956345843
20
336.6530004944
11
186.5630895843
21
336.6530004944
0
LINE
8
10000_FRONT
62
7
6
CONTINUOUS
10
186.5630895843
20
337.0756674944
11
186.5956345843
21
337.0756674944
0
LINE
8
10000_FRONT
62
7
6
CONTINUOUS
10
186.5889605843
20
332.1763974944
11
186.5630895843
21
332.1766234944
0
LINE
8
10000_FRONT
62
7
6
CONTINUOUS
10
208.2185225843
20
347.9053244944
11
208.4563595843
21
347.8458644944
0
LINE
8
10000_FRONT
62
7
6
CONTINUOUS
10
212.6185225843
20
347.9053244944
11
212.8563595843
21
347.8458644944
0
LINE
8
10000_FRONT
62
7
6
CONTINUOUS
10
216.0077115843
20
347.9053244944
11
216.2455495843
21
347.8458644944
0
LINE
8
10000_FRONT
62
7
6
CONTINUOUS
10
208.9320355843
20
350.1053244944
11
208.6941975843
21
350.1647834944
0
LINE
8
10000_FRONT
62
7
6
CONTINUOUS
10
210.5374405843
20
349.8674864944
11
210.7752785843
21
349.8080264944
0
LINE
8
10000_FRONT
62
7
6
CONTINUOUS
10
210.8941975843
20
350.0458644944
11
210.6563595843
21
350.1053244944
0
LINE
8
10000_FRONT
62
7
6
CONTINUOUS
10
184.1685735843
20
352.6053244944
11
184.2449105843
21
352.5854714944
0
LINE
8
10000_FRONT
62
7
6
CONTINUOUS
10
216.8401445843
20
348.9161344944
11
216.6617655843
21
348.9755944944
0
LINE
8
10000_FRONT
62
7
6
CONTINUOUS
10
216.7212245843
20
349.9864054944
11
216.5428465843
21
350.0458644944
0
LINE
8
11000_LEFT
62
7
6
CONTINUOUS
10
426.2510815843
20
349.8143334944
11
426.2476775843
21
350.2044214944
0
LINE
8
11000_LEFT
62
7
6
CONTINUOUS
10
423.7967665843
20
349.8143334944
11
423.7958445843
21
350.0551664944
0
LINE
8
11000_LEFT
62
7
6
CONTINUOUS
10
425.3010815843
20
352.6053244944
11
425.3010825843
21
351.8014184944
0
LINE
8
11000_LEFT
62
7
6
CONTINUOUS
10
426.3510815843
20
350.0553244944
11
426.3510815843
21
350.2053244944
0
LINE
8
11000_LEFT
62
7
6
CONTINUOUS
10
426.7905685843
20
350.0553244944
11
426.7905685843
21
351.5287494944
0
LINE
8
11000_LEFT
62
7
6
CONTINUOUS
10
427.5396845843
20
349.8143334944
11
427.5396845843
21
350.0553244944
0
LINE
8
11000_LEFT
62
7
6
CONTINUOUS
10
427.8976985843
20
235.4635534944
11
427.8976985843
21
247.4651134944
0
LINE
8
11000_LEFT
62
7
6
CONTINUOUS
10
427.9007835843
20
227.5643334944
11
427.9007835843
21
235.4635374944
0
LINE
8
11000_LEFT
62
7
6
CONTINUOUS
10
427.9007835843
20
247.4651304944
11
427.9007835843
21
282.8936364944
0
LINE
8
11000_LEFT
62
7
6
CONTINUOUS
10
427.9010815843
20
228.6618064944
11
427.9010815843
21
351.5488414944
0
LINE
8
91000_TIP
62
7
6
CONTINUOUS
10
430.4356580000
20
23.8638180000
11
430.4356580000
21
13.8638180000
0
LINE
8
91000_TIP
62
7
6
CENTER
10
436.9356580000
20
13.1423370000
11
436.9356580000
21
24.4257230000
0
LINE
8
11000_LEFT
62
7
6
CONTINUOUS
10
425.0100485843
20
350.2118224944
11
424.9197065843
21
350.2053244944
0
LINE
8
11000_LEFT
62
7
6
CONTINUOUS
10
425.1010815843
20
350.2139994944
11
425.0100485843
21
350.2118224944
0
LINE
8
11000_LEFT
62
7
6
CONTINUOUS
10
425.3010825843
20
351.8014184944
11
424.6606175843
21
351.7897124944
0
LINE
8
11000_LEFT
62
7
6
CONTINUOUS
10
421.2010815843
20
352.5337584944
11
425.3010815843
21
352.6053244944
0
LINE
8
10000_FRONT
62
7
6
CONTINUOUS
10
186.5630895843
20
337.3756554944
11
186.5904435843
21
337.3756554944
0
LINE
8
10000_FRONT
62
7
6
CONTINUOUS
10
184.0630895843
20
338.1643334944
11
186.5630895843
21
338.1643334944
0
LINE
8
10000_FRONT
62
7
6
CONTINUOUS
10
186.5781795843
20
338.6643334944
11
186.5630895843
21
338.6643334944
0
LINE
8
10000_FRONT
62
7
6
CONTINUOUS
10
186.5781795843
20
339.6143334944
11
186.5630895843
21
339.6143334944
0
LINE
8
10000_FRONT
62
7
6
CONTINUOUS
10
184.0630895843
20
341.1643334944
11
186.5630895843
21
341.1643334944
0
LINE
8
10000_FRONT
62
7
6
CONTINUOUS
10
186.5781795843
20
343.2643334944
11
186.5630895843
21
343.2643334944
0
LINE
8
10000_FRONT
62
7
6
CONTINUOUS
10
184.0630895843
20
343.3643334944
11
186.5630895843
21
343.3643334944
0
LINE
8
10000_FRONT
62
7
6
CONTINUOUS
10
184.0630895843
20
346.3643334944
11
186.5630895843
21
346.3643334944
0
LINE
8
10000_FRONT
62
7
6
CONTINUOUS
10
186.6130895843
20
346.8643334944
11
184.0630895843
21
346.8643334944
0
LINE
8
11000_LEFT
62
7
6
CONTINUOUS
10
319.1510815843
20
347.5643334944
11
316.9010815843
21
347.5643334944
0
LINE
8
10000_FRONT
62
7
6
CONTINUOUS
10
208.4563595843
20
347.8458644944
11
208.6347385843
21
347.8458644944
0
LINE
8
10000_FRONT
62
7
6
CONTINUOUS
10
212.8563595843
20
347.8458644944
11
213.0941975843
21
347.8458644944
0
LINE
8
10000_FRONT
62
7
6
CONTINUOUS
10
216.2455495843
20
347.8458644944
11
216.4833875843
21
347.8458644944
0
LINE
8
10000_FRONT
62
7
6
CONTINUOUS
10
209.7644675843
20
347.9053244944
11
210.0617655843
21
347.9053244944
0
LINE
8
10000_FRONT
62
7
6
CONTINUOUS
10
214.8779815843
20
347.9053244944
11
215.1158195843
21
347.9053244944
0
LINE
8
10000_FRONT
62
7
6
CONTINUOUS
10
219.0401445843
20
347.9053244944
11
219.3374415843
21
347.9053244944
0
LINE
8
10000_FRONT
62
7
6
CONTINUOUS
10
216.4833875843
20
348.0837024944
11
216.2455495843
21
348.0837024944
0
LINE
8
10000_FRONT
62
7
6
CONTINUOUS
10
213.0941975843
20
348.0837024944
11
212.8563595843
21
348.0837024944
0
LINE
8
10000_FRONT
62
7
6
CONTINUOUS
10
208.6347385843
20
348.0837024944
11
208.5158195843
21
348.0837024944
0
LINE
8
10000_FRONT
62
7
6
CONTINUOUS
10
213.8671705843
20
348.3809994944
11
214.8779815843
21
348.3809994944
0
LINE
8
10000_FRONT
62
7
6
CONTINUOUS
10
215.1158195843
20
348.3809994944
11
215.4725765843
21
348.3809994944
0
LINE
8
10000_FRONT
62
7
6
CONTINUOUS
10
215.9482515843
20
348.4404594944
11
215.6509545843
21
348.4404594944
0
LINE
8
10000_FRONT
62
7
6
CONTINUOUS
10
212.5590625843
20
348.4404594944
11
212.2617655843
21
348.4404594944
0
LINE
8
10000_FRONT
62
7
6
CONTINUOUS
10
209.3482515843
20
348.4999184944
11
209.0509545843
21
348.4999184944
0
LINE
8
10000_FRONT
62
7
6
CONTINUOUS
10
215.4725765843
20
348.6188374944
11
215.1158195843
21
348.6188374944
0
LINE
8
10000_FRONT
62
7
6
CONTINUOUS
10
214.8779815843
20
348.6188374944
11
214.1050085843
21
348.6188374944
0
LINE
8
10000_FRONT
62
7
6
CONTINUOUS
10
217.3158195843
20
348.6188374944
11
218.0887925843
21
348.6188374944
0
LINE
8
10000_FRONT
62
7
6
CONTINUOUS
10
218.0887925843
20
348.7972154944
11
217.3158195843
21
348.7972154944
0
LINE
8
10000_FRONT
62
7
6
CONTINUOUS
10
212.7969005843
20
348.8566754944
11
213.0347385843
21
348.8566754944
0
LINE
8
10000_FRONT
62
7
6
CONTINUOUS
10
216.1860895843
20
348.8566754944
11
216.4239275843
21
348.8566754944
0
LINE
8
10000_FRONT
62
7
6
CONTINUOUS
10
210.0617655843
20
348.9161344944
11
210.6563595843
21
348.9161344944
0
LINE
8
10000_FRONT
62
7
6
CONTINUOUS
10
216.3644675843
20
349.0945134944
11
216.1860895843
21
349.0945134944
0
LINE
8
10000_FRONT
62
7
6
CONTINUOUS
10
212.9752785843
20
349.0945134944
11
212.7969005843
21
349.0945134944
0
LINE
8
10000_FRONT
62
7
6
CONTINUOUS
10
210.5374405843
20
349.1539724944
11
210.0617655843
21
349.1539724944
0
LINE
8
10000_FRONT
62
7
6
CONTINUOUS
10
209.0509545843
20
349.5107294944
11
209.3482515843
21
349.5107294944
0
LINE
8
10000_FRONT
62
7
6
CONTINUOUS
10
212.3212245843
20
349.5107294944
11
212.6185225843
21
349.5107294944
0
LINE
8
10000_FRONT
62
7
6
CONTINUOUS
10
215.7104135843
20
349.5107294944
11
216.0077115843
21
349.5107294944
0
LINE
8
11000_LEFT
62
7
6
CONTINUOUS
10
321.5010815843
20
349.5643334944
11
320.9010815843
21
349.5643334944
0
LINE
8
10000_FRONT
62
7
6
CONTINUOUS
10
212.8563595843
20
349.8080264944
11
213.0941975843
21
349.8080264944
0
LINE
8
10000_FRONT
62
7
6
CONTINUOUS
10
216.2455495843
20
349.8080264944
11
216.4833875843
21
349.8080264944
0
LINE
8
10000_FRONT
62
7
6
CONTINUOUS
10
182.8130895843
20
349.8143334944
11
201.4289715843
21
349.8143334944
0
LINE
8
11000_LEFT
62
7
6
CONTINUOUS
10
420.2700755843
20
349.8143334944
11
427.9010815843
21
349.8143334944
0
LINE
8
10000_FRONT
62
7
6
CONTINUOUS
10
210.0617655843
20
349.8674864944
11
210.5374405843
21
349.8674864944
0
LINE
8
10000_FRONT
62
7
6
CONTINUOUS
10
208.5158195843
20
349.9269454944
11
208.6347385843
21
349.9269454944
0
LINE
8
10000_FRONT
62
7
6
CONTINUOUS
10
219.3374415843
20
350.0458644944
11
219.0401445843
21
350.0458644944
0
LINE
8
10000_FRONT
62
7
6
CONTINUOUS
10
216.5428465843
20
350.0458644944
11
216.2455495843
21
350.0458644944
0
LINE
8
10000_FRONT
62
7
6
CONTINUOUS
10
215.1158195843
20
350.0458644944
11
214.8185225843
21
350.0458644944
0
LINE
8
10000_FRONT
62
7
6
CONTINUOUS
10
213.1536575843
20
350.0458644944
11
212.8563595843
21
350.0458644944
0
LINE
8
10000_FRONT
62
7
6
CONTINUOUS
10
184.5776405843
20
350.0553244944
11
201.6130895843
21
350.0553244944
0
LINE
8
11000_LEFT
62
7
6
CONTINUOUS
10
423.0235195843
20
350.0553244944
11
423.9531845843
21
350.0553244944
0
LINE
8
11000_LEFT
62
7
6
CONTINUOUS
10
426.2489785843
20
350.0553244944
11
427.9010815843
21
350.0553244944
0
LINE
8
10000_FRONT
62
7
6
CONTINUOUS
10
210.6563595843
20
350.1053244944
11
209.7644675843
21
350.1053244944
0
LINE
8
10000_FRONT
62
7
6
CONTINUOUS
10
208.6941975843
20
350.1647834944
11
208.5158195843
21
350.1647834944
0
LINE
8
11000_LEFT
62
7
6
CONTINUOUS
10
423.7616835843
20
350.2053244944
11
424.9197065843
21
350.2053244944
0
LINE
8
11000_LEFT
62
7
6
CONTINUOUS
10
425.2824575843
20
350.2053244944
11
426.4404805843
21
350.2053244944
0
LINE
8
11000_LEFT
62
7
6
CONTINUOUS
10
420.3863025843
20
350.7487834944
11
420.2537645843
21
350.7487834944
0
LINE
8
10000_FRONT
62
7
6
CONTINUOUS
10
222.8130895843
20
352.1643334944
11
222.6369885843
21
352.1643334944
0
LINE
8
10000_FRONT
62
7
6
CONTINUOUS
10
222.8130895843
20
352.5643334944
11
222.0735245843
21
352.5643334944
0
LINE
8
10000_FRONT
62
7
6
CONTINUOUS
10
182.8130895843
20
352.5643334944
11
184.1685735843
21
352.5643334944
0
LINE
8
11000_LEFT
62
7
6
CONTINUOUS
10
316.9010815843
20
352.5643334944
11
422.9527515843
21
352.5643334944
0
LINE
8
10000_FRONT
62
7
6
CONTINUOUS
10
184.1685735843
20
352.6053244944
11
221.8136985843
21
352.6053244944
0
LINE
8
11000_LEFT
62
7
6
CONTINUOUS
10
425.1921145843
20
350.2118224944
11
425.1010815843
21
350.2139994944
0
LINE
8
11000_LEFT
62
7
6
CONTINUOUS
10
425.3010815843
20
352.6053244944
11
426.9359815843
21
352.5482324944
0
LINE
8
10000_FRONT
62
7
6
CONTINUOUS
10
184.4093575843
20
352.5662824944
11
184.6578335843
21
352.5482324944
0
LINE
8
10000_FRONT
62
7
6
CONTINUOUS
10
184.2449105843
20
352.5854714944
11
184.4093575843
21
352.5662824944
0
LINE
8
10000_FRONT
62
7
6
CONTINUOUS
10
221.8136985843
20
352.6053244944
11
222.1216295843
21
352.5567444944
0
LINE
8
90000_FRAME
62
7
6
CONTINUOUS
10
449.0000000000
20
10.0000000000
11
449.0000000000
21
28.0000000000
0
LINE
8
90000_FRAME
62
7
6
CONTINUOUS
10
458.8025840000
20
16.8918100000
11
458.8025840000
21
17.8424640000
0
LINE
8
90000_FRAME
62
7
6
CONTINUOUS
10
462.1298720000
20
20.5518270000
11
462.1298720000
21
21.5024810000
0
LINE
8
90000_FRAME
62
7
6
CONTINUOUS
10
463.2231240000
20
21.5500140000
11
463.2231240000
21
16.7967450000
0
LINE
8
90000_FRAME
62
7
6
CONTINUOUS
10
464.6491050000
20
21.5500140000
11
464.6491050000
21
16.7967450000
0
LINE
8
10000_FRONT
62
7
6
CONTINUOUS
10
216.2455495843
20
350.0458644944
11
216.0077115843
21
349.9864054944
0
LINE
8
10000_FRONT
62
7
6
CONTINUOUS
10
210.6563595843
20
348.9161344944
11
210.8941975843
21
348.9755944944
0
LINE
8
10000_FRONT
62
7
6
CONTINUOUS
10
210.7752785843
20
349.2134324944
11
210.5374405843
21
349.1539724944
0
LINE
8
10000_FRONT
62
7
6
CONTINUOUS
10
212.8563595843
20
350.0458644944
11
212.6185225843
21
349.9864054944
0
LINE
8
10000_FRONT
62
7
6
CONTINUOUS
10
208.6347385843
20
347.8458644944
11
208.9320355843
21
347.9053244944
0
LINE
8
10000_FRONT
62
7
6
CONTINUOUS
10
208.5158195843
20
350.1647834944
11
208.2185225843
21
350.1053244944
0
LINE
8
11000_LEFT
62
7
6
CONTINUOUS
10
425.2824575843
20
350.2053244944
11
425.1921145843
21
350.2118224944
0
LINE
8
11000_LEFT
62
7
6
CONTINUOUS
10
425.3010825843
20
351.8014184944
11
425.8076115843
21
351.7590574944
0
LINE
8
11000_LEFT
62
7
6
CONTINUOUS
10
425.8076115843
20
351.7590574944
11
426.3058545843
21
351.6687184944
0
LINE
8
11000_LEFT
62
7
6
CONTINUOUS
10
423.7616835843
20
350.2053244944
11
423.4056525843
21
351.5512144944
0
LINE
8
90000_FRAME
62
7
6
CONTINUOUS
10
465.7423560000
20
21.5500140000
11
465.7423560000
21
16.7967450000
0
LINE
8
90000_FRAME
62
7
6
CONTINUOUS
10
467.1208040000
20
20.6706590000
11
467.1208040000
21
19.6011730000
0
LINE
8
90000_FRAME
62
7
6
CONTINUOUS
10
467.1208040000
20
18.8168840000
11
467.1208040000
21
17.6998660000
0
LINE
8
90000_FRAME
62
7
6
CONTINUOUS
10
468.9745790000
20
19.6011730000
11
468.9745790000
21
18.8168840000
0
LINE
8
90000_FRAME
62
7
6
CONTINUOUS
10
469.2597760000
20
21.5500140000
11
469.2597760000
21
20.6706590000
0
LINE
8
90000_FRAME
62
7
6
CONTINUOUS
10
469.3073080000
20
17.6998660000
11
469.3073080000
21
16.7967450000
0
LINE
8
90000_FRAME
62
7
6
CONTINUOUS
10
470.1153640000
20
16.7967450000
11
470.1153640000
21
21.5500140000
0
LINE
8
90000_FRAME
62
7
6
CONTINUOUS
10
471.0660180000
20
16.7967450000
11
471.0660180000
21
19.8388370000
0
LINE
8
90000_FRAME
62
7
6
CONTINUOUS
10
474.5834370000
20
19.8863700000
11
474.5834370000
21
16.7967450000
0
LINE
8
90000_FRAME
62
7
6
CONTINUOUS
10
475.9618850000
20
21.5500140000
11
475.9618850000
21
16.7967450000
0
LINE
8
90000_FRAME
62
7
6
CONTINUOUS
10
477.0551370000
20
21.5500140000
11
477.0551370000
21
16.7967450000
0
LINE
8
90000_FRAME
62
7
6
CONTINUOUS
10
478.4335850000
20
20.6706590000
11
478.4335850000
21
19.6011730000
0
LINE
8
90000_FRAME
62
7
6
CONTINUOUS
10
478.4335850000
20
18.8168840000
11
478.4335850000
21
17.6998660000
0
LINE
8
90000_FRAME
62
7
6
CONTINUOUS
10
480.2873600000
20
19.6011730000
11
480.2873600000
21
18.8168840000
0
LINE
8
90000_FRAME
62
7
6
CONTINUOUS
10
480.5725560000
20
21.5500140000
11
480.5725560000
21
20.6706590000
0
LINE
8
90000_FRAME
62
7
6
CONTINUOUS
10
480.6200890000
20
17.6998660000
11
480.6200890000
21
16.7967450000
0
LINE
8
90000_FRAME
62
7
6
CONTINUOUS
10
481.4043780000
20
16.7967450000
11
481.4043780000
21
21.5500140000
0
LINE
8
90000_FRAME
62
7
6
CONTINUOUS
10
482.3550320000
20
16.7967450000
11
482.3550320000
21
19.8388370000
0
LINE
8
90000_FRAME
62
7
6
CONTINUOUS
10
484.6366010000
20
21.5500140000
11
484.6366010000
21
18.6029870000
0
LINE
8
90000_FRAME
62
7
6
CONTINUOUS
10
485.5872550000
20
21.5500140000
11
485.5872550000
21
16.7967450000
0
LINE
8
11000_LEFT
62
7
6
CONTINUOUS
10
426.3058545843
20
351.6687184944
11
426.7905685843
21
351.5287494944
0
LINE
8
11000_LEFT
62
7
6
CONTINUOUS
10
423.2840815843
20
349.8143334944
11
420.3863025843
21
350.7487834944
0
LINE
8
11000_LEFT
62
7
6
CONTINUOUS
10
421.2010815843
20
350.7053244944
11
423.0235195843
21
350.0553244944
0
LINE
8
90000_FRAME
62
7
6
CONTINUOUS
10
486.3953110000
20
16.8918100000
11
486.3953110000
21
17.8424640000
0
LINE
8
90000_FRAME
62
7
6
CONTINUOUS
10
489.7225990000
20
20.5518270000
11
489.7225990000
21
21.5024810000
0
LINE
8
90000_FRAME
62
7
6
CONTINUOUS
10
499.0000000000
20
10.0000000000
11
499.0000000000
21
28.0000000000
0
LINE
8
90000_FRAME
62
7
6
CONTINUOUS
10
589.0000000000
20
415.0000000000
11
5.0000000000
21
415.0000000000
0
LINE
8
90000_FRAME
62
7
6
CONTINUOUS
10
0.0000000000
20
420.0000000000
11
594.0000000000
21
420.0000000000
0
LINE
8
90000_FRAME
62
7
6
CONTINUOUS
10
541.5000000000
20
10.0000000000
11
541.5000000000
21
16.0000000000
0
LINE
8
90000_FRAME
62
7
6
CONTINUOUS
10
474.2507080000
20
21.5500140000
11
473.0623910000
21
18.6505200000
0
LINE
8
90000_FRAME
62
7
6
CONTINUOUS
10
474.5834370000
20
19.8863700000
11
473.2525220000
21
16.7492120000
0
LINE
8
90000_FRAME
62
7
6
CONTINUOUS
10
458.9944120000
20
20.9692080000
11
459.2684780000
21
21.2432810000
0
LINE
8
90000_FRAME
62
7
6
CONTINUOUS
10
584.0000000000
20
10.0000000000
11
584.0000000000
21
28.0000000000
0
LINE
8
90000_FRAME
62
7
6
CONTINUOUS
10
589.0000000000
20
5.0000000000
11
589.0000000000
21
415.0000000000
0
LINE
8
90000_FRAME
62
7
6
CONTINUOUS
10
594.0000000000
20
0.0000000000
11
594.0000000000
21
420.0000000000
0
ARC
8
90000_FRAME
62
7
6
CONTINUOUS
10
488.0999520000
20
18.7539030000
40
1.1116190000
50
277.7100060000
51
295.6884730000
0
ARC
8
90000_FRAME
62
7
6
CONTINUOUS
10
488.3842620000
20
18.0290770000
40
0.3401680000
50
305.5031970000
51
72.4653440000
0
ARC
8
90000_FRAME
62
7
6
CONTINUOUS
10
487.8182680000
20
21.4307840000
40
4.7567940000
50
252.5939220000
51
280.9816540000
0
ARC
8
90000_FRAME
62
7
6
CONTINUOUS
10
488.2731030000
20
18.8127710000
40
2.1007270000
50
282.4058280000
51
311.8644320000
0
ARC
8
90000_FRAME
62
7
6
CONTINUOUS
10
487.9995390000
20
20.4211120000
40
0.3029630000
50
154.4400200000
51
221.8202140000
0
ARC
8
90000_FRAME
62
7
6
CONTINUOUS
10
488.0787600000
20
20.3418910000
40
0.4103090000
50
102.8287330000
51
149.2259610000
0
ARC
8
90000_FRAME
62
7
6
CONTINUOUS
10
488.4957870000
20
18.5995560000
40
2.2018370000
50
84.0400210000
51
103.3427630000
0
ARC
8
90000_FRAME
62
7
6
CONTINUOUS
10
488.1548230000
20
16.1821920000
40
4.6423730000
50
70.2625830000
51
82.9524240000
0
ARC
8
90000_FRAME
62
7
6
CONTINUOUS
10
487.6408050000
20
20.8538150000
40
3.2587560000
50
247.5300250000
51
280.7579570000
0
ARC
8
90000_FRAME
62
7
6
CONTINUOUS
10
481.2558380000
20
2.6022950000
40
17.3316080000
50
65.3414660000
51
67.3997750000
0
ARC
8
90000_FRAME
62
7
6
CONTINUOUS
10
492.0517010000
20
28.3947210000
40
10.6291640000
50
242.8620060000
51
247.1042030000
0
ARC
8
90000_FRAME
62
7
6
CONTINUOUS
10
488.1968000000
20
20.8607900000
40
2.1662920000
50
227.3119090000
51
242.7040140000
0
ARC
8
90000_FRAME
62
7
6
CONTINUOUS
10
487.5927690000
20
20.1551120000
40
1.2385220000
50
194.7952120000
51
225.7176170000
0
ARC
8
90000_FRAME
62
7
6
CONTINUOUS
10
487.6549270000
20
20.1953320000
40
1.3090920000
50
164.1974900000
51
195.8025100000
0
ARC
8
90000_FRAME
62
7
6
CONTINUOUS
10
488.2119510000
20
19.3070650000
40
2.3669240000
50
86.2218170000
51
120.4272580000
0
ARC
8
90000_FRAME
62
7
6
CONTINUOUS
10
487.9430940000
20
12.6108970000
40
9.0679050000
50
78.6827060000
51
87.3147630000
0
ARC
8
90000_FRAME
62
7
6
CONTINUOUS
10
487.4870250000
20
20.3028400000
40
1.1197470000
50
142.8139510000
51
167.1523150000
0
ARC
8
90000_FRAME
62
7
6
CONTINUOUS
10
487.8323340000
20
19.9962580000
40
1.5805470000
50
121.2140760000
51
141.5254840000
0
ARC
8
90000_FRAME
62
7
6
CONTINUOUS
10
488.4095080000
20
20.8073150000
40
0.8661270000
50
222.7760700000
51
239.0362320000
0
ARC
8
90000_FRAME
62
7
6
CONTINUOUS
10
485.9027990000
20
13.4770430000
40
6.8587740000
50
59.9020340000
51
68.2036510000
0
ARC
8
90000_FRAME
62
7
6
CONTINUOUS
10
489.3112930000
20
22.4029300000
40
2.6987410000
50
240.0482020000
51
251.3779740000
0
ARC
8
90000_FRAME
62
7
6
CONTINUOUS
10
488.6458360000
20
18.2460310000
40
1.4334470000
50
315.8904490000
51
333.5229140000
0
ARC
8
90000_FRAME
62
7
6
CONTINUOUS
10
488.6504740000
20
18.1926240000
40
1.4062290000
50
335.3867830000
51
24.3915200000
0
ARC
8
90000_FRAME
62
7
6
CONTINUOUS
10
488.5782690000
20
18.1147670000
40
1.5047030000
50
25.9563070000
51
59.4834940000
0
ARC
8
90000_FRAME
62
7
6
CONTINUOUS
10
460.5072250000
20
18.7539030000
40
1.1116190000
50
277.7100060000
51
295.6884730000
0
ARC
8
90000_FRAME
62
7
6
CONTINUOUS
10
460.7915350000
20
18.0290770000
40
0.3401680000
50
305.5031970000
51
72.4653440000
0
ARC
8
90000_FRAME
62
7
6
CONTINUOUS
10
460.2255410000
20
21.4307840000
40
4.7567940000
50
252.5939220000
51
280.9816540000
0
ARC
8
90000_FRAME
62
7
6
CONTINUOUS
10
460.6803760000
20
18.8127710000
40
2.1007270000
50
282.4058280000
51
311.8644320000
0
ARC
8
90000_FRAME
62
7
6
CONTINUOUS
10
460.4068120000
20
20.4211120000
40
0.3029630000
50
154.4400200000
51
221.8202140000
0
ARC
8
90000_FRAME
62
7
6
CONTINUOUS
10
460.4860330000
20
20.3418910000
40
0.4103090000
50
102.8287330000
51
149.2259610000
0
ARC
8
90000_FRAME
62
7
6
CONTINUOUS
10
460.9030600000
20
18.5995560000
40
2.2018370000
50
84.0400210000
51
103.3427630000
0
ARC
8
90000_FRAME
62
7
6
CONTINUOUS
10
460.5620960000
20
16.1821920000
40
4.6423730000
50
70.2625830000
51
82.9524240000
0
ARC
8
90000_FRAME
62
7
6
CONTINUOUS
10
460.0480780000
20
20.8538150000
40
3.2587560000
50
247.5300250000
51
280.7579570000
0
ARC
8
90000_FRAME
62
7
6
CONTINUOUS
10
453.6631110000
20
2.6022950000
40
17.3316080000
50
65.3414660000
51
67.3997750000
0
ARC
8
90000_FRAME
62
7
6
CONTINUOUS
10
464.4589740000
20
28.3947210000
40
10.6291640000
50
242.8620060000
51
247.1042030000
0
ARC
8
90000_FRAME
62
7
6
CONTINUOUS
10
460.6040730000
20
20.8607900000
40
2.1662920000
50
227.3119090000
51
242.7040140000
0
ARC
8
90000_FRAME
62
7
6
CONTINUOUS
10
460.0000420000
20
20.1551120000
40
1.2385220000
50
194.7952120000
51
225.7176170000
0
ARC
8
90000_FRAME
62
7
6
CONTINUOUS
10
460.6192240000
20
19.3070650000
40
2.3669240000
50
86.2218170000
51
120.4272580000
0
ARC
8
90000_FRAME
62
7
6
CONTINUOUS
10
460.3503670000
20
12.6108970000
40
9.0679050000
50
78.6827060000
51
87.3147630000
0
ARC
8
90000_FRAME
62
7
6
CONTINUOUS
10
460.2396070000
20
19.9962580000
40
1.5805470000
50
121.2140760000
51
141.5254840000
0
ARC
8
90000_FRAME
62
7
6
CONTINUOUS
10
460.8167810000
20
20.8073150000
40
0.8661270000
50
222.7760700000
51
239.0362320000
0
ARC
8
90000_FRAME
62
7
6
CONTINUOUS
10
458.3100720000
20
13.4770430000
40
6.8587740000
50
59.9020340000
51
68.2036510000
0
ARC
8
90000_FRAME
62
7
6
CONTINUOUS
10
461.7185660000
20
22.4029300000
40
2.6987410000
50
240.0482020000
51
251.3779740000
0
ARC
8
90000_FRAME
62
7
6
CONTINUOUS
10
461.0531090000
20
18.2460310000
40
1.4334470000
50
315.8904490000
51
333.5229140000
0
ARC
8
90000_FRAME
62
7
6
CONTINUOUS
10
461.0577470000
20
18.1926240000
40
1.4062290000
50
335.3867830000
51
24.3915200000
0
ARC
8
90000_FRAME
62
7
6
CONTINUOUS
10
460.9855420000
20
18.1147670000
40
1.5047030000
50
25.9563070000
51
59.4834940000
0
ARC
8
90000_FRAME
62
7
6
CONTINUOUS
10
460.0622000000
20
20.1953320000
40
1.3090920000
50
164.1974900000
51
195.8025100000
0
ARC
8
90000_FRAME
62
7
6
CONTINUOUS
10
459.8942980000
20
20.3028400000
40
1.1197470000
50
142.8139510000
51
167.1523150000
0
CIRCLE
8
10000_FRONT
62
7
6
CONTINUOUS
10
189.4716155843
20
234.6624154944
40
0.6500000000
0
ARC
8
10000_FRONT
62
7
6
CONTINUOUS
10
183.8130895843
20
351.5643334944
40
1.0000000000
50
90.0000000000
51
180.0000000000
0
ARC
8
10000_FRONT
62
7
6
CONTINUOUS
10
221.8130895843
20
228.5643334944
40
1.0000000000
50
270.0000000000
51
360.0000000000
0
ARC
8
10000_FRONT
62
7
6
CONTINUOUS
10
183.8130895843
20
228.5643334944
40
1.0000000000
50
180.0000000000
51
268.6000100000
0
ARC
8
11000_LEFT
62
7
6
CONTINUOUS
10
426.9010815843
20
351.5488414944
40
1.0000000000
50
0.0000000000
51
87.9999720000
0
ARC
8
11000_LEFT
62
7
6
CONTINUOUS
10
328.7010815843
20
257.3488194944
40
2.5000000000
50
285.0000120000
51
360.0000000000
0
ARC
8
11000_LEFT
62
7
6
CONTINUOUS
10
328.7010815843
20
274.5198474944
40
2.5000000000
50
0.0000000000
51
74.9999940000
0
ARC
8
11000_LEFT
62
7
6
CONTINUOUS
10
321.5010815843
20
348.0643334944
40
1.5000000000
50
0.0000000000
51
90.0000000000
0
ARC
8
11000_LEFT
62
7
6
CONTINUOUS
10
320.9010815843
20
348.0643334944
40
1.5000000000
50
90.0000000000
51
180.0000000000
0
ARC
8
11000_LEFT
62
7
6
CONTINUOUS
10
319.5742865843
20
334.0643334944
40
0.3000000000
50
90.0000000000
51
149.9999410000
0
ARC
8
11000_LEFT
62
7
6
CONTINUOUS
10
316.9010815843
20
352.0643334944
40
0.5000000000
50
90.0000000000
51
180.0000000000
0
ARC
8
11000_LEFT
62
7
6
CONTINUOUS
10
313.0010815843
20
327.4643334944
40
2.0000000000
50
90.0000000000
51
180.0000000000
0
ARC
8
11000_LEFT
62
7
6
CONTINUOUS
10
313.0010815843
20
305.0643334944
40
2.0000000000
50
180.0000000000
51
270.0000000000
0
ARC
8
11000_LEFT
62
7
6
CONTINUOUS
10
319.1510815843
20
347.8143334944
40
0.2500000000
50
270.0000000000
51
360.0000000000
0
ARC
8
11000_LEFT
62
7
6
CONTINUOUS
10
316.9010815843
20
348.0643334944
40
0.5000000000
50
180.0000000000
51
270.0000000000
0
ARC
8
13000_TOP
62
7
6
CONTINUOUS
10
187.8130895843
20
53.1987174944
40
3.6500000000
50
183.1410680000
51
230.0962590000
0
ARC
8
13000_TOP
62
7
6
CONTINUOUS
10
188.0627145843
20
53.2124154944
40
3.9000010000
50
94.8036470000
51
183.1410590000
0
ARC
8
13000_TOP
62
7
6
CONTINUOUS
10
218.4630895843
20
56.0289824944
40
2.0000000000
50
325.5885020000
51
41.8682500000
0
ARC
8
13000_TOP
62
7
6
CONTINUOUS
10
204.3130895843
20
55.4987174944
40
2.4999990000
50
190.3697620000
51
270.0000000000
0
ARC
8
13000_TOP
62
7
6
CONTINUOUS
10
199.3947565843
20
54.5987174944
40
2.5000000000
50
10.3697580000
51
90.0000000000
0
ARC
8
13000_TOP
62
7
6
CONTINUOUS
10
221.7566065843
20
51.3987174944
40
1.0000000000
50
270.0000000000
51
357.9999720000
0
ARC
8
13000_TOP
62
7
6
CONTINUOUS
10
183.8130895843
20
51.3987174944
40
1.0000000000
50
180.0000000000
51
270.0000000000
0
ARC
8
13000_TOP
62
7
6
CONTINUOUS
10
204.2940955843
20
55.3987174944
40
2.1019990000
50
204.9039740000
51
270.0000000000
0
ARC
8
13000_TOP
62
7
6
CONTINUOUS
10
200.8630895843
20
94.2800884944
40
0.3000000000
50
90.0000000000
51
180.0000000000
0
ARC
8
13000_TOP
62
7
6
CONTINUOUS
10
204.7630895843
20
94.2800884944
40
0.3000000000
50
0.0000000000
51
90.0000000000
0
ARC
8
13000_TOP
62
7
6
CONTINUOUS
10
193.7130895843
20
95.1987174944
40
0.2000000000
50
180.0000000000
51
270.0000000000
0
ARC
8
13000_TOP
62
7
6
CONTINUOUS
10
193.7130895843
20
96.7987174944
40
0.2000000000
50
90.0000000000
51
180.0000000000
0
ARC
8
13000_TOP
62
7
6
CONTINUOUS
10
197.8130895843
20
95.1987174944
40
0.2000000000
50
270.0000000000
51
360.0000000000
0
ARC
8
13000_TOP
62
7
6
CONTINUOUS
10
197.8130895843
20
96.7987174944
40
0.2000000000
50
0.0000000000
51
90.0000000000
0
ARC
8
13000_TOP
62
7
6
CONTINUOUS
10
211.9130895843
20
95.1987174944
40
0.2000000000
50
270.0000000000
51
360.0000000000
0
ARC
8
13000_TOP
62
7
6
CONTINUOUS
10
211.9130895843
20
96.7987174944
40
0.2000000000
50
0.0000000000
51
90.0000000000
0
ARC
8
13000_TOP
62
7
6
CONTINUOUS
10
207.8130895843
20
95.1987174944
40
0.2000000000
50
180.0000000000
51
270.0000000000
0
ARC
8
13000_TOP
62
7
6
CONTINUOUS
10
207.8130895843
20
96.7987174944
40
0.2000000000
50
90.0000000000
51
180.0000000000
0
ARC
8
13000_TOP
62
7
6
CONTINUOUS
10
184.8130895843
20
165.2987174944
40
2.0000000000
50
90.0000000000
51
180.0000000000
0
CIRCLE
8
91000_TIP
62
7
6
CONTINUOUS
10
436.9356580000
20
18.8638180000
40
5.0000000000
0
CIRCLE
8
91000_TIP
62
7
6
CONTINUOUS
10
436.9356580000
20
18.8638180000
40
2.5000000000
0
ENDSEC
0
EOF
